  0
SECTION
  2
HEADER
  9
$ACADVER
  1
AC1018
  9
$ACADMAINTVER
 70
     0
  9
$DWGCODEPAGE
  3
ANSI_1252
  9
$LASTSAVEDBY
  1
BelottiMc
  9
$INSBASE
 10
0.0
 20
0.0
 30
0.0
  9
$EXTMIN
 10
131.120209
 20
132.99513033
 30
0.0
  9
$EXTMAX
 10
740.2864468611667
 20
555.9128405199999
 30
0.0
  9
$LIMMIN
 10
0.0
 20
0.0
  9
$LIMMAX
 10
1.0
 20
1.0
  9
$ORTHOMODE
 70
     0
  9
$REGENMODE
 70
     1
  9
$FILLMODE
 70
     1
  9
$QTEXTMODE
 70
     0
  9
$MIRRTEXT
 70
     1
  9
$LTSCALE
 40
1.0
  9
$ATTMODE
 70
     1
  9
$TEXTSIZE
 40
0.2
  9
$TRACEWID
 40
0.05
  9
$TEXTSTYLE
  7
Standard
  9
$CLAYER
  8
0
  9
$CELTYPE
  6
ByLayer
  9
$CECOLOR
 62
   256
  9
$CELTSCALE
 40
1.0
  9
$DISPSILH
 70
     0
  9
$DIMSCALE
 40
1.0
  9
$DIMASZ
 40
2.5
  9
$DIMEXO
 40
0.625
  9
$DIMDLI
 40
0.38
  9
$DIMRND
 40
0.0
  9
$DIMDLE
 40
0.0
  9
$DIMEXE
 40
1.25
  9
$DIMTP
 40
1.0
  9
$DIMTM
 40
1.0
  9
$DIMTXT
 40
2.5
  9
$DIMCEN
 40
0.09
  9
$DIMTSZ
 40
0.0
  9
$DIMTOL
 70
     0
  9
$DIMLIM
 70
     0
  9
$DIMTIH
 70
     0
  9
$DIMTOH
 70
     1
  9
$DIMSE1
 70
     0
  9
$DIMSE2
 70
     0
  9
$DIMTAD
 70
     0
  9
$DIMZIN
 70
     8
  9
$DIMBLK
  1
VDDIM_DEFAULT
  9
$DIMASO
 70
     1
  9
$DIMSHO
 70
     1
  9
$DIMPOST
  1

  9
$DIMAPOST
  1

  9
$DIMALT
 70
     0
  9
$DIMALTD
 70
     2
  9
$DIMALTF
 40
25.4
  9
$DIMLFAC
 40
1.0
  9
$DIMTOFL
 70
     0
  9
$DIMTVP
 40
0.0
  9
$DIMTIX
 70
     0
  9
$DIMSOXD
 70
     0
  9
$DIMSAH
 70
     0
  9
$DIMBLK1
  1

  9
$DIMBLK2
  1

  9
$DIMSTYLE
  2
Standard
  9
$DIMCLRD
 70
     7
  9
$DIMCLRE
 70
     7
  9
$DIMCLRT
 70
     0
  9
$DIMTFAC
 40
1.0
  9
$DIMGAP
 40
0.09
  9
$DIMJUST
 70
     0
  9
$DIMSD1
 70
     0
  9
$DIMSD2
 70
     0
  9
$DIMTOLJ
 70
     1
  9
$DIMTZIN
 70
     0
  9
$DIMALTZ
 70
     0
  9
$DIMALTTZ
 70
     0
  9
$DIMUPT
 70
     0
  9
$DIMDEC
 70
     4
  9
$DIMTDEC
 70
     4
  9
$DIMALTU
 70
     2
  9
$DIMALTTD
 70
     2
  9
$DIMTXSTY
  7
Standard
  9
$DIMAUNIT
 70
     0
  9
$DIMADEC
 70
     0
  9
$DIMALTRND
 40
0.0
  9
$DIMAZIN
 70
     0
  9
$DIMDSEP
 70
    46
  9
$DIMATFIT
 70
     3
  9
$DIMFRAC
 70
     0
  9
$DIMLDRBLK
  1

  9
$DIMLUNIT
 70
     2
  9
$DIMLWD
 70
    -2
  9
$DIMLWE
 70
    -2
  9
$DIMTMOVE
 70
     0
  9
$LUNITS
 70
     2
  9
$LUPREC
 70
     4
  9
$SKETCHINC
 40
0.1
  9
$FILLETRAD
 40
0.5
  9
$AUNITS
 70
     0
  9
$AUPREC
 70
     0
  9
$MENU
  1
.
  9
$ELEVATION
 40
0.0
  9
$PELEVATION
 40
0.0
  9
$THICKNESS
 40
0.0
  9
$LIMCHECK
 70
     0
  9
$CHAMFERA
 40
0.5
  9
$CHAMFERB
 40
0.5
  9
$CHAMFERC
 40
1.0
  9
$CHAMFERD
 40
0.0
  9
$SKPOLY
 70
     0
  9
$TDCREATE
 40
2447893.083333333
  9
$TDUCREATE
 40
2447893.0
  9
$TDUPDATE
 40
2447893.083333333
  9
$TDUUPDATE
 40
2447893.0
  9
$TDINDWG
 40
0.0020022917
  9
$TDUSRTIMER
 40
0.0019559954
  9
$USRTIMER
 70
     1
  9
$ANGBASE
 50
0.0
  9
$ANGDIR
 70
     0
  9
$PDMODE
 70
     0
  9
$PDSIZE
 40
0.0
  9
$PLINEWID
 40
0.0
  9
$SPLFRAME
 70
     0
  9
$SPLINETYPE
 70
     6
  9
$SPLINESEGS
 70
     8
  9
$HANDSEED
  5
1AB8
  9
$SURFTAB1
 70
     6
  9
$SURFTAB2
 70
     6
  9
$SURFTYPE
 70
     6
  9
$SURFU
 70
     6
  9
$SURFV
 70
     6
  9
$UCSBASE
  2

  9
$UCSNAME
  2

  9
$UCSORG
 10
0.0
 20
0.0
 30
0.0
  9
$UCSXDIR
 10
1.0
 20
0.0
 30
0.0
  9
$UCSYDIR
 10
0.0
 20
1.0
 30
0.0
  9
$UCSORTHOREF
  2

  9
$UCSORTHOVIEW
 70
     0
  9
$UCSORGTOP
 10
0.0
 20
0.0
 30
0.0
  9
$UCSORGBOTTOM
 10
0.0
 20
0.0
 30
0.0
  9
$UCSORGLEFT
 10
0.0
 20
0.0
 30
0.0
  9
$UCSORGRIGHT
 10
0.0
 20
0.0
 30
0.0
  9
$UCSORGFRONT
 10
0.0
 20
0.0
 30
0.0
  9
$UCSORGBACK
 10
0.0
 20
0.0
 30
0.0
  9
$PUCSBASE
  2

  9
$PUCSNAME
  2

  9
$PUCSORG
 10
0.0
 20
0.0
 30
0.0
  9
$PUCSXDIR
 10
1.0
 20
0.0
 30
0.0
  9
$PUCSYDIR
 10
0.0
 20
1.0
 30
0.0
  9
$PUCSORTHOREF
  2

  9
$PUCSORTHOVIEW
 70
     0
  9
$PUCSORGTOP
 10
0.0
 20
0.0
 30
0.0
  9
$PUCSORGBOTTOM
 10
0.0
 20
0.0
 30
0.0
  9
$PUCSORGLEFT
 10
0.0
 20
0.0
 30
0.0
  9
$PUCSORGRIGHT
 10
0.0
 20
0.0
 30
0.0
  9
$PUCSORGFRONT
 10
0.0
 20
0.0
 30
0.0
  9
$PUCSORGBACK
 10
0.0
 20
0.0
 30
0.0
  9
$USERI1
 70
     0
  9
$USERI2
 70
     0
  9
$USERI3
 70
     0
  9
$USERI4
 70
     0
  9
$USERI5
 70
     0
  9
$USERR1
 40
0.0
  9
$USERR2
 40
0.0
  9
$USERR3
 40
0.0
  9
$USERR4
 40
0.0
  9
$USERR5
 40
0.0
  9
$WORLDVIEW
 70
     1
  9
$SHADEDGE
 70
     3
  9
$SHADEDIF
 70
    70
  9
$TILEMODE
 70
     1
  9
$MAXACTVP
 70
    64
  9
$PINSBASE
 10
0.0
 20
0.0
 30
0.0
  9
$PLIMCHECK
 70
     0
  9
$PEXTMIN
 10
1.000000000000000E+20
 20
1.000000000000000E+20
 30
1.000000000000000E+20
  9
$PEXTMAX
 10
-1.000000000000000E+20
 20
-1.000000000000000E+20
 30
-1.000000000000000E+20
  9
$PLIMMIN
 10
0.0
 20
0.0
  9
$PLIMMAX
 10
12.0
 20
9.0
  9
$UNITMODE
 70
     0
  9
$VISRETAIN
 70
     1
  9
$PLINEGEN
 70
     0
  9
$PSLTSCALE
 70
     1
  9
$TREEDEPTH
 70
  3020
  9
$CMLSTYLE
  2
Standard
  9
$CMLJUST
 70
     0
  9
$CMLSCALE
 40
1.0
  9
$PROXYGRAPHICS
 70
     1
  9
$MEASUREMENT
 70
     1
  9
$CELWEIGHT
370
    -1
  9
$ENDCAPS
280
     0
  9
$JOINSTYLE
280
     0
  9
$LWDISPLAY
290
     0
  9
$INSUNITS
 70
     0
  9
$HYPERLINKBASE
  1

  9
$STYLESHEET
  1

  9
$XEDIT
290
     1
  9
$CEPSNTYPE
380
     0
  9
$PSTYLEMODE
290
     1
  9
$FINGERPRINTGUID
  2
{DD08BEF5-C79E-48A3-9090-CD22927C8500}
  9
$VERSIONGUID
  2
{FAEB1C32-E019-11D5-929B-00C0DF256EC4}
  9
$EXTNAMES
290
     1
  9
$PSVPSCALE
 40
0.0
  9
$OLESTARTUP
290
     0
  9
$SORTENTS
280
   127
  9
$INDEXCTL
280
     0
  9
$HIDETEXT
280
     1
  9
$XCLIPFRAME
290
     0
  9
$HALOGAP
280
     0
  9
$OBSCOLOR
 70
   257
  9
$OBSLTYPE
280
     0
  9
$INTERSECTIONDISPLAY
280
     0
  9
$INTERSECTIONCOLOR
 70
   257
  9
$DIMASSOC
280
     2
  9
$PROJECTNAME
  1

  0
ENDSEC
  0
SECTION
  2
CLASSES
  0
CLASS
  1
ACDBDICTIONARYWDFLT
  2
AcDbDictionaryWithDefault
  3
ObjectDBX Classes
 90
        0
 91
        4
280
     0
281
     0
  0
CLASS
  1
ACDBPLACEHOLDER
  2
AcDbPlaceHolder
  3
ObjectDBX Classes
 90
        0
 91
        1
280
     0
281
     0
  0
CLASS
  1
LAYOUT
  2
AcDbLayout
  3
ObjectDBX Classes
 90
        0
 91
        1
280
     0
281
     0
  0
CLASS
  1
DICTIONARYVAR
  2
AcDbDictionaryVar
  3
ObjectDBX Classes
 90
        0
 91
        4
280
     0
281
     0
  0
CLASS
  1
TABLESTYLE
  2
AcDbTableStyle
  3
ObjectDBX Classes
 90
     4095
 91
        6
280
     0
281
     0
  0
CLASS
  1
SCALE
  2
AcDbScale
  3
ObjectDBX Classes
 90
     1153
 91
       70
280
     0
281
     0
  0
ENDSEC
  0
SECTION
  2
TABLES
  0
TABLE
  2
VPORT
  5
8
330
0
100
AcDbSymbolTable
 70
     2
  0
VPORT
  5
97
330
8
100
AcDbSymbolTableRecord
100
AcDbViewportTableRecord
  2
*Active
 70
     0
 10
0.0
 20
0.0
 11
1.0
 21
1.0
 12
494.6346323041666
 22
384.329507294
 13
0.0
 23
0.0
 14
1.0
 24
1.0
 15
1.0
 25
1.0
 16
0.0
 26
0.0
 36
1.0
 17
0.0
 27
0.0
 37
0.0
 40
720.37319604
 41
1.0
 42
50.0
 43
0.0
 44
0.0
 50
0.0
 51
0.0
 71
     0
 72
   100
 73
     1
 74
     3
 75
     0
 76
     0
 77
     0
 78
     0
281
     0
 65
     1
110
0.0
120
0.0
130
0.0
111
1.0
121
0.0
131
0.0
112
0.0
122
1.0
132
0.0
 79
     0
146
0.0
  0
ENDTAB
  0
TABLE
  2
LTYPE
  5
5
330
0
100
AcDbSymbolTable
 70
    30
  0
LTYPE
  5
14
330
5
100
AcDbSymbolTableRecord
100
AcDbLinetypeTableRecord
  2
ByBlock
 70
     0
  3
BYBLOCK________________________________________
 72
    65
 73
     0
 40
0.0
  0
LTYPE
  5
15
330
5
100
AcDbSymbolTableRecord
100
AcDbLinetypeTableRecord
  2
ByLayer
 70
     0
  3
BYLAYER________________________________________
 72
    65
 73
     0
 40
0.0
  0
LTYPE
  5
16
330
5
100
AcDbSymbolTableRecord
100
AcDbLinetypeTableRecord
  2
Continuous
 70
     0
  3
Solid line
 72
    65
 73
     0
 40
0.0
  0
LTYPE
  5
18A2
330
5
100
AcDbSymbolTableRecord
100
AcDbLinetypeTableRecord
  2
DASHDOT
 70
     0
  3
 __ . __ . __ . __ . __ . __ . __ . 
 72
    65
 73
     4
 40
18.5
 49
12.0
 74
     0
 49
-3.0
 74
     0
 49
0.5
 74
     0
 49
-3.0
 74
     0
  0
LTYPE
  5
18A3
330
5
100
AcDbSymbolTableRecord
100
AcDbLinetypeTableRecord
  2
CENTER
 70
     0
  3
Center ____ _ ____ _ ____ _ ____ _ ____ _ ____
 72
    65
 73
     4
 40
2.0
 49
1.25
 74
     0
 49
-0.25
 74
     0
 49
0.25
 74
     0
 49
-0.25
 74
     0
  0
LTYPE
  5
18A4
330
5
100
AcDbSymbolTableRecord
100
AcDbLinetypeTableRecord
  2
DASHED
 70
     0
  3
Dashed __ __ __ __ __ __ __ __ __ __ __ __ __ _
 72
    65
 73
     2
 40
0.75
 49
0.5
 74
     0
 49
-0.25
 74
     0
  0
LTYPE
  5
18A5
330
5
100
AcDbSymbolTableRecord
100
AcDbLinetypeTableRecord
  2
HIDDEN
 70
     0
  3
Hidden __ __ __ __ __ __ __ __ __ __ __ __ __ __
 72
    65
 73
     2
 40
0.375
 49
0.25
 74
     0
 49
-0.125
 74
     0
  0
LTYPE
  5
18A6
330
5
100
AcDbSymbolTableRecord
100
AcDbLinetypeTableRecord
  2
HIDDEN2
 70
     0
  3
Hidden2 _ _ _ _ _ _ _ _ _ _ _ _ _ _ _ _ _ 
 72
    65
 73
     2
 40
0.1875
 49
0.125
 74
     0
 49
-0.0625
 74
     0
  0
LTYPE
  5
18A7
330
5
100
AcDbSymbolTableRecord
100
AcDbLinetypeTableRecord
  2
BORDER
 70
     0
  3
Border __ __ . __ __ . __ __ . __ __ . __ __ .
 72
    65
 73
     6
 40
1.75
 49
0.5
 74
     0
 49
-0.25
 74
     0
 49
0.5
 74
     0
 49
-0.25
 74
     0
 49
0.0
 74
     0
 49
-0.25
 74
     0
  0
LTYPE
  5
18A8
330
5
100
AcDbSymbolTableRecord
100
AcDbLinetypeTableRecord
  2
BORDER2
 70
     0
  3
Border2 __.__.__.__.__.__.__.__.__.__.__.
 72
    65
 73
     6
 40
0.875
 49
0.25
 74
     0
 49
-0.125
 74
     0
 49
0.25
 74
     0
 49
-0.125
 74
     0
 49
0.0
 74
     0
 49
-0.125
 74
     0
  0
LTYPE
  5
18A9
330
5
100
AcDbSymbolTableRecord
100
AcDbLinetypeTableRecord
  2
BORDERX2
 70
     0
  3
Borderx2  ____  ____  .  ____  ____  .  ___
 72
    65
 73
     6
 40
3.5
 49
1.0
 74
     0
 49
-0.5
 74
     0
 49
1.0
 74
     0
 49
-0.5
 74
     0
 49
0.0
 74
     0
 49
-0.5
 74
     0
  0
LTYPE
  5
18AA
330
5
100
AcDbSymbolTableRecord
100
AcDbLinetypeTableRecord
  2
CENTER2
 70
     0
  3
Center2  ___ _ ___ _ ___ _ ___ _ ___ _ ___
 72
    65
 73
     4
 40
1.125
 49
0.75
 74
     0
 49
-0.125
 74
     0
 49
0.125
 74
     0
 49
-0.125
 74
     0
  0
LTYPE
  5
18AB
330
5
100
AcDbSymbolTableRecord
100
AcDbLinetypeTableRecord
  2
CENTERX2
 70
     0
  3
Centerx2  ________  __  ________  __  _____
 72
    65
 73
     4
 40
4.0
 49
2.5
 74
     0
 49
-0.5
 74
     0
 49
0.5
 74
     0
 49
-0.5
 74
     0
  0
LTYPE
  5
18AC
330
5
100
AcDbSymbolTableRecord
100
AcDbLinetypeTableRecord
  2
DASHDOT2
 70
     0
  3
Dashdot2  _._._._._._._._._._._._._._._.
 72
    65
 73
     4
 40
0.5
 49
0.25
 74
     0
 49
-0.125
 74
     0
 49
0.0
 74
     0
 49
-0.125
 74
     0
  0
LTYPE
  5
18AD
330
5
100
AcDbSymbolTableRecord
100
AcDbLinetypeTableRecord
  2
DASHDOTX2
 70
     0
  3
Dashdotx2 ____  .  ____  .  ____  .  ___
 72
    65
 73
     4
 40
2.0
 49
1.0
 74
     0
 49
-0.5
 74
     0
 49
0.0
 74
     0
 49
-0.5
 74
     0
  0
LTYPE
  5
18AE
330
5
100
AcDbSymbolTableRecord
100
AcDbLinetypeTableRecord
  2
DASHED2
 70
     0
  3
Dashed2 _ _ _ _ _ _ _ _ _ _ _ _ _ _ _ _ _ 
 72
    65
 73
     2
 40
0.375
 49
0.25
 74
     0
 49
-0.125
 74
     0
  0
LTYPE
  5
18AF
330
5
100
AcDbSymbolTableRecord
100
AcDbLinetypeTableRecord
  2
DASHEDX2
 70
     0
  3
Dashedx2 ____  ____  ____  ____  ____  ___
 72
    65
 73
     2
 40
1.5
 49
1.0
 74
     0
 49
-0.5
 74
     0
  0
LTYPE
  5
18B0
330
5
100
AcDbSymbolTableRecord
100
AcDbLinetypeTableRecord
  2
DIVIDE
 70
     0
  3
Divide ____ . . ____ . . ____ . . ____ . . ____
 72
    65
 73
     6
 40
1.25
 49
0.5
 74
     0
 49
-0.25
 74
     0
 49
0.0
 74
     0
 49
-0.25
 74
     0
 49
0.0
 74
     0
 49
-0.25
 74
     0
  0
LTYPE
  5
18B1
330
5
100
AcDbSymbolTableRecord
100
AcDbLinetypeTableRecord
  2
DIVIDE2
 70
     0
  3
Divide2 __..__..__..__..__..__..__..__.._
 72
    65
 73
     6
 40
0.625
 49
0.25
 74
     0
 49
-0.125
 74
     0
 49
0.0
 74
     0
 49
-0.125
 74
     0
 49
0.0
 74
     0
 49
-0.125
 74
     0
  0
LTYPE
  5
18B2
330
5
100
AcDbSymbolTableRecord
100
AcDbLinetypeTableRecord
  2
DIVIDEX2
 70
     0
  3
Dividex2 ________  .  .  ________  .  .  _
 72
    65
 73
     6
 40
2.5
 49
1.0
 74
     0
 49
-0.5
 74
     0
 49
0.0
 74
     0
 49
-0.5
 74
     0
 49
0.0
 74
     0
 49
-0.5
 74
     0
  0
LTYPE
  5
18B3
330
5
100
AcDbSymbolTableRecord
100
AcDbLinetypeTableRecord
  2
DOT
 70
     0
  3
Dot . . . . . . . . . . . . . . . . . . . . . . . .
 72
    65
 73
     2
 40
0.25
 49
0.0
 74
     0
 49
-0.25
 74
     0
  0
LTYPE
  5
18B4
330
5
100
AcDbSymbolTableRecord
100
AcDbLinetypeTableRecord
  2
DOT2
 70
     0
  3
Dot2 ........................................
 72
    65
 73
     2
 40
0.125
 49
0.0
 74
     0
 49
-0.125
 74
     0
  0
LTYPE
  5
18B5
330
5
100
AcDbSymbolTableRecord
100
AcDbLinetypeTableRecord
  2
DOTX2
 70
     0
  3
Dotx2 .  .  .  .  .  .  .  .  .  .  .  .  .  .
 72
    65
 73
     2
 40
0.5
 49
0.0
 74
     0
 49
-0.5
 74
     0
  0
LTYPE
  5
18B6
330
5
100
AcDbSymbolTableRecord
100
AcDbLinetypeTableRecord
  2
HIDDENX2
 70
     0
  3
Hiddenx2 ____ ____ ____ ____ ____ ____ ____ 
 72
    65
 73
     2
 40
0.75
 49
0.5
 74
     0
 49
-0.25
 74
     0
  0
LTYPE
  5
18B7
330
5
100
AcDbSymbolTableRecord
100
AcDbLinetypeTableRecord
  2
PHANTOM
 70
     0
  3
Phantom ______  __  __  ______  __  __  ______ 
 72
    65
 73
     6
 40
2.5
 49
1.25
 74
     0
 49
-0.25
 74
     0
 49
0.25
 74
     0
 49
-0.25
 74
     0
 49
0.25
 74
     0
 49
-0.25
 74
     0
  0
LTYPE
  5
18B8
330
5
100
AcDbSymbolTableRecord
100
AcDbLinetypeTableRecord
  2
PHANTOM2
 70
     0
  3
Phantom2 ___ _ _ ___ _ _ ___ _ _ ___ _ _
 72
    65
 73
     6
 40
1.25
 49
0.625
 74
     0
 49
-0.125
 74
     0
 49
0.125
 74
     0
 49
-0.125
 74
     0
 49
0.125
 74
     0
 49
-0.125
 74
     0
  0
LTYPE
  5
18B9
330
5
100
AcDbSymbolTableRecord
100
AcDbLinetypeTableRecord
  2
PHANTOMX2
 70
     0
  3
Phantomx2 ____________    ____    ____   _
 72
    65
 73
     6
 40
5.0
 49
2.5
 74
     0
 49
-0.5
 74
     0
 49
0.5
 74
     0
 49
-0.5
 74
     0
 49
0.5
 74
     0
 49
-0.5
 74
     0
  0
LTYPE
  5
18BA
330
5
100
AcDbSymbolTableRecord
100
AcDbLinetypeTableRecord
  2
DASHED0
 70
     0
  3
Dashed0 __ __ __ __ __ __ __ __ __ __ __ __ __ _
 72
    65
 73
     2
 40
1.0
 49
0.5
 74
     0
 49
-0.5
 74
     0
  0
LTYPE
  5
18BB
330
5
100
AcDbSymbolTableRecord
100
AcDbLinetypeTableRecord
  2
DOT0
 70
     0
  3
Dot0 ........................................
 72
    65
 73
     8
 40
1.0
 49
0.0
 74
     0
 49
-0.25
 74
     0
 49
0.0
 74
     0
 49
-0.25
 74
     0
 49
0.0
 74
     0
 49
-0.25
 74
     0
 49
0.0
 74
     0
 49
-0.25
 74
     0
  0
LTYPE
  5
18BC
330
5
100
AcDbSymbolTableRecord
100
AcDbLinetypeTableRecord
  2
DASHDOT0
 70
     0
  3
Dashdot __ . __ . __ . __ . __ . __ . __ . __
 72
    65
 73
     4
 40
1.0
 49
0.4
 74
     0
 49
-0.3
 74
     0
 49
0.0
 74
     0
 49
-0.3
 74
     0
  0
LTYPE
  5
18BD
330
5
100
AcDbSymbolTableRecord
100
AcDbLinetypeTableRecord
  2
DASHDOTDOT0
 70
     0
  3
Dashdot __ . . __ . . __ . . __ . . __ . . __ . . __ . . __
 72
    65
 73
     6
 40
1.0
 49
0.3
 74
     0
 49
-0.23
 74
     0
 49
0.0
 74
     0
 49
-0.24
 74
     0
 49
0.0
 74
     0
 49
-0.23
 74
     0
  0
LTYPE
  5
18BE
330
5
100
AcDbSymbolTableRecord
100
AcDbLinetypeTableRecord
  2
INVISIBLE
 70
     0
  3
Invisible(                        )
 72
    65
 73
     2
 40
2.0
 49
-1.0
 74
     0
 49
-1.0
 74
     0
  0
ENDTAB
  0
TABLE
  2
LAYER
  5
2
330
0
100
AcDbSymbolTable
 70
     4
  0
LAYER
  5
10
330
2
100
AcDbSymbolTableRecord
100
AcDbLayerTableRecord
  2
0
 70
     0
 62
     7
  6
Continuous
370
    13
390
F
  0
LAYER
  5
25
330
2
100
AcDbSymbolTableRecord
100
AcDbLayerTableRecord
  2
100
 70
     0
 62
     7
  6
Continuous
370
    13
390
F
  0
LAYER
  5
9A7
330
2
100
AcDbSymbolTableRecord
100
AcDbLayerTableRecord
  2
DEFPOINTS
 70
     0
 62
     7
  6
Continuous
290
     0
370
    -3
390
F
  0
LAYER
  5
A3A
330
2
100
AcDbSymbolTableRecord
100
AcDbLayerTableRecord
  2
STANDARD_LAYER
 70
     0
 62
     7
  6
Continuous
370
    -3
390
F
  0
ENDTAB
  0
TABLE
  2
STYLE
  5
3
330
0
100
AcDbSymbolTable
 70
     2
  0
STYLE
  5
11
330
3
100
AcDbSymbolTableRecord
100
AcDbTextStyleTableRecord
  2
Standard
 70
     0
 40
0.0
 41
1.0
 50
0.0
 71
     0
 42
0.2
  3
isocp.shx
  4

1001
ACAD
1000
isocp.shx
1071
        0
  0
STYLE
  5
26
330
3
100
AcDbSymbolTableRecord
100
AcDbTextStyleTableRecord
  2
GDT
 70
     0
 40
0.0
 41
1.0
 50
0.0
 71
     0
 42
0.2
  3
gdt.shx
  4

1001
ACAD
1000
gdt.shx
1071
        0
  0
ENDTAB
  0
TABLE
  2
VIEW
  5
6
330
0
100
AcDbSymbolTable
 70
     0
  0
ENDTAB
  0
TABLE
  2
UCS
  5
7
330
0
100
AcDbSymbolTable
 70
     0
  0
ENDTAB
  0
TABLE
  2
APPID
  5
9
330
0
100
AcDbSymbolTable
 70
    10
  0
APPID
  5
12
330
9
100
AcDbSymbolTableRecord
100
AcDbRegAppTableRecord
  2
ACAD
 70
     0
  0
APPID
  5
1899
330
9
100
AcDbSymbolTableRecord
100
AcDbRegAppTableRecord
  2
VD_TEMPHATCH
 70
     0
  0
APPID
  5
189A
330
9
100
AcDbSymbolTableRecord
100
AcDbRegAppTableRecord
  2
VDEXTRAPARAM
 70
     0
  0
APPID
  5
189B
330
9
100
AcDbSymbolTableRecord
100
AcDbRegAppTableRecord
  2
PE_URL
 70
     0
  0
APPID
  5
189C
330
9
100
AcDbSymbolTableRecord
100
AcDbRegAppTableRecord
  2
VD_EX_PRINTER_DWG_STYLE_SHEET
 70
     0
  0
APPID
  5
189D
330
9
100
AcDbSymbolTableRecord
100
AcDbRegAppTableRecord
  2
VD_EX_PRINTER_SIZEX
 70
     0
  0
APPID
  5
189E
330
9
100
AcDbSymbolTableRecord
100
AcDbRegAppTableRecord
  2
VD_EX_PRINTER_AVSIZEX
 70
     0
  0
APPID
  5
189F
330
9
100
AcDbSymbolTableRecord
100
AcDbRegAppTableRecord
  2
VD_EX_PRINTER_SIZEY
 70
     0
  0
APPID
  5
18A0
330
9
100
AcDbSymbolTableRecord
100
AcDbRegAppTableRecord
  2
VD_EX_PRINTER_AVSIZEY
 70
     0
  0
APPID
  5
18A1
330
9
100
AcDbSymbolTableRecord
100
AcDbRegAppTableRecord
  2
Conv5506CA
 70
     0
  0
ENDTAB
  0
TABLE
  2
DIMSTYLE
  5
A
330
0
100
AcDbSymbolTable
 70
     1
100
AcDbDimStyleTable
  0
DIMSTYLE
105
27
102
{ACAD_REACTORS
330
9B6
330
9C5
330
A0C
102
}
330
A
100
AcDbSymbolTableRecord
100
AcDbDimStyleTableRecord
  2
Standard
 70
     0
 41
2.5
 42
1.25
 44
0.625
 47
1.0
 48
1.0
 73
     0
 77
     1
 78
     8
140
2.5
147
0.625
176
     7
177
     7
271
     2
340
11
  0
ENDTAB
  0
TABLE
  2
BLOCK_RECORD
  5
1
330
0
100
AcDbSymbolTable
 70
   248
  0
BLOCK_RECORD
  5
1F
330
1
100
AcDbSymbolTableRecord
100
AcDbBlockTableRecord
  2
*Model_Space
340
22
  0
BLOCK_RECORD
  5
73
330
1
100
AcDbSymbolTableRecord
100
AcDbBlockTableRecord
  2
*Paper_Space
340
74
  0
BLOCK_RECORD
  5
1348
330
1
100
AcDbSymbolTableRecord
100
AcDbBlockTableRecord
  2
VDDIM_DEFAULT
340
0
  0
BLOCK_RECORD
  5
1349
330
1
100
AcDbSymbolTableRecord
100
AcDbBlockTableRecord
  2
BLOCK1
340
0
  0
BLOCK_RECORD
  5
134A
330
1
100
AcDbSymbolTableRecord
100
AcDbBlockTableRecord
  2
BLOCK2
340
0
  0
BLOCK_RECORD
  5
134B
330
1
100
AcDbSymbolTableRecord
100
AcDbBlockTableRecord
  2
BLOCK3
340
0
  0
BLOCK_RECORD
  5
134C
330
1
100
AcDbSymbolTableRecord
100
AcDbBlockTableRecord
  2
BLOCK4
340
0
  0
BLOCK_RECORD
  5
134D
330
1
100
AcDbSymbolTableRecord
100
AcDbBlockTableRecord
  2
BLOCK5
340
0
  0
BLOCK_RECORD
  5
134E
330
1
100
AcDbSymbolTableRecord
100
AcDbBlockTableRecord
  2
BLOCK6
340
0
  0
BLOCK_RECORD
  5
134F
330
1
100
AcDbSymbolTableRecord
100
AcDbBlockTableRecord
  2
BLOCK7
340
0
  0
BLOCK_RECORD
  5
1350
330
1
100
AcDbSymbolTableRecord
100
AcDbBlockTableRecord
  2
BLOCK8
340
0
  0
BLOCK_RECORD
  5
1351
330
1
100
AcDbSymbolTableRecord
100
AcDbBlockTableRecord
  2
BLOCK9
340
0
  0
BLOCK_RECORD
  5
1352
330
1
100
AcDbSymbolTableRecord
100
AcDbBlockTableRecord
  2
BLOCK10
340
0
  0
BLOCK_RECORD
  5
1353
330
1
100
AcDbSymbolTableRecord
100
AcDbBlockTableRecord
  2
BLOCK11
340
0
  0
BLOCK_RECORD
  5
1354
330
1
100
AcDbSymbolTableRecord
100
AcDbBlockTableRecord
  2
BLOCK12
340
0
  0
BLOCK_RECORD
  5
1355
330
1
100
AcDbSymbolTableRecord
100
AcDbBlockTableRecord
  2
BLOCK13
340
0
  0
BLOCK_RECORD
  5
1356
330
1
100
AcDbSymbolTableRecord
100
AcDbBlockTableRecord
  2
BLOCK14
340
0
  0
BLOCK_RECORD
  5
1357
330
1
100
AcDbSymbolTableRecord
100
AcDbBlockTableRecord
  2
BLOCK15
340
0
  0
BLOCK_RECORD
  5
1358
330
1
100
AcDbSymbolTableRecord
100
AcDbBlockTableRecord
  2
BLOCK16
340
0
  0
BLOCK_RECORD
  5
1359
330
1
100
AcDbSymbolTableRecord
100
AcDbBlockTableRecord
  2
BLOCK17
340
0
  0
BLOCK_RECORD
  5
135A
330
1
100
AcDbSymbolTableRecord
100
AcDbBlockTableRecord
  2
BLOCK18
340
0
  0
BLOCK_RECORD
  5
135B
330
1
100
AcDbSymbolTableRecord
100
AcDbBlockTableRecord
  2
BLOCK19
340
0
  0
BLOCK_RECORD
  5
135C
330
1
100
AcDbSymbolTableRecord
100
AcDbBlockTableRecord
  2
BLOCK20
340
0
  0
BLOCK_RECORD
  5
135D
330
1
100
AcDbSymbolTableRecord
100
AcDbBlockTableRecord
  2
BLOCK21
340
0
  0
BLOCK_RECORD
  5
135E
330
1
100
AcDbSymbolTableRecord
100
AcDbBlockTableRecord
  2
BLOCK22
340
0
  0
BLOCK_RECORD
  5
135F
330
1
100
AcDbSymbolTableRecord
100
AcDbBlockTableRecord
  2
BLOCK23
340
0
  0
BLOCK_RECORD
  5
1360
330
1
100
AcDbSymbolTableRecord
100
AcDbBlockTableRecord
  2
BLOCK24
340
0
  0
BLOCK_RECORD
  5
1361
330
1
100
AcDbSymbolTableRecord
100
AcDbBlockTableRecord
  2
BLOCK25
340
0
  0
BLOCK_RECORD
  5
1362
330
1
100
AcDbSymbolTableRecord
100
AcDbBlockTableRecord
  2
BLOCK26
340
0
  0
BLOCK_RECORD
  5
1363
330
1
100
AcDbSymbolTableRecord
100
AcDbBlockTableRecord
  2
BLOCK27
340
0
  0
BLOCK_RECORD
  5
1364
330
1
100
AcDbSymbolTableRecord
100
AcDbBlockTableRecord
  2
BLOCK28
340
0
  0
BLOCK_RECORD
  5
1365
330
1
100
AcDbSymbolTableRecord
100
AcDbBlockTableRecord
  2
BLOCK29
340
0
  0
BLOCK_RECORD
  5
1366
330
1
100
AcDbSymbolTableRecord
100
AcDbBlockTableRecord
  2
BLOCK30
340
0
  0
BLOCK_RECORD
  5
1367
330
1
100
AcDbSymbolTableRecord
100
AcDbBlockTableRecord
  2
BLOCK31
340
0
  0
BLOCK_RECORD
  5
1368
330
1
100
AcDbSymbolTableRecord
100
AcDbBlockTableRecord
  2
BLOCK32
340
0
  0
BLOCK_RECORD
  5
1369
330
1
100
AcDbSymbolTableRecord
100
AcDbBlockTableRecord
  2
BLOCK33
340
0
  0
BLOCK_RECORD
  5
136A
330
1
100
AcDbSymbolTableRecord
100
AcDbBlockTableRecord
  2
BLOCK34
340
0
  0
BLOCK_RECORD
  5
136B
330
1
100
AcDbSymbolTableRecord
100
AcDbBlockTableRecord
  2
BLOCK35
340
0
  0
BLOCK_RECORD
  5
136C
330
1
100
AcDbSymbolTableRecord
100
AcDbBlockTableRecord
  2
BLOCK36
340
0
  0
BLOCK_RECORD
  5
136D
330
1
100
AcDbSymbolTableRecord
100
AcDbBlockTableRecord
  2
BLOCK37
340
0
  0
BLOCK_RECORD
  5
136E
330
1
100
AcDbSymbolTableRecord
100
AcDbBlockTableRecord
  2
BLOCK38
340
0
  0
BLOCK_RECORD
  5
136F
330
1
100
AcDbSymbolTableRecord
100
AcDbBlockTableRecord
  2
BLOCK39
340
0
  0
BLOCK_RECORD
  5
1370
330
1
100
AcDbSymbolTableRecord
100
AcDbBlockTableRecord
  2
BLOCK40
340
0
  0
BLOCK_RECORD
  5
1371
330
1
100
AcDbSymbolTableRecord
100
AcDbBlockTableRecord
  2
BLOCK41
340
0
  0
BLOCK_RECORD
  5
1372
330
1
100
AcDbSymbolTableRecord
100
AcDbBlockTableRecord
  2
BLOCK42
340
0
  0
BLOCK_RECORD
  5
1373
330
1
100
AcDbSymbolTableRecord
100
AcDbBlockTableRecord
  2
BLOCK43
340
0
  0
BLOCK_RECORD
  5
1374
330
1
100
AcDbSymbolTableRecord
100
AcDbBlockTableRecord
  2
BLOCK44
340
0
  0
BLOCK_RECORD
  5
1375
330
1
100
AcDbSymbolTableRecord
100
AcDbBlockTableRecord
  2
BLOCK45
340
0
  0
BLOCK_RECORD
  5
1376
330
1
100
AcDbSymbolTableRecord
100
AcDbBlockTableRecord
  2
BLOCK46
340
0
  0
BLOCK_RECORD
  5
1377
330
1
100
AcDbSymbolTableRecord
100
AcDbBlockTableRecord
  2
BLOCK47
340
0
  0
BLOCK_RECORD
  5
1378
330
1
100
AcDbSymbolTableRecord
100
AcDbBlockTableRecord
  2
BLOCK48
340
0
  0
BLOCK_RECORD
  5
1379
330
1
100
AcDbSymbolTableRecord
100
AcDbBlockTableRecord
  2
BLOCK49
340
0
  0
BLOCK_RECORD
  5
137A
330
1
100
AcDbSymbolTableRecord
100
AcDbBlockTableRecord
  2
BLOCK50
340
0
  0
BLOCK_RECORD
  5
137B
330
1
100
AcDbSymbolTableRecord
100
AcDbBlockTableRecord
  2
BLOCK51
340
0
  0
BLOCK_RECORD
  5
137C
330
1
100
AcDbSymbolTableRecord
100
AcDbBlockTableRecord
  2
BLOCK52
340
0
  0
BLOCK_RECORD
  5
137D
330
1
100
AcDbSymbolTableRecord
100
AcDbBlockTableRecord
  2
BLOCK53
340
0
  0
BLOCK_RECORD
  5
137E
330
1
100
AcDbSymbolTableRecord
100
AcDbBlockTableRecord
  2
BLOCK54
340
0
  0
BLOCK_RECORD
  5
137F
330
1
100
AcDbSymbolTableRecord
100
AcDbBlockTableRecord
  2
BLOCK55
340
0
  0
BLOCK_RECORD
  5
1380
330
1
100
AcDbSymbolTableRecord
100
AcDbBlockTableRecord
  2
BLOCK56
340
0
  0
BLOCK_RECORD
  5
1381
330
1
100
AcDbSymbolTableRecord
100
AcDbBlockTableRecord
  2
BLOCK57
340
0
  0
BLOCK_RECORD
  5
1382
330
1
100
AcDbSymbolTableRecord
100
AcDbBlockTableRecord
  2
BLOCK58
340
0
  0
BLOCK_RECORD
  5
1383
330
1
100
AcDbSymbolTableRecord
100
AcDbBlockTableRecord
  2
BLOCK59
340
0
  0
BLOCK_RECORD
  5
1384
330
1
100
AcDbSymbolTableRecord
100
AcDbBlockTableRecord
  2
BLOCK60
340
0
  0
BLOCK_RECORD
  5
1385
330
1
100
AcDbSymbolTableRecord
100
AcDbBlockTableRecord
  2
BLOCK61
340
0
  0
BLOCK_RECORD
  5
1386
330
1
100
AcDbSymbolTableRecord
100
AcDbBlockTableRecord
  2
BLOCK62
340
0
  0
BLOCK_RECORD
  5
1387
330
1
100
AcDbSymbolTableRecord
100
AcDbBlockTableRecord
  2
BLOCK63
340
0
  0
BLOCK_RECORD
  5
1388
330
1
100
AcDbSymbolTableRecord
100
AcDbBlockTableRecord
  2
BLOCK64
340
0
  0
BLOCK_RECORD
  5
1389
330
1
100
AcDbSymbolTableRecord
100
AcDbBlockTableRecord
  2
BLOCK65
340
0
  0
BLOCK_RECORD
  5
138A
330
1
100
AcDbSymbolTableRecord
100
AcDbBlockTableRecord
  2
BLOCK66
340
0
  0
BLOCK_RECORD
  5
138B
330
1
100
AcDbSymbolTableRecord
100
AcDbBlockTableRecord
  2
BLOCK67
340
0
  0
BLOCK_RECORD
  5
138C
330
1
100
AcDbSymbolTableRecord
100
AcDbBlockTableRecord
  2
BLOCK68
340
0
  0
BLOCK_RECORD
  5
138D
330
1
100
AcDbSymbolTableRecord
100
AcDbBlockTableRecord
  2
BLOCK69
340
0
  0
BLOCK_RECORD
  5
138E
330
1
100
AcDbSymbolTableRecord
100
AcDbBlockTableRecord
  2
BLOCK70
340
0
  0
BLOCK_RECORD
  5
138F
330
1
100
AcDbSymbolTableRecord
100
AcDbBlockTableRecord
  2
BLOCK71
340
0
  0
BLOCK_RECORD
  5
1390
330
1
100
AcDbSymbolTableRecord
100
AcDbBlockTableRecord
  2
BLOCK72
340
0
  0
BLOCK_RECORD
  5
1391
330
1
100
AcDbSymbolTableRecord
100
AcDbBlockTableRecord
  2
BLOCK73
340
0
  0
BLOCK_RECORD
  5
1392
330
1
100
AcDbSymbolTableRecord
100
AcDbBlockTableRecord
  2
BLOCK74
340
0
  0
BLOCK_RECORD
  5
1393
330
1
100
AcDbSymbolTableRecord
100
AcDbBlockTableRecord
  2
BLOCK75
340
0
  0
BLOCK_RECORD
  5
1394
330
1
100
AcDbSymbolTableRecord
100
AcDbBlockTableRecord
  2
BLOCK76
340
0
  0
BLOCK_RECORD
  5
1395
330
1
100
AcDbSymbolTableRecord
100
AcDbBlockTableRecord
  2
BLOCK77
340
0
  0
BLOCK_RECORD
  5
1396
330
1
100
AcDbSymbolTableRecord
100
AcDbBlockTableRecord
  2
BLOCK78
340
0
  0
BLOCK_RECORD
  5
1397
330
1
100
AcDbSymbolTableRecord
100
AcDbBlockTableRecord
  2
BLOCK79
340
0
  0
BLOCK_RECORD
  5
1398
330
1
100
AcDbSymbolTableRecord
100
AcDbBlockTableRecord
  2
BLOCK80
340
0
  0
BLOCK_RECORD
  5
1399
330
1
100
AcDbSymbolTableRecord
100
AcDbBlockTableRecord
  2
BLOCK81
340
0
  0
BLOCK_RECORD
  5
139A
330
1
100
AcDbSymbolTableRecord
100
AcDbBlockTableRecord
  2
BLOCK82
340
0
  0
BLOCK_RECORD
  5
139B
330
1
100
AcDbSymbolTableRecord
100
AcDbBlockTableRecord
  2
BLOCK83
340
0
  0
BLOCK_RECORD
  5
139C
330
1
100
AcDbSymbolTableRecord
100
AcDbBlockTableRecord
  2
BLOCK84
340
0
  0
BLOCK_RECORD
  5
139D
330
1
100
AcDbSymbolTableRecord
100
AcDbBlockTableRecord
  2
BLOCK85
340
0
  0
BLOCK_RECORD
  5
139E
330
1
100
AcDbSymbolTableRecord
100
AcDbBlockTableRecord
  2
BLOCK86
340
0
  0
BLOCK_RECORD
  5
139F
330
1
100
AcDbSymbolTableRecord
100
AcDbBlockTableRecord
  2
BLOCK87
340
0
  0
BLOCK_RECORD
  5
13A0
330
1
100
AcDbSymbolTableRecord
100
AcDbBlockTableRecord
  2
BLOCK88
340
0
  0
BLOCK_RECORD
  5
13A1
330
1
100
AcDbSymbolTableRecord
100
AcDbBlockTableRecord
  2
BLOCK89
340
0
  0
BLOCK_RECORD
  5
13A2
330
1
100
AcDbSymbolTableRecord
100
AcDbBlockTableRecord
  2
BLOCK90
340
0
  0
BLOCK_RECORD
  5
13A3
330
1
100
AcDbSymbolTableRecord
100
AcDbBlockTableRecord
  2
BLOCK91
340
0
  0
BLOCK_RECORD
  5
13A4
330
1
100
AcDbSymbolTableRecord
100
AcDbBlockTableRecord
  2
BLOCK92
340
0
  0
BLOCK_RECORD
  5
13A5
330
1
100
AcDbSymbolTableRecord
100
AcDbBlockTableRecord
  2
BLOCK93
340
0
  0
BLOCK_RECORD
  5
13A6
330
1
100
AcDbSymbolTableRecord
100
AcDbBlockTableRecord
  2
BLOCK94
340
0
  0
BLOCK_RECORD
  5
13A7
330
1
100
AcDbSymbolTableRecord
100
AcDbBlockTableRecord
  2
BLOCK95
340
0
  0
BLOCK_RECORD
  5
13A8
330
1
100
AcDbSymbolTableRecord
100
AcDbBlockTableRecord
  2
BLOCK96
340
0
  0
BLOCK_RECORD
  5
13A9
330
1
100
AcDbSymbolTableRecord
100
AcDbBlockTableRecord
  2
BLOCK97
340
0
  0
BLOCK_RECORD
  5
13AA
330
1
100
AcDbSymbolTableRecord
100
AcDbBlockTableRecord
  2
BLOCK98
340
0
  0
BLOCK_RECORD
  5
13AB
330
1
100
AcDbSymbolTableRecord
100
AcDbBlockTableRecord
  2
BLOCK99
340
0
  0
BLOCK_RECORD
  5
13AC
330
1
100
AcDbSymbolTableRecord
100
AcDbBlockTableRecord
  2
BLOCK100
340
0
  0
BLOCK_RECORD
  5
13AD
330
1
100
AcDbSymbolTableRecord
100
AcDbBlockTableRecord
  2
BLOCK101
340
0
  0
BLOCK_RECORD
  5
13AE
330
1
100
AcDbSymbolTableRecord
100
AcDbBlockTableRecord
  2
BLOCK102
340
0
  0
BLOCK_RECORD
  5
13AF
330
1
100
AcDbSymbolTableRecord
100
AcDbBlockTableRecord
  2
BLOCK103
340
0
  0
BLOCK_RECORD
  5
13B0
330
1
100
AcDbSymbolTableRecord
100
AcDbBlockTableRecord
  2
BLOCK104
340
0
  0
BLOCK_RECORD
  5
13B1
330
1
100
AcDbSymbolTableRecord
100
AcDbBlockTableRecord
  2
BLOCK105
340
0
  0
BLOCK_RECORD
  5
13B2
330
1
100
AcDbSymbolTableRecord
100
AcDbBlockTableRecord
  2
BLOCK106
340
0
  0
BLOCK_RECORD
  5
13B3
330
1
100
AcDbSymbolTableRecord
100
AcDbBlockTableRecord
  2
BLOCK107
340
0
  0
BLOCK_RECORD
  5
13B4
330
1
100
AcDbSymbolTableRecord
100
AcDbBlockTableRecord
  2
BLOCK108
340
0
  0
BLOCK_RECORD
  5
13B5
330
1
100
AcDbSymbolTableRecord
100
AcDbBlockTableRecord
  2
BLOCK109
340
0
  0
BLOCK_RECORD
  5
13B6
330
1
100
AcDbSymbolTableRecord
100
AcDbBlockTableRecord
  2
BLOCK110
340
0
  0
BLOCK_RECORD
  5
13B7
330
1
100
AcDbSymbolTableRecord
100
AcDbBlockTableRecord
  2
BLOCK111
340
0
  0
BLOCK_RECORD
  5
13B8
330
1
100
AcDbSymbolTableRecord
100
AcDbBlockTableRecord
  2
BLOCK112
340
0
  0
BLOCK_RECORD
  5
13B9
330
1
100
AcDbSymbolTableRecord
100
AcDbBlockTableRecord
  2
BLOCK113
340
0
  0
BLOCK_RECORD
  5
13BA
330
1
100
AcDbSymbolTableRecord
100
AcDbBlockTableRecord
  2
BLOCK114
340
0
  0
BLOCK_RECORD
  5
13BB
330
1
100
AcDbSymbolTableRecord
100
AcDbBlockTableRecord
  2
BLOCK115
340
0
  0
BLOCK_RECORD
  5
13BC
330
1
100
AcDbSymbolTableRecord
100
AcDbBlockTableRecord
  2
BLOCK116
340
0
  0
BLOCK_RECORD
  5
13BD
330
1
100
AcDbSymbolTableRecord
100
AcDbBlockTableRecord
  2
BLOCK117
340
0
  0
BLOCK_RECORD
  5
13BE
330
1
100
AcDbSymbolTableRecord
100
AcDbBlockTableRecord
  2
BLOCK118
340
0
  0
BLOCK_RECORD
  5
13BF
330
1
100
AcDbSymbolTableRecord
100
AcDbBlockTableRecord
  2
BLOCK119
340
0
  0
BLOCK_RECORD
  5
13C0
330
1
100
AcDbSymbolTableRecord
100
AcDbBlockTableRecord
  2
BLOCK120
340
0
  0
BLOCK_RECORD
  5
13C1
330
1
100
AcDbSymbolTableRecord
100
AcDbBlockTableRecord
  2
BLOCK121
340
0
  0
BLOCK_RECORD
  5
13C2
330
1
100
AcDbSymbolTableRecord
100
AcDbBlockTableRecord
  2
BLOCK122
340
0
  0
BLOCK_RECORD
  5
13C3
330
1
100
AcDbSymbolTableRecord
100
AcDbBlockTableRecord
  2
BLOCK123
340
0
  0
BLOCK_RECORD
  5
13C4
330
1
100
AcDbSymbolTableRecord
100
AcDbBlockTableRecord
  2
BLOCK124
340
0
  0
BLOCK_RECORD
  5
13C5
330
1
100
AcDbSymbolTableRecord
100
AcDbBlockTableRecord
  2
BLOCK125
340
0
  0
BLOCK_RECORD
  5
13C6
330
1
100
AcDbSymbolTableRecord
100
AcDbBlockTableRecord
  2
BLOCK126
340
0
  0
BLOCK_RECORD
  5
13C7
330
1
100
AcDbSymbolTableRecord
100
AcDbBlockTableRecord
  2
BLOCK127
340
0
  0
BLOCK_RECORD
  5
13C8
330
1
100
AcDbSymbolTableRecord
100
AcDbBlockTableRecord
  2
BLOCK128
340
0
  0
BLOCK_RECORD
  5
13C9
330
1
100
AcDbSymbolTableRecord
100
AcDbBlockTableRecord
  2
BLOCK129
340
0
  0
BLOCK_RECORD
  5
13CA
330
1
100
AcDbSymbolTableRecord
100
AcDbBlockTableRecord
  2
BLOCK130
340
0
  0
BLOCK_RECORD
  5
13CB
330
1
100
AcDbSymbolTableRecord
100
AcDbBlockTableRecord
  2
BLOCK131
340
0
  0
BLOCK_RECORD
  5
13CC
330
1
100
AcDbSymbolTableRecord
100
AcDbBlockTableRecord
  2
BLOCK132
340
0
  0
BLOCK_RECORD
  5
13CD
330
1
100
AcDbSymbolTableRecord
100
AcDbBlockTableRecord
  2
BLOCK133
340
0
  0
BLOCK_RECORD
  5
13CE
330
1
100
AcDbSymbolTableRecord
100
AcDbBlockTableRecord
  2
BLOCK134
340
0
  0
BLOCK_RECORD
  5
13CF
330
1
100
AcDbSymbolTableRecord
100
AcDbBlockTableRecord
  2
BLOCK135
340
0
  0
BLOCK_RECORD
  5
13D0
330
1
100
AcDbSymbolTableRecord
100
AcDbBlockTableRecord
  2
BLOCK136
340
0
  0
BLOCK_RECORD
  5
13D1
330
1
100
AcDbSymbolTableRecord
100
AcDbBlockTableRecord
  2
BLOCK137
340
0
  0
BLOCK_RECORD
  5
13D2
330
1
100
AcDbSymbolTableRecord
100
AcDbBlockTableRecord
  2
BLOCK138
340
0
  0
BLOCK_RECORD
  5
13D3
330
1
100
AcDbSymbolTableRecord
100
AcDbBlockTableRecord
  2
BLOCK139
340
0
  0
BLOCK_RECORD
  5
13D4
330
1
100
AcDbSymbolTableRecord
100
AcDbBlockTableRecord
  2
BLOCK140
340
0
  0
BLOCK_RECORD
  5
13D5
330
1
100
AcDbSymbolTableRecord
100
AcDbBlockTableRecord
  2
BLOCK141
340
0
  0
BLOCK_RECORD
  5
13D6
330
1
100
AcDbSymbolTableRecord
100
AcDbBlockTableRecord
  2
BLOCK142
340
0
  0
BLOCK_RECORD
  5
13D7
330
1
100
AcDbSymbolTableRecord
100
AcDbBlockTableRecord
  2
BLOCK143
340
0
  0
BLOCK_RECORD
  5
13D8
330
1
100
AcDbSymbolTableRecord
100
AcDbBlockTableRecord
  2
BLOCK144
340
0
  0
BLOCK_RECORD
  5
13D9
330
1
100
AcDbSymbolTableRecord
100
AcDbBlockTableRecord
  2
BLOCK145
340
0
  0
BLOCK_RECORD
  5
13DA
330
1
100
AcDbSymbolTableRecord
100
AcDbBlockTableRecord
  2
BLOCK146
340
0
  0
BLOCK_RECORD
  5
13DB
330
1
100
AcDbSymbolTableRecord
100
AcDbBlockTableRecord
  2
BLOCK147
340
0
  0
BLOCK_RECORD
  5
13DC
330
1
100
AcDbSymbolTableRecord
100
AcDbBlockTableRecord
  2
BLOCK148
340
0
  0
BLOCK_RECORD
  5
13DD
330
1
100
AcDbSymbolTableRecord
100
AcDbBlockTableRecord
  2
BLOCK149
340
0
  0
BLOCK_RECORD
  5
13DE
330
1
100
AcDbSymbolTableRecord
100
AcDbBlockTableRecord
  2
BLOCK150
340
0
  0
BLOCK_RECORD
  5
13DF
330
1
100
AcDbSymbolTableRecord
100
AcDbBlockTableRecord
  2
BLOCK151
340
0
  0
BLOCK_RECORD
  5
13E0
330
1
100
AcDbSymbolTableRecord
100
AcDbBlockTableRecord
  2
BLOCK152
340
0
  0
BLOCK_RECORD
  5
13E1
330
1
100
AcDbSymbolTableRecord
100
AcDbBlockTableRecord
  2
BLOCK153
340
0
  0
BLOCK_RECORD
  5
13E2
330
1
100
AcDbSymbolTableRecord
100
AcDbBlockTableRecord
  2
BLOCK154
340
0
  0
BLOCK_RECORD
  5
13E3
330
1
100
AcDbSymbolTableRecord
100
AcDbBlockTableRecord
  2
BLOCK155
340
0
  0
BLOCK_RECORD
  5
13E4
330
1
100
AcDbSymbolTableRecord
100
AcDbBlockTableRecord
  2
BLOCK156
340
0
  0
BLOCK_RECORD
  5
13E5
330
1
100
AcDbSymbolTableRecord
100
AcDbBlockTableRecord
  2
BLOCK157
340
0
  0
BLOCK_RECORD
  5
13E6
330
1
100
AcDbSymbolTableRecord
100
AcDbBlockTableRecord
  2
BLOCK158
340
0
  0
BLOCK_RECORD
  5
13E7
330
1
100
AcDbSymbolTableRecord
100
AcDbBlockTableRecord
  2
BLOCK159
340
0
  0
BLOCK_RECORD
  5
13E8
330
1
100
AcDbSymbolTableRecord
100
AcDbBlockTableRecord
  2
BLOCK160
340
0
  0
BLOCK_RECORD
  5
13E9
330
1
100
AcDbSymbolTableRecord
100
AcDbBlockTableRecord
  2
BLOCK161
340
0
  0
BLOCK_RECORD
  5
13EA
330
1
100
AcDbSymbolTableRecord
100
AcDbBlockTableRecord
  2
BLOCK162
340
0
  0
BLOCK_RECORD
  5
13EB
330
1
100
AcDbSymbolTableRecord
100
AcDbBlockTableRecord
  2
BLOCK163
340
0
  0
BLOCK_RECORD
  5
13EC
330
1
100
AcDbSymbolTableRecord
100
AcDbBlockTableRecord
  2
BLOCK164
340
0
  0
BLOCK_RECORD
  5
13ED
330
1
100
AcDbSymbolTableRecord
100
AcDbBlockTableRecord
  2
BLOCK165
340
0
  0
BLOCK_RECORD
  5
13EE
330
1
100
AcDbSymbolTableRecord
100
AcDbBlockTableRecord
  2
BLOCK166
340
0
  0
BLOCK_RECORD
  5
13EF
330
1
100
AcDbSymbolTableRecord
100
AcDbBlockTableRecord
  2
BLOCK167
340
0
  0
BLOCK_RECORD
  5
13F0
330
1
100
AcDbSymbolTableRecord
100
AcDbBlockTableRecord
  2
BLOCK168
340
0
  0
BLOCK_RECORD
  5
13F1
330
1
100
AcDbSymbolTableRecord
100
AcDbBlockTableRecord
  2
BLOCK169
340
0
  0
BLOCK_RECORD
  5
13F2
330
1
100
AcDbSymbolTableRecord
100
AcDbBlockTableRecord
  2
BLOCK170
340
0
  0
BLOCK_RECORD
  5
13F3
330
1
100
AcDbSymbolTableRecord
100
AcDbBlockTableRecord
  2
BLOCK171
340
0
  0
BLOCK_RECORD
  5
13F4
330
1
100
AcDbSymbolTableRecord
100
AcDbBlockTableRecord
  2
BLOCK172
340
0
  0
BLOCK_RECORD
  5
13F5
330
1
100
AcDbSymbolTableRecord
100
AcDbBlockTableRecord
  2
BLOCK173
340
0
  0
BLOCK_RECORD
  5
13F6
330
1
100
AcDbSymbolTableRecord
100
AcDbBlockTableRecord
  2
BLOCK174
340
0
  0
BLOCK_RECORD
  5
13F7
330
1
100
AcDbSymbolTableRecord
100
AcDbBlockTableRecord
  2
BLOCK175
340
0
  0
BLOCK_RECORD
  5
13F8
330
1
100
AcDbSymbolTableRecord
100
AcDbBlockTableRecord
  2
BLOCK176
340
0
  0
BLOCK_RECORD
  5
13F9
330
1
100
AcDbSymbolTableRecord
100
AcDbBlockTableRecord
  2
BLOCK177
340
0
  0
BLOCK_RECORD
  5
13FA
330
1
100
AcDbSymbolTableRecord
100
AcDbBlockTableRecord
  2
BLOCK178
340
0
  0
BLOCK_RECORD
  5
13FB
330
1
100
AcDbSymbolTableRecord
100
AcDbBlockTableRecord
  2
BLOCK179
340
0
  0
BLOCK_RECORD
  5
13FC
330
1
100
AcDbSymbolTableRecord
100
AcDbBlockTableRecord
  2
BLOCK180
340
0
  0
BLOCK_RECORD
  5
13FD
330
1
100
AcDbSymbolTableRecord
100
AcDbBlockTableRecord
  2
BLOCK181
340
0
  0
BLOCK_RECORD
  5
13FE
330
1
100
AcDbSymbolTableRecord
100
AcDbBlockTableRecord
  2
BLOCK182
340
0
  0
BLOCK_RECORD
  5
13FF
330
1
100
AcDbSymbolTableRecord
100
AcDbBlockTableRecord
  2
BLOCK183
340
0
  0
BLOCK_RECORD
  5
1400
330
1
100
AcDbSymbolTableRecord
100
AcDbBlockTableRecord
  2
BLOCK184
340
0
  0
BLOCK_RECORD
  5
1401
330
1
100
AcDbSymbolTableRecord
100
AcDbBlockTableRecord
  2
BLOCK185
340
0
  0
BLOCK_RECORD
  5
1402
330
1
100
AcDbSymbolTableRecord
100
AcDbBlockTableRecord
  2
BLOCK186
340
0
  0
BLOCK_RECORD
  5
1403
330
1
100
AcDbSymbolTableRecord
100
AcDbBlockTableRecord
  2
BLOCK187
340
0
  0
BLOCK_RECORD
  5
1404
330
1
100
AcDbSymbolTableRecord
100
AcDbBlockTableRecord
  2
BLOCK188
340
0
  0
BLOCK_RECORD
  5
1405
330
1
100
AcDbSymbolTableRecord
100
AcDbBlockTableRecord
  2
BLOCK189
340
0
  0
BLOCK_RECORD
  5
1406
330
1
100
AcDbSymbolTableRecord
100
AcDbBlockTableRecord
  2
BLOCK190
340
0
  0
BLOCK_RECORD
  5
1407
330
1
100
AcDbSymbolTableRecord
100
AcDbBlockTableRecord
  2
BLOCK191
340
0
  0
BLOCK_RECORD
  5
1408
330
1
100
AcDbSymbolTableRecord
100
AcDbBlockTableRecord
  2
BLOCK192
340
0
  0
BLOCK_RECORD
  5
1409
330
1
100
AcDbSymbolTableRecord
100
AcDbBlockTableRecord
  2
BLOCK193
340
0
  0
BLOCK_RECORD
  5
140A
330
1
100
AcDbSymbolTableRecord
100
AcDbBlockTableRecord
  2
BLOCK194
340
0
  0
BLOCK_RECORD
  5
140B
330
1
100
AcDbSymbolTableRecord
100
AcDbBlockTableRecord
  2
BLOCK195
340
0
  0
BLOCK_RECORD
  5
140C
330
1
100
AcDbSymbolTableRecord
100
AcDbBlockTableRecord
  2
BLOCK196
340
0
  0
BLOCK_RECORD
  5
140D
330
1
100
AcDbSymbolTableRecord
100
AcDbBlockTableRecord
  2
BLOCK197
340
0
  0
BLOCK_RECORD
  5
140E
330
1
100
AcDbSymbolTableRecord
100
AcDbBlockTableRecord
  2
BLOCK198
340
0
  0
BLOCK_RECORD
  5
140F
330
1
100
AcDbSymbolTableRecord
100
AcDbBlockTableRecord
  2
BLOCK199
340
0
  0
BLOCK_RECORD
  5
1410
330
1
100
AcDbSymbolTableRecord
100
AcDbBlockTableRecord
  2
BLOCK200
340
0
  0
BLOCK_RECORD
  5
1411
330
1
100
AcDbSymbolTableRecord
100
AcDbBlockTableRecord
  2
BLOCK201
340
0
  0
BLOCK_RECORD
  5
1412
330
1
100
AcDbSymbolTableRecord
100
AcDbBlockTableRecord
  2
BLOCK202
340
0
  0
BLOCK_RECORD
  5
1413
330
1
100
AcDbSymbolTableRecord
100
AcDbBlockTableRecord
  2
BLOCK203
340
0
  0
BLOCK_RECORD
  5
1414
330
1
100
AcDbSymbolTableRecord
100
AcDbBlockTableRecord
  2
BLOCK204
340
0
  0
BLOCK_RECORD
  5
1415
330
1
100
AcDbSymbolTableRecord
100
AcDbBlockTableRecord
  2
BLOCK205
340
0
  0
BLOCK_RECORD
  5
1416
330
1
100
AcDbSymbolTableRecord
100
AcDbBlockTableRecord
  2
BLOCK206
340
0
  0
BLOCK_RECORD
  5
1417
330
1
100
AcDbSymbolTableRecord
100
AcDbBlockTableRecord
  2
BLOCK207
340
0
  0
BLOCK_RECORD
  5
1418
330
1
100
AcDbSymbolTableRecord
100
AcDbBlockTableRecord
  2
BLOCK208
340
0
  0
BLOCK_RECORD
  5
1419
330
1
100
AcDbSymbolTableRecord
100
AcDbBlockTableRecord
  2
BLOCK209
340
0
  0
BLOCK_RECORD
  5
141A
330
1
100
AcDbSymbolTableRecord
100
AcDbBlockTableRecord
  2
BLOCK210
340
0
  0
BLOCK_RECORD
  5
141B
330
1
100
AcDbSymbolTableRecord
100
AcDbBlockTableRecord
  2
BLOCK211
340
0
  0
BLOCK_RECORD
  5
141C
330
1
100
AcDbSymbolTableRecord
100
AcDbBlockTableRecord
  2
BLOCK212
340
0
  0
BLOCK_RECORD
  5
141D
330
1
100
AcDbSymbolTableRecord
100
AcDbBlockTableRecord
  2
BLOCK213
340
0
  0
BLOCK_RECORD
  5
141E
330
1
100
AcDbSymbolTableRecord
100
AcDbBlockTableRecord
  2
BLOCK214
340
0
  0
BLOCK_RECORD
  5
141F
330
1
100
AcDbSymbolTableRecord
100
AcDbBlockTableRecord
  2
BLOCK215
340
0
  0
BLOCK_RECORD
  5
1420
330
1
100
AcDbSymbolTableRecord
100
AcDbBlockTableRecord
  2
BLOCK216
340
0
  0
BLOCK_RECORD
  5
1421
330
1
100
AcDbSymbolTableRecord
100
AcDbBlockTableRecord
  2
BLOCK217
340
0
  0
BLOCK_RECORD
  5
1422
330
1
100
AcDbSymbolTableRecord
100
AcDbBlockTableRecord
  2
BLOCK218
340
0
  0
BLOCK_RECORD
  5
1423
330
1
100
AcDbSymbolTableRecord
100
AcDbBlockTableRecord
  2
BLOCK219
340
0
  0
BLOCK_RECORD
  5
1424
330
1
100
AcDbSymbolTableRecord
100
AcDbBlockTableRecord
  2
BLOCK220
340
0
  0
BLOCK_RECORD
  5
1425
330
1
100
AcDbSymbolTableRecord
100
AcDbBlockTableRecord
  2
BLOCK221
340
0
  0
BLOCK_RECORD
  5
1426
330
1
100
AcDbSymbolTableRecord
100
AcDbBlockTableRecord
  2
BLOCK222
340
0
  0
BLOCK_RECORD
  5
1427
330
1
100
AcDbSymbolTableRecord
100
AcDbBlockTableRecord
  2
BLOCK223
340
0
  0
BLOCK_RECORD
  5
1428
330
1
100
AcDbSymbolTableRecord
100
AcDbBlockTableRecord
  2
BLOCK224
340
0
  0
BLOCK_RECORD
  5
1429
330
1
100
AcDbSymbolTableRecord
100
AcDbBlockTableRecord
  2
BLOCK225
340
0
  0
BLOCK_RECORD
  5
142A
330
1
100
AcDbSymbolTableRecord
100
AcDbBlockTableRecord
  2
BLOCK226
340
0
  0
BLOCK_RECORD
  5
142B
330
1
100
AcDbSymbolTableRecord
100
AcDbBlockTableRecord
  2
BLOCK227
340
0
  0
BLOCK_RECORD
  5
142C
330
1
100
AcDbSymbolTableRecord
100
AcDbBlockTableRecord
  2
BLOCK228
340
0
  0
BLOCK_RECORD
  5
142D
330
1
100
AcDbSymbolTableRecord
100
AcDbBlockTableRecord
  2
BLOCK229
340
0
  0
BLOCK_RECORD
  5
142E
330
1
100
AcDbSymbolTableRecord
100
AcDbBlockTableRecord
  2
VD_ANONYM_9B5
340
0
  0
BLOCK_RECORD
  5
142F
330
1
100
AcDbSymbolTableRecord
100
AcDbBlockTableRecord
  2
VD_ANONYM_9C3
340
0
  0
BLOCK_RECORD
  5
1430
330
1
100
AcDbSymbolTableRecord
100
AcDbBlockTableRecord
  2
VD_ANONYM_9D0
340
0
  0
BLOCK_RECORD
  5
1431
330
1
100
AcDbSymbolTableRecord
100
AcDbBlockTableRecord
  2
VD_ANONYM_9DB
340
0
  0
BLOCK_RECORD
  5
1432
330
1
100
AcDbSymbolTableRecord
100
AcDbBlockTableRecord
  2
VD_ANONYM_9E6
340
0
  0
BLOCK_RECORD
  5
1433
330
1
100
AcDbSymbolTableRecord
100
AcDbBlockTableRecord
  2
VD_ANONYM_9FE
340
0
  0
BLOCK_RECORD
  5
1434
330
1
100
AcDbSymbolTableRecord
100
AcDbBlockTableRecord
  2
VD_ANONYM_A17
340
0
  0
BLOCK_RECORD
  5
1435
330
1
100
AcDbSymbolTableRecord
100
AcDbBlockTableRecord
  2
VD_ANONYM_A22
340
0
  0
BLOCK_RECORD
  5
1436
330
1
100
AcDbSymbolTableRecord
100
AcDbBlockTableRecord
  2
VD_ANONYM_A2D
340
0
  0
BLOCK_RECORD
  5
1437
330
1
100
AcDbSymbolTableRecord
100
AcDbBlockTableRecord
  2
VDDIM_NONE
340
0
  0
BLOCK_RECORD
  5
1438
330
1
100
AcDbSymbolTableRecord
100
AcDbBlockTableRecord
  2
*D240
340
0
  0
BLOCK_RECORD
  5
1440
330
1
100
AcDbSymbolTableRecord
100
AcDbBlockTableRecord
  2
*D241
340
0
  0
BLOCK_RECORD
  5
1448
330
1
100
AcDbSymbolTableRecord
100
AcDbBlockTableRecord
  2
*D242
340
0
  0
BLOCK_RECORD
  5
1854
330
1
100
AcDbSymbolTableRecord
100
AcDbBlockTableRecord
  2
*D243
340
0
  0
BLOCK_RECORD
  5
185F
330
1
100
AcDbSymbolTableRecord
100
AcDbBlockTableRecord
  2
*D244
340
0
  0
BLOCK_RECORD
  5
1880
330
1
100
AcDbSymbolTableRecord
100
AcDbBlockTableRecord
  2
*D245
340
0
  0
BLOCK_RECORD
  5
188B
330
1
100
AcDbSymbolTableRecord
100
AcDbBlockTableRecord
  2
*D246
340
0
  0
BLOCK_RECORD
  5
1897
330
1
100
AcDbSymbolTableRecord
100
AcDbBlockTableRecord
  2
*D247
340
0
  0
ENDTAB
  0
ENDSEC
  0
SECTION
  2
BLOCKS
  0
BLOCK
  5
20
330
1F
100
AcDbEntity
  8
0
100
AcDbBlockBegin
  2
*Model_Space
 70
     0
 10
0.0
 20
0.0
 30
0.0
  3
*Model_Space
  1

  0
ENDBLK
  5
21
330
1F
100
AcDbEntity
  8
0
100
AcDbBlockEnd
  0
BLOCK
  5
75
330
73
100
AcDbEntity
 67
     1
  8
0
100
AcDbBlockBegin
  2
*Paper_Space
 70
     0
 10
0.0
 20
0.0
 30
0.0
  3
*Paper_Space
  1

  0
ENDBLK
  5
76
330
73
100
AcDbEntity
 67
     1
  8
0
100
AcDbBlockEnd
  0
BLOCK
  5
18C1
102
{ACAD_REACTORS
330
9B6
330
9C5
330
A0C
102
}
330
1348
100
AcDbEntity
  8
0
100
AcDbBlockBegin
  2
VDDIM_DEFAULT
 70
     0
 10
0.0
 20
0.0
 30
0.0
  3
VDDIM_DEFAULT
  1

  0
HATCH
  5
C90
330
1348
100
AcDbEntity
  8
0
  6
Continuous
 62
     0
370
    -2
100
AcDbHatch
 10
0.0
 20
0.0
 30
0.0
210
0.0
220
0.0
230
-1.0
  2
SOLID
 70
     1
 71
     0
 91
        1
 92
        2
 72
     0
 73
     1
 93
        3
 10
0.0
 20
0.0
 10
1.0
 20
-0.1665
 10
1.0
 20
0.1665
 97
        0
 75
     0
 76
     1
 98
        1
 10
0.0
 20
0.0
  0
ENDBLK
  5
18C2
330
1348
100
AcDbEntity
  8
0
100
AcDbBlockEnd
  0
BLOCK
  5
18C3
330
1349
100
AcDbEntity
  8
0
100
AcDbBlockBegin
  2
BLOCK1
 70
     0
 10
0.0
 20
0.0
 30
0.0
  3
BLOCK1
  1

  0
TEXT
  5
265
330
1349
100
AcDbEntity
  8
0
 62
     7
370
    13
100
AcDbText
 10
160.775162
 20
-266.4487
 30
0.0
 40
3.0
  1
1
 50
294.0597980969395
 41
2.095222438127915
 72
     5
 11
161.672073
 21
-268.45755
 31
0.0
100
AcDbText
  0
TEXT
  5
266
330
1349
100
AcDbEntity
  8
0
 62
     7
370
    13
100
AcDbText
 10
159.470581
 20
-263.526703
 30
0.0
 40
3.0
  1
R
 50
294.0598218779984
 41
1.128196906525282
 72
     5
 11
160.367493
 21
-265.535553
 31
0.0
100
AcDbText
  0
LWPOLYLINE
  5
267
330
1349
100
AcDbEntity
  8
0
 62
     7
370
    35
100
AcDbPolyline
 90
        3
 70
     0
 43
0.0
 10
157.584351
 20
-262.938019
 10
156.324097
 20
-261.38504
 10
156.639023
 20
-263.360077
  0
LINE
  5
26C
330
1349
100
AcDbEntity
  8
0
 62
     7
 48
0.399999
370
    13
100
AcDbLine
 10
155.916428
 20
-260.471924
 30
0.0
 11
162.439346
 21
-275.081879
 31
0.0
  0
ENDBLK
  5
18C4
330
1349
100
AcDbEntity
  8
0
100
AcDbBlockEnd
  0
BLOCK
  5
18C5
330
134A
100
AcDbEntity
  8
0
100
AcDbBlockBegin
  2
BLOCK2
 70
     0
 10
0.0
 20
0.0
 30
0.0
  3
BLOCK2
  1

  0
TEXT
  5
26F
330
134A
100
AcDbEntity
  8
0
 62
   172
370
    13
100
AcDbText
 10
168.566559
 20
-250.271912
 30
0.0
 40
3.0
  1
4
 50
270.0
 41
1.12821128205129
 72
     5
 11
168.566559
 21
-252.471924
 31
0.0
100
AcDbText
  0
LINE
  5
270
330
134A
100
AcDbEntity
  8
0
 62
   172
 48
0.291253
370
    13
100
AcDbLine
 10
156.916428
 20
-261.471924
 30
0.0
 11
168.566559
 21
-261.471924
 31
0.0
  0
LINE
  5
271
330
134A
100
AcDbEntity
  8
0
 62
   172
 48
0.291253
370
    13
100
AcDbLine
 10
156.916428
 20
-257.471924
 30
0.0
 11
168.566559
 21
-257.471924
 31
0.0
  0
LWPOLYLINE
  5
272
330
134A
100
AcDbEntity
  8
0
 62
   172
370
    35
100
AcDbPolyline
 90
        3
 70
     0
 43
0.0
 10
167.084183
 20
-263.403778
 10
166.566559
 20
-261.471924
 10
166.04892
 20
-263.403778
  0
LWPOLYLINE
  5
277
330
134A
100
AcDbEntity
  8
0
 62
   172
370
    35
100
AcDbPolyline
 90
        3
 70
     0
 43
0.0
 10
166.04892
 20
-255.54007
 10
166.566559
 20
-257.471924
 10
167.084183
 20
-255.54007
  0
LINE
  5
27C
330
134A
100
AcDbEntity
  8
0
 62
   172
 48
0.405
370
    13
100
AcDbLine
 10
166.566559
 20
-266.471924
 30
0.0
 11
166.566559
 21
-250.271912
 31
0.0
  0
ENDBLK
  5
18C6
330
134A
100
AcDbEntity
  8
0
100
AcDbBlockEnd
  0
BLOCK
  5
18C7
330
134B
100
AcDbEntity
  8
0
100
AcDbBlockBegin
  2
BLOCK3
 70
     0
 10
0.0
 20
0.0
 30
0.0
  3
BLOCK3
  1

  0
TEXT
  5
27F
330
134B
100
AcDbEntity
  8
0
 62
     7
370
    70
100
AcDbText
 10
-246.44725
 20
100.139084
 30
0.0
 40
3.5
  1
PARTE TRASPARENTE
 41
1.200510738916256
 72
     5
 11
-191.613922
 21
100.139084
 31
0.0
100
AcDbText
  0
TEXT
  5
280
330
134B
100
AcDbEntity
  8
0
 62
     7
370
    70
100
AcDbText
 10
-243.180588
 20
95.239082
 30
0.0
 40
3.5
  1
Trasparent part
 41
1.429681518481519
 72
     5
 11
-194.880585
 21
95.239082
 31
0.0
100
AcDbText
  0
LWPOLYLINE
  5
281
330
134B
100
AcDbEntity
  8
0
 62
     7
370
    13
100
AcDbPolyline
 90
        3
 70
     0
 43
0.0
 10
-100.582306
 20
46.275436
 10
-186.613922
 20
93.72242
 10
-246.44725
 20
93.72242
  0
LWPOLYLINE
  5
286
330
134B
100
AcDbEntity
  8
0
 62
     7
370
    13
100
AcDbPolyline
 90
        3
 70
     0
 43
0.0
 10
-102.523926
 20
46.755112
 10
-100.582306
 20
46.275436
 10
-102.023972
 20
47.661663
  0
ENDBLK
  5
18C8
330
134B
100
AcDbEntity
  8
0
100
AcDbBlockEnd
  0
BLOCK
  5
18C9
330
134C
100
AcDbEntity
  8
0
100
AcDbBlockBegin
  2
BLOCK4
 70
     0
 10
0.0
 20
0.0
 30
0.0
  3
BLOCK4
  1

  0
TEXT
  5
28D
330
134C
100
AcDbEntity
  8
0
 62
     7
370
    70
100
AcDbText
 10
189.851074
 20
-178.949997
 30
0.0
 40
3.5
  1
SERIGRAFIA INTERNA GRIGIO ARGENTO A CAMPIONE
 41
1.355445496327884
 72
     5
 11
332.88446
 21
-178.949997
 31
0.0
100
AcDbText
  0
TEXT
  5
28E
330
134C
100
AcDbEntity
  8
0
 62
     7
370
    70
100
AcDbText
 10
204.551086
 20
-183.849991
 30
0.0
 40
3.5
  1
Silver serigrafy back as per sample
 41
1.534523630593677
 72
     5
 11
318.184479
 21
-183.849991
 31
0.0
100
AcDbText
  0
LWPOLYLINE
  5
28F
330
134C
100
AcDbEntity
  8
0
 62
     7
370
    13
100
AcDbPolyline
 90
        3
 70
     0
 43
0.0
 10
134.969437
 20
-109.886948
 10
184.851151
 20
-185.366669
 10
332.884399
 20
-185.366669
  0
LWPOLYLINE
  5
294
330
134C
100
AcDbEntity
  8
0
 62
     7
370
    13
100
AcDbPolyline
 90
        3
 70
     0
 43
0.0
 10
136.4664
 20
-111.213257
 10
134.969437
 20
-109.886948
 10
135.602692
 20
-111.784042
  0
ENDBLK
  5
18CA
330
134C
100
AcDbEntity
  8
0
100
AcDbBlockEnd
  0
BLOCK
  5
18CB
330
134D
100
AcDbEntity
  8
0
100
AcDbBlockBegin
  2
BLOCK5
 70
     0
 10
0.0
 20
0.0
 30
0.0
  3
BLOCK5
  1

  0
TEXT
  5
29B
330
134D
100
AcDbEntity
  8
0
 62
     7
370
    70
100
AcDbText
 10
282.187622
 20
92.310417
 30
0.0
 40
3.5
  1
LATO ESTERNO
 41
1.242937853107345
 72
     5
 11
320.687622
 21
92.310417
 31
0.0
100
AcDbText
  0
TEXT
  5
29C
330
134D
100
AcDbEntity
  8
0
 62
     7
370
    70
100
AcDbText
 10
280.554291
 20
87.410416
 30
0.0
 40
3.5
  1
Exterior side
 41
1.580050579278384
 72
     5
 11
322.320953
 21
87.410416
 31
0.0
100
AcDbText
  0
LWPOLYLINE
  5
29D
330
134D
100
AcDbEntity
  8
0
 62
     7
370
    13
100
AcDbPolyline
 90
        3
 70
     0
 43
0.0
 10
347.371735
 20
74.907104
 10
327.320953
 20
85.893753
 10
280.554291
 20
85.893753
  0
LWPOLYLINE
  5
2A2
330
134D
100
AcDbEntity
  8
0
 62
     7
370
    13
100
AcDbPolyline
 90
        3
 70
     0
 43
0.0
 10
345.428802
 20
75.381462
 10
347.371735
 20
74.907104
 10
345.9263
 20
76.289375
  0
ENDBLK
  5
18CC
330
134D
100
AcDbEntity
  8
0
100
AcDbBlockEnd
  0
BLOCK
  5
18CD
330
134E
100
AcDbEntity
  8
0
100
AcDbBlockBegin
  2
BLOCK6
 70
     0
 10
0.0
 20
0.0
 30
0.0
  3
BLOCK6
  1

  0
TEXT
  5
2A9
330
134E
100
AcDbEntity
  8
0
 62
     7
370
    13
100
AcDbText
 10
-113.437645
 20
-62.250027
 30
0.0
 40
3.0
  1
98.5
 50
48.60452133908573
 41
1.568108982914178
 72
     5
 11
-106.428368
 21
-54.298298
 31
0.0
100
AcDbText
  0
TEXT
  5
2AA
330
134E
100
AcDbEntity
  8
0
 62
     7
370
    13
100
AcDbText
 10
-115.553658
 20
-64.650543
 30
0.0
 40
3.0
  1
R
 50
48.6044254595757
 41
1.128204634650242
 72
     5
 11
-114.0989
 21
-63.000187
 31
0.0
100
AcDbText
  0
LWPOLYLINE
  5
2AB
330
134E
100
AcDbEntity
  8
0
 62
     7
370
    35
100
AcDbPolyline
 90
        3
 70
     0
 43
0.0
 10
-120.175865
 20
-72.135986
 10
-121.064995
 20
-73.927475
 10
-119.399239
 20
-72.820564
  0
LINE
  5
2B0
330
134E
100
AcDbEntity
  8
0
 62
     7
370
    13
100
AcDbLine
 10
-121.064995
 20
-73.927475
 30
0.0
 11
-55.899395
 21
0.00004
 31
0.0
  0
ENDBLK
  5
18CE
330
134E
100
AcDbEntity
  8
0
100
AcDbBlockEnd
  0
BLOCK
  5
18CF
330
134F
100
AcDbEntity
  8
0
100
AcDbBlockBegin
  2
BLOCK7
 70
     0
 10
0.0
 20
0.0
 30
0.0
  3
BLOCK7
  1

  0
TEXT
  5
2B3
330
134F
100
AcDbEntity
  8
0
 62
     7
370
    13
100
AcDbText
 10
-35.046383
 20
-84.912163
 30
0.0
 40
3.0
  1
253.5
 50
70.65050689077698
 41
1.514123661801054
 72
     5
 11
-30.606569
 21
-72.269066
 31
0.0
100
AcDbText
  0
TEXT
  5
2B4
330
134F
100
AcDbEntity
  8
0
 62
     7
370
    13
100
AcDbText
 10
-36.10664
 20
-87.931419
 30
0.0
 40
3.0
  1
R
 50
70.65039662223055
 41
1.128203602635919
 72
     5
 11
-35.377712
 21
-85.85569
 31
0.0
100
AcDbText
  0
LWPOLYLINE
  5
2B5
330
134F
100
AcDbEntity
  8
0
 62
     7
370
    35
100
AcDbPolyline
 90
        3
 70
     0
 43
0.0
 10
-44.019707
 20
-114.939171
 10
-44.171387
 20
-116.933411
 10
-43.042908
 20
-115.282188
  0
LINE
  5
2BA
330
134F
100
AcDbEntity
  8
0
 62
     7
370
    13
100
AcDbLine
 10
-44.171387
 20
-116.933411
 30
0.0
 11
39.822578
 21
122.253273
 31
0.0
  0
ENDBLK
  5
18D0
330
134F
100
AcDbEntity
  8
0
100
AcDbBlockEnd
  0
BLOCK
  5
18D1
330
1350
100
AcDbEntity
  8
0
100
AcDbBlockBegin
  2
BLOCK8
 70
     0
 10
0.0
 20
0.0
 30
0.0
  3
BLOCK8
  1

  0
TEXT
  5
2BD
330
1350
100
AcDbEntity
  8
0
 62
     7
370
    13
100
AcDbText
 10
-33.249699
 20
-23.242523
 30
0.0
 40
3.0
  1
55.9
 41
1.567935754494814
 72
     5
 11
-22.649696
 21
-23.242523
 31
0.0
100
AcDbText
  0
LINE
  5
2BE
330
1350
100
AcDbEntity
  8
0
 62
     7
370
    13
100
AcDbLine
 10
-55.899395
 20
-5.99996
 30
0.0
 11
-55.899395
 21
-27.242523
 31
0.0
  0
LWPOLYLINE
  5
2BF
330
1350
100
AcDbEntity
  8
0
 62
     7
370
    35
100
AcDbPolyline
 90
        3
 70
     0
 43
0.0
 10
-1.931852
 20
-25.760162
 10
0.0
 20
-25.242523
 10
-1.931852
 20
-24.724886
  0
LWPOLYLINE
  5
2C4
330
1350
100
AcDbEntity
  8
0
 62
     7
370
    35
100
AcDbPolyline
 90
        3
 70
     0
 43
0.0
 10
-53.967541
 20
-24.724886
 10
-55.899395
 20
-25.242523
 10
-53.967541
 20
-25.760162
  0
LINE
  5
2C9
330
1350
100
AcDbEntity
  8
0
 62
     7
370
    13
100
AcDbLine
 10
-55.899395
 20
-25.242523
 30
0.0
 11
0.0
 21
-25.242523
 31
0.0
  0
ENDBLK
  5
18D2
330
1350
100
AcDbEntity
  8
0
100
AcDbBlockEnd
  0
BLOCK
  5
18D3
330
1351
100
AcDbEntity
  8
0
100
AcDbBlockBegin
  2
BLOCK9
 70
     0
 10
0.0
 20
0.0
 30
0.0
  3
BLOCK9
  1

  0
TEXT
  5
2CC
330
1351
100
AcDbEntity
  8
0
 62
     7
370
    13
100
AcDbText
 10
67.86174
 20
45.241009
 30
0.0
 40
3.0
  1
175
 41
1.485714857142858
 72
     5
 11
75.661743
 21
45.241009
 31
0.0
100
AcDbText
  0
LINE
  5
2CD
330
1351
100
AcDbEntity
  8
0
 62
     7
370
    13
100
AcDbLine
 10
-0.34202
 20
0.939693
 30
0.0
 11
-16.42248
 21
45.120392
 31
0.0
  0
LINE
  5
2CE
330
1351
100
AcDbEntity
  8
0
 62
     7
370
    13
100
AcDbLine
 10
174.65834
 20
0.939693
 30
0.0
 11
158.577881
 21
45.120392
 31
0.0
  0
LWPOLYLINE
  5
2CF
330
1351
100
AcDbEntity
  8
0
 62
     7
370
    35
100
AcDbPolyline
 90
        3
 70
     0
 43
0.0
 10
-13.806588
 20
43.758644
 10
-15.73844
 20
43.241009
 10
-13.806588
 20
42.72337
  0
LWPOLYLINE
  5
2D4
330
1351
100
AcDbEntity
  8
0
 62
     7
370
    35
100
AcDbPolyline
 90
        3
 70
     0
 43
0.0
 10
157.330078
 20
42.72337
 10
159.261932
 20
43.241009
 10
157.330078
 20
43.758644
  0
LINE
  5
2D9
330
1351
100
AcDbEntity
  8
0
 62
     7
370
    13
100
AcDbLine
 10
-15.73844
 20
43.241009
 30
0.0
 11
159.261932
 21
43.241009
 31
0.0
  0
ENDBLK
  5
18D4
330
1351
100
AcDbEntity
  8
0
100
AcDbBlockEnd
  0
BLOCK
  5
18D5
330
1352
100
AcDbEntity
  8
0
100
AcDbBlockBegin
  2
BLOCK10
 70
     0
 10
0.0
 20
0.0
 30
0.0
  3
BLOCK10
  1

  0
TEXT
  5
2DC
330
1352
100
AcDbEntity
  8
0
 62
     7
370
    13
100
AcDbText
 10
76.674812
 20
-87.580833
 30
0.0
 40
3.0
  1
271.9
 50
287.4786200292389
 41
1.622181320840546
 72
     5
 11
80.699501
 21
-100.362144
 31
0.0
100
AcDbText
  0
TEXT
  5
2DD
330
1352
100
AcDbEntity
  8
0
 62
     7
370
    13
100
AcDbText
 10
75.713692
 20
-84.52858
 30
0.0
 40
3.0
  1
R
 50
287.4785653717516
 41
1.128202098634275
 72
     5
 11
76.374458
 21
-86.626999
 31
0.0
100
AcDbText
  0
LWPOLYLINE
  5
2DE
330
1352
100
AcDbEntity
  8
0
 62
     7
370
    35
100
AcDbPolyline
 90
        3
 70
     0
 43
0.0
 10
82.869583
 20
-115.636116
 10
83.94355
 20
-117.323303
 10
83.857056
 20
-115.325172
  0
LINE
  5
2E3
330
1352
100
AcDbEntity
  8
0
 62
     7
370
    13
100
AcDbLine
 10
83.94355
 20
-117.323303
 30
0.0
 11
2.278848
 21
142.021667
 31
0.0
  0
ENDBLK
  5
18D6
330
1352
100
AcDbEntity
  8
0
100
AcDbBlockEnd
  0
BLOCK
  5
18D7
330
1353
100
AcDbEntity
  8
0
100
AcDbBlockBegin
  2
BLOCK11
 70
     0
 10
0.0
 20
0.0
 30
0.0
  3
BLOCK11
  1

  0
TEXT
  5
2E6
330
1353
100
AcDbEntity
  8
0
 62
     7
370
    13
100
AcDbText
 10
-12.799999
 20
166.104309
 30
0.0
 40
3.0
  1
2.3
 41
1.677419139784946
 72
     5
 11
-5.0
 21
166.104309
 31
0.0
100
AcDbText
  0
LINE
  5
2E7
330
1353
100
AcDbEntity
  8
0
 62
     7
 48
0.212884
370
    13
100
AcDbLine
 10
0.0
 20
157.588943
 30
0.0
 11
0.0
 21
166.104309
 31
0.0
  0
LINE
  5
2E8
330
1353
100
AcDbEntity
  8
0
 62
     7
370
    13
100
AcDbLine
 10
2.278848
 20
143.021667
 30
0.0
 11
2.278848
 21
166.104309
 31
0.0
  0
LWPOLYLINE
  5
2E9
330
1353
100
AcDbEntity
  8
0
 62
     7
370
    35
100
AcDbPolyline
 90
        3
 70
     0
 43
0.0
 10
-1.931852
 20
163.586685
 10
0.0
 20
164.104309
 10
-1.931852
 20
164.621948
  0
LWPOLYLINE
  5
2EE
330
1353
100
AcDbEntity
  8
0
 62
     7
370
    35
100
AcDbPolyline
 90
        3
 70
     0
 43
0.0
 10
4.2107
 20
164.621948
 10
2.278848
 20
164.104309
 10
4.2107
 20
163.586685
  0
LINE
  5
2F3
330
1353
100
AcDbEntity
  8
0
 62
     7
370
    13
100
AcDbLine
 10
-12.8
 20
164.104309
 30
0.0
 11
7.278849
 21
164.104309
 31
0.0
  0
ENDBLK
  5
18D8
330
1353
100
AcDbEntity
  8
0
100
AcDbBlockEnd
  0
BLOCK
  5
18D9
330
1354
100
AcDbEntity
  8
0
100
AcDbBlockBegin
  2
BLOCK12
 70
     0
 10
0.0
 20
0.0
 30
0.0
  3
BLOCK12
  1

  0
TEXT
  5
2F6
330
1354
100
AcDbEntity
  8
0
 62
     7
370
    13
100
AcDbText
 10
157.501221
 20
-61.662754
 30
0.0
 40
3.0
  1
55
 50
328.3419079214274
 41
1.333334855635455
 72
     5
 11
161.757202
 21
-64.287003
 31
0.0
100
AcDbText
  0
TEXT
  5
2F7
330
1354
100
AcDbEntity
  8
0
 62
     7
370
    13
100
AcDbText
 10
154.777405
 20
-59.983234
 30
0.0
 40
3.0
  1
R
 50
328.3417032233537
 41
1.128201286403955
 72
     5
 11
156.650024
 21
-61.137905
 31
0.0
100
AcDbText
  0
LWPOLYLINE
  5
2F8
330
1354
100
AcDbEntity
  8
0
 62
     7
370
    35
100
AcDbPolyline
 90
        3
 70
     0
 43
0.0
 10
164.317291
 20
-68.823326
 10
166.233353
 20
-69.396645
 10
164.860657
 20
-67.942101
  0
LINE
  5
2FD
330
1354
100
AcDbEntity
  8
0
 62
     7
370
    13
100
AcDbLine
 10
166.233353
 20
-69.396645
 30
0.0
 11
119.416908
 21
-40.529488
 31
0.0
  0
ENDBLK
  5
18DA
330
1354
100
AcDbEntity
  8
0
100
AcDbBlockEnd
  0
BLOCK
  5
18DB
330
1355
100
AcDbEntity
  8
0
100
AcDbBlockBegin
  2
BLOCK13
 70
     0
 10
0.0
 20
0.0
 30
0.0
  3
BLOCK13
  1

  0
TEXT
  5
300
330
1355
100
AcDbEntity
  8
0
 62
   172
370
    13
100
AcDbText
 10
156.629105
 20
-14.031437
 30
0.0
 40
3.0
  1
1465
 41
1.385621699346403
 72
     5
 11
167.229111
 21
-14.031437
 31
0.0
100
AcDbText
  0
TEXT
  5
301
330
1355
100
AcDbEntity
  8
0
 62
   172
370
    13
100
AcDbText
 10
153.429108
 20
-14.031437
 30
0.0
 40
3.0
  1
R
 41
1.128211282051275
 72
     5
 11
155.62912
 21
-14.031437
 31
0.0
100
AcDbText
  0
LINE
  5
302
330
1355
100
AcDbEntity
  8
0
 62
   172
 48
0.47
370
    13
100
AcDbLine
 10
172.229111
 20
-16.031437
 30
0.0
 11
153.429108
 21
-16.031437
 31
0.0
  0
LWPOLYLINE
  5
303
330
1355
100
AcDbEntity
  8
0
 62
   172
370
    35
100
AcDbPolyline
 90
        3
 70
     0
 43
0.0
 10
172.974915
 20
-16.557283
 10
174.912323
 20
-16.060854
 10
172.986267
 20
-15.522069
  0
LINE
  5
308
330
1355
100
AcDbEntity
  8
0
 62
   172
 48
0.067084
370
    13
100
AcDbLine
 10
174.912323
 20
-16.060854
 30
0.0
 11
172.229111
 21
-16.031437
 31
0.0
  0
ENDBLK
  5
18DC
330
1355
100
AcDbEntity
  8
0
100
AcDbBlockEnd
  0
BLOCK
  5
18DD
330
1356
100
AcDbEntity
  8
0
100
AcDbBlockBegin
  2
BLOCK14
 70
     0
 10
0.0
 20
0.0
 30
0.0
  3
BLOCK14
  1

  0
TEXT
  5
30B
330
1356
100
AcDbEntity
  8
0
 62
     7
370
    13
100
AcDbText
 10
246.437714
 20
67.110832
 30
0.0
 40
3.0
  1
142
 50
90.0
 41
1.405237983121218
 72
     5
 11
246.437714
 21
74.910835
 31
0.0
100
AcDbText
  0
LINE
  5
30C
330
1356
100
AcDbEntity
  8
0
 62
     7
370
    13
100
AcDbLine
 10
224.66066
 20
0.0
 30
0.0
 11
250.437714
 21
0.0
 31
0.0
  0
LINE
  5
30D
330
1356
100
AcDbEntity
  8
0
 62
     7
370
    13
100
AcDbLine
 10
8.278849
 20
142.021667
 30
0.0
 11
250.437714
 21
142.021667
 31
0.0
  0
LWPOLYLINE
  5
30E
330
1356
100
AcDbEntity
  8
0
 62
     7
370
    35
100
AcDbPolyline
 90
        3
 70
     0
 43
0.0
 10
248.955353
 20
140.089813
 10
248.437714
 20
142.021667
 10
247.920074
 20
140.089813
  0
LWPOLYLINE
  5
313
330
1356
100
AcDbEntity
  8
0
 62
     7
370
    35
100
AcDbPolyline
 90
        3
 70
     0
 43
0.0
 10
247.920074
 20
1.931852
 10
248.437714
 20
0.0
 10
248.955353
 20
1.931852
  0
LINE
  5
318
330
1356
100
AcDbEntity
  8
0
 62
     7
370
    13
100
AcDbLine
 10
248.437714
 20
0.0
 30
0.0
 11
248.437714
 21
142.021667
 31
0.0
  0
ENDBLK
  5
18DE
330
1356
100
AcDbEntity
  8
0
100
AcDbBlockEnd
  0
BLOCK
  5
18DF
330
1357
100
AcDbEntity
  8
0
100
AcDbBlockBegin
  2
BLOCK15
 70
     0
 10
0.0
 20
0.0
 30
0.0
  3
BLOCK15
  1

  0
TEXT
  5
31B
330
1357
100
AcDbEntity
  8
0
 62
     7
370
    13
100
AcDbText
 10
246.437714
 20
-25.564743
 30
0.0
 40
3.0
  1
40.5
 50
90.0
 41
1.503545957446809
 72
     5
 11
246.437714
 21
-14.964744
 31
0.0
100
AcDbText
  0
LINE
  5
31C
330
1357
100
AcDbEntity
  8
0
 62
     7
370
    13
100
AcDbLine
 10
125.416908
 20
-40.529488
 30
0.0
 11
250.437714
 21
-40.529488
 31
0.0
  0
LINE
  5
31D
330
1357
100
AcDbEntity
  8
0
 62
     7
370
    13
100
AcDbLine
 10
224.66066
 20
0.0
 30
0.0
 11
250.437714
 21
0.0
 31
0.0
  0
LWPOLYLINE
  5
31E
330
1357
100
AcDbEntity
  8
0
 62
     7
370
    35
100
AcDbPolyline
 90
        3
 70
     0
 43
0.0
 10
247.920074
 20
-38.597633
 10
248.437714
 20
-40.529488
 10
248.955353
 20
-38.597633
  0
LWPOLYLINE
  5
323
330
1357
100
AcDbEntity
  8
0
 62
     7
370
    35
100
AcDbPolyline
 90
        3
 70
     0
 43
0.0
 10
248.955353
 20
-1.931852
 10
248.437714
 20
0.0
 10
247.920074
 20
-1.931852
  0
LINE
  5
328
330
1357
100
AcDbEntity
  8
0
 62
     7
370
    13
100
AcDbLine
 10
248.437714
 20
-40.529488
 30
0.0
 11
248.437714
 21
0.0
 31
0.0
  0
ENDBLK
  5
18E0
330
1357
100
AcDbEntity
  8
0
100
AcDbBlockEnd
  0
BLOCK
  5
18E1
330
1358
100
AcDbEntity
  8
0
100
AcDbBlockBegin
  2
BLOCK16
 70
     0
 10
0.0
 20
0.0
 30
0.0
  3
BLOCK16
  1

  0
TEXT
  5
32B
330
1358
100
AcDbEntity
  8
0
 62
     7
370
    13
100
AcDbText
 10
193.287949
 20
38.344368
 30
0.0
 40
3.0
  1
418.4
 50
5.350115286182359
 41
1.514251461823389
 72
     5
 11
206.629562
 21
39.593803
 31
0.0
100
AcDbText
  0
TEXT
  5
32C
330
1358
100
AcDbEntity
  8
0
 62
     7
370
    13
100
AcDbText
 10
190.101868
 20
38.045994
 30
0.0
 40
3.0
  1
R
 50
5.350075946436958
 41
1.128211880073267
 72
     5
 11
192.292297
 21
38.251125
 31
0.0
100
AcDbText
  0
LWPOLYLINE
  5
32D
330
1358
100
AcDbEntity
  8
0
 62
     7
370
    35
100
AcDbPolyline
 90
        3
 70
     0
 43
0.0
 10
219.962875
 20
38.313812
 10
221.838043
 20
39.009323
 10
219.866348
 20
39.344578
  0
LINE
  5
332
330
1358
100
AcDbEntity
  8
0
 62
     7
370
    13
100
AcDbLine
 10
221.838043
 20
39.009323
 30
0.0
 11
-194.707504
 21
0.000001
 31
0.0
  0
ENDBLK
  5
18E2
330
1358
100
AcDbEntity
  8
0
100
AcDbBlockEnd
  0
BLOCK
  5
18E3
330
1359
100
AcDbEntity
  8
0
100
AcDbBlockBegin
  2
BLOCK17
 70
     0
 10
0.0
 20
0.0
 30
0.0
  3
BLOCK17
  1

  0
TEXT
  5
335
330
1359
100
AcDbEntity
  8
0
 62
     7
370
    13
100
AcDbText
 10
-104.042419
 20
-195.285034
 30
0.0
 40
3.0
  1
194.7
 41
1.565331420357026
 72
     5
 11
-90.642426
 21
-195.285034
 31
0.0
100
AcDbText
  0
LINE
  5
336
330
1359
100
AcDbEntity
  8
0
 62
     7
370
    13
100
AcDbLine
 10
-194.684845
 20
-6.0
 30
0.0
 11
-194.684845
 21
-199.285034
 31
0.0
  0
LINE
  5
337
330
1359
100
AcDbEntity
  8
0
 62
     7
370
    13
100
AcDbLine
 10
0.0
 20
-157.588943
 30
0.0
 11
0.0
 21
-199.285034
 31
0.0
  0
LWPOLYLINE
  5
338
330
1359
100
AcDbEntity
  8
0
 62
     7
370
    35
100
AcDbPolyline
 90
        3
 70
     0
 43
0.0
 10
-192.752991
 20
-196.767395
 10
-194.684845
 20
-197.285034
 10
-192.752991
 20
-197.802673
  0
LWPOLYLINE
  5
33D
330
1359
100
AcDbEntity
  8
0
 62
     7
370
    35
100
AcDbPolyline
 90
        3
 70
     0
 43
0.0
 10
-1.931852
 20
-197.802673
 10
0.0
 20
-197.285034
 10
-1.931852
 20
-196.767395
  0
LINE
  5
342
330
1359
100
AcDbEntity
  8
0
 62
     7
370
    13
100
AcDbLine
 10
-194.684845
 20
-197.285034
 30
0.0
 11
0.0
 21
-197.285034
 31
0.0
  0
ENDBLK
  5
18E4
330
1359
100
AcDbEntity
  8
0
100
AcDbBlockEnd
  0
BLOCK
  5
18E5
330
135A
100
AcDbEntity
  8
0
100
AcDbBlockBegin
  2
BLOCK18
 70
     0
 10
0.0
 20
0.0
 30
0.0
  3
BLOCK18
  1

  0
TEXT
  5
345
330
135A
100
AcDbEntity
  8
0
 62
     7
370
    13
100
AcDbText
 10
53.008453
 20
-195.285034
 30
0.0
 40
3.0
  1
119.4
 41
1.683315197625203
 72
     5
 11
66.408455
 21
-195.285034
 31
0.0
100
AcDbText
  0
LINE
  5
346
330
135A
100
AcDbEntity
  8
0
 62
     7
370
    13
100
AcDbLine
 10
0.0
 20
-157.588943
 30
0.0
 11
0.0
 21
-199.285034
 31
0.0
  0
LINE
  5
347
330
135A
100
AcDbEntity
  8
0
 62
     7
370
    13
100
AcDbLine
 10
119.416908
 20
-46.529488
 30
0.0
 11
119.416908
 21
-199.285034
 31
0.0
  0
LWPOLYLINE
  5
348
330
135A
100
AcDbEntity
  8
0
 62
     7
370
    35
100
AcDbPolyline
 90
        3
 70
     0
 43
0.0
 10
1.931852
 20
-196.767395
 10
0.0
 20
-197.285034
 10
1.931852
 20
-197.802673
  0
LWPOLYLINE
  5
34D
330
135A
100
AcDbEntity
  8
0
 62
     7
370
    35
100
AcDbPolyline
 90
        3
 70
     0
 43
0.0
 10
117.485054
 20
-197.802673
 10
119.416908
 20
-197.285034
 10
117.485054
 20
-196.767395
  0
LINE
  5
352
330
135A
100
AcDbEntity
  8
0
 62
     7
370
    13
100
AcDbLine
 10
0.0
 20
-197.285034
 30
0.0
 11
119.416908
 21
-197.285034
 31
0.0
  0
ENDBLK
  5
18E6
330
135A
100
AcDbEntity
  8
0
100
AcDbBlockEnd
  0
BLOCK
  5
18E7
330
135B
100
AcDbEntity
  8
0
100
AcDbBlockBegin
  2
BLOCK19
 70
     0
 10
0.0
 20
0.0
 30
0.0
  3
BLOCK19
  1

  0
TEXT
  5
355
330
135B
100
AcDbEntity
  8
0
 62
     7
370
    13
100
AcDbText
 10
184.428085
 20
70.67955
 30
0.0
 40
3.0
  1
106.7
 50
25.53198280715941
 41
1.624243804579137
 72
     5
 11
196.519516
 21
76.455154
 31
0.0
100
AcDbText
  0
TEXT
  5
356
330
135B
100
AcDbEntity
  8
0
 62
     7
370
    13
100
AcDbText
 10
181.540573
 20
69.300308
 30
0.0
 40
3.0
  1
R
 50
25.53173272366526
 41
1.128208671566703
 72
     5
 11
183.525742
 21
70.248535
 31
0.0
100
AcDbText
  0
LWPOLYLINE
  5
357
330
135B
100
AcDbEntity
  8
0
 62
     7
370
    35
100
AcDbPolyline
 90
        3
 70
     0
 43
0.0
 10
209.760086
 20
79.989571
 10
211.280182
 20
81.289314
 10
209.313873
 20
80.923744
  0
LINE
  5
35C
330
135B
100
AcDbEntity
  8
0
 62
     7
370
    13
100
AcDbLine
 10
211.280182
 20
81.289314
 30
0.0
 11
115.0
 21
35.299999
 31
0.0
  0
ENDBLK
  5
18E8
330
135B
100
AcDbEntity
  8
0
100
AcDbBlockEnd
  0
BLOCK
  5
18E9
330
135C
100
AcDbEntity
  8
0
100
AcDbBlockBegin
  2
BLOCK20
 70
     0
 10
0.0
 20
0.0
 30
0.0
  3
BLOCK20
  1

  0
TEXT
  5
35F
330
135C
100
AcDbEntity
  8
0
 62
     7
370
    13
100
AcDbText
 10
135.294388
 20
109.112106
 30
0.0
 40
3.0
  1
129
 50
66.48470275826753
 41
1.482753389417514
 72
     5
 11
138.40654
 21
116.264343
 31
0.0
100
AcDbText
  0
TEXT
  5
360
330
135C
100
AcDbEntity
  8
0
 62
     7
370
    13
100
AcDbText
 10
134.017609
 20
106.177849
 30
0.0
 40
3.0
  1
R
 50
66.48498465912648
 41
1.128205577568443
 72
     5
 11
134.895386
 21
108.195152
 31
0.0
100
AcDbText
  0
LWPOLYLINE
  5
361
330
135C
100
AcDbEntity
  8
0
 62
     7
370
    35
100
AcDbPolyline
 90
        3
 70
     0
 43
0.0
 10
149.874268
 20
136.308975
 10
150.170425
 20
138.286926
 10
148.924973
 20
136.722046
  0
LINE
  5
366
330
135C
100
AcDbEntity
  8
0
 62
     7
370
    13
100
AcDbLine
 10
150.170425
 20
138.286926
 30
0.0
 11
98.699997
 21
20.0
 31
0.0
  0
ENDBLK
  5
18EA
330
135C
100
AcDbEntity
  8
0
100
AcDbBlockEnd
  0
BLOCK
  5
18EB
330
135D
100
AcDbEntity
  8
0
100
AcDbBlockBegin
  2
BLOCK21
 70
     0
 10
0.0
 20
0.0
 30
0.0
  3
BLOCK21
  1

  0
TEXT
  5
369
330
135D
100
AcDbEntity
  8
0
 62
     7
370
    13
100
AcDbText
 10
129.19809
 20
12.349999
 30
0.0
 40
3.0
  1
35.3
 50
90.0
 41
1.570370666666667
 72
     5
 11
129.19809
 21
22.950001
 31
0.0
100
AcDbText
  0
LINE
  5
36A
330
135D
100
AcDbEntity
  8
0
 62
     7
 48
0.304953
370
    13
100
AcDbLine
 10
121.0
 20
35.299999
 30
0.0
 11
133.198105
 21
35.299999
 31
0.0
  0
LWPOLYLINE
  5
36B
330
135D
100
AcDbEntity
  8
0
 62
     7
370
    35
100
AcDbPolyline
 90
        3
 70
     0
 43
0.0
 10
130.680466
 20
1.931852
 10
131.198105
 20
0.0
 10
131.715744
 20
1.931852
  0
LWPOLYLINE
  5
370
330
135D
100
AcDbEntity
  8
0
 62
     7
370
    35
100
AcDbPolyline
 90
        3
 70
     0
 43
0.0
 10
131.715744
 20
33.368149
 10
131.198105
 20
35.299999
 10
130.680466
 20
33.368149
  0
LINE
  5
375
330
135D
100
AcDbEntity
  8
0
 62
     7
370
    13
100
AcDbLine
 10
131.198105
 20
0.0
 30
0.0
 11
131.198105
 21
35.299999
 31
0.0
  0
ENDBLK
  5
18EC
330
135D
100
AcDbEntity
  8
0
100
AcDbBlockEnd
  0
BLOCK
  5
18ED
330
135E
100
AcDbEntity
  8
0
100
AcDbBlockBegin
  2
BLOCK22
 70
     0
 10
0.0
 20
0.0
 30
0.0
  3
BLOCK22
  1

  0
TEXT
  5
378
330
135E
100
AcDbEntity
  8
0
 62
     7
370
    13
100
AcDbText
 10
82.873535
 20
5.689343
 30
0.0
 40
3.0
  1
20
 50
90.0
 41
1.332493967054873
 72
     5
 11
82.873535
 21
10.689343
 31
0.0
100
AcDbText
  0
LINE
  5
379
330
135E
100
AcDbEntity
  8
0
 62
     7
 48
0.245662
370
    13
100
AcDbLine
 10
92.699997
 20
20.0
 30
0.0
 11
82.873535
 21
20.0
 31
0.0
  0
LWPOLYLINE
  5
37A
330
135E
100
AcDbEntity
  8
0
 62
     7
370
    35
100
AcDbPolyline
 90
        3
 70
     0
 43
0.0
 10
84.355896
 20
1.931852
 10
84.873535
 20
0.0
 10
85.391174
 20
1.931852
  0
LWPOLYLINE
  5
37F
330
135E
100
AcDbEntity
  8
0
 62
     7
370
    35
100
AcDbPolyline
 90
        3
 70
     0
 43
0.0
 10
85.391174
 20
18.068148
 10
84.873535
 20
20.0
 10
84.355896
 20
18.068148
  0
LINE
  5
384
330
135E
100
AcDbEntity
  8
0
 62
     7
370
    13
100
AcDbLine
 10
84.873535
 20
0.0
 30
0.0
 11
84.873535
 21
20.0
 31
0.0
  0
ENDBLK
  5
18EE
330
135E
100
AcDbEntity
  8
0
100
AcDbBlockEnd
  0
BLOCK
  5
18EF
330
135F
100
AcDbEntity
  8
0
100
AcDbBlockBegin
  2
BLOCK23
 70
     0
 10
0.0
 20
0.0
 30
0.0
  3
BLOCK23
  1

  0
TEXT
  5
387
330
135F
100
AcDbEntity
  8
0
 62
   172
370
    13
100
AcDbText
 10
-82.537628
 20
208.577423
 30
0.0
 40
3.0
  1
151.7
 41
1.751633202614378
 72
     5
 11
-69.137634
 21
208.577423
 31
0.0
100
AcDbText
  0
LINE
  5
388
330
135F
100
AcDbEntity
  8
0
 62
   172
370
    13
100
AcDbLine
 10
-151.675262
 20
128.395523
 30
0.0
 11
-151.675262
 21
208.577423
 31
0.0
  0
LINE
  5
389
330
135F
100
AcDbEntity
  8
0
 62
   172
370
    13
100
AcDbLine
 10
0.0
 20
157.588943
 30
0.0
 11
0.0
 21
208.577423
 31
0.0
  0
LWPOLYLINE
  5
38A
330
135F
100
AcDbEntity
  8
0
 62
   172
370
    35
100
AcDbPolyline
 90
        3
 70
     0
 43
0.0
 10
-149.743408
 20
207.095062
 10
-151.675262
 20
206.577423
 10
-149.743408
 20
206.059784
  0
LWPOLYLINE
  5
38F
330
135F
100
AcDbEntity
  8
0
 62
   172
370
    35
100
AcDbPolyline
 90
        3
 70
     0
 43
0.0
 10
-1.931852
 20
206.059784
 10
0.0
 20
206.577423
 10
-1.931852
 20
207.095062
  0
LINE
  5
394
330
135F
100
AcDbEntity
  8
0
 62
   172
370
    13
100
AcDbLine
 10
-151.675262
 20
206.577423
 30
0.0
 11
0.0
 21
206.577423
 31
0.0
  0
ENDBLK
  5
18F0
330
135F
100
AcDbEntity
  8
0
100
AcDbBlockEnd
  0
BLOCK
  5
18F1
330
1360
100
AcDbEntity
  8
0
100
AcDbBlockBegin
  2
BLOCK24
 70
     0
 10
0.0
 20
0.0
 30
0.0
  3
BLOCK24
  1

  0
TEXT
  5
397
330
1360
100
AcDbEntity
  8
0
 62
     7
370
    13
100
AcDbText
 10
105.130333
 20
208.577423
 30
0.0
 40
3.0
  1
223.7
 41
1.51412361581921
 72
     5
 11
118.530327
 21
208.577423
 31
0.0
100
AcDbText
  0
LINE
  5
398
330
1360
100
AcDbEntity
  8
0
 62
     7
370
    13
100
AcDbLine
 10
0.0
 20
157.588943
 30
0.0
 11
0.0
 21
208.577423
 31
0.0
  0
LINE
  5
399
330
1360
100
AcDbEntity
  8
0
 62
     7
370
    13
100
AcDbLine
 10
223.66066
 20
0.999999
 30
0.0
 11
223.66066
 21
208.577423
 31
0.0
  0
LWPOLYLINE
  5
39A
330
1360
100
AcDbEntity
  8
0
 62
     7
370
    35
100
AcDbPolyline
 90
        3
 70
     0
 43
0.0
 10
1.931852
 20
207.095062
 10
0.0
 20
206.577423
 10
1.931852
 20
206.059784
  0
LWPOLYLINE
  5
39F
330
1360
100
AcDbEntity
  8
0
 62
     7
370
    35
100
AcDbPolyline
 90
        3
 70
     0
 43
0.0
 10
221.728806
 20
206.059784
 10
223.66066
 20
206.577423
 10
221.728806
 20
207.095062
  0
LINE
  5
3A4
330
1360
100
AcDbEntity
  8
0
 62
     7
370
    13
100
AcDbLine
 10
0.0
 20
206.577423
 30
0.0
 11
223.66066
 21
206.577423
 31
0.0
  0
ENDBLK
  5
18F2
330
1360
100
AcDbEntity
  8
0
100
AcDbBlockEnd
  0
BLOCK
  5
18F3
330
1361
100
AcDbEntity
  8
0
100
AcDbBlockBegin
  2
BLOCK25
 70
     0
 10
0.0
 20
0.0
 30
0.0
  3
BLOCK25
  1

  0
TEXT
  5
3A7
330
1361
100
AcDbEntity
  8
0
 62
     7
370
    13
100
AcDbText
 10
53.599998
 20
197.497482
 30
0.0
 40
3.0
  1
115
 41
1.677420215053764
 72
     5
 11
61.400002
 21
197.497482
 31
0.0
100
AcDbText
  0
LINE
  5
3A8
330
1361
100
AcDbEntity
  8
0
 62
     7
370
    13
100
AcDbLine
 10
0.0
 20
157.588943
 30
0.0
 11
0.0
 21
197.497482
 31
0.0
  0
LINE
  5
3A9
330
1361
100
AcDbEntity
  8
0
 62
     7
370
    13
100
AcDbLine
 10
115.0
 20
41.299999
 30
0.0
 11
115.0
 21
197.497482
 31
0.0
  0
LWPOLYLINE
  5
3AA
330
1361
100
AcDbEntity
  8
0
 62
     7
370
    35
100
AcDbPolyline
 90
        3
 70
     0
 43
0.0
 10
113.068146
 20
194.979843
 10
115.0
 20
195.497482
 10
113.068146
 20
196.015121
  0
LWPOLYLINE
  5
3AF
330
1361
100
AcDbEntity
  8
0
 62
     7
370
    35
100
AcDbPolyline
 90
        3
 70
     0
 43
0.0
 10
1.931852
 20
196.015121
 10
0.0
 20
195.497482
 10
1.931852
 20
194.979843
  0
LINE
  5
3B4
330
1361
100
AcDbEntity
  8
0
 62
     7
370
    13
100
AcDbLine
 10
0.0
 20
195.497482
 30
0.0
 11
115.0
 21
195.497482
 31
0.0
  0
ENDBLK
  5
18F4
330
1361
100
AcDbEntity
  8
0
100
AcDbBlockEnd
  0
BLOCK
  5
18F5
330
1362
100
AcDbEntity
  8
0
100
AcDbBlockBegin
  2
BLOCK26
 70
     0
 10
0.0
 20
0.0
 30
0.0
  3
BLOCK26
  1

  0
TEXT
  5
3B7
330
1362
100
AcDbEntity
  8
0
 62
     7
370
    13
100
AcDbText
 10
-166.330688
 20
56.947449
 30
0.0
 40
3.0
  1
127.3
 50
90.0
 41
1.624242545454545
 72
     5
 11
-166.330688
 21
70.34745
 31
0.0
100
AcDbText
  0
LWPOLYLINE
  5
3B8
330
1362
100
AcDbEntity
  8
0
 62
     7
370
    35
100
AcDbPolyline
 90
        3
 70
     0
 43
0.0
 10
-163.813049
 20
125.363052
 10
-164.330688
 20
127.294899
 10
-164.848328
 20
125.363052
  0
LWPOLYLINE
  5
3BD
330
1362
100
AcDbEntity
  8
0
 62
     7
370
    35
100
AcDbPolyline
 90
        3
 70
     0
 43
0.0
 10
-164.848328
 20
1.931852
 10
-164.330688
 20
0.0
 10
-163.813049
 20
1.931852
  0
LINE
  5
3C2
330
1362
100
AcDbEntity
  8
0
 62
     7
370
    13
100
AcDbLine
 10
-164.330688
 20
0.0
 30
0.0
 11
-164.330688
 21
127.294899
 31
0.0
  0
ENDBLK
  5
18F6
330
1362
100
AcDbEntity
  8
0
100
AcDbBlockEnd
  0
BLOCK
  5
18F7
330
1363
100
AcDbEntity
  8
0
100
AcDbBlockBegin
  2
BLOCK27
 70
     0
 10
0.0
 20
0.0
 30
0.0
  3
BLOCK27
  1

  0
TEXT
  5
3C5
330
1363
100
AcDbEntity
  8
0
 62
     7
370
    13
100
AcDbText
 10
-166.330688
 20
-70.34745
 30
0.0
 40
3.0
  1
127.3
 50
90.0
 41
1.624242545454545
 72
     5
 11
-166.330688
 21
-56.947449
 31
0.0
100
AcDbText
  0
LINE
  5
3C6
330
1363
100
AcDbEntity
  8
0
 62
     7
 48
0.341386
370
    13
100
AcDbLine
 10
-152.675262
 20
-127.294899
 30
0.0
 11
-166.330688
 21
-127.294899
 31
0.0
  0
LWPOLYLINE
  5
3C7
330
1363
100
AcDbEntity
  8
0
 62
     7
370
    35
100
AcDbPolyline
 90
        3
 70
     0
 43
0.0
 10
-164.848328
 20
-125.363052
 10
-164.330688
 20
-127.294899
 10
-163.813049
 20
-125.363052
  0
LWPOLYLINE
  5
3CC
330
1363
100
AcDbEntity
  8
0
 62
     7
370
    35
100
AcDbPolyline
 90
        3
 70
     0
 43
0.0
 10
-163.813049
 20
-1.931852
 10
-164.330688
 20
0.0
 10
-164.848328
 20
-1.931852
  0
LINE
  5
3D1
330
1363
100
AcDbEntity
  8
0
 62
     7
370
    13
100
AcDbLine
 10
-164.330688
 20
-127.294899
 30
0.0
 11
-164.330688
 21
0.0
 31
0.0
  0
ENDBLK
  5
18F8
330
1363
100
AcDbEntity
  8
0
100
AcDbBlockEnd
  0
BLOCK
  5
18F9
330
1364
100
AcDbEntity
  8
0
100
AcDbBlockBegin
  2
BLOCK28
 70
     0
 10
0.0
 20
0.0
 30
0.0
  3
BLOCK28
  1

  0
TEXT
  5
3D4
330
1364
100
AcDbEntity
  8
0
 62
     7
370
    13
100
AcDbText
 10
-183.359329
 20
8.604641
 30
0.0
 40
3.0
  1
314
 50
90.0
 41
1.405405585585585
 72
     5
 11
-183.359329
 21
16.404642
 31
0.0
100
AcDbText
  0
LINE
  5
3D5
330
1364
100
AcDbEntity
  8
0
 62
     7
370
    13
100
AcDbLine
 10
-35.98938
 20
-157.004761
 30
0.0
 11
-183.359329
 21
-157.004761
 31
0.0
  0
LINE
  5
3D6
330
1364
100
AcDbEntity
  8
0
 62
     7
370
    13
100
AcDbLine
 10
-35.98938
 20
157.004761
 30
0.0
 11
-183.359329
 21
157.004761
 31
0.0
  0
LWPOLYLINE
  5
3D7
330
1364
100
AcDbEntity
  8
0
 62
     7
370
    35
100
AcDbPolyline
 90
        3
 70
     0
 43
0.0
 10
-181.876968
 20
-155.072906
 10
-181.359329
 20
-157.004761
 10
-180.84169
 20
-155.072906
  0
LWPOLYLINE
  5
3DC
330
1364
100
AcDbEntity
  8
0
 62
     7
370
    35
100
AcDbPolyline
 90
        3
 70
     0
 43
0.0
 10
-180.84169
 20
155.072906
 10
-181.359329
 20
157.004761
 10
-181.876968
 20
155.072906
  0
LINE
  5
3E1
330
1364
100
AcDbEntity
  8
0
 62
     7
370
    13
100
AcDbLine
 10
-181.359329
 20
-157.004761
 30
0.0
 11
-181.359329
 21
157.004761
 31
0.0
  0
ENDBLK
  5
18FA
330
1364
100
AcDbEntity
  8
0
100
AcDbBlockEnd
  0
BLOCK
  5
18FB
330
1365
100
AcDbEntity
  8
0
100
AcDbBlockBegin
  2
BLOCK29
 70
     0
 10
0.0
 20
0.0
 30
0.0
  3
BLOCK29
  1

  0
TEXT
  5
3E4
330
1365
100
AcDbEntity
  8
0
 62
     7
370
    13
100
AcDbText
 10
-20.286154
 20
-166.184067
 30
0.0
 40
3.0
  1
35
 41
1.333333333333333
 72
     5
 11
-15.286154
 21
-166.184067
 31
0.0
100
AcDbText
  0
LINE
  5
3E5
330
1365
100
AcDbEntity
  8
0
 62
     7
 48
0.304483
370
    13
100
AcDbLine
 10
-34.98938
 20
-158.004761
 30
0.0
 11
-34.98938
 21
-170.184067
 31
0.0
  0
LINE
  5
3E6
330
1365
100
AcDbEntity
  8
0
 62
     7
 48
0.314878
370
    13
100
AcDbLine
 10
0.0
 20
-157.588943
 30
0.0
 11
0.0
 21
-170.184067
 31
0.0
  0
LWPOLYLINE
  5
3E7
330
1365
100
AcDbEntity
  8
0
 62
     7
370
    35
100
AcDbPolyline
 90
        3
 70
     0
 43
0.0
 10
-1.931852
 20
-168.701706
 10
0.0
 20
-168.184067
 10
-1.931852
 20
-167.666443
  0
LWPOLYLINE
  5
3EC
330
1365
100
AcDbEntity
  8
0
 62
     7
370
    35
100
AcDbPolyline
 90
        3
 70
     0
 43
0.0
 10
-33.057526
 20
-167.666443
 10
-34.98938
 20
-168.184067
 10
-33.057526
 20
-168.701706
  0
LINE
  5
3F1
330
1365
100
AcDbEntity
  8
0
 62
     7
370
    13
100
AcDbLine
 10
-34.98938
 20
-168.184067
 30
0.0
 11
0.0
 21
-168.184067
 31
0.0
  0
ENDBLK
  5
18FC
330
1365
100
AcDbEntity
  8
0
100
AcDbBlockEnd
  0
BLOCK
  5
18FD
330
1366
100
AcDbEntity
  8
0
100
AcDbBlockBegin
  2
BLOCK30
 70
     0
 10
0.0
 20
0.0
 30
0.0
  3
BLOCK30
  1

  0
TEXT
  5
3F4
330
1366
100
AcDbEntity
  8
0
 62
     7
370
    13
100
AcDbText
 10
-164.96022
 20
168.751907
 30
0.0
 40
3.0
  1
27.5
 50
316.5026279150778
 41
1.570369760357736
 72
     5
 11
-157.27092
 21
161.455704
 31
0.0
100
AcDbText
  0
TEXT
  5
3F5
330
1366
100
AcDbEntity
  8
0
 62
     7
370
    13
100
AcDbText
 10
-167.281525
 20
170.954544
 30
0.0
 40
3.0
  1
R
 50
316.5024032677552
 41
1.128205032486929
 72
     5
 11
-165.685638
 21
169.440231
 31
0.0
100
AcDbText
  0
LWPOLYLINE
  5
3F6
330
1366
100
AcDbEntity
  8
0
 62
     7
370
    35
100
AcDbPolyline
 90
        3
 70
     0
 43
0.0
 10
-145.881607
 20
147.177979
 10
-144.123932
 20
146.22374
 10
-145.169006
 20
147.92897
  0
LINE
  5
3FB
330
1366
100
AcDbEntity
  8
0
 62
     7
370
    13
100
AcDbLine
 10
-124.175262
 20
127.294899
 30
0.0
 11
-168.658157
 21
169.503723
 31
0.0
  0
ENDBLK
  5
18FE
330
1366
100
AcDbEntity
  8
0
100
AcDbBlockEnd
  0
BLOCK
  5
18FF
330
1367
100
AcDbEntity
  8
0
100
AcDbBlockBegin
  2
BLOCK31
 70
     0
 10
0.0
 20
0.0
 30
0.0
  3
BLOCK31
  1

  0
TEXT
  5
3FE
330
1367
100
AcDbEntity
  8
0
 62
     7
370
    13
100
AcDbText
 10
82.908119
 20
-163.598236
 30
0.0
 40
3.0
  1
1076.7
 50
275.4840161542014
 41
1.565217784965159
 72
     5
 11
84.456322
 21
-179.724091
 31
0.0
100
AcDbText
  0
TEXT
  5
3FF
330
1367
100
AcDbEntity
  8
0
 62
     7
370
    13
100
AcDbText
 10
82.602295
 20
-160.412872
 30
0.0
 40
3.0
  1
R
 50
275.4840199568242
 41
1.128211124269032
 72
     5
 11
82.812546
 21
-162.602814
 31
0.0
100
AcDbText
  0
LWPOLYLINE
  5
400
330
1367
100
AcDbEntity
  8
0
 62
     7
370
    35
100
AcDbPolyline
 90
        3
 70
     0
 43
0.0
 10
80.47818
 20
-153.799484
 10
79.778282
 20
-151.925949
 10
79.447639
 20
-153.898438
  0
LINE
  5
405
330
1367
100
AcDbEntity
  8
0
 62
     7
370
    13
100
AcDbLine
 10
78.822601
 20
-141.971725
 30
0.0
 11
82.465485
 21
-179.915222
 31
0.0
  0
ENDBLK
  5
1900
330
1367
100
AcDbEntity
  8
0
100
AcDbBlockEnd
  0
BLOCK
  5
1901
330
1368
100
AcDbEntity
  8
0
100
AcDbBlockBegin
  2
BLOCK32
 70
     0
 10
0.0
 20
0.0
 30
0.0
  3
BLOCK32
  1

  0
TEXT
  5
408
330
1368
100
AcDbEntity
  8
0
 62
     7
370
    13
100
AcDbText
 10
-72.294617
 20
-177.550934
 30
0.0
 40
3.0
  1
1828.1
 50
88.93285136244812
 41
1.661795641693373
 72
     5
 11
-71.992905
 21
-161.353729
 31
0.0
100
AcDbText
  0
TEXT
  5
409
330
1368
100
AcDbEntity
  8
0
 62
     7
370
    13
100
AcDbText
 10
-72.354218
 20
-180.750366
 30
0.0
 40
3.0
  1
R
 50
88.93293295276969
 41
1.128203343719463
 72
     5
 11
-72.313248
 21
-178.550751
 31
0.0
100
AcDbText
  0
LWPOLYLINE
  5
40A
330
1368
100
AcDbEntity
  8
0
 62
     7
370
    35
100
AcDbPolyline
 90
        3
 70
     0
 43
0.0
 10
-69.423279
 20
-158.586227
 10
-69.904846
 20
-156.645065
 10
-70.458374
 20
-158.56694
  0
LINE
  5
40F
330
1368
100
AcDbEntity
  8
0
 62
     7
370
    13
100
AcDbLine
 10
-69.718605
 20
-146.646805
 30
0.0
 11
-70.354568
 21
-180.787613
 31
0.0
  0
ENDBLK
  5
1902
330
1368
100
AcDbEntity
  8
0
100
AcDbBlockEnd
  0
BLOCK
  5
1903
330
1369
100
AcDbEntity
  8
0
100
AcDbBlockBegin
  2
BLOCK33
 70
     0
 10
0.0
 20
0.0
 30
0.0
  3
BLOCK33
  1

  0
TEXT
  5
412
330
1369
100
AcDbEntity
  8
0
 62
     7
370
    13
100
AcDbText
 10
234.024994
 20
-80.758652
 30
0.0
 40
3.0
  1
148.1
 50
90.0
 41
1.685692864106676
 72
     5
 11
234.024994
 21
-67.358658
 31
0.0
100
AcDbText
  0
LINE
  5
413
330
1369
100
AcDbEntity
  8
0
 62
     7
370
    13
100
AcDbLine
 10
114.764969
 20
-148.11731
 30
0.0
 11
238.024994
 21
-148.11731
 31
0.0
  0
LINE
  5
414
330
1369
100
AcDbEntity
  8
0
 62
     7
 48
0.334108
370
    13
100
AcDbLine
 10
224.66066
 20
0.0
 30
0.0
 11
238.024994
 21
0.0
 31
0.0
  0
LWPOLYLINE
  5
415
330
1369
100
AcDbEntity
  8
0
 62
     7
370
    35
100
AcDbPolyline
 90
        3
 70
     0
 43
0.0
 10
236.542618
 20
-1.931852
 10
236.024994
 20
0.0
 10
235.507355
 20
-1.931852
  0
LWPOLYLINE
  5
41A
330
1369
100
AcDbEntity
  8
0
 62
     7
370
    35
100
AcDbPolyline
 90
        3
 70
     0
 43
0.0
 10
235.507355
 20
-146.185471
 10
236.024994
 20
-148.11731
 10
236.542618
 20
-146.185471
  0
LINE
  5
41F
330
1369
100
AcDbEntity
  8
0
 62
     7
370
    13
100
AcDbLine
 10
236.024994
 20
-148.11731
 30
0.0
 11
236.024994
 21
0.0
 31
0.0
  0
ENDBLK
  5
1904
330
1369
100
AcDbEntity
  8
0
100
AcDbBlockEnd
  0
BLOCK
  5
1905
330
136A
100
AcDbEntity
  8
0
100
AcDbBlockBegin
  2
BLOCK34
 70
     0
 10
0.0
 20
0.0
 30
0.0
  3
BLOCK34
  1

  0
TEXT
  5
422
330
136A
100
AcDbEntity
  8
0
 62
     7
370
    13
100
AcDbText
 10
234.024994
 20
54.426636
 30
0.0
 40
3.0
  1
122.3
 50
90.0
 41
1.624242545454546
 72
     5
 11
234.024994
 21
67.826637
 31
0.0
100
AcDbText
  0
LINE
  5
423
330
136A
100
AcDbEntity
  8
0
 62
     7
 48
0.334108
370
    13
100
AcDbLine
 10
224.66066
 20
0.0
 30
0.0
 11
238.024994
 21
0.0
 31
0.0
  0
LINE
  5
424
330
136A
100
AcDbEntity
  8
0
 62
     7
370
    13
100
AcDbLine
 10
45.822578
 20
122.253273
 30
0.0
 11
238.024994
 21
122.253273
 31
0.0
  0
LWPOLYLINE
  5
425
330
136A
100
AcDbEntity
  8
0
 62
     7
370
    35
100
AcDbPolyline
 90
        3
 70
     0
 43
0.0
 10
235.507355
 20
1.931852
 10
236.024994
 20
0.0
 10
236.542618
 20
1.931852
  0
LWPOLYLINE
  5
42A
330
136A
100
AcDbEntity
  8
0
 62
     7
370
    35
100
AcDbPolyline
 90
        3
 70
     0
 43
0.0
 10
236.542618
 20
120.321426
 10
236.024994
 20
122.253273
 10
235.507355
 20
120.321426
  0
LINE
  5
42F
330
136A
100
AcDbEntity
  8
0
 62
     7
370
    13
100
AcDbLine
 10
236.024994
 20
0.0
 30
0.0
 11
236.024994
 21
122.253273
 31
0.0
  0
ENDBLK
  5
1906
330
136A
100
AcDbEntity
  8
0
100
AcDbBlockEnd
  0
BLOCK
  5
1907
330
136B
100
AcDbEntity
  8
0
100
AcDbBlockBegin
  2
BLOCK35
 70
     0
 10
0.0
 20
0.0
 30
0.0
  3
BLOCK35
  1

  0
TEXT
  5
432
330
136B
100
AcDbEntity
  8
0
 62
     7
370
    13
100
AcDbText
 10
-15.772753
 20
-184.150925
 30
0.0
 40
3.0
  1
4.9
 41
1.572427526390599
 72
     5
 11
-7.972753
 21
-184.150925
 31
0.0
100
AcDbText
  0
LINE
  5
433
330
136B
100
AcDbEntity
  8
0
 62
     7
370
    13
100
AcDbLine
 10
-4.868911
 20
-157.699478
 30
0.0
 11
-4.868911
 21
-188.150925
 31
0.0
  0
LINE
  5
434
330
136B
100
AcDbEntity
  8
0
 62
     7
370
    13
100
AcDbLine
 10
0.0
 20
-157.588943
 30
0.0
 11
0.0
 21
-188.150925
 31
0.0
  0
LWPOLYLINE
  5
435
330
136B
100
AcDbEntity
  8
0
 62
     7
370
    35
100
AcDbPolyline
 90
        3
 70
     0
 43
0.0
 10
1.931852
 20
-185.633286
 10
0.0
 20
-186.150925
 10
1.931852
 20
-186.668564
  0
LWPOLYLINE
  5
43A
330
136B
100
AcDbEntity
  8
0
 62
     7
370
    35
100
AcDbPolyline
 90
        3
 70
     0
 43
0.0
 10
-6.800762
 20
-186.668564
 10
-4.868911
 20
-186.150925
 10
-6.800762
 20
-185.633286
  0
LINE
  5
43F
330
136B
100
AcDbEntity
  8
0
 62
     7
370
    13
100
AcDbLine
 10
-15.772754
 20
-186.150925
 30
0.0
 11
5.0
 21
-186.150925
 31
0.0
  0
ENDBLK
  5
1908
330
136B
100
AcDbEntity
  8
0
100
AcDbBlockEnd
  0
BLOCK
  5
1909
330
136C
100
AcDbEntity
  8
0
100
AcDbBlockBegin
  2
BLOCK36
 70
     0
 10
0.0
 20
0.0
 30
0.0
  3
BLOCK36
  1

  0
TEXT
  5
442
330
136C
100
AcDbEntity
  8
0
 62
     7
370
    13
100
AcDbText
 10
50.182484
 20
-184.150925
 30
0.0
 40
3.0
  1
113.8
 41
1.751805863319933
 72
     5
 11
63.582485
 21
-184.150925
 31
0.0
100
AcDbText
  0
LINE
  5
443
330
136C
100
AcDbEntity
  8
0
 62
     7
370
    13
100
AcDbLine
 10
0.0
 20
-157.588943
 30
0.0
 11
0.0
 21
-188.150925
 31
0.0
  0
LINE
  5
444
330
136C
100
AcDbEntity
  8
0
 62
     7
370
    13
100
AcDbLine
 10
113.764969
 20
-149.11731
 30
0.0
 11
113.764969
 21
-188.150925
 31
0.0
  0
LWPOLYLINE
  5
445
330
136C
100
AcDbEntity
  8
0
 62
     7
370
    35
100
AcDbPolyline
 90
        3
 70
     0
 43
0.0
 10
1.931852
 20
-185.633286
 10
0.0
 20
-186.150925
 10
1.931852
 20
-186.668564
  0
LWPOLYLINE
  5
44A
330
136C
100
AcDbEntity
  8
0
 62
     7
370
    35
100
AcDbPolyline
 90
        3
 70
     0
 43
0.0
 10
111.833115
 20
-186.668564
 10
113.764969
 20
-186.150925
 10
111.833115
 20
-185.633286
  0
LINE
  5
44F
330
136C
100
AcDbEntity
  8
0
 62
     7
370
    13
100
AcDbLine
 10
0.0
 20
-186.150925
 30
0.0
 11
113.764969
 21
-186.150925
 31
0.0
  0
ENDBLK
  5
190A
330
136C
100
AcDbEntity
  8
0
100
AcDbBlockEnd
  0
BLOCK
  5
190B
330
136D
100
AcDbEntity
  8
0
100
AcDbBlockBegin
  2
BLOCK37
 70
     0
 10
0.0
 20
0.0
 30
0.0
  3
BLOCK37
  1

  0
TEXT
  5
452
330
136D
100
AcDbEntity
  8
0
 62
     7
370
    13
100
AcDbText
 10
257.134369
 20
-81.640244
 30
0.0
 40
3.0
  1
156.7
 50
90.0
 41
1.624241696969696
 72
     5
 11
257.134369
 21
-68.24025
 31
0.0
100
AcDbText
  0
LINE
  5
453
330
136D
100
AcDbEntity
  8
0
 62
     7
370
    13
100
AcDbLine
 10
-3.868911
 20
-156.699478
 30
0.0
 11
261.134369
 21
-156.699478
 31
0.0
  0
LINE
  5
454
330
136D
100
AcDbEntity
  8
0
 62
     7
370
    13
100
AcDbLine
 10
224.66066
 20
0.0
 30
0.0
 11
261.134369
 21
0.0
 31
0.0
  0
LWPOLYLINE
  5
455
330
136D
100
AcDbEntity
  8
0
 62
     7
370
    35
100
AcDbPolyline
 90
        3
 70
     0
 43
0.0
 10
259.652008
 20
-1.931852
 10
259.134369
 20
0.0
 10
258.61673
 20
-1.931852
  0
LWPOLYLINE
  5
45A
330
136D
100
AcDbEntity
  8
0
 62
     7
370
    35
100
AcDbPolyline
 90
        3
 70
     0
 43
0.0
 10
258.61673
 20
-154.767624
 10
259.134369
 20
-156.699478
 10
259.652008
 20
-154.767624
  0
LINE
  5
45F
330
136D
100
AcDbEntity
  8
0
 62
     7
370
    13
100
AcDbLine
 10
259.134369
 20
-156.699478
 30
0.0
 11
259.134369
 21
0.0
 31
0.0
  0
ENDBLK
  5
190C
330
136D
100
AcDbEntity
  8
0
100
AcDbBlockEnd
  0
BLOCK
  5
190D
330
136E
100
AcDbEntity
  8
0
100
AcDbBlockBegin
  2
BLOCK38
 70
     0
 10
0.0
 20
0.0
 30
0.0
  3
BLOCK38
  1

  0
TEXT
  5
462
330
136E
100
AcDbEntity
  8
0
 62
     7
370
    13
100
AcDbText
 10
14.611289
 20
174.624619
 30
0.0
 40
3.0
  1
39.8
 41
1.568109126995968
 72
     5
 11
25.211288
 21
174.624619
 31
0.0
100
AcDbText
  0
LINE
  5
463
330
136E
100
AcDbEntity
  8
0
 62
     7
 48
0.425892
370
    13
100
AcDbLine
 10
0.0
 20
157.588943
 30
0.0
 11
0.0
 21
174.624619
 31
0.0
  0
LINE
  5
464
330
136E
100
AcDbEntity
  8
0
 62
     7
370
    13
100
AcDbLine
 10
39.822578
 20
128.253281
 30
0.0
 11
39.822578
 21
174.624619
 31
0.0
  0
LWPOLYLINE
  5
465
330
136E
100
AcDbEntity
  8
0
 62
     7
370
    35
100
AcDbPolyline
 90
        3
 70
     0
 43
0.0
 10
37.890728
 20
172.106979
 10
39.822578
 20
172.624619
 10
37.890728
 20
173.142258
  0
LWPOLYLINE
  5
46A
330
136E
100
AcDbEntity
  8
0
 62
     7
370
    35
100
AcDbPolyline
 90
        3
 70
     0
 43
0.0
 10
1.931852
 20
173.142258
 10
0.0
 20
172.624619
 10
1.931852
 20
172.106979
  0
LINE
  5
46F
330
136E
100
AcDbEntity
  8
0
 62
     7
370
    13
100
AcDbLine
 10
0.0
 20
172.624619
 30
0.0
 11
39.822578
 21
172.624619
 31
0.0
  0
ENDBLK
  5
190E
330
136E
100
AcDbEntity
  8
0
100
AcDbBlockEnd
  0
BLOCK
  5
190F
330
136F
100
AcDbEntity
  8
0
100
AcDbBlockBegin
  2
BLOCK39
 70
     0
 10
0.0
 20
0.0
 30
0.0
  3
BLOCK39
  1

  0
TEXT
  5
472
330
136F
100
AcDbEntity
  8
0
 62
     7
370
    13
100
AcDbText
 10
-68.787628
 20
174.624619
 30
0.0
 40
3.0
  1
124.2
 41
1.567129638847358
 72
     5
 11
-55.38763
 21
174.624619
 31
0.0
100
AcDbText
  0
LINE
  5
473
330
136F
100
AcDbEntity
  8
0
 62
     7
 48
0.470743
370
    13
100
AcDbLine
 10
-124.175262
 20
155.794907
 30
0.0
 11
-124.175262
 21
174.624619
 31
0.0
  0
LINE
  5
474
330
136F
100
AcDbEntity
  8
0
 62
     7
 48
0.425892
370
    13
100
AcDbLine
 10
0.0
 20
157.588943
 30
0.0
 11
0.0
 21
174.624619
 31
0.0
  0
LWPOLYLINE
  5
475
330
136F
100
AcDbEntity
  8
0
 62
     7
370
    35
100
AcDbPolyline
 90
        3
 70
     0
 43
0.0
 10
-122.243408
 20
173.142258
 10
-124.175262
 20
172.624619
 10
-122.243408
 20
172.106979
  0
LWPOLYLINE
  5
47A
330
136F
100
AcDbEntity
  8
0
 62
     7
370
    35
100
AcDbPolyline
 90
        3
 70
     0
 43
0.0
 10
-1.931852
 20
172.106979
 10
0.0
 20
172.624619
 10
-1.931852
 20
173.142258
  0
LINE
  5
47F
330
136F
100
AcDbEntity
  8
0
 62
     7
370
    13
100
AcDbLine
 10
-124.175262
 20
172.624619
 30
0.0
 11
0.0
 21
172.624619
 31
0.0
  0
ENDBLK
  5
1910
330
136F
100
AcDbEntity
  8
0
100
AcDbBlockEnd
  0
BLOCK
  5
1911
330
1370
100
AcDbEntity
  8
0
100
AcDbBlockBegin
  2
BLOCK40
 70
     0
 10
0.0
 20
0.0
 30
0.0
  3
BLOCK40
  1

  0
TEXT
  5
482
330
1370
100
AcDbEntity
  8
0
 62
     7
370
    13
100
AcDbText
 10
44.049999
 20
185.513138
 30
0.0
 40
3.0
  1
98.7
 41
1.568109126995968
 72
     5
 11
54.649998
 21
185.513138
 31
0.0
100
AcDbText
  0
LINE
  5
483
330
1370
100
AcDbEntity
  8
0
 62
     7
370
    13
100
AcDbLine
 10
0.0
 20
157.588943
 30
0.0
 11
0.0
 21
185.513138
 31
0.0
  0
LINE
  5
484
330
1370
100
AcDbEntity
  8
0
 62
     7
370
    13
100
AcDbLine
 10
98.699997
 20
26.0
 30
0.0
 11
98.699997
 21
185.513138
 31
0.0
  0
LWPOLYLINE
  5
485
330
1370
100
AcDbEntity
  8
0
 62
     7
370
    35
100
AcDbPolyline
 90
        3
 70
     0
 43
0.0
 10
96.76815
 20
182.995499
 10
98.699997
 20
183.513138
 10
96.76815
 20
184.030777
  0
LWPOLYLINE
  5
48A
330
1370
100
AcDbEntity
  8
0
 62
     7
370
    35
100
AcDbPolyline
 90
        3
 70
     0
 43
0.0
 10
1.931852
 20
184.030777
 10
0.0
 20
183.513138
 10
1.931852
 20
182.995499
  0
LINE
  5
48F
330
1370
100
AcDbEntity
  8
0
 62
     7
370
    13
100
AcDbLine
 10
0.0
 20
183.513138
 30
0.0
 11
98.699997
 21
183.513138
 31
0.0
  0
ENDBLK
  5
1912
330
1370
100
AcDbEntity
  8
0
100
AcDbBlockEnd
  0
BLOCK
  5
1913
330
1371
100
AcDbEntity
  8
0
100
AcDbBlockBegin
  2
BLOCK41
 70
     0
 10
0.0
 20
0.0
 30
0.0
  3
BLOCK41
  1

  0
TEXT
  5
492
330
1371
100
AcDbEntity
  8
0
 62
     7
370
    13
100
AcDbText
 10
-72.498306
 20
185.513138
 30
0.0
 40
3.0
  1
131.6
 41
1.751633594771242
 72
     5
 11
-59.098309
 21
185.513138
 31
0.0
100
AcDbText
  0
LINE
  5
493
330
1371
100
AcDbEntity
  8
0
 62
     7
370
    13
100
AcDbLine
 10
-131.596619
 20
64.101212
 30
0.0
 11
-131.596619
 21
185.513138
 31
0.0
  0
LINE
  5
494
330
1371
100
AcDbEntity
  8
0
 62
     7
370
    13
100
AcDbLine
 10
0.0
 20
157.588943
 30
0.0
 11
0.0
 21
185.513138
 31
0.0
  0
LWPOLYLINE
  5
495
330
1371
100
AcDbEntity
  8
0
 62
     7
370
    35
100
AcDbPolyline
 90
        3
 70
     0
 43
0.0
 10
-129.664764
 20
184.030777
 10
-131.596619
 20
183.513138
 10
-129.664764
 20
182.995499
  0
LWPOLYLINE
  5
49A
330
1371
100
AcDbEntity
  8
0
 62
     7
370
    35
100
AcDbPolyline
 90
        3
 70
     0
 43
0.0
 10
-1.931852
 20
182.995499
 10
0.0
 20
183.513138
 10
-1.931852
 20
184.030777
  0
LINE
  5
49F
330
1371
100
AcDbEntity
  8
0
 62
     7
370
    13
100
AcDbLine
 10
-131.596619
 20
183.513138
 30
0.0
 11
0.0
 21
183.513138
 31
0.0
  0
ENDBLK
  5
1914
330
1371
100
AcDbEntity
  8
0
100
AcDbBlockEnd
  0
BLOCK
  5
1915
330
1372
100
AcDbEntity
  8
0
100
AcDbBlockBegin
  2
BLOCK42
 70
     0
 10
0.0
 20
0.0
 30
0.0
  3
BLOCK42
  1

  0
TEXT
  5
4A2
330
1372
100
AcDbEntity
  8
0
 62
     7
370
    70
100
AcDbText
 10
-8.233334
 20
547.0
 30
0.0
 40
2.0
  1
A
 41
0.9777779999999995
 72
     5
 11
-6.766667
 21
547.0
 31
0.0
100
AcDbText
  0
ENDBLK
  5
1916
330
1372
100
AcDbEntity
  8
0
100
AcDbBlockEnd
  0
BLOCK
  5
1917
330
1373
100
AcDbEntity
  8
0
100
AcDbBlockBegin
  2
BLOCK43
 70
     0
 10
0.0
 20
0.0
 30
0.0
  3
BLOCK43
  1

  0
TEXT
  5
4A5
330
1373
100
AcDbEntity
  8
0
 62
     7
370
    70
100
AcDbText
 10
-788.408569
 20
585.5
 30
0.0
 40
2.0
  1
1
 41
2.095248571428588
 72
     5
 11
-786.941895
 21
585.5
 31
0.0
100
AcDbText
  0
ENDBLK
  5
1918
330
1373
100
AcDbEntity
  8
0
100
AcDbBlockEnd
  0
BLOCK
  5
1919
330
1374
100
AcDbEntity
  8
0
100
AcDbBlockBegin
  2
BLOCK44
 70
     0
 10
0.0
 20
0.0
 30
0.0
  3
BLOCK44
  1

  0
TEXT
  5
4A8
330
1374
100
AcDbEntity
  8
0
 62
     7
370
    70
100
AcDbText
 10
-720.825195
 20
585.5
 30
0.0
 40
2.0
  1
2
 41
1.332804155636489
 72
     5
 11
-719.358521
 21
585.5
 31
0.0
100
AcDbText
  0
ENDBLK
  5
191A
330
1374
100
AcDbEntity
  8
0
100
AcDbBlockEnd
  0
BLOCK
  5
191B
330
1375
100
AcDbEntity
  8
0
100
AcDbBlockBegin
  2
BLOCK45
 70
     0
 10
0.0
 20
0.0
 30
0.0
  3
BLOCK45
  1

  0
TEXT
  5
4AB
330
1375
100
AcDbEntity
  8
0
 62
     7
370
    70
100
AcDbText
 10
-653.241882
 20
585.5
 30
0.0
 40
2.0
  1
3
 41
1.333340000000011
 72
     5
 11
-651.775208
 21
585.5
 31
0.0
100
AcDbText
  0
ENDBLK
  5
191C
330
1375
100
AcDbEntity
  8
0
100
AcDbBlockEnd
  0
BLOCK
  5
191D
330
1376
100
AcDbEntity
  8
0
100
AcDbBlockBegin
  2
BLOCK46
 70
     0
 10
0.0
 20
0.0
 30
0.0
  3
BLOCK46
  1

  0
TEXT
  5
4AE
330
1376
100
AcDbEntity
  8
0
 62
     7
370
    70
100
AcDbText
 10
-585.658569
 20
585.5
 30
0.0
 40
2.0
  1
4
 41
1.128210769230778
 72
     5
 11
-584.191895
 21
585.5
 31
0.0
100
AcDbText
  0
ENDBLK
  5
191E
330
1376
100
AcDbEntity
  8
0
100
AcDbBlockEnd
  0
BLOCK
  5
191F
330
1377
100
AcDbEntity
  8
0
100
AcDbBlockBegin
  2
BLOCK47
 70
     0
 10
0.0
 20
0.0
 30
0.0
  3
BLOCK47
  1

  0
TEXT
  5
4B1
330
1377
100
AcDbEntity
  8
0
 62
     7
370
    70
100
AcDbText
 10
-518.075195
 20
585.5
 30
0.0
 40
2.0
  1
5
 41
1.33334000000001
 72
     5
 11
-516.608521
 21
585.5
 31
0.0
100
AcDbText
  0
ENDBLK
  5
1920
330
1377
100
AcDbEntity
  8
0
100
AcDbBlockEnd
  0
BLOCK
  5
1921
330
1378
100
AcDbEntity
  8
0
100
AcDbBlockBegin
  2
BLOCK48
 70
     0
 10
0.0
 20
0.0
 30
0.0
  3
BLOCK48
  1

  0
TEXT
  5
4B4
330
1378
100
AcDbEntity
  8
0
 62
     7
370
    70
100
AcDbText
 10
-450.491882
 20
585.5
 30
0.0
 40
2.0
  1
6
 41
1.333339999999959
 72
     5
 11
-449.025208
 21
585.5
 31
0.0
100
AcDbText
  0
ENDBLK
  5
1922
330
1378
100
AcDbEntity
  8
0
100
AcDbBlockEnd
  0
BLOCK
  5
1923
330
1379
100
AcDbEntity
  8
0
100
AcDbBlockBegin
  2
BLOCK49
 70
     0
 10
0.0
 20
0.0
 30
0.0
  3
BLOCK49
  1

  0
TEXT
  5
4B7
330
1379
100
AcDbEntity
  8
0
 62
     7
370
    70
100
AcDbText
 10
-382.908539
 20
585.5
 30
0.0
 40
2.0
  1
7
 41
1.333340909090917
 72
     5
 11
-381.441864
 21
585.5
 31
0.0
100
AcDbText
  0
ENDBLK
  5
1924
330
1379
100
AcDbEntity
  8
0
100
AcDbBlockEnd
  0
BLOCK
  5
1925
330
137A
100
AcDbEntity
  8
0
100
AcDbBlockBegin
  2
BLOCK50
 70
     0
 10
0.0
 20
0.0
 30
0.0
  3
BLOCK50
  1

  0
TEXT
  5
4BA
330
137A
100
AcDbEntity
  8
0
 62
     7
370
    70
100
AcDbText
 10
-315.325226
 20
585.5
 30
0.0
 40
2.0
  1
8
 41
1.33394724874944
 72
     5
 11
-313.858551
 21
585.5
 31
0.0
100
AcDbText
  0
ENDBLK
  5
1926
330
137A
100
AcDbEntity
  8
0
100
AcDbBlockEnd
  0
BLOCK
  5
1927
330
137B
100
AcDbEntity
  8
0
100
AcDbBlockBegin
  2
BLOCK51
 70
     0
 10
0.0
 20
0.0
 30
0.0
  3
BLOCK51
  1

  0
TEXT
  5
4BD
330
137B
100
AcDbEntity
  8
0
 62
     7
370
    70
100
AcDbText
 10
-247.741882
 20
585.5
 30
0.0
 40
2.0
  1
9
 41
1.324908783338613
 72
     5
 11
-246.275223
 21
585.5
 31
0.0
100
AcDbText
  0
ENDBLK
  5
1928
330
137B
100
AcDbEntity
  8
0
100
AcDbBlockEnd
  0
BLOCK
  5
1929
330
137C
100
AcDbEntity
  8
0
100
AcDbBlockBegin
  2
BLOCK52
 70
     0
 10
0.0
 20
0.0
 30
0.0
  3
BLOCK52
  1

  0
TEXT
  5
4C0
330
137C
100
AcDbEntity
  8
0
 62
     7
370
    70
100
AcDbText
 10
-181.091888
 20
585.5
 30
0.0
 40
2.0
  1
10
 41
1.586109614087684
 72
     5
 11
-177.75856
 21
585.5
 31
0.0
100
AcDbText
  0
ENDBLK
  5
192A
330
137C
100
AcDbEntity
  8
0
100
AcDbBlockEnd
  0
BLOCK
  5
192B
330
137D
100
AcDbEntity
  8
0
100
AcDbBlockBegin
  2
BLOCK53
 70
     0
 10
0.0
 20
0.0
 30
0.0
  3
BLOCK53
  1

  0
TEXT
  5
4C3
330
137D
100
AcDbEntity
  8
0
 62
     7
370
    70
100
AcDbText
 10
-113.508545
 20
585.5
 30
0.0
 40
2.0
  1
11
 41
1.960785882352943
 72
     5
 11
-110.175209
 21
585.5
 31
0.0
100
AcDbText
  0
ENDBLK
  5
192C
330
137D
100
AcDbEntity
  8
0
100
AcDbBlockEnd
  0
BLOCK
  5
192D
330
137E
100
AcDbEntity
  8
0
100
AcDbBlockBegin
  2
BLOCK54
 70
     0
 10
0.0
 20
0.0
 30
0.0
  3
BLOCK54
  1

  0
TEXT
  5
4C6
330
137E
100
AcDbEntity
  8
0
 62
     7
370
    70
100
AcDbText
 10
-45.925217
 20
585.5
 30
0.0
 40
2.0
  1
12
 41
1.586966746917156
 72
     5
 11
-42.591885
 21
585.5
 31
0.0
100
AcDbText
  0
ENDBLK
  5
192E
330
137E
100
AcDbEntity
  8
0
100
AcDbBlockEnd
  0
BLOCK
  5
192F
330
137F
100
AcDbEntity
  8
0
100
AcDbBlockBegin
  2
BLOCK55
 70
     0
 10
0.0
 20
0.0
 30
0.0
  3
BLOCK55
  1

  0
TEXT
  5
4C9
330
137F
100
AcDbEntity
  8
0
 62
     7
370
    70
100
AcDbText
 10
-8.233334
 20
475.25
 30
0.0
 40
2.0
  1
B
 41
1.128205384615384
 72
     5
 11
-6.766667
 21
475.25
 31
0.0
100
AcDbText
  0
ENDBLK
  5
1930
330
137F
100
AcDbEntity
  8
0
100
AcDbBlockEnd
  0
BLOCK
  5
1931
330
1380
100
AcDbEntity
  8
0
100
AcDbBlockBegin
  2
BLOCK56
 70
     0
 10
0.0
 20
0.0
 30
0.0
  3
BLOCK56
  1

  0
TEXT
  5
4CC
330
1380
100
AcDbEntity
  8
0
 62
     7
370
    70
100
AcDbText
 10
-8.233334
 20
403.5
 30
0.0
 40
2.0
  1
C
 41
1.333333636363636
 72
     5
 11
-6.766667
 21
403.5
 31
0.0
100
AcDbText
  0
ENDBLK
  5
1932
330
1380
100
AcDbEntity
  8
0
100
AcDbBlockEnd
  0
BLOCK
  5
1933
330
1381
100
AcDbEntity
  8
0
100
AcDbBlockBegin
  2
BLOCK57
 70
     0
 10
0.0
 20
0.0
 30
0.0
  3
BLOCK57
  1

  0
TEXT
  5
4CF
330
1381
100
AcDbEntity
  8
0
 62
     7
370
    70
100
AcDbText
 10
-8.233334
 20
331.75
 30
0.0
 40
2.0
  1
D
 41
1.128205384615384
 72
     5
 11
-6.766667
 21
331.75
 31
0.0
100
AcDbText
  0
ENDBLK
  5
1934
330
1381
100
AcDbEntity
  8
0
100
AcDbBlockEnd
  0
BLOCK
  5
1935
330
1382
100
AcDbEntity
  8
0
100
AcDbBlockBegin
  2
BLOCK58
 70
     0
 10
0.0
 20
0.0
 30
0.0
  3
BLOCK58
  1

  0
TEXT
  5
4D2
330
1382
100
AcDbEntity
  8
0
 62
     7
370
    70
100
AcDbText
 10
-8.233334
 20
260.0
 30
0.0
 40
2.0
  1
E
 41
1.333333636363636
 72
     5
 11
-6.766667
 21
260.0
 31
0.0
100
AcDbText
  0
ENDBLK
  5
1936
330
1382
100
AcDbEntity
  8
0
100
AcDbBlockEnd
  0
BLOCK
  5
1937
330
1383
100
AcDbEntity
  8
0
100
AcDbBlockBegin
  2
BLOCK59
 70
     0
 10
0.0
 20
0.0
 30
0.0
  3
BLOCK59
  1

  0
TEXT
  5
4D5
330
1383
100
AcDbEntity
  8
0
 62
     7
370
    70
100
AcDbText
 10
-8.233334
 20
188.25
 30
0.0
 40
2.0
  1
F
 41
1.333333636363636
 72
     5
 11
-6.766667
 21
188.25
 31
0.0
100
AcDbText
  0
ENDBLK
  5
1938
330
1383
100
AcDbEntity
  8
0
100
AcDbBlockEnd
  0
BLOCK
  5
1939
330
1384
100
AcDbEntity
  8
0
100
AcDbBlockBegin
  2
BLOCK60
 70
     0
 10
0.0
 20
0.0
 30
0.0
  3
BLOCK60
  1

  0
TEXT
  5
4D8
330
1384
100
AcDbEntity
  8
0
 62
     7
370
    70
100
AcDbText
 10
-8.233334
 20
116.5
 30
0.0
 40
2.0
  1
G
 41
1.128205384615384
 72
     5
 11
-6.766667
 21
116.5
 31
0.0
100
AcDbText
  0
ENDBLK
  5
193A
330
1384
100
AcDbEntity
  8
0
100
AcDbBlockEnd
  0
BLOCK
  5
193B
330
1385
100
AcDbEntity
  8
0
100
AcDbBlockBegin
  2
BLOCK61
 70
     0
 10
0.0
 20
0.0
 30
0.0
  3
BLOCK61
  1

  0
TEXT
  5
4DB
330
1385
100
AcDbEntity
  8
0
 62
     7
370
    70
100
AcDbText
 10
-8.233334
 20
44.75
 30
0.0
 40
2.0
  1
H
 41
1.128205384615384
 72
     5
 11
-6.766667
 21
44.75
 31
0.0
100
AcDbText
  0
ENDBLK
  5
193C
330
1385
100
AcDbEntity
  8
0
100
AcDbBlockEnd
  0
BLOCK
  5
193D
330
1386
100
AcDbEntity
  8
0
100
AcDbBlockBegin
  2
BLOCK62
 70
     0
 10
0.0
 20
0.0
 30
0.0
  3
BLOCK62
  1

  0
TEXT
  5
4DE
330
1386
100
AcDbEntity
  8
0
 62
     7
370
    70
100
AcDbText
 10
-824.233337
 20
547.0
 30
0.0
 40
2.0
  1
A
 41
0.9777826666666746
 72
     5
 11
-822.766663
 21
547.0
 31
0.0
100
AcDbText
  0
ENDBLK
  5
193E
330
1386
100
AcDbEntity
  8
0
100
AcDbBlockEnd
  0
BLOCK
  5
193F
330
1387
100
AcDbEntity
  8
0
100
AcDbBlockBegin
  2
BLOCK63
 70
     0
 10
0.0
 20
0.0
 30
0.0
  3
BLOCK63
  1

  0
TEXT
  5
4E1
330
1387
100
AcDbEntity
  8
0
 62
     7
370
    70
100
AcDbText
 10
-824.233337
 20
475.25
 30
0.0
 40
2.0
  1
B
 41
1.128210769230778
 72
     5
 11
-822.766663
 21
475.25
 31
0.0
100
AcDbText
  0
ENDBLK
  5
1940
330
1387
100
AcDbEntity
  8
0
100
AcDbBlockEnd
  0
BLOCK
  5
1941
330
1388
100
AcDbEntity
  8
0
100
AcDbBlockBegin
  2
BLOCK64
 70
     0
 10
0.0
 20
0.0
 30
0.0
  3
BLOCK64
  1

  0
TEXT
  5
4E4
330
1388
100
AcDbEntity
  8
0
 62
     7
370
    70
100
AcDbText
 10
-824.233337
 20
403.5
 30
0.0
 40
2.0
  1
C
 41
1.333340000000011
 72
     5
 11
-822.766663
 21
403.5
 31
0.0
100
AcDbText
  0
ENDBLK
  5
1942
330
1388
100
AcDbEntity
  8
0
100
AcDbBlockEnd
  0
BLOCK
  5
1943
330
1389
100
AcDbEntity
  8
0
100
AcDbBlockBegin
  2
BLOCK65
 70
     0
 10
0.0
 20
0.0
 30
0.0
  3
BLOCK65
  1

  0
TEXT
  5
4E7
330
1389
100
AcDbEntity
  8
0
 62
     7
370
    70
100
AcDbText
 10
-824.233337
 20
331.75
 30
0.0
 40
2.0
  1
D
 41
1.128210769230778
 72
     5
 11
-822.766663
 21
331.75
 31
0.0
100
AcDbText
  0
ENDBLK
  5
1944
330
1389
100
AcDbEntity
  8
0
100
AcDbBlockEnd
  0
BLOCK
  5
1945
330
138A
100
AcDbEntity
  8
0
100
AcDbBlockBegin
  2
BLOCK66
 70
     0
 10
0.0
 20
0.0
 30
0.0
  3
BLOCK66
  1

  0
TEXT
  5
4EA
330
138A
100
AcDbEntity
  8
0
 62
     7
370
    70
100
AcDbText
 10
-824.233337
 20
260.0
 30
0.0
 40
2.0
  1
E
 41
1.333340000000011
 72
     5
 11
-822.766663
 21
260.0
 31
0.0
100
AcDbText
  0
ENDBLK
  5
1946
330
138A
100
AcDbEntity
  8
0
100
AcDbBlockEnd
  0
BLOCK
  5
1947
330
138B
100
AcDbEntity
  8
0
100
AcDbBlockBegin
  2
BLOCK67
 70
     0
 10
0.0
 20
0.0
 30
0.0
  3
BLOCK67
  1

  0
TEXT
  5
4ED
330
138B
100
AcDbEntity
  8
0
 62
     7
370
    70
100
AcDbText
 10
-824.233337
 20
188.25
 30
0.0
 40
2.0
  1
F
 41
1.333340000000011
 72
     5
 11
-822.766663
 21
188.25
 31
0.0
100
AcDbText
  0
ENDBLK
  5
1948
330
138B
100
AcDbEntity
  8
0
100
AcDbBlockEnd
  0
BLOCK
  5
1949
330
138C
100
AcDbEntity
  8
0
100
AcDbBlockBegin
  2
BLOCK68
 70
     0
 10
0.0
 20
0.0
 30
0.0
  3
BLOCK68
  1

  0
TEXT
  5
4F0
330
138C
100
AcDbEntity
  8
0
 62
     7
370
    70
100
AcDbText
 10
-824.233337
 20
116.5
 30
0.0
 40
2.0
  1
G
 41
1.128210769230778
 72
     5
 11
-822.766663
 21
116.5
 31
0.0
100
AcDbText
  0
ENDBLK
  5
194A
330
138C
100
AcDbEntity
  8
0
100
AcDbBlockEnd
  0
BLOCK
  5
194B
330
138D
100
AcDbEntity
  8
0
100
AcDbBlockBegin
  2
BLOCK69
 70
     0
 10
0.0
 20
0.0
 30
0.0
  3
BLOCK69
  1

  0
TEXT
  5
4F3
330
138D
100
AcDbEntity
  8
0
 62
     7
370
    70
100
AcDbText
 10
-824.233337
 20
44.75
 30
0.0
 40
2.0
  1
H
 41
1.128210769230778
 72
     5
 11
-822.766663
 21
44.75
 31
0.0
100
AcDbText
  0
ENDBLK
  5
194C
330
138D
100
AcDbEntity
  8
0
100
AcDbBlockEnd
  0
BLOCK
  5
194D
330
138E
100
AcDbEntity
  8
0
100
AcDbBlockBegin
  2
BLOCK70
 70
     0
 10
0.0
 20
0.0
 30
0.0
  3
BLOCK70
  1

  0
TEXT
  5
4F6
330
138E
100
AcDbEntity
  8
0
 62
     7
370
    70
100
AcDbText
 10
-45.925217
 20
6.5
 30
0.0
 40
2.0
  1
12
 41
1.586966746917156
 72
     5
 11
-42.591885
 21
6.5
 31
0.0
100
AcDbText
  0
ENDBLK
  5
194E
330
138E
100
AcDbEntity
  8
0
100
AcDbBlockEnd
  0
BLOCK
  5
194F
330
138F
100
AcDbEntity
  8
0
100
AcDbBlockBegin
  2
BLOCK71
 70
     0
 10
0.0
 20
0.0
 30
0.0
  3
BLOCK71
  1

  0
TEXT
  5
4F9
330
138F
100
AcDbEntity
  8
0
 62
     7
370
    70
100
AcDbText
 10
-113.508545
 20
6.5
 30
0.0
 40
2.0
  1
11
 41
1.960785882352943
 72
     5
 11
-110.175209
 21
6.5
 31
0.0
100
AcDbText
  0
ENDBLK
  5
1950
330
138F
100
AcDbEntity
  8
0
100
AcDbBlockEnd
  0
BLOCK
  5
1951
330
1390
100
AcDbEntity
  8
0
100
AcDbBlockBegin
  2
BLOCK72
 70
     0
 10
0.0
 20
0.0
 30
0.0
  3
BLOCK72
  1

  0
TEXT
  5
4FC
330
1390
100
AcDbEntity
  8
0
 62
     7
370
    70
100
AcDbText
 10
-181.091888
 20
6.5
 30
0.0
 40
2.0
  1
10
 41
1.586109614087684
 72
     5
 11
-177.75856
 21
6.5
 31
0.0
100
AcDbText
  0
ENDBLK
  5
1952
330
1390
100
AcDbEntity
  8
0
100
AcDbBlockEnd
  0
BLOCK
  5
1953
330
1391
100
AcDbEntity
  8
0
100
AcDbBlockBegin
  2
BLOCK73
 70
     0
 10
0.0
 20
0.0
 30
0.0
  3
BLOCK73
  1

  0
TEXT
  5
4FF
330
1391
100
AcDbEntity
  8
0
 62
     7
370
    70
100
AcDbText
 10
-247.741882
 20
6.5
 30
0.0
 40
2.0
  1
9
 41
1.324908783338613
 72
     5
 11
-246.275223
 21
6.5
 31
0.0
100
AcDbText
  0
ENDBLK
  5
1954
330
1391
100
AcDbEntity
  8
0
100
AcDbBlockEnd
  0
BLOCK
  5
1955
330
1392
100
AcDbEntity
  8
0
100
AcDbBlockBegin
  2
BLOCK74
 70
     0
 10
0.0
 20
0.0
 30
0.0
  3
BLOCK74
  1

  0
TEXT
  5
502
330
1392
100
AcDbEntity
  8
0
 62
     7
370
    70
100
AcDbText
 10
-315.325226
 20
6.5
 30
0.0
 40
2.0
  1
8
 41
1.33394724874944
 72
     5
 11
-313.858551
 21
6.5
 31
0.0
100
AcDbText
  0
ENDBLK
  5
1956
330
1392
100
AcDbEntity
  8
0
100
AcDbBlockEnd
  0
BLOCK
  5
1957
330
1393
100
AcDbEntity
  8
0
100
AcDbBlockBegin
  2
BLOCK75
 70
     0
 10
0.0
 20
0.0
 30
0.0
  3
BLOCK75
  1

  0
TEXT
  5
505
330
1393
100
AcDbEntity
  8
0
 62
     7
370
    70
100
AcDbText
 10
-382.908539
 20
6.5
 30
0.0
 40
2.0
  1
7
 41
1.333340909090917
 72
     5
 11
-381.441864
 21
6.5
 31
0.0
100
AcDbText
  0
ENDBLK
  5
1958
330
1393
100
AcDbEntity
  8
0
100
AcDbBlockEnd
  0
BLOCK
  5
1959
330
1394
100
AcDbEntity
  8
0
100
AcDbBlockBegin
  2
BLOCK76
 70
     0
 10
0.0
 20
0.0
 30
0.0
  3
BLOCK76
  1

  0
TEXT
  5
508
330
1394
100
AcDbEntity
  8
0
 62
     7
370
    70
100
AcDbText
 10
-450.491882
 20
6.5
 30
0.0
 40
2.0
  1
6
 41
1.333339999999959
 72
     5
 11
-449.025208
 21
6.5
 31
0.0
100
AcDbText
  0
ENDBLK
  5
195A
330
1394
100
AcDbEntity
  8
0
100
AcDbBlockEnd
  0
BLOCK
  5
195B
330
1395
100
AcDbEntity
  8
0
100
AcDbBlockBegin
  2
BLOCK77
 70
     0
 10
0.0
 20
0.0
 30
0.0
  3
BLOCK77
  1

  0
TEXT
  5
50B
330
1395
100
AcDbEntity
  8
0
 62
     7
370
    70
100
AcDbText
 10
-518.075195
 20
6.5
 30
0.0
 40
2.0
  1
5
 41
1.33334000000001
 72
     5
 11
-516.608521
 21
6.5
 31
0.0
100
AcDbText
  0
ENDBLK
  5
195C
330
1395
100
AcDbEntity
  8
0
100
AcDbBlockEnd
  0
BLOCK
  5
195D
330
1396
100
AcDbEntity
  8
0
100
AcDbBlockBegin
  2
BLOCK78
 70
     0
 10
0.0
 20
0.0
 30
0.0
  3
BLOCK78
  1

  0
TEXT
  5
50E
330
1396
100
AcDbEntity
  8
0
 62
     7
370
    70
100
AcDbText
 10
-585.658569
 20
6.5
 30
0.0
 40
2.0
  1
4
 41
1.128210769230778
 72
     5
 11
-584.191895
 21
6.5
 31
0.0
100
AcDbText
  0
ENDBLK
  5
195E
330
1396
100
AcDbEntity
  8
0
100
AcDbBlockEnd
  0
BLOCK
  5
195F
330
1397
100
AcDbEntity
  8
0
100
AcDbBlockBegin
  2
BLOCK79
 70
     0
 10
0.0
 20
0.0
 30
0.0
  3
BLOCK79
  1

  0
TEXT
  5
511
330
1397
100
AcDbEntity
  8
0
 62
     7
370
    70
100
AcDbText
 10
-653.241882
 20
6.5
 30
0.0
 40
2.0
  1
3
 41
1.333340000000011
 72
     5
 11
-651.775208
 21
6.5
 31
0.0
100
AcDbText
  0
ENDBLK
  5
1960
330
1397
100
AcDbEntity
  8
0
100
AcDbBlockEnd
  0
BLOCK
  5
1961
330
1398
100
AcDbEntity
  8
0
100
AcDbBlockBegin
  2
BLOCK80
 70
     0
 10
0.0
 20
0.0
 30
0.0
  3
BLOCK80
  1

  0
TEXT
  5
514
330
1398
100
AcDbEntity
  8
0
 62
     7
370
    70
100
AcDbText
 10
-720.825195
 20
6.5
 30
0.0
 40
2.0
  1
2
 41
1.332804155636489
 72
     5
 11
-719.358521
 21
6.5
 31
0.0
100
AcDbText
  0
ENDBLK
  5
1962
330
1398
100
AcDbEntity
  8
0
100
AcDbBlockEnd
  0
BLOCK
  5
1963
330
1399
100
AcDbEntity
  8
0
100
AcDbBlockBegin
  2
BLOCK81
 70
     0
 10
0.0
 20
0.0
 30
0.0
  3
BLOCK81
  1

  0
TEXT
  5
517
330
1399
100
AcDbEntity
  8
0
 62
     7
370
    70
100
AcDbText
 10
-788.408569
 20
6.5
 30
0.0
 40
2.0
  1
1
 41
2.095248571428588
 72
     5
 11
-786.941895
 21
6.5
 31
0.0
100
AcDbText
  0
ENDBLK
  5
1964
330
1399
100
AcDbEntity
  8
0
100
AcDbBlockEnd
  0
BLOCK
  5
1965
330
139A
100
AcDbEntity
  8
0
100
AcDbBlockBegin
  2
BLOCK82
 70
     0
 10
0.0
 20
0.0
 30
0.0
  3
BLOCK82
  1

  0
TEXT
  5
51A
330
139A
100
AcDbEntity
  8
0
 62
     7
370
    70
100
AcDbText
 10
-832.105896
 20
10.25564
 30
0.0
 40
2.0
  1
GEWISS SpA si riserva tutti i diritti sul presente documento
 50
90.0
 41
1.482022265844083
 72
     5
 11
-832.105896
 21
115.953468
 31
0.0
100
AcDbText
  0
TEXT
  5
51B
330
139A
100
AcDbEntity
  8
0
 62
     7
370
    70
100
AcDbText
 10
-829.305908
 20
10.25564
 30
0.0
 40
2.0
  1
e con quanto rappresentato.E'vietato riprodurlo,utilizzarlo
 50
90.0
 41
1.482443078239783
 72
     5
 11
-829.305908
 21
114.182312
 31
0.0
100
AcDbText
  0
TEXT
  5
51C
330
139A
100
AcDbEntity
  8
0
 62
     7
370
    70
100
AcDbText
 10
-826.825867
 20
10.25564
 30
0.0
 40
1.68
  1
renderlo accessibile a terzi senza autorizzazione scritta
 50
90.0
 41
1.67988699997179
 72
     5
 11
-826.825867
 21
105.533455
 31
0.0
100
AcDbText
  0
ENDBLK
  5
1966
330
139A
100
AcDbEntity
  8
0
100
AcDbBlockEnd
  0
BLOCK
  5
1967
330
139B
100
AcDbEntity
  8
0
100
AcDbBlockBegin
  2
BLOCK83
 70
     0
 10
0.0
 20
0.0
 30
0.0
  3
BLOCK83
  1

  0
TEXT
  5
51F
330
139B
100
AcDbEntity
  8
0
 62
     7
370
    70
100
AcDbText
 10
-832.390015
 20
148.168427
 30
0.0
 40
2.0
  1
GEWISS SpA reserve all rights in this document and in the information
 50
90.0
 41
1.456483793330539
 72
     5
 11
-832.390015
 21
269.806671
 31
0.0
100
AcDbText
  0
TEXT
  5
520
330
139B
100
AcDbEntity
  8
0
 62
     7
370
    70
100
AcDbText
 10
-829.590027
 20
148.168427
 30
0.0
 40
2.0
  1
contained therein. Reproduction, use or disclosure to third parties
 50
90.0
 41
1.494657827052103
 72
     5
 11
-829.590027
 21
266.264343
 31
0.0
100
AcDbText
  0
TEXT
  5
521
330
139B
100
AcDbEntity
  8
0
 62
     7
370
    70
100
AcDbText
 10
-827.109985
 20
148.168427
 30
0.0
 40
1.68
  1
without written authorization is stricty forbidden
 50
90.0
 41
1.682055268224698
 72
     5
 11
-827.109985
 21
231.686508
 31
0.0
100
AcDbText
  0
ENDBLK
  5
1968
330
139B
100
AcDbEntity
  8
0
100
AcDbBlockEnd
  0
BLOCK
  5
1969
330
139C
100
AcDbEntity
  8
0
100
AcDbBlockBegin
  2
BLOCK84
 70
     0
 10
0.0
 20
0.0
 30
0.0
  3
BLOCK84
  1

  0
TEXT
  5
524
330
139C
100
AcDbEntity
  8
100
 62
     7
370
    13
100
AcDbText
 10
-36.20575
 20
47.416668
 30
0.0
 40
1.5
  1
/Approved
 41
1.040192106666667
 72
     5
 11
-26.453949
 21
47.416668
 31
0.0
100
AcDbText
  0
ENDBLK
  5
196A
330
139C
100
AcDbEntity
  8
0
100
AcDbBlockEnd
  0
BLOCK
  5
196B
330
139D
100
AcDbEntity
  8
0
100
AcDbBlockBegin
  2
BLOCK85
 70
     0
 10
0.0
 20
0.0
 30
0.0
  3
BLOCK85
  1

  0
TEXT
  5
527
330
139D
100
AcDbEntity
  8
100
 62
     7
370
    13
100
AcDbText
 10
-49.0
 20
47.416668
 30
0.0
 40
1.5
  1
APPROVATO
 41
1.115646167800453
 72
     5
 11
-36.700001
 21
47.416668
 31
0.0
100
AcDbText
  0
ENDBLK
  5
196C
330
139D
100
AcDbEntity
  8
0
100
AcDbBlockEnd
  0
BLOCK
  5
196D
330
139E
100
AcDbEntity
  8
0
100
AcDbBlockBegin
  2
BLOCK86
 70
     0
 10
0.0
 20
0.0
 30
0.0
  3
BLOCK86
  1

  0
TEXT
  5
52A
330
139E
100
AcDbEntity
  8
0
 62
     7
370
    70
100
AcDbText
 10
-134.746613
 20
20.575142
 30
0.0
 40
2.8
  1
VETRO FINITURA AVENUE 2
 41
1.333315080236079
 72
     5
 11
-75.199936
 21
20.575142
 31
0.0
100
AcDbText
  0
ENDBLK
  5
196E
330
139E
100
AcDbEntity
  8
0
100
AcDbBlockEnd
  0
BLOCK
  5
196F
330
139F
100
AcDbEntity
  8
0
100
AcDbBlockBegin
  2
BLOCK87
 70
     0
 10
0.0
 20
0.0
 30
0.0
  3
BLOCK87
  1

  0
TEXT
  5
52D
330
139F
100
AcDbEntity
  8
100
 62
     7
370
    70
100
AcDbText
 10
-172.267624
 20
70.485474
 30
0.0
 40
2.0
  1
-
 41
1.33332727272729
 72
     5
 11
-170.800964
 21
70.485474
 31
0.0
100
AcDbText
  0
ENDBLK
  5
1970
330
139F
100
AcDbEntity
  8
0
100
AcDbBlockEnd
  0
BLOCK
  5
1971
330
13A0
100
AcDbEntity
  8
0
100
AcDbBlockBegin
  2
BLOCK88
 70
     0
 10
0.0
 20
0.0
 30
0.0
  3
BLOCK88
  1

  0
TEXT
  5
530
330
13A0
100
AcDbEntity
  8
100
 62
     7
370
    70
100
AcDbText
 10
-172.267624
 20
74.485474
 30
0.0
 40
2.0
  1
-
 41
1.33332727272729
 72
     5
 11
-170.800964
 21
74.485474
 31
0.0
100
AcDbText
  0
ENDBLK
  5
1972
330
13A0
100
AcDbEntity
  8
0
100
AcDbBlockEnd
  0
BLOCK
  5
1973
330
13A1
100
AcDbEntity
  8
0
100
AcDbBlockBegin
  2
BLOCK89
 70
     0
 10
0.0
 20
0.0
 30
0.0
  3
BLOCK89
  1

  0
TEXT
  5
533
330
13A1
100
AcDbEntity
  8
100
 62
     7
370
    70
100
AcDbText
 10
-172.267624
 20
78.485474
 30
0.0
 40
2.0
  1
-
 41
1.33332727272729
 72
     5
 11
-170.800964
 21
78.485474
 31
0.0
100
AcDbText
  0
ENDBLK
  5
1974
330
13A1
100
AcDbEntity
  8
0
100
AcDbBlockEnd
  0
BLOCK
  5
1975
330
13A2
100
AcDbEntity
  8
0
100
AcDbBlockBegin
  2
BLOCK90
 70
     0
 10
0.0
 20
0.0
 30
0.0
  3
BLOCK90
  1

  0
TEXT
  5
536
330
13A2
100
AcDbEntity
  8
100
 62
     7
370
    70
100
AcDbText
 10
-172.267624
 20
82.485474
 30
0.0
 40
2.0
  1
-
 41
1.33332727272729
 72
     5
 11
-170.800964
 21
82.485474
 31
0.0
100
AcDbText
  0
ENDBLK
  5
1976
330
13A2
100
AcDbEntity
  8
0
100
AcDbBlockEnd
  0
BLOCK
  5
1977
330
13A3
100
AcDbEntity
  8
0
100
AcDbBlockBegin
  2
BLOCK91
 70
     0
 10
0.0
 20
0.0
 30
0.0
  3
BLOCK91
  1

  0
TEXT
  5
539
330
13A3
100
AcDbEntity
  8
100
 62
     7
370
    70
100
AcDbText
 10
-172.267624
 20
86.485474
 30
0.0
 40
2.0
  1
-
 41
1.33332727272729
 72
     5
 11
-170.800964
 21
86.485474
 31
0.0
100
AcDbText
  0
ENDBLK
  5
1978
330
13A3
100
AcDbEntity
  8
0
100
AcDbBlockEnd
  0
BLOCK
  5
1979
330
13A4
100
AcDbEntity
  8
0
100
AcDbBlockBegin
  2
BLOCK92
 70
     0
 10
0.0
 20
0.0
 30
0.0
  3
BLOCK92
  1

  0
TEXT
  5
53C
330
13A4
100
AcDbEntity
  8
100
 62
     7
370
    70
100
AcDbText
 10
-172.267624
 20
90.485474
 30
0.0
 40
2.0
  1
-
 41
1.33332727272729
 72
     5
 11
-170.800964
 21
90.485474
 31
0.0
100
AcDbText
  0
ENDBLK
  5
197A
330
13A4
100
AcDbEntity
  8
0
100
AcDbBlockEnd
  0
BLOCK
  5
197B
330
13A5
100
AcDbEntity
  8
0
100
AcDbBlockBegin
  2
BLOCK93
 70
     0
 10
0.0
 20
0.0
 30
0.0
  3
BLOCK93
  1

  0
TEXT
  5
53F
330
13A5
100
AcDbEntity
  8
100
 62
     7
370
    70
100
AcDbText
 10
-172.267624
 20
94.485474
 30
0.0
 40
2.0
  1
-
 41
1.33332727272729
 72
     5
 11
-170.800964
 21
94.485474
 31
0.0
100
AcDbText
  0
ENDBLK
  5
197C
330
13A5
100
AcDbEntity
  8
0
100
AcDbBlockEnd
  0
BLOCK
  5
197D
330
13A6
100
AcDbEntity
  8
0
100
AcDbBlockBegin
  2
BLOCK94
 70
     0
 10
0.0
 20
0.0
 30
0.0
  3
BLOCK94
  1

  0
TEXT
  5
542
330
13A6
100
AcDbEntity
  8
100
 62
     7
370
    70
100
AcDbText
 10
-172.267624
 20
71.497437
 30
0.0
 40
2.0
  1
+
 41
1.33332727272729
 72
     5
 11
-170.800964
 21
71.497437
 31
0.0
100
AcDbText
  0
ENDBLK
  5
197E
330
13A6
100
AcDbEntity
  8
0
100
AcDbBlockEnd
  0
BLOCK
  5
197F
330
13A7
100
AcDbEntity
  8
0
100
AcDbBlockBegin
  2
BLOCK95
 70
     0
 10
0.0
 20
0.0
 30
0.0
  3
BLOCK95
  1

  0
TEXT
  5
545
330
13A7
100
AcDbEntity
  8
100
 62
     7
370
    70
100
AcDbText
 10
-172.267624
 20
75.497437
 30
0.0
 40
2.0
  1
+
 41
1.33332727272729
 72
     5
 11
-170.800964
 21
75.497437
 31
0.0
100
AcDbText
  0
ENDBLK
  5
1980
330
13A7
100
AcDbEntity
  8
0
100
AcDbBlockEnd
  0
BLOCK
  5
1981
330
13A8
100
AcDbEntity
  8
0
100
AcDbBlockBegin
  2
BLOCK96
 70
     0
 10
0.0
 20
0.0
 30
0.0
  3
BLOCK96
  1

  0
TEXT
  5
548
330
13A8
100
AcDbEntity
  8
100
 62
     7
370
    70
100
AcDbText
 10
-172.267624
 20
79.497437
 30
0.0
 40
2.0
  1
+
 41
1.33332727272729
 72
     5
 11
-170.800964
 21
79.497437
 31
0.0
100
AcDbText
  0
ENDBLK
  5
1982
330
13A8
100
AcDbEntity
  8
0
100
AcDbBlockEnd
  0
BLOCK
  5
1983
330
13A9
100
AcDbEntity
  8
0
100
AcDbBlockBegin
  2
BLOCK97
 70
     0
 10
0.0
 20
0.0
 30
0.0
  3
BLOCK97
  1

  0
TEXT
  5
54B
330
13A9
100
AcDbEntity
  8
100
 62
     7
370
    70
100
AcDbText
 10
-172.267624
 20
83.497437
 30
0.0
 40
2.0
  1
+
 41
1.33332727272729
 72
     5
 11
-170.800964
 21
83.497437
 31
0.0
100
AcDbText
  0
ENDBLK
  5
1984
330
13A9
100
AcDbEntity
  8
0
100
AcDbBlockEnd
  0
BLOCK
  5
1985
330
13AA
100
AcDbEntity
  8
0
100
AcDbBlockBegin
  2
BLOCK98
 70
     0
 10
0.0
 20
0.0
 30
0.0
  3
BLOCK98
  1

  0
TEXT
  5
54E
330
13AA
100
AcDbEntity
  8
100
 62
     7
370
    70
100
AcDbText
 10
-172.267624
 20
87.497437
 30
0.0
 40
2.0
  1
+
 41
1.33332727272729
 72
     5
 11
-170.800964
 21
87.497437
 31
0.0
100
AcDbText
  0
ENDBLK
  5
1986
330
13AA
100
AcDbEntity
  8
0
100
AcDbBlockEnd
  0
BLOCK
  5
1987
330
13AB
100
AcDbEntity
  8
0
100
AcDbBlockBegin
  2
BLOCK99
 70
     0
 10
0.0
 20
0.0
 30
0.0
  3
BLOCK99
  1

  0
TEXT
  5
551
330
13AB
100
AcDbEntity
  8
100
 62
     7
370
    70
100
AcDbText
 10
-172.267624
 20
91.497437
 30
0.0
 40
2.0
  1
+
 41
1.33332727272729
 72
     5
 11
-170.800964
 21
91.497437
 31
0.0
100
AcDbText
  0
ENDBLK
  5
1988
330
13AB
100
AcDbEntity
  8
0
100
AcDbBlockEnd
  0
BLOCK
  5
1989
330
13AC
100
AcDbEntity
  8
0
100
AcDbBlockBegin
  2
BLOCK100
 70
     0
 10
0.0
 20
0.0
 30
0.0
  3
BLOCK100
  1

  0
TEXT
  5
554
330
13AC
100
AcDbEntity
  8
100
 62
     7
370
    70
100
AcDbText
 10
-172.267624
 20
95.497437
 30
0.0
 40
2.0
  1
+
 41
1.33332727272729
 72
     5
 11
-170.800964
 21
95.497437
 31
0.0
100
AcDbText
  0
ENDBLK
  5
198A
330
13AC
100
AcDbEntity
  8
0
100
AcDbBlockEnd
  0
BLOCK
  5
198B
330
13AD
100
AcDbEntity
  8
0
100
AcDbBlockBegin
  2
BLOCK101
 70
     0
 10
0.0
 20
0.0
 30
0.0
  3
BLOCK101
  1

  0
TEXT
  5
557
330
13AD
100
AcDbEntity
  8
0
 62
     7
370
    70
100
AcDbText
 10
-183.327637
 20
66.912903
 30
0.0
 40
2.0
  1
:
 41
4.888866666666729
 72
     5
 11
-181.860977
 21
66.912903
 31
0.0
100
AcDbText
  0
ENDBLK
  5
198C
330
13AD
100
AcDbEntity
  8
0
100
AcDbBlockEnd
  0
BLOCK
  5
198D
330
13AE
100
AcDbEntity
  8
0
100
AcDbBlockBegin
  2
BLOCK102
 70
     0
 10
0.0
 20
0.0
 30
0.0
  3
BLOCK102
  1

  0
TEXT
  5
55A
330
13AE
100
AcDbEntity
  8
0
 62
     7
370
    70
100
AcDbText
 10
-183.327637
 20
70.912903
 30
0.0
 40
2.0
  1
:
 41
4.888866666666729
 72
     5
 11
-181.860977
 21
70.912903
 31
0.0
100
AcDbText
  0
ENDBLK
  5
198E
330
13AE
100
AcDbEntity
  8
0
100
AcDbBlockEnd
  0
BLOCK
  5
198F
330
13AF
100
AcDbEntity
  8
0
100
AcDbBlockBegin
  2
BLOCK103
 70
     0
 10
0.0
 20
0.0
 30
0.0
  3
BLOCK103
  1

  0
TEXT
  5
55D
330
13AF
100
AcDbEntity
  8
0
 62
     7
370
    70
100
AcDbText
 10
-183.327637
 20
74.912903
 30
0.0
 40
2.0
  1
:
 41
4.888866666666729
 72
     5
 11
-181.860977
 21
74.912903
 31
0.0
100
AcDbText
  0
ENDBLK
  5
1990
330
13AF
100
AcDbEntity
  8
0
100
AcDbBlockEnd
  0
BLOCK
  5
1991
330
13B0
100
AcDbEntity
  8
0
100
AcDbBlockBegin
  2
BLOCK104
 70
     0
 10
0.0
 20
0.0
 30
0.0
  3
BLOCK104
  1

  0
TEXT
  5
560
330
13B0
100
AcDbEntity
  8
0
 62
     7
370
    70
100
AcDbText
 10
-183.327637
 20
78.912903
 30
0.0
 40
2.0
  1
:
 41
4.888866666666729
 72
     5
 11
-181.860977
 21
78.912903
 31
0.0
100
AcDbText
  0
ENDBLK
  5
1992
330
13B0
100
AcDbEntity
  8
0
100
AcDbBlockEnd
  0
BLOCK
  5
1993
330
13B1
100
AcDbEntity
  8
0
100
AcDbBlockBegin
  2
BLOCK105
 70
     0
 10
0.0
 20
0.0
 30
0.0
  3
BLOCK105
  1

  0
TEXT
  5
563
330
13B1
100
AcDbEntity
  8
0
 62
     7
370
    70
100
AcDbText
 10
-183.327637
 20
82.912903
 30
0.0
 40
2.0
  1
:
 41
4.888866666666729
 72
     5
 11
-181.860977
 21
82.912903
 31
0.0
100
AcDbText
  0
ENDBLK
  5
1994
330
13B1
100
AcDbEntity
  8
0
100
AcDbBlockEnd
  0
BLOCK
  5
1995
330
13B2
100
AcDbEntity
  8
0
100
AcDbBlockBegin
  2
BLOCK106
 70
     0
 10
0.0
 20
0.0
 30
0.0
  3
BLOCK106
  1

  0
TEXT
  5
566
330
13B2
100
AcDbEntity
  8
0
 62
     7
370
    70
100
AcDbText
 10
-183.327637
 20
86.912903
 30
0.0
 40
2.0
  1
:
 41
4.888866666666729
 72
     5
 11
-181.860977
 21
86.912903
 31
0.0
100
AcDbText
  0
ENDBLK
  5
1996
330
13B2
100
AcDbEntity
  8
0
100
AcDbBlockEnd
  0
BLOCK
  5
1997
330
13B3
100
AcDbEntity
  8
0
100
AcDbBlockBegin
  2
BLOCK107
 70
     0
 10
0.0
 20
0.0
 30
0.0
  3
BLOCK107
  1

  0
TEXT
  5
569
330
13B3
100
AcDbEntity
  8
0
 62
     7
370
    70
100
AcDbText
 10
-183.227631
 20
90.912903
 30
0.0
 40
2.0
  1
:
 41
4.888866666666634
 72
     5
 11
-181.760971
 21
90.912903
 31
0.0
100
AcDbText
  0
ENDBLK
  5
1998
330
13B3
100
AcDbEntity
  8
0
100
AcDbBlockEnd
  0
BLOCK
  5
1999
330
13B4
100
AcDbEntity
  8
0
100
AcDbBlockBegin
  2
BLOCK108
 70
     0
 10
0.0
 20
0.0
 30
0.0
  3
BLOCK108
  1

  0
TEXT
  5
56C
330
13B4
100
AcDbEntity
  8
0
 62
     7
370
    70
100
AcDbText
 10
-183.027634
 20
94.912903
 30
0.0
 40
2.0
  1
:
 41
4.888866666666729
 72
     5
 11
-181.560974
 21
94.912903
 31
0.0
100
AcDbText
  0
ENDBLK
  5
199A
330
13B4
100
AcDbEntity
  8
0
100
AcDbBlockEnd
  0
BLOCK
  5
199B
330
13B5
100
AcDbEntity
  8
0
100
AcDbBlockBegin
  2
BLOCK109
 70
     0
 10
0.0
 20
0.0
 30
0.0
  3
BLOCK109
  1

  0
TEXT
  5
56F
330
13B5
100
AcDbEntity
  8
100
 62
     7
370
    70
100
AcDbText
 10
-169.510254
 20
94.949829
 30
0.0
 40
2.0
  1
0.05
 41
1.570370222222222
 72
     5
 11
-162.443588
 21
94.949829
 31
0.0
100
AcDbText
  0
ENDBLK
  5
199C
330
13B5
100
AcDbEntity
  8
0
100
AcDbBlockEnd
  0
BLOCK
  5
199D
330
13B6
100
AcDbEntity
  8
0
100
AcDbBlockBegin
  2
BLOCK110
 70
     0
 10
0.0
 20
0.0
 30
0.0
  3
BLOCK110
  1

  0
TEXT
  5
572
330
13B6
100
AcDbEntity
  8
100
 62
     7
370
    70
100
AcDbText
 10
-169.510254
 20
90.949829
 30
0.0
 40
2.0
  1
0.05
 41
1.570370222222222
 72
     5
 11
-162.443588
 21
90.949829
 31
0.0
100
AcDbText
  0
ENDBLK
  5
199E
330
13B6
100
AcDbEntity
  8
0
100
AcDbBlockEnd
  0
BLOCK
  5
199F
330
13B7
100
AcDbEntity
  8
0
100
AcDbBlockBegin
  2
BLOCK111
 70
     0
 10
0.0
 20
0.0
 30
0.0
  3
BLOCK111
  1

  0
TEXT
  5
575
330
13B7
100
AcDbEntity
  8
100
 62
     7
370
    70
100
AcDbText
 10
-169.510254
 20
86.949829
 30
0.0
 40
2.0
  1
0.1
 41
1.925924814814814
 72
     5
 11
-164.310257
 21
86.949829
 31
0.0
100
AcDbText
  0
ENDBLK
  5
19A0
330
13B7
100
AcDbEntity
  8
0
100
AcDbBlockEnd
  0
BLOCK
  5
19A1
330
13B8
100
AcDbEntity
  8
0
100
AcDbBlockBegin
  2
BLOCK112
 70
     0
 10
0.0
 20
0.0
 30
0.0
  3
BLOCK112
  1

  0
TEXT
  5
578
330
13B8
100
AcDbEntity
  8
100
 62
     7
370
    70
100
AcDbText
 10
-169.510254
 20
82.949829
 30
0.0
 40
2.0
  1
0.15
 41
1.723577073170731
 72
     5
 11
-162.443588
 21
82.949829
 31
0.0
100
AcDbText
  0
ENDBLK
  5
19A2
330
13B8
100
AcDbEntity
  8
0
100
AcDbBlockEnd
  0
BLOCK
  5
19A3
330
13B9
100
AcDbEntity
  8
0
100
AcDbBlockBegin
  2
BLOCK113
 70
     0
 10
0.0
 20
0.0
 30
0.0
  3
BLOCK113
  1

  0
TEXT
  5
57B
330
13B9
100
AcDbEntity
  8
100
 62
     7
370
    70
100
AcDbText
 10
-169.510254
 20
78.949829
 30
0.0
 40
2.0
  1
0.2
 41
1.677179120117338
 72
     5
 11
-164.310257
 21
78.949829
 31
0.0
100
AcDbText
  0
ENDBLK
  5
19A4
330
13B9
100
AcDbEntity
  8
0
100
AcDbBlockEnd
  0
BLOCK
  5
19A5
330
13BA
100
AcDbEntity
  8
0
100
AcDbBlockBegin
  2
BLOCK114
 70
     0
 10
0.0
 20
0.0
 30
0.0
  3
BLOCK114
  1

  0
TEXT
  5
57E
330
13BA
100
AcDbEntity
  8
100
 62
     7
370
    70
100
AcDbText
 10
-169.510254
 20
74.949829
 30
0.0
 40
2.0
  1
0.3
 41
1.677418387096773
 72
     5
 11
-164.310257
 21
74.949829
 31
0.0
100
AcDbText
  0
ENDBLK
  5
19A6
330
13BA
100
AcDbEntity
  8
0
100
AcDbBlockEnd
  0
BLOCK
  5
19A7
330
13BB
100
AcDbEntity
  8
0
100
AcDbBlockBegin
  2
BLOCK115
 70
     0
 10
0.0
 20
0.0
 30
0.0
  3
BLOCK115
  1

  0
TEXT
  5
581
330
13BB
100
AcDbEntity
  8
100
 62
     7
370
    70
100
AcDbText
 10
-169.510254
 20
70.949829
 30
0.0
 40
2.0
  1
0.5
 41
1.677418387096773
 72
     5
 11
-164.310257
 21
70.949829
 31
0.0
100
AcDbText
  0
ENDBLK
  5
19A8
330
13BB
100
AcDbEntity
  8
0
100
AcDbBlockEnd
  0
BLOCK
  5
19A9
330
13BC
100
AcDbEntity
  8
0
100
AcDbBlockBegin
  2
BLOCK116
 70
     0
 10
0.0
 20
0.0
 30
0.0
  3
BLOCK116
  1

  0
TEXT
  5
584
330
13BC
100
AcDbEntity
  8
0
 62
     7
370
    70
100
AcDbText
 10
-187.995407
 20
94.87088
 30
0.0
 40
2.0
  1
0.5-3
 41
1.355707118644068
 72
     5
 11
-179.996735
 21
94.87088
 31
0.0
100
AcDbText
  0
ENDBLK
  5
19AA
330
13BC
100
AcDbEntity
  8
0
100
AcDbBlockEnd
  0
BLOCK
  5
19AB
330
13BD
100
AcDbEntity
  8
0
100
AcDbBlockBegin
  2
BLOCK117
 70
     0
 10
0.0
 20
0.0
 30
0.0
  3
BLOCK117
  1

  0
TEXT
  5
587
330
13BD
100
AcDbEntity
  8
0
 62
     7
370
    70
100
AcDbText
 10
-184.795685
 20
90.87088
 30
0.0
 40
2.0
  1
3-6
 41
1.179281538461539
 72
     5
 11
-180.196487
 21
90.87088
 31
0.0
100
AcDbText
  0
ENDBLK
  5
19AC
330
13BD
100
AcDbEntity
  8
0
100
AcDbBlockEnd
  0
BLOCK
  5
19AD
330
13BE
100
AcDbEntity
  8
0
100
AcDbBlockBegin
  2
BLOCK118
 70
     0
 10
0.0
 20
0.0
 30
0.0
  3
BLOCK118
  1

  0
TEXT
  5
58A
330
13BE
100
AcDbEntity
  8
0
 62
     7
370
    70
100
AcDbText
 10
-184.945496
 20
86.87088
 30
0.0
 40
2.0
  1
6-30
 41
1.188125271053022
 72
     5
 11
-178.646561
 21
86.87088
 31
0.0
100
AcDbText
  0
ENDBLK
  5
19AE
330
13BE
100
AcDbEntity
  8
0
100
AcDbBlockEnd
  0
BLOCK
  5
19AF
330
13BF
100
AcDbEntity
  8
0
100
AcDbBlockBegin
  2
BLOCK119
 70
     0
 10
0.0
 20
0.0
 30
0.0
  3
BLOCK119
  1

  0
TEXT
  5
58D
330
13BF
100
AcDbEntity
  8
0
 62
     7
370
    70
100
AcDbText
 10
-186.645279
 20
82.87085
 30
0.0
 40
2.0
  1
30-120
 41
1.259274271546873
 72
     5
 11
-176.946884
 21
82.87085
 31
0.0
100
AcDbText
  0
ENDBLK
  5
19B0
330
13BF
100
AcDbEntity
  8
0
100
AcDbBlockEnd
  0
BLOCK
  5
19B1
330
13C0
100
AcDbEntity
  8
0
100
AcDbBlockBegin
  2
BLOCK120
 70
     0
 10
0.0
 20
0.0
 30
0.0
  3
BLOCK120
  1

  0
TEXT
  5
590
330
13C0
100
AcDbEntity
  8
0
 62
     7
370
    70
100
AcDbText
 10
-188.195145
 20
78.87085
 30
0.0
 40
2.0
  1
120-400
 41
1.225398197748244
 72
     5
 11
-176.797012
 21
78.87085
 31
0.0
100
AcDbText
  0
ENDBLK
  5
19B2
330
13C0
100
AcDbEntity
  8
0
100
AcDbBlockEnd
  0
BLOCK
  5
19B3
330
13C1
100
AcDbEntity
  8
0
100
AcDbBlockBegin
  2
BLOCK121
 70
     0
 10
0.0
 20
0.0
 30
0.0
  3
BLOCK121
  1

  0
TEXT
  5
593
330
13C1
100
AcDbEntity
  8
0
 62
     7
370
    70
100
AcDbText
 10
-188.345016
 20
74.87085
 30
0.0
 40
2.0
  1
400-1000
 41
1.223919772643659
 72
     5
 11
-175.247147
 21
74.87085
 31
0.0
100
AcDbText
  0
ENDBLK
  5
19B4
330
13C1
100
AcDbEntity
  8
0
100
AcDbBlockEnd
  0
BLOCK
  5
19B5
330
13C2
100
AcDbEntity
  8
0
100
AcDbBlockBegin
  2
BLOCK122
 70
     0
 10
0.0
 20
0.0
 30
0.0
  3
BLOCK122
  1

  0
TEXT
  5
596
330
13C2
100
AcDbEntity
  8
0
 62
     7
370
    70
100
AcDbText
 10
-189.894882
 20
70.87085
 30
0.0
 40
2.0
  1
1000-2000
 41
1.243331848494873
 72
     5
 11
-175.097275
 21
70.87085
 31
0.0
100
AcDbText
  0
ENDBLK
  5
19B6
330
13C2
100
AcDbEntity
  8
0
100
AcDbBlockEnd
  0
BLOCK
  5
19B7
330
13C3
100
AcDbEntity
  8
0
100
AcDbBlockBegin
  2
BLOCK123
 70
     0
 10
0.0
 20
0.0
 30
0.0
  3
BLOCK123
  1

  0
TEXT
  5
599
330
13C3
100
AcDbEntity
  8
0
 62
     7
370
    70
100
AcDbText
 10
-189.894882
 20
66.87085
 30
0.0
 40
2.0
  1
2000-4000
 41
1.183659437551174
 72
     5
 11
-175.097275
 21
66.87085
 31
0.0
100
AcDbText
  0
ENDBLK
  5
19B8
330
13C3
100
AcDbEntity
  8
0
100
AcDbBlockEnd
  0
BLOCK
  5
19B9
330
13C4
100
AcDbEntity
  8
0
100
AcDbBlockBegin
  2
BLOCK124
 70
     0
 10
0.0
 20
0.0
 30
0.0
  3
BLOCK124
  1

  0
TEXT
  5
59C
330
13C4
100
AcDbEntity
  8
100
 62
     7
370
    13
100
AcDbText
 10
-39.805885
 20
30.75
 30
0.0
 40
1.5
  1
/Code
 41
1.044974925373134
 72
     5
 11
-34.554886
 21
30.75
 31
0.0
100
AcDbText
  0
ENDBLK
  5
19BA
330
13C4
100
AcDbEntity
  8
0
100
AcDbBlockEnd
  0
BLOCK
  5
19BB
330
13C5
100
AcDbEntity
  8
0
100
AcDbBlockBegin
  2
BLOCK125
 70
     0
 10
0.0
 20
0.0
 30
0.0
  3
BLOCK125
  1

  0
TEXT
  5
59F
330
13C5
100
AcDbEntity
  8
100
 62
     7
370
    13
100
AcDbText
 10
-159.0
 20
30.75
 30
0.0
 40
1.5
  1
DESCRIZIONE
 41
1.369615056689343
 72
     5
 11
-143.899994
 21
30.75
 31
0.0
100
AcDbText
  0
ENDBLK
  5
19BC
330
13C5
100
AcDbEntity
  8
0
100
AcDbBlockEnd
  0
BLOCK
  5
19BD
330
13C6
100
AcDbEntity
  8
0
100
AcDbBlockBegin
  2
BLOCK126
 70
     0
 10
0.0
 20
0.0
 30
0.0
  3
BLOCK126
  1

  0
TEXT
  5
5A2
330
13C6
100
AcDbEntity
  8
100
 62
     7
370
    13
100
AcDbText
 10
-142.805893
 20
30.75
 30
0.0
 40
1.5
  1
/Description
 41
1.206700769849478
 72
     5
 11
-129.678497
 21
30.75
 31
0.0
100
AcDbText
  0
ENDBLK
  5
19BE
330
13C6
100
AcDbEntity
  8
0
100
AcDbBlockEnd
  0
BLOCK
  5
19BF
330
13C7
100
AcDbEntity
  8
0
100
AcDbBlockBegin
  2
BLOCK127
 70
     0
 10
0.0
 20
0.0
 30
0.0
  3
BLOCK127
  1

  0
TEXT
  5
5A5
330
13C7
100
AcDbEntity
  8
0
 62
     7
370
    70
100
AcDbText
 10
-106.273468
 20
11.075141
 30
0.0
 40
2.8
  1
.
 41
3.334226190476183
 72
     5
 11
-104.873093
 21
11.075141
 31
0.0
100
AcDbText
  0
ENDBLK
  5
19C0
330
13C7
100
AcDbEntity
  8
0
100
AcDbBlockEnd
  0
BLOCK
  5
19C1
330
13C8
100
AcDbEntity
  8
0
100
AcDbBlockBegin
  2
BLOCK128
 70
     0
 10
0.0
 20
0.0
 30
0.0
  3
BLOCK128
  1

  0
TEXT
  5
5A8
330
13C8
100
AcDbEntity
  8
100
 62
     7
370
    13
100
AcDbText
 10
-189.0
 20
55.75
 30
0.0
 40
1.5
  1
SCALA
 41
1.16017264069264
 72
     5
 11
-182.300003
 21
55.75
 31
0.0
100
AcDbText
  0
ENDBLK
  5
19C2
330
13C8
100
AcDbEntity
  8
0
100
AcDbBlockEnd
  0
BLOCK
  5
19C3
330
13C9
100
AcDbEntity
  8
0
100
AcDbBlockBegin
  2
BLOCK129
 70
     0
 10
0.0
 20
0.0
 30
0.0
  3
BLOCK129
  1

  0
TEXT
  5
5AB
330
13C9
100
AcDbEntity
  8
100
 62
     7
370
    13
100
AcDbText
 10
-181.605896
 20
55.75
 30
0.0
 40
1.5
  1
/Scale
 41
1.133547555555555
 72
     5
 11
-175.229691
 21
55.75
 31
0.0
100
AcDbText
  0
ENDBLK
  5
19C4
330
13C9
100
AcDbEntity
  8
0
100
AcDbBlockEnd
  0
BLOCK
  5
19C5
330
13CA
100
AcDbEntity
  8
0
100
AcDbBlockBegin
  2
BLOCK130
 70
     0
 10
0.0
 20
0.0
 30
0.0
  3
BLOCK130
  1

  0
TEXT
  5
5AE
330
13CA
100
AcDbEntity
  8
0
 62
     7
370
    70
100
AcDbText
 10
-187.938095
 20
49.290386
 30
0.0
 40
4.0
  1
1:1
 41
2.260868260869564
 72
     5
 11
-177.538101
 21
49.290386
 31
0.0
100
AcDbText
  0
ENDBLK
  5
19C6
330
13CA
100
AcDbEntity
  8
0
100
AcDbBlockEnd
  0
BLOCK
  5
19C7
330
13CB
100
AcDbEntity
  8
0
100
AcDbBlockBegin
  2
BLOCK131
 70
     0
 10
0.0
 20
0.0
 30
0.0
  3
BLOCK131
  1

  0
TEXT
  5
5B1
330
13CB
100
AcDbEntity
  8
100
 62
     7
370
    13
100
AcDbText
 10
-159.0
 20
43.25
 30
0.0
 40
1.5
  1
MATERIALE
 41
1.251908702290077
 72
     5
 11
-146.699997
 21
43.25
 31
0.0
100
AcDbText
  0
ENDBLK
  5
19C8
330
13CB
100
AcDbEntity
  8
0
100
AcDbBlockEnd
  0
BLOCK
  5
19C9
330
13CC
100
AcDbEntity
  8
0
100
AcDbBlockBegin
  2
BLOCK132
 70
     0
 10
0.0
 20
0.0
 30
0.0
  3
BLOCK132
  1

  0
TEXT
  5
5B4
330
13CC
100
AcDbEntity
  8
100
 62
     7
370
    13
100
AcDbText
 10
-145.805893
 20
43.25
 30
0.0
 40
1.5
  1
/Material
 41
1.192880856269113
 72
     5
 11
-136.054092
 21
43.25
 31
0.0
100
AcDbText
  0
ENDBLK
  5
19CA
330
13CC
100
AcDbEntity
  8
0
100
AcDbBlockEnd
  0
BLOCK
  5
19CB
330
13CD
100
AcDbEntity
  8
0
100
AcDbBlockBegin
  2
BLOCK133
 70
     0
 10
0.0
 20
0.0
 30
0.0
  3
BLOCK133
  1

  0
TEXT
  5
5B7
330
13CD
100
AcDbEntity
  8
0
 62
     7
370
    70
100
AcDbText
 10
-137.503525
 20
38.485401
 30
0.0
 40
2.5
  1
VETRO TEMPERATO FLOAT SP=4MM
 41
1.231987097387173
 72
     5
 11
-72.670204
 21
38.485401
 31
0.0
100
AcDbText
  0
ENDBLK
  5
19CC
330
13CD
100
AcDbEntity
  8
0
100
AcDbBlockEnd
  0
BLOCK
  5
19CD
330
13CE
100
AcDbEntity
  8
0
100
AcDbBlockBegin
  2
BLOCK134
 70
     0
 10
0.0
 20
0.0
 30
0.0
  3
BLOCK134
  1

  0
TEXT
  5
5BA
330
13CE
100
AcDbEntity
  8
100
 62
     7
370
    13
100
AcDbText
 10
-159.0
 20
55.75
 30
0.0
 40
1.5
  1
FINITURA
 41
1.384126222222221
 72
     5
 11
-148.100006
 21
55.75
 31
0.0
100
AcDbText
  0
ENDBLK
  5
19CE
330
13CE
100
AcDbEntity
  8
0
100
AcDbBlockEnd
  0
BLOCK
  5
19CF
330
13CF
100
AcDbEntity
  8
0
100
AcDbBlockBegin
  2
BLOCK135
 70
     0
 10
0.0
 20
0.0
 30
0.0
  3
BLOCK135
  1

  0
TEXT
  5
5BD
330
13CF
100
AcDbEntity
  8
100
 62
     7
370
    13
100
AcDbText
 10
-147.205887
 20
55.75
 30
0.0
 40
1.5
  1
/Finishing
 41
1.282854076367387
 72
     5
 11
-136.328888
 21
55.75
 31
0.0
100
AcDbText
  0
ENDBLK
  5
19D0
330
13CF
100
AcDbEntity
  8
0
100
AcDbBlockEnd
  0
BLOCK
  5
19D1
330
13D0
100
AcDbEntity
  8
0
100
AcDbBlockBegin
  2
BLOCK136
 70
     0
 10
0.0
 20
0.0
 30
0.0
  3
BLOCK136
  1

  0
TEXT
  5
5C0
330
13D0
100
AcDbEntity
  8
0
 62
     7
370
    70
100
AcDbText
 10
-46.644741
 20
17.81024
 30
0.0
 40
5.0
  1
56332026
 41
1.247505247706422
 72
     5
 11
-12.650223
 21
17.81024
 31
0.0
100
AcDbText
  0
ENDBLK
  5
19D2
330
13D0
100
AcDbEntity
  8
0
100
AcDbBlockEnd
  0
BLOCK
  5
19D3
330
13D1
100
AcDbEntity
  8
0
100
AcDbBlockBegin
  2
BLOCK137
 70
     0
 10
0.0
 20
0.0
 30
0.0
  3
BLOCK137
  1

  0
TEXT
  5
5C3
330
13D1
100
AcDbEntity
  8
100
 62
     7
370
    13
100
AcDbText
 10
-49.0
 20
30.75
 30
0.0
 40
1.5
  1
CODICE
 41
1.402597056277056
 72
     5
 11
-40.900002
 21
30.75
 31
0.0
100
AcDbText
  0
ENDBLK
  5
19D4
330
13D1
100
AcDbEntity
  8
0
100
AcDbBlockEnd
  0
BLOCK
  5
19D5
330
13D2
100
AcDbEntity
  8
0
100
AcDbBlockBegin
  2
BLOCK138
 70
     0
 10
0.0
 20
0.0
 30
0.0
  3
BLOCK138
  1

  0
TEXT
  5
5C6
330
13D2
100
AcDbEntity
  8
100
 62
     7
370
    13
100
AcDbText
 10
-49.0
 20
39.416668
 30
0.0
 40
1.5
  1
VISTO
 41
1.294686183574879
 72
     5
 11
-42.299999
 21
39.416668
 31
0.0
100
AcDbText
  0
ENDBLK
  5
19D6
330
13D2
100
AcDbEntity
  8
0
100
AcDbBlockEnd
  0
BLOCK
  5
19D7
330
13D3
100
AcDbEntity
  8
0
100
AcDbBlockBegin
  2
BLOCK139
 70
     0
 10
0.0
 20
0.0
 30
0.0
  3
BLOCK139
  1

  0
TEXT
  5
5C9
330
13D3
100
AcDbEntity
  8
100
 62
     7
370
    13
100
AcDbText
 10
-41.20575
 20
39.416668
 30
0.0
 40
1.5
  1
/Checked
 41
1.074966105919003
 72
     5
 11
-32.579147
 21
39.416668
 31
0.0
100
AcDbText
  0
ENDBLK
  5
19D8
330
13D3
100
AcDbEntity
  8
0
100
AcDbBlockEnd
  0
BLOCK
  5
19D9
330
13D4
100
AcDbEntity
  8
0
100
AcDbBlockBegin
  2
BLOCK140
 70
     0
 10
0.0
 20
0.0
 30
0.0
  3
BLOCK140
  1

  0
TEXT
  5
5CC
330
13D4
100
AcDbEntity
  8
100
 62
     7
370
    13
100
AcDbText
 10
-49.0
 20
112.550003
 30
0.0
 40
1.5
  1
DATA
 41
1.087179282051282
 72
     5
 11
-43.700001
 21
112.550003
 31
0.0
100
AcDbText
  0
ENDBLK
  5
19DA
330
13D4
100
AcDbEntity
  8
0
100
AcDbBlockEnd
  0
BLOCK
  5
19DB
330
13D5
100
AcDbEntity
  8
0
100
AcDbBlockBegin
  2
BLOCK141
 70
     0
 10
0.0
 20
0.0
 30
0.0
  3
BLOCK141
  1

  0
TEXT
  5
5CF
330
13D5
100
AcDbEntity
  8
100
 62
     7
370
    13
100
AcDbText
 10
-48.855663
 20
109.571449
 30
0.0
 40
1.5
  1
Date
 41
1.037937358490567
 72
     5
 11
-44.729862
 21
109.571449
 31
0.0
100
AcDbText
  0
ENDBLK
  5
19DC
330
13D5
100
AcDbEntity
  8
0
100
AcDbBlockEnd
  0
BLOCK
  5
19DD
330
13D6
100
AcDbEntity
  8
0
100
AcDbBlockBegin
  2
BLOCK142
 70
     0
 10
0.0
 20
0.0
 30
0.0
  3
BLOCK142
  1

  0
TEXT
  5
5D2
330
13D6
100
AcDbEntity
  8
100
 62
     7
370
    13
100
AcDbText
 10
-29.0
 20
112.550003
 30
0.0
 40
1.5
  1
DISEGNATO
 41
1.251908295165394
 72
     5
 11
-16.700001
 21
112.550003
 31
0.0
100
AcDbText
  0
ENDBLK
  5
19DE
330
13D6
100
AcDbEntity
  8
0
100
AcDbBlockEnd
  0
BLOCK
  5
19DF
330
13D7
100
AcDbEntity
  8
0
100
AcDbBlockBegin
  2
BLOCK143
 70
     0
 10
0.0
 20
0.0
 30
0.0
  3
BLOCK143
  1

  0
TEXT
  5
5D5
330
13D7
100
AcDbEntity
  8
100
 62
     7
370
    13
100
AcDbText
 10
-28.855663
 20
109.571449
 30
0.0
 40
1.5
  1
Drawn
 41
0.9861030985915494
 72
     5
 11
-23.604664
 21
109.571449
 31
0.0
100
AcDbText
  0
ENDBLK
  5
19E0
330
13D7
100
AcDbEntity
  8
0
100
AcDbBlockEnd
  0
BLOCK
  5
19E1
330
13D8
100
AcDbEntity
  8
0
100
AcDbBlockBegin
  2
BLOCK144
 70
     0
 10
0.0
 20
0.0
 30
0.0
  3
BLOCK144
  1

  0
TEXT
  5
5D8
330
13D8
100
AcDbEntity
  8
100
 62
     7
370
    13
100
AcDbText
 10
-96.0
 20
112.550003
 30
0.0
 40
1.5
  1
DESCRIZIONE
 41
1.36961433106576
 72
     5
 11
-80.900002
 21
112.550003
 31
0.0
100
AcDbText
  0
ENDBLK
  5
19E2
330
13D8
100
AcDbEntity
  8
0
100
AcDbBlockEnd
  0
BLOCK
  5
19E3
330
13D9
100
AcDbEntity
  8
0
100
AcDbBlockBegin
  2
BLOCK145
 70
     0
 10
0.0
 20
0.0
 30
0.0
  3
BLOCK145
  1

  0
TEXT
  5
5DB
330
13D9
100
AcDbEntity
  8
100
 62
     7
370
    13
100
AcDbText
 10
-96.055664
 20
109.571449
 30
0.0
 40
1.5
  1
Description
 41
1.22113239221671
 72
     5
 11
-84.053459
 21
109.571449
 31
0.0
100
AcDbText
  0
ENDBLK
  5
19E4
330
13D9
100
AcDbEntity
  8
0
100
AcDbBlockEnd
  0
BLOCK
  5
19E5
330
13DA
100
AcDbEntity
  8
0
100
AcDbBlockBegin
  2
BLOCK146
 70
     0
 10
0.0
 20
0.0
 30
0.0
  3
BLOCK146
  1

  0
TEXT
  5
5DE
330
13DA
100
AcDbEntity
  8
100
 62
     7
370
    13
100
AcDbText
 10
-111.0
 20
112.550003
 30
0.0
 40
1.5
  1
RIF.TO
 41
1.521126384976526
 72
     5
 11
-102.900002
 21
112.550003
 31
0.0
100
AcDbText
  0
ENDBLK
  5
19E6
330
13DA
100
AcDbEntity
  8
0
100
AcDbBlockEnd
  0
BLOCK
  5
19E7
330
13DB
100
AcDbEntity
  8
0
100
AcDbBlockBegin
  2
BLOCK147
 70
     0
 10
0.0
 20
0.0
 30
0.0
  3
BLOCK147
  1

  0
TEXT
  5
5E1
330
13DB
100
AcDbEntity
  8
100
 62
     7
370
    13
100
AcDbText
 10
-110.855659
 20
109.571449
 30
0.0
 40
1.5
  1
Ref.ce
 41
1.197407887323944
 72
     5
 11
-104.479462
 21
109.571449
 31
0.0
100
AcDbText
  0
ENDBLK
  5
19E8
330
13DB
100
AcDbEntity
  8
0
100
AcDbBlockEnd
  0
BLOCK
  5
19E9
330
13DC
100
AcDbEntity
  8
0
100
AcDbBlockBegin
  2
BLOCK148
 70
     0
 10
0.0
 20
0.0
 30
0.0
  3
BLOCK148
  1

  0
TEXT
  5
5E4
330
13DC
100
AcDbEntity
  8
100
 62
     7
370
    13
100
AcDbText
 10
-121.900002
 20
112.550003
 30
0.0
 40
1.5
  1
IND.
 41
1.723578536585367
 72
     5
 11
-116.599998
 21
112.550003
 31
0.0
100
AcDbText
  0
ENDBLK
  5
19EA
330
13DC
100
AcDbEntity
  8
0
100
AcDbBlockEnd
  0
BLOCK
  5
19EB
330
13DD
100
AcDbEntity
  8
0
100
AcDbBlockBegin
  2
BLOCK149
 70
     0
 10
0.0
 20
0.0
 30
0.0
  3
BLOCK149
  1

  0
TEXT
  5
5E7
330
13DD
100
AcDbEntity
  8
100
 62
     7
370
    13
100
AcDbText
 10
-121.355659
 20
109.571449
 30
0.0
 40
1.5
  1
Ind.
 41
1.486775135135139
 72
     5
 11
-117.229858
 21
109.571449
 31
0.0
100
AcDbText
  0
ENDBLK
  5
19EC
330
13DD
100
AcDbEntity
  8
0
100
AcDbBlockEnd
  0
BLOCK
  5
19ED
330
13DE
100
AcDbEntity
  8
0
100
AcDbBlockBegin
  2
BLOCK150
 70
     0
 10
0.0
 20
0.0
 30
0.0
  3
BLOCK150
  1

  0
TEXT
  5
5EA
330
13DE
100
AcDbEntity
  8
100
 62
     7
370
    13
100
AcDbText
 10
-188.26506
 20
112.142639
 30
0.0
 40
1.5
  1
TOLLERANZE GENERALI - ISO 2768-2 f
 41
1.39221560208538
 72
     5
 11
-140.965057
 21
112.142639
 31
0.0
100
AcDbText
  0
ENDBLK
  5
19EE
330
13DE
100
AcDbEntity
  8
0
100
AcDbBlockEnd
  0
BLOCK
  5
19EF
330
13DF
100
AcDbEntity
  8
0
100
AcDbBlockBegin
  2
BLOCK151
 70
     0
 10
0.0
 20
0.0
 30
0.0
  3
BLOCK151
  1

  0
TEXT
  5
5ED
330
13DF
100
AcDbEntity
  8
0
 62
     7
370
    70
100
AcDbText
 10
-125.315781
 20
66.616768
 30
0.0
 40
2.0
  1
MODIFICHE
 50
90.0
 41
1.401709487179487
 72
     5
 11
-125.315781
 21
83.016769
 31
0.0
100
AcDbText
  0
ENDBLK
  5
19F0
330
13DF
100
AcDbEntity
  8
0
100
AcDbBlockEnd
  0
BLOCK
  5
19F1
330
13E0
100
AcDbEntity
  8
0
100
AcDbBlockBegin
  2
BLOCK152
 70
     0
 10
0.0
 20
0.0
 30
0.0
  3
BLOCK152
  1

  0
TEXT
  5
5F0
330
13E0
100
AcDbEntity
  8
0
 62
     7
370
    70
100
AcDbText
 10
-125.315781
 20
84.875587
 30
0.0
 40
2.0
  1
/Modifications
 50
90.0
 41
1.227988820195047
 72
     5
 11
-125.315781
 21
105.379326
 31
0.0
100
AcDbText
  0
ENDBLK
  5
19F2
330
13E0
100
AcDbEntity
  8
0
100
AcDbBlockEnd
  0
BLOCK
  5
19F3
330
13E1
100
AcDbEntity
  8
0
100
AcDbBlockBegin
  2
BLOCK153
 70
     0
 10
0.0
 20
0.0
 30
0.0
  3
BLOCK153
  1

  0
TEXT
  5
5F3
330
13E1
100
AcDbEntity
  8
100
 62
     7
370
    13
100
AcDbText
 10
-49.0
 20
55.75
 30
0.0
 40
1.5
  1
DISEGNATO
 41
1.251908295165394
 72
     5
 11
-36.700001
 21
55.75
 31
0.0
100
AcDbText
  0
ENDBLK
  5
19F4
330
13E1
100
AcDbEntity
  8
0
100
AcDbBlockEnd
  0
BLOCK
  5
19F5
330
13E2
100
AcDbEntity
  8
0
100
AcDbBlockBegin
  2
BLOCK154
 70
     0
 10
0.0
 20
0.0
 30
0.0
  3
BLOCK154
  1

  0
TEXT
  5
5F6
330
13E2
100
AcDbEntity
  8
100
 62
     7
370
    13
100
AcDbText
 10
-36.20575
 20
55.75
 30
0.0
 40
1.5
  1
/Drawn
 41
1.000188549019608
 72
     5
 11
-29.829548
 21
55.75
 31
0.0
100
AcDbText
  0
ENDBLK
  5
19F6
330
13E2
100
AcDbEntity
  8
0
100
AcDbBlockEnd
  0
BLOCK
  5
19F7
330
13E3
100
AcDbEntity
  8
0
100
AcDbBlockBegin
  2
BLOCK155
 70
     0
 10
0.0
 20
0.0
 30
0.0
  3
BLOCK155
  1

  0
TEXT
  5
5F9
330
13E3
100
AcDbEntity
  8
0
 62
     7
370
    70
100
AcDbText
 10
-47.474407
 20
51.241112
 30
0.0
 40
2.0
  1
21.04.2006
 41
1.218711428571428
 72
     5
 11
-32.971741
 21
51.241112
 31
0.0
100
AcDbText
  0
ENDBLK
  5
19F8
330
13E3
100
AcDbEntity
  8
0
100
AcDbBlockEnd
  0
BLOCK
  5
19F9
330
13E4
100
AcDbEntity
  8
0
100
AcDbBlockBegin
  2
BLOCK156
 70
     0
 10
0.0
 20
0.0
 30
0.0
  3
BLOCK156
  1

  0
TEXT
  5
5FC
330
13E4
100
AcDbEntity
  8
0
 62
     7
370
    70
100
AcDbText
 10
-105.89994
 20
24.575142
 30
0.0
 40
2.8
  1
.
 41
4.888897619047618
 72
     5
 11
-103.846603
 21
24.575142
 31
0.0
100
AcDbText
  0
ENDBLK
  5
19FA
330
13E4
100
AcDbEntity
  8
0
100
AcDbBlockEnd
  0
BLOCK
  5
19FB
330
13E5
100
AcDbEntity
  8
0
100
AcDbBlockBegin
  2
BLOCK157
 70
     0
 10
0.0
 20
0.0
 30
0.0
  3
BLOCK157
  1

  0
TEXT
  5
5FF
330
13E5
100
AcDbEntity
  8
0
 62
     7
370
    70
100
AcDbText
 10
-158.195145
 20
62.87085
 30
0.0
 40
2.0
  1
120-400
 41
1.225398197748244
 72
     5
 11
-146.797012
 21
62.87085
 31
0.0
100
AcDbText
  0
ENDBLK
  5
19FC
330
13E5
100
AcDbEntity
  8
0
100
AcDbBlockEnd
  0
BLOCK
  5
19FD
330
13E6
100
AcDbEntity
  8
0
100
AcDbBlockBegin
  2
BLOCK158
 70
     0
 10
0.0
 20
0.0
 30
0.0
  3
BLOCK158
  1

  0
TEXT
  5
602
330
13E6
100
AcDbEntity
  8
0
 62
     7
370
    70
100
AcDbText
 10
-158.195145
 20
66.87085
 30
0.0
 40
2.0
  1
 50-120
 41
1.225398197748243
 72
     5
 11
-146.797012
 21
66.87085
 31
0.0
100
AcDbText
  0
ENDBLK
  5
19FE
330
13E6
100
AcDbEntity
  8
0
100
AcDbBlockEnd
  0
BLOCK
  5
19FF
330
13E7
100
AcDbEntity
  8
0
100
AcDbBlockBegin
  2
BLOCK159
 70
     0
 10
0.0
 20
0.0
 30
0.0
  3
BLOCK159
  1

  0
TEXT
  5
605
330
13E7
100
AcDbEntity
  8
0
 62
     7
370
    70
100
AcDbText
 10
-156.495407
 20
70.87085
 30
0.0
 40
2.0
  1
10-50
 41
1.269313187554667
 72
     5
 11
-148.496735
 21
70.87085
 31
0.0
100
AcDbText
  0
ENDBLK
  5
1A00
330
13E7
100
AcDbEntity
  8
0
100
AcDbBlockEnd
  0
BLOCK
  5
1A01
330
13E8
100
AcDbEntity
  8
0
100
AcDbBlockBegin
  2
BLOCK160
 70
     0
 10
0.0
 20
0.0
 30
0.0
  3
BLOCK160
  1

  0
TEXT
  5
608
330
13E8
100
AcDbEntity
  8
0
 62
     7
370
    70
100
AcDbText
 10
-154.795685
 20
74.87085
 30
0.0
 40
2.0
  1
<10
 41
1.313465585788172
 72
     5
 11
-150.196487
 21
74.87085
 31
0.0
100
AcDbText
  0
ENDBLK
  5
1A02
330
13E8
100
AcDbEntity
  8
0
100
AcDbBlockEnd
  0
BLOCK
  5
1A03
330
13E9
100
AcDbEntity
  8
0
100
AcDbBlockBegin
  2
BLOCK161
 70
     0
 10
0.0
 20
0.0
 30
0.0
  3
BLOCK161
  1

  0
TEXT
  5
60B
330
13E9
100
AcDbEntity
  8
0
 62
     7
370
    70
100
AcDbText
 10
-153.945816
 20
86.87088
 30
0.0
 40
2.0
  1
>6
 41
1.159784000000002
 72
     5
 11
-151.046356
 21
86.87088
 31
0.0
100
AcDbText
  0
ENDBLK
  5
1A04
330
13E9
100
AcDbEntity
  8
0
100
AcDbBlockEnd
  0
BLOCK
  5
1A05
330
13EA
100
AcDbEntity
  8
0
100
AcDbBlockBegin
  2
BLOCK162
 70
     0
 10
0.0
 20
0.0
 30
0.0
  3
BLOCK162
  1

  0
TEXT
  5
60E
330
13EA
100
AcDbEntity
  8
0
 62
     7
370
    70
100
AcDbText
 10
-154.795685
 20
90.87088
 30
0.0
 40
2.0
  1
3-6
 41
1.179281538461539
 72
     5
 11
-150.196487
 21
90.87088
 31
0.0
100
AcDbText
  0
ENDBLK
  5
1A06
330
13EA
100
AcDbEntity
  8
0
100
AcDbBlockEnd
  0
BLOCK
  5
1A07
330
13EB
100
AcDbEntity
  8
0
100
AcDbBlockBegin
  2
BLOCK163
 70
     0
 10
0.0
 20
0.0
 30
0.0
  3
BLOCK163
  1

  0
TEXT
  5
611
330
13EB
100
AcDbEntity
  8
100
 62
     7
370
    70
100
AcDbText
 10
-139.510254
 20
58.949829
 30
0.0
 40
2.0
  1
0°5'
 41
1.606060454545454
 72
     5
 11
-132.443588
 21
58.949829
 31
0.0
100
AcDbText
  0
ENDBLK
  5
1A08
330
13EB
100
AcDbEntity
  8
0
100
AcDbBlockEnd
  0
BLOCK
  5
1A09
330
13EC
100
AcDbEntity
  8
0
100
AcDbBlockBegin
  2
BLOCK164
 70
     0
 10
0.0
 20
0.0
 30
0.0
  3
BLOCK164
  1

  0
TEXT
  5
614
330
13EC
100
AcDbEntity
  8
100
 62
     7
370
    70
100
AcDbText
 10
-139.510254
 20
62.949829
 30
0.0
 40
2.0
  1
0°10'
 41
1.654321111111112
 72
     5
 11
-130.57692
 21
62.949829
 31
0.0
100
AcDbText
  0
ENDBLK
  5
1A0A
330
13EC
100
AcDbEntity
  8
0
100
AcDbBlockEnd
  0
BLOCK
  5
1A0B
330
13ED
100
AcDbEntity
  8
0
100
AcDbBlockBegin
  2
BLOCK165
 70
     0
 10
0.0
 20
0.0
 30
0.0
  3
BLOCK165
  1

  0
TEXT
  5
617
330
13ED
100
AcDbEntity
  8
100
 62
     7
370
    70
100
AcDbText
 10
-139.510254
 20
66.949829
 30
0.0
 40
2.0
  1
0°20'
 41
1.54023
 72
     5
 11
-130.57692
 21
66.949829
 31
0.0
100
AcDbText
  0
ENDBLK
  5
1A0C
330
13ED
100
AcDbEntity
  8
0
100
AcDbBlockEnd
  0
BLOCK
  5
1A0D
330
13EE
100
AcDbEntity
  8
0
100
AcDbBlockBegin
  2
BLOCK166
 70
     0
 10
0.0
 20
0.0
 30
0.0
  3
BLOCK166
  1

  0
TEXT
  5
61A
330
13EE
100
AcDbEntity
  8
100
 62
     7
370
    70
100
AcDbText
 10
-139.510254
 20
70.949829
 30
0.0
 40
2.0
  1
0°30'
 41
1.54023
 72
     5
 11
-130.57692
 21
70.949829
 31
0.0
100
AcDbText
  0
ENDBLK
  5
1A0E
330
13EE
100
AcDbEntity
  8
0
100
AcDbBlockEnd
  0
BLOCK
  5
1A0F
330
13EF
100
AcDbEntity
  8
0
100
AcDbBlockBegin
  2
BLOCK167
 70
     0
 10
0.0
 20
0.0
 30
0.0
  3
BLOCK167
  1

  0
TEXT
  5
61D
330
13EF
100
AcDbEntity
  8
100
 62
     7
370
    70
100
AcDbText
 10
-139.510254
 20
74.949829
 30
0.0
 40
2.0
  1
1°
 41
1.754383157894734
 72
     5
 11
-136.176926
 21
74.949829
 31
0.0
100
AcDbText
  0
ENDBLK
  5
1A10
330
13EF
100
AcDbEntity
  8
0
100
AcDbBlockEnd
  0
BLOCK
  5
1A11
330
13F0
100
AcDbEntity
  8
0
100
AcDbBlockBegin
  2
BLOCK168
 70
     0
 10
0.0
 20
0.0
 30
0.0
  3
BLOCK168
  1

  0
TEXT
  5
620
330
13F0
100
AcDbEntity
  8
100
 62
     7
370
    70
100
AcDbText
 10
-139.510254
 20
86.949829
 30
0.0
 40
2.0
  1
1
 41
2.095228571428557
 72
     5
 11
-138.043594
 21
86.949829
 31
0.0
100
AcDbText
  0
ENDBLK
  5
1A12
330
13F0
100
AcDbEntity
  8
0
100
AcDbBlockEnd
  0
BLOCK
  5
1A13
330
13F1
100
AcDbEntity
  8
0
100
AcDbBlockBegin
  2
BLOCK169
 70
     0
 10
0.0
 20
0.0
 30
0.0
  3
BLOCK169
  1

  0
TEXT
  5
623
330
13F1
100
AcDbEntity
  8
100
 62
     7
370
    70
100
AcDbText
 10
-139.510254
 20
90.949829
 30
0.0
 40
2.0
  1
0.5
 41
1.677418387096773
 72
     5
 11
-134.310257
 21
90.949829
 31
0.0
100
AcDbText
  0
ENDBLK
  5
1A14
330
13F1
100
AcDbEntity
  8
0
100
AcDbBlockEnd
  0
BLOCK
  5
1A15
330
13F2
100
AcDbEntity
  8
0
100
AcDbBlockBegin
  2
BLOCK170
 70
     0
 10
0.0
 20
0.0
 30
0.0
  3
BLOCK170
  1

  0
TEXT
  5
626
330
13F2
100
AcDbEntity
  8
100
 62
     7
370
    70
100
AcDbText
 10
-139.510254
 20
94.949829
 30
0.0
 40
2.0
  1
0.2
 41
1.677179120117338
 72
     5
 11
-134.310257
 21
94.949829
 31
0.0
100
AcDbText
  0
ENDBLK
  5
1A16
330
13F2
100
AcDbEntity
  8
0
100
AcDbBlockEnd
  0
BLOCK
  5
1A17
330
13F3
100
AcDbEntity
  8
0
100
AcDbBlockBegin
  2
BLOCK171
 70
     0
 10
0.0
 20
0.0
 30
0.0
  3
BLOCK171
  1

  0
TEXT
  5
629
330
13F3
100
AcDbEntity
  8
0
 62
     7
370
    70
100
AcDbText
 10
-158.095413
 20
94.87088
 30
0.0
 40
2.0
  1
0.5-3
 41
1.355707118644068
 72
     5
 11
-150.096741
 21
94.87088
 31
0.0
100
AcDbText
  0
ENDBLK
  5
1A18
330
13F3
100
AcDbEntity
  8
0
100
AcDbBlockEnd
  0
BLOCK
  5
1A19
330
13F4
100
AcDbEntity
  8
0
100
AcDbBlockBegin
  2
BLOCK172
 70
     0
 10
0.0
 20
0.0
 30
0.0
  3
BLOCK172
  1

  0
TEXT
  5
62C
330
13F4
100
AcDbEntity
  8
0
 62
     7
370
    70
100
AcDbText
 10
-153.327637
 20
94.912903
 30
0.0
 40
2.0
  1
:
 41
4.888866666666729
 72
     5
 11
-151.860977
 21
94.912903
 31
0.0
100
AcDbText
  0
ENDBLK
  5
1A1A
330
13F4
100
AcDbEntity
  8
0
100
AcDbBlockEnd
  0
BLOCK
  5
1A1B
330
13F5
100
AcDbEntity
  8
0
100
AcDbBlockBegin
  2
BLOCK173
 70
     0
 10
0.0
 20
0.0
 30
0.0
  3
BLOCK173
  1

  0
TEXT
  5
62F
330
13F5
100
AcDbEntity
  8
0
 62
     7
370
    70
100
AcDbText
 10
-153.327637
 20
90.912903
 30
0.0
 40
2.0
  1
:
 41
4.888866666666729
 72
     5
 11
-151.860977
 21
90.912903
 31
0.0
100
AcDbText
  0
ENDBLK
  5
1A1C
330
13F5
100
AcDbEntity
  8
0
100
AcDbBlockEnd
  0
BLOCK
  5
1A1D
330
13F6
100
AcDbEntity
  8
0
100
AcDbBlockBegin
  2
BLOCK174
 70
     0
 10
0.0
 20
0.0
 30
0.0
  3
BLOCK174
  1

  0
TEXT
  5
632
330
13F6
100
AcDbEntity
  8
0
 62
     7
370
    70
100
AcDbText
 10
-153.327637
 20
70.912903
 30
0.0
 40
2.0
  1
:
 41
4.888866666666729
 72
     5
 11
-151.860977
 21
70.912903
 31
0.0
100
AcDbText
  0
ENDBLK
  5
1A1E
330
13F6
100
AcDbEntity
  8
0
100
AcDbBlockEnd
  0
BLOCK
  5
1A1F
330
13F7
100
AcDbEntity
  8
0
100
AcDbBlockBegin
  2
BLOCK175
 70
     0
 10
0.0
 20
0.0
 30
0.0
  3
BLOCK175
  1

  0
TEXT
  5
635
330
13F7
100
AcDbEntity
  8
0
 62
     7
370
    70
100
AcDbText
 10
-153.327637
 20
66.912903
 30
0.0
 40
2.0
  1
:
 41
4.888866666666729
 72
     5
 11
-151.860977
 21
66.912903
 31
0.0
100
AcDbText
  0
ENDBLK
  5
1A20
330
13F7
100
AcDbEntity
  8
0
100
AcDbBlockEnd
  0
BLOCK
  5
1A21
330
13F8
100
AcDbEntity
  8
0
100
AcDbBlockBegin
  2
BLOCK176
 70
     0
 10
0.0
 20
0.0
 30
0.0
  3
BLOCK176
  1

  0
TEXT
  5
638
330
13F8
100
AcDbEntity
  8
0
 62
     7
370
    70
100
AcDbText
 10
-153.327637
 20
62.912903
 30
0.0
 40
2.0
  1
:
 41
4.888866666666729
 72
     5
 11
-151.860977
 21
62.912903
 31
0.0
100
AcDbText
  0
ENDBLK
  5
1A22
330
13F8
100
AcDbEntity
  8
0
100
AcDbBlockEnd
  0
BLOCK
  5
1A23
330
13F9
100
AcDbEntity
  8
0
100
AcDbBlockBegin
  2
BLOCK177
 70
     0
 10
0.0
 20
0.0
 30
0.0
  3
BLOCK177
  1

  0
TEXT
  5
63B
330
13F9
100
AcDbEntity
  8
0
 62
     7
370
    70
100
AcDbText
 10
-156.12764
 20
58.912903
 30
0.0
 40
2.0
  1
>400
 41
1.284480581079152
 72
     5
 11
-149.060974
 21
58.912903
 31
0.0
100
AcDbText
  0
ENDBLK
  5
1A24
330
13F9
100
AcDbEntity
  8
0
100
AcDbBlockEnd
  0
BLOCK
  5
1A25
330
13FA
100
AcDbEntity
  8
0
100
AcDbBlockBegin
  2
BLOCK178
 70
     0
 10
0.0
 20
0.0
 30
0.0
  3
BLOCK178
  1

  0
TEXT
  5
63E
330
13FA
100
AcDbEntity
  8
100
 62
     7
370
    70
100
AcDbText
 10
-142.267624
 20
95.497437
 30
0.0
 40
2.0
  1
+
 41
1.33332727272729
 72
     5
 11
-140.800964
 21
95.497437
 31
0.0
100
AcDbText
  0
ENDBLK
  5
1A26
330
13FA
100
AcDbEntity
  8
0
100
AcDbBlockEnd
  0
BLOCK
  5
1A27
330
13FB
100
AcDbEntity
  8
0
100
AcDbBlockBegin
  2
BLOCK179
 70
     0
 10
0.0
 20
0.0
 30
0.0
  3
BLOCK179
  1

  0
TEXT
  5
641
330
13FB
100
AcDbEntity
  8
100
 62
     7
370
    70
100
AcDbText
 10
-142.267624
 20
91.497437
 30
0.0
 40
2.0
  1
+
 41
1.33332727272729
 72
     5
 11
-140.800964
 21
91.497437
 31
0.0
100
AcDbText
  0
ENDBLK
  5
1A28
330
13FB
100
AcDbEntity
  8
0
100
AcDbBlockEnd
  0
BLOCK
  5
1A29
330
13FC
100
AcDbEntity
  8
0
100
AcDbBlockBegin
  2
BLOCK180
 70
     0
 10
0.0
 20
0.0
 30
0.0
  3
BLOCK180
  1

  0
TEXT
  5
644
330
13FC
100
AcDbEntity
  8
100
 62
     7
370
    70
100
AcDbText
 10
-142.267624
 20
87.497437
 30
0.0
 40
2.0
  1
+
 41
1.33332727272729
 72
     5
 11
-140.800964
 21
87.497437
 31
0.0
100
AcDbText
  0
ENDBLK
  5
1A2A
330
13FC
100
AcDbEntity
  8
0
100
AcDbBlockEnd
  0
BLOCK
  5
1A2B
330
13FD
100
AcDbEntity
  8
0
100
AcDbBlockBegin
  2
BLOCK181
 70
     0
 10
0.0
 20
0.0
 30
0.0
  3
BLOCK181
  1

  0
TEXT
  5
647
330
13FD
100
AcDbEntity
  8
100
 62
     7
370
    70
100
AcDbText
 10
-142.267624
 20
75.497437
 30
0.0
 40
2.0
  1
+
 41
1.33332727272729
 72
     5
 11
-140.800964
 21
75.497437
 31
0.0
100
AcDbText
  0
ENDBLK
  5
1A2C
330
13FD
100
AcDbEntity
  8
0
100
AcDbBlockEnd
  0
BLOCK
  5
1A2D
330
13FE
100
AcDbEntity
  8
0
100
AcDbBlockBegin
  2
BLOCK182
 70
     0
 10
0.0
 20
0.0
 30
0.0
  3
BLOCK182
  1

  0
TEXT
  5
64A
330
13FE
100
AcDbEntity
  8
100
 62
     7
370
    70
100
AcDbText
 10
-142.267624
 20
71.497437
 30
0.0
 40
2.0
  1
+
 41
1.33332727272729
 72
     5
 11
-140.800964
 21
71.497437
 31
0.0
100
AcDbText
  0
ENDBLK
  5
1A2E
330
13FE
100
AcDbEntity
  8
0
100
AcDbBlockEnd
  0
BLOCK
  5
1A2F
330
13FF
100
AcDbEntity
  8
0
100
AcDbBlockBegin
  2
BLOCK183
 70
     0
 10
0.0
 20
0.0
 30
0.0
  3
BLOCK183
  1

  0
TEXT
  5
64D
330
13FF
100
AcDbEntity
  8
100
 62
     7
370
    70
100
AcDbText
 10
-142.267624
 20
67.497437
 30
0.0
 40
2.0
  1
+
 41
1.33332727272729
 72
     5
 11
-140.800964
 21
67.497437
 31
0.0
100
AcDbText
  0
ENDBLK
  5
1A30
330
13FF
100
AcDbEntity
  8
0
100
AcDbBlockEnd
  0
BLOCK
  5
1A31
330
1400
100
AcDbEntity
  8
0
100
AcDbBlockBegin
  2
BLOCK184
 70
     0
 10
0.0
 20
0.0
 30
0.0
  3
BLOCK184
  1

  0
TEXT
  5
650
330
1400
100
AcDbEntity
  8
100
 62
     7
370
    70
100
AcDbText
 10
-142.267624
 20
63.497437
 30
0.0
 40
2.0
  1
+
 41
1.33332727272729
 72
     5
 11
-140.800964
 21
63.497437
 31
0.0
100
AcDbText
  0
ENDBLK
  5
1A32
330
1400
100
AcDbEntity
  8
0
100
AcDbBlockEnd
  0
BLOCK
  5
1A33
330
1401
100
AcDbEntity
  8
0
100
AcDbBlockBegin
  2
BLOCK185
 70
     0
 10
0.0
 20
0.0
 30
0.0
  3
BLOCK185
  1

  0
TEXT
  5
653
330
1401
100
AcDbEntity
  8
100
 62
     7
370
    70
100
AcDbText
 10
-142.267624
 20
59.497437
 30
0.0
 40
2.0
  1
+
 41
1.33332727272729
 72
     5
 11
-140.800964
 21
59.497437
 31
0.0
100
AcDbText
  0
ENDBLK
  5
1A34
330
1401
100
AcDbEntity
  8
0
100
AcDbBlockEnd
  0
BLOCK
  5
1A35
330
1402
100
AcDbEntity
  8
0
100
AcDbBlockBegin
  2
BLOCK186
 70
     0
 10
0.0
 20
0.0
 30
0.0
  3
BLOCK186
  1

  0
TEXT
  5
656
330
1402
100
AcDbEntity
  8
100
 62
     7
370
    70
100
AcDbText
 10
-142.267624
 20
94.485474
 30
0.0
 40
2.0
  1
-
 41
1.33332727272729
 72
     5
 11
-140.800964
 21
94.485474
 31
0.0
100
AcDbText
  0
ENDBLK
  5
1A36
330
1402
100
AcDbEntity
  8
0
100
AcDbBlockEnd
  0
BLOCK
  5
1A37
330
1403
100
AcDbEntity
  8
0
100
AcDbBlockBegin
  2
BLOCK187
 70
     0
 10
0.0
 20
0.0
 30
0.0
  3
BLOCK187
  1

  0
TEXT
  5
659
330
1403
100
AcDbEntity
  8
100
 62
     7
370
    70
100
AcDbText
 10
-142.267624
 20
90.485474
 30
0.0
 40
2.0
  1
-
 41
1.33332727272729
 72
     5
 11
-140.800964
 21
90.485474
 31
0.0
100
AcDbText
  0
ENDBLK
  5
1A38
330
1403
100
AcDbEntity
  8
0
100
AcDbBlockEnd
  0
BLOCK
  5
1A39
330
1404
100
AcDbEntity
  8
0
100
AcDbBlockBegin
  2
BLOCK188
 70
     0
 10
0.0
 20
0.0
 30
0.0
  3
BLOCK188
  1

  0
TEXT
  5
65C
330
1404
100
AcDbEntity
  8
100
 62
     7
370
    70
100
AcDbText
 10
-142.267624
 20
86.485474
 30
0.0
 40
2.0
  1
-
 41
1.33332727272729
 72
     5
 11
-140.800964
 21
86.485474
 31
0.0
100
AcDbText
  0
ENDBLK
  5
1A3A
330
1404
100
AcDbEntity
  8
0
100
AcDbBlockEnd
  0
BLOCK
  5
1A3B
330
1405
100
AcDbEntity
  8
0
100
AcDbBlockBegin
  2
BLOCK189
 70
     0
 10
0.0
 20
0.0
 30
0.0
  3
BLOCK189
  1

  0
TEXT
  5
65F
330
1405
100
AcDbEntity
  8
100
 62
     7
370
    70
100
AcDbText
 10
-142.267624
 20
74.485474
 30
0.0
 40
2.0
  1
-
 41
1.33332727272729
 72
     5
 11
-140.800964
 21
74.485474
 31
0.0
100
AcDbText
  0
ENDBLK
  5
1A3C
330
1405
100
AcDbEntity
  8
0
100
AcDbBlockEnd
  0
BLOCK
  5
1A3D
330
1406
100
AcDbEntity
  8
0
100
AcDbBlockBegin
  2
BLOCK190
 70
     0
 10
0.0
 20
0.0
 30
0.0
  3
BLOCK190
  1

  0
TEXT
  5
662
330
1406
100
AcDbEntity
  8
100
 62
     7
370
    70
100
AcDbText
 10
-142.267624
 20
70.485474
 30
0.0
 40
2.0
  1
-
 41
1.33332727272729
 72
     5
 11
-140.800964
 21
70.485474
 31
0.0
100
AcDbText
  0
ENDBLK
  5
1A3E
330
1406
100
AcDbEntity
  8
0
100
AcDbBlockEnd
  0
BLOCK
  5
1A3F
330
1407
100
AcDbEntity
  8
0
100
AcDbBlockBegin
  2
BLOCK191
 70
     0
 10
0.0
 20
0.0
 30
0.0
  3
BLOCK191
  1

  0
TEXT
  5
665
330
1407
100
AcDbEntity
  8
100
 62
     7
370
    70
100
AcDbText
 10
-142.267624
 20
66.485474
 30
0.0
 40
2.0
  1
-
 41
1.33332727272729
 72
     5
 11
-140.800964
 21
66.485474
 31
0.0
100
AcDbText
  0
ENDBLK
  5
1A40
330
1407
100
AcDbEntity
  8
0
100
AcDbBlockEnd
  0
BLOCK
  5
1A41
330
1408
100
AcDbEntity
  8
0
100
AcDbBlockBegin
  2
BLOCK192
 70
     0
 10
0.0
 20
0.0
 30
0.0
  3
BLOCK192
  1

  0
TEXT
  5
668
330
1408
100
AcDbEntity
  8
100
 62
     7
370
    70
100
AcDbText
 10
-142.267624
 20
62.485474
 30
0.0
 40
2.0
  1
-
 41
1.33332727272729
 72
     5
 11
-140.800964
 21
62.485474
 31
0.0
100
AcDbText
  0
ENDBLK
  5
1A42
330
1408
100
AcDbEntity
  8
0
100
AcDbBlockEnd
  0
BLOCK
  5
1A43
330
1409
100
AcDbEntity
  8
0
100
AcDbBlockBegin
  2
BLOCK193
 70
     0
 10
0.0
 20
0.0
 30
0.0
  3
BLOCK193
  1

  0
TEXT
  5
66B
330
1409
100
AcDbEntity
  8
100
 62
     7
370
    70
100
AcDbText
 10
-142.267624
 20
58.485474
 30
0.0
 40
2.0
  1
-
 41
1.33332727272729
 72
     5
 11
-140.800964
 21
58.485474
 31
0.0
100
AcDbText
  0
ENDBLK
  5
1A44
330
1409
100
AcDbEntity
  8
0
100
AcDbBlockEnd
  0
BLOCK
  5
1A45
330
140A
100
AcDbEntity
  8
0
100
AcDbBlockBegin
  2
BLOCK194
 70
     0
 10
0.0
 20
0.0
 30
0.0
  3
BLOCK194
  1

  0
TEXT
  5
66E
330
140A
100
AcDbEntity
  8
100
 62
     7
370
    13
100
AcDbText
 10
-158.570404
 20
98.744263
 30
0.0
 40
2.0
  1
DIM.
 41
1.279318139534884
 72
     5
 11
-153.069336
 21
98.744263
 31
0.0
100
AcDbText
  0
ENDBLK
  5
1A46
330
140A
100
AcDbEntity
  8
0
100
AcDbBlockEnd
  0
BLOCK
  5
1A47
330
140B
100
AcDbEntity
  8
0
100
AcDbBlockBegin
  2
BLOCK195
 70
     0
 10
0.0
 20
0.0
 30
0.0
  3
BLOCK195
  1

  0
TEXT
  5
671
330
140B
100
AcDbEntity
  8
100
 62
     7
370
    13
100
AcDbText
 10
-152.393768
 20
98.991089
 30
0.0
 40
2.0
  1
/Dim.
 41
1.228302982456141
 72
     5
 11
-145.392441
 21
98.991089
 31
0.0
100
AcDbText
  0
ENDBLK
  5
1A48
330
140B
100
AcDbEntity
  8
0
100
AcDbBlockEnd
  0
BLOCK
  5
1A49
330
140C
100
AcDbEntity
  8
0
100
AcDbBlockBegin
  2
BLOCK196
 70
     0
 10
0.0
 20
0.0
 30
0.0
  3
BLOCK196
  1

  0
TEXT
  5
674
330
140C
100
AcDbEntity
  8
100
 62
     7
370
    13
100
AcDbText
 10
-143.570404
 20
98.94426
 30
0.0
 40
2.0
  1
TOL.
 41
1.122666938775511
 72
     5
 11
-138.069336
 21
98.94426
 31
0.0
100
AcDbText
  0
ENDBLK
  5
1A4A
330
140C
100
AcDbEntity
  8
0
100
AcDbBlockEnd
  0
BLOCK
  5
1A4B
330
140D
100
AcDbEntity
  8
0
100
AcDbBlockBegin
  2
BLOCK197
 70
     0
 10
0.0
 20
0.0
 30
0.0
  3
BLOCK197
  1

  0
TEXT
  5
677
330
140D
100
AcDbEntity
  8
100
 62
     7
370
    13
100
AcDbText
 10
-137.393768
 20
98.991089
 30
0.0
 40
2.0
  1
/Tol.
 41
1.272968545454546
 72
     5
 11
-130.392441
 21
98.991089
 31
0.0
100
AcDbText
  0
ENDBLK
  5
1A4C
330
140D
100
AcDbEntity
  8
0
100
AcDbBlockEnd
  0
BLOCK
  5
1A4D
330
140E
100
AcDbEntity
  8
0
100
AcDbBlockBegin
  2
BLOCK198
 70
     0
 10
0.0
 20
0.0
 30
0.0
  3
BLOCK198
  1

  0
TEXT
  5
67A
330
140E
100
AcDbEntity
  8
100
 62
     7
370
    13
100
AcDbText
 10
-188.570404
 20
98.744263
 30
0.0
 40
2.0
  1
DIM.
 41
1.279318139534884
 72
     5
 11
-183.069336
 21
98.744263
 31
0.0
100
AcDbText
  0
ENDBLK
  5
1A4E
330
140E
100
AcDbEntity
  8
0
100
AcDbBlockEnd
  0
BLOCK
  5
1A4F
330
140F
100
AcDbEntity
  8
0
100
AcDbBlockBegin
  2
BLOCK199
 70
     0
 10
0.0
 20
0.0
 30
0.0
  3
BLOCK199
  1

  0
TEXT
  5
67D
330
140F
100
AcDbEntity
  8
100
 62
     7
370
    13
100
AcDbText
 10
-182.393768
 20
98.991089
 30
0.0
 40
2.0
  1
/Dim.
 41
1.228302982456141
 72
     5
 11
-175.392441
 21
98.991089
 31
0.0
100
AcDbText
  0
ENDBLK
  5
1A50
330
140F
100
AcDbEntity
  8
0
100
AcDbBlockEnd
  0
BLOCK
  5
1A51
330
1410
100
AcDbEntity
  8
0
100
AcDbBlockBegin
  2
BLOCK200
 70
     0
 10
0.0
 20
0.0
 30
0.0
  3
BLOCK200
  1

  0
TEXT
  5
680
330
1410
100
AcDbEntity
  8
100
 62
     7
370
    13
100
AcDbText
 10
-173.570404
 20
98.94426
 30
0.0
 40
2.0
  1
TOL.
 41
1.122666938775511
 72
     5
 11
-168.069336
 21
98.94426
 31
0.0
100
AcDbText
  0
ENDBLK
  5
1A52
330
1410
100
AcDbEntity
  8
0
100
AcDbBlockEnd
  0
BLOCK
  5
1A53
330
1411
100
AcDbEntity
  8
0
100
AcDbBlockBegin
  2
BLOCK201
 70
     0
 10
0.0
 20
0.0
 30
0.0
  3
BLOCK201
  1

  0
TEXT
  5
683
330
1411
100
AcDbEntity
  8
100
 62
     7
370
    13
100
AcDbText
 10
-167.393768
 20
98.991089
 30
0.0
 40
2.0
  1
/Tol.
 41
1.272968545454546
 72
     5
 11
-160.392441
 21
98.991089
 31
0.0
100
AcDbText
  0
ENDBLK
  5
1A54
330
1411
100
AcDbEntity
  8
0
100
AcDbBlockEnd
  0
BLOCK
  5
1A55
330
1412
100
AcDbEntity
  8
0
100
AcDbBlockBegin
  2
BLOCK202
 70
     0
 10
0.0
 20
0.0
 30
0.0
  3
BLOCK202
  1

  0
TEXT
  5
686
330
1412
100
AcDbEntity
  8
100
 62
     7
370
    13
100
AcDbText
 10
-188.26506
 20
105.642639
 30
0.0
 40
1.5
  1
DIMENSIONI LINEARI
 41
1.475555140740741
 72
     5
 11
-163.365067
 21
105.642639
 31
0.0
100
AcDbText
  0
ENDBLK
  5
1A56
330
1412
100
AcDbEntity
  8
0
100
AcDbBlockEnd
  0
BLOCK
  5
1A57
330
1413
100
AcDbEntity
  8
0
100
AcDbBlockBegin
  2
BLOCK203
 70
     0
 10
0.0
 20
0.0
 30
0.0
  3
BLOCK203
  1

  0
TEXT
  5
689
330
1413
100
AcDbEntity
  8
100
 62
     7
370
    13
100
AcDbText
 10
-188.120728
 20
103.164085
 30
0.0
 40
1.5
  1
Linear dimensions
 41
1.207831505306205
 72
     5
 11
-169.367325
 21
103.164085
 31
0.0
100
AcDbText
  0
ENDBLK
  5
1A58
330
1413
100
AcDbEntity
  8
0
100
AcDbBlockEnd
  0
BLOCK
  5
1A59
330
1414
100
AcDbEntity
  8
0
100
AcDbBlockBegin
  2
BLOCK204
 70
     0
 10
0.0
 20
0.0
 30
0.0
  3
BLOCK204
  1

  0
TEXT
  5
68C
330
1414
100
AcDbEntity
  8
100
 62
     7
370
    13
100
AcDbText
 10
-188.355652
 20
109.571449
 30
0.0
 40
1.5
  1
Tolerances unless otherwise stated
 41
1.176681995728984
 72
     5
 11
-150.473846
 21
109.571449
 31
0.0
100
AcDbText
  0
ENDBLK
  5
1A5A
330
1414
100
AcDbEntity
  8
0
100
AcDbBlockEnd
  0
BLOCK
  5
1A5B
330
1415
100
AcDbEntity
  8
0
100
AcDbBlockBegin
  2
BLOCK205
 70
     0
 10
0.0
 20
0.0
 30
0.0
  3
BLOCK205
  1

  0
TEXT
  5
68F
330
1415
100
AcDbEntity
  8
100
 62
     7
370
    13
100
AcDbText
 10
-158.26506
 20
105.642639
 30
0.0
 40
1.5
  1
RACCORDI E SMUSSI
 41
1.356421356421357
 72
     5
 11
-134.76506
 21
105.642639
 31
0.0
100
AcDbText
  0
ENDBLK
  5
1A5C
330
1415
100
AcDbEntity
  8
0
100
AcDbBlockEnd
  0
BLOCK
  5
1A5D
330
1416
100
AcDbEntity
  8
0
100
AcDbBlockBegin
  2
BLOCK206
 70
     0
 10
0.0
 20
0.0
 30
0.0
  3
BLOCK206
  1

  0
TEXT
  5
692
330
1416
100
AcDbEntity
  8
100
 62
     7
370
    13
100
AcDbText
 10
-158.120728
 20
103.164085
 30
0.0
 40
1.5
  1
Fillets and chamfers
 41
1.224185587395656
 72
     5
 11
-135.99173
 21
103.164085
 31
0.0
100
AcDbText
  0
ENDBLK
  5
1A5E
330
1416
100
AcDbEntity
  8
0
100
AcDbBlockEnd
  0
BLOCK
  5
1A5F
330
1417
100
AcDbEntity
  8
0
100
AcDbBlockBegin
  2
BLOCK207
 70
     0
 10
0.0
 20
0.0
 30
0.0
  3
BLOCK207
  1

  0
TEXT
  5
695
330
1417
100
AcDbEntity
  8
100
 62
     7
370
    13
100
AcDbText
 10
-158.26506
 20
81.642639
 30
0.0
 40
1.5
  1
DIMENSIONI ANGOLARI
 41
1.375163555555556
 72
     5
 11
-131.965057
 21
81.642639
 31
0.0
100
AcDbText
  0
ENDBLK
  5
1A60
330
1417
100
AcDbEntity
  8
0
100
AcDbBlockEnd
  0
BLOCK
  5
1A61
330
1418
100
AcDbEntity
  8
0
100
AcDbBlockBegin
  2
BLOCK208
 70
     0
 10
0.0
 20
0.0
 30
0.0
  3
BLOCK208
  1

  0
TEXT
  5
698
330
1418
100
AcDbEntity
  8
100
 62
     7
370
    13
100
AcDbText
 10
-158.120728
 20
79.164085
 30
0.0
 40
1.5
  1
Angular dimensions
 41
1.167509183053518
 72
     5
 11
-138.242126
 21
79.164085
 31
0.0
100
AcDbText
  0
ENDBLK
  5
1A62
330
1418
100
AcDbEntity
  8
0
100
AcDbBlockEnd
  0
BLOCK
  5
1A63
330
1419
100
AcDbEntity
  8
0
100
AcDbBlockBegin
  2
BLOCK209
 70
     0
 10
0.0
 20
0.0
 30
0.0
  3
BLOCK209
  1

  0
TEXT
  5
69B
330
1419
100
AcDbEntity
  8
0
 62
     7
370
    70
100
AcDbText
 10
-129.919662
 20
34.125141
 30
0.0
 40
2.5
  1
TEMPERED GLASS FLOAT SP=4MM
 41
0.9976855261845385
 72
     5
 11
-79.910675
 21
34.125141
 31
0.0
100
AcDbText
  0
ENDBLK
  5
1A64
330
1419
100
AcDbEntity
  8
0
100
AcDbBlockEnd
  0
BLOCK
  5
1A65
330
141A
100
AcDbEntity
  8
0
100
AcDbBlockBegin
  2
BLOCK210
 70
     0
 10
0.0
 20
0.0
 30
0.0
  3
BLOCK210
  1

  0
TEXT
  5
69E
330
141A
100
AcDbEntity
  8
0
 62
     7
370
    70
100
AcDbText
 10
-126.948898
 20
15.435404
 30
0.0
 40
2.8
  1
GLASS FINISH AVENUE 2
 41
1.087898431881497
 72
     5
 11
-83.541077
 21
15.435404
 31
0.0
100
AcDbText
  0
ENDBLK
  5
1A66
330
141A
100
AcDbEntity
  8
0
100
AcDbBlockEnd
  0
BLOCK
  5
1A67
330
141B
100
AcDbEntity
  8
0
100
AcDbBlockBegin
  2
BLOCK211
 70
     0
 10
0.0
 20
0.0
 30
0.0
  3
BLOCK211
  1

  0
TEXT
  5
6A1
330
141B
100
AcDbEntity
  8
0
 62
     7
370
    70
100
AcDbText
 10
-771.245178
 20
103.297318
 30
0.0
 40
3.5
  1
1) Glass calcium sodic without lead
 41
1.602698993318172
 72
     5
 11
-657.611816
 21
103.297318
 31
0.0
100
AcDbText
  0
ENDBLK
  5
1A68
330
141B
100
AcDbEntity
  8
0
100
AcDbBlockEnd
  0
BLOCK
  5
1A69
330
141C
100
AcDbEntity
  8
0
100
AcDbBlockBegin
  2
BLOCK212
 70
     0
 10
0.0
 20
0.0
 30
0.0
  3
BLOCK212
  1

  0
TEXT
  5
6A4
330
141C
100
AcDbEntity
  8
0
 62
     7
370
    70
100
AcDbText
 10
-771.245178
 20
87.297318
 30
0.0
 40
3.5
  1
2) Eseguire molatura opaca su tutto il perimetro del vetro
 41
1.560796758790334
 72
     5
 11
-582.478516
 21
87.297318
 31
0.0
100
AcDbText
  0
ENDBLK
  5
1A6A
330
141C
100
AcDbEntity
  8
0
100
AcDbBlockEnd
  0
BLOCK
  5
1A6B
330
141D
100
AcDbEntity
  8
0
100
AcDbBlockBegin
  2
BLOCK213
 70
     0
 10
0.0
 20
0.0
 30
0.0
  3
BLOCK213
  1

  0
TEXT
  5
6A7
330
141D
100
AcDbEntity
  8
0
 62
     7
370
    70
100
AcDbText
 10
-771.245178
 20
79.297318
 30
0.0
 40
3.5
  1
2) Grinding opaque on all perimeter
 41
1.572236070563819
 72
     5
 11
-657.611816
 21
79.297318
 31
0.0
100
AcDbText
  0
ENDBLK
  5
1A6C
330
141D
100
AcDbEntity
  8
0
100
AcDbBlockEnd
  0
BLOCK
  5
1A6D
330
141E
100
AcDbEntity
  8
0
100
AcDbBlockBegin
  2
BLOCK214
 70
     0
 10
0.0
 20
0.0
 30
0.0
  3
BLOCK214
  1

  0
TEXT
  5
6AA
330
141E
100
AcDbEntity
  8
0
 62
     7
370
    70
100
AcDbText
 10
-771.245117
 20
31.297318
 30
0.0
 40
3.5
  1
   uniforme su tutto il vetro
 41
1.521976021202987
 72
     5
 11
-677.211731
 21
31.297318
 31
0.0
100
AcDbText
  0
ENDBLK
  5
1A6E
330
141E
100
AcDbEntity
  8
0
100
AcDbBlockEnd
  0
BLOCK
  5
1A6F
330
141F
100
AcDbEntity
  8
0
100
AcDbBlockBegin
  2
BLOCK215
 70
     0
 10
0.0
 20
0.0
 30
0.0
  3
BLOCK215
  1

  0
TEXT
  5
6AD
330
141F
100
AcDbEntity
  8
0
 62
     7
370
    70
100
AcDbText
 10
-771.245178
 20
39.297318
 30
0.0
 40
3.5
  1
4) Eseguire trattamento di tempra secondo la EN 60598-2-5 con raffreddamento
 41
1.474893673242357
 72
     5
 11
-523.678589
 21
39.297318
 31
0.0
100
AcDbText
  0
ENDBLK
  5
1A70
330
141F
100
AcDbEntity
  8
0
100
AcDbBlockEnd
  0
BLOCK
  5
1A71
330
1420
100
AcDbEntity
  8
0
100
AcDbBlockBegin
  2
BLOCK216
 70
     0
 10
0.0
 20
0.0
 30
0.0
  3
BLOCK216
  1

  0
TEXT
  5
6B0
330
1420
100
AcDbEntity
  8
0
 62
     7
370
    70
100
AcDbText
 10
-445.522827
 20
79.297318
 30
0.0
 40
3.5
  1
   dal centro al bordo del vetro
 41
1.517477150164414
 72
     5
 11
-341.689453
 21
79.297318
 31
0.0
100
AcDbText
  0
ENDBLK
  5
1A72
330
1420
100
AcDbEntity
  8
0
100
AcDbBlockEnd
  0
BLOCK
  5
1A73
330
1421
100
AcDbEntity
  8
0
100
AcDbBlockBegin
  2
BLOCK217
 70
     0
 10
0.0
 20
0.0
 30
0.0
  3
BLOCK217
  1

  0
TEXT
  5
6B3
330
1421
100
AcDbEntity
  8
0
 62
     7
370
    70
100
AcDbText
 10
-445.522858
 20
87.297318
 30
0.0
 40
3.5
  1
5) Dopo trattamento di tempra la durezza superficiale deve essere costante
 41
1.511559413018939
 72
     5
 11
-204.489594
 21
87.297318
 31
0.0
100
AcDbText
  0
ENDBLK
  5
1A74
330
1421
100
AcDbEntity
  8
0
100
AcDbBlockEnd
  0
BLOCK
  5
1A75
330
1422
100
AcDbEntity
  8
0
100
AcDbBlockBegin
  2
BLOCK218
 70
     0
 10
0.0
 20
0.0
 30
0.0
  3
BLOCK218
  1

  0
TEXT
  5
6B6
330
1422
100
AcDbEntity
  8
0
 62
     7
370
    70
100
AcDbText
 10
-445.522858
 20
47.297318
 30
0.0
 40
3.5
  1
6) Planarity tolerance after tempering:+/-0,3mm
 41
1.516204107142857
 72
     5
 11
-292.689484
 21
47.297318
 31
0.0
100
AcDbText
  0
ENDBLK
  5
1A76
330
1422
100
AcDbEntity
  8
0
100
AcDbBlockEnd
  0
BLOCK
  5
1A77
330
1423
100
AcDbEntity
  8
0
100
AcDbBlockBegin
  2
BLOCK219
 70
     0
 10
0.0
 20
0.0
 30
0.0
  3
BLOCK219
  1

  0
TEXT
  5
6B9
330
1423
100
AcDbEntity
  8
0
 62
     7
370
    70
100
AcDbText
 10
-445.522858
 20
55.297318
 30
0.0
 40
3.5
  1
6) Tolleranza di planarità dopo tempra:+/-0,3mm
 41
1.521487048282727
 72
     5
 11
-292.689484
 21
55.297318
 31
0.0
100
AcDbText
  0
ENDBLK
  5
1A78
330
1423
100
AcDbEntity
  8
0
100
AcDbBlockEnd
  0
BLOCK
  5
1A79
330
1424
100
AcDbEntity
  8
0
100
AcDbBlockBegin
  2
BLOCK220
 70
     0
 10
0.0
 20
0.0
 30
0.0
  3
BLOCK220
  1

  0
TEXT
  5
6BC
330
1424
100
AcDbEntity
  8
0
 62
     7
370
    70
100
AcDbText
 10
-771.245178
 20
23.297318
 30
0.0
 40
3.5
  1
4) Glass tempered in accordance with en 60598-2-5 with uniform cooling
 41
1.519738367802691
 72
     5
 11
-543.278564
 21
23.297318
 31
0.0
100
AcDbText
  0
ENDBLK
  5
1A7A
330
1424
100
AcDbEntity
  8
0
100
AcDbBlockEnd
  0
BLOCK
  5
1A7B
330
1425
100
AcDbEntity
  8
0
100
AcDbBlockBegin
  2
BLOCK221
 70
     0
 10
0.0
 20
0.0
 30
0.0
  3
BLOCK221
  1

  0
TEXT
  5
6BF
330
1425
100
AcDbEntity
  8
0
 62
     7
370
    70
100
AcDbText
 10
-445.522858
 20
71.297318
 30
0.0
 40
3.5
  1
5) After tempering the hardness on surface must be constant on all glass
 41
1.513661970068555
 72
     5
 11
-211.022919
 21
71.297318
 31
0.0
100
AcDbText
  0
ENDBLK
  5
1A7C
330
1425
100
AcDbEntity
  8
0
100
AcDbBlockEnd
  0
BLOCK
  5
1A7D
330
1426
100
AcDbEntity
  8
0
100
AcDbBlockBegin
  2
BLOCK222
 70
     0
 10
0.0
 20
0.0
 30
0.0
  3
BLOCK222
  1

  0
TEXT
  5
6C2
330
1426
100
AcDbEntity
  8
0
 62
     7
370
    70
100
AcDbText
 10
-445.522858
 20
31.297318
 30
0.0
 40
3.5
  1
7) Il particolare deve essere pulito e privo di ondulazioni
 41
1.640013886457288
 72
     5
 11
-253.489532
 21
31.297318
 31
0.0
100
AcDbText
  0
ENDBLK
  5
1A7E
330
1426
100
AcDbEntity
  8
0
100
AcDbBlockEnd
  0
BLOCK
  5
1A7F
330
1427
100
AcDbEntity
  8
0
100
AcDbBlockBegin
  2
BLOCK223
 70
     0
 10
0.0
 20
0.0
 30
0.0
  3
BLOCK223
  1

  0
TEXT
  5
6C5
330
1427
100
AcDbEntity
  8
0
 62
     7
370
    70
100
AcDbText
 10
-445.522858
 20
23.297318
 30
0.0
 40
3.5
  1
7) The glass must be delivered clean and without buckle
 41
1.537497879103531
 72
     5
 11
-266.556183
 21
23.297318
 31
0.0
100
AcDbText
  0
ENDBLK
  5
1A80
330
1427
100
AcDbEntity
  8
0
100
AcDbBlockEnd
  0
BLOCK
  5
1A81
330
1428
100
AcDbEntity
  8
0
100
AcDbBlockBegin
  2
BLOCK224
 70
     0
 10
0.0
 20
0.0
 30
0.0
  3
BLOCK224
  1

  0
TEXT
  5
6C8
330
1428
100
AcDbEntity
  8
0
 62
     7
370
    70
100
AcDbText
 10
-771.245178
 20
55.297318
 30
0.0
 40
3.5
  1
3) Part without serrations on perimeter
 41
1.53033273545309
 72
     5
 11
-644.545105
 21
55.297318
 31
0.0
100
AcDbText
  0
ENDBLK
  5
1A82
330
1428
100
AcDbEntity
  8
0
100
AcDbBlockEnd
  0
BLOCK
  5
1A83
330
1429
100
AcDbEntity
  8
0
100
AcDbBlockBegin
  2
BLOCK225
 70
     0
 10
0.0
 20
0.0
 30
0.0
  3
BLOCK225
  1

  0
TEXT
  5
6CB
330
1429
100
AcDbEntity
  8
0
 62
     7
370
    70
100
AcDbText
 10
-771.245178
 20
63.297318
 30
0.0
 40
3.5
  1
3) Il particolare deve essere privo di seghettature sul bordo
 41
1.577678770061974
 72
     5
 11
-572.678528
 21
63.297318
 31
0.0
100
AcDbText
  0
ENDBLK
  5
1A84
330
1429
100
AcDbEntity
  8
0
100
AcDbBlockEnd
  0
BLOCK
  5
1A85
330
142A
100
AcDbEntity
  8
0
100
AcDbBlockBegin
  2
BLOCK226
 70
     0
 10
0.0
 20
0.0
 30
0.0
  3
BLOCK226
  1

  0
TEXT
  5
6CE
330
142A
100
AcDbEntity
  8
0
 62
     7
370
    70
100
AcDbText
 10
-771.245117
 20
119.047318
 30
0.0
 40
4.0
  1
NOTE:
 41
1.374361461538465
 72
     5
 11
-753.378418
 21
119.047318
 31
0.0
100
AcDbText
  0
LINE
  5
6CF
330
142A
100
AcDbEntity
  8
0
 62
     7
 48
0.446667
370
    35
100
AcDbLine
 10
-771.245117
 20
118.047318
 30
0.0
 11
-753.378418
 21
118.047318
 31
0.0
  0
ENDBLK
  5
1A86
330
142A
100
AcDbEntity
  8
0
100
AcDbBlockEnd
  0
BLOCK
  5
1A87
330
142B
100
AcDbEntity
  8
0
100
AcDbBlockBegin
  2
BLOCK227
 70
     0
 10
0.0
 20
0.0
 30
0.0
  3
BLOCK227
  1

  0
TEXT
  5
6D2
330
142B
100
AcDbEntity
  8
0
 62
     7
370
    70
100
AcDbText
 10
-771.245178
 20
111.297318
 30
0.0
 40
3.5
  1
1) Vetro sodo-calcico privo di piombo
 41
1.585653230408893
 72
     5
 11
-651.07843
 21
111.297318
 31
0.0
100
AcDbText
  0
ENDBLK
  5
1A88
330
142B
100
AcDbEntity
  8
0
100
AcDbBlockEnd
  0
BLOCK
  5
1A89
330
142C
100
AcDbEntity
  8
0
100
AcDbBlockBegin
  2
BLOCK228
 70
     0
 10
0.0
 20
0.0
 30
0.0
  3
BLOCK228
  1

  0
TEXT
  5
6D5
330
142C
100
AcDbEntity
  8
0
 62
     7
370
    70
100
AcDbText
 10
-47.474407
 20
42.90778
 30
0.0
 40
2.0
  1
17.07.2006
 41
1.239544102564102
 72
     5
 11
-32.971741
 21
42.90778
 31
0.0
100
AcDbText
  0
ENDBLK
  5
1A8A
330
142C
100
AcDbEntity
  8
0
100
AcDbBlockEnd
  0
BLOCK
  5
1A8B
330
142D
100
AcDbEntity
  8
0
100
AcDbBlockBegin
  2
BLOCK229
 70
     0
 10
0.0
 20
0.0
 30
0.0
  3
BLOCK229
  1

  0
LINE
  5
6D8
330
142D
100
AcDbEntity
  8
0
 62
     7
 48
0.031752
370
     5
100
AcDbLine
 10
-183.510757
 20
19.088909
 30
0.0
 11
-184.780838
 21
19.088909
 31
0.0
  0
LINE
  5
6D9
330
142D
100
AcDbEntity
  8
0
 62
     7
 48
0.012496
370
     5
100
AcDbLine
 10
-184.780838
 20
19.088909
 30
0.0
 11
-185.278259
 21
19.137899
 31
0.0
  0
LINE
  5
6DA
330
142D
100
AcDbEntity
  8
0
 62
     7
 48
0.012372
370
     5
100
AcDbLine
 10
-185.278259
 20
19.137899
 30
0.0
 11
-185.751846
 21
19.281559
 31
0.0
  0
LINE
  5
6DB
330
142D
100
AcDbEntity
  8
0
 62
     7
 48
0.012372
370
     5
100
AcDbLine
 10
-185.751846
 20
19.281559
 30
0.0
 11
-186.188293
 21
19.514851
 31
0.0
  0
LINE
  5
6DC
330
142D
100
AcDbEntity
  8
0
 62
     7
 48
0.012372
370
     5
100
AcDbLine
 10
-186.188293
 20
19.514851
 30
0.0
 11
-186.570847
 21
19.828806
 31
0.0
  0
LINE
  5
6DD
330
142D
100
AcDbEntity
  8
0
 62
     7
 48
0.012372
370
     5
100
AcDbLine
 10
-186.570847
 20
19.828806
 30
0.0
 11
-186.884811
 21
20.211363
 31
0.0
  0
LINE
  5
6DE
330
142D
100
AcDbEntity
  8
0
 62
     7
 48
0.012372
370
     5
100
AcDbLine
 10
-186.884811
 20
20.211363
 30
0.0
 11
-187.118103
 21
20.647818
 31
0.0
  0
LINE
  5
6DF
330
142D
100
AcDbEntity
  8
0
 62
     7
 48
0.012372
370
     5
100
AcDbLine
 10
-187.118103
 20
20.647818
 30
0.0
 11
-187.261765
 21
21.121399
 31
0.0
  0
LINE
  5
6E0
330
142D
100
AcDbEntity
  8
0
 62
     7
 48
0.012372
370
     5
100
AcDbLine
 10
-187.261765
 20
21.121399
 30
0.0
 11
-187.310272
 21
21.613909
 31
0.0
  0
LINE
  5
6E1
330
142D
100
AcDbEntity
  8
0
 62
     7
 48
0.012372
370
     5
100
AcDbLine
 10
-187.310272
 20
21.613909
 30
0.0
 11
-187.261765
 21
22.106417
 31
0.0
  0
LINE
  5
6E2
330
142D
100
AcDbEntity
  8
0
 62
     7
 48
0.012372
370
     5
100
AcDbLine
 10
-187.261765
 20
22.106417
 30
0.0
 11
-187.118103
 21
22.58
 31
0.0
  0
LINE
  5
6E3
330
142D
100
AcDbEntity
  8
0
 62
     7
 48
0.012372
370
     5
100
AcDbLine
 10
-187.118103
 20
22.58
 30
0.0
 11
-186.884811
 21
23.016455
 31
0.0
  0
LINE
  5
6E4
330
142D
100
AcDbEntity
  8
0
 62
     7
 48
0.012372
370
     5
100
AcDbLine
 10
-186.884811
 20
23.016455
 30
0.0
 11
-186.570847
 21
23.399012
 31
0.0
  0
LINE
  5
6E5
330
142D
100
AcDbEntity
  8
0
 62
     7
 48
0.012372
370
     5
100
AcDbLine
 10
-186.570847
 20
23.399012
 30
0.0
 11
-186.188293
 21
23.712967
 31
0.0
  0
LINE
  5
6E6
330
142D
100
AcDbEntity
  8
0
 62
     7
 48
0.012372
370
     5
100
AcDbLine
 10
-186.188293
 20
23.712967
 30
0.0
 11
-185.751846
 21
23.946257
 31
0.0
  0
LINE
  5
6E7
330
142D
100
AcDbEntity
  8
0
 62
     7
 48
0.012372
370
     5
100
AcDbLine
 10
-185.751846
 20
23.946257
 30
0.0
 11
-185.278259
 21
24.089916
 31
0.0
  0
LINE
  5
6E8
330
142D
100
AcDbEntity
  8
0
 62
     7
 48
0.012496
370
     5
100
AcDbLine
 10
-185.278259
 20
24.089916
 30
0.0
 11
-184.780838
 21
24.138908
 31
0.0
  0
LINE
  5
6E9
330
142D
100
AcDbEntity
  8
0
 62
     7
 48
0.031752
370
     5
100
AcDbLine
 10
-184.780838
 20
24.138908
 30
0.0
 11
-183.510757
 21
24.138908
 31
0.0
  0
LINE
  5
6EA
330
142D
100
AcDbEntity
  8
0
 62
     7
 48
0.0325
370
     5
100
AcDbLine
 10
-183.510757
 20
24.138908
 30
0.0
 11
-183.510757
 21
22.838909
 31
0.0
  0
LINE
  5
6EB
330
142D
100
AcDbEntity
  8
0
 62
     7
 48
0.05
370
     5
100
AcDbLine
 10
-183.510757
 20
22.838909
 30
0.0
 11
-185.510757
 21
22.838909
 31
0.0
  0
LINE
  5
6EC
330
142D
100
AcDbEntity
  8
0
 62
     7
 48
0.06125
370
     5
100
AcDbLine
 10
-185.510757
 20
22.838909
 30
0.0
 11
-185.510757
 21
20.388908
 31
0.0
  0
LINE
  5
6ED
330
142D
100
AcDbEntity
  8
0
 62
     7
 48
0.014375
370
     5
100
AcDbLine
 10
-185.510757
 20
20.388908
 30
0.0
 11
-184.935745
 21
20.388908
 31
0.0
  0
LINE
  5
6EE
330
142D
100
AcDbEntity
  8
0
 62
     7
 48
0.046875
370
     5
100
AcDbLine
 10
-184.935745
 20
20.388908
 30
0.0
 11
-184.935745
 21
22.263908
 31
0.0
  0
LINE
  5
6EF
330
142D
100
AcDbEntity
  8
0
 62
     7
 48
0.035625
370
     5
100
AcDbLine
 10
-184.935745
 20
22.263908
 30
0.0
 11
-183.510757
 21
22.263908
 31
0.0
  0
LINE
  5
6F0
330
142D
100
AcDbEntity
  8
0
 62
     7
 48
0.079375
370
     5
100
AcDbLine
 10
-183.510757
 20
22.263908
 30
0.0
 11
-183.510757
 21
19.088909
 31
0.0
  0
ENDBLK
  5
1A8C
330
142D
100
AcDbEntity
  8
0
100
AcDbBlockEnd
  0
BLOCK
  5
1A8D
330
142E
100
AcDbEntity
  8
0
100
AcDbBlockBegin
  2
VD_ANONYM_9B5
 70
     0
 10
0.0
 20
0.0
 30
0.0
  3
VD_ANONYM_9B5
  1

  0
LINE
  5
9AC
330
142E
100
AcDbEntity
  8
0
  6
ByBlock
 62
     0
370
    -2
100
AcDbLine
 10
678.361206
 20
435.25678309
 30
0.0
 11
678.361206
 21
525.09393469
 31
0.0
  0
LINE
  5
9AD
330
142E
100
AcDbEntity
  8
0
  6
ByBlock
 62
     0
370
    -2
100
AcDbLine
 10
682.361206
 20
435.25678309
 30
0.0
 11
682.361206
 21
525.09393469
 31
0.0
  0
LINE
  5
9AE
330
142E
100
AcDbEntity
  8
0
  6
ByBlock
 62
     0
370
    -2
100
AcDbLine
 10
675.861206
 20
523.84393469
 30
0.0
 11
673.361206
 21
523.84393469
 31
0.0
  0
LINE
  5
9AF
330
142E
100
AcDbEntity
  8
0
  6
ByBlock
 62
     0
370
    -2
100
AcDbLine
 10
684.861206
 20
523.84393469
 30
0.0
 11
687.361206
 21
523.84393469
 31
0.0
  0
LWPOLYLINE
  5
9B0
330
142E
100
AcDbEntity
  8
0
  6
ByBlock
 62
     0
100
AcDbPolyline
 90
        3
 70
     1
 43
0.0
 10
678.361206
 20
523.84393469
 10
675.861206
 20
523.42726802
 10
675.861206
 20
524.26060136
  0
HATCH
  5
153D
330
142E
100
AcDbEntity
  8
0
  6
ByBlock
 62
     0
100
AcDbHatch
 10
0.0
 20
0.0
 30
0.0
210
0.0
220
0.0
230
1.0
  2
SOLID
 70
     1
 71
     0
 91
        1
 92
        2
 72
     0
 73
     1
 93
        3
 10
678.361206
 20
523.84393469
 10
675.861206
 20
523.42726802
 10
675.861206
 20
524.26060136
 97
        0
 75
     0
 76
     1
 98
        1
 10
0.0
 20
0.0
1001
VD_TEMPHATCH
1000
VD_TEMPHATCH
  0
LWPOLYLINE
  5
9B1
330
142E
100
AcDbEntity
  8
0
  6
ByBlock
 62
     0
100
AcDbPolyline
 90
        3
 70
     1
 43
0.0
 10
682.361206
 20
523.84393469
 10
684.861206
 20
523.42726802
 10
684.861206
 20
524.26060136
  0
HATCH
  5
153E
330
142E
100
AcDbEntity
  8
0
  6
ByBlock
 62
     0
100
AcDbHatch
 10
0.0
 20
0.0
 30
0.0
210
0.0
220
0.0
230
1.0
  2
SOLID
 70
     1
 71
     0
 91
        1
 92
        2
 72
     0
 73
     1
 93
        3
 10
682.361206
 20
523.84393469
 10
684.861206
 20
523.42726802
 10
684.861206
 20
524.26060136
 97
        0
 75
     0
 76
     1
 98
        1
 10
0.0
 20
0.0
1001
VD_TEMPHATCH
1000
VD_TEMPHATCH
  0
LINE
  5
9B2
330
142E
100
AcDbEntity
  8
0
  6
ByBlock
 62
     0
370
    -2
100
AcDbLine
 10
678.361206
 20
523.84393469
 30
0.0
 11
682.361206
 21
523.84393469
 31
0.0
  0
MTEXT
  5
9B3
330
142E
100
AcDbEntity
  8
0
  6
ByBlock
 62
     0
370
    -2
100
AcDbMText
 10
680.361206
 20
525.59393469
 30
0.0
 40
2.5
 41
0.0
 71
     5
 72
     1
  1
\A1;4
 73
     1
 44
1.0
  0
ENDBLK
  5
1A8E
330
142E
100
AcDbEntity
  8
0
100
AcDbBlockEnd
  0
BLOCK
  5
1A8F
330
142F
100
AcDbEntity
  8
0
100
AcDbBlockBegin
  2
VD_ANONYM_9C3
 70
     0
 10
0.0
 20
0.0
 30
0.0
  3
VD_ANONYM_9C3
  1

  0
LINE
  5
9BA
330
142F
100
AcDbEntity
  8
0
  6
ByBlock
 62
     0
370
    -2
100
AcDbLine
 10
678.361206
 20
422.27311497
 30
0.0
 11
678.361206
 21
539.91284052
 31
0.0
  0
LINE
  5
9BB
330
142F
100
AcDbEntity
  8
0
  6
ByBlock
 62
     0
370
    -2
100
AcDbLine
 10
682.361206
 20
422.27311497
 30
0.0
 11
682.361206
 21
539.91284052
 31
0.0
  0
LINE
  5
9BC
330
142F
100
AcDbEntity
  8
0
  6
ByBlock
 62
     0
370
    -2
100
AcDbLine
 10
675.861206
 20
538.66284052
 30
0.0
 11
673.361206
 21
538.66284052
 31
0.0
  0
LINE
  5
9BD
330
142F
100
AcDbEntity
  8
0
  6
ByBlock
 62
     0
370
    -2
100
AcDbLine
 10
684.861206
 20
538.66284052
 30
0.0
 11
687.361206
 21
538.66284052
 31
0.0
  0
LWPOLYLINE
  5
9BE
330
142F
100
AcDbEntity
  8
0
  6
ByBlock
 62
     0
100
AcDbPolyline
 90
        3
 70
     1
 43
0.0
 10
678.361206
 20
538.66284052
 10
675.861206
 20
538.24617385
 10
675.861206
 20
539.07950719
  0
HATCH
  5
1540
330
142F
100
AcDbEntity
  8
0
  6
ByBlock
 62
     0
100
AcDbHatch
 10
0.0
 20
0.0
 30
0.0
210
0.0
220
0.0
230
1.0
  2
SOLID
 70
     1
 71
     0
 91
        1
 92
        2
 72
     0
 73
     1
 93
        3
 10
678.361206
 20
538.66284052
 10
675.861206
 20
538.24617385
 10
675.861206
 20
539.07950719
 97
        0
 75
     0
 76
     1
 98
        1
 10
0.0
 20
0.0
1001
VD_TEMPHATCH
1000
VD_TEMPHATCH
  0
LWPOLYLINE
  5
9BF
330
142F
100
AcDbEntity
  8
0
  6
ByBlock
 62
     0
100
AcDbPolyline
 90
        3
 70
     1
 43
0.0
 10
682.361206
 20
538.66284052
 10
684.861206
 20
538.24617385
 10
684.861206
 20
539.07950719
  0
HATCH
  5
1541
330
142F
100
AcDbEntity
  8
0
  6
ByBlock
 62
     0
100
AcDbHatch
 10
0.0
 20
0.0
 30
0.0
210
0.0
220
0.0
230
1.0
  2
SOLID
 70
     1
 71
     0
 91
        1
 92
        2
 72
     0
 73
     1
 93
        3
 10
682.361206
 20
538.66284052
 10
684.861206
 20
538.24617385
 10
684.861206
 20
539.07950719
 97
        0
 75
     0
 76
     1
 98
        1
 10
0.0
 20
0.0
1001
VD_TEMPHATCH
1000
VD_TEMPHATCH
  0
LINE
  5
9C0
330
142F
100
AcDbEntity
  8
0
  6
ByBlock
 62
     0
370
    -2
100
AcDbLine
 10
678.361206
 20
538.66284052
 30
0.0
 11
682.361206
 21
538.66284052
 31
0.0
  0
MTEXT
  5
9C1
330
142F
100
AcDbEntity
  8
0
  6
ByBlock
 62
     0
370
    -2
100
AcDbMText
 10
680.361206
 20
540.41284052
 30
0.0
 40
2.5
 41
0.0
 71
     5
 72
     1
  1
\A1;4
 73
     1
 44
1.0
  0
ENDBLK
  5
1A90
330
142F
100
AcDbEntity
  8
0
100
AcDbBlockEnd
  0
BLOCK
  5
1A91
330
1430
100
AcDbEntity
  8
0
100
AcDbBlockBegin
  2
VD_ANONYM_9D0
 70
     0
 10
0.0
 20
0.0
 30
0.0
  3
VD_ANONYM_9D0
  1

  0
LINE
  5
9C9
330
1430
100
AcDbEntity
  8
0
  6
ByBlock
 62
     0
370
    -2
100
AcDbLine
 10
174.129807
 20
350.24018
 30
0.0
 11
174.129807
 21
539.91284052
 31
0.0
  0
LINE
  5
9CA
330
1430
100
AcDbEntity
  8
0
  6
ByBlock
 62
     0
370
    -2
100
AcDbLine
 10
549.10722562
 20
367.5557999
 30
0.0
 11
549.10722562
 21
539.91284052
 31
0.0
  0
LINE
  5
9CB
330
1430
100
AcDbEntity
  8
0
  6
ByBlock
 62
     0
370
    -2
100
AcDbLine
 10
176.629807
 20
538.66284052
 30
0.0
 11
546.60722562
 21
538.66284052
 31
0.0
  0
LWPOLYLINE
  5
9CC
330
1430
100
AcDbEntity
  8
0
  6
ByBlock
 62
     0
100
AcDbPolyline
 90
        3
 70
     1
 43
0.0
 10
174.129807
 20
538.66284052
 10
176.629807
 20
538.24617385
 10
176.629807
 20
539.07950719
  0
HATCH
  5
1543
330
1430
100
AcDbEntity
  8
0
  6
ByBlock
 62
     0
100
AcDbHatch
 10
0.0
 20
0.0
 30
0.0
210
0.0
220
0.0
230
1.0
  2
SOLID
 70
     1
 71
     0
 91
        1
 92
        2
 72
     0
 73
     1
 93
        3
 10
174.129807
 20
538.66284052
 10
176.629807
 20
538.24617385
 10
176.629807
 20
539.07950719
 97
        0
 75
     0
 76
     1
 98
        1
 10
0.0
 20
0.0
1001
VD_TEMPHATCH
1000
VD_TEMPHATCH
  0
LWPOLYLINE
  5
9CD
330
1430
100
AcDbEntity
  8
0
  6
ByBlock
 62
     0
100
AcDbPolyline
 90
        3
 70
     1
 43
0.0
 10
549.10722562
 20
538.66284052
 10
546.60722562
 20
538.24617385
 10
546.60722562
 20
539.07950719
  0
HATCH
  5
1544
330
1430
100
AcDbEntity
  8
0
  6
ByBlock
 62
     0
100
AcDbHatch
 10
0.0
 20
0.0
 30
0.0
210
0.0
220
0.0
230
1.0
  2
SOLID
 70
     1
 71
     0
 91
        1
 92
        2
 72
     0
 73
     1
 93
        3
 10
549.10722562
 20
538.66284052
 10
546.60722562
 20
538.24617385
 10
546.60722562
 20
539.07950719
 97
        0
 75
     0
 76
     1
 98
        1
 10
0.0
 20
0.0
1001
VD_TEMPHATCH
1000
VD_TEMPHATCH
  0
MTEXT
  5
9CE
330
1430
100
AcDbEntity
  8
0
  6
ByBlock
 62
     0
370
    -2
100
AcDbMText
 10
361.61851631
 20
540.66344472
 30
0.0
 40
2.5
 41
0.0
 71
     5
 72
     1
  1
\A1;374,98
 73
     1
 44
1.0
  0
ENDBLK
  5
1A92
330
1430
100
AcDbEntity
  8
0
100
AcDbBlockEnd
  0
BLOCK
  5
1A93
330
1431
100
AcDbEntity
  8
0
100
AcDbBlockBegin
  2
VD_ANONYM_9DB
 70
     0
 10
0.0
 20
0.0
 30
0.0
  3
VD_ANONYM_9DB
  1

  0
LINE
  5
9D4
330
1431
100
AcDbEntity
  8
0
  6
ByBlock
 62
     0
370
    -2
100
AcDbLine
 10
174.129807
 20
350.24018
 30
0.0
 11
174.129807
 21
539.91284052
 31
0.0
  0
LINE
  5
9D5
330
1431
100
AcDbEntity
  8
0
  6
ByBlock
 62
     0
370
    -2
100
AcDbLine
 10
549.10722562
 20
367.5557999
 30
0.0
 11
549.10722562
 21
539.91284052
 31
0.0
  0
LINE
  5
9D6
330
1431
100
AcDbEntity
  8
0
  6
ByBlock
 62
     0
370
    -2
100
AcDbLine
 10
176.629807
 20
538.66284052
 30
0.0
 11
546.60722562
 21
538.66284052
 31
0.0
  0
LWPOLYLINE
  5
9D7
330
1431
100
AcDbEntity
  8
0
  6
ByBlock
 62
     0
100
AcDbPolyline
 90
        3
 70
     1
 43
0.0
 10
174.129807
 20
538.66284052
 10
176.629807
 20
538.24617385
 10
176.629807
 20
539.07950719
  0
HATCH
  5
1546
330
1431
100
AcDbEntity
  8
0
  6
ByBlock
 62
     0
100
AcDbHatch
 10
0.0
 20
0.0
 30
0.0
210
0.0
220
0.0
230
1.0
  2
SOLID
 70
     1
 71
     0
 91
        1
 92
        2
 72
     0
 73
     1
 93
        3
 10
174.129807
 20
538.66284052
 10
176.629807
 20
538.24617385
 10
176.629807
 20
539.07950719
 97
        0
 75
     0
 76
     1
 98
        1
 10
0.0
 20
0.0
1001
VD_TEMPHATCH
1000
VD_TEMPHATCH
  0
LWPOLYLINE
  5
9D8
330
1431
100
AcDbEntity
  8
0
  6
ByBlock
 62
     0
100
AcDbPolyline
 90
        3
 70
     1
 43
0.0
 10
549.10722562
 20
538.66284052
 10
546.60722562
 20
538.24617385
 10
546.60722562
 20
539.07950719
  0
HATCH
  5
1547
330
1431
100
AcDbEntity
  8
0
  6
ByBlock
 62
     0
100
AcDbHatch
 10
0.0
 20
0.0
 30
0.0
210
0.0
220
0.0
230
1.0
  2
SOLID
 70
     1
 71
     0
 91
        1
 92
        2
 72
     0
 73
     1
 93
        3
 10
549.10722562
 20
538.66284052
 10
546.60722562
 20
538.24617385
 10
546.60722562
 20
539.07950719
 97
        0
 75
     0
 76
     1
 98
        1
 10
0.0
 20
0.0
1001
VD_TEMPHATCH
1000
VD_TEMPHATCH
  0
MTEXT
  5
9D9
330
1431
100
AcDbEntity
  8
0
  6
ByBlock
 62
     0
370
    -2
100
AcDbMText
 10
361.61851631
 20
540.66344472
 30
0.0
 40
2.5
 41
0.0
 71
     5
 72
     1
  1
\A1;374,98
 73
     1
 44
1.0
  0
ENDBLK
  5
1A94
330
1431
100
AcDbEntity
  8
0
100
AcDbBlockEnd
  0
BLOCK
  5
1A95
330
1432
100
AcDbEntity
  8
0
100
AcDbBlockBegin
  2
VD_ANONYM_9E6
 70
     0
 10
0.0
 20
0.0
 30
0.0
  3
VD_ANONYM_9E6
  1

  0
LINE
  5
9DF
330
1432
100
AcDbEntity
  8
0
  6
ByBlock
 62
     7
370
    -2
100
AcDbLine
 10
174.129807
 20
350.24018
 30
0.0
 11
174.129807
 21
539.91284052
 31
0.0
  0
LINE
  5
9E0
330
1432
100
AcDbEntity
  8
0
  6
ByBlock
 62
     7
370
    -2
100
AcDbLine
 10
549.10722562
 20
367.5557999
 30
0.0
 11
549.10722562
 21
539.91284052
 31
0.0
  0
LINE
  5
9E1
330
1432
100
AcDbEntity
  8
0
  6
ByBlock
 62
     7
370
    -2
100
AcDbLine
 10
184.129807
 20
538.66284052
 30
0.0
 11
539.10722562
 21
538.66284052
 31
0.0
  0
LWPOLYLINE
  5
9E2
330
1432
100
AcDbEntity
  8
0
  6
ByBlock
 62
     7
100
AcDbPolyline
 90
        3
 70
     1
 43
0.0
 10
174.129807
 20
538.66284052
 10
184.129807
 20
536.99617385
 10
184.129807
 20
540.32950719
  0
HATCH
  5
1549
330
1432
100
AcDbEntity
  8
0
  6
ByBlock
 62
     7
100
AcDbHatch
 10
0.0
 20
0.0
 30
0.0
210
0.0
220
0.0
230
1.0
  2
SOLID
 70
     1
 71
     0
 91
        1
 92
        2
 72
     0
 73
     1
 93
        3
 10
174.129807
 20
538.66284052
 10
184.129807
 20
536.99617385
 10
184.129807
 20
540.32950719
 97
        0
 75
     0
 76
     1
 98
        1
 10
0.0
 20
0.0
1001
VD_TEMPHATCH
1000
VD_TEMPHATCH
  0
LWPOLYLINE
  5
9E3
330
1432
100
AcDbEntity
  8
0
  6
ByBlock
 62
     7
100
AcDbPolyline
 90
        3
 70
     1
 43
0.0
 10
549.10722562
 20
538.66284052
 10
539.10722562
 20
536.99617385
 10
539.10722562
 20
540.32950719
  0
HATCH
  5
154A
330
1432
100
AcDbEntity
  8
0
  6
ByBlock
 62
     7
100
AcDbHatch
 10
0.0
 20
0.0
 30
0.0
210
0.0
220
0.0
230
1.0
  2
SOLID
 70
     1
 71
     0
 91
        1
 92
        2
 72
     0
 73
     1
 93
        3
 10
549.10722562
 20
538.66284052
 10
539.10722562
 20
536.99617385
 10
539.10722562
 20
540.32950719
 97
        0
 75
     0
 76
     1
 98
        1
 10
0.0
 20
0.0
1001
VD_TEMPHATCH
1000
VD_TEMPHATCH
  0
MTEXT
  5
9E4
330
1432
100
AcDbEntity
  8
0
  6
ByBlock
 62
     0
370
    -2
100
AcDbMText
 10
361.61851631
 20
551.36622403
 30
0.0
 40
14.0
 41
0.0
 71
     5
 72
     1
  1
\A1;374,98
 73
     1
 44
1.0
  0
ENDBLK
  5
1A96
330
1432
100
AcDbEntity
  8
0
100
AcDbBlockEnd
  0
BLOCK
  5
1A97
330
1433
100
AcDbEntity
  8
0
100
AcDbBlockBegin
  2
VD_ANONYM_9FE
 70
     0
 10
0.0
 20
0.0
 30
0.0
  3
VD_ANONYM_9FE
  1

  0
LINE
  5
9F5
330
1433
100
AcDbEntity
  8
0
  6
ByBlock
 62
     0
370
    -2
100
AcDbLine
 10
678.361206
 20
422.27311497
 30
0.0
 11
678.361206
 21
539.91284052
 31
0.0
  0
LINE
  5
9F6
330
1433
100
AcDbEntity
  8
0
  6
ByBlock
 62
     0
370
    -2
100
AcDbLine
 10
682.361206
 20
422.27311497
 30
0.0
 11
682.361206
 21
539.91284052
 31
0.0
  0
LINE
  5
9F7
330
1433
100
AcDbEntity
  8
0
  6
ByBlock
 62
     0
370
    -2
100
AcDbLine
 10
675.861206
 20
538.66284052
 30
0.0
 11
673.361206
 21
538.66284052
 31
0.0
  0
LINE
  5
9F8
330
1433
100
AcDbEntity
  8
0
  6
ByBlock
 62
     0
370
    -2
100
AcDbLine
 10
684.861206
 20
538.66284052
 30
0.0
 11
687.361206
 21
538.66284052
 31
0.0
  0
LWPOLYLINE
  5
9F9
330
1433
100
AcDbEntity
  8
0
  6
ByBlock
 62
     0
100
AcDbPolyline
 90
        3
 70
     1
 43
0.0
 10
678.361206
 20
538.66284052
 10
675.861206
 20
538.24617385
 10
675.861206
 20
539.07950719
  0
HATCH
  5
154C
330
1433
100
AcDbEntity
  8
0
  6
ByBlock
 62
     0
100
AcDbHatch
 10
0.0
 20
0.0
 30
0.0
210
0.0
220
0.0
230
1.0
  2
SOLID
 70
     1
 71
     0
 91
        1
 92
        2
 72
     0
 73
     1
 93
        3
 10
678.361206
 20
538.66284052
 10
675.861206
 20
538.24617385
 10
675.861206
 20
539.07950719
 97
        0
 75
     0
 76
     1
 98
        1
 10
0.0
 20
0.0
1001
VD_TEMPHATCH
1000
VD_TEMPHATCH
  0
LWPOLYLINE
  5
9FA
330
1433
100
AcDbEntity
  8
0
  6
ByBlock
 62
     0
100
AcDbPolyline
 90
        3
 70
     1
 43
0.0
 10
682.361206
 20
538.66284052
 10
684.861206
 20
538.24617385
 10
684.861206
 20
539.07950719
  0
HATCH
  5
154D
330
1433
100
AcDbEntity
  8
0
  6
ByBlock
 62
     0
100
AcDbHatch
 10
0.0
 20
0.0
 30
0.0
210
0.0
220
0.0
230
1.0
  2
SOLID
 70
     1
 71
     0
 91
        1
 92
        2
 72
     0
 73
     1
 93
        3
 10
682.361206
 20
538.66284052
 10
684.861206
 20
538.24617385
 10
684.861206
 20
539.07950719
 97
        0
 75
     0
 76
     1
 98
        1
 10
0.0
 20
0.0
1001
VD_TEMPHATCH
1000
VD_TEMPHATCH
  0
LINE
  5
9FB
330
1433
100
AcDbEntity
  8
0
  6
ByBlock
 62
     0
370
    -2
100
AcDbLine
 10
678.361206
 20
538.66284052
 30
0.0
 11
682.361206
 21
538.66284052
 31
0.0
  0
MTEXT
  5
9FC
330
1433
100
AcDbEntity
  8
0
  6
ByBlock
 62
     0
370
    -2
100
AcDbMText
 10
680.361206
 20
540.41284052
 30
0.0
 40
2.5
 41
0.0
 71
     5
 72
     1
  1
\A1;4
 73
     1
 44
1.0
  0
ENDBLK
  5
1A98
330
1433
100
AcDbEntity
  8
0
100
AcDbBlockEnd
  0
BLOCK
  5
1A99
330
1434
100
AcDbEntity
  8
0
100
AcDbBlockBegin
  2
VD_ANONYM_A17
 70
     0
 10
0.0
 20
0.0
 30
0.0
  3
VD_ANONYM_A17
  1

  0
LINE
  5
A10
330
1434
100
AcDbEntity
  8
0
  6
ByBlock
 62
     0
370
    -2
100
AcDbLine
 10
321.56115163
 20
506.31459278
 30
0.0
 11
598.79669597
 21
506.31459278
 31
0.0
  0
LINE
  5
A11
330
1434
100
AcDbEntity
  8
0
  6
ByBlock
 62
     0
370
    -2
100
AcDbLine
 10
326.430054
 20
193.02623
 30
0.0
 11
598.79669597
 21
193.02623
 31
0.0
  0
LINE
  5
A12
330
1434
100
AcDbEntity
  8
0
  6
ByBlock
 62
     0
370
    -2
100
AcDbLine
 10
597.54669597
 20
503.81459278
 30
0.0
 11
597.54669597
 21
195.52623
 31
0.0
  0
LWPOLYLINE
  5
A13
330
1434
100
AcDbEntity
  8
0
  6
ByBlock
 62
     0
100
AcDbPolyline
 90
        3
 70
     1
 43
0.0
 10
597.54669597
 20
506.31459278
 10
597.13002931
 20
503.81459278
 10
597.96336264
 20
503.81459278
  0
HATCH
  5
154F
330
1434
100
AcDbEntity
  8
0
  6
ByBlock
 62
     0
100
AcDbHatch
 10
0.0
 20
0.0
 30
0.0
210
0.0
220
0.0
230
1.0
  2
SOLID
 70
     1
 71
     0
 91
        1
 92
        2
 72
     0
 73
     1
 93
        3
 10
597.54669597
 20
506.31459278
 10
597.13002931
 20
503.81459278
 10
597.96336264
 20
503.81459278
 97
        0
 75
     0
 76
     1
 98
        1
 10
0.0
 20
0.0
1001
VD_TEMPHATCH
1000
VD_TEMPHATCH
  0
LWPOLYLINE
  5
A14
330
1434
100
AcDbEntity
  8
0
  6
ByBlock
 62
     0
100
AcDbPolyline
 90
        3
 70
     1
 43
0.0
 10
597.54669597
 20
193.02623
 10
597.13002931
 20
195.52623
 10
597.96336264
 20
195.52623
  0
HATCH
  5
1550
330
1434
100
AcDbEntity
  8
0
  6
ByBlock
 62
     0
100
AcDbHatch
 10
0.0
 20
0.0
 30
0.0
210
0.0
220
0.0
230
1.0
  2
SOLID
 70
     1
 71
     0
 91
        1
 92
        2
 72
     0
 73
     1
 93
        3
 10
597.54669597
 20
193.02623
 10
597.13002931
 20
195.52623
 10
597.96336264
 20
195.52623
 97
        0
 75
     0
 76
     1
 98
        1
 10
0.0
 20
0.0
1001
VD_TEMPHATCH
1000
VD_TEMPHATCH
  0
MTEXT
  5
A15
330
1434
100
AcDbEntity
  8
0
  6
ByBlock
 62
     0
370
    -2
100
AcDbMText
 10
595.54609178
 20
349.67041139
 30
0.0
 40
2.5
 41
0.0
 71
     5
 72
     1
  1
\A1;313,29
 11
6.123031769111886E-17
 21
1.0
 31
0.0
 73
     1
 44
1.0
  0
ENDBLK
  5
1A9A
330
1434
100
AcDbEntity
  8
0
100
AcDbBlockEnd
  0
BLOCK
  5
1A9B
330
1435
100
AcDbEntity
  8
0
100
AcDbBlockBegin
  2
VD_ANONYM_A22
 70
     0
 10
0.0
 20
0.0
 30
0.0
  3
VD_ANONYM_A22
  1

  0
LINE
  5
A1B
330
1435
100
AcDbEntity
  8
0
  6
ByBlock
 62
     0
370
    -2
100
AcDbLine
 10
321.56115163
 20
506.31459278
 30
0.0
 11
598.79669597
 21
506.31459278
 31
0.0
  0
LINE
  5
A1C
330
1435
100
AcDbEntity
  8
0
  6
ByBlock
 62
     0
370
    -2
100
AcDbLine
 10
326.430054
 20
193.02623
 30
0.0
 11
598.79669597
 21
193.02623
 31
0.0
  0
LINE
  5
A1D
330
1435
100
AcDbEntity
  8
0
  6
ByBlock
 62
     0
370
    -2
100
AcDbLine
 10
597.54669597
 20
503.81459278
 30
0.0
 11
597.54669597
 21
195.52623
 31
0.0
  0
LWPOLYLINE
  5
A1E
330
1435
100
AcDbEntity
  8
0
  6
ByBlock
 62
     0
100
AcDbPolyline
 90
        3
 70
     1
 43
0.0
 10
597.54669597
 20
506.31459278
 10
597.13002931
 20
503.81459278
 10
597.96336264
 20
503.81459278
  0
HATCH
  5
1552
330
1435
100
AcDbEntity
  8
0
  6
ByBlock
 62
     0
100
AcDbHatch
 10
0.0
 20
0.0
 30
0.0
210
0.0
220
0.0
230
1.0
  2
SOLID
 70
     1
 71
     0
 91
        1
 92
        2
 72
     0
 73
     1
 93
        3
 10
597.54669597
 20
506.31459278
 10
597.13002931
 20
503.81459278
 10
597.96336264
 20
503.81459278
 97
        0
 75
     0
 76
     1
 98
        1
 10
0.0
 20
0.0
1001
VD_TEMPHATCH
1000
VD_TEMPHATCH
  0
LWPOLYLINE
  5
A1F
330
1435
100
AcDbEntity
  8
0
  6
ByBlock
 62
     0
100
AcDbPolyline
 90
        3
 70
     1
 43
0.0
 10
597.54669597
 20
193.02623
 10
597.13002931
 20
195.52623
 10
597.96336264
 20
195.52623
  0
HATCH
  5
1553
330
1435
100
AcDbEntity
  8
0
  6
ByBlock
 62
     0
100
AcDbHatch
 10
0.0
 20
0.0
 30
0.0
210
0.0
220
0.0
230
1.0
  2
SOLID
 70
     1
 71
     0
 91
        1
 92
        2
 72
     0
 73
     1
 93
        3
 10
597.54669597
 20
193.02623
 10
597.13002931
 20
195.52623
 10
597.96336264
 20
195.52623
 97
        0
 75
     0
 76
     1
 98
        1
 10
0.0
 20
0.0
1001
VD_TEMPHATCH
1000
VD_TEMPHATCH
  0
MTEXT
  5
A20
330
1435
100
AcDbEntity
  8
0
  6
ByBlock
 62
     0
370
    -2
100
AcDbMText
 10
595.54609178
 20
349.67041139
 30
0.0
 40
2.5
 41
0.0
 71
     5
 72
     1
  1
\A1;313,29
 11
6.123031769111886E-17
 21
1.0
 31
0.0
 73
     1
 44
1.0
  0
ENDBLK
  5
1A9C
330
1435
100
AcDbEntity
  8
0
100
AcDbBlockEnd
  0
BLOCK
  5
1A9D
330
1436
100
AcDbEntity
  8
0
100
AcDbBlockBegin
  2
VD_ANONYM_A2D
 70
     0
 10
0.0
 20
0.0
 30
0.0
  3
VD_ANONYM_A2D
  1

  0
LINE
  5
A26
330
1436
100
AcDbEntity
  8
0
  6
ByBlock
 62
     7
370
    -2
100
AcDbLine
 10
321.56115163
 20
506.31459278
 30
0.0
 11
598.79669597
 21
506.31459278
 31
0.0
  0
LINE
  5
A27
330
1436
100
AcDbEntity
  8
0
  6
ByBlock
 62
     7
370
    -2
100
AcDbLine
 10
326.430054
 20
193.02623
 30
0.0
 11
598.79669597
 21
193.02623
 31
0.0
  0
LINE
  5
A28
330
1436
100
AcDbEntity
  8
0
  6
ByBlock
 62
     7
370
    -2
100
AcDbLine
 10
597.54669597
 20
496.31459278
 30
0.0
 11
597.54669597
 21
203.02623
 31
0.0
  0
LWPOLYLINE
  5
A29
330
1436
100
AcDbEntity
  8
0
  6
ByBlock
 62
     7
100
AcDbPolyline
 90
        3
 70
     1
 43
0.0
 10
597.54669597
 20
506.31459278
 10
595.88002931
 20
496.31459278
 10
599.21336264
 20
496.31459278
  0
HATCH
  5
1555
330
1436
100
AcDbEntity
  8
0
  6
ByBlock
 62
     7
100
AcDbHatch
 10
0.0
 20
0.0
 30
0.0
210
0.0
220
0.0
230
1.0
  2
SOLID
 70
     1
 71
     0
 91
        1
 92
        2
 72
     0
 73
     1
 93
        3
 10
597.54669597
 20
506.31459278
 10
595.88002931
 20
496.31459278
 10
599.21336264
 20
496.31459278
 97
        0
 75
     0
 76
     1
 98
        1
 10
0.0
 20
0.0
1001
VD_TEMPHATCH
1000
VD_TEMPHATCH
  0
LWPOLYLINE
  5
A2A
330
1436
100
AcDbEntity
  8
0
  6
ByBlock
 62
     7
100
AcDbPolyline
 90
        3
 70
     1
 43
0.0
 10
597.54669597
 20
193.02623
 10
595.88002931
 20
203.02623
 10
599.21336264
 20
203.02623
  0
HATCH
  5
1556
330
1436
100
AcDbEntity
  8
0
  6
ByBlock
 62
     7
100
AcDbHatch
 10
0.0
 20
0.0
 30
0.0
210
0.0
220
0.0
230
1.0
  2
SOLID
 70
     1
 71
     0
 91
        1
 92
        2
 72
     0
 73
     1
 93
        3
 10
597.54669597
 20
193.02623
 10
595.88002931
 20
203.02623
 10
599.21336264
 20
203.02623
 97
        0
 75
     0
 76
     1
 98
        1
 10
0.0
 20
0.0
1001
VD_TEMPHATCH
1000
VD_TEMPHATCH
  0
MTEXT
  5
A2B
330
1436
100
AcDbEntity
  8
0
  6
ByBlock
 62
     0
370
    -2
100
AcDbMText
 10
584.84331246
 20
349.67041139
 30
0.0
 40
14.0
 41
0.0
 71
     5
 72
     1
  1
\A1;313,29
 11
6.123031769111886E-17
 21
1.0
 31
0.0
 73
     1
 44
1.0
  0
ENDBLK
  5
1A9E
330
1436
100
AcDbEntity
  8
0
100
AcDbBlockEnd
  0
BLOCK
  5
1A9F
330
1437
100
AcDbEntity
  8
0
100
AcDbBlockBegin
  2
VDDIM_NONE
 70
     0
 10
0.0
 20
0.0
 30
0.0
  3
VDDIM_NONE
  1

  0
ENDBLK
  5
1AA0
330
1437
100
AcDbEntity
  8
0
100
AcDbBlockEnd
  0
BLOCK
  5
1AA1
330
1438
100
AcDbEntity
  8
0
100
AcDbBlockBegin
  2
*D240
 70
     1
 10
0.0
 20
0.0
 30
0.0
  3
*D240
  1

  0
LINE
  5
143A
330
1438
100
AcDbEntity
  8
0
 62
     7
370
    25
100
AcDbLine
 10
321.56115163
 20
506.31459278
 30
0.0
 11
598.79669597
 21
506.31459278
 31
0.0
  0
LINE
  5
143B
330
1438
100
AcDbEntity
  8
0
 62
     7
370
    25
100
AcDbLine
 10
326.430054
 20
193.02623
 30
0.0
 11
598.79669597
 21
193.02623
 31
0.0
  0
LINE
  5
143C
330
1438
100
AcDbEntity
  8
0
 62
     7
370
    25
100
AcDbLine
 10
597.54669597
 20
496.31459278
 30
0.0
 11
597.54669597
 21
203.02623
 31
0.0
  0
LWPOLYLINE
  5
143D
330
1438
100
AcDbEntity
  8
0
 62
     7
100
AcDbPolyline
 90
        3
 70
     1
 43
0.0
 10
597.54669597
 20
506.31459278
 10
595.88002931
 20
496.31459278
 10
599.21336264
 20
496.31459278
  0
HATCH
  5
1559
330
1438
100
AcDbEntity
  8
0
 62
     7
100
AcDbHatch
 10
0.0
 20
0.0
 30
0.0
210
0.0
220
0.0
230
1.0
  2
SOLID
 70
     1
 71
     0
 91
        1
 92
        2
 72
     0
 73
     1
 93
        3
 10
597.54669597
 20
506.31459278
 10
595.88002931
 20
496.31459278
 10
599.21336264
 20
496.31459278
 97
        0
 75
     0
 76
     1
 98
        1
 10
0.0
 20
0.0
1001
VD_TEMPHATCH
1000
VD_TEMPHATCH
  0
LWPOLYLINE
  5
143E
330
1438
100
AcDbEntity
  8
0
 62
     7
100
AcDbPolyline
 90
        3
 70
     1
 43
0.0
 10
597.54669597
 20
193.02623
 10
595.88002931
 20
203.02623
 10
599.21336264
 20
203.02623
  0
HATCH
  5
155A
330
1438
100
AcDbEntity
  8
0
 62
     7
100
AcDbHatch
 10
0.0
 20
0.0
 30
0.0
210
0.0
220
0.0
230
1.0
  2
SOLID
 70
     1
 71
     0
 91
        1
 92
        2
 72
     0
 73
     1
 93
        3
 10
597.54669597
 20
193.02623
 10
595.88002931
 20
203.02623
 10
599.21336264
 20
203.02623
 97
        0
 75
     0
 76
     1
 98
        1
 10
0.0
 20
0.0
1001
VD_TEMPHATCH
1000
VD_TEMPHATCH
  0
MTEXT
  5
143F
330
1438
100
AcDbEntity
  8
0
370
    25
100
AcDbMText
 10
586.24669597
 20
349.67041139
 30
0.0
 40
14.0
 41
31.2918063
 71
     5
 72
     1
  1
313
 11
6.123031769111886E-17
 21
1.0
 31
0.0
 73
     1
 44
1.0
  0
ENDBLK
  5
1AA2
330
1438
100
AcDbEntity
  8
0
100
AcDbBlockEnd
  0
BLOCK
  5
1AA3
330
1440
100
AcDbEntity
  8
0
100
AcDbBlockBegin
  2
*D241
 70
     1
 10
0.0
 20
0.0
 30
0.0
  3
*D241
  1

  0
LINE
  5
1442
330
1440
100
AcDbEntity
  8
0
 62
     7
370
    25
100
AcDbLine
 10
174.129807
 20
350.24018
 30
0.0
 11
174.129807
 21
539.91284052
 31
0.0
  0
LINE
  5
1443
330
1440
100
AcDbEntity
  8
0
 62
     7
370
    25
100
AcDbLine
 10
549.10722562
 20
367.5557999
 30
0.0
 11
549.10722562
 21
539.91284052
 31
0.0
  0
LINE
  5
1444
330
1440
100
AcDbEntity
  8
0
 62
     7
370
    25
100
AcDbLine
 10
184.129807
 20
538.66284052
 30
0.0
 11
539.10722562
 21
538.66284052
 31
0.0
  0
LWPOLYLINE
  5
1445
330
1440
100
AcDbEntity
  8
0
 62
     7
100
AcDbPolyline
 90
        3
 70
     1
 43
0.0
 10
174.129807
 20
538.66284052
 10
184.129807
 20
536.99617385
 10
184.129807
 20
540.32950719
  0
HATCH
  5
155C
330
1440
100
AcDbEntity
  8
0
 62
     7
100
AcDbHatch
 10
0.0
 20
0.0
 30
0.0
210
0.0
220
0.0
230
1.0
  2
SOLID
 70
     1
 71
     0
 91
        1
 92
        2
 72
     0
 73
     1
 93
        3
 10
174.129807
 20
538.66284052
 10
184.129807
 20
536.99617385
 10
184.129807
 20
540.32950719
 97
        0
 75
     0
 76
     1
 98
        1
 10
0.0
 20
0.0
1001
VD_TEMPHATCH
1000
VD_TEMPHATCH
  0
LWPOLYLINE
  5
1446
330
1440
100
AcDbEntity
  8
0
 62
     7
100
AcDbPolyline
 90
        3
 70
     1
 43
0.0
 10
549.10722562
 20
538.66284052
 10
539.10722562
 20
536.99617385
 10
539.10722562
 20
540.32950719
  0
HATCH
  5
155D
330
1440
100
AcDbEntity
  8
0
 62
     7
100
AcDbHatch
 10
0.0
 20
0.0
 30
0.0
210
0.0
220
0.0
230
1.0
  2
SOLID
 70
     1
 71
     0
 91
        1
 92
        2
 72
     0
 73
     1
 93
        3
 10
549.10722562
 20
538.66284052
 10
539.10722562
 20
536.99617385
 10
539.10722562
 20
540.32950719
 97
        0
 75
     0
 76
     1
 98
        1
 10
0.0
 20
0.0
1001
VD_TEMPHATCH
1000
VD_TEMPHATCH
  0
MTEXT
  5
1447
330
1440
100
AcDbEntity
  8
0
370
    25
100
AcDbMText
 10
361.61851631
 20
549.96284052
 30
0.0
 40
14.0
 41
31.39795576
 71
     5
 72
     1
  1
375
 73
     1
 44
1.0
  0
ENDBLK
  5
1AA4
330
1440
100
AcDbEntity
  8
0
100
AcDbBlockEnd
  0
BLOCK
  5
1AA5
330
1448
100
AcDbEntity
  8
0
100
AcDbBlockBegin
  2
*D242
 70
     1
 10
0.0
 20
0.0
 30
0.0
  3
*D242
  1

  0
LINE
  5
144A
330
1448
100
AcDbEntity
  8
0
 62
     7
370
    25
100
AcDbLine
 10
678.361206
 20
422.27311497
 30
0.0
 11
678.361206
 21
539.91284052
 31
0.0
  0
LINE
  5
144B
330
1448
100
AcDbEntity
  8
0
 62
     7
370
    25
100
AcDbLine
 10
682.361206
 20
422.27311497
 30
0.0
 11
682.361206
 21
539.91284052
 31
0.0
  0
LINE
  5
144C
330
1448
100
AcDbEntity
  8
0
 62
     7
370
    25
100
AcDbLine
 10
668.361206
 20
538.66284052
 30
0.0
 11
658.361206
 21
538.66284052
 31
0.0
  0
LINE
  5
144D
330
1448
100
AcDbEntity
  8
0
 62
     7
370
    25
100
AcDbLine
 10
692.361206
 20
538.66284052
 30
0.0
 11
719.361206
 21
538.66284052
 31
0.0
  0
LWPOLYLINE
  5
144E
330
1448
100
AcDbEntity
  8
0
 62
     7
100
AcDbPolyline
 90
        3
 70
     1
 43
0.0
 10
678.361206
 20
538.66284052
 10
668.361206
 20
536.99617385
 10
668.361206
 20
540.32950719
  0
HATCH
  5
155F
330
1448
100
AcDbEntity
  8
0
 62
     7
100
AcDbHatch
 10
0.0
 20
0.0
 30
0.0
210
0.0
220
0.0
230
1.0
  2
SOLID
 70
     1
 71
     0
 91
        1
 92
        2
 72
     0
 73
     1
 93
        3
 10
678.361206
 20
538.66284052
 10
668.361206
 20
536.99617385
 10
668.361206
 20
540.32950719
 97
        0
 75
     0
 76
     1
 98
        1
 10
0.0
 20
0.0
1001
VD_TEMPHATCH
1000
VD_TEMPHATCH
  0
LWPOLYLINE
  5
144F
330
1448
100
AcDbEntity
  8
0
 62
     7
100
AcDbPolyline
 90
        3
 70
     1
 43
0.0
 10
682.361206
 20
538.66284052
 10
692.361206
 20
536.99617385
 10
692.361206
 20
540.32950719
  0
HATCH
  5
1560
330
1448
100
AcDbEntity
  8
0
 62
     7
100
AcDbHatch
 10
0.0
 20
0.0
 30
0.0
210
0.0
220
0.0
230
1.0
  2
SOLID
 70
     1
 71
     0
 91
        1
 92
        2
 72
     0
 73
     1
 93
        3
 10
682.361206
 20
538.66284052
 10
692.361206
 20
536.99617385
 10
692.361206
 20
540.32950719
 97
        0
 75
     0
 76
     1
 98
        1
 10
0.0
 20
0.0
1001
VD_TEMPHATCH
1000
VD_TEMPHATCH
  0
LINE
  5
1450
330
1448
100
AcDbEntity
  8
0
 62
     7
370
    25
100
AcDbLine
 10
678.361206
 20
538.66284052
 30
0.0
 11
682.361206
 21
538.66284052
 31
0.0
  0
MTEXT
  5
1451
330
1448
100
AcDbEntity
  8
0
370
    25
100
AcDbMText
 10
710.861206
 20
549.96284052
 30
0.0
 40
14.0
 41
9.80035188
 71
     5
 72
     1
  1
\A1;4
 73
     1
 44
1.0
  0
ENDBLK
  5
1AA6
330
1448
100
AcDbEntity
  8
0
100
AcDbBlockEnd
  0
BLOCK
  5
1AA7
330
1854
100
AcDbEntity
  8
0
100
AcDbBlockBegin
  2
*D243
 70
     1
 10
0.0
 20
0.0
 30
0.0
  3
*D243
  1

  0
POINT
  5
184B
330
1854
100
AcDbEntity
  8
DEFPOINTS
  6
ByBlock
 62
     7
380
     1
100
AcDbPoint
 10
174.129807
 20
349.61518
 30
0.0
  0
POINT
  5
184C
330
1854
100
AcDbEntity
  8
DEFPOINTS
  6
ByBlock
 62
     7
380
     1
100
AcDbPoint
 10
549.10722562
 20
366.9307999
 30
0.0
  0
LINE
  5
184D
330
1854
100
AcDbEntity
  8
0
  6
ByBlock
 62
     7
370
    -2
380
     1
100
AcDbLine
 10
174.129807
 20
350.86518
 30
0.0
 11
174.129807
 21
539.28784052
 31
0.0
  0
LINE
  5
184E
330
1854
100
AcDbEntity
  8
0
  6
ByBlock
 62
     7
370
    -2
380
     1
100
AcDbLine
 10
549.10722562
 20
368.1807999
 30
0.0
 11
549.10722562
 21
539.28784052
 31
0.0
  0
LINE
  5
184F
330
1854
100
AcDbEntity
  8
0
  6
ByBlock
 62
     7
370
    -2
380
     1
100
AcDbLine
 10
184.129807
 20
538.66284052
 30
0.0
 11
539.10722562
 21
538.66284052
 31
0.0
  0
SOLID
  5
1850
330
1854
100
AcDbEntity
  8
0
  6
ByBlock
 62
     7
380
     1
100
AcDbTrace
 10
174.129807
 20
538.66284052
 30
0.0
 11
184.129807
 21
536.9961738533334
 31
0.0
 12
184.129807
 22
540.3295071866667
 32
0.0
 13
184.129807
 23
540.3295071866667
 33
0.0
  0
SOLID
  5
1851
330
1854
100
AcDbEntity
  8
0
  6
ByBlock
 62
     7
380
     1
100
AcDbTrace
 10
549.10722562
 20
538.66284052
 30
0.0
 11
539.10722562
 21
536.9961738533334
 31
0.0
 12
539.10722562
 22
540.3295071866667
 32
0.0
 13
539.10722562
 23
540.3295071866667
 33
0.0
  0
MTEXT
  5
1852
330
1854
100
AcDbEntity
  8
0
  6
ByBlock
 62
     0
370
    -2
380
     1
100
AcDbMText
 10
361.61851631
 20
564.8628405200001
 30
0.0
 40
36.0
 41
0.0
 71
     5
 72
     1
  1
375
 73
     1
 44
1.0
  0
ENDBLK
  5
1AA8
330
1854
100
AcDbEntity
  8
0
100
AcDbBlockEnd
  0
BLOCK
  5
1AA9
330
185F
100
AcDbEntity
  8
0
100
AcDbBlockBegin
  2
*D244
 70
     1
 10
0.0
 20
0.0
 30
0.0
  3
*D244
  1

  0
POINT
  5
1856
330
185F
100
AcDbEntity
  8
DEFPOINTS
  6
ByBlock
 62
     7
380
     1
100
AcDbPoint
 10
320.93615163
 20
506.31459278
 30
0.0
  0
POINT
  5
1857
330
185F
100
AcDbEntity
  8
DEFPOINTS
  6
ByBlock
 62
     7
380
     1
100
AcDbPoint
 10
325.805054
 20
193.02623
 30
0.0
  0
LINE
  5
1858
330
185F
100
AcDbEntity
  8
0
  6
ByBlock
 62
     7
370
    -2
380
     1
100
AcDbLine
 10
322.18615163
 20
506.31459278
 30
0.0
 11
598.17169597
 21
506.31459278
 31
0.0
  0
LINE
  5
1859
330
185F
100
AcDbEntity
  8
0
  6
ByBlock
 62
     7
370
    -2
380
     1
100
AcDbLine
 10
327.055054
 20
193.02623
 30
0.0
 11
598.17169597
 21
193.02623
 31
0.0
  0
LINE
  5
185A
330
185F
100
AcDbEntity
  8
0
  6
ByBlock
 62
     7
370
    -2
380
     1
100
AcDbLine
 10
597.54669597
 20
496.31459278
 30
0.0
 11
597.54669597
 21
203.02623
 31
0.0
  0
SOLID
  5
185B
330
185F
100
AcDbEntity
  8
0
  6
ByBlock
 62
     7
380
     1
100
AcDbTrace
 10
597.54669597
 20
506.31459278
 30
0.0
 11
595.8800293033332
 21
496.31459278
 31
0.0
 12
599.2133626366667
 22
496.31459278
 32
0.0
 13
599.2133626366667
 23
496.31459278
 33
0.0
  0
SOLID
  5
185C
330
185F
100
AcDbEntity
  8
0
  6
ByBlock
 62
     7
380
     1
100
AcDbTrace
 10
597.54669597
 20
193.02623
 30
0.0
 11
595.8800293033332
 21
203.02623
 31
0.0
 12
599.2133626366667
 22
203.02623
 32
0.0
 13
599.2133626366667
 23
203.02623
 33
0.0
  0
MTEXT
  5
185D
330
185F
100
AcDbEntity
  8
0
  6
ByBlock
 62
     0
370
    -2
380
     1
100
AcDbMText
 10
571.3466959699999
 20
349.67041139
 30
0.0
 40
36.0
 41
0.0
 71
     5
 72
     1
  1
313
 11
6.123031769111886E-17
 21
1.0
 31
0.0
 73
     1
 44
1.0
  0
ENDBLK
  5
1AAA
330
185F
100
AcDbEntity
  8
0
100
AcDbBlockEnd
  0
BLOCK
  5
1AAB
330
1880
100
AcDbEntity
  8
0
100
AcDbBlockBegin
  2
*D245
 70
     1
 10
0.0
 20
0.0
 30
0.0
  3
*D245
  1

  0
POINT
  5
1877
330
1880
100
AcDbEntity
  8
DEFPOINTS
  6
ByBlock
 62
     7
380
     1
100
AcDbPoint
 10
320.93615163
 20
506.31459278
 30
0.0
  0
POINT
  5
1878
330
1880
100
AcDbEntity
  8
DEFPOINTS
  6
ByBlock
 62
     7
380
     1
100
AcDbPoint
 10
325.805054
 20
193.02623
 30
0.0
  0
LINE
  5
1879
330
1880
100
AcDbEntity
  8
0
  6
ByBlock
 62
     7
370
    -2
380
     1
100
AcDbLine
 10
322.18615163
 20
506.31459278
 30
0.0
 11
598.17169597
 21
506.31459278
 31
0.0
  0
LINE
  5
187A
330
1880
100
AcDbEntity
  8
0
  6
ByBlock
 62
     7
370
    -2
380
     1
100
AcDbLine
 10
327.055054
 20
193.02623
 30
0.0
 11
598.17169597
 21
193.02623
 31
0.0
  0
LINE
  5
187B
330
1880
100
AcDbEntity
  8
0
  6
ByBlock
 62
     7
370
    -2
380
     1
100
AcDbLine
 10
597.54669597
 20
496.31459278
 30
0.0
 11
597.54669597
 21
203.02623
 31
0.0
  0
SOLID
  5
187C
330
1880
100
AcDbEntity
  8
0
  6
ByBlock
 62
     7
380
     1
100
AcDbTrace
 10
597.54669597
 20
506.31459278
 30
0.0
 11
595.8800293033332
 21
496.31459278
 31
0.0
 12
599.2133626366667
 22
496.31459278
 32
0.0
 13
599.2133626366667
 23
496.31459278
 33
0.0
  0
SOLID
  5
187D
330
1880
100
AcDbEntity
  8
0
  6
ByBlock
 62
     7
380
     1
100
AcDbTrace
 10
597.54669597
 20
193.02623
 30
0.0
 11
595.8800293033332
 21
203.02623
 31
0.0
 12
599.2133626366667
 22
203.02623
 32
0.0
 13
599.2133626366667
 23
203.02623
 33
0.0
  0
MTEXT
  5
187E
330
1880
100
AcDbEntity
  8
0
  6
ByBlock
 62
     0
370
    -2
380
     1
100
AcDbMText
 10
571.3466959699999
 20
351.3124024755
 30
0.0
 40
36.0
 41
0.0
 71
     5
 72
     1
  1
313
 11
6.123031769111886E-17
 21
1.0
 31
0.0
 73
     1
 44
1.0
  0
ENDBLK
  5
1AAC
330
1880
100
AcDbEntity
  8
0
100
AcDbBlockEnd
  0
BLOCK
  5
1AAD
330
188B
100
AcDbEntity
  8
0
100
AcDbBlockBegin
  2
*D246
 70
     1
 10
0.0
 20
0.0
 30
0.0
  3
*D246
  1

  0
POINT
  5
1882
330
188B
100
AcDbEntity
  8
DEFPOINTS
  6
ByBlock
 62
     7
380
     1
100
AcDbPoint
 10
320.93615163
 20
506.31459278
 30
0.0
  0
POINT
  5
1883
330
188B
100
AcDbEntity
  8
DEFPOINTS
  6
ByBlock
 62
     7
380
     1
100
AcDbPoint
 10
325.805054
 20
193.02623
 30
0.0
  0
LINE
  5
1884
330
188B
100
AcDbEntity
  8
0
  6
ByBlock
 62
     7
370
    -2
380
     1
100
AcDbLine
 10
322.18615163
 20
506.31459278
 30
0.0
 11
612.3202766606667
 21
506.31459278
 31
0.0
  0
LINE
  5
1885
330
188B
100
AcDbEntity
  8
0
  6
ByBlock
 62
     7
370
    -2
380
     1
100
AcDbLine
 10
327.055054
 20
193.02623
 30
0.0
 11
612.3202766606667
 21
193.02623
 31
0.0
  0
LINE
  5
1886
330
188B
100
AcDbEntity
  8
0
  6
ByBlock
 62
     7
370
    -2
380
     1
100
AcDbLine
 10
611.6952766606667
 20
496.31459278
 30
0.0
 11
611.6952766606667
 21
203.02623
 31
0.0
  0
SOLID
  5
1887
330
188B
100
AcDbEntity
  8
0
  6
ByBlock
 62
     7
380
     1
100
AcDbTrace
 10
611.6952766606667
 20
506.31459278
 30
0.0
 11
610.0286099939999
 21
496.31459278
 31
0.0
 12
613.3619433273334
 22
496.31459278
 32
0.0
 13
613.3619433273334
 23
496.31459278
 33
0.0
  0
SOLID
  5
1888
330
188B
100
AcDbEntity
  8
0
  6
ByBlock
 62
     7
380
     1
100
AcDbTrace
 10
611.6952766606667
 20
193.02623
 30
0.0
 11
610.0286099939999
 21
203.02623
 31
0.0
 12
613.3619433273334
 22
203.02623
 32
0.0
 13
613.3619433273334
 23
203.02623
 33
0.0
  0
MTEXT
  5
1889
330
188B
100
AcDbEntity
  8
0
  6
ByBlock
 62
     0
370
    -2
380
     1
100
AcDbMText
 10
585.4952766606666
 20
351.3124024755
 30
0.0
 40
36.0
 41
0.0
 71
     5
 72
     1
  1
313
 11
6.123031769111886E-17
 21
1.0
 31
0.0
 73
     1
 44
1.0
  0
ENDBLK
  5
1AAE
330
188B
100
AcDbEntity
  8
0
100
AcDbBlockEnd
  0
BLOCK
  5
1AAF
330
1897
100
AcDbEntity
  8
0
100
AcDbBlockBegin
  2
*D247
 70
     1
 10
0.0
 20
0.0
 30
0.0
  3
*D247
  1

  0
POINT
  5
188D
330
1897
100
AcDbEntity
  8
DEFPOINTS
  6
ByBlock
 62
     7
380
     1
100
AcDbPoint
 10
678.361206
 20
421.64811497
 30
0.0
  0
POINT
  5
188E
330
1897
100
AcDbEntity
  8
DEFPOINTS
  6
ByBlock
 62
     7
380
     1
100
AcDbPoint
 10
682.361206
 20
421.64811497
 30
0.0
  0
LINE
  5
188F
330
1897
100
AcDbEntity
  8
0
  6
ByBlock
 62
     7
370
    -2
380
     1
100
AcDbLine
 10
678.361206
 20
422.89811497
 30
0.0
 11
678.361206
 21
539.28784052
 31
0.0
  0
LINE
  5
1890
330
1897
100
AcDbEntity
  8
0
  6
ByBlock
 62
     7
370
    -2
380
     1
100
AcDbLine
 10
682.361206
 20
422.89811497
 30
0.0
 11
682.361206
 21
539.28784052
 31
0.0
  0
LINE
  5
1891
330
1897
100
AcDbEntity
  8
0
  6
ByBlock
 62
     7
370
    -2
380
     1
100
AcDbLine
 10
668.361206
 20
538.66284052
 30
0.0
 11
658.361206
 21
538.66284052
 31
0.0
  0
LINE
  5
1892
330
1897
100
AcDbEntity
  8
0
  6
ByBlock
 62
     7
370
    -2
380
     1
100
AcDbLine
 10
692.361206
 20
538.66284052
 30
0.0
 11
740.361206
 21
538.66284052
 31
0.0
  0
SOLID
  5
1893
330
1897
100
AcDbEntity
  8
0
  6
ByBlock
 62
     7
380
     1
100
AcDbTrace
 10
678.361206
 20
538.66284052
 30
0.0
 11
668.361206
 21
536.9961738533334
 31
0.0
 12
668.361206
 22
540.3295071866667
 32
0.0
 13
668.361206
 23
540.3295071866667
 33
0.0
  0
SOLID
  5
1894
330
1897
100
AcDbEntity
  8
0
  6
ByBlock
 62
     7
380
     1
100
AcDbTrace
 10
682.361206
 20
538.66284052
 30
0.0
 11
692.361206
 21
536.9961738533334
 31
0.0
 12
692.361206
 22
540.3295071866667
 32
0.0
 13
692.361206
 23
540.3295071866667
 33
0.0
  0
MTEXT
  5
1895
330
1897
100
AcDbEntity
  8
0
  6
ByBlock
 62
     0
370
    -2
380
     1
100
AcDbMText
 10
721.361206
 20
564.8628405200001
 30
0.0
 40
36.0
 41
0.0
 71
     5
 72
     1
  1
\A1;4
 73
     1
 44
1.0
  0
ENDBLK
  5
1AB0
330
1897
100
AcDbEntity
  8
0
100
AcDbBlockEnd
  0
ENDSEC
  0
SECTION
  2
ENTITIES
  0
LINE
  5
C26
330
1F
100
AcDbEntity
  8
0
  6
DASHDOT
370
    25
100
AcDbLine
 10
692.361206
 20
349.611286
 30
0.0
 11
668.361191
 21
349.611286
 31
0.0
  0
LINE
  5
29
330
1F
100
AcDbEntity
  8
0
 48
0.05
370
    60
100
AcDbLine
 10
681.361206
 20
506.531601
 30
0.0
 11
679.361206
 21
506.531601
 31
0.0
  0
LINE
  5
2A
330
1F
100
AcDbEntity
  8
0
 48
0.05
370
    60
100
AcDbLine
 10
681.361206
 20
192.698746
 30
0.0
 11
679.361206
 21
192.698746
 31
0.0
  0
LINE
  5
2B
330
1F
100
AcDbEntity
  8
0
 48
0.029054
370
    60
100
AcDbLine
 10
682.361206
 20
193.698746
 30
0.0
 11
682.361206
 21
194.860916
 31
0.0
  0
LINE
  5
2C
330
1F
100
AcDbEntity
  8
0
370
    60
100
AcDbLine
 10
682.361206
 20
194.860916
 30
0.0
 11
682.361206
 21
222.219643
 31
0.0
  0
LINE
  5
2D
330
1F
100
AcDbEntity
  8
0
370
    60
100
AcDbLine
 10
682.361206
 20
222.219643
 30
0.0
 11
682.361206
 21
349.61518
 31
0.0
  0
LINE
  5
2E
330
1F
100
AcDbEntity
  8
0
370
    60
100
AcDbLine
 10
682.361206
 20
349.61518
 30
0.0
 11
682.361206
 21
477.010696
 31
0.0
  0
LINE
  5
2F
330
1F
100
AcDbEntity
  8
0
370
    60
100
AcDbLine
 10
682.361206
 20
477.010696
 30
0.0
 11
682.361206
 21
504.369431
 31
0.0
  0
LINE
  5
30
330
1F
100
AcDbEntity
  8
0
 48
0.029054
370
    60
100
AcDbLine
 10
682.361206
 20
504.369431
 30
0.0
 11
682.361206
 21
505.531601
 31
0.0
  0
LINE
  5
31
330
1F
100
AcDbEntity
  8
0
 48
0.029054
370
    60
100
AcDbLine
 10
678.361206
 20
193.698746
 30
0.0
 11
678.361206
 21
194.860916
 31
0.0
  0
LINE
  5
32
330
1F
100
AcDbEntity
  8
0
370
    60
100
AcDbLine
 10
678.361206
 20
194.860916
 30
0.0
 11
678.361206
 21
222.21965
 31
0.0
  0
LINE
  5
33
330
1F
100
AcDbEntity
  8
0
370
    60
100
AcDbLine
 10
678.361206
 20
222.21965
 30
0.0
 11
678.361206
 21
349.615167
 31
0.0
  0
LINE
  5
34
330
1F
100
AcDbEntity
  8
0
370
    60
100
AcDbLine
 10
678.361206
 20
349.615167
 30
0.0
 11
678.361206
 21
477.010704
 31
0.0
  0
LINE
  5
35
330
1F
100
AcDbEntity
  8
0
370
    60
100
AcDbLine
 10
678.361206
 20
477.010704
 30
0.0
 11
678.361206
 21
504.369431
 31
0.0
  0
LINE
  5
36
330
1F
100
AcDbEntity
  8
0
 48
0.029054
370
    60
100
AcDbLine
 10
678.361206
 20
504.369431
 30
0.0
 11
678.361206
 21
505.531601
 31
0.0
  0
ARC
  5
37
330
1F
100
AcDbEntity
  8
0
370
    60
100
AcDbCircle
 10
679.361206
 20
505.531601
 30
0.0
 40
1.0
100
AcDbArc
 50
90.0
 51
180.0
  0
ARC
  5
38
330
1F
100
AcDbEntity
  8
0
370
    60
100
AcDbCircle
 10
681.361206
 20
505.531601
 30
0.0
 40
1.0
100
AcDbArc
 50
0.0
 51
90.0
  0
ARC
  5
39
330
1F
100
AcDbEntity
  8
0
370
    60
100
AcDbCircle
 10
679.361206
 20
193.698746
 30
0.0
 40
1.0
100
AcDbArc
 50
180.0
 51
270.0
  0
ARC
  5
3A
330
1F
100
AcDbEntity
  8
0
370
    60
100
AcDbCircle
 10
681.361206
 20
193.698746
 30
0.0
 40
1.0
100
AcDbArc
 50
270.0
 51
0.0
  0
POINT
  5
3B
330
1F
100
AcDbEntity
  8
0
370
    60
100
AcDbPoint
 10
549.465714
 20
349.615173
 30
0.0
  0
POINT
  5
3C
330
1F
100
AcDbEntity
  8
0
370
    60
100
AcDbPoint
 10
500.80542
 20
349.615173
 30
0.0
  0
POINT
  5
3D
330
1F
100
AcDbEntity
  8
0
370
    60
100
AcDbPoint
 10
325.805054
 20
349.615173
 30
0.0
  0
POINT
  5
3F
330
1F
100
AcDbEntity
  8
0
370
    60
100
AcDbPoint
 10
549.465714
 20
349.615172
 30
0.0
  0
POINT
  5
41
330
1F
100
AcDbEntity
  8
0
370
    60
100
AcDbPoint
 10
290.815674
 20
506.619934
 30
0.0
  0
POINT
  5
42
330
1F
100
AcDbEntity
  8
0
370
    60
100
AcDbPoint
 10
320.936143
 20
192.915695
 30
0.0
  0
POINT
  5
43
330
1F
100
AcDbEntity
  8
0
370
    60
100
AcDbPoint
 10
439.570023
 20
201.497864
 30
0.0
  0
POINT
  5
44
330
1F
100
AcDbEntity
  8
0
370
    60
100
AcDbPoint
 10
200.280945
 20
194.853378
 30
0.0
  0
POINT
  5
45
330
1F
100
AcDbEntity
  8
0
370
    60
100
AcDbPoint
 10
320.936143
 20
192.915695
 30
0.0
  0
LINE
  5
46
330
1F
100
AcDbEntity
  8
0
  6
DASHDOT
370
    25
100
AcDbLine
 10
131.120209
 20
349.615173
 30
0.0
 11
567.3595825
 21
349.615173
 31
0.0
  0
LINE
  5
47
330
1F
100
AcDbEntity
  8
0
  6
DASHDOT
370
    25
100
AcDbLine
 10
325.805054
 20
193.02623
 30
0.0
 11
325.805054
 21
523.78676281
 31
0.0
  0
SPLINE
  5
4A
330
1F
100
AcDbEntity
  8
0
370
    60
100
AcDbSpline
210
0.0
220
0.0
230
1.0
 70
     8
 71
     3
 72
    12
 73
     8
 74
     6
 42
0.0000001
 43
0.0000001
 44
0.0
 40
0.0
 40
0.0
 40
0.0
 40
0.0
 40
26.15366288392766
 40
52.55263344387624
 40
79.05378667607867
 40
105.3517157311826
 40
130.6778186618863
 40
130.6778186618863
 40
130.6778186618863
 40
130.6778186618863
 10
337.68198276
 20
479.32280648
 30
0.0
 10
328.9803049446904
 20
478.6427594311485
 30
0.0
 10
311.4953321282941
 20
477.2762868478819
 30
0.0
 10
285.7699915374349
 20
470.9877547060856
 30
0.0
 10
261.2355023060707
 20
461.074705904431
 30
0.0
 10
238.3579403892986
 20
448.4577620842385
 30
0.0
 10
224.5054423583513
 20
438.2255925583801
 30
0.0
 10
217.70958048
 20
433.20581846
 30
0.0
 11
337.68198276
 21
479.32280648
 31
0.0
 11
311.67193695
 21
476.58572789
 31
0.0
 11
286.00914156
 21
470.39488147
 31
0.0
 11
261.39806677
 21
460.56604022
 31
0.0
 11
238.40154325
 21
447.80904298
 31
0.0
 11
217.70958048
 21
433.20581846
 31
0.0
  0
POLYLINE
  5
4B
330
1F
100
AcDbEntity
  8
0
370
    60
100
AcDb2dPolyline
 66
     1
 10
0.0
 20
0.0
 30
0.0
 70
     4
 75
     6
  0
VERTEX
  5
1562
330
4B
100
AcDbEntity
  8
0
 62
     0
100
AcDbVertex
100
AcDb2dVertex
 10
217.70958048
 20
433.20581846
 30
0.0
 70
    16
  0
VERTEX
  5
1563
330
4B
100
AcDbEntity
  8
0
 62
     0
100
AcDbVertex
100
AcDb2dVertex
 10
208.85340721
 20
427.6820493
 30
0.0
 70
    16
  0
VERTEX
  5
1564
330
4B
100
AcDbEntity
  8
0
 62
     0
100
AcDbVertex
100
AcDb2dVertex
 10
200.89024121
 20
420.73415982
 30
0.0
 70
    16
  0
VERTEX
  5
1565
330
4B
100
AcDbEntity
  8
0
 62
     0
100
AcDbVertex
100
AcDb2dVertex
 10
194.20767562
 20
412.71722874
 30
0.0
 70
    16
  0
VERTEX
  5
1566
330
4B
100
AcDbEntity
  8
0
100
AcDbVertex
100
AcDb2dVertex
 10
194.20767562
 20
412.71722874
 30
0.0
 70
     8
  0
VERTEX
  5
1567
330
4B
100
AcDbEntity
  8
0
100
AcDbVertex
100
AcDb2dVertex
 10
195.47556907
 20
414.20778879
 30
0.0
 70
     8
  0
VERTEX
  5
1568
330
4B
100
AcDbEntity
  8
0
100
AcDbVertex
100
AcDb2dVertex
 10
196.77290884
 20
415.67277305
 30
0.0
 70
     8
  0
VERTEX
  5
1569
330
4B
100
AcDbEntity
  8
0
100
AcDbVertex
100
AcDb2dVertex
 10
198.09912715
 20
417.11166138
 30
0.0
 70
     8
  0
VERTEX
  5
156A
330
4B
100
AcDbEntity
  8
0
100
AcDbVertex
100
AcDb2dVertex
 10
199.45365625
 20
418.52393364
 30
0.0
 70
     8
  0
VERTEX
  5
156B
330
4B
100
AcDbEntity
  8
0
100
AcDbVertex
100
AcDb2dVertex
 10
200.83592836
 20
419.9090697
 30
0.0
 70
     8
  0
VERTEX
  5
156C
330
4B
100
AcDbEntity
  8
0
100
AcDbVertex
100
AcDb2dVertex
 10
202.24537572
 20
421.26654942
 30
0.0
 70
     8
  0
VERTEX
  5
156D
330
4B
100
AcDbEntity
  8
0
100
AcDbVertex
100
AcDb2dVertex
 10
203.68143058
 20
422.59585267
 30
0.0
 70
     8
  0
VERTEX
  5
156E
330
4B
100
AcDbEntity
  8
0
100
AcDbVertex
100
AcDb2dVertex
 10
205.14352517
 20
423.89645932
 30
0.0
 70
     8
  0
VERTEX
  5
156F
330
4B
100
AcDbEntity
  8
0
100
AcDbVertex
100
AcDb2dVertex
 10
206.63109172
 20
425.16784922
 30
0.0
 70
     8
  0
VERTEX
  5
1570
330
4B
100
AcDbEntity
  8
0
100
AcDbVertex
100
AcDb2dVertex
 10
208.14356247
 20
426.40950225
 30
0.0
 70
     8
  0
VERTEX
  5
1571
330
4B
100
AcDbEntity
  8
0
100
AcDbVertex
100
AcDb2dVertex
 10
209.68036967
 20
427.62089826
 30
0.0
 70
     8
  0
VERTEX
  5
1572
330
4B
100
AcDbEntity
  8
0
100
AcDbVertex
100
AcDb2dVertex
 10
211.24094553
 20
428.80151713
 30
0.0
 70
     8
  0
VERTEX
  5
1573
330
4B
100
AcDbEntity
  8
0
100
AcDbVertex
100
AcDb2dVertex
 10
212.82472231
 20
429.95083872
 30
0.0
 70
     8
  0
VERTEX
  5
1574
330
4B
100
AcDbEntity
  8
0
100
AcDbVertex
100
AcDb2dVertex
 10
214.43113224
 20
431.0683429
 30
0.0
 70
     8
  0
VERTEX
  5
1575
330
4B
100
AcDbEntity
  8
0
100
AcDbVertex
100
AcDb2dVertex
 10
216.05960755
 20
432.15350952
 30
0.0
 70
     8
  0
VERTEX
  5
1576
330
4B
100
AcDbEntity
  8
0
100
AcDbVertex
100
AcDb2dVertex
 10
217.70958048
 20
433.20581846
 30
0.0
 70
     8
  0
SEQEND
  5
1AB1
330
4B
100
AcDbEntity
  8
0
370
    60
  0
LINE
  5
4C
330
1F
100
AcDbEntity
  8
0
370
    60
100
AcDbLine
 10
194.208435
 20
286.513958
 30
0.0
 11
194.208435
 21
412.716389
 31
0.0
  0
SPLINE
  5
4D
330
1F
100
AcDbEntity
  8
0
370
    60
100
AcDbSpline
210
0.0
220
0.0
230
1.0
 70
     8
 71
     3
 72
    12
 73
     8
 74
     6
 42
0.0000001
 43
0.0000001
 44
0.0
 40
0.0
 40
0.0
 40
0.0
 40
0.0
 40
29.05339653891329
 40
58.23892273457135
 40
87.69036740814867
 40
117.0809984468943
 40
146.1275650979352
 40
146.1275650979352
 40
146.1275650979352
 40
146.1275650979352
 10
474.70291774
 20
436.57341674
 30
0.0
 10
466.5469847757698
 20
441.80815931977
 30
0.0
 10
450.1980271213366
 20
452.3014511533171
 30
0.0
 10
423.7586433692038
 20
464.9615218345428
 30
0.0
 10
395.9165501796199
 20
474.4500896006629
 30
0.0
 10
366.8876186342264
 20
479.5652537476109
 30
0.0
 10
347.3789071596151
 20
479.4033043960543
 30
0.0
 10
337.68198276
 20
479.32280648
 30
0.0
 11
474.70291774
 21
436.57341674
 31
0.0
 11
449.93384861
 21
451.75870781
 31
0.0
 11
423.62412
 21
464.39172486
 31
0.0
 11
395.69088389
 21
473.72563689
 31
0.0
 11
366.72152414
 21
478.6840024
 31
0.0
 11
337.68198276
 21
479.32280648
 31
0.0
  0
ARC
  5
4E
330
1F
100
AcDbEntity
  8
0
370
    60
100
AcDbCircle
 10
365.627632
 20
471.868446
 30
0.0
 40
253.505936
100
AcDbArc
 50
234.202682
 51
263.671035
  0
ARC
  5
4F
330
1F
100
AcDbEntity
  8
0
370
    60
100
AcDbCircle
 10
269.905659
 20
349.615213
 30
0.0
 40
98.548637
100
AcDbArc
 50
219.814629
 51
237.769489
  0
LINE
  5
53
330
1F
100
AcDbEntity
  8
0
 48
0.25
370
    60
100
AcDbLine
 10
264.905659
 20
349.615213
 30
0.0
 11
274.905659
 21
349.615213
 31
0.0
  0
SPLINE
  5
54
330
1F
100
AcDbEntity
  8
0
370
    60
100
AcDbSpline
210
0.0
220
0.0
230
1.0
 70
     8
 71
     3
 72
    12
 73
     8
 74
     6
 42
0.0000001
 43
0.0000001
 44
0.0
 40
0.0
 40
0.0
 40
0.0
 40
0.0
 40
10.67437669226439
 40
21.65930953341069
 40
32.7763380093317
 40
43.76127086106088
 40
54.43564755183925
 40
54.43564755183925
 40
54.43564755183925
 40
54.43564755183925
 10
474.9783236
 20
436.40102488
 30
0.0
 10
478.0745727416082
 20
434.6169777151165
 30
0.0
 10
484.3571520887704
 20
430.9969790135137
 30
0.0
 10
491.9240003618285
 20
422.8845975613675
 30
0.0
 10
497.3814172232694
 20
413.2179190936665
 30
0.0
 10
500.4182546351147
 20
402.5480763266635
 30
0.0
 10
500.2721005547671
 20
395.2986740968114
 30
0.0
 10
500.20007131
 20
391.72594478
 30
0.0
 11
474.9783236
 21
436.40102488
 31
0.0
 11
483.95563688
 21
430.62606479
 31
0.0
 11
491.5335984
 21
422.67350239
 31
0.0
 11
496.99898658
 21
412.99270417
 31
0.0
 11
499.89324282
 21
402.39591076
 31
0.0
 11
500.20007131
 21
391.72594478
 31
0.0
  0
POLYLINE
  5
55
330
1F
100
AcDbEntity
  8
0
370
    60
100
AcDb2dPolyline
 66
     1
 10
0.0
 20
0.0
 30
0.0
 70
     4
 75
     6
  0
VERTEX
  5
1578
330
55
100
AcDbEntity
  8
0
 62
     0
100
AcDbVertex
100
AcDb2dVertex
 10
500.20007132
 20
391.72594475
 30
0.0
 70
    16
  0
VERTEX
  5
1579
330
55
100
AcDbEntity
  8
0
 62
     0
100
AcDbVertex
100
AcDb2dVertex
 10
501.00720376
 20
363.65983188
 30
0.0
 70
    16
  0
VERTEX
  5
157A
330
55
100
AcDbEntity
  8
0
 62
     0
100
AcDbVertex
100
AcDb2dVertex
 10
501.00720372
 20
335.57051489
 30
0.0
 70
    16
  0
VERTEX
  5
157B
330
55
100
AcDbEntity
  8
0
 62
     0
100
AcDbVertex
100
AcDb2dVertex
 10
500.222809
 20
309.085686
 30
0.0
 70
    16
  0
VERTEX
  5
157C
330
55
100
AcDbEntity
  8
0
100
AcDbVertex
100
AcDb2dVertex
 10
500.20007132
 20
391.72594475
 30
0.0
 70
     8
  0
VERTEX
  5
157D
330
55
100
AcDbEntity
  8
0
100
AcDbVertex
100
AcDb2dVertex
 10
500.34195562
 20
386.46367405
 30
0.0
 70
     8
  0
VERTEX
  5
157E
330
55
100
AcDbEntity
  8
0
100
AcDbVertex
100
AcDb2dVertex
 10
500.46495606
 20
381.20324382
 30
0.0
 70
     8
  0
VERTEX
  5
157F
330
55
100
AcDbEntity
  8
0
100
AcDbVertex
100
AcDb2dVertex
 10
500.56910595
 20
375.94703837
 30
0.0
 70
     8
  0
VERTEX
  5
1580
330
55
100
AcDbEntity
  8
0
100
AcDbVertex
100
AcDb2dVertex
 10
500.65443859
 20
370.69744202
 30
0.0
 70
     8
  0
VERTEX
  5
1581
330
55
100
AcDbEntity
  8
0
100
AcDbVertex
100
AcDb2dVertex
 10
500.72098729
 20
365.45683908
 30
0.0
 70
     8
  0
VERTEX
  5
1582
330
55
100
AcDbEntity
  8
0
100
AcDbVertex
100
AcDb2dVertex
 10
500.76878537
 20
360.22761387
 30
0.0
 70
     8
  0
VERTEX
  5
1583
330
55
100
AcDbEntity
  8
0
100
AcDbVertex
100
AcDb2dVertex
 10
500.79786611
 20
355.0121507
 30
0.0
 70
     8
  0
VERTEX
  5
1584
330
55
100
AcDbEntity
  8
0
100
AcDbVertex
100
AcDb2dVertex
 10
500.80826285
 20
349.81283389
 30
0.0
 70
     8
  0
VERTEX
  5
1585
330
55
100
AcDbEntity
  8
0
100
AcDbVertex
100
AcDb2dVertex
 10
500.80000887
 20
344.63204774
 30
0.0
 70
     8
  0
VERTEX
  5
1586
330
55
100
AcDbEntity
  8
0
100
AcDbVertex
100
AcDb2dVertex
 10
500.77313749
 20
339.47217659
 30
0.0
 70
     8
  0
VERTEX
  5
1587
330
55
100
AcDbEntity
  8
0
100
AcDbVertex
100
AcDb2dVertex
 10
500.72768202
 20
334.33560474
 30
0.0
 70
     8
  0
VERTEX
  5
1588
330
55
100
AcDbEntity
  8
0
100
AcDbVertex
100
AcDb2dVertex
 10
500.66367576
 20
329.2247165
 30
0.0
 70
     8
  0
VERTEX
  5
1589
330
55
100
AcDbEntity
  8
0
100
AcDbVertex
100
AcDb2dVertex
 10
500.58115202
 20
324.14189619
 30
0.0
 70
     8
  0
VERTEX
  5
158A
330
55
100
AcDbEntity
  8
0
100
AcDbVertex
100
AcDb2dVertex
 10
500.48014411
 20
319.08952813
 30
0.0
 70
     8
  0
VERTEX
  5
158B
330
55
100
AcDbEntity
  8
0
100
AcDbVertex
100
AcDb2dVertex
 10
500.36068533
 20
314.06999663
 30
0.0
 70
     8
  0
VERTEX
  5
158C
330
55
100
AcDbEntity
  8
0
100
AcDbVertex
100
AcDb2dVertex
 10
500.222809
 20
309.085686
 30
0.0
 70
     8
  0
SEQEND
  5
1AB2
330
55
100
AcDbEntity
  8
0
370
    60
  0
ARC
  5
56
330
1F
100
AcDbEntity
  8
0
370
    60
100
AcDbCircle
 10
328.083902
 20
491.636841
 30
0.0
 40
271.898743
100
AcDbArc
 50
272.02299
 51
302.539565
  0
ARC
  5
C27
330
1F
100
AcDbEntity
  8
0
370
    60
100
AcDbCircle
 10
445.221962
 20
309.085686
 30
0.0
 40
55.000847
100
AcDbArc
 50
301.957476
 51
0.0
  0
ARC
  5
5C
330
1F
100
AcDbEntity
  8
0
370
    60
100
AcDbCircle
 10
131.097549
 20
349.615174
 30
0.0
 40
418.368164
100
AcDbArc
 50
353.063817
 51
6.013182
  0
ARC
  5
61
330
1F
100
AcDbEntity
  8
0
370
    60
100
AcDbCircle
 10
440.805054
 20
384.915173
 30
0.0
 40
106.699997
100
AcDbArc
 50
4.583774
 51
38.736294
  0
ARC
  5
62
330
1F
100
AcDbEntity
  8
0
370
    60
100
AcDbCircle
 10
424.505051
 20
369.615173
 30
0.0
 40
129.0
100
AcDbArc
 50
39.506927
 51
83.293542
  0
ARC
  5
63
330
1F
100
AcDbEntity
  8
0
370
    60
100
AcDbCircle
 10
201.629791
 20
476.910072
 30
0.0
 40
27.5
100
AcDbArc
 50
92.81142400000002
 51
180.0
  0
LINE
  5
68
330
1F
100
AcDbEntity
  8
0
370
    60
100
AcDbLine
 10
174.129791
 20
349.61518
 30
0.0
 11
174.129791
 21
476.910072
 31
0.0
  0
LINE
  5
69
330
1F
100
AcDbEntity
  8
0
370
    60
100
AcDbLine
 10
174.129807
 20
222.219643
 30
0.0
 11
174.129807
 21
349.61518
 31
0.0
  0
POLYLINE
  5
6A
330
1F
100
AcDbEntity
  8
0
370
    60
100
AcDb2dPolyline
 66
     1
 10
0.0
 20
0.0
 30
0.0
 70
     4
 75
     6
  0
VERTEX
  5
158E
330
6A
100
AcDbEntity
  8
0
 62
     0
100
AcDbVertex
100
AcDb2dVertex
 10
200.10914555
 20
194.86092266
 30
0.0
 70
    16
  0
VERTEX
  5
158F
330
6A
100
AcDbEntity
  8
0
 62
     0
100
AcDbVertex
100
AcDb2dVertex
 10
199.15049332
 20
194.90462941
 30
0.0
 70
    16
  0
VERTEX
  5
1590
330
6A
100
AcDbEntity
  8
0
 62
     0
100
AcDbVertex
100
AcDb2dVertex
 10
195.93398676
 20
195.21911382
 30
0.0
 70
    16
  0
VERTEX
  5
1591
330
6A
100
AcDbEntity
  8
0
 62
     0
100
AcDbVertex
100
AcDb2dVertex
 10
189.48927351
 20
197.03915577
 30
0.0
 70
    16
  0
VERTEX
  5
1592
330
6A
100
AcDbEntity
  8
0
 62
     0
100
AcDbVertex
100
AcDb2dVertex
 10
184.69733102
 20
200.24311299
 30
0.0
 70
    16
  0
VERTEX
  5
1593
330
6A
100
AcDbEntity
  8
0
 62
     0
100
AcDbVertex
100
AcDb2dVertex
 10
182.27039189
 20
202.63625961
 30
0.0
 70
    16
  0
VERTEX
  5
1594
330
6A
100
AcDbEntity
  8
0
100
AcDbVertex
100
AcDb2dVertex
 10
200.10914555
 20
194.86092266
 30
0.0
 70
     8
  0
VERTEX
  5
1595
330
6A
100
AcDbEntity
  8
0
100
AcDbVertex
100
AcDb2dVertex
 10
199.92943858
 20
194.8697002
 30
0.0
 70
     8
  0
VERTEX
  5
1596
330
6A
100
AcDbEntity
  8
0
100
AcDbVertex
100
AcDb2dVertex
 10
199.7498158
 20
194.87964348
 30
0.0
 70
     8
  0
VERTEX
  5
1597
330
6A
100
AcDbEntity
  8
0
100
AcDbVertex
100
AcDb2dVertex
 10
199.57028253
 20
194.89075355
 30
0.0
 70
     8
  0
VERTEX
  5
1598
330
6A
100
AcDbEntity
  8
0
100
AcDbVertex
100
AcDb2dVertex
 10
199.39084407
 20
194.90303145
 30
0.0
 70
     8
  0
VERTEX
  5
1599
330
6A
100
AcDbEntity
  8
0
100
AcDbVertex
100
AcDb2dVertex
 10
199.21150576
 20
194.91647824
 30
0.0
 70
     8
  0
VERTEX
  5
159A
330
6A
100
AcDbEntity
  8
0
100
AcDbVertex
100
AcDb2dVertex
 10
199.03227291
 20
194.93109497
 30
0.0
 70
     8
  0
VERTEX
  5
159B
330
6A
100
AcDbEntity
  8
0
100
AcDbVertex
100
AcDb2dVertex
 10
198.85315082
 20
194.94688267
 30
0.0
 70
     8
  0
VERTEX
  5
159C
330
6A
100
AcDbEntity
  8
0
100
AcDbVertex
100
AcDb2dVertex
 10
198.67414483
 20
194.96384241
 30
0.0
 70
     8
  0
VERTEX
  5
159D
330
6A
100
AcDbEntity
  8
0
100
AcDbVertex
100
AcDb2dVertex
 10
198.49526023
 20
194.98197522
 30
0.0
 70
     8
  0
VERTEX
  5
159E
330
6A
100
AcDbEntity
  8
0
100
AcDbVertex
100
AcDb2dVertex
 10
198.31650236
 20
195.00128215
 30
0.0
 70
     8
  0
VERTEX
  5
159F
330
6A
100
AcDbEntity
  8
0
100
AcDbVertex
100
AcDb2dVertex
 10
198.13787652
 20
195.02176426
 30
0.0
 70
     8
  0
VERTEX
  5
15A0
330
6A
100
AcDbEntity
  8
0
100
AcDbVertex
100
AcDb2dVertex
 10
197.95938804
 20
195.04342259
 30
0.0
 70
     8
  0
VERTEX
  5
15A1
330
6A
100
AcDbEntity
  8
0
100
AcDbVertex
100
AcDb2dVertex
 10
197.78104223
 20
195.06625818
 30
0.0
 70
     8
  0
VERTEX
  5
15A2
330
6A
100
AcDbEntity
  8
0
100
AcDbVertex
100
AcDb2dVertex
 10
197.6028444
 20
195.09027209
 30
0.0
 70
     8
  0
VERTEX
  5
15A3
330
6A
100
AcDbEntity
  8
0
100
AcDbVertex
100
AcDb2dVertex
 10
197.42479987
 20
195.11546537
 30
0.0
 70
     8
  0
VERTEX
  5
15A4
330
6A
100
AcDbEntity
  8
0
100
AcDbVertex
100
AcDb2dVertex
 10
197.24691396
 20
195.14183906
 30
0.0
 70
     8
  0
VERTEX
  5
15A5
330
6A
100
AcDbEntity
  8
0
100
AcDbVertex
100
AcDb2dVertex
 10
196.82651748
 20
195.20897022
 30
0.0
 70
     8
  0
VERTEX
  5
15A6
330
6A
100
AcDbEntity
  8
0
100
AcDbVertex
100
AcDb2dVertex
 10
196.40715115
 20
195.28269345
 30
0.0
 70
     8
  0
VERTEX
  5
15A7
330
6A
100
AcDbEntity
  8
0
100
AcDbVertex
100
AcDb2dVertex
 10
195.98892659
 20
195.36298115
 30
0.0
 70
     8
  0
VERTEX
  5
15A8
330
6A
100
AcDbEntity
  8
0
100
AcDbVertex
100
AcDb2dVertex
 10
195.57195543
 20
195.44980571
 30
0.0
 70
     8
  0
VERTEX
  5
15A9
330
6A
100
AcDbEntity
  8
0
100
AcDbVertex
100
AcDb2dVertex
 10
195.1563493
 20
195.54313953
 30
0.0
 70
     8
  0
VERTEX
  5
15AA
330
6A
100
AcDbEntity
  8
0
100
AcDbVertex
100
AcDb2dVertex
 10
194.74221984
 20
195.642955
 30
0.0
 70
     8
  0
VERTEX
  5
15AB
330
6A
100
AcDbEntity
  8
0
100
AcDbVertex
100
AcDb2dVertex
 10
194.32967866
 20
195.74922451
 30
0.0
 70
     8
  0
VERTEX
  5
15AC
330
6A
100
AcDbEntity
  8
0
100
AcDbVertex
100
AcDb2dVertex
 10
193.9188374
 20
195.86192047
 30
0.0
 70
     8
  0
VERTEX
  5
15AD
330
6A
100
AcDbEntity
  8
0
100
AcDbVertex
100
AcDb2dVertex
 10
193.50980768
 20
195.98101527
 30
0.0
 70
     8
  0
VERTEX
  5
15AE
330
6A
100
AcDbEntity
  8
0
100
AcDbVertex
100
AcDb2dVertex
 10
193.10270114
 20
196.1064813
 30
0.0
 70
     8
  0
VERTEX
  5
15AF
330
6A
100
AcDbEntity
  8
0
100
AcDbVertex
100
AcDb2dVertex
 10
192.6976294
 20
196.23829095
 30
0.0
 70
     8
  0
VERTEX
  5
15B0
330
6A
100
AcDbEntity
  8
0
100
AcDbVertex
100
AcDb2dVertex
 10
192.29470408
 20
196.37641664
 30
0.0
 70
     8
  0
VERTEX
  5
15B1
330
6A
100
AcDbEntity
  8
0
100
AcDbVertex
100
AcDb2dVertex
 10
191.89403683
 20
196.52083074
 30
0.0
 70
     8
  0
VERTEX
  5
15B2
330
6A
100
AcDbEntity
  8
0
100
AcDbVertex
100
AcDb2dVertex
 10
191.49573927
 20
196.67150565
 30
0.0
 70
     8
  0
VERTEX
  5
15B3
330
6A
100
AcDbEntity
  8
0
100
AcDbVertex
100
AcDb2dVertex
 10
191.09992302
 20
196.82841378
 30
0.0
 70
     8
  0
VERTEX
  5
15B4
330
6A
100
AcDbEntity
  8
0
100
AcDbVertex
100
AcDb2dVertex
 10
190.70669971
 20
196.99152751
 30
0.0
 70
     8
  0
VERTEX
  5
15B5
330
6A
100
AcDbEntity
  8
0
100
AcDbVertex
100
AcDb2dVertex
 10
190.12207798
 20
197.24770288
 30
0.0
 70
     8
  0
VERTEX
  5
15B6
330
6A
100
AcDbEntity
  8
0
100
AcDbVertex
100
AcDb2dVertex
 10
189.54381499
 20
197.51759426
 30
0.0
 70
     8
  0
VERTEX
  5
15B7
330
6A
100
AcDbEntity
  8
0
100
AcDbVertex
100
AcDb2dVertex
 10
188.97218681
 20
197.80102308
 30
0.0
 70
     8
  0
VERTEX
  5
15B8
330
6A
100
AcDbEntity
  8
0
100
AcDbVertex
100
AcDb2dVertex
 10
188.40746948
 20
198.0978108
 30
0.0
 70
     8
  0
VERTEX
  5
15B9
330
6A
100
AcDbEntity
  8
0
100
AcDbVertex
100
AcDb2dVertex
 10
187.84993906
 20
198.40777883
 30
0.0
 70
     8
  0
VERTEX
  5
15BA
330
6A
100
AcDbEntity
  8
0
100
AcDbVertex
100
AcDb2dVertex
 10
187.29987161
 20
198.73074863
 30
0.0
 70
     8
  0
VERTEX
  5
15BB
330
6A
100
AcDbEntity
  8
0
100
AcDbVertex
100
AcDb2dVertex
 10
186.75754317
 20
199.06654163
 30
0.0
 70
     8
  0
VERTEX
  5
15BC
330
6A
100
AcDbEntity
  8
0
100
AcDbVertex
100
AcDb2dVertex
 10
186.2232298
 20
199.41497926
 30
0.0
 70
     8
  0
VERTEX
  5
15BD
330
6A
100
AcDbEntity
  8
0
100
AcDbVertex
100
AcDb2dVertex
 10
185.69720756
 20
199.77588296
 30
0.0
 70
     8
  0
VERTEX
  5
15BE
330
6A
100
AcDbEntity
  8
0
100
AcDbVertex
100
AcDb2dVertex
 10
185.17975249
 20
200.14907417
 30
0.0
 70
     8
  0
VERTEX
  5
15BF
330
6A
100
AcDbEntity
  8
0
100
AcDbVertex
100
AcDb2dVertex
 10
184.67114066
 20
200.53437433
 30
0.0
 70
     8
  0
VERTEX
  5
15C0
330
6A
100
AcDbEntity
  8
0
100
AcDbVertex
100
AcDb2dVertex
 10
184.17164812
 20
200.93160487
 30
0.0
 70
     8
  0
VERTEX
  5
15C1
330
6A
100
AcDbEntity
  8
0
100
AcDbVertex
100
AcDb2dVertex
 10
183.68155091
 20
201.34058723
 30
0.0
 70
     8
  0
VERTEX
  5
15C2
330
6A
100
AcDbEntity
  8
0
100
AcDbVertex
100
AcDb2dVertex
 10
183.20112511
 20
201.76114285
 30
0.0
 70
     8
  0
VERTEX
  5
15C3
330
6A
100
AcDbEntity
  8
0
100
AcDbVertex
100
AcDb2dVertex
 10
182.73064675
 20
202.19309316
 30
0.0
 70
     8
  0
VERTEX
  5
15C4
330
6A
100
AcDbEntity
  8
0
100
AcDbVertex
100
AcDb2dVertex
 10
182.27039189
 20
202.63625961
 30
0.0
 70
     8
  0
SEQEND
  5
1AB3
330
6A
100
AcDbEntity
  8
0
370
    60
  0
POLYLINE
  5
C28
330
1F
100
AcDbEntity
  8
0
370
    60
100
AcDb2dPolyline
 66
     1
 10
0.0
 20
0.0
 30
0.0
 70
     4
 75
     6
  0
VERTEX
  5
15C6
330
C28
100
AcDbEntity
  8
0
 62
     0
100
AcDbVertex
100
AcDb2dVertex
 10
182.27039189
 20
202.63625961
 30
0.0
 70
    16
  0
VERTEX
  5
15C7
330
C28
100
AcDbEntity
  8
0
 62
     0
100
AcDbVertex
100
AcDb2dVertex
 10
179.8340122
 20
205.03871533
 30
0.0
 70
    16
  0
VERTEX
  5
15C8
330
C28
100
AcDbEntity
  8
0
 62
     0
100
AcDbVertex
100
AcDb2dVertex
 10
177.86382625
 20
207.89833802
 30
0.0
 70
    16
  0
VERTEX
  5
15C9
330
C28
100
AcDbEntity
  8
0
 62
     0
100
AcDbVertex
100
AcDb2dVertex
 10
176.48092978
 20
211.03062028
 30
0.0
 70
    16
  0
VERTEX
  5
15CA
330
C28
100
AcDbEntity
  8
0
100
AcDbVertex
100
AcDb2dVertex
 10
182.27039189
 20
202.63625961
 30
0.0
 70
     8
  0
VERTEX
  5
15CB
330
C28
100
AcDbEntity
  8
0
100
AcDbVertex
100
AcDb2dVertex
 10
181.81906347
 20
203.09203244
 30
0.0
 70
     8
  0
VERTEX
  5
15CC
330
C28
100
AcDbEntity
  8
0
100
AcDbVertex
100
AcDb2dVertex
 10
181.37883885
 20
203.55824984
 30
0.0
 70
     8
  0
VERTEX
  5
15CD
330
C28
100
AcDbEntity
  8
0
100
AcDbVertex
100
AcDb2dVertex
 10
180.94989543
 20
204.03464155
 30
0.0
 70
     8
  0
VERTEX
  5
15CE
330
C28
100
AcDbEntity
  8
0
100
AcDbVertex
100
AcDb2dVertex
 10
180.53241057
 20
204.52093728
 30
0.0
 70
     8
  0
VERTEX
  5
15CF
330
C28
100
AcDbEntity
  8
0
100
AcDbVertex
100
AcDb2dVertex
 10
180.12656168
 20
205.01686676
 30
0.0
 70
     8
  0
VERTEX
  5
15D0
330
C28
100
AcDbEntity
  8
0
100
AcDbVertex
100
AcDb2dVertex
 10
179.73252613
 20
205.52215973
 30
0.0
 70
     8
  0
VERTEX
  5
15D1
330
C28
100
AcDbEntity
  8
0
100
AcDbVertex
100
AcDb2dVertex
 10
179.35048132
 20
206.0365459
 30
0.0
 70
     8
  0
VERTEX
  5
15D2
330
C28
100
AcDbEntity
  8
0
100
AcDbVertex
100
AcDb2dVertex
 10
178.98060463
 20
206.55975499
 30
0.0
 70
     8
  0
VERTEX
  5
15D3
330
C28
100
AcDbEntity
  8
0
100
AcDbVertex
100
AcDb2dVertex
 10
178.62307344
 20
207.09151674
 30
0.0
 70
     8
  0
VERTEX
  5
15D4
330
C28
100
AcDbEntity
  8
0
100
AcDbVertex
100
AcDb2dVertex
 10
178.27806515
 20
207.63156088
 30
0.0
 70
     8
  0
VERTEX
  5
15D5
330
C28
100
AcDbEntity
  8
0
100
AcDbVertex
100
AcDb2dVertex
 10
177.94575714
 20
208.17961711
 30
0.0
 70
     8
  0
VERTEX
  5
15D6
330
C28
100
AcDbEntity
  8
0
100
AcDbVertex
100
AcDb2dVertex
 10
177.62632679
 20
208.73541518
 30
0.0
 70
     8
  0
VERTEX
  5
15D7
330
C28
100
AcDbEntity
  8
0
100
AcDbVertex
100
AcDb2dVertex
 10
177.31995149
 20
209.29868481
 30
0.0
 70
     8
  0
VERTEX
  5
15D8
330
C28
100
AcDbEntity
  8
0
100
AcDbVertex
100
AcDb2dVertex
 10
177.02680863
 20
209.86915571
 30
0.0
 70
     8
  0
VERTEX
  5
15D9
330
C28
100
AcDbEntity
  8
0
100
AcDbVertex
100
AcDb2dVertex
 10
176.7470756
 20
210.44655763
 30
0.0
 70
     8
  0
VERTEX
  5
15DA
330
C28
100
AcDbEntity
  8
0
100
AcDbVertex
100
AcDb2dVertex
 10
176.48092978
 20
211.03062028
 30
0.0
 70
     8
  0
SEQEND
  5
1AB4
330
C28
100
AcDbEntity
  8
0
370
    60
  0
POLYLINE
  5
C29
330
1F
100
AcDbEntity
  8
0
370
    60
100
AcDb2dPolyline
 66
     1
 10
0.0
 20
0.0
 30
0.0
 70
     4
 75
     6
  0
VERTEX
  5
15DC
330
C29
100
AcDbEntity
  8
0
 62
     0
100
AcDbVertex
100
AcDb2dVertex
 10
176.48092978
 20
211.03062028
 30
0.0
 70
    16
  0
VERTEX
  5
15DD
330
C29
100
AcDbEntity
  8
0
 62
     0
100
AcDbVertex
100
AcDb2dVertex
 10
175.04750505
 20
214.27734981
 30
0.0
 70
    16
  0
VERTEX
  5
15DE
330
C29
100
AcDbEntity
  8
0
 62
     0
100
AcDbVertex
100
AcDb2dVertex
 10
174.18732781
 20
218.08510919
 30
0.0
 70
    16
  0
VERTEX
  5
15DF
330
C29
100
AcDbEntity
  8
0
 62
     0
100
AcDbVertex
100
AcDb2dVertex
 10
174.12997443
 20
221.92778178
 30
0.0
 70
    16
  0
VERTEX
  5
15E0
330
C29
100
AcDbEntity
  8
0
 62
     0
100
AcDbVertex
100
AcDb2dVertex
 10
174.12980604
 20
222.21964087
 30
0.0
 70
    16
  0
VERTEX
  5
15E1
330
C29
100
AcDbEntity
  8
0
100
AcDbVertex
100
AcDb2dVertex
 10
176.48092978
 20
211.03062028
 30
0.0
 70
     8
  0
VERTEX
  5
15E2
330
C29
100
AcDbEntity
  8
0
100
AcDbVertex
100
AcDb2dVertex
 10
176.2196578
 20
211.64250681
 30
0.0
 70
     8
  0
VERTEX
  5
15E3
330
C29
100
AcDbEntity
  8
0
100
AcDbVertex
100
AcDb2dVertex
 10
175.97342188
 20
212.26040661
 30
0.0
 70
     8
  0
VERTEX
  5
15E4
330
C29
100
AcDbEntity
  8
0
100
AcDbVertex
100
AcDb2dVertex
 10
175.74229063
 20
212.88396539
 30
0.0
 70
     8
  0
VERTEX
  5
15E5
330
C29
100
AcDbEntity
  8
0
100
AcDbVertex
100
AcDb2dVertex
 10
175.52633266
 20
213.51282883
 30
0.0
 70
     8
  0
VERTEX
  5
15E6
330
C29
100
AcDbEntity
  8
0
100
AcDbVertex
100
AcDb2dVertex
 10
175.32561657
 20
214.14664261
 30
0.0
 70
     8
  0
VERTEX
  5
15E7
330
C29
100
AcDbEntity
  8
0
100
AcDbVertex
100
AcDb2dVertex
 10
175.14021098
 20
214.78505244
 30
0.0
 70
     8
  0
VERTEX
  5
15E8
330
C29
100
AcDbEntity
  8
0
100
AcDbVertex
100
AcDb2dVertex
 10
174.97018449
 20
215.427704
 30
0.0
 70
     8
  0
VERTEX
  5
15E9
330
C29
100
AcDbEntity
  8
0
100
AcDbVertex
100
AcDb2dVertex
 10
174.81560573
 20
216.07424299
 30
0.0
 70
     8
  0
VERTEX
  5
15EA
330
C29
100
AcDbEntity
  8
0
100
AcDbVertex
100
AcDb2dVertex
 10
174.67654328
 20
216.72431509
 30
0.0
 70
     8
  0
VERTEX
  5
15EB
330
C29
100
AcDbEntity
  8
0
100
AcDbVertex
100
AcDb2dVertex
 10
174.55306578
 20
217.377566
 30
0.0
 70
     8
  0
VERTEX
  5
15EC
330
C29
100
AcDbEntity
  8
0
100
AcDbVertex
100
AcDb2dVertex
 10
174.44524182
 20
218.03364141
 30
0.0
 70
     8
  0
VERTEX
  5
15ED
330
C29
100
AcDbEntity
  8
0
100
AcDbVertex
100
AcDb2dVertex
 10
174.35314001
 20
218.692187
 30
0.0
 70
     8
  0
VERTEX
  5
15EE
330
C29
100
AcDbEntity
  8
0
100
AcDbVertex
100
AcDb2dVertex
 10
174.27682897
 20
219.35284847
 30
0.0
 70
     8
  0
VERTEX
  5
15EF
330
C29
100
AcDbEntity
  8
0
100
AcDbVertex
100
AcDb2dVertex
 10
174.21637731
 20
220.01527152
 30
0.0
 70
     8
  0
VERTEX
  5
15F0
330
C29
100
AcDbEntity
  8
0
100
AcDbVertex
100
AcDb2dVertex
 10
174.17185363
 20
220.67910183
 30
0.0
 70
     8
  0
VERTEX
  5
15F1
330
C29
100
AcDbEntity
  8
0
100
AcDbVertex
100
AcDb2dVertex
 10
174.14332655
 20
221.34398508
 30
0.0
 70
     8
  0
VERTEX
  5
15F2
330
C29
100
AcDbEntity
  8
0
100
AcDbVertex
100
AcDb2dVertex
 10
174.1416944
 20
221.3986994
 30
0.0
 70
     8
  0
VERTEX
  5
15F3
330
C29
100
AcDbEntity
  8
0
100
AcDbVertex
100
AcDb2dVertex
 10
174.14017026
 20
221.45341795
 30
0.0
 70
     8
  0
VERTEX
  5
15F4
330
C29
100
AcDbEntity
  8
0
100
AcDbVertex
100
AcDb2dVertex
 10
174.13875345
 20
221.50814021
 30
0.0
 70
     8
  0
VERTEX
  5
15F5
330
C29
100
AcDbEntity
  8
0
100
AcDbVertex
100
AcDb2dVertex
 10
174.13744334
 20
221.56286571
 30
0.0
 70
     8
  0
VERTEX
  5
15F6
330
C29
100
AcDbEntity
  8
0
100
AcDbVertex
100
AcDb2dVertex
 10
174.13623926
 20
221.61759392
 30
0.0
 70
     8
  0
VERTEX
  5
15F7
330
C29
100
AcDbEntity
  8
0
100
AcDbVertex
100
AcDb2dVertex
 10
174.13514057
 20
221.67232436
 30
0.0
 70
     8
  0
VERTEX
  5
15F8
330
C29
100
AcDbEntity
  8
0
100
AcDbVertex
100
AcDb2dVertex
 10
174.13414661
 20
221.72705652
 30
0.0
 70
     8
  0
VERTEX
  5
15F9
330
C29
100
AcDbEntity
  8
0
100
AcDbVertex
100
AcDb2dVertex
 10
174.13325672
 20
221.7817899
 30
0.0
 70
     8
  0
VERTEX
  5
15FA
330
C29
100
AcDbEntity
  8
0
100
AcDbVertex
100
AcDb2dVertex
 10
174.13247026
 20
221.836524
 30
0.0
 70
     8
  0
VERTEX
  5
15FB
330
C29
100
AcDbEntity
  8
0
100
AcDbVertex
100
AcDb2dVertex
 10
174.13178657
 20
221.89125832
 30
0.0
 70
     8
  0
VERTEX
  5
15FC
330
C29
100
AcDbEntity
  8
0
100
AcDbVertex
100
AcDb2dVertex
 10
174.131205
 20
221.94599237
 30
0.0
 70
     8
  0
VERTEX
  5
15FD
330
C29
100
AcDbEntity
  8
0
100
AcDbVertex
100
AcDb2dVertex
 10
174.13072489
 20
222.00072563
 30
0.0
 70
     8
  0
VERTEX
  5
15FE
330
C29
100
AcDbEntity
  8
0
100
AcDbVertex
100
AcDb2dVertex
 10
174.13034559
 20
222.05545761
 30
0.0
 70
     8
  0
VERTEX
  5
15FF
330
C29
100
AcDbEntity
  8
0
100
AcDbVertex
100
AcDb2dVertex
 10
174.13006645
 20
222.11018781
 30
0.0
 70
     8
  0
VERTEX
  5
1600
330
C29
100
AcDbEntity
  8
0
100
AcDbVertex
100
AcDb2dVertex
 10
174.12988682
 20
222.16491573
 30
0.0
 70
     8
  0
VERTEX
  5
1601
330
C29
100
AcDbEntity
  8
0
100
AcDbVertex
100
AcDb2dVertex
 10
174.12980604
 20
222.21964087
 30
0.0
 70
     8
  0
SEQEND
  5
1AB5
330
C29
100
AcDbEntity
  8
0
370
    60
  0
ARC
  5
6D
330
1F
100
AcDbEntity
  8
0
370
    60
100
AcDbCircle
 10
302.684565
 20
-570.230652
 30
0.0
 40
1076.699951
100
AcDbArc
 50
82.695976
 51
89.028709
  0
ARC
  5
6E
330
1F
100
AcDbEntity
  8
0
370
    60
100
AcDbCircle
 10
289.947281
 20
-1321.522644
 30
0.0
 40
1828.099976
100
AcDbArc
 50
89.028709
 51
92.81142400000002
  0
ARC
  5
6F
330
1F
100
AcDbEntity
  8
0
370
    60
100
AcDbCircle
 10
302.684565
 20
1269.460999
 30
0.0
 40
1076.699951
100
AcDbArc
 50
270.971305
 51
277.304038
  0
ARC
  5
70
330
1F
100
AcDbEntity
  8
0
370
    60
100
AcDbCircle
 10
289.947281
 20
2020.752991
 30
0.0
 40
1828.099976
100
AcDbArc
 50
267.188582
 51
270.971305
  0
ARC
  5
71
330
1F
100
AcDbEntity
  8
0
370
    60
100
AcDbCircle
 10
424.505051
 20
329.615173
 30
0.0
 40
129.0
100
AcDbArc
 50
276.706478
 51
320.493076
  0
ARC
  5
72
330
1F
100
AcDbEntity
  8
0
370
    60
100
AcDbCircle
 10
441.02475272
 20
314.18731575
 30
0.0
 40
106.44862556
100
AcDbArc
 50
321.24339563
 51
352.0128490500001
  0
LINE
  5
888
330
1F
100
AcDbEntity
  8
0
 48
0.314878
370
    60
100
AcDbLine
 10
325.805054
 20
192.02623
 30
0.0
 11
325.805054
 21
179.431106
 31
0.0
  0
DIMENSION
  5
9B6
330
1F
100
AcDbEntity
  8
0
370
    25
100
AcDbDimension
  2
*D247
 10
682.361206
 20
538.66284052
 30
0.0
 11
721.361206
 21
564.8628405200001
 31
0.0
 70
    32
 71
     0
 42
4.0
  3
Standard
100
AcDbAlignedDimension
 13
678.361206
 23
421.64811497
 33
0.0
 14
682.361206
 24
421.64811497
 34
0.0
100
AcDbRotatedDimension
1001
ACAD
1000
DSTYLE
1002
{
1070
    41
1040
10.0
1070
   140
1040
36.0
1070
   147
1040
10.0
1070
   271
1070
     0
1070
   289
1070
     0
1002
}
  0
DIMENSION
  5
9C5
330
1F
100
AcDbEntity
  8
0
370
    25
100
AcDbDimension
  2
*D243
 10
549.10722562
 20
538.66284052
 30
0.0
 11
361.61851631
 21
564.8628405200001
 31
0.0
 70
    32
  1
375
 71
     0
 42
374.97741862
  3
Standard
100
AcDbAlignedDimension
 13
174.129807
 23
349.61518
 33
0.0
 14
549.10722562
 24
366.9307999
 34
0.0
100
AcDbRotatedDimension
1001
ACAD
1000
DSTYLE
1002
{
1070
    41
1040
10.0
1070
   140
1040
36.0
1070
   147
1040
10.0
1070
   271
1070
     0
1070
   289
1070
     0
1002
}
  0
DIMENSION
  5
A0C
330
1F
100
AcDbEntity
  8
0
370
    25
100
AcDbDimension
  2
*D246
 10
611.6952766606667
 20
193.02623
 30
0.0
 11
585.4952766606666
 21
351.3124024755
 31
0.0
 70
   160
  1
313
 71
     0
 42
313.28836278
  3
Standard
100
AcDbAlignedDimension
 13
320.93615163
 23
506.31459278
 33
0.0
 14
325.805054
 24
193.02623
 34
0.0
 50
90.0
100
AcDbRotatedDimension
1001
ACAD
1000
DSTYLE
1002
{
1070
    41
1040
10.0
1070
   140
1040
36.0
1070
   147
1040
10.0
1070
   271
1070
     0
1070
   289
1070
     0
1002
}
  0
LINE
  5
A3B
330
1F
100
AcDbEntity
  8
STANDARD_LAYER
370
    60
100
AcDbLine
 10
322.55610043
 20
369.55218003
 30
0.0
 11
343.23778219
 21
397.46479671
 31
0.0
  0
LINE
  5
A3C
330
1F
100
AcDbEntity
  8
STANDARD_LAYER
370
    60
100
AcDbLine
 10
311.32791175
 20
340.46380181
 30
0.0
 11
332.01083587
 21
368.37660605
 31
0.0
  0
LINE
  5
A3D
330
1F
100
AcDbEntity
  8
STANDARD_LAYER
370
    60
100
AcDbLine
 10
306.30568711
 20
361.03021429
 30
0.0
 11
326.98780735
 21
388.94336239
 31
0.0
  0
LINE
  5
A3E
330
1F
100
AcDbEntity
  8
STANDARD_LAYER
370
    60
100
AcDbLine
 10
339.98794591
 20
328.41690637
 30
0.0
 11
360.67043155
 21
356.32968977
 31
0.0
  0
LINE
  5
A3F
330
1F
100
AcDbEntity
  8
STANDARD_LAYER
370
    60
100
AcDbLine
 10
357.12503887
 20
339.87576995
 30
0.0
 11
377.80726351
 21
367.78802193
 31
0.0
  0
VIEWPORT
  5
1603
330
73
100
AcDbEntity
 67
     1
  8
0
100
AcDbViewport
 10
0.0
 20
0.0
 30
0.0
 40
24.97
 41
1000.0
 68
     1
 69
     1
 12
0.0
 22
0.0
 13
0.0
 23
0.0
 14
1.0
 24
1.0
 15
1.0
 25
1.0
 16
0.0
 26
0.0
 36
1.0
 17
0.0
 27
0.0
 37
0.0
 42
50.0
 43
0.0
 44
0.0
 45
1000.0
 50
0.0
 51
0.0
 72
  1000
 90
   557088
  1

281
     0
 71
     1
 74
     0
110
0.0
120
0.0
130
0.0
111
1.0
121
0.0
131
0.0
112
0.0
122
1.0
132
0.0
 79
     0
146
0.0
170
     0
  0
ENDSEC
  0
SECTION
  2
OBJECTS
  0
DICTIONARY
  5
C
330
0
100
AcDbDictionary
281
     1
  3
ACAD_COLOR
350
6C
  3
ACAD_GROUP
350
D
  3
ACAD_LAYOUT
350
1A
  3
ACAD_MATERIAL
350
6B
  3
ACAD_MLEADERSTYLE
350
1847
  3
ACAD_MLINESTYLE
350
17
  3
ACAD_PLOTSETTINGS
350
19
  3
ACAD_PLOTSTYLENAME
350
E
  3
ACAD_SCALELIST
350
99
  3
ACAD_TABLESTYLE
350
92
  3
AcDbVariableDictionary
350
59
  3
VECTORDRAW_OBJECTS
350
160A
  0
DICTIONARY
  5
6C
102
{ACAD_REACTORS
330
C
102
}
330
C
100
AcDbDictionary
281
     1
  0
DICTIONARY
  5
D
102
{ACAD_REACTORS
330
C
102
}
330
C
100
AcDbDictionary
281
     1
  0
DICTIONARY
  5
1A
102
{ACAD_REACTORS
330
C
102
}
330
C
100
AcDbDictionary
281
     1
  3
Layout1
350
74
  3
Model
350
22
  0
DICTIONARY
  5
6B
102
{ACAD_REACTORS
330
C
102
}
330
C
100
AcDbDictionary
281
     1
  0
DICTIONARY
  5
1847
102
{ACAD_REACTORS
330
C
102
}
330
C
100
AcDbDictionary
281
     1
  0
DICTIONARY
  5
17
102
{ACAD_REACTORS
330
C
102
}
330
C
100
AcDbDictionary
281
     1
  3
Standard
350
18
  0
DICTIONARY
  5
19
102
{ACAD_REACTORS
330
C
102
}
330
C
100
AcDbDictionary
281
     1
  0
ACDBDICTIONARYWDFLT
  5
E
102
{ACAD_REACTORS
330
C
102
}
330
C
100
AcDbDictionary
281
     1
  3
Normal
350
F
100
AcDbDictionaryWithDefault
340
F
  0
DICTIONARY
  5
99
102
{ACAD_REACTORS
330
C
102
}
330
C
100
AcDbDictionary
281
     1
  3
A0
350
160F
  3
A1
350
1610
  3
A2
350
1611
  3
A3
350
1612
  3
A4
350
1613
  3
A5
350
1614
  3
A6
350
1615
  3
A7
350
1616
  3
A8
350
1617
  3
A9
350
1618
  3
B0
350
1619
  3
B1
350
161A
  3
B2
350
161B
  3
B3
350
161C
  3
B4
350
161D
  3
B5
350
161E
  3
B6
350
161F
  3
B7
350
1620
  3
B8
350
1621
  3
B9
350
1622
  3
C0
350
1623
  3
C1
350
1624
  3
C2
350
1625
  3
C3
350
1626
  3
C4
350
1627
  3
C5
350
1628
  3
C6
350
1629
  3
C7
350
162A
  3
C8
350
162B
  3
C9
350
162C
  3
D0
350
162D
  3
D1
350
162E
  3
D2
350
162F
  0
DICTIONARY
  5
92
102
{ACAD_REACTORS
330
C
102
}
330
C
100
AcDbDictionary
281
     1
  3
Standard
350
18BF
  0
DICTIONARY
  5
59
102
{ACAD_REACTORS
330
C
102
}
330
C
100
AcDbDictionary
281
     1
  3
CTABLESTYLE
350
18C0
  3
DIMASSOC
350
5A
  3
HIDETEXT
350
5E
  0
DICTIONARY
  5
160A
102
{ACAD_REACTORS
330
C
102
}
330
C
100
AcDbDictionary
281
     1
  3
SERIALNO
350
160D
  0
LAYOUT
  5
74
102
{ACAD_REACTORS
330
1A
102
}
330
1A
100
AcDbPlotSettings
  1

  2
none_device
  4
Letter_(8.50_x_11.00_Inches)
  6

 40
6.35
 41
6.35
 42
6.35000508
 43
6.35000508
 44
215.9
 45
279.4
 46
0.0
 47
0.0
 48
-500.0
 49
-500.0
140
500.0
141
500.0
142
1.0
143
1.0
 70
   688
 72
     1
 73
     0
 74
     4
  7

 75
    16
 76
     0
 77
     2
 78
   300
147
1.0
148
500.0
149
500.0
100
AcDbLayout
  1
Layout1
 70
     1
 71
     1
 10
0.0
 20
0.0
 11
12.0
 21
9.0
 12
0.0
 22
0.0
 32
0.0
 14
1.000000000000000E+20
 24
1.000000000000000E+20
 34
1.000000000000000E+20
 15
-1.000000000000000E+20
 25
-1.000000000000000E+20
 35
-1.000000000000000E+20
146
0.0
 13
0.0
 23
0.0
 33
0.0
 16
1.0
 26
0.0
 36
0.0
 17
0.0
 27
1.0
 37
0.0
 76
     0
330
73
331
1603
1001
VD_EX_PRINTER_DWG_STYLE_SHEET
1000

1001
VD_EX_PRINTER_SIZEX
1040
0.0
1001
VD_EX_PRINTER_AVSIZEX
1040
0.0
1001
VD_EX_PRINTER_SIZEY
1040
0.0
1001
VD_EX_PRINTER_AVSIZEY
1040
0.0
  0
LAYOUT
  5
22
102
{ACAD_REACTORS
330
1A
102
}
330
1A
100
AcDbPlotSettings
  1

  2
none_device
  4
none_user_media
  6

 40
6.349999904632568
 41
6.349999904632568
 42
6.350006103515625
 43
6.350006103515625
 44
215.8999938964844
 45
279.3999938964844
 46
0.0
 47
0.0
 48
131.120209
 49
179.431106
140
719.361206
141
556.77517296
142
1.0
143
2.205628135409923
 70
 11952
 72
     1
 73
     1
 74
     4
  7

 75
     0
 76
     0
 77
     2
 78
   300
147
0.4533855838822743
148
-131.120209
149
-179.431106
100
AcDbLayout
  1
Model
 70
     1
 71
     0
 10
0.0
 20
0.0
 11
1.0
 21
1.0
 12
0.0
 22
0.0
 32
0.0
 14
131.120209
 24
132.99513033
 34
0.0
 15
740.2864468611667
 25
555.9128405199999
 35
0.0
146
0.0
 13
0.0
 23
0.0
 33
0.0
 16
1.0
 26
0.0
 36
0.0
 17
0.0
 27
1.0
 37
0.0
 76
     0
330
1F
331
97
1001
VD_EX_PRINTER_DWG_STYLE_SHEET
1000

1001
VD_EX_PRINTER_SIZEX
1040
215.8999939
1001
VD_EX_PRINTER_AVSIZEX
1040
215.8999939
1001
VD_EX_PRINTER_SIZEY
1040
279.3999939
1001
VD_EX_PRINTER_AVSIZEY
1040
279.3999939
  0
MLINESTYLE
  5
18
102
{ACAD_REACTORS
330
17
102
}
330
17
100
AcDbMlineStyle
  2
Standard
 70
     0
  3

 62
   256
 51
90.0
 52
90.0
 71
     2
 49
0.5
 62
   256
  6
BYLAYER
 49
-0.5
 62
   256
  6
BYLAYER
  0
ACDBPLACEHOLDER
  5
F
102
{ACAD_REACTORS
330
E
102
}
330
E
  0
SCALE
  5
160F
102
{ACAD_REACTORS
330
99
102
}
330
99
100
AcDbScale
 70
     0
300
1:1
140
1.0
141
1.0
290
     1
  0
SCALE
  5
1610
102
{ACAD_REACTORS
330
99
102
}
330
99
100
AcDbScale
 70
     0
300
1:2
140
1.0
141
2.0
290
     0
  0
SCALE
  5
1611
102
{ACAD_REACTORS
330
99
102
}
330
99
100
AcDbScale
 70
     0
300
1:4
140
1.0
141
4.0
290
     0
  0
SCALE
  5
1612
102
{ACAD_REACTORS
330
99
102
}
330
99
100
AcDbScale
 70
     0
300
1:5
140
1.0
141
5.0
290
     0
  0
SCALE
  5
1613
102
{ACAD_REACTORS
330
99
102
}
330
99
100
AcDbScale
 70
     0
300
1:8
140
1.0
141
8.0
290
     0
  0
SCALE
  5
1614
102
{ACAD_REACTORS
330
99
102
}
330
99
100
AcDbScale
 70
     0
300
1:10
140
1.0
141
10.0
290
     0
  0
SCALE
  5
1615
102
{ACAD_REACTORS
330
99
102
}
330
99
100
AcDbScale
 70
     0
300
1:16
140
1.0
141
16.0
290
     0
  0
SCALE
  5
1616
102
{ACAD_REACTORS
330
99
102
}
330
99
100
AcDbScale
 70
     0
300
1:20
140
1.0
141
20.0
290
     0
  0
SCALE
  5
1617
102
{ACAD_REACTORS
330
99
102
}
330
99
100
AcDbScale
 70
     0
300
1:30
140
1.0
141
30.0
290
     0
  0
SCALE
  5
1618
102
{ACAD_REACTORS
330
99
102
}
330
99
100
AcDbScale
 70
     0
300
1:40
140
1.0
141
40.0
290
     0
  0
SCALE
  5
1619
102
{ACAD_REACTORS
330
99
102
}
330
99
100
AcDbScale
 70
     0
300
1:50
140
1.0
141
50.0
290
     0
  0
SCALE
  5
161A
102
{ACAD_REACTORS
330
99
102
}
330
99
100
AcDbScale
 70
     0
300
1:100
140
1.0
141
100.0
290
     0
  0
SCALE
  5
161B
102
{ACAD_REACTORS
330
99
102
}
330
99
100
AcDbScale
 70
     0
300
2:1
140
2.0
141
1.0
290
     0
  0
SCALE
  5
161C
102
{ACAD_REACTORS
330
99
102
}
330
99
100
AcDbScale
 70
     0
300
4:1
140
4.0
141
1.0
290
     0
  0
SCALE
  5
161D
102
{ACAD_REACTORS
330
99
102
}
330
99
100
AcDbScale
 70
     0
300
8:1
140
8.0
141
1.0
290
     0
  0
SCALE
  5
161E
102
{ACAD_REACTORS
330
99
102
}
330
99
100
AcDbScale
 70
     0
300
10:1
140
10.0
141
1.0
290
     0
  0
SCALE
  5
161F
102
{ACAD_REACTORS
330
99
102
}
330
99
100
AcDbScale
 70
     0
300
100:1
140
100.0
141
1.0
290
     0
  0
SCALE
  5
1620
102
{ACAD_REACTORS
330
99
102
}
330
99
100
AcDbScale
 70
     0
300
1/128" = 1'-0"
140
0.0078125
141
12.0
290
     0
  0
SCALE
  5
1621
102
{ACAD_REACTORS
330
99
102
}
330
99
100
AcDbScale
 70
     0
300
1/64" = 1'-0"
140
0.015625
141
12.0
290
     0
  0
SCALE
  5
1622
102
{ACAD_REACTORS
330
99
102
}
330
99
100
AcDbScale
 70
     0
300
1/32" = 1'-0"
140
0.03125
141
12.0
290
     0
  0
SCALE
  5
1623
102
{ACAD_REACTORS
330
99
102
}
330
99
100
AcDbScale
 70
     0
300
1/16" = 1'-0"
140
0.0625
141
12.0
290
     0
  0
SCALE
  5
1624
102
{ACAD_REACTORS
330
99
102
}
330
99
100
AcDbScale
 70
     0
300
3/32" = 1'-0"
140
0.09375
141
12.0
290
     0
  0
SCALE
  5
1625
102
{ACAD_REACTORS
330
99
102
}
330
99
100
AcDbScale
 70
     0
300
1/8" = 1'-0"
140
0.125
141
12.0
290
     0
  0
SCALE
  5
1626
102
{ACAD_REACTORS
330
99
102
}
330
99
100
AcDbScale
 70
     0
300
3/16" = 1'-0"
140
0.1875
141
12.0
290
     0
  0
SCALE
  5
1627
102
{ACAD_REACTORS
330
99
102
}
330
99
100
AcDbScale
 70
     0
300
1/4" = 1'-0"
140
0.25
141
12.0
290
     0
  0
SCALE
  5
1628
102
{ACAD_REACTORS
330
99
102
}
330
99
100
AcDbScale
 70
     0
300
3/8" = 1'-0"
140
0.375
141
12.0
290
     0
  0
SCALE
  5
1629
102
{ACAD_REACTORS
330
99
102
}
330
99
100
AcDbScale
 70
     0
300
1/2" = 1'-0"
140
0.5
141
12.0
290
     0
  0
SCALE
  5
162A
102
{ACAD_REACTORS
330
99
102
}
330
99
100
AcDbScale
 70
     0
300
3/4" = 1'-0"
140
0.75
141
12.0
290
     0
  0
SCALE
  5
162B
102
{ACAD_REACTORS
330
99
102
}
330
99
100
AcDbScale
 70
     0
300
1" = 1'-0"
140
1.0
141
12.0
290
     0
  0
SCALE
  5
162C
102
{ACAD_REACTORS
330
99
102
}
330
99
100
AcDbScale
 70
     0
300
1-1/2" = 1'-0"
140
1.5
141
12.0
290
     0
  0
SCALE
  5
162D
102
{ACAD_REACTORS
330
99
102
}
330
99
100
AcDbScale
 70
     0
300
3" = 1'-0"
140
3.0
141
12.0
290
     0
  0
SCALE
  5
162E
102
{ACAD_REACTORS
330
99
102
}
330
99
100
AcDbScale
 70
     0
300
6" = 1'-0"
140
6.0
141
12.0
290
     0
  0
SCALE
  5
162F
102
{ACAD_REACTORS
330
99
102
}
330
99
100
AcDbScale
 70
     0
300
1'-0" = 1'-0"
140
12.0
141
12.0
290
     0
  0
TABLESTYLE
  5
18BF
102
{ACAD_REACTORS
330
92
102
}
102
{ACAD_XDICTIONARY
360
1AB6
102
}
330
92
100
AcDbTableStyle
  3
Standard
 70
     0
 71
     0
 40
0.06
 41
0.06
280
     0
281
     0
  7
Standard
140
0.18
170
     2
 62
     0
 63
     7
283
     0
274
    -2
284
     1
 64
     0
275
    -2
285
     1
 65
     0
276
    -2
286
     1
 66
     0
277
    -2
287
     1
 67
     0
278
    -2
288
     1
 68
     0
279
    -2
289
     1
 69
     0
  7
Standard
140
0.25
170
     5
 62
     0
 63
     7
283
     0
274
    -2
284
     1
 64
     0
275
    -2
285
     1
 65
     0
276
    -2
286
     1
 66
     0
277
    -2
287
     1
 67
     0
278
    -2
288
     1
 68
     0
279
    -2
289
     1
 69
     0
  7
Standard
140
0.18
170
     5
 62
     0
 63
     7
283
     0
274
    -2
284
     1
 64
     0
275
    -2
285
     1
 65
     0
276
    -2
286
     1
 66
     0
277
    -2
287
     1
 67
     0
278
    -2
288
     1
 68
     0
279
    -2
289
     1
 69
     0
  0
DICTIONARYVAR
  5
18C0
102
{ACAD_REACTORS
330
59
102
}
330
59
100
DictionaryVariables
280
     0
  1
Standard
  0
DICTIONARYVAR
  5
5A
102
{ACAD_REACTORS
330
59
102
}
330
59
100
DictionaryVariables
280
     0
  1
2
  0
DICTIONARYVAR
  5
5E
102
{ACAD_REACTORS
330
59
102
}
330
59
100
DictionaryVariables
280
     0
  1
1
  0
XRECORD
  5
160D
102
{ACAD_REACTORS
330
160A
102
}
330
160A
100
AcDbXrecord
280
     1
1000
udnjVM6OT3ptXXPNDrqErnGX8
1070
     5
1070
     1
  0
DICTIONARY
  5
1AB6
330
18BF
100
AcDbDictionary
280
     1
281
     1
  3
ACAD_XREC_ROUNDTRIP
360
1AB7
  0
XRECORD
  5
1AB7
102
{ACAD_REACTORS
330
1AB6
102
}
330
1AB6
100
AcDbXrecord
280
     1
102
ACAD_ROUNDTRIP_PRE2007_TABLESTYLE
 90
      512
 91
        0
  1

 92
      512
 93
        0
  2

 94
      512
 95
        0
  3

  0
ENDSEC
  0
EOF
