  0
SECTION
  2
HEADER
  9
$ACADVER
  1
AC1018
  9
$ACADMAINTVER
 70
     0
  9
$DWGCODEPAGE
  3
ANSI_1252
  9
$LASTSAVEDBY
  1
BelottiMc
  9
$INSBASE
 10
0.0
 20
0.0
 30
0.0
  9
$EXTMIN
 10
-31.98775987052198
 20
130.6642339143747
 30
0.0
  9
$EXTMAX
 10
1483.184448
 20
873.651901900414
 30
0.0
  9
$LIMMIN
 10
0.0
 20
0.0
  9
$LIMMAX
 10
420.0
 20
297.0
  9
$ORTHOMODE
 70
     0
  9
$REGENMODE
 70
     1
  9
$FILLMODE
 70
     1
  9
$QTEXTMODE
 70
     0
  9
$MIRRTEXT
 70
     1
  9
$LTSCALE
 40
1.0
  9
$ATTMODE
 70
     1
  9
$TEXTSIZE
 40
2.5
  9
$TRACEWID
 40
1.0
  9
$TEXTSTYLE
  7
Standard
  9
$CLAYER
  8
0
  9
$CELTYPE
  6
ByLayer
  9
$CECOLOR
 62
   256
  9
$CELTSCALE
 40
1.0
  9
$DISPSILH
 70
     0
  9
$DIMSCALE
 40
1.0
  9
$DIMASZ
 40
2.5
  9
$DIMEXO
 40
0.625
  9
$DIMDLI
 40
3.75
  9
$DIMRND
 40
0.0
  9
$DIMDLE
 40
0.0
  9
$DIMEXE
 40
1.25
  9
$DIMTP
 40
0.0
  9
$DIMTM
 40
0.0
  9
$DIMTXT
 40
2.5
  9
$DIMCEN
 40
2.5
  9
$DIMTSZ
 40
0.0
  9
$DIMTOL
 70
     0
  9
$DIMLIM
 70
     0
  9
$DIMTIH
 70
     0
  9
$DIMTOH
 70
     0
  9
$DIMSE1
 70
     0
  9
$DIMSE2
 70
     0
  9
$DIMTAD
 70
     1
  9
$DIMZIN
 70
     8
  9
$DIMBLK
  1

  9
$DIMASO
 70
     1
  9
$DIMSHO
 70
     1
  9
$DIMPOST
  1

  9
$DIMAPOST
  1

  9
$DIMALT
 70
     0
  9
$DIMALTD
 70
     3
  9
$DIMALTF
 40
0.03937
  9
$DIMLFAC
 40
1.0
  9
$DIMTOFL
 70
     1
  9
$DIMTVP
 40
0.0
  9
$DIMTIX
 70
     0
  9
$DIMSOXD
 70
     0
  9
$DIMSAH
 70
     0
  9
$DIMBLK1
  1

  9
$DIMBLK2
  1

  9
$DIMSTYLE
  2
Standard
  9
$DIMCLRD
 70
     0
  9
$DIMCLRE
 70
     0
  9
$DIMCLRT
 70
     0
  9
$DIMTFAC
 40
1.0
  9
$DIMGAP
 40
0.625
  9
$DIMJUST
 70
     0
  9
$DIMSD1
 70
     0
  9
$DIMSD2
 70
     0
  9
$DIMTOLJ
 70
     0
  9
$DIMTZIN
 70
     8
  9
$DIMALTZ
 70
     0
  9
$DIMALTTZ
 70
     0
  9
$DIMUPT
 70
     0
  9
$DIMDEC
 70
     2
  9
$DIMTDEC
 70
     2
  9
$DIMALTU
 70
     2
  9
$DIMALTTD
 70
     3
  9
$DIMTXSTY
  7
Standard
  9
$DIMAUNIT
 70
     0
  9
$DIMADEC
 70
     0
  9
$DIMALTRND
 40
0.0
  9
$DIMAZIN
 70
     0
  9
$DIMDSEP
 70
    44
  9
$DIMATFIT
 70
     0
  9
$DIMFRAC
 70
     0
  9
$DIMLDRBLK
  1

  9
$DIMLUNIT
 70
     2
  9
$DIMLWD
 70
    -2
  9
$DIMLWE
 70
    -2
  9
$DIMTMOVE
 70
     0
  9
$LUNITS
 70
     2
  9
$LUPREC
 70
     4
  9
$SKETCHINC
 40
1.0
  9
$FILLETRAD
 40
2.5
  9
$AUNITS
 70
     0
  9
$AUPREC
 70
     0
  9
$MENU
  1
.
  9
$ELEVATION
 40
0.0
  9
$PELEVATION
 40
0.0
  9
$THICKNESS
 40
0.0
  9
$LIMCHECK
 70
     0
  9
$CHAMFERA
 40
2.5
  9
$CHAMFERB
 40
2.5
  9
$CHAMFERC
 40
0.0
  9
$CHAMFERD
 40
0.0
  9
$SKPOLY
 70
     0
  9
$TDCREATE
 40
2447893.083333333
  9
$TDUCREATE
 40
2447893.0
  9
$TDUPDATE
 40
2447893.083333333
  9
$TDUUPDATE
 40
2447893.0
  9
$TDINDWG
 40
0.0263425231
  9
$TDUSRTIMER
 40
0.0263425231
  9
$USRTIMER
 70
     1
  9
$ANGBASE
 50
0.0
  9
$ANGDIR
 70
     0
  9
$PDMODE
 70
     0
  9
$PDSIZE
 40
0.0
  9
$PLINEWID
 40
0.0
  9
$SPLFRAME
 70
     0
  9
$SPLINETYPE
 70
     6
  9
$SPLINESEGS
 70
     8
  9
$HANDSEED
  5
FFD
  9
$SURFTAB1
 70
     6
  9
$SURFTAB2
 70
     6
  9
$SURFTYPE
 70
     6
  9
$SURFU
 70
     6
  9
$SURFV
 70
     6
  9
$UCSBASE
  2

  9
$UCSNAME
  2

  9
$UCSORG
 10
0.0
 20
0.0
 30
0.0
  9
$UCSXDIR
 10
1.0
 20
0.0
 30
0.0
  9
$UCSYDIR
 10
0.0
 20
1.0
 30
0.0
  9
$UCSORTHOREF
  2

  9
$UCSORTHOVIEW
 70
     0
  9
$UCSORGTOP
 10
0.0
 20
0.0
 30
0.0
  9
$UCSORGBOTTOM
 10
0.0
 20
0.0
 30
0.0
  9
$UCSORGLEFT
 10
0.0
 20
0.0
 30
0.0
  9
$UCSORGRIGHT
 10
0.0
 20
0.0
 30
0.0
  9
$UCSORGFRONT
 10
0.0
 20
0.0
 30
0.0
  9
$UCSORGBACK
 10
0.0
 20
0.0
 30
0.0
  9
$PUCSBASE
  2

  9
$PUCSNAME
  2

  9
$PUCSORG
 10
0.0
 20
0.0
 30
0.0
  9
$PUCSXDIR
 10
1.0
 20
0.0
 30
0.0
  9
$PUCSYDIR
 10
0.0
 20
1.0
 30
0.0
  9
$PUCSORTHOREF
  2

  9
$PUCSORTHOVIEW
 70
     0
  9
$PUCSORGTOP
 10
0.0
 20
0.0
 30
0.0
  9
$PUCSORGBOTTOM
 10
0.0
 20
0.0
 30
0.0
  9
$PUCSORGLEFT
 10
0.0
 20
0.0
 30
0.0
  9
$PUCSORGRIGHT
 10
0.0
 20
0.0
 30
0.0
  9
$PUCSORGFRONT
 10
0.0
 20
0.0
 30
0.0
  9
$PUCSORGBACK
 10
0.0
 20
0.0
 30
0.0
  9
$USERI1
 70
     0
  9
$USERI2
 70
     0
  9
$USERI3
 70
     0
  9
$USERI4
 70
     0
  9
$USERI5
 70
     0
  9
$USERR1
 40
0.0
  9
$USERR2
 40
0.0
  9
$USERR3
 40
0.0
  9
$USERR4
 40
0.0
  9
$USERR5
 40
0.0
  9
$WORLDVIEW
 70
     1
  9
$SHADEDGE
 70
     3
  9
$SHADEDIF
 70
    70
  9
$TILEMODE
 70
     1
  9
$MAXACTVP
 70
    48
  9
$PINSBASE
 10
0.0
 20
0.0
 30
0.0
  9
$PLIMCHECK
 70
     0
  9
$PEXTMIN
 10
0.0
 20
0.0
 30
0.0
  9
$PEXTMAX
 10
1483.198242
 20
563.165161
 30
2.0
  9
$PLIMMIN
 10
0.0
 20
0.0
  9
$PLIMMAX
 10
420.0
 20
297.0
  9
$UNITMODE
 70
     0
  9
$VISRETAIN
 70
     0
  9
$PLINEGEN
 70
     0
  9
$PSLTSCALE
 70
     1
  9
$TREEDEPTH
 70
  3020
  9
$CMLSTYLE
  2
Standard
  9
$CMLJUST
 70
     0
  9
$CMLSCALE
 40
20.0
  9
$PROXYGRAPHICS
 70
     1
  9
$MEASUREMENT
 70
     1
  9
$CELWEIGHT
370
    -1
  9
$ENDCAPS
280
     0
  9
$JOINSTYLE
280
     0
  9
$LWDISPLAY
290
     0
  9
$INSUNITS
 70
     0
  9
$HYPERLINKBASE
  1

  9
$STYLESHEET
  1

  9
$XEDIT
290
     1
  9
$CEPSNTYPE
380
     0
  9
$PSTYLEMODE
290
     0
  9
$FINGERPRINTGUID
  2

  9
$VERSIONGUID
  2

  9
$EXTNAMES
290
     0
  9
$PSVPSCALE
 40
0.0
  9
$OLESTARTUP
290
     0
  9
$SORTENTS
280
   127
  9
$INDEXCTL
280
     0
  9
$HIDETEXT
280
     1
  9
$XCLIPFRAME
290
     0
  9
$HALOGAP
280
     0
  9
$OBSCOLOR
 70
   257
  9
$OBSLTYPE
280
     0
  9
$INTERSECTIONDISPLAY
280
     0
  9
$INTERSECTIONCOLOR
 70
   257
  9
$DIMASSOC
280
     2
  9
$PROJECTNAME
  1

  0
ENDSEC
  0
SECTION
  2
CLASSES
  0
CLASS
  1
ACDBDICTIONARYWDFLT
  2
AcDbDictionaryWithDefault
  3
ObjectDBX Classes
 90
        0
 91
        4
280
     0
281
     0
  0
CLASS
  1
ACDBPLACEHOLDER
  2
AcDbPlaceHolder
  3
ObjectDBX Classes
 90
        0
 91
        1
280
     0
281
     0
  0
CLASS
  1
LAYOUT
  2
AcDbLayout
  3
ObjectDBX Classes
 90
        0
 91
        1
280
     0
281
     0
  0
CLASS
  1
DICTIONARYVAR
  2
AcDbDictionaryVar
  3
ObjectDBX Classes
 90
        0
 91
        4
280
     0
281
     0
  0
CLASS
  1
TABLESTYLE
  2
AcDbTableStyle
  3
ObjectDBX Classes
 90
     4095
 91
        6
280
     0
281
     0
  0
CLASS
  1
SCALE
  2
AcDbScale
  3
ObjectDBX Classes
 90
     1153
 91
       70
280
     0
281
     0
  0
CLASS
  1
WIPEOUTVARIABLES
  2
AcDbWipeoutVariables
  3
WipeOut|AutoCAD Express Tool|expresstools@autodesk.com
 90
        0
 91
        4
280
     0
281
     0
  0
ENDSEC
  0
SECTION
  2
TABLES
  0
TABLE
  2
VPORT
  5
8
330
0
100
AcDbSymbolTable
 70
     2
  0
VPORT
  5
97
330
8
100
AcDbSymbolTableRecord
100
AcDbViewportTableRecord
  2
*ACTIVE
 70
     0
 10
0.0
 20
0.0
 11
1.0
 21
1.0
 12
750.0819375585156
 22
376.8059631147926
 13
0.0
 23
0.0
 14
1.0
 24
1.0
 15
0.5
 25
0.5
 16
0.0
 26
0.0
 36
1.0
 17
0.0
 27
0.0
 37
0.0
 40
1368.609678153223
 41
0.688564
 42
50.0
 43
0.0
 44
0.0
 50
0.0
 51
0.0
 71
     0
 72
   100
 73
     1
 74
     1
 75
     0
 76
     0
 77
     0
 78
     0
281
     0
 65
     1
110
0.0
120
0.0
130
0.0
111
1.0
121
0.0
131
0.0
112
0.0
122
1.0
132
0.0
 79
     0
146
0.0
  0
ENDTAB
  0
TABLE
  2
LTYPE
  5
5
330
0
100
AcDbSymbolTable
 70
     8
  0
LTYPE
  5
14
330
5
100
AcDbSymbolTableRecord
100
AcDbLinetypeTableRecord
  2
ByBlock
 70
     0
  3

 72
    65
 73
     0
 40
0.0
  0
LTYPE
  5
15
330
5
100
AcDbSymbolTableRecord
100
AcDbLinetypeTableRecord
  2
ByLayer
 70
     0
  3

 72
    65
 73
     0
 40
0.0
  0
LTYPE
  5
16
330
5
100
AcDbSymbolTableRecord
100
AcDbLinetypeTableRecord
  2
Continuous
 70
     0
  3
Solid line
 72
    65
 73
     0
 40
0.0
  0
LTYPE
  5
F9D
330
5
100
AcDbSymbolTableRecord
100
AcDbLinetypeTableRecord
  2
DASHED
 70
     0
  3
__ __ __ __ __ __ __ __ __ __ __ __ __ __ __ __
 72
    65
 73
     2
 40
15.0
 49
12.0
 74
     0
 49
-3.0
 74
     0
  0
LTYPE
  5
F9E
330
5
100
AcDbSymbolTableRecord
100
AcDbLinetypeTableRecord
  2
DASHDOT
 70
     0
  3
 __ . __ . __ . __ . __ . __ . __ . 
 72
    65
 73
     4
 40
18.5
 49
12.0
 74
     0
 49
-3.0
 74
     0
 49
0.5
 74
     0
 49
-3.0
 74
     0
  0
LTYPE
  5
F9F
330
5
100
AcDbSymbolTableRecord
100
AcDbLinetypeTableRecord
  2
DOT
 70
     0
  3
 . . . . . . . . . . . . . . . .
 72
    65
 73
     2
 40
3.5
 49
0.5
 74
     0
 49
-3.0
 74
     0
  0
LTYPE
  5
FA0
330
5
100
AcDbSymbolTableRecord
100
AcDbLinetypeTableRecord
  2
DASHSPACE
 70
     0
  3
__    __    __    __    __   
 72
    65
 73
     2
 40
30.0
 49
12.0
 74
     0
 49
-18.0
 74
     0
  0
LTYPE
  5
FA1
330
5
100
AcDbSymbolTableRecord
100
AcDbLinetypeTableRecord
  2
DASHDOT2
 70
     0
  3
__ . . __ . . __ . . __ 
 72
    65
 73
     6
 40
22.0
 49
12.0
 74
     0
 49
-3.0
 74
     0
 49
0.5
 74
     0
 49
-3.0
 74
     0
 49
0.5
 74
     0
 49
-3.0
 74
     0
  0
LTYPE
  5
FA2
330
5
100
AcDbSymbolTableRecord
100
AcDbLinetypeTableRecord
  2
PHANTOM
 70
     0
  3
____________    ____    ____   _
 72
    65
 73
     6
 40
20.0
 49
10.0
 74
     0
 49
-2.0
 74
     0
 49
2.0
 74
     0
 49
-2.0
 74
     0
 49
2.0
 74
     0
 49
-2.0
 74
     0
  0
LTYPE
  5
FA3
330
5
100
AcDbSymbolTableRecord
100
AcDbLinetypeTableRecord
  2
AXES
 70
     0
  3
________  __  ________  __  _____
 72
    65
 73
     4
 40
24.0
 49
15.0
 74
     0
 49
-3.0
 74
     0
 49
3.0
 74
     0
 49
-3.0
 74
     0
  0
ENDTAB
  0
TABLE
  2
LAYER
  5
2
330
0
100
AcDbSymbolTable
 70
     2
  0
LAYER
  5
10
330
2
100
AcDbSymbolTableRecord
100
AcDbLayerTableRecord
  2
0
 70
     0
 62
     7
  6
Continuous
370
    -3
390
F
  0
LAYER
  5
C85
330
2
100
AcDbSymbolTableRecord
100
AcDbLayerTableRecord
  2
DEFPOINTS
 70
     0
 62
     7
  6
Continuous
290
     0
370
    -3
390
F
  0
ENDTAB
  0
TABLE
  2
STYLE
  5
3
330
0
100
AcDbSymbolTable
 70
     1
  0
STYLE
  5
11
330
3
100
AcDbSymbolTableRecord
100
AcDbTextStyleTableRecord
  2
Standard
 70
     0
 40
0.0
 41
1.0
 50
0.0
 71
     0
 42
0.2
  3
txt
  4

  0
ENDTAB
  0
TABLE
  2
VIEW
  5
6
330
0
100
AcDbSymbolTable
 70
     0
  0
ENDTAB
  0
TABLE
  2
UCS
  5
7
330
0
100
AcDbSymbolTable
 70
     0
  0
ENDTAB
  0
TABLE
  2
APPID
  5
9
330
0
100
AcDbSymbolTable
 70
     3
  0
APPID
  5
12
330
9
100
AcDbSymbolTableRecord
100
AcDbRegAppTableRecord
  2
ACAD
 70
     0
  0
APPID
  5
F9B
330
9
100
AcDbSymbolTableRecord
100
AcDbRegAppTableRecord
  2
Conv5506CA
 70
     0
  0
APPID
  5
F9C
330
9
100
AcDbSymbolTableRecord
100
AcDbRegAppTableRecord
  2
PROGE_PRINT_SETTINGS
 70
     0
  0
ENDTAB
  0
TABLE
  2
DIMSTYLE
  5
A
330
0
100
AcDbSymbolTable
 70
     1
100
AcDbDimStyleTable
  0
DIMSTYLE
105
27
102
{ACAD_REACTORS
330
C92
330
CEC
330
D5C
330
EFC
102
}
330
A
100
AcDbSymbolTableRecord
100
AcDbDimStyleTableRecord
  2
Standard
 70
     0
340
11
  0
ENDTAB
  0
TABLE
  2
BLOCK_RECORD
  5
1
330
0
100
AcDbSymbolTable
 70
    42
  0
BLOCK_RECORD
  5
1F
330
1
100
AcDbSymbolTableRecord
100
AcDbBlockTableRecord
  2
*Model_Space
340
22
  0
BLOCK_RECORD
  5
73
330
1
100
AcDbSymbolTableRecord
100
AcDbBlockTableRecord
  2
*Paper_Space
340
74
  0
BLOCK_RECORD
  5
C91
330
1
100
AcDbSymbolTableRecord
100
AcDbBlockTableRecord
  2
*D0
340
0
  0
BLOCK_RECORD
  5
C9D
330
1
100
AcDbSymbolTableRecord
100
AcDbBlockTableRecord
  2
*D1
340
0
  0
BLOCK_RECORD
  5
CA8
330
1
100
AcDbSymbolTableRecord
100
AcDbBlockTableRecord
  2
*D2
340
0
  0
BLOCK_RECORD
  5
CB3
330
1
100
AcDbSymbolTableRecord
100
AcDbBlockTableRecord
  2
*D3
340
0
  0
BLOCK_RECORD
  5
CBE
330
1
100
AcDbSymbolTableRecord
100
AcDbBlockTableRecord
  2
*D4
340
0
  0
BLOCK_RECORD
  5
CCA
330
1
100
AcDbSymbolTableRecord
100
AcDbBlockTableRecord
  2
*D5
340
0
  0
BLOCK_RECORD
  5
CD5
330
1
100
AcDbSymbolTableRecord
100
AcDbBlockTableRecord
  2
*D6
340
0
  0
BLOCK_RECORD
  5
CE0
330
1
100
AcDbSymbolTableRecord
100
AcDbBlockTableRecord
  2
*D7
340
0
  0
BLOCK_RECORD
  5
CEB
330
1
100
AcDbSymbolTableRecord
100
AcDbBlockTableRecord
  2
*D8
340
0
  0
BLOCK_RECORD
  5
CF7
330
1
100
AcDbSymbolTableRecord
100
AcDbBlockTableRecord
  2
*D9
340
0
  0
BLOCK_RECORD
  5
D02
330
1
100
AcDbSymbolTableRecord
100
AcDbBlockTableRecord
  2
*D10
340
0
  0
BLOCK_RECORD
  5
D0F
330
1
100
AcDbSymbolTableRecord
100
AcDbBlockTableRecord
  2
*D11
340
0
  0
BLOCK_RECORD
  5
D1C
330
1
100
AcDbSymbolTableRecord
100
AcDbBlockTableRecord
  2
*D12
340
0
  0
BLOCK_RECORD
  5
D29
330
1
100
AcDbSymbolTableRecord
100
AcDbBlockTableRecord
  2
*D13
340
0
  0
BLOCK_RECORD
  5
D36
330
1
100
AcDbSymbolTableRecord
100
AcDbBlockTableRecord
  2
*D14
340
0
  0
BLOCK_RECORD
  5
D43
330
1
100
AcDbSymbolTableRecord
100
AcDbBlockTableRecord
  2
*D15
340
0
  0
BLOCK_RECORD
  5
D50
330
1
100
AcDbSymbolTableRecord
100
AcDbBlockTableRecord
  2
*D16
340
0
  0
BLOCK_RECORD
  5
D5B
330
1
100
AcDbSymbolTableRecord
100
AcDbBlockTableRecord
  2
*D17
340
0
  0
BLOCK_RECORD
  5
D67
330
1
100
AcDbSymbolTableRecord
100
AcDbBlockTableRecord
  2
*D18
340
0
  0
BLOCK_RECORD
  5
D74
330
1
100
AcDbSymbolTableRecord
100
AcDbBlockTableRecord
  2
*D19
340
0
  0
BLOCK_RECORD
  5
D7F
330
1
100
AcDbSymbolTableRecord
100
AcDbBlockTableRecord
  2
*D20
340
0
  0
BLOCK_RECORD
  5
D8A
330
1
100
AcDbSymbolTableRecord
100
AcDbBlockTableRecord
  2
*D21
340
0
  0
BLOCK_RECORD
  5
D95
330
1
100
AcDbSymbolTableRecord
100
AcDbBlockTableRecord
  2
*D22
340
0
  0
BLOCK_RECORD
  5
DDF
330
1
100
AcDbSymbolTableRecord
100
AcDbBlockTableRecord
  2
*D23
340
0
  0
BLOCK_RECORD
  5
DEB
330
1
100
AcDbSymbolTableRecord
100
AcDbBlockTableRecord
  2
*D24
340
0
  0
BLOCK_RECORD
  5
DF7
330
1
100
AcDbSymbolTableRecord
100
AcDbBlockTableRecord
  2
*D25
340
0
  0
BLOCK_RECORD
  5
ED8
330
1
100
AcDbSymbolTableRecord
100
AcDbBlockTableRecord
  2
*D26
340
0
  0
BLOCK_RECORD
  5
EE3
330
1
100
AcDbSymbolTableRecord
100
AcDbBlockTableRecord
  2
*D27
340
0
  0
BLOCK_RECORD
  5
EEF
330
1
100
AcDbSymbolTableRecord
100
AcDbBlockTableRecord
  2
*D28
340
0
  0
BLOCK_RECORD
  5
EFB
330
1
100
AcDbSymbolTableRecord
100
AcDbBlockTableRecord
  2
*D29
340
0
  0
BLOCK_RECORD
  5
F07
330
1
100
AcDbSymbolTableRecord
100
AcDbBlockTableRecord
  2
*D30
340
0
  0
BLOCK_RECORD
  5
F12
330
1
100
AcDbSymbolTableRecord
100
AcDbBlockTableRecord
  2
*D31
340
0
  0
BLOCK_RECORD
  5
F1D
330
1
100
AcDbSymbolTableRecord
100
AcDbBlockTableRecord
  2
*D32
340
0
  0
BLOCK_RECORD
  5
F28
330
1
100
AcDbSymbolTableRecord
100
AcDbBlockTableRecord
  2
*D33
340
0
  0
BLOCK_RECORD
  5
F33
330
1
100
AcDbSymbolTableRecord
100
AcDbBlockTableRecord
  2
*D34
340
0
  0
BLOCK_RECORD
  5
F3E
330
1
100
AcDbSymbolTableRecord
100
AcDbBlockTableRecord
  2
*D35
340
0
  0
BLOCK_RECORD
  5
F49
330
1
100
AcDbSymbolTableRecord
100
AcDbBlockTableRecord
  2
*D36
340
0
  0
BLOCK_RECORD
  5
F54
330
1
100
AcDbSymbolTableRecord
100
AcDbBlockTableRecord
  2
*D37
340
0
  0
BLOCK_RECORD
  5
F5F
330
1
100
AcDbSymbolTableRecord
100
AcDbBlockTableRecord
  2
*D38
340
0
  0
BLOCK_RECORD
  5
F6A
330
1
100
AcDbSymbolTableRecord
100
AcDbBlockTableRecord
  2
*D39
340
0
  0
BLOCK_RECORD
  5
F82
330
1
100
AcDbSymbolTableRecord
100
AcDbBlockTableRecord
  2
*D40
340
0
  0
BLOCK_RECORD
  5
F99
330
1
100
AcDbSymbolTableRecord
100
AcDbBlockTableRecord
  2
*D41
340
0
  0
ENDTAB
  0
ENDSEC
  0
SECTION
  2
BLOCKS
  0
BLOCK
  5
20
330
1F
100
AcDbEntity
  8
0
100
AcDbBlockBegin
  2
*Model_Space
 70
     0
 10
0.0
 20
0.0
 30
0.0
  3
*Model_Space
  1

  0
ENDBLK
  5
21
330
1F
100
AcDbEntity
  8
0
100
AcDbBlockEnd
  0
BLOCK
  5
75
330
73
100
AcDbEntity
 67
     1
  8
0
100
AcDbBlockBegin
  2
*Paper_Space
 70
     0
 10
0.0
 20
0.0
 30
0.0
  3
*Paper_Space
  1

  0
ENDBLK
  5
76
330
73
100
AcDbEntity
 67
     1
  8
0
100
AcDbBlockEnd
  0
BLOCK
  5
FA7
102
{ACAD_REACTORS
330
C92
330
CEC
330
D5C
102
}
330
C91
100
AcDbEntity
  8
0
100
AcDbBlockBegin
  2
*D0
 70
     1
 10
0.0
 20
0.0
 30
0.0
  3
*D0
  1

  0
POINT
  5
C88
330
C91
100
AcDbEntity
  8
DEFPOINTS
  6
ByBlock
 62
     0
380
     1
100
AcDbPoint
 10
9.470123878648394
 20
531.757446
 30
0.0
  0
POINT
  5
C89
330
C91
100
AcDbEntity
  8
DEFPOINTS
  6
ByBlock
 62
     0
380
     1
100
AcDbPoint
 10
9.470123878648394
 20
326.366852
 30
0.0
  0
LINE
  5
C8A
330
C91
100
AcDbEntity
  8
0
  6
ByBlock
 62
     0
370
    -2
380
     1
100
AcDbLine
 10
8.845123878648394
 20
531.757446
 30
0.0
 11
-32.15224369127121
 21
531.757446
 31
0.0
  0
LINE
  5
C8B
330
C91
100
AcDbEntity
  8
0
  6
ByBlock
 62
     0
370
    -2
380
     1
100
AcDbLine
 10
8.845123878648394
 20
326.366852
 30
0.0
 11
-32.15224369127121
 21
326.366852
 31
0.0
  0
LINE
  5
C8C
330
C91
100
AcDbEntity
  8
0
  6
ByBlock
 62
     0
370
    -2
380
     1
100
AcDbLine
 10
-30.90224369127121
 20
529.257446
 30
0.0
 11
-30.90224369127121
 21
328.866852
 31
0.0
  0
SOLID
  5
C8D
330
C91
100
AcDbEntity
  8
0
  6
ByBlock
 62
     0
380
     1
100
AcDbTrace
 10
-30.90224369127121
 20
531.757446
 30
0.0
 11
-31.31891035793787
 21
529.257446
 31
0.0
 12
-30.48557702460455
 22
529.257446
 32
0.0
 13
-30.48557702460455
 23
529.257446
 33
0.0
  0
SOLID
  5
C8E
330
C91
100
AcDbEntity
  8
0
  6
ByBlock
 62
     0
380
     1
100
AcDbTrace
 10
-30.90224369127121
 20
326.366852
 30
0.0
 11
-31.31891035793787
 21
328.866852
 31
0.0
 12
-30.48557702460455
 22
328.866852
 32
0.0
 13
-30.48557702460455
 23
328.866852
 33
0.0
  0
MTEXT
  5
C8F
330
C91
100
AcDbEntity
  8
0
  6
ByBlock
 62
     0
370
    -2
380
     1
100
AcDbMText
 10
-32.98557702460455
 20
429.062149
 30
0.0
 40
2.5
 41
0.0
 71
     5
 72
     1
  1
\A1;205,39
 11
6.123031769111886E-17
 21
1.0
 31
0.0
 73
     1
 44
1.0
  0
ENDBLK
  5
FA8
330
C91
100
AcDbEntity
  8
0
100
AcDbBlockEnd
  0
BLOCK
  5
FA9
330
C9D
100
AcDbEntity
  8
0
100
AcDbBlockBegin
  2
*D1
 70
     1
 10
0.0
 20
0.0
 30
0.0
  3
*D1
  1

  0
POINT
  5
C94
330
C9D
100
AcDbEntity
  8
DEFPOINTS
  6
ByBlock
 62
     0
380
     1
100
AcDbPoint
 10
401.440155
 20
531.851807
 30
0.0
  0
POINT
  5
C95
330
C9D
100
AcDbEntity
  8
DEFPOINTS
  6
ByBlock
 62
     0
380
     1
100
AcDbPoint
 10
434.143372
 20
326.490875
 30
0.0
  0
LINE
  5
C96
330
C9D
100
AcDbEntity
  8
0
  6
ByBlock
 62
     0
370
    -2
380
     1
100
AcDbLine
 10
400.815155
 20
531.851807
 30
0.0
 11
-14.23775987052198
 21
531.851807
 31
0.0
  0
LINE
  5
C97
330
C9D
100
AcDbEntity
  8
0
  6
ByBlock
 62
     0
370
    -2
380
     1
100
AcDbLine
 10
433.518372
 20
326.490875
 30
0.0
 11
-14.23775987052198
 21
326.490875
 31
0.0
  0
LINE
  5
C98
330
C9D
100
AcDbEntity
  8
0
  6
ByBlock
 62
     0
370
    -2
380
     1
100
AcDbLine
 10
-12.98775987052198
 20
529.351807
 30
0.0
 11
-12.98775987052198
 21
328.990875
 31
0.0
  0
SOLID
  5
C99
330
C9D
100
AcDbEntity
  8
0
  6
ByBlock
 62
     0
380
     1
100
AcDbTrace
 10
-12.98775987052198
 20
531.851807
 30
0.0
 11
-13.40442653718867
 21
529.351807
 31
0.0
 12
-12.5710932038553
 22
529.351807
 32
0.0
 13
-12.5710932038553
 23
529.351807
 33
0.0
  0
SOLID
  5
C9A
330
C9D
100
AcDbEntity
  8
0
  6
ByBlock
 62
     0
380
     1
100
AcDbTrace
 10
-12.98775987052198
 20
326.490875
 30
0.0
 11
-13.40442653718867
 21
328.990875
 31
0.0
 12
-12.5710932038553
 22
328.990875
 32
0.0
 13
-12.5710932038553
 23
328.990875
 33
0.0
  0
MTEXT
  5
C9B
330
C9D
100
AcDbEntity
  8
0
  6
ByBlock
 62
     0
370
    -2
380
     1
100
AcDbMText
 10
-15.0710932038553
 20
429.171341
 30
0.0
 40
2.5
 41
0.0
 71
     5
 72
     1
  1
\A1;205,36
 11
6.123031769111886E-17
 21
1.0
 31
0.0
 73
     1
 44
1.0
  0
ENDBLK
  5
FAA
330
C9D
100
AcDbEntity
  8
0
100
AcDbBlockEnd
  0
BLOCK
  5
FAB
330
CA8
100
AcDbEntity
  8
0
100
AcDbBlockBegin
  2
*D2
 70
     1
 10
0.0
 20
0.0
 30
0.0
  3
*D2
  1

  0
POINT
  5
C9F
330
CA8
100
AcDbEntity
  8
DEFPOINTS
  6
ByBlock
 62
     0
380
     1
100
AcDbPoint
 10
401.440155
 20
531.851807
 30
0.0
  0
POINT
  5
CA0
330
CA8
100
AcDbEntity
  8
DEFPOINTS
  6
ByBlock
 62
     0
380
     1
100
AcDbPoint
 10
434.143372
 20
326.490875
 30
0.0
  0
LINE
  5
CA1
330
CA8
100
AcDbEntity
  8
0
  6
ByBlock
 62
     0
370
    -2
380
     1
100
AcDbLine
 10
400.815155
 20
531.851807
 30
0.0
 11
-14.23775987052198
 21
531.851807
 31
0.0
  0
LINE
  5
CA2
330
CA8
100
AcDbEntity
  8
0
  6
ByBlock
 62
     0
370
    -2
380
     1
100
AcDbLine
 10
433.518372
 20
326.490875
 30
0.0
 11
-14.23775987052198
 21
326.490875
 31
0.0
  0
LINE
  5
CA3
330
CA8
100
AcDbEntity
  8
0
  6
ByBlock
 62
     0
370
    -2
380
     1
100
AcDbLine
 10
-12.98775987052198
 20
529.351807
 30
0.0
 11
-12.98775987052198
 21
328.990875
 31
0.0
  0
SOLID
  5
CA4
330
CA8
100
AcDbEntity
  8
0
  6
ByBlock
 62
     0
380
     1
100
AcDbTrace
 10
-12.98775987052198
 20
531.851807
 30
0.0
 11
-13.40442653718867
 21
529.351807
 31
0.0
 12
-12.5710932038553
 22
529.351807
 32
0.0
 13
-12.5710932038553
 23
529.351807
 33
0.0
  0
SOLID
  5
CA5
330
CA8
100
AcDbEntity
  8
0
  6
ByBlock
 62
     0
380
     1
100
AcDbTrace
 10
-12.98775987052198
 20
326.490875
 30
0.0
 11
-13.40442653718867
 21
328.990875
 31
0.0
 12
-12.5710932038553
 22
328.990875
 32
0.0
 13
-12.5710932038553
 23
328.990875
 33
0.0
  0
MTEXT
  5
CA6
330
CA8
100
AcDbEntity
  8
0
  6
ByBlock
 62
     0
370
    -2
380
     1
100
AcDbMText
 10
-15.0710932038553
 20
429.171341
 30
0.0
 40
2.5
 41
0.0
 71
     5
 72
     1
  1
\A1;205,36
 11
6.123031769111886E-17
 21
1.0
 31
0.0
 73
     1
 44
1.0
  0
ENDBLK
  5
FAC
330
CA8
100
AcDbEntity
  8
0
100
AcDbBlockEnd
  0
BLOCK
  5
FAD
330
CB3
100
AcDbEntity
  8
0
100
AcDbBlockBegin
  2
*D3
 70
     1
 10
0.0
 20
0.0
 30
0.0
  3
*D3
  1

  0
POINT
  5
CAA
330
CB3
100
AcDbEntity
  8
DEFPOINTS
  6
ByBlock
 62
     7
380
     1
100
AcDbPoint
 10
401.440155
 20
531.851807
 30
0.0
  0
POINT
  5
CAB
330
CB3
100
AcDbEntity
  8
DEFPOINTS
  6
ByBlock
 62
     7
380
     1
100
AcDbPoint
 10
434.143372
 20
326.490875
 30
0.0
  0
LINE
  5
CAC
330
CB3
100
AcDbEntity
  8
0
  6
ByBlock
 62
     7
370
    -2
380
     1
100
AcDbLine
 10
400.815155
 20
531.851807
 30
0.0
 11
-14.23775987052198
 21
531.851807
 31
0.0
  0
LINE
  5
CAD
330
CB3
100
AcDbEntity
  8
0
  6
ByBlock
 62
     7
370
    -2
380
     1
100
AcDbLine
 10
433.518372
 20
326.490875
 30
0.0
 11
-14.23775987052198
 21
326.490875
 31
0.0
  0
LINE
  5
CAE
330
CB3
100
AcDbEntity
  8
0
  6
ByBlock
 62
     7
370
    -2
380
     1
100
AcDbLine
 10
-12.98775987052198
 20
521.851807
 30
0.0
 11
-12.98775987052198
 21
336.490875
 31
0.0
  0
SOLID
  5
CAF
330
CB3
100
AcDbEntity
  8
0
  6
ByBlock
 62
     7
380
     1
100
AcDbTrace
 10
-12.98775987052198
 20
531.851807
 30
0.0
 11
-14.65442653718867
 21
521.851807
 31
0.0
 12
-11.3210932038553
 22
521.851807
 32
0.0
 13
-11.3210932038553
 23
521.851807
 33
0.0
  0
SOLID
  5
CB0
330
CB3
100
AcDbEntity
  8
0
  6
ByBlock
 62
     7
380
     1
100
AcDbTrace
 10
-12.98775987052198
 20
326.490875
 30
0.0
 11
-14.65442653718867
 21
336.490875
 31
0.0
 12
-11.3210932038553
 22
336.490875
 32
0.0
 13
-11.3210932038553
 23
336.490875
 33
0.0
  0
MTEXT
  5
CB1
330
CB3
100
AcDbEntity
  8
0
  6
ByBlock
 62
     0
370
    -2
380
     1
100
AcDbMText
 10
-26.15442653718867
 20
429.171341
 30
0.0
 40
14.0
 41
0.0
 71
     5
 72
     1
  1
\A1;205,36
 11
6.123031769111886E-17
 21
1.0
 31
0.0
 73
     1
 44
1.0
  0
ENDBLK
  5
FAE
330
CB3
100
AcDbEntity
  8
0
100
AcDbBlockEnd
  0
BLOCK
  5
FAF
330
CBE
100
AcDbEntity
  8
0
100
AcDbBlockBegin
  2
*D4
 70
     1
 10
0.0
 20
0.0
 30
0.0
  3
*D4
  1

  0
POINT
  5
CB5
330
CBE
100
AcDbEntity
  8
DEFPOINTS
  6
ByBlock
 62
     7
380
     1
100
AcDbPoint
 10
401.440155
 20
531.851807
 30
0.0
  0
POINT
  5
CB6
330
CBE
100
AcDbEntity
  8
DEFPOINTS
  6
ByBlock
 62
     7
380
     1
100
AcDbPoint
 10
434.143372
 20
326.490875
 30
0.0
  0
LINE
  5
CB7
330
CBE
100
AcDbEntity
  8
0
  6
ByBlock
 62
     7
370
    -2
380
     1
100
AcDbLine
 10
400.815155
 20
531.851807
 30
0.0
 11
-14.23775987052198
 21
531.851807
 31
0.0
  0
LINE
  5
CB8
330
CBE
100
AcDbEntity
  8
0
  6
ByBlock
 62
     7
370
    -2
380
     1
100
AcDbLine
 10
433.518372
 20
326.490875
 30
0.0
 11
-14.23775987052198
 21
326.490875
 31
0.0
  0
LINE
  5
CB9
330
CBE
100
AcDbEntity
  8
0
  6
ByBlock
 62
     7
370
    -2
380
     1
100
AcDbLine
 10
-12.98775987052198
 20
521.851807
 30
0.0
 11
-12.98775987052198
 21
336.490875
 31
0.0
  0
SOLID
  5
CBA
330
CBE
100
AcDbEntity
  8
0
  6
ByBlock
 62
     7
380
     1
100
AcDbTrace
 10
-12.98775987052198
 20
531.851807
 30
0.0
 11
-14.65442653718867
 21
521.851807
 31
0.0
 12
-11.3210932038553
 22
521.851807
 32
0.0
 13
-11.3210932038553
 23
521.851807
 33
0.0
  0
SOLID
  5
CBB
330
CBE
100
AcDbEntity
  8
0
  6
ByBlock
 62
     7
380
     1
100
AcDbTrace
 10
-12.98775987052198
 20
326.490875
 30
0.0
 11
-14.65442653718867
 21
336.490875
 31
0.0
 12
-11.3210932038553
 22
336.490875
 32
0.0
 13
-11.3210932038553
 23
336.490875
 33
0.0
  0
MTEXT
  5
CBC
330
CBE
100
AcDbEntity
  8
0
  6
ByBlock
 62
     0
370
    -2
380
     1
100
AcDbMText
 10
-24.98775987052198
 20
429.171341
 30
0.0
 40
14.0
 41
0.0
 71
     5
 72
     1
  1
205
 11
6.123031769111886E-17
 21
1.0
 31
0.0
 73
     1
 44
1.0
  0
ENDBLK
  5
FB0
330
CBE
100
AcDbEntity
  8
0
100
AcDbBlockEnd
  0
BLOCK
  5
FB1
330
CCA
100
AcDbEntity
  8
0
100
AcDbBlockBegin
  2
*D5
 70
     1
 10
0.0
 20
0.0
 30
0.0
  3
*D5
  1

  0
POINT
  5
CC1
330
CCA
100
AcDbEntity
  8
DEFPOINTS
  6
ByBlock
 62
     0
380
     1
100
AcDbPoint
 10
23.077789
 20
371.069824
 30
0.0
  0
POINT
  5
CC2
330
CCA
100
AcDbEntity
  8
DEFPOINTS
  6
ByBlock
 62
     0
380
     1
100
AcDbPoint
 10
892.000488
 20
341.6874845
 30
0.0
  0
LINE
  5
CC3
330
CCA
100
AcDbEntity
  8
0
  6
ByBlock
 62
     0
370
    -2
380
     1
100
AcDbLine
 10
23.077789
 20
371.694824
 30
0.0
 11
23.077789
 21
589.7616350743327
 31
0.0
  0
LINE
  5
CC4
330
CCA
100
AcDbEntity
  8
0
  6
ByBlock
 62
     0
370
    -2
380
     1
100
AcDbLine
 10
892.000488
 20
342.3124845
 30
0.0
 11
892.000488
 21
589.7616350743327
 31
0.0
  0
LINE
  5
CC5
330
CCA
100
AcDbEntity
  8
0
  6
ByBlock
 62
     0
370
    -2
380
     1
100
AcDbLine
 10
25.577789
 20
588.5116350743327
 30
0.0
 11
889.500488
 21
588.5116350743327
 31
0.0
  0
SOLID
  5
CC6
330
CCA
100
AcDbEntity
  8
0
  6
ByBlock
 62
     0
380
     1
100
AcDbTrace
 10
23.077789
 20
588.5116350743327
 30
0.0
 11
25.577789
 21
588.0949684076661
 31
0.0
 12
25.577789
 22
588.9283017409994
 32
0.0
 13
25.577789
 23
588.9283017409994
 33
0.0
  0
SOLID
  5
CC7
330
CCA
100
AcDbEntity
  8
0
  6
ByBlock
 62
     0
380
     1
100
AcDbTrace
 10
892.000488
 20
588.5116350743327
 30
0.0
 11
889.500488
 21
588.0949684076661
 31
0.0
 12
889.500488
 22
588.9283017409994
 32
0.0
 13
889.500488
 23
588.9283017409994
 33
0.0
  0
MTEXT
  5
CC8
330
CCA
100
AcDbEntity
  8
0
  6
ByBlock
 62
     0
370
    -2
380
     1
100
AcDbMText
 10
457.5391385
 20
590.5949684076661
 30
0.0
 40
2.5
 41
0.0
 71
     5
 72
     1
  1
\A1;868,92
 73
     1
 44
1.0
  0
ENDBLK
  5
FB2
330
CCA
100
AcDbEntity
  8
0
100
AcDbBlockEnd
  0
BLOCK
  5
FB3
330
CD5
100
AcDbEntity
  8
0
100
AcDbBlockBegin
  2
*D6
 70
     1
 10
0.0
 20
0.0
 30
0.0
  3
*D6
  1

  0
POINT
  5
CCC
330
CD5
100
AcDbEntity
  8
DEFPOINTS
  6
ByBlock
 62
     0
380
     1
100
AcDbPoint
 10
23.077789
 20
371.069824
 30
0.0
  0
POINT
  5
CCD
330
CD5
100
AcDbEntity
  8
DEFPOINTS
  6
ByBlock
 62
     0
380
     1
100
AcDbPoint
 10
892.000488
 20
341.6874845
 30
0.0
  0
LINE
  5
CCE
330
CD5
100
AcDbEntity
  8
0
  6
ByBlock
 62
     0
370
    -2
380
     1
100
AcDbLine
 10
23.077789
 20
371.694824
 30
0.0
 11
23.077789
 21
589.7616350743327
 31
0.0
  0
LINE
  5
CCF
330
CD5
100
AcDbEntity
  8
0
  6
ByBlock
 62
     0
370
    -2
380
     1
100
AcDbLine
 10
892.000488
 20
342.3124845
 30
0.0
 11
892.000488
 21
589.7616350743327
 31
0.0
  0
LINE
  5
CD0
330
CD5
100
AcDbEntity
  8
0
  6
ByBlock
 62
     0
370
    -2
380
     1
100
AcDbLine
 10
25.577789
 20
588.5116350743327
 30
0.0
 11
889.500488
 21
588.5116350743327
 31
0.0
  0
SOLID
  5
CD1
330
CD5
100
AcDbEntity
  8
0
  6
ByBlock
 62
     0
380
     1
100
AcDbTrace
 10
23.077789
 20
588.5116350743327
 30
0.0
 11
25.577789
 21
588.0949684076661
 31
0.0
 12
25.577789
 22
588.9283017409994
 32
0.0
 13
25.577789
 23
588.9283017409994
 33
0.0
  0
SOLID
  5
CD2
330
CD5
100
AcDbEntity
  8
0
  6
ByBlock
 62
     0
380
     1
100
AcDbTrace
 10
892.000488
 20
588.5116350743327
 30
0.0
 11
889.500488
 21
588.0949684076661
 31
0.0
 12
889.500488
 22
588.9283017409994
 32
0.0
 13
889.500488
 23
588.9283017409994
 33
0.0
  0
MTEXT
  5
CD3
330
CD5
100
AcDbEntity
  8
0
  6
ByBlock
 62
     0
370
    -2
380
     1
100
AcDbMText
 10
457.5391385
 20
590.5949684076661
 30
0.0
 40
2.5
 41
0.0
 71
     5
 72
     1
  1
\A1;868,92
 73
     1
 44
1.0
  0
ENDBLK
  5
FB4
330
CD5
100
AcDbEntity
  8
0
100
AcDbBlockEnd
  0
BLOCK
  5
FB5
330
CE0
100
AcDbEntity
  8
0
100
AcDbBlockBegin
  2
*D7
 70
     1
 10
0.0
 20
0.0
 30
0.0
  3
*D7
  1

  0
POINT
  5
CD7
330
CE0
100
AcDbEntity
  8
DEFPOINTS
  6
ByBlock
 62
     7
380
     1
100
AcDbPoint
 10
23.077789
 20
371.069824
 30
0.0
  0
POINT
  5
CD8
330
CE0
100
AcDbEntity
  8
DEFPOINTS
  6
ByBlock
 62
     7
380
     1
100
AcDbPoint
 10
892.000488
 20
341.6874845
 30
0.0
  0
LINE
  5
CD9
330
CE0
100
AcDbEntity
  8
0
  6
ByBlock
 62
     7
370
    -2
380
     1
100
AcDbLine
 10
23.077789
 20
371.694824
 30
0.0
 11
23.077789
 21
589.7616350743327
 31
0.0
  0
LINE
  5
CDA
330
CE0
100
AcDbEntity
  8
0
  6
ByBlock
 62
     7
370
    -2
380
     1
100
AcDbLine
 10
892.000488
 20
342.3124845
 30
0.0
 11
892.000488
 21
589.7616350743327
 31
0.0
  0
LINE
  5
CDB
330
CE0
100
AcDbEntity
  8
0
  6
ByBlock
 62
     7
370
    -2
380
     1
100
AcDbLine
 10
33.077789
 20
588.5116350743327
 30
0.0
 11
882.000488
 21
588.5116350743327
 31
0.0
  0
SOLID
  5
CDC
330
CE0
100
AcDbEntity
  8
0
  6
ByBlock
 62
     7
380
     1
100
AcDbTrace
 10
23.077789
 20
588.5116350743327
 30
0.0
 11
33.077789
 21
586.8449684076661
 31
0.0
 12
33.077789
 22
590.1783017409994
 32
0.0
 13
33.077789
 23
590.1783017409994
 33
0.0
  0
SOLID
  5
CDD
330
CE0
100
AcDbEntity
  8
0
  6
ByBlock
 62
     7
380
     1
100
AcDbTrace
 10
892.000488
 20
588.5116350743327
 30
0.0
 11
882.000488
 21
586.8449684076661
 31
0.0
 12
882.000488
 22
590.1783017409994
 32
0.0
 13
882.000488
 23
590.1783017409994
 33
0.0
  0
MTEXT
  5
CDE
330
CE0
100
AcDbEntity
  8
0
  6
ByBlock
 62
     0
370
    -2
380
     1
100
AcDbMText
 10
457.5391385
 20
601.6783017409994
 30
0.0
 40
14.0
 41
0.0
 71
     5
 72
     1
  1
\A1;868,92
 73
     1
 44
1.0
  0
ENDBLK
  5
FB6
330
CE0
100
AcDbEntity
  8
0
100
AcDbBlockEnd
  0
BLOCK
  5
FB7
330
CEB
100
AcDbEntity
  8
0
100
AcDbBlockBegin
  2
*D8
 70
     1
 10
0.0
 20
0.0
 30
0.0
  3
*D8
  1

  0
POINT
  5
CE2
330
CEB
100
AcDbEntity
  8
DEFPOINTS
  6
ByBlock
 62
     7
380
     1
100
AcDbPoint
 10
23.077789
 20
371.069824
 30
0.0
  0
POINT
  5
CE3
330
CEB
100
AcDbEntity
  8
DEFPOINTS
  6
ByBlock
 62
     7
380
     1
100
AcDbPoint
 10
892.000488
 20
341.6874845
 30
0.0
  0
LINE
  5
CE4
330
CEB
100
AcDbEntity
  8
0
  6
ByBlock
 62
     7
370
    -2
380
     1
100
AcDbLine
 10
23.077789
 20
371.694824
 30
0.0
 11
23.077789
 21
589.7616350743327
 31
0.0
  0
LINE
  5
CE5
330
CEB
100
AcDbEntity
  8
0
  6
ByBlock
 62
     7
370
    -2
380
     1
100
AcDbLine
 10
892.000488
 20
342.3124845
 30
0.0
 11
892.000488
 21
589.7616350743327
 31
0.0
  0
LINE
  5
CE6
330
CEB
100
AcDbEntity
  8
0
  6
ByBlock
 62
     7
370
    -2
380
     1
100
AcDbLine
 10
33.077789
 20
588.5116350743327
 30
0.0
 11
882.000488
 21
588.5116350743327
 31
0.0
  0
SOLID
  5
CE7
330
CEB
100
AcDbEntity
  8
0
  6
ByBlock
 62
     7
380
     1
100
AcDbTrace
 10
23.077789
 20
588.5116350743327
 30
0.0
 11
33.077789
 21
586.8449684076661
 31
0.0
 12
33.077789
 22
590.1783017409994
 32
0.0
 13
33.077789
 23
590.1783017409994
 33
0.0
  0
SOLID
  5
CE8
330
CEB
100
AcDbEntity
  8
0
  6
ByBlock
 62
     7
380
     1
100
AcDbTrace
 10
892.000488
 20
588.5116350743327
 30
0.0
 11
882.000488
 21
586.8449684076661
 31
0.0
 12
882.000488
 22
590.1783017409994
 32
0.0
 13
882.000488
 23
590.1783017409994
 33
0.0
  0
MTEXT
  5
CE9
330
CEB
100
AcDbEntity
  8
0
  6
ByBlock
 62
     0
370
    -2
380
     1
100
AcDbMText
 10
457.5391385
 20
600.5116350743327
 30
0.0
 40
14.0
 41
0.0
 71
     5
 72
     1
  1
869
 73
     1
 44
1.0
  0
ENDBLK
  5
FB8
330
CEB
100
AcDbEntity
  8
0
100
AcDbBlockEnd
  0
BLOCK
  5
FB9
330
CF7
100
AcDbEntity
  8
0
100
AcDbBlockBegin
  2
*D9
 70
     1
 10
0.0
 20
0.0
 30
0.0
  3
*D9
  1

  0
POINT
  5
CEE
330
CF7
100
AcDbEntity
  8
DEFPOINTS
  6
ByBlock
 62
     0
380
     1
100
AcDbPoint
 10
768.080078
 20
226.2862095
 30
0.0
  0
POINT
  5
CEF
330
CF7
100
AcDbEntity
  8
DEFPOINTS
  6
ByBlock
 62
     0
380
     1
100
AcDbPoint
 10
842.803589
 20
226.2862095
 30
0.0
  0
LINE
  5
CF0
330
CF7
100
AcDbEntity
  8
0
  6
ByBlock
 62
     0
370
    -2
380
     1
100
AcDbLine
 10
768.080078
 20
225.6612095
 30
0.0
 11
768.080078
 21
160.0890135807826
 31
0.0
  0
LINE
  5
CF1
330
CF7
100
AcDbEntity
  8
0
  6
ByBlock
 62
     0
370
    -2
380
     1
100
AcDbLine
 10
842.803589
 20
225.6612095
 30
0.0
 11
842.803589
 21
160.0890135807826
 31
0.0
  0
LINE
  5
CF2
330
CF7
100
AcDbEntity
  8
0
  6
ByBlock
 62
     0
370
    -2
380
     1
100
AcDbLine
 10
770.580078
 20
161.3390135807826
 30
0.0
 11
840.303589
 21
161.3390135807826
 31
0.0
  0
SOLID
  5
CF3
330
CF7
100
AcDbEntity
  8
0
  6
ByBlock
 62
     0
380
     1
100
AcDbTrace
 10
768.080078
 20
161.3390135807826
 30
0.0
 11
770.580078
 21
160.922346914116
 31
0.0
 12
770.580078
 22
161.7556802474493
 32
0.0
 13
770.580078
 23
161.7556802474493
 33
0.0
  0
SOLID
  5
CF4
330
CF7
100
AcDbEntity
  8
0
  6
ByBlock
 62
     0
380
     1
100
AcDbTrace
 10
842.803589
 20
161.3390135807826
 30
0.0
 11
840.303589
 21
160.922346914116
 31
0.0
 12
840.303589
 22
161.7556802474493
 32
0.0
 13
840.303589
 23
161.7556802474493
 33
0.0
  0
MTEXT
  5
CF5
330
CF7
100
AcDbEntity
  8
0
  6
ByBlock
 62
     0
370
    -2
380
     1
100
AcDbMText
 10
805.4418335
 20
163.422346914116
 30
0.0
 40
2.5
 41
0.0
 71
     5
 72
     1
  1
\A1;74,72
 73
     1
 44
1.0
  0
ENDBLK
  5
FBA
330
CF7
100
AcDbEntity
  8
0
100
AcDbBlockEnd
  0
BLOCK
  5
FBB
330
D02
100
AcDbEntity
  8
0
100
AcDbBlockBegin
  2
*D10
 70
     1
 10
0.0
 20
0.0
 30
0.0
  3
*D10
  1

  0
POINT
  5
CF9
330
D02
100
AcDbEntity
  8
DEFPOINTS
  6
ByBlock
 62
     0
380
     1
100
AcDbPoint
 10
768.080078
 20
226.2862095
 30
0.0
  0
POINT
  5
CFA
330
D02
100
AcDbEntity
  8
DEFPOINTS
  6
ByBlock
 62
     0
380
     1
100
AcDbPoint
 10
842.803589
 20
226.2862095
 30
0.0
  0
LINE
  5
CFB
330
D02
100
AcDbEntity
  8
0
  6
ByBlock
 62
     0
370
    -2
380
     1
100
AcDbLine
 10
768.080078
 20
225.6612095
 30
0.0
 11
768.080078
 21
160.0890135807826
 31
0.0
  0
LINE
  5
CFC
330
D02
100
AcDbEntity
  8
0
  6
ByBlock
 62
     0
370
    -2
380
     1
100
AcDbLine
 10
842.803589
 20
225.6612095
 30
0.0
 11
842.803589
 21
160.0890135807826
 31
0.0
  0
LINE
  5
CFD
330
D02
100
AcDbEntity
  8
0
  6
ByBlock
 62
     0
370
    -2
380
     1
100
AcDbLine
 10
770.580078
 20
161.3390135807826
 30
0.0
 11
840.303589
 21
161.3390135807826
 31
0.0
  0
SOLID
  5
CFE
330
D02
100
AcDbEntity
  8
0
  6
ByBlock
 62
     0
380
     1
100
AcDbTrace
 10
768.080078
 20
161.3390135807826
 30
0.0
 11
770.580078
 21
160.922346914116
 31
0.0
 12
770.580078
 22
161.7556802474493
 32
0.0
 13
770.580078
 23
161.7556802474493
 33
0.0
  0
SOLID
  5
CFF
330
D02
100
AcDbEntity
  8
0
  6
ByBlock
 62
     0
380
     1
100
AcDbTrace
 10
842.803589
 20
161.3390135807826
 30
0.0
 11
840.303589
 21
160.922346914116
 31
0.0
 12
840.303589
 22
161.7556802474493
 32
0.0
 13
840.303589
 23
161.7556802474493
 33
0.0
  0
MTEXT
  5
D00
330
D02
100
AcDbEntity
  8
0
  6
ByBlock
 62
     0
370
    -2
380
     1
100
AcDbMText
 10
805.4418335
 20
163.422346914116
 30
0.0
 40
2.5
 41
0.0
 71
     5
 72
     1
  1
\A1;74,72
 73
     1
 44
1.0
  0
ENDBLK
  5
FBC
330
D02
100
AcDbEntity
  8
0
100
AcDbBlockEnd
  0
BLOCK
  5
FBD
330
D0F
100
AcDbEntity
  8
0
100
AcDbBlockBegin
  2
*D11
 70
     1
 10
0.0
 20
0.0
 30
0.0
  3
*D11
  1

  0
POINT
  5
D04
330
D0F
100
AcDbEntity
  8
DEFPOINTS
  6
ByBlock
 62
     7
380
     1
100
AcDbPoint
 10
768.080078
 20
226.2862095
 30
0.0
  0
POINT
  5
D05
330
D0F
100
AcDbEntity
  8
DEFPOINTS
  6
ByBlock
 62
     7
380
     1
100
AcDbPoint
 10
842.803589
 20
226.2862095
 30
0.0
  0
LINE
  5
D06
330
D0F
100
AcDbEntity
  8
0
  6
ByBlock
 62
     7
370
    -2
380
     1
100
AcDbLine
 10
768.080078
 20
225.6612095
 30
0.0
 11
768.080078
 21
160.0890135807826
 31
0.0
  0
LINE
  5
D07
330
D0F
100
AcDbEntity
  8
0
  6
ByBlock
 62
     7
370
    -2
380
     1
100
AcDbLine
 10
842.803589
 20
225.6612095
 30
0.0
 11
842.803589
 21
160.0890135807826
 31
0.0
  0
LINE
  5
D08
330
D0F
100
AcDbEntity
  8
0
  6
ByBlock
 62
     7
370
    -2
380
     1
100
AcDbLine
 10
758.080078
 20
161.3390135807826
 30
0.0
 11
748.080078
 21
161.3390135807826
 31
0.0
  0
LINE
  5
D09
330
D0F
100
AcDbEntity
  8
0
  6
ByBlock
 62
     7
370
    -2
380
     1
100
AcDbLine
 10
852.803589
 20
161.3390135807826
 30
0.0
 11
862.803589
 21
161.3390135807826
 31
0.0
  0
SOLID
  5
D0A
330
D0F
100
AcDbEntity
  8
0
  6
ByBlock
 62
     7
380
     1
100
AcDbTrace
 10
768.080078
 20
161.3390135807826
 30
0.0
 11
758.080078
 21
159.672346914116
 31
0.0
 12
758.080078
 22
163.0056802474493
 32
0.0
 13
758.080078
 23
163.0056802474493
 33
0.0
  0
SOLID
  5
D0B
330
D0F
100
AcDbEntity
  8
0
  6
ByBlock
 62
     7
380
     1
100
AcDbTrace
 10
842.803589
 20
161.3390135807826
 30
0.0
 11
852.803589
 21
159.672346914116
 31
0.0
 12
852.803589
 22
163.0056802474493
 32
0.0
 13
852.803589
 23
163.0056802474493
 33
0.0
  0
LINE
  5
D0C
330
D0F
100
AcDbEntity
  8
0
  6
ByBlock
 62
     7
370
    -2
380
     1
100
AcDbLine
 10
768.080078
 20
161.3390135807826
 30
0.0
 11
842.803589
 21
161.3390135807826
 31
0.0
  0
MTEXT
  5
D0D
330
D0F
100
AcDbEntity
  8
0
  6
ByBlock
 62
     0
370
    -2
380
     1
100
AcDbMText
 10
805.4418335
 20
174.5056802474493
 30
0.0
 40
14.0
 41
0.0
 71
     5
 72
     1
  1
\A1;74,72
 73
     1
 44
1.0
  0
ENDBLK
  5
FBE
330
D0F
100
AcDbEntity
  8
0
100
AcDbBlockEnd
  0
BLOCK
  5
FBF
330
D1C
100
AcDbEntity
  8
0
100
AcDbBlockBegin
  2
*D12
 70
     1
 10
0.0
 20
0.0
 30
0.0
  3
*D12
  1

  0
POINT
  5
D11
330
D1C
100
AcDbEntity
  8
DEFPOINTS
  6
ByBlock
 62
     7
380
     1
100
AcDbPoint
 10
768.080078
 20
226.2862095
 30
0.0
  0
POINT
  5
D12
330
D1C
100
AcDbEntity
  8
DEFPOINTS
  6
ByBlock
 62
     7
380
     1
100
AcDbPoint
 10
842.803589
 20
226.2862095
 30
0.0
  0
LINE
  5
D13
330
D1C
100
AcDbEntity
  8
0
  6
ByBlock
 62
     7
370
    -2
380
     1
100
AcDbLine
 10
768.080078
 20
225.6612095
 30
0.0
 11
768.080078
 21
160.0890135807826
 31
0.0
  0
LINE
  5
D14
330
D1C
100
AcDbEntity
  8
0
  6
ByBlock
 62
     7
370
    -2
380
     1
100
AcDbLine
 10
842.803589
 20
225.6612095
 30
0.0
 11
842.803589
 21
160.0890135807826
 31
0.0
  0
LINE
  5
D15
330
D1C
100
AcDbEntity
  8
0
  6
ByBlock
 62
     7
370
    -2
380
     1
100
AcDbLine
 10
758.080078
 20
161.3390135807826
 30
0.0
 11
748.080078
 21
161.3390135807826
 31
0.0
  0
LINE
  5
D16
330
D1C
100
AcDbEntity
  8
0
  6
ByBlock
 62
     7
370
    -2
380
     1
100
AcDbLine
 10
852.803589
 20
161.3390135807826
 30
0.0
 11
862.803589
 21
161.3390135807826
 31
0.0
  0
SOLID
  5
D17
330
D1C
100
AcDbEntity
  8
0
  6
ByBlock
 62
     7
380
     1
100
AcDbTrace
 10
768.080078
 20
161.3390135807826
 30
0.0
 11
758.080078
 21
159.672346914116
 31
0.0
 12
758.080078
 22
163.0056802474493
 32
0.0
 13
758.080078
 23
163.0056802474493
 33
0.0
  0
SOLID
  5
D18
330
D1C
100
AcDbEntity
  8
0
  6
ByBlock
 62
     7
380
     1
100
AcDbTrace
 10
842.803589
 20
161.3390135807826
 30
0.0
 11
852.803589
 21
159.672346914116
 31
0.0
 12
852.803589
 22
163.0056802474493
 32
0.0
 13
852.803589
 23
163.0056802474493
 33
0.0
  0
LINE
  5
D19
330
D1C
100
AcDbEntity
  8
0
  6
ByBlock
 62
     7
370
    -2
380
     1
100
AcDbLine
 10
768.080078
 20
161.3390135807826
 30
0.0
 11
842.803589
 21
161.3390135807826
 31
0.0
  0
MTEXT
  5
D1A
330
D1C
100
AcDbEntity
  8
0
  6
ByBlock
 62
     0
370
    -2
380
     1
100
AcDbMText
 10
805.4418335
 20
174.5056802474493
 30
0.0
 40
14.0
 41
0.0
 71
     5
 72
     1
  1
\A1;74,72
 73
     1
 44
1.0
  0
ENDBLK
  5
FC0
330
D1C
100
AcDbEntity
  8
0
100
AcDbBlockEnd
  0
BLOCK
  5
FC1
330
D29
100
AcDbEntity
  8
0
100
AcDbBlockBegin
  2
*D13
 70
     1
 10
0.0
 20
0.0
 30
0.0
  3
*D13
  1

  0
POINT
  5
D1E
330
D29
100
AcDbEntity
  8
DEFPOINTS
  6
ByBlock
 62
     7
380
     1
100
AcDbPoint
 10
768.080078
 20
226.2862095
 30
0.0
  0
POINT
  5
D1F
330
D29
100
AcDbEntity
  8
DEFPOINTS
  6
ByBlock
 62
     7
380
     1
100
AcDbPoint
 10
842.803589
 20
226.2862095
 30
0.0
  0
LINE
  5
D20
330
D29
100
AcDbEntity
  8
0
  6
ByBlock
 62
     7
370
    -2
380
     1
100
AcDbLine
 10
768.080078
 20
225.6612095
 30
0.0
 11
768.080078
 21
149.4403885018293
 31
0.0
  0
LINE
  5
D21
330
D29
100
AcDbEntity
  8
0
  6
ByBlock
 62
     7
370
    -2
380
     1
100
AcDbLine
 10
842.803589
 20
225.6612095
 30
0.0
 11
842.803589
 21
149.4403885018293
 31
0.0
  0
LINE
  5
D22
330
D29
100
AcDbEntity
  8
0
  6
ByBlock
 62
     7
370
    -2
380
     1
100
AcDbLine
 10
758.080078
 20
150.6903885018293
 30
0.0
 11
748.080078
 21
150.6903885018293
 31
0.0
  0
LINE
  5
D23
330
D29
100
AcDbEntity
  8
0
  6
ByBlock
 62
     7
370
    -2
380
     1
100
AcDbLine
 10
852.803589
 20
150.6903885018293
 30
0.0
 11
862.803589
 21
150.6903885018293
 31
0.0
  0
SOLID
  5
D24
330
D29
100
AcDbEntity
  8
0
  6
ByBlock
 62
     7
380
     1
100
AcDbTrace
 10
768.080078
 20
150.6903885018293
 30
0.0
 11
758.080078
 21
149.0237218351627
 31
0.0
 12
758.080078
 22
152.357055168496
 32
0.0
 13
758.080078
 23
152.357055168496
 33
0.0
  0
SOLID
  5
D25
330
D29
100
AcDbEntity
  8
0
  6
ByBlock
 62
     7
380
     1
100
AcDbTrace
 10
842.803589
 20
150.6903885018293
 30
0.0
 11
852.803589
 21
149.0237218351627
 31
0.0
 12
852.803589
 22
152.357055168496
 32
0.0
 13
852.803589
 23
152.357055168496
 33
0.0
  0
LINE
  5
D26
330
D29
100
AcDbEntity
  8
0
  6
ByBlock
 62
     7
370
    -2
380
     1
100
AcDbLine
 10
768.080078
 20
150.6903885018293
 30
0.0
 11
842.803589
 21
150.6903885018293
 31
0.0
  0
MTEXT
  5
D27
330
D29
100
AcDbEntity
  8
0
  6
ByBlock
 62
     0
370
    -2
380
     1
100
AcDbMText
 10
805.4418335
 20
163.857055168496
 30
0.0
 40
14.0
 41
0.0
 71
     5
 72
     1
  1
\A1;74,72
 73
     1
 44
1.0
  0
ENDBLK
  5
FC2
330
D29
100
AcDbEntity
  8
0
100
AcDbBlockEnd
  0
BLOCK
  5
FC3
330
D36
100
AcDbEntity
  8
0
100
AcDbBlockBegin
  2
*D14
 70
     1
 10
0.0
 20
0.0
 30
0.0
  3
*D14
  1

  0
POINT
  5
D2B
330
D36
100
AcDbEntity
  8
DEFPOINTS
  6
ByBlock
 62
     7
380
     1
100
AcDbPoint
 10
768.080078
 20
226.2862095
 30
0.0
  0
POINT
  5
D2C
330
D36
100
AcDbEntity
  8
DEFPOINTS
  6
ByBlock
 62
     7
380
     1
100
AcDbPoint
 10
842.803589
 20
226.2862095
 30
0.0
  0
LINE
  5
D2D
330
D36
100
AcDbEntity
  8
0
  6
ByBlock
 62
     7
370
    -2
380
     1
100
AcDbLine
 10
768.080078
 20
225.6612095
 30
0.0
 11
768.080078
 21
162.607055168496
 31
0.0
  0
LINE
  5
D2E
330
D36
100
AcDbEntity
  8
0
  6
ByBlock
 62
     7
370
    -2
380
     1
100
AcDbLine
 10
842.803589
 20
225.6612095
 30
0.0
 11
842.803589
 21
162.607055168496
 31
0.0
  0
LINE
  5
D2F
330
D36
100
AcDbEntity
  8
0
  6
ByBlock
 62
     7
370
    -2
380
     1
100
AcDbLine
 10
758.080078
 20
163.857055168496
 30
0.0
 11
748.080078
 21
163.857055168496
 31
0.0
  0
LINE
  5
D30
330
D36
100
AcDbEntity
  8
0
  6
ByBlock
 62
     7
370
    -2
380
     1
100
AcDbLine
 10
852.803589
 20
163.857055168496
 30
0.0
 11
862.803589
 21
163.857055168496
 31
0.0
  0
SOLID
  5
D31
330
D36
100
AcDbEntity
  8
0
  6
ByBlock
 62
     7
380
     1
100
AcDbTrace
 10
768.080078
 20
163.857055168496
 30
0.0
 11
758.080078
 21
162.1903885018293
 31
0.0
 12
758.080078
 22
165.5237218351627
 32
0.0
 13
758.080078
 23
165.5237218351627
 33
0.0
  0
SOLID
  5
D32
330
D36
100
AcDbEntity
  8
0
  6
ByBlock
 62
     7
380
     1
100
AcDbTrace
 10
842.803589
 20
163.857055168496
 30
0.0
 11
852.803589
 21
162.1903885018293
 31
0.0
 12
852.803589
 22
165.5237218351627
 32
0.0
 13
852.803589
 23
165.5237218351627
 33
0.0
  0
LINE
  5
D33
330
D36
100
AcDbEntity
  8
0
  6
ByBlock
 62
     7
370
    -2
380
     1
100
AcDbLine
 10
768.080078
 20
163.857055168496
 30
0.0
 11
842.803589
 21
163.857055168496
 31
0.0
  0
MTEXT
  5
D34
330
D36
100
AcDbEntity
  8
0
  6
ByBlock
 62
     0
370
    -2
380
     1
100
AcDbMText
 10
805.4418335
 20
177.0237218351627
 30
0.0
 40
14.0
 41
0.0
 71
     5
 72
     1
  1
\A1;74,72
 73
     1
 44
1.0
  0
ENDBLK
  5
FC4
330
D36
100
AcDbEntity
  8
0
100
AcDbBlockEnd
  0
BLOCK
  5
FC5
330
D43
100
AcDbEntity
  8
0
100
AcDbBlockBegin
  2
*D15
 70
     1
 10
0.0
 20
0.0
 30
0.0
  3
*D15
  1

  0
POINT
  5
D38
330
D43
100
AcDbEntity
  8
DEFPOINTS
  6
ByBlock
 62
     7
380
     1
100
AcDbPoint
 10
768.080078
 20
226.2862095
 30
0.0
  0
POINT
  5
D39
330
D43
100
AcDbEntity
  8
DEFPOINTS
  6
ByBlock
 62
     7
380
     1
100
AcDbPoint
 10
842.803589
 20
226.2862095
 30
0.0
  0
LINE
  5
D3A
330
D43
100
AcDbEntity
  8
0
  6
ByBlock
 62
     7
370
    -2
380
     1
100
AcDbLine
 10
768.080078
 20
225.6612095
 30
0.0
 11
768.080078
 21
110.4888388709212
 31
0.0
  0
LINE
  5
D3B
330
D43
100
AcDbEntity
  8
0
  6
ByBlock
 62
     7
370
    -2
380
     1
100
AcDbLine
 10
842.803589
 20
225.6612095
 30
0.0
 11
842.803589
 21
110.4888388709212
 31
0.0
  0
LINE
  5
D3C
330
D43
100
AcDbEntity
  8
0
  6
ByBlock
 62
     7
370
    -2
380
     1
100
AcDbLine
 10
758.080078
 20
111.7388388709212
 30
0.0
 11
748.080078
 21
111.7388388709212
 31
0.0
  0
LINE
  5
D3D
330
D43
100
AcDbEntity
  8
0
  6
ByBlock
 62
     7
370
    -2
380
     1
100
AcDbLine
 10
852.803589
 20
111.7388388709212
 30
0.0
 11
862.803589
 21
111.7388388709212
 31
0.0
  0
SOLID
  5
D3E
330
D43
100
AcDbEntity
  8
0
  6
ByBlock
 62
     7
380
     1
100
AcDbTrace
 10
768.080078
 20
111.7388388709212
 30
0.0
 11
758.080078
 21
110.0721722042546
 31
0.0
 12
758.080078
 22
113.4055055375879
 32
0.0
 13
758.080078
 23
113.4055055375879
 33
0.0
  0
SOLID
  5
D3F
330
D43
100
AcDbEntity
  8
0
  6
ByBlock
 62
     7
380
     1
100
AcDbTrace
 10
842.803589
 20
111.7388388709212
 30
0.0
 11
852.803589
 21
110.0721722042546
 31
0.0
 12
852.803589
 22
113.4055055375879
 32
0.0
 13
852.803589
 23
113.4055055375879
 33
0.0
  0
LINE
  5
D40
330
D43
100
AcDbEntity
  8
0
  6
ByBlock
 62
     7
370
    -2
380
     1
100
AcDbLine
 10
768.080078
 20
111.7388388709212
 30
0.0
 11
842.803589
 21
111.7388388709212
 31
0.0
  0
MTEXT
  5
D41
330
D43
100
AcDbEntity
  8
0
  6
ByBlock
 62
     0
370
    -2
380
     1
100
AcDbMText
 10
805.4418335
 20
124.9055055375879
 30
0.0
 40
14.0
 41
0.0
 71
     5
 72
     1
  1
\A1;74,72
 73
     1
 44
1.0
  0
ENDBLK
  5
FC6
330
D43
100
AcDbEntity
  8
0
100
AcDbBlockEnd
  0
BLOCK
  5
FC7
330
D50
100
AcDbEntity
  8
0
100
AcDbBlockBegin
  2
*D16
 70
     1
 10
0.0
 20
0.0
 30
0.0
  3
*D16
  1

  0
POINT
  5
D45
330
D50
100
AcDbEntity
  8
DEFPOINTS
  6
ByBlock
 62
     7
380
     1
100
AcDbPoint
 10
768.080078
 20
226.2862095
 30
0.0
  0
POINT
  5
D46
330
D50
100
AcDbEntity
  8
DEFPOINTS
  6
ByBlock
 62
     7
380
     1
100
AcDbPoint
 10
842.803589
 20
226.2862095
 30
0.0
  0
LINE
  5
D47
330
D50
100
AcDbEntity
  8
0
  6
ByBlock
 62
     7
370
    -2
380
     1
100
AcDbLine
 10
768.080078
 20
225.6612095
 30
0.0
 11
768.080078
 21
155.3251549928299
 31
0.0
  0
LINE
  5
D48
330
D50
100
AcDbEntity
  8
0
  6
ByBlock
 62
     7
370
    -2
380
     1
100
AcDbLine
 10
842.803589
 20
225.6612095
 30
0.0
 11
842.803589
 21
155.3251549928299
 31
0.0
  0
LINE
  5
D49
330
D50
100
AcDbEntity
  8
0
  6
ByBlock
 62
     7
370
    -2
380
     1
100
AcDbLine
 10
758.080078
 20
156.5751549928299
 30
0.0
 11
748.080078
 21
156.5751549928299
 31
0.0
  0
LINE
  5
D4A
330
D50
100
AcDbEntity
  8
0
  6
ByBlock
 62
     7
370
    -2
380
     1
100
AcDbLine
 10
852.803589
 20
156.5751549928299
 30
0.0
 11
862.803589
 21
156.5751549928299
 31
0.0
  0
SOLID
  5
D4B
330
D50
100
AcDbEntity
  8
0
  6
ByBlock
 62
     7
380
     1
100
AcDbTrace
 10
768.080078
 20
156.5751549928299
 30
0.0
 11
758.080078
 21
154.9084883261632
 31
0.0
 12
758.080078
 22
158.2418216594965
 32
0.0
 13
758.080078
 23
158.2418216594965
 33
0.0
  0
SOLID
  5
D4C
330
D50
100
AcDbEntity
  8
0
  6
ByBlock
 62
     7
380
     1
100
AcDbTrace
 10
842.803589
 20
156.5751549928299
 30
0.0
 11
852.803589
 21
154.9084883261632
 31
0.0
 12
852.803589
 22
158.2418216594965
 32
0.0
 13
852.803589
 23
158.2418216594965
 33
0.0
  0
LINE
  5
D4D
330
D50
100
AcDbEntity
  8
0
  6
ByBlock
 62
     7
370
    -2
380
     1
100
AcDbLine
 10
768.080078
 20
156.5751549928299
 30
0.0
 11
842.803589
 21
156.5751549928299
 31
0.0
  0
MTEXT
  5
D4E
330
D50
100
AcDbEntity
  8
0
  6
ByBlock
 62
     0
370
    -2
380
     1
100
AcDbMText
 10
805.4418335
 20
169.7418216594965
 30
0.0
 40
14.0
 41
0.0
 71
     5
 72
     1
  1
\A1;74,72
 73
     1
 44
1.0
  0
ENDBLK
  5
FC8
330
D50
100
AcDbEntity
  8
0
100
AcDbBlockEnd
  0
BLOCK
  5
FC9
330
D5B
100
AcDbEntity
  8
0
100
AcDbBlockBegin
  2
*D17
 70
     1
 10
0.0
 20
0.0
 30
0.0
  3
*D17
  1

  0
POINT
  5
D52
330
D5B
100
AcDbEntity
  8
DEFPOINTS
  6
ByBlock
 62
     7
380
     1
100
AcDbPoint
 10
768.080078
 20
226.2862095
 30
0.0
  0
POINT
  5
D53
330
D5B
100
AcDbEntity
  8
DEFPOINTS
  6
ByBlock
 62
     7
380
     1
100
AcDbPoint
 10
842.803589
 20
226.2862095
 30
0.0
  0
LINE
  5
D54
330
D5B
100
AcDbEntity
  8
0
  6
ByBlock
 62
     7
370
    -2
380
     1
100
AcDbLine
 10
768.080078
 20
225.6612095
 30
0.0
 11
768.080078
 21
155.3251549928299
 31
0.0
  0
LINE
  5
D55
330
D5B
100
AcDbEntity
  8
0
  6
ByBlock
 62
     7
370
    -2
380
     1
100
AcDbLine
 10
842.803589
 20
225.6612095
 30
0.0
 11
842.803589
 21
155.3251549928299
 31
0.0
  0
LINE
  5
D56
330
D5B
100
AcDbEntity
  8
0
  6
ByBlock
 62
     7
370
    -2
380
     1
100
AcDbLine
 10
778.080078
 20
156.5751549928299
 30
0.0
 11
832.803589
 21
156.5751549928299
 31
0.0
  0
SOLID
  5
D57
330
D5B
100
AcDbEntity
  8
0
  6
ByBlock
 62
     7
380
     1
100
AcDbTrace
 10
768.080078
 20
156.5751549928299
 30
0.0
 11
778.080078
 21
154.9084883261632
 31
0.0
 12
778.080078
 22
158.2418216594965
 32
0.0
 13
778.080078
 23
158.2418216594965
 33
0.0
  0
SOLID
  5
D58
330
D5B
100
AcDbEntity
  8
0
  6
ByBlock
 62
     7
380
     1
100
AcDbTrace
 10
842.803589
 20
156.5751549928299
 30
0.0
 11
832.803589
 21
154.9084883261632
 31
0.0
 12
832.803589
 22
158.2418216594965
 32
0.0
 13
832.803589
 23
158.2418216594965
 33
0.0
  0
MTEXT
  5
D59
330
D5B
100
AcDbEntity
  8
0
  6
ByBlock
 62
     0
370
    -2
380
     1
100
AcDbMText
 10
805.4418335
 20
168.5751549928299
 30
0.0
 40
14.0
 41
0.0
 71
     5
 72
     1
  1
Ø75
 73
     1
 44
1.0
  0
ENDBLK
  5
FCA
330
D5B
100
AcDbEntity
  8
0
100
AcDbBlockEnd
  0
BLOCK
  5
FCB
330
D67
100
AcDbEntity
  8
0
100
AcDbBlockBegin
  2
*D18
 70
     1
 10
0.0
 20
0.0
 30
0.0
  3
*D18
  1

  0
POINT
  5
D5E
330
D67
100
AcDbEntity
  8
DEFPOINTS
  6
ByBlock
 62
     0
380
     1
100
AcDbPoint
 10
1073.854858
 20
371.098343
 30
0.0
  0
POINT
  5
D5F
330
D67
100
AcDbEntity
  8
DEFPOINTS
  6
ByBlock
 62
     0
380
     1
100
AcDbPoint
 10
1483.184448
 20
370.599304
 30
0.0
  0
LINE
  5
D60
330
D67
100
AcDbEntity
  8
0
  6
ByBlock
 62
     0
370
    -2
380
     1
100
AcDbLine
 10
1073.854858
 20
371.723343
 30
0.0
 11
1073.854858
 21
529.61084
 31
0.0
  0
LINE
  5
D61
330
D67
100
AcDbEntity
  8
0
  6
ByBlock
 62
     0
370
    -2
380
     1
100
AcDbLine
 10
1483.184448
 20
371.224304
 30
0.0
 11
1483.184448
 21
529.61084
 31
0.0
  0
LINE
  5
D62
330
D67
100
AcDbEntity
  8
0
  6
ByBlock
 62
     0
370
    -2
380
     1
100
AcDbLine
 10
1076.354858
 20
528.36084
 30
0.0
 11
1480.684448
 21
528.36084
 31
0.0
  0
SOLID
  5
D63
330
D67
100
AcDbEntity
  8
0
  6
ByBlock
 62
     0
380
     1
100
AcDbTrace
 10
1073.854858
 20
528.36084
 30
0.0
 11
1076.354858
 21
527.9441733333334
 31
0.0
 12
1076.354858
 22
528.7775066666667
 32
0.0
 13
1076.354858
 23
528.7775066666667
 33
0.0
  0
SOLID
  5
D64
330
D67
100
AcDbEntity
  8
0
  6
ByBlock
 62
     0
380
     1
100
AcDbTrace
 10
1483.184448
 20
528.36084
 30
0.0
 11
1480.684448
 21
527.9441733333334
 31
0.0
 12
1480.684448
 22
528.7775066666667
 32
0.0
 13
1480.684448
 23
528.7775066666667
 33
0.0
  0
MTEXT
  5
D65
330
D67
100
AcDbEntity
  8
0
  6
ByBlock
 62
     0
370
    -2
380
     1
100
AcDbMText
 10
1278.519653
 20
530.4441733333333
 30
0.0
 40
2.5
 41
0.0
 71
     5
 72
     1
  1
\A1;409,33
 73
     1
 44
1.0
  0
ENDBLK
  5
FCC
330
D67
100
AcDbEntity
  8
0
100
AcDbBlockEnd
  0
BLOCK
  5
FCD
330
D74
100
AcDbEntity
  8
0
100
AcDbBlockBegin
  2
*D19
 70
     1
 10
0.0
 20
0.0
 30
0.0
  3
*D19
  1

  0
POINT
  5
D6B
330
D74
100
AcDbEntity
  8
DEFPOINTS
  6
ByBlock
 62
     0
380
     1
100
AcDbPoint
 10
1073.854858
 20
371.098343
 30
0.0
  0
POINT
  5
D6C
330
D74
100
AcDbEntity
  8
DEFPOINTS
  6
ByBlock
 62
     0
380
     1
100
AcDbPoint
 10
1483.184448
 20
370.599304
 30
0.0
  0
LINE
  5
D6D
330
D74
100
AcDbEntity
  8
0
  6
ByBlock
 62
     0
370
    -2
380
     1
100
AcDbLine
 10
1073.854858
 20
371.723343
 30
0.0
 11
1073.854858
 21
589.7616350743327
 31
0.0
  0
LINE
  5
D6E
330
D74
100
AcDbEntity
  8
0
  6
ByBlock
 62
     0
370
    -2
380
     1
100
AcDbLine
 10
1483.184448
 20
371.224304
 30
0.0
 11
1483.184448
 21
589.7616350743327
 31
0.0
  0
LINE
  5
D6F
330
D74
100
AcDbEntity
  8
0
  6
ByBlock
 62
     0
370
    -2
380
     1
100
AcDbLine
 10
1076.354858
 20
588.5116350743327
 30
0.0
 11
1480.684448
 21
588.5116350743327
 31
0.0
  0
SOLID
  5
D70
330
D74
100
AcDbEntity
  8
0
  6
ByBlock
 62
     0
380
     1
100
AcDbTrace
 10
1073.854858
 20
588.5116350743327
 30
0.0
 11
1076.354858
 21
588.0949684076661
 31
0.0
 12
1076.354858
 22
588.9283017409994
 32
0.0
 13
1076.354858
 23
588.9283017409994
 33
0.0
  0
SOLID
  5
D71
330
D74
100
AcDbEntity
  8
0
  6
ByBlock
 62
     0
380
     1
100
AcDbTrace
 10
1483.184448
 20
588.5116350743327
 30
0.0
 11
1480.684448
 21
588.0949684076661
 31
0.0
 12
1480.684448
 22
588.9283017409994
 32
0.0
 13
1480.684448
 23
588.9283017409994
 33
0.0
  0
MTEXT
  5
D72
330
D74
100
AcDbEntity
  8
0
  6
ByBlock
 62
     0
370
    -2
380
     1
100
AcDbMText
 10
1278.519653
 20
590.5949684076661
 30
0.0
 40
2.5
 41
0.0
 71
     5
 72
     1
  1
\A1;409,33
 73
     1
 44
1.0
  0
ENDBLK
  5
FCE
330
D74
100
AcDbEntity
  8
0
100
AcDbBlockEnd
  0
BLOCK
  5
FCF
330
D7F
100
AcDbEntity
  8
0
100
AcDbBlockBegin
  2
*D20
 70
     1
 10
0.0
 20
0.0
 30
0.0
  3
*D20
  1

  0
POINT
  5
D76
330
D7F
100
AcDbEntity
  8
DEFPOINTS
  6
ByBlock
 62
     0
380
     1
100
AcDbPoint
 10
1073.854858
 20
371.098343
 30
0.0
  0
POINT
  5
D77
330
D7F
100
AcDbEntity
  8
DEFPOINTS
  6
ByBlock
 62
     0
380
     1
100
AcDbPoint
 10
1483.184448
 20
370.599304
 30
0.0
  0
LINE
  5
D78
330
D7F
100
AcDbEntity
  8
0
  6
ByBlock
 62
     0
370
    -2
380
     1
100
AcDbLine
 10
1073.854858
 20
371.723343
 30
0.0
 11
1073.854858
 21
589.7616350743327
 31
0.0
  0
LINE
  5
D79
330
D7F
100
AcDbEntity
  8
0
  6
ByBlock
 62
     0
370
    -2
380
     1
100
AcDbLine
 10
1483.184448
 20
371.224304
 30
0.0
 11
1483.184448
 21
589.7616350743327
 31
0.0
  0
LINE
  5
D7A
330
D7F
100
AcDbEntity
  8
0
  6
ByBlock
 62
     0
370
    -2
380
     1
100
AcDbLine
 10
1076.354858
 20
588.5116350743327
 30
0.0
 11
1480.684448
 21
588.5116350743327
 31
0.0
  0
SOLID
  5
D7B
330
D7F
100
AcDbEntity
  8
0
  6
ByBlock
 62
     0
380
     1
100
AcDbTrace
 10
1073.854858
 20
588.5116350743327
 30
0.0
 11
1076.354858
 21
588.0949684076661
 31
0.0
 12
1076.354858
 22
588.9283017409994
 32
0.0
 13
1076.354858
 23
588.9283017409994
 33
0.0
  0
SOLID
  5
D7C
330
D7F
100
AcDbEntity
  8
0
  6
ByBlock
 62
     0
380
     1
100
AcDbTrace
 10
1483.184448
 20
588.5116350743327
 30
0.0
 11
1480.684448
 21
588.0949684076661
 31
0.0
 12
1480.684448
 22
588.9283017409994
 32
0.0
 13
1480.684448
 23
588.9283017409994
 33
0.0
  0
MTEXT
  5
D7D
330
D7F
100
AcDbEntity
  8
0
  6
ByBlock
 62
     0
370
    -2
380
     1
100
AcDbMText
 10
1278.519653
 20
590.5949684076661
 30
0.0
 40
2.5
 41
0.0
 71
     5
 72
     1
  1
\A1;409,33
 73
     1
 44
1.0
  0
ENDBLK
  5
FD0
330
D7F
100
AcDbEntity
  8
0
100
AcDbBlockEnd
  0
BLOCK
  5
FD1
330
D8A
100
AcDbEntity
  8
0
100
AcDbBlockBegin
  2
*D21
 70
     1
 10
0.0
 20
0.0
 30
0.0
  3
*D21
  1

  0
POINT
  5
D81
330
D8A
100
AcDbEntity
  8
DEFPOINTS
  6
ByBlock
 62
     7
380
     1
100
AcDbPoint
 10
1073.854858
 20
371.098343
 30
0.0
  0
POINT
  5
D82
330
D8A
100
AcDbEntity
  8
DEFPOINTS
  6
ByBlock
 62
     7
380
     1
100
AcDbPoint
 10
1483.184448
 20
370.599304
 30
0.0
  0
LINE
  5
D83
330
D8A
100
AcDbEntity
  8
0
  6
ByBlock
 62
     7
370
    -2
380
     1
100
AcDbLine
 10
1073.854858
 20
371.723343
 30
0.0
 11
1073.854858
 21
589.7616350743327
 31
0.0
  0
LINE
  5
D84
330
D8A
100
AcDbEntity
  8
0
  6
ByBlock
 62
     7
370
    -2
380
     1
100
AcDbLine
 10
1483.184448
 20
371.224304
 30
0.0
 11
1483.184448
 21
589.7616350743327
 31
0.0
  0
LINE
  5
D85
330
D8A
100
AcDbEntity
  8
0
  6
ByBlock
 62
     7
370
    -2
380
     1
100
AcDbLine
 10
1083.854858
 20
588.5116350743327
 30
0.0
 11
1473.184448
 21
588.5116350743327
 31
0.0
  0
SOLID
  5
D86
330
D8A
100
AcDbEntity
  8
0
  6
ByBlock
 62
     7
380
     1
100
AcDbTrace
 10
1073.854858
 20
588.5116350743327
 30
0.0
 11
1083.854858
 21
586.8449684076661
 31
0.0
 12
1083.854858
 22
590.1783017409994
 32
0.0
 13
1083.854858
 23
590.1783017409994
 33
0.0
  0
SOLID
  5
D87
330
D8A
100
AcDbEntity
  8
0
  6
ByBlock
 62
     7
380
     1
100
AcDbTrace
 10
1483.184448
 20
588.5116350743327
 30
0.0
 11
1473.184448
 21
586.8449684076661
 31
0.0
 12
1473.184448
 22
590.1783017409994
 32
0.0
 13
1473.184448
 23
590.1783017409994
 33
0.0
  0
MTEXT
  5
D88
330
D8A
100
AcDbEntity
  8
0
  6
ByBlock
 62
     0
370
    -2
380
     1
100
AcDbMText
 10
1278.519653
 20
601.6783017409994
 30
0.0
 40
14.0
 41
0.0
 71
     5
 72
     1
  1
\A1;409,33
 73
     1
 44
1.0
  0
ENDBLK
  5
FD2
330
D8A
100
AcDbEntity
  8
0
100
AcDbBlockEnd
  0
BLOCK
  5
FD3
330
D95
100
AcDbEntity
  8
0
100
AcDbBlockBegin
  2
*D22
 70
     1
 10
0.0
 20
0.0
 30
0.0
  3
*D22
  1

  0
POINT
  5
D8C
330
D95
100
AcDbEntity
  8
DEFPOINTS
  6
ByBlock
 62
     7
380
     1
100
AcDbPoint
 10
1073.854858
 20
371.098343
 30
0.0
  0
POINT
  5
D8D
330
D95
100
AcDbEntity
  8
DEFPOINTS
  6
ByBlock
 62
     7
380
     1
100
AcDbPoint
 10
1483.184448
 20
370.599304
 30
0.0
  0
LINE
  5
D8E
330
D95
100
AcDbEntity
  8
0
  6
ByBlock
 62
     7
370
    -2
380
     1
100
AcDbLine
 10
1073.854858
 20
371.723343
 30
0.0
 11
1073.854858
 21
589.7616350743327
 31
0.0
  0
LINE
  5
D8F
330
D95
100
AcDbEntity
  8
0
  6
ByBlock
 62
     7
370
    -2
380
     1
100
AcDbLine
 10
1483.184448
 20
371.224304
 30
0.0
 11
1483.184448
 21
589.7616350743327
 31
0.0
  0
LINE
  5
D90
330
D95
100
AcDbEntity
  8
0
  6
ByBlock
 62
     7
370
    -2
380
     1
100
AcDbLine
 10
1083.854858
 20
588.5116350743327
 30
0.0
 11
1473.184448
 21
588.5116350743327
 31
0.0
  0
SOLID
  5
D91
330
D95
100
AcDbEntity
  8
0
  6
ByBlock
 62
     7
380
     1
100
AcDbTrace
 10
1073.854858
 20
588.5116350743327
 30
0.0
 11
1083.854858
 21
586.8449684076661
 31
0.0
 12
1083.854858
 22
590.1783017409994
 32
0.0
 13
1083.854858
 23
590.1783017409994
 33
0.0
  0
SOLID
  5
D92
330
D95
100
AcDbEntity
  8
0
  6
ByBlock
 62
     7
380
     1
100
AcDbTrace
 10
1483.184448
 20
588.5116350743327
 30
0.0
 11
1473.184448
 21
586.8449684076661
 31
0.0
 12
1473.184448
 22
590.1783017409994
 32
0.0
 13
1473.184448
 23
590.1783017409994
 33
0.0
  0
MTEXT
  5
D93
330
D95
100
AcDbEntity
  8
0
  6
ByBlock
 62
     0
370
    -2
380
     1
100
AcDbMText
 10
1278.519653
 20
600.5116350743327
 30
0.0
 40
14.0
 41
0.0
 71
     5
 72
     1
  1
410
 73
     1
 44
1.0
  0
ENDBLK
  5
FD4
330
D95
100
AcDbEntity
  8
0
100
AcDbBlockEnd
  0
BLOCK
  5
FD5
330
DDF
100
AcDbEntity
  8
0
100
AcDbBlockBegin
  2
*D23
 70
     1
 10
0.0
 20
0.0
 30
0.0
  3
*D23
  1

  0
POINT
  5
DD5
330
DDF
100
AcDbEntity
  8
DEFPOINTS
  6
ByBlock
 62
     7
380
     1
100
AcDbPoint
 10
768.080078
 20
226.2862095
 30
0.0
  0
POINT
  5
DD6
330
DDF
100
AcDbEntity
  8
DEFPOINTS
  6
ByBlock
 62
     7
380
     1
100
AcDbPoint
 10
842.803589
 20
226.2862095
 30
0.0
  0
LINE
  5
DD7
330
DDF
100
AcDbEntity
  8
0
  6
ByBlock
 62
     7
370
    -2
380
     1
100
AcDbLine
 10
768.080078
 20
225.6612095
 30
0.0
 11
768.080078
 21
152.9551094427528
 31
0.0
  0
LINE
  5
DD8
330
DDF
100
AcDbEntity
  8
0
  6
ByBlock
 62
     7
370
    -2
380
     1
100
AcDbLine
 10
842.803589
 20
225.6612095
 30
0.0
 11
842.803589
 21
152.9551094427528
 31
0.0
  0
LINE
  5
DD9
330
DDF
100
AcDbEntity
  8
0
  6
ByBlock
 62
     7
370
    -2
380
     1
100
AcDbLine
 10
778.080078
 20
154.2051094427528
 30
0.0
 11
832.803589
 21
154.2051094427528
 31
0.0
  0
LINE
  5
DDA
330
DDF
100
AcDbEntity
  8
0
  6
ByBlock
 62
     7
370
    -2
380
     1
100
AcDbLine
 10
832.803589
 20
154.2051094427528
 30
0.0
 11
890.1369223333334
 21
154.2051094427528
 31
0.0
  0
SOLID
  5
DDB
330
DDF
100
AcDbEntity
  8
0
  6
ByBlock
 62
     7
380
     1
100
AcDbTrace
 10
768.080078
 20
154.2051094427528
 30
0.0
 11
778.080078
 21
152.5384427760861
 31
0.0
 12
778.080078
 22
155.8717761094194
 32
0.0
 13
778.080078
 23
155.8717761094194
 33
0.0
  0
SOLID
  5
DDC
330
DDF
100
AcDbEntity
  8
0
  6
ByBlock
 62
     7
380
     1
100
AcDbTrace
 10
842.803589
 20
154.2051094427528
 30
0.0
 11
832.803589
 21
152.5384427760861
 31
0.0
 12
832.803589
 22
155.8717761094194
 32
0.0
 13
832.803589
 23
155.8717761094194
 33
0.0
  0
MTEXT
  5
DDD
330
DDF
100
AcDbEntity
  8
0
  6
ByBlock
 62
     0
370
    -2
380
     1
100
AcDbMText
 10
866.4702556666666
 20
166.2051094427528
 30
0.0
 40
14.0
 41
0.0
 71
     5
 72
     1
  1
Ø75
 73
     1
 44
1.0
  0
ENDBLK
  5
FD6
330
DDF
100
AcDbEntity
  8
0
100
AcDbBlockEnd
  0
BLOCK
  5
FD7
330
DEB
100
AcDbEntity
  8
0
100
AcDbBlockBegin
  2
*D24
 70
     1
 10
0.0
 20
0.0
 30
0.0
  3
*D24
  1

  0
POINT
  5
DE1
330
DEB
100
AcDbEntity
  8
DEFPOINTS
  6
ByBlock
 62
     7
380
     1
100
AcDbPoint
 10
768.080078
 20
226.2862095
 30
0.0
  0
POINT
  5
DE2
330
DEB
100
AcDbEntity
  8
DEFPOINTS
  6
ByBlock
 62
     7
380
     1
100
AcDbPoint
 10
842.803589
 20
226.2862095
 30
0.0
  0
LINE
  5
DE3
330
DEB
100
AcDbEntity
  8
0
  6
ByBlock
 62
     7
370
    -2
380
     1
100
AcDbLine
 10
768.080078
 20
225.6612095
 30
0.0
 11
768.080078
 21
152.9551094427528
 31
0.0
  0
LINE
  5
DE4
330
DEB
100
AcDbEntity
  8
0
  6
ByBlock
 62
     7
370
    -2
380
     1
100
AcDbLine
 10
842.803589
 20
225.6612095
 30
0.0
 11
842.803589
 21
152.9551094427528
 31
0.0
  0
LINE
  5
DE5
330
DEB
100
AcDbEntity
  8
0
  6
ByBlock
 62
     7
370
    -2
380
     1
100
AcDbLine
 10
778.080078
 20
154.2051094427528
 30
0.0
 11
832.803589
 21
154.2051094427528
 31
0.0
  0
LINE
  5
DE6
330
DEB
100
AcDbEntity
  8
0
  6
ByBlock
 62
     7
370
    -2
380
     1
100
AcDbLine
 10
842.803589
 20
154.2051094427528
 30
0.0
 11
928.1369223333334
 21
154.2051094427528
 31
0.0
  0
SOLID
  5
DE7
330
DEB
100
AcDbEntity
  8
0
  6
ByBlock
 62
     7
380
     1
100
AcDbTrace
 10
768.080078
 20
154.2051094427528
 30
0.0
 11
778.080078
 21
152.5384427760861
 31
0.0
 12
778.080078
 22
155.8717761094194
 32
0.0
 13
778.080078
 23
155.8717761094194
 33
0.0
  0
SOLID
  5
DE8
330
DEB
100
AcDbEntity
  8
0
  6
ByBlock
 62
     7
380
     1
100
AcDbTrace
 10
842.803589
 20
154.2051094427528
 30
0.0
 11
832.803589
 21
152.5384427760861
 31
0.0
 12
832.803589
 22
155.8717761094194
 32
0.0
 13
832.803589
 23
155.8717761094194
 33
0.0
  0
MTEXT
  5
DE9
330
DEB
100
AcDbEntity
  8
0
  6
ByBlock
 62
     0
370
    -2
380
     1
100
AcDbMText
 10
890.4702556666666
 20
166.2051094427528
 30
0.0
 40
14.0
 41
0.0
 71
     5
 72
     1
  1
Ø4275
 73
     1
 44
1.0
  0
ENDBLK
  5
FD8
330
DEB
100
AcDbEntity
  8
0
100
AcDbBlockEnd
  0
BLOCK
  5
FD9
330
DF7
100
AcDbEntity
  8
0
100
AcDbBlockBegin
  2
*D25
 70
     1
 10
0.0
 20
0.0
 30
0.0
  3
*D25
  1

  0
POINT
  5
DED
330
DF7
100
AcDbEntity
  8
DEFPOINTS
  6
ByBlock
 62
     7
380
     1
100
AcDbPoint
 10
768.080078
 20
226.2862095
 30
0.0
  0
POINT
  5
DEE
330
DF7
100
AcDbEntity
  8
DEFPOINTS
  6
ByBlock
 62
     7
380
     1
100
AcDbPoint
 10
842.803589
 20
226.2862095
 30
0.0
  0
LINE
  5
DEF
330
DF7
100
AcDbEntity
  8
0
  6
ByBlock
 62
     7
370
    -2
380
     1
100
AcDbLine
 10
768.080078
 20
225.6612095
 30
0.0
 11
768.080078
 21
152.9551094427528
 31
0.0
  0
LINE
  5
DF0
330
DF7
100
AcDbEntity
  8
0
  6
ByBlock
 62
     7
370
    -2
380
     1
100
AcDbLine
 10
842.803589
 20
225.6612095
 30
0.0
 11
842.803589
 21
152.9551094427528
 31
0.0
  0
LINE
  5
DF1
330
DF7
100
AcDbEntity
  8
0
  6
ByBlock
 62
     7
370
    -2
380
     1
100
AcDbLine
 10
778.080078
 20
154.2051094427528
 30
0.0
 11
832.803589
 21
154.2051094427528
 31
0.0
  0
LINE
  5
DF2
330
DF7
100
AcDbEntity
  8
0
  6
ByBlock
 62
     7
370
    -2
380
     1
100
AcDbLine
 10
842.803589
 20
154.2051094427528
 30
0.0
 11
942.1369223333334
 21
154.2051094427528
 31
0.0
  0
SOLID
  5
DF3
330
DF7
100
AcDbEntity
  8
0
  6
ByBlock
 62
     7
380
     1
100
AcDbTrace
 10
768.080078
 20
154.2051094427528
 30
0.0
 11
778.080078
 21
152.5384427760861
 31
0.0
 12
778.080078
 22
155.8717761094194
 32
0.0
 13
778.080078
 23
155.8717761094194
 33
0.0
  0
SOLID
  5
DF4
330
DF7
100
AcDbEntity
  8
0
  6
ByBlock
 62
     7
380
     1
100
AcDbTrace
 10
842.803589
 20
154.2051094427528
 30
0.0
 11
832.803589
 21
152.5384427760861
 31
0.0
 12
832.803589
 22
155.8717761094194
 32
0.0
 13
832.803589
 23
155.8717761094194
 33
0.0
  0
MTEXT
  5
DF5
330
DF7
100
AcDbEntity
  8
0
  6
ByBlock
 62
     0
370
    -2
380
     1
100
AcDbMText
 10
897.4702556666666
 20
166.2051094427528
 30
0.0
 40
14.0
 41
0.0
 71
     5
 72
     1
  1
Ø42÷76
 73
     1
 44
1.0
  0
ENDBLK
  5
FDA
330
DF7
100
AcDbEntity
  8
0
100
AcDbBlockEnd
  0
BLOCK
  5
FDB
330
ED8
100
AcDbEntity
  8
0
100
AcDbBlockBegin
  2
*D26
 70
     1
 10
0.0
 20
0.0
 30
0.0
  3
*D26
  1

  0
POINT
  5
ECF
330
ED8
100
AcDbEntity
  8
DEFPOINTS
  6
ByBlock
 62
     7
380
     1
100
AcDbPoint
 10
401.440155
 20
531.851807
 30
0.0
  0
POINT
  5
ED0
330
ED8
100
AcDbEntity
  8
DEFPOINTS
  6
ByBlock
 62
     7
380
     1
100
AcDbPoint
 10
434.143372
 20
326.490875
 30
0.0
  0
LINE
  5
ED1
330
ED8
100
AcDbEntity
  8
0
  6
ByBlock
 62
     7
370
    -2
380
     1
100
AcDbLine
 10
400.815155
 20
531.851807
 30
0.0
 11
-14.23775987052198
 21
531.851807
 31
0.0
  0
LINE
  5
ED2
330
ED8
100
AcDbEntity
  8
0
  6
ByBlock
 62
     7
370
    -2
380
     1
100
AcDbLine
 10
433.518372
 20
326.490875
 30
0.0
 11
-14.23775987052198
 21
326.490875
 31
0.0
  0
LINE
  5
ED3
330
ED8
100
AcDbEntity
  8
0
  6
ByBlock
 62
     7
370
    -2
380
     1
100
AcDbLine
 10
-12.98775987052198
 20
521.851807
 30
0.0
 11
-12.98775987052198
 21
336.490875
 31
0.0
  0
SOLID
  5
ED4
330
ED8
100
AcDbEntity
  8
0
  6
ByBlock
 62
     7
380
     1
100
AcDbTrace
 10
-12.98775987052198
 20
531.851807
 30
0.0
 11
-14.65442653718867
 21
521.851807
 31
0.0
 12
-11.3210932038553
 22
521.851807
 32
0.0
 13
-11.3210932038553
 23
521.851807
 33
0.0
  0
SOLID
  5
ED5
330
ED8
100
AcDbEntity
  8
0
  6
ByBlock
 62
     7
380
     1
100
AcDbTrace
 10
-12.98775987052198
 20
326.490875
 30
0.0
 11
-14.65442653718867
 21
336.490875
 31
0.0
 12
-11.3210932038553
 22
336.490875
 32
0.0
 13
-11.3210932038553
 23
336.490875
 33
0.0
  0
MTEXT
  5
ED6
330
ED8
100
AcDbEntity
  8
0
  6
ByBlock
 62
     0
370
    -2
380
     1
100
AcDbMText
 10
-40.98775987052198
 20
429.171341
 30
0.0
 40
36.0
 41
0.0
 71
     5
 72
     1
  1
205
 11
6.123031769111886E-17
 21
1.0
 31
0.0
 73
     1
 44
1.0
  0
ENDBLK
  5
FDC
330
ED8
100
AcDbEntity
  8
0
100
AcDbBlockEnd
  0
BLOCK
  5
FDD
330
EE3
100
AcDbEntity
  8
0
100
AcDbBlockBegin
  2
*D27
 70
     1
 10
0.0
 20
0.0
 30
0.0
  3
*D27
  1

  0
POINT
  5
EDA
330
EE3
100
AcDbEntity
  8
DEFPOINTS
  6
ByBlock
 62
     7
380
     1
100
AcDbPoint
 10
401.440155
 20
531.851807
 30
0.0
  0
POINT
  5
EDB
330
EE3
100
AcDbEntity
  8
DEFPOINTS
  6
ByBlock
 62
     7
380
     1
100
AcDbPoint
 10
434.143372
 20
326.490875
 30
0.0
  0
LINE
  5
EDC
330
EE3
100
AcDbEntity
  8
0
  6
ByBlock
 62
     7
370
    -2
380
     1
100
AcDbLine
 10
400.815155
 20
531.851807
 30
0.0
 11
-14.23775987052198
 21
531.851807
 31
0.0
  0
LINE
  5
EDD
330
EE3
100
AcDbEntity
  8
0
  6
ByBlock
 62
     7
370
    -2
380
     1
100
AcDbLine
 10
433.518372
 20
326.490875
 30
0.0
 11
-14.23775987052198
 21
326.490875
 31
0.0
  0
LINE
  5
EDE
330
EE3
100
AcDbEntity
  8
0
  6
ByBlock
 62
     7
370
    -2
380
     1
100
AcDbLine
 10
-12.98775987052198
 20
521.851807
 30
0.0
 11
-12.98775987052198
 21
336.490875
 31
0.0
  0
SOLID
  5
EDF
330
EE3
100
AcDbEntity
  8
0
  6
ByBlock
 62
     7
380
     1
100
AcDbTrace
 10
-12.98775987052198
 20
531.851807
 30
0.0
 11
-14.65442653718867
 21
521.851807
 31
0.0
 12
-11.3210932038553
 22
521.851807
 32
0.0
 13
-11.3210932038553
 23
521.851807
 33
0.0
  0
SOLID
  5
EE0
330
EE3
100
AcDbEntity
  8
0
  6
ByBlock
 62
     7
380
     1
100
AcDbTrace
 10
-12.98775987052198
 20
326.490875
 30
0.0
 11
-14.65442653718867
 21
336.490875
 31
0.0
 12
-11.3210932038553
 22
336.490875
 32
0.0
 13
-11.3210932038553
 23
336.490875
 33
0.0
  0
MTEXT
  5
EE1
330
EE3
100
AcDbEntity
  8
0
  6
ByBlock
 62
     0
370
    -2
380
     1
100
AcDbMText
 10
-40.98775987052198
 20
429.171341
 30
0.0
 40
36.0
 41
0.0
 71
     5
 72
     1
  1
205
 11
6.123031769111886E-17
 21
1.0
 31
0.0
 73
     1
 44
1.0
  0
ENDBLK
  5
FDE
330
EE3
100
AcDbEntity
  8
0
100
AcDbBlockEnd
  0
BLOCK
  5
FDF
330
EEF
100
AcDbEntity
  8
0
100
AcDbBlockBegin
  2
*D28
 70
     1
 10
0.0
 20
0.0
 30
0.0
  3
*D28
  1

  0
POINT
  5
EE5
330
EEF
100
AcDbEntity
  8
DEFPOINTS
  6
ByBlock
 62
     7
380
     1
100
AcDbPoint
 10
768.080078
 20
226.2862095
 30
0.0
  0
POINT
  5
EE6
330
EEF
100
AcDbEntity
  8
DEFPOINTS
  6
ByBlock
 62
     7
380
     1
100
AcDbPoint
 10
842.803589
 20
226.2862095
 30
0.0
  0
LINE
  5
EE7
330
EEF
100
AcDbEntity
  8
0
  6
ByBlock
 62
     7
370
    -2
380
     1
100
AcDbLine
 10
768.080078
 20
225.6612095
 30
0.0
 11
768.080078
 21
152.9551094427528
 31
0.0
  0
LINE
  5
EE8
330
EEF
100
AcDbEntity
  8
0
  6
ByBlock
 62
     7
370
    -2
380
     1
100
AcDbLine
 10
842.803589
 20
225.6612095
 30
0.0
 11
842.803589
 21
152.9551094427528
 31
0.0
  0
LINE
  5
EE9
330
EEF
100
AcDbEntity
  8
0
  6
ByBlock
 62
     7
370
    -2
380
     1
100
AcDbLine
 10
778.080078
 20
154.2051094427528
 30
0.0
 11
832.803589
 21
154.2051094427528
 31
0.0
  0
LINE
  5
EEA
330
EEF
100
AcDbEntity
  8
0
  6
ByBlock
 62
     7
370
    -2
380
     1
100
AcDbLine
 10
842.803589
 20
154.2051094427528
 30
0.0
 11
952.1369223333334
 21
154.2051094427528
 31
0.0
  0
SOLID
  5
EEB
330
EEF
100
AcDbEntity
  8
0
  6
ByBlock
 62
     7
380
     1
100
AcDbTrace
 10
768.080078
 20
154.2051094427528
 30
0.0
 11
778.080078
 21
152.5384427760861
 31
0.0
 12
778.080078
 22
155.8717761094195
 32
0.0
 13
778.080078
 23
155.8717761094195
 33
0.0
  0
SOLID
  5
EEC
330
EEF
100
AcDbEntity
  8
0
  6
ByBlock
 62
     7
380
     1
100
AcDbTrace
 10
842.803589
 20
154.2051094427528
 30
0.0
 11
832.803589
 21
152.5384427760861
 31
0.0
 12
832.803589
 22
155.8717761094195
 32
0.0
 13
832.803589
 23
155.8717761094195
 33
0.0
  0
MTEXT
  5
EED
330
EEF
100
AcDbEntity
  8
0
  6
ByBlock
 62
     0
370
    -2
380
     1
100
AcDbMText
 10
902.4702556666666
 20
171.2051094427528
 30
0.0
 40
14.0
 41
0.0
 71
     5
 72
     1
  1
Ø42÷76
 73
     1
 44
1.0
  0
ENDBLK
  5
FE0
330
EEF
100
AcDbEntity
  8
0
100
AcDbBlockEnd
  0
BLOCK
  5
FE1
330
EFB
100
AcDbEntity
  8
0
100
AcDbBlockBegin
  2
*D29
 70
     1
 10
0.0
 20
0.0
 30
0.0
  3
*D29
  1

  0
POINT
  5
EF1
330
EFB
100
AcDbEntity
  8
DEFPOINTS
  6
ByBlock
 62
     7
380
     1
100
AcDbPoint
 10
768.080078
 20
226.2862095
 30
0.0
  0
POINT
  5
EF2
330
EFB
100
AcDbEntity
  8
DEFPOINTS
  6
ByBlock
 62
     7
380
     1
100
AcDbPoint
 10
842.803589
 20
226.2862095
 30
0.0
  0
LINE
  5
EF3
330
EFB
100
AcDbEntity
  8
0
  6
ByBlock
 62
     7
370
    -2
380
     1
100
AcDbLine
 10
768.080078
 20
225.6612095
 30
0.0
 11
768.080078
 21
152.9551094427528
 31
0.0
  0
LINE
  5
EF4
330
EFB
100
AcDbEntity
  8
0
  6
ByBlock
 62
     7
370
    -2
380
     1
100
AcDbLine
 10
842.803589
 20
225.6612095
 30
0.0
 11
842.803589
 21
152.9551094427528
 31
0.0
  0
LINE
  5
EF5
330
EFB
100
AcDbEntity
  8
0
  6
ByBlock
 62
     7
370
    -2
380
     1
100
AcDbLine
 10
778.080078
 20
154.2051094427528
 30
0.0
 11
832.803589
 21
154.2051094427528
 31
0.0
  0
LINE
  5
EF6
330
EFB
100
AcDbEntity
  8
0
  6
ByBlock
 62
     7
370
    -2
380
     1
100
AcDbLine
 10
842.803589
 20
154.2051094427528
 30
0.0
 11
1076.803589
 21
154.2051094427528
 31
0.0
  0
SOLID
  5
EF7
330
EFB
100
AcDbEntity
  8
0
  6
ByBlock
 62
     7
380
     1
100
AcDbTrace
 10
768.080078
 20
154.2051094427528
 30
0.0
 11
778.080078
 21
152.5384427760861
 31
0.0
 12
778.080078
 22
155.8717761094195
 32
0.0
 13
778.080078
 23
155.8717761094195
 33
0.0
  0
SOLID
  5
EF8
330
EFB
100
AcDbEntity
  8
0
  6
ByBlock
 62
     7
380
     1
100
AcDbTrace
 10
842.803589
 20
154.2051094427528
 30
0.0
 11
832.803589
 21
152.5384427760861
 31
0.0
 12
832.803589
 22
155.8717761094195
 32
0.0
 13
832.803589
 23
155.8717761094195
 33
0.0
  0
MTEXT
  5
EF9
330
EFB
100
AcDbEntity
  8
0
  6
ByBlock
 62
     0
370
    -2
380
     1
100
AcDbMText
 10
964.803589
 20
182.2051094427528
 30
0.0
 40
36.0
 41
0.0
 71
     5
 72
     1
  1
Ø42÷76
 73
     1
 44
1.0
  0
ENDBLK
  5
FE2
330
EFB
100
AcDbEntity
  8
0
100
AcDbBlockEnd
  0
BLOCK
  5
FE3
330
F07
100
AcDbEntity
  8
0
100
AcDbBlockBegin
  2
*D30
 70
     1
 10
0.0
 20
0.0
 30
0.0
  3
*D30
  1

  0
POINT
  5
EFE
330
F07
100
AcDbEntity
  8
DEFPOINTS
  6
ByBlock
 62
     0
380
     1
100
AcDbPoint
 10
23.077789
 20
370.569824
 30
0.0
  0
POINT
  5
EFF
330
F07
100
AcDbEntity
  8
DEFPOINTS
  6
ByBlock
 62
     0
380
     1
100
AcDbPoint
 10
890.544678
 20
365.326843
 30
0.0
  0
LINE
  5
F00
330
F07
100
AcDbEntity
  8
0
  6
ByBlock
 62
     0
370
    -2
380
     1
100
AcDbLine
 10
23.077789
 20
371.194824
 30
0.0
 11
23.077789
 21
592.7686970633432
 31
0.0
  0
LINE
  5
F01
330
F07
100
AcDbEntity
  8
0
  6
ByBlock
 62
     0
370
    -2
380
     1
100
AcDbLine
 10
890.544678
 20
365.951843
 30
0.0
 11
890.544678
 21
592.7686970633432
 31
0.0
  0
LINE
  5
F02
330
F07
100
AcDbEntity
  8
0
  6
ByBlock
 62
     0
370
    -2
380
     1
100
AcDbLine
 10
25.577789
 20
591.5186970633432
 30
0.0
 11
888.044678
 21
591.5186970633432
 31
0.0
  0
SOLID
  5
F03
330
F07
100
AcDbEntity
  8
0
  6
ByBlock
 62
     0
380
     1
100
AcDbTrace
 10
23.077789
 20
591.5186970633432
 30
0.0
 11
25.577789
 21
591.1020303966766
 31
0.0
 12
25.577789
 22
591.9353637300098
 32
0.0
 13
25.577789
 23
591.9353637300098
 33
0.0
  0
SOLID
  5
F04
330
F07
100
AcDbEntity
  8
0
  6
ByBlock
 62
     0
380
     1
100
AcDbTrace
 10
890.544678
 20
591.5186970633432
 30
0.0
 11
888.044678
 21
591.1020303966766
 31
0.0
 12
888.044678
 22
591.9353637300098
 32
0.0
 13
888.044678
 23
591.9353637300098
 33
0.0
  0
MTEXT
  5
F05
330
F07
100
AcDbEntity
  8
0
  6
ByBlock
 62
     0
370
    -2
380
     1
100
AcDbMText
 10
456.8112335
 20
593.6020303966766
 30
0.0
 40
2.5
 41
0.0
 71
     5
 72
     1
  1
\A1;867,47
 73
     1
 44
1.0
  0
ENDBLK
  5
FE4
330
F07
100
AcDbEntity
  8
0
100
AcDbBlockEnd
  0
BLOCK
  5
FE5
330
F12
100
AcDbEntity
  8
0
100
AcDbBlockBegin
  2
*D31
 70
     1
 10
0.0
 20
0.0
 30
0.0
  3
*D31
  1

  0
POINT
  5
F09
330
F12
100
AcDbEntity
  8
DEFPOINTS
  6
ByBlock
 62
     0
380
     1
100
AcDbPoint
 10
23.077789
 20
370.569824
 30
0.0
  0
POINT
  5
F0A
330
F12
100
AcDbEntity
  8
DEFPOINTS
  6
ByBlock
 62
     0
380
     1
100
AcDbPoint
 10
890.544678
 20
365.326843
 30
0.0
  0
LINE
  5
F0B
330
F12
100
AcDbEntity
  8
0
  6
ByBlock
 62
     0
370
    -2
380
     1
100
AcDbLine
 10
23.077789
 20
371.194824
 30
0.0
 11
23.077789
 21
592.7686970633432
 31
0.0
  0
LINE
  5
F0C
330
F12
100
AcDbEntity
  8
0
  6
ByBlock
 62
     0
370
    -2
380
     1
100
AcDbLine
 10
890.544678
 20
365.951843
 30
0.0
 11
890.544678
 21
592.7686970633432
 31
0.0
  0
LINE
  5
F0D
330
F12
100
AcDbEntity
  8
0
  6
ByBlock
 62
     0
370
    -2
380
     1
100
AcDbLine
 10
33.077789
 20
591.5186970633432
 30
0.0
 11
880.544678
 21
591.5186970633432
 31
0.0
  0
SOLID
  5
F0E
330
F12
100
AcDbEntity
  8
0
  6
ByBlock
 62
     0
380
     1
100
AcDbTrace
 10
23.077789
 20
591.5186970633432
 30
0.0
 11
33.077789
 21
589.8520303966766
 31
0.0
 12
33.077789
 22
593.1853637300098
 32
0.0
 13
33.077789
 23
593.1853637300098
 33
0.0
  0
SOLID
  5
F0F
330
F12
100
AcDbEntity
  8
0
  6
ByBlock
 62
     0
380
     1
100
AcDbTrace
 10
890.544678
 20
591.5186970633432
 30
0.0
 11
880.544678
 21
589.8520303966766
 31
0.0
 12
880.544678
 22
593.1853637300098
 32
0.0
 13
880.544678
 23
593.1853637300098
 33
0.0
  0
MTEXT
  5
F10
330
F12
100
AcDbEntity
  8
0
  6
ByBlock
 62
     0
370
    -2
380
     1
100
AcDbMText
 10
456.8112335
 20
602.9770303966766
 30
0.0
 40
2.5
 41
0.0
 71
     5
 72
     1
  1
\A1;867,47
 73
     1
 44
1.0
  0
ENDBLK
  5
FE6
330
F12
100
AcDbEntity
  8
0
100
AcDbBlockEnd
  0
BLOCK
  5
FE7
330
F1D
100
AcDbEntity
  8
0
100
AcDbBlockBegin
  2
*D32
 70
     1
 10
0.0
 20
0.0
 30
0.0
  3
*D32
  1

  0
POINT
  5
F14
330
F1D
100
AcDbEntity
  8
DEFPOINTS
  6
ByBlock
 62
     0
380
     1
100
AcDbPoint
 10
23.077789
 20
370.569824
 30
0.0
  0
POINT
  5
F15
330
F1D
100
AcDbEntity
  8
DEFPOINTS
  6
ByBlock
 62
     0
380
     1
100
AcDbPoint
 10
890.544678
 20
365.326843
 30
0.0
  0
LINE
  5
F16
330
F1D
100
AcDbEntity
  8
0
  6
ByBlock
 62
     0
370
    -2
380
     1
100
AcDbLine
 10
23.077789
 20
371.194824
 30
0.0
 11
23.077789
 21
592.7686970633432
 31
0.0
  0
LINE
  5
F17
330
F1D
100
AcDbEntity
  8
0
  6
ByBlock
 62
     0
370
    -2
380
     1
100
AcDbLine
 10
890.544678
 20
365.951843
 30
0.0
 11
890.544678
 21
592.7686970633432
 31
0.0
  0
LINE
  5
F18
330
F1D
100
AcDbEntity
  8
0
  6
ByBlock
 62
     0
370
    -2
380
     1
100
AcDbLine
 10
33.077789
 20
591.5186970633432
 30
0.0
 11
880.544678
 21
591.5186970633432
 31
0.0
  0
SOLID
  5
F19
330
F1D
100
AcDbEntity
  8
0
  6
ByBlock
 62
     0
380
     1
100
AcDbTrace
 10
23.077789
 20
591.5186970633432
 30
0.0
 11
33.077789
 21
589.8520303966766
 31
0.0
 12
33.077789
 22
593.1853637300098
 32
0.0
 13
33.077789
 23
593.1853637300098
 33
0.0
  0
SOLID
  5
F1A
330
F1D
100
AcDbEntity
  8
0
  6
ByBlock
 62
     0
380
     1
100
AcDbTrace
 10
890.544678
 20
591.5186970633432
 30
0.0
 11
880.544678
 21
589.8520303966766
 31
0.0
 12
880.544678
 22
593.1853637300098
 32
0.0
 13
880.544678
 23
593.1853637300098
 33
0.0
  0
MTEXT
  5
F1B
330
F1D
100
AcDbEntity
  8
0
  6
ByBlock
 62
     0
370
    -2
380
     1
100
AcDbMText
 10
456.8112335
 20
622.5186970633432
 30
0.0
 40
36.0
 41
0.0
 71
     5
 72
     1
  1
\A1;867,47
 73
     1
 44
1.0
  0
ENDBLK
  5
FE8
330
F1D
100
AcDbEntity
  8
0
100
AcDbBlockEnd
  0
BLOCK
  5
FE9
330
F28
100
AcDbEntity
  8
0
100
AcDbBlockBegin
  2
*D33
 70
     1
 10
0.0
 20
0.0
 30
0.0
  3
*D33
  1

  0
POINT
  5
F1F
330
F28
100
AcDbEntity
  8
DEFPOINTS
  6
ByBlock
 62
     0
380
     1
100
AcDbPoint
 10
22.85493618244613
 20
370.569824
 30
0.0
  0
POINT
  5
F20
330
F28
100
AcDbEntity
  8
DEFPOINTS
  6
ByBlock
 62
     0
380
     1
100
AcDbPoint
 10
890.3218251824461
 20
365.326843
 30
0.0
  0
LINE
  5
F21
330
F28
100
AcDbEntity
  8
0
  6
ByBlock
 62
     0
370
    -2
380
     1
100
AcDbLine
 10
22.85493618244613
 20
371.194824
 30
0.0
 11
22.85493618244613
 21
592.7686970633432
 31
0.0
  0
LINE
  5
F22
330
F28
100
AcDbEntity
  8
0
  6
ByBlock
 62
     0
370
    -2
380
     1
100
AcDbLine
 10
890.3218251824461
 20
365.951843
 30
0.0
 11
890.3218251824461
 21
592.7686970633432
 31
0.0
  0
LINE
  5
F23
330
F28
100
AcDbEntity
  8
0
  6
ByBlock
 62
     0
370
    -2
380
     1
100
AcDbLine
 10
32.85493618244612
 20
591.5186970633432
 30
0.0
 11
880.3218251824461
 21
591.5186970633432
 31
0.0
  0
SOLID
  5
F24
330
F28
100
AcDbEntity
  8
0
  6
ByBlock
 62
     0
380
     1
100
AcDbTrace
 10
22.85493618244613
 20
591.5186970633432
 30
0.0
 11
32.85493618244612
 21
589.8520303966766
 31
0.0
 12
32.85493618244612
 22
593.1853637300098
 32
0.0
 13
32.85493618244612
 23
593.1853637300098
 33
0.0
  0
SOLID
  5
F25
330
F28
100
AcDbEntity
  8
0
  6
ByBlock
 62
     0
380
     1
100
AcDbTrace
 10
890.3218251824461
 20
591.5186970633432
 30
0.0
 11
880.3218251824461
 21
589.8520303966766
 31
0.0
 12
880.3218251824461
 22
593.1853637300098
 32
0.0
 13
880.3218251824461
 23
593.1853637300098
 33
0.0
  0
MTEXT
  5
F26
330
F28
100
AcDbEntity
  8
0
  6
ByBlock
 62
     0
370
    -2
380
     1
100
AcDbMText
 10
456.5883806824461
 20
622.5186970633432
 30
0.0
 40
36.0
 41
0.0
 71
     5
 72
     1
  1
\A1;867,47
 73
     1
 44
1.0
  0
ENDBLK
  5
FEA
330
F28
100
AcDbEntity
  8
0
100
AcDbBlockEnd
  0
BLOCK
  5
FEB
330
F33
100
AcDbEntity
  8
0
100
AcDbBlockBegin
  2
*D34
 70
     1
 10
0.0
 20
0.0
 30
0.0
  3
*D34
  1

  0
POINT
  5
F2A
330
F33
100
AcDbEntity
  8
DEFPOINTS
  6
ByBlock
 62
     0
380
     1
100
AcDbPoint
 10
22.85493618244613
 20
370.569824
 30
0.0
  0
POINT
  5
F2B
330
F33
100
AcDbEntity
  8
DEFPOINTS
  6
ByBlock
 62
     0
380
     1
100
AcDbPoint
 10
892.000488
 20
341.199127
 30
0.0
  0
LINE
  5
F2C
330
F33
100
AcDbEntity
  8
0
  6
ByBlock
 62
     0
370
    -2
380
     1
100
AcDbLine
 10
22.85493618244613
 20
371.194824
 30
0.0
 11
22.85493618244613
 21
592.7686970633432
 31
0.0
  0
LINE
  5
F2D
330
F33
100
AcDbEntity
  8
0
  6
ByBlock
 62
     0
370
    -2
380
     1
100
AcDbLine
 10
892.000488
 20
341.824127
 30
0.0
 11
892.000488
 21
592.7686970633432
 31
0.0
  0
LINE
  5
F2E
330
F33
100
AcDbEntity
  8
0
  6
ByBlock
 62
     0
370
    -2
380
     1
100
AcDbLine
 10
32.85493618244612
 20
591.5186970633432
 30
0.0
 11
882.000488
 21
591.5186970633432
 31
0.0
  0
SOLID
  5
F2F
330
F33
100
AcDbEntity
  8
0
  6
ByBlock
 62
     0
380
     1
100
AcDbTrace
 10
22.85493618244613
 20
591.5186970633432
 30
0.0
 11
32.85493618244612
 21
589.8520303966766
 31
0.0
 12
32.85493618244612
 22
593.1853637300098
 32
0.0
 13
32.85493618244612
 23
593.1853637300098
 33
0.0
  0
SOLID
  5
F30
330
F33
100
AcDbEntity
  8
0
  6
ByBlock
 62
     0
380
     1
100
AcDbTrace
 10
892.000488
 20
591.5186970633432
 30
0.0
 11
882.000488
 21
589.8520303966766
 31
0.0
 12
882.000488
 22
593.1853637300098
 32
0.0
 13
882.000488
 23
593.1853637300098
 33
0.0
  0
MTEXT
  5
F31
330
F33
100
AcDbEntity
  8
0
  6
ByBlock
 62
     0
370
    -2
380
     1
100
AcDbMText
 10
457.427712091223
 20
622.5186970633432
 30
0.0
 40
36.0
 41
0.0
 71
     5
 72
     1
  1
\A1;869,15
 73
     1
 44
1.0
  0
ENDBLK
  5
FEC
330
F33
100
AcDbEntity
  8
0
100
AcDbBlockEnd
  0
BLOCK
  5
FED
330
F3E
100
AcDbEntity
  8
0
100
AcDbBlockBegin
  2
*D35
 70
     1
 10
0.0
 20
0.0
 30
0.0
  3
*D35
  1

  0
POINT
  5
F35
330
F3E
100
AcDbEntity
  8
DEFPOINTS
  6
ByBlock
 62
     0
380
     1
100
AcDbPoint
 10
23.08647794310157
 20
369.894493864755
 30
0.0
  0
POINT
  5
F36
330
F3E
100
AcDbEntity
  8
DEFPOINTS
  6
ByBlock
 62
     0
380
     1
100
AcDbPoint
 10
892.2320297606555
 20
340.523796864755
 30
0.0
  0
LINE
  5
F37
330
F3E
100
AcDbEntity
  8
0
  6
ByBlock
 62
     0
370
    -2
380
     1
100
AcDbLine
 10
23.08647794310157
 20
370.519493864755
 30
0.0
 11
23.08647794310157
 21
592.0933669280982
 31
0.0
  0
LINE
  5
F38
330
F3E
100
AcDbEntity
  8
0
  6
ByBlock
 62
     0
370
    -2
380
     1
100
AcDbLine
 10
892.2320297606555
 20
341.148796864755
 30
0.0
 11
892.2320297606555
 21
592.0933669280982
 31
0.0
  0
LINE
  5
F39
330
F3E
100
AcDbEntity
  8
0
  6
ByBlock
 62
     0
370
    -2
380
     1
100
AcDbLine
 10
33.08647794310157
 20
590.8433669280982
 30
0.0
 11
882.2320297606555
 21
590.8433669280982
 31
0.0
  0
SOLID
  5
F3A
330
F3E
100
AcDbEntity
  8
0
  6
ByBlock
 62
     0
380
     1
100
AcDbTrace
 10
23.08647794310157
 20
590.8433669280982
 30
0.0
 11
33.08647794310157
 21
589.1767002614316
 31
0.0
 12
33.08647794310157
 22
592.5100335947649
 32
0.0
 13
33.08647794310157
 23
592.5100335947649
 33
0.0
  0
SOLID
  5
F3B
330
F3E
100
AcDbEntity
  8
0
  6
ByBlock
 62
     0
380
     1
100
AcDbTrace
 10
892.2320297606555
 20
590.8433669280982
 30
0.0
 11
882.2320297606555
 21
589.1767002614316
 31
0.0
 12
882.2320297606555
 22
592.5100335947649
 32
0.0
 13
882.2320297606555
 23
592.5100335947649
 33
0.0
  0
MTEXT
  5
F3C
330
F3E
100
AcDbEntity
  8
0
  6
ByBlock
 62
     0
370
    -2
380
     1
100
AcDbMText
 10
457.6592538518785
 20
621.8433669280982
 30
0.0
 40
36.0
 41
0.0
 71
     5
 72
     1
  1
\A1;869,15
 73
     1
 44
1.0
  0
ENDBLK
  5
FEE
330
F3E
100
AcDbEntity
  8
0
100
AcDbBlockEnd
  0
BLOCK
  5
FEF
330
F49
100
AcDbEntity
  8
0
100
AcDbBlockBegin
  2
*D36
 70
     1
 10
0.0
 20
0.0
 30
0.0
  3
*D36
  1

  0
POINT
  5
F40
330
F49
100
AcDbEntity
  8
DEFPOINTS
  6
ByBlock
 62
     0
380
     1
100
AcDbPoint
 10
23.08647794310157
 20
369.894493864755
 30
0.0
  0
POINT
  5
F41
330
F49
100
AcDbEntity
  8
DEFPOINTS
  6
ByBlock
 62
     0
380
     1
100
AcDbPoint
 10
892.2320297606555
 20
340.523796864755
 30
0.0
  0
LINE
  5
F42
330
F49
100
AcDbEntity
  8
0
  6
ByBlock
 62
     0
370
    -2
380
     1
100
AcDbLine
 10
23.08647794310157
 20
370.519493864755
 30
0.0
 11
23.08647794310157
 21
592.0933669280982
 31
0.0
  0
LINE
  5
F43
330
F49
100
AcDbEntity
  8
0
  6
ByBlock
 62
     0
370
    -2
380
     1
100
AcDbLine
 10
892.2320297606555
 20
341.148796864755
 30
0.0
 11
892.2320297606555
 21
592.0933669280982
 31
0.0
  0
LINE
  5
F44
330
F49
100
AcDbEntity
  8
0
  6
ByBlock
 62
     0
370
    -2
380
     1
100
AcDbLine
 10
33.08647794310157
 20
590.8433669280982
 30
0.0
 11
882.2320297606555
 21
590.8433669280982
 31
0.0
  0
SOLID
  5
F45
330
F49
100
AcDbEntity
  8
0
  6
ByBlock
 62
     0
380
     1
100
AcDbTrace
 10
23.08647794310157
 20
590.8433669280982
 30
0.0
 11
33.08647794310157
 21
589.1767002614316
 31
0.0
 12
33.08647794310157
 22
592.5100335947649
 32
0.0
 13
33.08647794310157
 23
592.5100335947649
 33
0.0
  0
SOLID
  5
F46
330
F49
100
AcDbEntity
  8
0
  6
ByBlock
 62
     0
380
     1
100
AcDbTrace
 10
892.2320297606555
 20
590.8433669280982
 30
0.0
 11
882.2320297606555
 21
589.1767002614316
 31
0.0
 12
882.2320297606555
 22
592.5100335947649
 32
0.0
 13
882.2320297606555
 23
592.5100335947649
 33
0.0
  0
MTEXT
  5
F47
330
F49
100
AcDbEntity
  8
0
  6
ByBlock
 62
     0
370
    -2
380
     1
100
AcDbMText
 10
457.6592538518785
 20
618.8433669280982
 30
0.0
 40
36.0
 41
0.0
 71
     5
 72
     1
  1
\A1;869
 73
     1
 44
1.0
  0
ENDBLK
  5
FF0
330
F49
100
AcDbEntity
  8
0
100
AcDbBlockEnd
  0
BLOCK
  5
FF1
330
F54
100
AcDbEntity
  8
0
100
AcDbBlockBegin
  2
*D37
 70
     1
 10
0.0
 20
0.0
 30
0.0
  3
*D37
  1

  0
POINT
  5
F4B
330
F54
100
AcDbEntity
  8
DEFPOINTS
  6
ByBlock
 62
     0
380
     1
100
AcDbPoint
 10
23.08647794310157
 20
369.894493864755
 30
0.0
  0
POINT
  5
F4C
330
F54
100
AcDbEntity
  8
DEFPOINTS
  6
ByBlock
 62
     0
380
     1
100
AcDbPoint
 10
892.2320297606555
 20
340.523796864755
 30
0.0
  0
LINE
  5
F4D
330
F54
100
AcDbEntity
  8
0
  6
ByBlock
 62
     0
370
    -2
380
     1
100
AcDbLine
 10
23.08647794310157
 20
370.519493864755
 30
0.0
 11
23.08647794310157
 21
592.0933669280982
 31
0.0
  0
LINE
  5
F4E
330
F54
100
AcDbEntity
  8
0
  6
ByBlock
 62
     0
370
    -2
380
     1
100
AcDbLine
 10
892.2320297606555
 20
341.148796864755
 30
0.0
 11
892.2320297606555
 21
592.0933669280982
 31
0.0
  0
LINE
  5
F4F
330
F54
100
AcDbEntity
  8
0
  6
ByBlock
 62
     0
370
    -2
380
     1
100
AcDbLine
 10
33.08647794310157
 20
590.8433669280982
 30
0.0
 11
882.2320297606555
 21
590.8433669280982
 31
0.0
  0
SOLID
  5
F50
330
F54
100
AcDbEntity
  8
0
  6
ByBlock
 62
     0
380
     1
100
AcDbTrace
 10
23.08647794310157
 20
590.8433669280982
 30
0.0
 11
33.08647794310157
 21
589.1767002614316
 31
0.0
 12
33.08647794310157
 22
592.5100335947649
 32
0.0
 13
33.08647794310157
 23
592.5100335947649
 33
0.0
  0
SOLID
  5
F51
330
F54
100
AcDbEntity
  8
0
  6
ByBlock
 62
     0
380
     1
100
AcDbTrace
 10
892.2320297606555
 20
590.8433669280982
 30
0.0
 11
882.2320297606555
 21
589.1767002614316
 31
0.0
 12
882.2320297606555
 22
592.5100335947649
 32
0.0
 13
882.2320297606555
 23
592.5100335947649
 33
0.0
  0
MTEXT
  5
F52
330
F54
100
AcDbEntity
  8
0
  6
ByBlock
 62
     0
370
    -2
380
     1
100
AcDbMText
 10
457.6592538518785
 20
618.8433669280982
 30
0.0
 40
36.0
 41
0.0
 71
     5
 72
     1
  1
\A1;869
 73
     1
 44
1.0
  0
ENDBLK
  5
FF2
330
F54
100
AcDbEntity
  8
0
100
AcDbBlockEnd
  0
BLOCK
  5
FF3
330
F5F
100
AcDbEntity
  8
0
100
AcDbBlockBegin
  2
*D38
 70
     1
 10
0.0
 20
0.0
 30
0.0
  3
*D38
  1

  0
POINT
  5
F56
330
F5F
100
AcDbEntity
  8
DEFPOINTS
  6
ByBlock
 62
     7
380
     1
100
AcDbPoint
 10
1073.854858
 20
371.098343
 30
0.0
  0
POINT
  5
F57
330
F5F
100
AcDbEntity
  8
DEFPOINTS
  6
ByBlock
 62
     7
380
     1
100
AcDbPoint
 10
1483.184448
 20
370.599304
 30
0.0
  0
LINE
  5
F58
330
F5F
100
AcDbEntity
  8
0
  6
ByBlock
 62
     7
370
    -2
380
     1
100
AcDbLine
 10
1073.854858
 20
371.723343
 30
0.0
 11
1073.854858
 21
589.7616350743327
 31
0.0
  0
LINE
  5
F59
330
F5F
100
AcDbEntity
  8
0
  6
ByBlock
 62
     7
370
    -2
380
     1
100
AcDbLine
 10
1483.184448
 20
371.224304
 30
0.0
 11
1483.184448
 21
589.7616350743327
 31
0.0
  0
LINE
  5
F5A
330
F5F
100
AcDbEntity
  8
0
  6
ByBlock
 62
     7
370
    -2
380
     1
100
AcDbLine
 10
1083.854858
 20
588.5116350743327
 30
0.0
 11
1473.184448
 21
588.5116350743327
 31
0.0
  0
SOLID
  5
F5B
330
F5F
100
AcDbEntity
  8
0
  6
ByBlock
 62
     7
380
     1
100
AcDbTrace
 10
1073.854858
 20
588.5116350743327
 30
0.0
 11
1083.854858
 21
586.8449684076661
 31
0.0
 12
1083.854858
 22
590.1783017409994
 32
0.0
 13
1083.854858
 23
590.1783017409994
 33
0.0
  0
SOLID
  5
F5C
330
F5F
100
AcDbEntity
  8
0
  6
ByBlock
 62
     7
380
     1
100
AcDbTrace
 10
1483.184448
 20
588.5116350743327
 30
0.0
 11
1473.184448
 21
586.8449684076661
 31
0.0
 12
1473.184448
 22
590.1783017409994
 32
0.0
 13
1473.184448
 23
590.1783017409994
 33
0.0
  0
MTEXT
  5
F5D
330
F5F
100
AcDbEntity
  8
0
  6
ByBlock
 62
     0
370
    -2
380
     1
100
AcDbMText
 10
1278.519653
 20
605.5116350743327
 30
0.0
 40
14.0
 41
0.0
 71
     5
 72
     1
  1
410
 73
     1
 44
1.0
  0
ENDBLK
  5
FF4
330
F5F
100
AcDbEntity
  8
0
100
AcDbBlockEnd
  0
BLOCK
  5
FF5
330
F6A
100
AcDbEntity
  8
0
100
AcDbBlockBegin
  2
*D39
 70
     1
 10
0.0
 20
0.0
 30
0.0
  3
*D39
  1

  0
POINT
  5
F61
330
F6A
100
AcDbEntity
  8
DEFPOINTS
  6
ByBlock
 62
     7
380
     1
100
AcDbPoint
 10
1073.854858
 20
371.098343
 30
0.0
  0
POINT
  5
F62
330
F6A
100
AcDbEntity
  8
DEFPOINTS
  6
ByBlock
 62
     7
380
     1
100
AcDbPoint
 10
1483.184448
 20
370.599304
 30
0.0
  0
LINE
  5
F63
330
F6A
100
AcDbEntity
  8
0
  6
ByBlock
 62
     7
370
    -2
380
     1
100
AcDbLine
 10
1073.854858
 20
371.723343
 30
0.0
 11
1073.854858
 21
589.7616350743327
 31
0.0
  0
LINE
  5
F64
330
F6A
100
AcDbEntity
  8
0
  6
ByBlock
 62
     7
370
    -2
380
     1
100
AcDbLine
 10
1483.184448
 20
371.224304
 30
0.0
 11
1483.184448
 21
589.7616350743327
 31
0.0
  0
LINE
  5
F65
330
F6A
100
AcDbEntity
  8
0
  6
ByBlock
 62
     7
370
    -2
380
     1
100
AcDbLine
 10
1083.854858
 20
588.5116350743327
 30
0.0
 11
1473.184448
 21
588.5116350743327
 31
0.0
  0
SOLID
  5
F66
330
F6A
100
AcDbEntity
  8
0
  6
ByBlock
 62
     7
380
     1
100
AcDbTrace
 10
1073.854858
 20
588.5116350743327
 30
0.0
 11
1083.854858
 21
586.8449684076661
 31
0.0
 12
1083.854858
 22
590.1783017409994
 32
0.0
 13
1083.854858
 23
590.1783017409994
 33
0.0
  0
SOLID
  5
F67
330
F6A
100
AcDbEntity
  8
0
  6
ByBlock
 62
     7
380
     1
100
AcDbTrace
 10
1483.184448
 20
588.5116350743327
 30
0.0
 11
1473.184448
 21
586.8449684076661
 31
0.0
 12
1473.184448
 22
590.1783017409994
 32
0.0
 13
1473.184448
 23
590.1783017409994
 33
0.0
  0
MTEXT
  5
F68
330
F6A
100
AcDbEntity
  8
0
  6
ByBlock
 62
     0
370
    -2
380
     1
100
AcDbMText
 10
1278.519653
 20
616.5116350743327
 30
0.0
 40
36.0
 41
0.0
 71
     5
 72
     1
  1
410
 73
     1
 44
1.0
  0
ENDBLK
  5
FF6
330
F6A
100
AcDbEntity
  8
0
100
AcDbBlockEnd
  0
BLOCK
  5
FF7
330
F82
100
AcDbEntity
  8
0
100
AcDbBlockBegin
  2
*D40
 70
     1
 10
0.0
 20
0.0
 30
0.0
  3
*D40
  1

  0
POINT
  5
F79
330
F82
100
AcDbEntity
  8
DEFPOINTS
  6
ByBlock
 62
     0
380
     1
100
AcDbPoint
 10
23.08647794310157
 20
369.894493864755
 30
0.0
  0
POINT
  5
F7A
330
F82
100
AcDbEntity
  8
DEFPOINTS
  6
ByBlock
 62
     0
380
     1
100
AcDbPoint
 10
892.2320297606555
 20
340.523796864755
 30
0.0
  0
LINE
  5
F7B
330
F82
100
AcDbEntity
  8
0
  6
ByBlock
 62
     0
370
    -2
380
     1
100
AcDbLine
 10
23.08647794310157
 20
370.519493864755
 30
0.0
 11
23.08647794310157
 21
828.901901900414
 31
0.0
  0
LINE
  5
F7C
330
F82
100
AcDbEntity
  8
0
  6
ByBlock
 62
     0
370
    -2
380
     1
100
AcDbLine
 10
892.2320297606555
 20
341.148796864755
 30
0.0
 11
892.2320297606555
 21
828.901901900414
 31
0.0
  0
LINE
  5
F7D
330
F82
100
AcDbEntity
  8
0
  6
ByBlock
 62
     0
370
    -2
380
     1
100
AcDbLine
 10
33.08647794310157
 20
827.651901900414
 30
0.0
 11
882.2320297606555
 21
827.651901900414
 31
0.0
  0
SOLID
  5
F7E
330
F82
100
AcDbEntity
  8
0
  6
ByBlock
 62
     0
380
     1
100
AcDbTrace
 10
23.08647794310157
 20
827.651901900414
 30
0.0
 11
33.08647794310157
 21
825.9852352337473
 31
0.0
 12
33.08647794310157
 22
829.3185685670808
 32
0.0
 13
33.08647794310157
 23
829.3185685670808
 33
0.0
  0
SOLID
  5
F7F
330
F82
100
AcDbEntity
  8
0
  6
ByBlock
 62
     0
380
     1
100
AcDbTrace
 10
892.2320297606555
 20
827.651901900414
 30
0.0
 11
882.2320297606555
 21
825.9852352337473
 31
0.0
 12
882.2320297606555
 22
829.3185685670808
 32
0.0
 13
882.2320297606555
 23
829.3185685670808
 33
0.0
  0
MTEXT
  5
F80
330
F82
100
AcDbEntity
  8
0
  6
ByBlock
 62
     0
370
    -2
380
     1
100
AcDbMText
 10
483.7607671757345
 20
855.651901900414
 30
0.0
 40
36.0
 41
0.0
 71
     5
 72
     1
  1
\A1;869
 73
     1
 44
1.0
  0
ENDBLK
  5
FF8
330
F82
100
AcDbEntity
  8
0
100
AcDbBlockEnd
  0
BLOCK
  5
FF9
330
F99
100
AcDbEntity
  8
0
100
AcDbBlockBegin
  2
*D41
 70
     1
 10
0.0
 20
0.0
 30
0.0
  3
*D41
  1

  0
POINT
  5
F90
330
F99
100
AcDbEntity
  8
DEFPOINTS
  6
ByBlock
 62
     0
380
     1
100
AcDbPoint
 10
23.08647794310157
 20
369.894493864755
 30
0.0
  0
POINT
  5
F91
330
F99
100
AcDbEntity
  8
DEFPOINTS
  6
ByBlock
 62
     0
380
     1
100
AcDbPoint
 10
892.2320297606555
 20
340.523796864755
 30
0.0
  0
LINE
  5
F92
330
F99
100
AcDbEntity
  8
0
  6
ByBlock
 62
     0
370
    -2
380
     1
100
AcDbLine
 10
23.08647794310157
 20
370.519493864755
 30
0.0
 11
23.08647794310157
 21
589.7616350743328
 31
0.0
  0
LINE
  5
F93
330
F99
100
AcDbEntity
  8
0
  6
ByBlock
 62
     0
370
    -2
380
     1
100
AcDbLine
 10
892.2320297606555
 20
341.148796864755
 30
0.0
 11
892.2320297606555
 21
589.7616350743328
 31
0.0
  0
LINE
  5
F94
330
F99
100
AcDbEntity
  8
0
  6
ByBlock
 62
     0
370
    -2
380
     1
100
AcDbLine
 10
33.08647794310157
 20
588.5116350743328
 30
0.0
 11
882.2320297606555
 21
588.5116350743328
 31
0.0
  0
SOLID
  5
F95
330
F99
100
AcDbEntity
  8
0
  6
ByBlock
 62
     0
380
     1
100
AcDbTrace
 10
23.08647794310157
 20
588.5116350743328
 30
0.0
 11
33.08647794310157
 21
586.8449684076662
 31
0.0
 12
33.08647794310157
 22
590.1783017409995
 32
0.0
 13
33.08647794310157
 23
590.1783017409995
 33
0.0
  0
SOLID
  5
F96
330
F99
100
AcDbEntity
  8
0
  6
ByBlock
 62
     0
380
     1
100
AcDbTrace
 10
892.2320297606555
 20
588.5116350743328
 30
0.0
 11
882.2320297606555
 21
586.8449684076662
 31
0.0
 12
882.2320297606555
 22
590.1783017409995
 32
0.0
 13
882.2320297606555
 23
590.1783017409995
 33
0.0
  0
MTEXT
  5
F97
330
F99
100
AcDbEntity
  8
0
  6
ByBlock
 62
     0
370
    -2
380
     1
100
AcDbMText
 10
469.9238729152699
 20
616.5116350743328
 30
0.0
 40
36.0
 41
0.0
 71
     5
 72
     1
  1
\A1;869
 73
     1
 44
1.0
  0
ENDBLK
  5
FFA
330
F99
100
AcDbEntity
  8
0
100
AcDbBlockEnd
  0
ENDSEC
  0
SECTION
  2
ENTITIES
  0
LINE
  5
2B
330
1F
100
AcDbEntity
  8
0
  6
DASHDOT
 48
0.002087
370
    60
390
F
100
AcDbLine
 10
807.327942
 20
264.556885
 30
0.0
 11
807.327942
 21
264.473389
 31
0.0
  0
ARC
  5
2A3
330
1F
100
AcDbEntity
  8
0
370
    60
390
F
100
AcDbCircle
 10
509.285583
 20
763.214966
 30
0.0
 40
387.491577
100
AcDbArc
 50
308.672804
 51
313.198979
  0
ARC
  5
2A4
330
1F
100
AcDbEntity
  8
0
370
    60
390
F
100
AcDbCircle
 10
810.0754089451275
 20
341.6092075741064
 30
0.0
 40
80.52605170967362
100
AcDbArc
 50
88.08007544700082
 51
177.1321347919212
  0
POINT
  5
2A5
330
1F
100
AcDbEntity
  8
0
370
    60
390
F
100
AcDbPoint
 10
384.385986
 20
531.757446
 30
0.0
  0
LINE
  5
2A6
330
1F
100
AcDbEntity
  8
0
370
    60
390
F
100
AcDbLine
 10
768.080078
 20
266.49054
 30
0.0
 11
768.080078
 21
186.081879
 31
0.0
  0
LINE
  5
2A7
330
1F
100
AcDbEntity
  8
0
370
    60
390
F
100
AcDbLine
 10
842.803589
 20
266.852966
 30
0.0
 11
842.803589
 21
186.081879
 31
0.0
  0
LINE
  5
2A8
330
1F
100
AcDbEntity
  8
0
370
    60
390
F
100
AcDbLine
 10
768.080078
 20
186.081879
 30
0.0
 11
842.803589
 21
186.081879
 31
0.0
  0
LINE
  5
2AC
330
1F
100
AcDbEntity
  8
0
 48
0.021646
370
    60
390
F
100
AcDbLine
 10
765.141235
 20
266.852966
 30
0.0
 11
766.00708
 21
266.852966
 31
0.0
  0
LINE
  5
2AD
330
1F
100
AcDbEntity
  8
0
 48
0.288879
370
    60
390
F
100
AcDbLine
 10
766.00708
 20
266.852966
 30
0.0
 11
777.562256
 21
266.852966
 31
0.0
  0
LINE
  5
2AE
330
1F
100
AcDbEntity
  8
0
 48
0.019693
370
    60
390
F
100
AcDbLine
 10
777.562256
 20
266.852966
 30
0.0
 11
778.349976
 21
266.852966
 31
0.0
  0
LINE
  5
2AF
330
1F
100
AcDbEntity
  8
0
 48
0.316875
370
    60
390
F
100
AcDbLine
 10
778.349976
 20
266.852966
 30
0.0
 11
791.024963
 21
266.852966
 31
0.0
  0
LINE
  5
2B0
330
1F
100
AcDbEntity
  8
0
370
    60
390
F
100
AcDbLine
 10
825.97583
 20
266.852966
 30
0.0
 11
853.183716
 21
266.852966
 31
0.0
  0
LINE
  5
2B1
330
1F
100
AcDbEntity
  8
0
 48
0.018675
370
    60
390
F
100
AcDbLine
 10
759.246216
 20
266.852966
 30
0.0
 11
759.993225
 21
266.852966
 31
0.0
  0
LINE
  5
2B2
330
1F
100
AcDbEntity
  8
0
 48
0.098465
370
    60
390
F
100
AcDbLine
 10
759.993164
 20
266.852966
 30
0.0
 11
763.931763
 21
266.852966
 31
0.0
  0
LINE
  5
2B3
330
1F
100
AcDbEntity
  8
0
 48
0.030237
370
    60
390
F
100
AcDbLine
 10
763.931763
 20
266.852966
 30
0.0
 11
765.141235
 21
266.852966
 31
0.0
  0
LINE
  5
2B4
330
1F
100
AcDbEntity
  8
0
 48
0.29674
370
    60
390
F
100
AcDbLine
 10
853.183716
 20
266.852753
 30
0.0
 11
852.976563
 21
278.720551
 31
0.0
  0
LINE
  5
2B5
330
1F
100
AcDbEntity
  8
0
 48
0.297006
370
    60
390
F
100
AcDbLine
 10
759.246338
 20
266.852966
 30
0.0
 11
759.453613
 21
278.731384
 31
0.0
  0
ARC
  5
2B6
330
1F
100
AcDbEntity
  8
0
370
    60
390
F
100
AcDbCircle
 10
756.858765
 20
413.636444
 30
0.0
 40
95.0
100
AcDbArc
 50
60.00521800000002
 51
94.545951
  0
ARC
  5
2B7
330
1F
100
AcDbEntity
  8
0
370
    60
390
F
100
AcDbCircle
 10
756.858765
 20
413.636444
 30
0.0
 40
95.0
100
AcDbArc
 50
56.539307
 51
60.005834
  0
ARC
  5
2B8
330
1F
100
AcDbEntity
  8
0
370
    60
390
F
100
AcDbCircle
 10
756.858765
 20
413.636444
 30
0.0
 40
95.0
100
AcDbArc
 50
52.592212
 51
54.20515
  0
LINE
  5
2B9
330
1F
100
AcDbEntity
  8
0
370
    60
390
F
100
AcDbLine
 10
817.037964
 20
464.192444
 30
0.0
 11
816.672913
 21
485.105194
 31
0.0
  0
LINE
  5
2BA
330
1F
100
AcDbEntity
  8
0
 48
0.119749
370
    60
390
F
100
AcDbLine
 10
740.039551
 20
493.754303
 30
0.0
 11
740.123108
 21
498.543549
 31
0.0
  0
ARC
  5
2BB
330
1F
100
AcDbEntity
  8
0
370
    60
390
F
100
AcDbCircle
 10
750.121033
 20
498.36908
 30
0.0
 40
10.000018
100
AcDbArc
 50
94.544148
 51
179.000284
  0
LWPOLYLINE
  5
2BC
330
1F
100
AcDbEntity
  8
0
370
    60
390
F
100
AcDbPolyline
 90
       10
 70
     0
 43
0.0
 10
816.674133
 20
485.105286
 10
816.632813
 20
485.665009
 10
816.529053
 20
486.216553
 10
816.364136
 20
486.753021
 10
816.140015
 20
487.267639
 10
815.859741
 20
487.753906
 10
815.526611
 20
488.20575
 10
815.177307
 20
488.585999
 10
814.699341
 20
488.999786
 10
814.570923
 20
489.098389
  0
ARC
  5
2C8
330
1F
100
AcDbEntity
  8
0
370
    60
390
F
100
AcDbCircle
 10
756.887573
 20
413.775513
 30
0.0
 40
94.869095
100
AcDbArc
 50
54.177156
 51
56.519738
  0
LINE
  5
2C9
330
1F
100
AcDbEntity
  8
0
 48
0.086603
370
    60
390
F
100
AcDbLine
 10
852.649292
 20
299.879517
 30
0.0
 11
849.649292
 21
298.147461
 31
0.0
  0
LINE
  5
2CA
330
1F
100
AcDbEntity
  8
0
 48
0.086603
370
    60
390
F
100
AcDbLine
 10
849.649292
 20
298.147461
 30
0.0
 11
846.649292
 21
299.879517
 31
0.0
  0
LINE
  5
2CB
330
1F
100
AcDbEntity
  8
0
 48
0.086602
370
    60
390
F
100
AcDbLine
 10
846.649292
 20
299.879517
 30
0.0
 11
846.649292
 21
303.343597
 31
0.0
  0
LINE
  5
2CC
330
1F
100
AcDbEntity
  8
0
 48
0.086603
370
    60
390
F
100
AcDbLine
 10
849.649292
 20
305.075653
 30
0.0
 11
846.649292
 21
303.343597
 31
0.0
  0
LINE
  5
2CD
330
1F
100
AcDbEntity
  8
0
 48
0.086603
370
    60
390
F
100
AcDbLine
 10
852.649292
 20
303.343597
 30
0.0
 11
849.649292
 21
305.075653
 31
0.0
  0
LINE
  5
2CE
330
1F
100
AcDbEntity
  8
0
 48
0.086602
370
    60
390
F
100
AcDbLine
 10
852.649292
 20
299.879517
 30
0.0
 11
852.649292
 21
303.343597
 31
0.0
  0
CIRCLE
  5
2CF
330
1F
100
AcDbEntity
  8
0
370
    60
390
F
100
AcDbCircle
 10
849.649292
 20
301.614716
 30
0.0
 40
6.5
  0
ARC
  5
2D0
330
1F
100
AcDbEntity
  8
0
370
    60
390
F
100
AcDbCircle
 10
865.420532
 20
309.243195
 30
0.0
 40
1.0
100
AcDbArc
 50
328.534557
 51
74.999995
  0
LINE
  5
2D1
330
1F
100
AcDbEntity
  8
0
 48
0.427579
370
    60
390
F
100
AcDbLine
 10
849.158936
 20
314.635742
 30
0.0
 11
865.679321
 21
310.209106
 31
0.0
  0
ARC
  5
2D2
330
1F
100
AcDbEntity
  8
0
370
    60
390
F
100
AcDbCircle
 10
848.770752
 20
313.186829
 30
0.0
 40
1.5
100
AcDbArc
 50
74.999998
 51
142.945736
  0
ARC
  5
2D3
330
1F
100
AcDbEntity
  8
0
370
    60
390
F
100
AcDbCircle
 10
805.116577
 20
346.147491
 30
0.0
 40
53.200001
100
AcDbArc
 50
307.054132
 51
322.945741
  0
ARC
  5
2D4
330
1F
100
AcDbEntity
  8
0
370
    60
390
F
100
AcDbCircle
 10
838.077026
 20
302.493225
 30
0.0
 40
1.5
100
AcDbArc
 50
127.054113
 51
194.992968
  0
LINE
  5
2D5
330
1F
100
AcDbEntity
  8
0
 48
0.427594
370
    60
390
F
100
AcDbLine
 10
836.628174
 20
302.105164
 30
0.0
 11
841.052856
 21
285.583649
 31
0.0
  0
ARC
  5
2D6
330
1F
100
AcDbEntity
  8
0
370
    60
390
F
100
AcDbCircle
 10
842.018921
 20
285.842346
 30
0.0
 40
1.0
100
AcDbArc
 50
194.992968
 51
301.46357
  0
ARC
  5
2D7
330
1F
100
AcDbEntity
  8
0
370
    60
390
F
100
AcDbCircle
 10
805.116577
 20
346.147491
 30
0.0
 40
71.699997
100
AcDbArc
 50
301.46357
 51
313.615705
  0
ARC
  5
2D8
330
1F
100
AcDbEntity
  8
0
370
    60
390
F
100
AcDbCircle
 10
854.231567
 20
294.599915
 30
0.0
 40
0.5
100
AcDbArc
 50
313.615705
 51
15.000007
  0
LINE
  5
2D9
330
1F
100
AcDbEntity
  8
0
 48
0.042702
370
    60
390
F
100
AcDbLine
 10
854.7146
 20
294.729309
 30
0.0
 11
854.272461
 21
296.379181
 31
0.0
  0
ARC
  5
2DA
330
1F
100
AcDbEntity
  8
0
370
    60
390
F
100
AcDbCircle
 10
854.755493
 20
296.508575
 30
0.0
 40
0.5
100
AcDbArc
 50
74.999998
 51
195.000002
  0
LINE
  5
2DB
330
1F
100
AcDbEntity
  8
0
 48
0.0427
370
    60
390
F
100
AcDbLine
 10
854.884888
 20
296.991547
 30
0.0
 11
856.534668
 21
296.549469
 31
0.0
  0
ARC
  5
2DC
330
1F
100
AcDbEntity
  8
0
370
    60
390
F
100
AcDbCircle
 10
856.664185
 20
297.03244
 30
0.0
 40
0.5
100
AcDbArc
 50
255.000004
 51
316.38428
  0
ARC
  5
2DD
330
1F
100
AcDbEntity
  8
0
370
    60
390
F
100
AcDbCircle
 10
805.116577
 20
346.147491
 30
0.0
 40
71.699997
100
AcDbArc
 50
316.38428
 51
328.534557
  0
LINE
  5
2DE
330
1F
100
AcDbEntity
  8
0
370
    60
390
F
100
AcDbLine
 10
856.024658
 20
333.628357
 30
0.0
 11
877.909424
 21
335.54303
 31
0.0
  0
ARC
  5
2DF
330
1F
100
AcDbEntity
  8
0
370
    60
390
F
100
AcDbCircle
 10
856.448853
 20
328.795837
 30
0.0
 40
4.851454
100
AcDbArc
 50
95.015417
 51
163.631183
  0
ARC
  5
2E0
330
1F
100
AcDbEntity
  8
0
370
    60
390
F
100
AcDbCircle
 10
808.354492
 20
342.908691
 30
0.0
 40
45.271187
100
AcDbArc
 50
286.352508
 51
343.647748
  0
ARC
  5
2E1
330
1F
100
AcDbEntity
  8
0
370
    60
390
F
100
AcDbCircle
 10
822.467651
 20
294.814148
 30
0.0
 40
4.851449
100
AcDbArc
 50
106.368749
 51
174.976756
  0
LINE
  5
2E2
330
1F
100
AcDbEntity
  8
0
370
    60
390
F
100
AcDbLine
 10
817.635193
 20
295.238922
 30
0.0
 11
815.717773
 21
273.353546
 31
0.0
  0
ARC
  5
2E3
330
1F
100
AcDbEntity
  8
0
370
    60
390
F
100
AcDbCircle
 10
819.55188
 20
273.017273
 30
0.0
 40
3.848698
100
AcDbArc
 50
174.987616
 51
279.108168
  0
ARC
  5
2E4
330
1F
100
AcDbEntity
  8
0
370
    60
390
F
100
AcDbCircle
 10
808.353455
 20
342.90979
 30
0.0
 40
74.632698
100
AcDbArc
 50
279.103042
 51
350.894896
  0
ARC
  5
2E5
330
1F
100
AcDbEntity
  8
0
370
    60
390
F
100
AcDbCircle
 10
878.245239
 20
331.708893
 30
0.0
 40
3.848698
100
AcDbArc
 50
350.889957
 51
95.005192
  0
LINE
  5
2E6
330
1F
100
AcDbEntity
  8
0
370
    60
390
F
100
AcDbLine
 10
856.242554
 20
331.137878
 30
0.0
 11
878.127319
 21
333.052551
 31
0.0
  0
ARC
  5
2E7
330
1F
100
AcDbEntity
  8
0
370
    60
390
F
100
AcDbCircle
 10
878.245972
 20
331.709564
 30
0.0
 40
1.347695
100
AcDbArc
 50
350.846291
 51
95.048728
  0
ARC
  5
2E8
330
1F
100
AcDbEntity
  8
0
370
    60
390
F
100
AcDbCircle
 10
808.354919
 20
342.907806
 30
0.0
 40
72.13031
100
AcDbArc
 50
279.102154
 51
350.896257
  0
ARC
  5
2E9
330
1F
100
AcDbEntity
  8
0
370
    60
390
F
100
AcDbCircle
 10
819.551147
 20
273.016541
 30
0.0
 40
1.347697
100
AcDbArc
 50
174.944012
 51
279.151635
  0
LINE
  5
2EA
330
1F
100
AcDbEntity
  8
0
370
    60
390
F
100
AcDbLine
 10
820.12561
 20
295.020721
 30
0.0
 11
818.208252
 21
273.135376
 31
0.0
  0
ARC
  5
2EB
330
1F
100
AcDbEntity
  8
0
370
    60
390
F
100
AcDbCircle
 10
822.465088
 20
294.816345
 30
0.0
 40
2.348183
100
AcDbArc
 50
106.341803
 51
175.00685
  0
ARC
  5
2EC
330
1F
100
AcDbEntity
  8
0
370
    60
390
F
100
AcDbCircle
 10
808.352417
 20
342.910248
 30
0.0
 40
47.773743
100
AcDbArc
 50
286.354462
 51
343.646673
  0
ARC
  5
2ED
330
1F
100
AcDbEntity
  8
0
370
    60
390
F
100
AcDbCircle
 10
856.446777
 20
328.798462
 30
0.0
 40
2.348185
100
AcDbArc
 50
94.988465
 51
163.661291
  0
ARC
  5
326
330
1F
100
AcDbEntity
  8
0
370
    60
390
F
100
AcDbCircle
 10
833.035034
 20
289.981171
 30
0.0
 40
4.25
100
AcDbArc
 50
115.000004
 51
294.999995
  0
ARC
  5
327
330
1F
100
AcDbEntity
  8
0
370
    60
390
F
100
AcDbCircle
 10
808.354065
 20
342.909546
 30
0.0
 40
62.650024
100
AcDbArc
 50
329.493491
 51
334.999988
  0
ARC
  5
328
330
1F
100
AcDbEntity
  8
0
370
    60
390
F
100
AcDbCircle
 10
808.354065
 20
342.909546
 30
0.0
 40
62.650024
100
AcDbArc
 50
294.999995
 51
300.505265
  0
ARC
  5
329
330
1F
100
AcDbEntity
  8
0
370
    60
390
F
100
AcDbCircle
 10
861.282471
 20
318.228638
 30
0.0
 40
4.25
100
AcDbArc
 50
334.999988
 51
154.999979
  0
ARC
  5
32A
330
1F
100
AcDbEntity
  8
0
370
    60
390
F
100
AcDbCircle
 10
808.354065
 20
342.909546
 30
0.0
 40
54.150024
100
AcDbArc
 50
326.982137
 51
334.999988
  0
ARC
  5
32B
330
1F
100
AcDbEntity
  8
0
370
    60
390
F
100
AcDbCircle
 10
808.354065
 20
342.909546
 30
0.0
 40
54.150024
100
AcDbArc
 50
294.999995
 51
303.017628
  0
LINE
  5
32C
330
1F
100
AcDbEntity
  8
0
 48
0.027961
370
    60
390
F
100
AcDbLine
 10
855.780151
 20
294.928101
 30
0.0
 11
855.767578
 21
293.809723
 31
0.0
  0
LINE
  5
32D
330
1F
100
AcDbEntity
  8
0
 48
0.020242
370
    60
390
F
100
AcDbLine
 10
856.352661
 20
295.500671
 30
0.0
 11
855.780151
 21
294.928101
 31
0.0
  0
LINE
  5
32E
330
1F
100
AcDbEntity
  8
0
 48
0.027742
370
    60
390
F
100
AcDbLine
 10
857.462158
 20
295.520752
 30
0.0
 11
856.352661
 21
295.500671
 31
0.0
  0
LINE
  5
32F
330
1F
100
AcDbEntity
  8
0
 48
0.060823
370
    60
390
F
100
AcDbLine
 10
857.462158
 20
295.520752
 30
0.0
 11
859.182495
 21
293.800415
 31
0.0
  0
LINE
  5
330
330
1F
100
AcDbEntity
  8
0
 48
0.028298
370
    60
390
F
100
AcDbLine
 10
859.182495
 20
293.800415
 30
0.0
 11
859.177368
 21
292.668518
 31
0.0
  0
LINE
  5
331
330
1F
100
AcDbEntity
  8
0
 48
0.021613
370
    60
390
F
100
AcDbLine
 10
859.177368
 20
292.668518
 30
0.0
 11
858.56604
 21
292.057251
 31
0.0
  0
LINE
  5
332
330
1F
100
AcDbEntity
  8
0
 48
0.026818
370
    60
390
F
100
AcDbLine
 10
857.493652
 20
292.083771
 30
0.0
 11
858.56604
 21
292.057251
 31
0.0
  0
LINE
  5
333
330
1F
100
AcDbEntity
  8
0
 48
0.061024
370
    60
390
F
100
AcDbLine
 10
855.767578
 20
293.809723
 30
0.0
 11
857.493652
 21
292.083771
 31
0.0
  0
LINE
  5
334
330
1F
100
AcDbEntity
  8
0
 48
0.016463
370
    60
390
F
100
AcDbLine
 10
857.705811
 20
292.578674
 30
0.0
 11
858.364136
 21
292.562378
 31
0.0
  0
LINE
  5
335
330
1F
100
AcDbEntity
  8
0
 48
0.011109
370
    60
390
F
100
AcDbLine
 10
858.678345
 20
292.876587
 30
0.0
 11
858.364136
 21
292.562378
 31
0.0
  0
LINE
  5
336
330
1F
100
AcDbEntity
  8
0
 48
0.017941
370
    60
390
F
100
AcDbLine
 10
858.681641
 20
293.594238
 30
0.0
 11
858.678345
 21
292.876587
 31
0.0
  0
LINE
  5
337
330
1F
100
AcDbEntity
  8
0
 48
0.050304
370
    60
390
F
100
AcDbLine
 10
857.258789
 20
295.016998
 30
0.0
 11
858.681641
 21
293.594238
 31
0.0
  0
LINE
  5
338
330
1F
100
AcDbEntity
  8
0
 48
0.017386
370
    60
390
F
100
AcDbLine
 10
857.258789
 20
295.016998
 30
0.0
 11
856.563477
 21
295.004395
 31
0.0
  0
LINE
  5
339
330
1F
100
AcDbEntity
  8
0
 48
0.0101
370
    60
390
F
100
AcDbLine
 10
856.563477
 20
295.004395
 30
0.0
 11
856.277832
 21
294.718689
 31
0.0
  0
LINE
  5
33A
330
1F
100
AcDbEntity
  8
0
 48
0.017605
370
    60
390
F
100
AcDbLine
 10
856.277832
 20
294.718689
 30
0.0
 11
856.269897
 21
294.014526
 31
0.0
  0
LINE
  5
33B
330
1F
100
AcDbEntity
  8
0
 48
0.050766
370
    60
390
F
100
AcDbLine
 10
856.269897
 20
294.014526
 30
0.0
 11
857.705811
 21
292.578674
 31
0.0
  0
LINE
  5
33C
330
1F
100
AcDbEntity
  8
0
 48
0.027961
370
    60
390
F
100
AcDbLine
 10
837.903198
 20
282.267578
 30
0.0
 11
837.509033
 21
281.220917
 31
0.0
  0
LINE
  5
33D
330
1F
100
AcDbEntity
  8
0
 48
0.020244
370
    60
390
F
100
AcDbLine
 10
838.637085
 20
282.609772
 30
0.0
 11
837.903198
 21
282.267578
 31
0.0
  0
LINE
  5
33E
330
1F
100
AcDbEntity
  8
0
 48
0.027742
370
    60
390
F
100
AcDbLine
 10
838.637085
 20
282.609772
 30
0.0
 11
839.686523
 21
282.249176
 31
0.0
  0
LINE
  5
33F
330
1F
100
AcDbEntity
  8
0
 48
0.060823
370
    60
390
F
100
AcDbLine
 10
839.686523
 20
282.249176
 30
0.0
 11
840.714722
 21
280.044189
 31
0.0
  0
LINE
  5
340
330
1F
100
AcDbEntity
  8
0
 48
0.028297
370
    60
390
F
100
AcDbLine
 10
840.714722
 20
280.044189
 30
0.0
 11
840.322754
 21
278.98233
 31
0.0
  0
LINE
  5
341
330
1F
100
AcDbEntity
  8
0
 48
0.021611
370
    60
390
F
100
AcDbLine
 10
840.322754
 20
278.98233
 30
0.0
 11
839.539307
 21
278.616974
 31
0.0
  0
LINE
  5
342
330
1F
100
AcDbEntity
  8
0
 48
0.026822
370
    60
390
F
100
AcDbLine
 10
838.540527
 20
279.008728
 30
0.0
 11
839.539307
 21
278.616974
 31
0.0
  0
LINE
  5
343
330
1F
100
AcDbEntity
  8
0
 48
0.061021
370
    60
390
F
100
AcDbLine
 10
837.509033
 20
281.220917
 30
0.0
 11
838.540527
 21
279.008728
 31
0.0
  0
LINE
  5
344
330
1F
100
AcDbEntity
  8
0
 48
0.016465
370
    60
390
F
100
AcDbLine
 10
838.90918
 20
279.401184
 30
0.0
 11
839.522339
 21
279.160736
 31
0.0
  0
LINE
  5
345
330
1F
100
AcDbEntity
  8
0
 48
0.011106
370
    60
390
F
100
AcDbLine
 10
839.924927
 20
279.348511
 30
0.0
 11
839.522339
 21
279.160736
 31
0.0
  0
LINE
  5
346
330
1F
100
AcDbEntity
  8
0
 48
0.017942
370
    60
390
F
100
AcDbLine
 10
840.173462
 20
280.02179
 30
0.0
 11
839.924927
 21
279.348511
 31
0.0
  0
LINE
  5
347
330
1F
100
AcDbEntity
  8
0
 48
0.050302
370
    60
390
F
100
AcDbLine
 10
839.32312
 20
281.845337
 30
0.0
 11
840.173462
 21
280.02179
 31
0.0
  0
LINE
  5
348
330
1F
100
AcDbEntity
  8
0
 48
0.017386
370
    60
390
F
100
AcDbLine
 10
838.665405
 20
282.07132
 30
0.0
 11
839.32312
 21
281.845337
 31
0.0
  0
LINE
  5
349
330
1F
100
AcDbEntity
  8
0
 48
0.010099
370
    60
390
F
100
AcDbLine
 10
838.665405
 20
282.07132
 30
0.0
 11
838.299316
 21
281.900574
 31
0.0
  0
LINE
  5
34A
330
1F
100
AcDbEntity
  8
0
 48
0.017606
370
    60
390
F
100
AcDbLine
 10
838.299316
 20
281.900574
 30
0.0
 11
838.051025
 21
281.241547
 31
0.0
  0
LINE
  5
34B
330
1F
100
AcDbEntity
  8
0
 48
0.050765
370
    60
390
F
100
AcDbLine
 10
838.051025
 20
281.241547
 30
0.0
 11
838.90918
 21
279.401184
 31
0.0
  0
LINE
  5
34C
330
1F
100
AcDbEntity
  8
0
 48
0.008794
370
    60
390
F
100
AcDbLine
 10
836.071167
 20
280.861572
 30
0.0
 11
836.404663
 21
280.749756
 31
0.0
  0
LINE
  5
34D
330
1F
100
AcDbEntity
  8
0
 48
0.016021
370
    60
390
F
100
AcDbLine
 10
836.071167
 20
280.861572
 30
0.0
 11
835.490356
 21
280.590759
 31
0.0
  0
LINE
  5
34E
330
1F
100
AcDbEntity
  8
0
 48
0.02321
370
    60
390
F
100
AcDbLine
 10
835.490356
 20
280.590759
 30
0.0
 11
835.172852
 21
279.718323
 31
0.0
  0
LINE
  5
34F
330
1F
100
AcDbEntity
  8
0
 48
0.0125
370
    60
390
F
100
AcDbLine
 10
834.703003
 20
279.889343
 30
0.0
 11
835.172852
 21
279.718323
 31
0.0
  0
LINE
  5
350
330
1F
100
AcDbEntity
  8
0
 48
0.028388
370
    60
390
F
100
AcDbLine
 10
835.091309
 20
280.95639
 30
0.0
 11
834.703003
 21
279.889343
 31
0.0
  0
LINE
  5
351
330
1F
100
AcDbEntity
  8
0
 48
0.026193
370
    60
390
F
100
AcDbLine
 10
836.040894
 20
281.399139
 30
0.0
 11
835.091309
 21
280.95639
 31
0.0
  0
LINE
  5
352
330
1F
100
AcDbEntity
  8
0
 48
0.019149
370
    60
390
F
100
AcDbLine
 10
836.040894
 20
281.399139
 30
0.0
 11
836.76709
 21
281.155579
 31
0.0
  0
LINE
  5
353
330
1F
100
AcDbEntity
  8
0
 48
0.034404
370
    60
390
F
100
AcDbLine
 10
836.76709
 20
281.155579
 30
0.0
 11
837.348633
 21
279.908325
 31
0.0
  0
LINE
  5
354
330
1F
100
AcDbEntity
  8
0
 48
0.054672
370
    60
390
F
100
AcDbLine
 10
837.348633
 20
279.908325
 30
0.0
 11
836.074707
 21
278.130798
 31
0.0
  0
LINE
  5
355
330
1F
100
AcDbEntity
  8
0
 48
0.013415
370
    60
390
F
100
AcDbLine
 10
836.074707
 20
278.130798
 30
0.0
 11
836.301514
 21
277.644501
 31
0.0
  0
LINE
  5
356
330
1F
100
AcDbEntity
  8
0
 48
0.047644
370
    60
390
F
100
AcDbLine
 10
838.028687
 20
278.449951
 30
0.0
 11
836.301514
 21
277.644501
 31
0.0
  0
LINE
  5
357
330
1F
100
AcDbEntity
  8
0
 48
0.012501
370
    60
390
F
100
AcDbLine
 10
838.028687
 20
278.449951
 30
0.0
 11
838.23999
 21
277.996765
 31
0.0
  0
LINE
  5
358
330
1F
100
AcDbEntity
  8
0
 48
0.060145
370
    60
390
F
100
AcDbLine
 10
838.23999
 20
277.996765
 30
0.0
 11
836.05957
 21
276.980042
 31
0.0
  0
LINE
  5
359
330
1F
100
AcDbEntity
  8
0
 48
0.033223
370
    60
390
F
100
AcDbLine
 10
835.497925
 20
278.184448
 30
0.0
 11
836.05957
 21
276.980042
 31
0.0
  0
LINE
  5
35A
330
1F
100
AcDbEntity
  8
0
 48
0.054674
370
    60
390
F
100
AcDbLine
 10
836.771973
 20
279.961975
 30
0.0
 11
835.497925
 21
278.184448
 31
0.0
  0
LINE
  5
35B
330
1F
100
AcDbEntity
  8
0
 48
0.02173
370
    60
390
F
100
AcDbLine
 10
836.404663
 20
280.749756
 30
0.0
 11
836.771973
 21
279.961975
 31
0.0
  0
LINE
  5
35C
330
1F
100
AcDbEntity
  8
0
 48
0.013192
370
    60
390
F
100
AcDbLine
 10
841.378052
 20
283.080902
 30
0.0
 11
841.329956
 21
282.55542
 31
0.0
  0
LINE
  5
35D
330
1F
100
AcDbEntity
  8
0
 48
0.0125
370
    60
390
F
100
AcDbLine
 10
840.832031
 20
282.601013
 30
0.0
 11
841.329956
 21
282.55542
 31
0.0
  0
LINE
  5
35E
330
1F
100
AcDbEntity
  8
0
 48
0.030891
370
    60
390
F
100
AcDbLine
 10
840.944702
 20
283.831512
 30
0.0
 11
840.832031
 21
282.601013
 31
0.0
  0
LINE
  5
35F
330
1F
100
AcDbEntity
  8
0
 48
0.012499
370
    60
390
F
100
AcDbLine
 10
841.377686
 20
284.081512
 30
0.0
 11
840.944702
 21
283.831512
 31
0.0
  0
LINE
  5
360
330
1F
100
AcDbEntity
  8
0
 48
0.1
370
    60
390
F
100
AcDbLine
 10
841.377686
 20
284.081512
 30
0.0
 11
843.377686
 21
280.617401
 31
0.0
  0
LINE
  5
361
330
1F
100
AcDbEntity
  8
0
 48
0.012499
370
    60
390
F
100
AcDbLine
 10
843.377686
 20
280.617401
 30
0.0
 11
842.944702
 21
280.367401
 31
0.0
  0
LINE
  5
362
330
1F
100
AcDbEntity
  8
0
 48
0.078332
370
    60
390
F
100
AcDbLine
 10
841.378052
 20
283.080902
 30
0.0
 11
842.944702
 21
280.367401
 31
0.0
  0
LINE
  5
363
330
1F
100
AcDbEntity
  8
0
 48
0.013567
370
    60
390
F
100
AcDbLine
 10
843.756836
 20
281.75592
 30
0.0
 11
844.284302
 21
281.628296
 31
0.0
  0
LINE
  5
364
330
1F
100
AcDbEntity
  8
0
 48
0.023895
370
    60
390
F
100
AcDbLine
 10
845.112061
 20
282.106201
 30
0.0
 11
844.284302
 21
281.628296
 31
0.0
  0
LINE
  5
365
330
1F
100
AcDbEntity
  8
0
 48
0.007497
370
    60
390
F
100
AcDbLine
 10
845.193237
 20
282.394867
 30
0.0
 11
845.112061
 21
282.106201
 31
0.0
  0
LINE
  5
366
330
1F
100
AcDbEntity
  8
0
 48
0.033342
370
    60
390
F
100
AcDbLine
 10
844.526367
 20
283.549866
 30
0.0
 11
845.193237
 21
282.394867
 31
0.0
  0
LINE
  5
367
330
1F
100
AcDbEntity
  8
0
 48
0.003459
370
    60
390
F
100
AcDbLine
 10
844.391113
 20
283.579041
 30
0.0
 11
844.526367
 21
283.549866
 31
0.0
  0
LINE
  5
368
330
1F
100
AcDbEntity
  8
0
 48
0.029643
370
    60
390
F
100
AcDbLine
 10
844.391113
 20
283.579041
 30
0.0
 11
843.364258
 21
282.986206
 31
0.0
  0
LINE
  5
369
330
1F
100
AcDbEntity
  8
0
 48
0.020326
370
    60
390
F
100
AcDbLine
 10
843.364258
 20
282.986206
 30
0.0
 11
843.040161
 21
282.24054
 31
0.0
  0
LINE
  5
36A
330
1F
100
AcDbEntity
  8
0
 48
0.059169
370
    60
390
F
100
AcDbLine
 10
842.125854
 20
284.423584
 30
0.0
 11
843.040161
 21
282.24054
 31
0.0
  0
LINE
  5
36B
330
1F
100
AcDbEntity
  8
0
 48
0.053637
370
    60
390
F
100
AcDbLine
 10
843.983887
 20
285.496307
 30
0.0
 11
842.125854
 21
284.423584
 31
0.0
  0
LINE
  5
36C
330
1F
100
AcDbEntity
  8
0
 48
0.0125
370
    60
390
F
100
AcDbLine
 10
843.983887
 20
285.496307
 30
0.0
 11
844.233887
 21
285.063293
 31
0.0
  0
LINE
  5
36D
330
1F
100
AcDbEntity
  8
0
 48
0.042629
370
    60
390
F
100
AcDbLine
 10
844.233887
 20
285.063293
 30
0.0
 11
842.757202
 21
284.210693
 31
0.0
  0
LINE
  5
36E
330
1F
100
AcDbEntity
  8
0
 48
0.021775
370
    60
390
F
100
AcDbLine
 10
842.757202
 20
284.210693
 30
0.0
 11
843.093628
 21
283.407288
 31
0.0
  0
LINE
  5
36F
330
1F
100
AcDbEntity
  8
0
 48
0.035056
370
    60
390
F
100
AcDbLine
 10
844.307983
 20
284.108429
 30
0.0
 11
843.093628
 21
283.407288
 31
0.0
  0
LINE
  5
370
330
1F
100
AcDbEntity
  8
0
 48
0.013824
370
    60
390
F
100
AcDbLine
 10
844.307983
 20
284.108429
 30
0.0
 11
844.848511
 21
283.991882
 31
0.0
  0
LINE
  5
371
330
1F
100
AcDbEntity
  8
0
 48
0.044153
370
    60
390
F
100
AcDbLine
 10
844.848511
 20
283.991882
 30
0.0
 11
845.731567
 21
282.462372
 31
0.0
  0
LINE
  5
372
330
1F
100
AcDbEntity
  8
0
 48
0.017852
370
    60
390
F
100
AcDbLine
 10
845.731567
 20
282.462372
 30
0.0
 11
845.53833
 21
281.774933
 31
0.0
  0
LINE
  5
373
330
1F
100
AcDbEntity
  8
0
 48
0.033984
370
    60
390
F
100
AcDbLine
 10
845.53833
 20
281.774933
 30
0.0
 11
844.361084
 21
281.095276
 31
0.0
  0
LINE
  5
374
330
1F
100
AcDbEntity
  8
0
 48
0.018566
370
    60
390
F
100
AcDbLine
 10
843.639282
 20
281.269958
 30
0.0
 11
844.361084
 21
281.095276
 31
0.0
  0
LINE
  5
375
330
1F
100
AcDbEntity
  8
0
 48
0.012499
370
    60
390
F
100
AcDbLine
 10
843.756836
 20
281.75592
 30
0.0
 11
843.639282
 21
281.269958
 31
0.0
  0
LINE
  5
376
330
1F
100
AcDbEntity
  8
0
 48
0.013565
370
    60
390
F
100
AcDbLine
 10
870.048218
 20
307.695862
 30
0.0
 11
869.52771
 21
307.542664
 31
0.0
  0
LINE
  5
377
330
1F
100
AcDbEntity
  8
0
 48
0.023895
370
    60
390
F
100
AcDbLine
 10
870.526123
 20
308.523621
 30
0.0
 11
870.048218
 21
307.695862
 31
0.0
  0
LINE
  5
378
330
1F
100
AcDbEntity
  8
0
 48
0.007496
370
    60
390
F
100
AcDbLine
 10
870.452148
 20
308.814209
 30
0.0
 11
870.526123
 21
308.523621
 31
0.0
  0
LINE
  5
379
330
1F
100
AcDbEntity
  8
0
 48
0.033342
370
    60
390
F
100
AcDbLine
 10
869.297119
 20
309.481018
 30
0.0
 11
870.452148
 21
308.814209
 31
0.0
  0
LINE
  5
37A
330
1F
100
AcDbEntity
  8
0
 48
0.003462
370
    60
390
F
100
AcDbLine
 10
869.297119
 20
309.481018
 30
0.0
 11
869.165283
 21
309.438629
 31
0.0
  0
LINE
  5
37B
330
1F
100
AcDbEntity
  8
0
 48
0.029641
370
    60
390
F
100
AcDbLine
 10
869.165283
 20
309.438629
 30
0.0
 11
868.57251
 21
308.411804
 31
0.0
  0
LINE
  5
37C
330
1F
100
AcDbEntity
  8
0
 48
0.020325
370
    60
390
F
100
AcDbLine
 10
868.57251
 20
308.411804
 30
0.0
 11
868.664673
 21
307.604034
 31
0.0
  0
LINE
  5
37D
330
1F
100
AcDbEntity
  8
0
 48
0.059169
370
    60
390
F
100
AcDbLine
 10
866.781372
 20
309.037476
 30
0.0
 11
868.664673
 21
307.604034
 31
0.0
  0
LINE
  5
37E
330
1F
100
AcDbEntity
  8
0
 48
0.053636
370
    60
390
F
100
AcDbLine
 10
867.854126
 20
310.895477
 30
0.0
 11
866.781372
 21
309.037476
 31
0.0
  0
LINE
  5
37F
330
1F
100
AcDbEntity
  8
0
 48
0.012499
370
    60
390
F
100
AcDbLine
 10
867.854126
 20
310.895477
 30
0.0
 11
868.287109
 21
310.645477
 31
0.0
  0
LINE
  5
380
330
1F
100
AcDbEntity
  8
0
 48
0.042631
370
    60
390
F
100
AcDbLine
 10
868.287109
 20
310.645477
 30
0.0
 11
867.434448
 21
309.168701
 31
0.0
  0
LINE
  5
381
330
1F
100
AcDbEntity
  8
0
 48
0.021776
370
    60
390
F
100
AcDbLine
 10
867.434448
 20
309.168701
 30
0.0
 11
868.127563
 21
308.641174
 31
0.0
  0
LINE
  5
382
330
1F
100
AcDbEntity
  8
0
 48
0.035057
370
    60
390
F
100
AcDbLine
 10
868.828735
 20
309.85556
 30
0.0
 11
868.127563
 21
308.641174
 31
0.0
  0
LINE
  5
383
330
1F
100
AcDbEntity
  8
0
 48
0.013824
370
    60
390
F
100
AcDbLine
 10
869.355103
 20
310.024933
 30
0.0
 11
868.828735
 21
309.85556
 31
0.0
  0
LINE
  5
384
330
1F
100
AcDbEntity
  8
0
 48
0.044154
370
    60
390
F
100
AcDbLine
 10
869.355103
 20
310.024933
 30
0.0
 11
870.884644
 21
309.141846
 31
0.0
  0
LINE
  5
385
330
1F
100
AcDbEntity
  8
0
 48
0.017852
370
    60
390
F
100
AcDbLine
 10
870.884644
 20
309.141846
 30
0.0
 11
871.060913
 21
308.44986
 31
0.0
  0
LINE
  5
386
330
1F
100
AcDbEntity
  8
0
 48
0.033984
370
    60
390
F
100
AcDbLine
 10
871.060913
 20
308.44986
 30
0.0
 11
870.381226
 21
307.272644
 31
0.0
  0
LINE
  5
387
330
1F
100
AcDbEntity
  8
0
 48
0.018565
370
    60
390
F
100
AcDbLine
 10
870.381226
 20
307.272644
 30
0.0
 11
869.668823
 21
307.063019
 31
0.0
  0
LINE
  5
388
330
1F
100
AcDbEntity
  8
0
 48
0.012499
370
    60
390
F
100
AcDbLine
 10
869.52771
 20
307.542664
 30
0.0
 11
869.668823
 21
307.063019
 31
0.0
  0
LINE
  5
389
330
1F
100
AcDbEntity
  8
0
 48
0.013192
370
    60
390
F
100
AcDbLine
 10
866.864624
 20
307.60379
 30
0.0
 11
867.085693
 21
307.124634
 31
0.0
  0
LINE
  5
38A
330
1F
100
AcDbEntity
  8
0
 48
0.012502
370
    60
390
F
100
AcDbLine
 10
867.085693
 20
307.124634
 30
0.0
 11
866.631592
 21
306.915161
 31
0.0
  0
LINE
  5
38B
330
1F
100
AcDbEntity
  8
0
 48
0.03089
370
    60
390
F
100
AcDbLine
 10
866.114014
 20
308.03714
 30
0.0
 11
866.631592
 21
306.915161
 31
0.0
  0
LINE
  5
38C
330
1F
100
AcDbEntity
  8
0
 48
0.0125
370
    60
390
F
100
AcDbLine
 10
866.364014
 20
308.470154
 30
0.0
 11
866.114014
 21
308.03714
 31
0.0
  0
LINE
  5
38D
330
1F
100
AcDbEntity
  8
0
 48
0.099998
370
    60
390
F
100
AcDbLine
 10
866.364014
 20
308.470154
 30
0.0
 11
869.828003
 21
306.470154
 31
0.0
  0
LINE
  5
38E
330
1F
100
AcDbEntity
  8
0
 48
0.0125
370
    60
390
F
100
AcDbLine
 10
869.828003
 20
306.470154
 30
0.0
 11
869.578003
 21
306.03714
 31
0.0
  0
LINE
  5
38F
330
1F
100
AcDbEntity
  8
0
 48
0.07833
370
    60
390
F
100
AcDbLine
 10
866.864624
 20
307.60379
 30
0.0
 11
869.578003
 21
306.03714
 31
0.0
  0
LINE
  5
390
330
1F
100
AcDbEntity
  8
0
 48
0.027961
370
    60
390
F
100
AcDbLine
 10
869.965942
 20
315.442413
 30
0.0
 11
870.33667
 21
314.387207
 31
0.0
  0
LINE
  5
391
330
1F
100
AcDbEntity
  8
0
 48
0.020243
370
    60
390
F
100
AcDbLine
 10
870.308105
 20
316.17627
 30
0.0
 11
869.965942
 21
315.442413
 31
0.0
  0
LINE
  5
392
330
1F
100
AcDbEntity
  8
0
 48
0.027743
370
    60
390
F
100
AcDbLine
 10
871.343872
 20
316.574615
 30
0.0
 11
870.308105
 21
316.17627
 31
0.0
  0
LINE
  5
393
330
1F
100
AcDbEntity
  8
0
 48
0.060822
370
    60
390
F
100
AcDbLine
 10
871.343872
 20
316.574615
 30
0.0
 11
873.548828
 21
315.546448
 31
0.0
  0
LINE
  5
394
330
1F
100
AcDbEntity
  8
0
 48
0.028298
370
    60
390
F
100
AcDbLine
 10
873.548828
 20
315.546448
 30
0.0
 11
873.931152
 21
314.481049
 31
0.0
  0
LINE
  5
395
330
1F
100
AcDbEntity
  8
0
 48
0.021612
370
    60
390
F
100
AcDbLine
 10
873.931152
 20
314.481049
 30
0.0
 11
873.565796
 21
313.697571
 31
0.0
  0
LINE
  5
396
330
1F
100
AcDbEntity
  8
0
 48
0.02682
370
    60
390
F
100
AcDbLine
 10
873.565796
 20
313.697571
 30
0.0
 11
872.54895
 21
313.355652
 31
0.0
  0
LINE
  5
397
330
1F
100
AcDbEntity
  8
0
 48
0.061024
370
    60
390
F
100
AcDbLine
 10
870.33667
 20
314.387207
 30
0.0
 11
872.54895
 21
313.355652
 31
0.0
  0
LINE
  5
398
330
1F
100
AcDbEntity
  8
0
 48
0.016465
370
    60
390
F
100
AcDbLine
 10
873.203247
 20
314.103149
 30
0.0
 11
872.578979
 21
313.89328
 31
0.0
  0
LINE
  5
399
330
1F
100
AcDbEntity
  8
0
 48
0.011108
370
    60
390
F
100
AcDbLine
 10
873.390991
 20
314.505859
 30
0.0
 11
873.203247
 21
314.103149
 31
0.0
  0
LINE
  5
39A
330
1F
100
AcDbEntity
  8
0
 48
0.017942
370
    60
390
F
100
AcDbLine
 10
873.14856
 20
315.181366
 30
0.0
 11
873.390991
 21
314.505859
 31
0.0
  0
LINE
  5
39B
330
1F
100
AcDbEntity
  8
0
 48
0.0503
370
    60
390
F
100
AcDbLine
 10
871.325073
 20
316.031677
 30
0.0
 11
873.14856
 21
315.181366
 31
0.0
  0
LINE
  5
39C
330
1F
100
AcDbEntity
  8
0
 48
0.017385
370
    60
390
F
100
AcDbLine
 10
871.325073
 20
316.031677
 30
0.0
 11
870.676025
 21
315.782043
 31
0.0
  0
LINE
  5
39D
330
1F
100
AcDbEntity
  8
0
 48
0.010102
370
    60
390
F
100
AcDbLine
 10
870.676025
 20
315.782043
 30
0.0
 11
870.505249
 21
315.415833
 31
0.0
  0
LINE
  5
39E
330
1F
100
AcDbEntity
  8
0
 48
0.017604
370
    60
390
F
100
AcDbLine
 10
870.505249
 20
315.415833
 30
0.0
 11
870.738647
 21
314.751465
 31
0.0
  0
LINE
  5
39F
330
1F
100
AcDbEntity
  8
0
 48
0.050765
370
    60
390
F
100
AcDbLine
 10
870.738647
 20
314.751465
 30
0.0
 11
872.578979
 21
313.89328
 31
0.0
  0
LINE
  5
3A0
330
1F
100
AcDbEntity
  8
0
 48
0.054673
370
    60
390
F
100
AcDbLine
 10
871.057617
 20
313.278687
 30
0.0
 11
871.224243
 21
311.098114
 31
0.0
  0
LINE
  5
3A1
330
1F
100
AcDbEntity
  8
0
 48
0.013415
370
    60
390
F
100
AcDbLine
 10
871.224243
 20
311.098114
 30
0.0
 11
871.710571
 21
310.871338
 31
0.0
  0
LINE
  5
3A2
330
1F
100
AcDbEntity
  8
0
 48
0.047646
370
    60
390
F
100
AcDbLine
 10
872.515991
 20
312.598633
 30
0.0
 11
871.710571
 21
310.871338
 31
0.0
  0
LINE
  5
3A3
330
1F
100
AcDbEntity
  8
0
 48
0.012499
370
    60
390
F
100
AcDbLine
 10
872.515991
 20
312.598633
 30
0.0
 11
872.969116
 21
312.387329
 31
0.0
  0
LINE
  5
3A4
330
1F
100
AcDbEntity
  8
0
 48
0.060146
370
    60
390
F
100
AcDbLine
 10
872.969116
 20
312.387329
 30
0.0
 11
871.952393
 21
310.206879
 31
0.0
  0
LINE
  5
3A5
330
1F
100
AcDbEntity
  8
0
 48
0.033225
370
    60
390
F
100
AcDbLine
 10
870.747925
 20
310.768524
 30
0.0
 11
871.952393
 21
310.206879
 31
0.0
  0
LINE
  5
3A6
330
1F
100
AcDbEntity
  8
0
 48
0.054673
370
    60
390
F
100
AcDbLine
 10
870.581299
 20
312.949097
 30
0.0
 11
870.747925
 21
310.768524
 31
0.0
  0
LINE
  5
3A7
330
1F
100
AcDbEntity
  8
0
 48
0.021729
370
    60
390
F
100
AcDbLine
 10
869.793579
 20
313.316437
 30
0.0
 11
870.581299
 21
312.949097
 31
0.0
  0
LINE
  5
3A8
330
1F
100
AcDbEntity
  8
0
 48
0.008794
370
    60
390
F
100
AcDbLine
 10
869.793579
 20
313.316437
 30
0.0
 11
869.466187
 21
313.187744
 31
0.0
  0
LINE
  5
3A9
330
1F
100
AcDbEntity
  8
0
 48
0.01602
370
    60
390
F
100
AcDbLine
 10
869.466187
 20
313.187744
 30
0.0
 11
869.195435
 21
312.606964
 31
0.0
  0
LINE
  5
3AA
330
1F
100
AcDbEntity
  8
0
 48
0.02321
370
    60
390
F
100
AcDbLine
 10
869.195435
 20
312.606964
 30
0.0
 11
869.512939
 21
311.734528
 31
0.0
  0
LINE
  5
3AB
330
1F
100
AcDbEntity
  8
0
 48
0.0125
370
    60
390
F
100
AcDbLine
 10
869.512939
 20
311.734528
 30
0.0
 11
869.043091
 21
311.563507
 31
0.0
  0
LINE
  5
3AC
330
1F
100
AcDbEntity
  8
0
 48
0.028388
370
    60
390
F
100
AcDbLine
 10
868.654785
 20
312.630554
 30
0.0
 11
869.043091
 21
311.563507
 31
0.0
  0
LINE
  5
3AD
330
1F
100
AcDbEntity
  8
0
 48
0.026191
370
    60
390
F
100
AcDbLine
 10
869.097534
 20
313.580048
 30
0.0
 11
868.654785
 21
312.630554
 31
0.0
  0
LINE
  5
3AE
330
1F
100
AcDbEntity
  8
0
 48
0.01915
370
    60
390
F
100
AcDbLine
 10
869.810425
 20
313.860291
 30
0.0
 11
869.097534
 21
313.580048
 31
0.0
  0
LINE
  5
3AF
330
1F
100
AcDbEntity
  8
0
 48
0.034403
370
    60
390
F
100
AcDbLine
 10
869.810425
 20
313.860291
 30
0.0
 11
871.057617
 21
313.278687
 31
0.0
  0
LINE
  5
3B0
330
1F
100
AcDbEntity
  8
0
 48
0.003462
370
    60
390
F
100
AcDbLine
 10
861.980103
 20
298.807465
 30
0.0
 11
861.842896
 21
298.788605
 31
0.0
  0
LINE
  5
3B1
330
1F
100
AcDbEntity
  8
0
 48
0.029641
370
    60
390
F
100
AcDbLine
 10
861.842896
 20
298.788605
 30
0.0
 11
861.080811
 21
297.88031
 31
0.0
  0
LINE
  5
3B2
330
1F
100
AcDbEntity
  8
0
 48
0.020326
370
    60
390
F
100
AcDbLine
 10
861.080811
 20
297.88031
 30
0.0
 11
861.031372
 21
297.068787
 31
0.0
  0
LINE
  5
3B3
330
1F
100
AcDbEntity
  8
0
 48
0.05917
370
    60
390
F
100
AcDbLine
 10
859.425537
 20
298.807495
 30
0.0
 11
861.031372
 21
297.068787
 31
0.0
  0
LINE
  5
3B4
330
1F
100
AcDbEntity
  8
0
 48
0.053635
370
    60
390
F
100
AcDbLine
 10
860.804565
 20
300.450989
 30
0.0
 11
859.425537
 21
298.807495
 31
0.0
  0
LINE
  5
3B5
330
1F
100
AcDbEntity
  8
0
 48
0.0125
370
    60
390
F
100
AcDbLine
 10
860.804565
 20
300.450989
 30
0.0
 11
861.187622
 21
300.129608
 31
0.0
  0
LINE
  5
3B6
330
1F
100
AcDbEntity
  8
0
 48
0.04263
370
    60
390
F
100
AcDbLine
 10
861.187622
 20
300.129608
 30
0.0
 11
860.091553
 21
298.823334
 31
0.0
  0
LINE
  5
3B7
330
1F
100
AcDbEntity
  8
0
 48
0.021775
370
    60
390
F
100
AcDbLine
 10
860.091553
 20
298.823334
 30
0.0
 11
860.682495
 21
298.183472
 31
0.0
  0
LINE
  5
3B8
330
1F
100
AcDbEntity
  8
0
 48
0.035057
370
    60
390
F
100
AcDbLine
 10
861.583862
 20
299.25766
 30
0.0
 11
860.682495
 21
298.183472
 31
0.0
  0
LINE
  5
3B9
330
1F
100
AcDbEntity
  8
0
 48
0.013822
370
    60
390
F
100
AcDbLine
 10
862.131592
 20
299.333038
 30
0.0
 11
861.583862
 21
299.25766
 31
0.0
  0
LINE
  5
3BA
330
1F
100
AcDbEntity
  8
0
 48
0.044153
370
    60
390
F
100
AcDbLine
 10
862.131592
 20
299.333038
 30
0.0
 11
863.484497
 21
298.197784
 31
0.0
  0
LINE
  5
3BB
330
1F
100
AcDbEntity
  8
0
 48
0.017853
370
    60
390
F
100
AcDbLine
 10
863.484497
 20
298.197784
 30
0.0
 11
863.537964
 21
297.485687
 31
0.0
  0
LINE
  5
3BC
330
1F
100
AcDbEntity
  8
0
 48
0.033983
370
    60
390
F
100
AcDbLine
 10
863.537964
 20
297.485687
 30
0.0
 11
862.664185
 21
296.444397
 31
0.0
  0
LINE
  5
3BD
330
1F
100
AcDbEntity
  8
0
 48
0.018564
370
    60
390
F
100
AcDbLine
 10
862.664185
 20
296.444397
 30
0.0
 11
861.92627
 21
296.361633
 31
0.0
  0
LINE
  5
3BE
330
1F
100
AcDbEntity
  8
0
 48
0.0125
370
    60
390
F
100
AcDbLine
 10
861.870483
 20
296.858521
 30
0.0
 11
861.92627
 21
296.361633
 31
0.0
  0
LINE
  5
3BF
330
1F
100
AcDbEntity
  8
0
 48
0.013567
370
    60
390
F
100
AcDbLine
 10
862.40979
 20
296.919006
 30
0.0
 11
861.870483
 21
296.858521
 31
0.0
  0
LINE
  5
3C0
330
1F
100
AcDbEntity
  8
0
 48
0.023895
370
    60
390
F
100
AcDbLine
 10
863.02417
 20
297.651184
 30
0.0
 11
862.40979
 21
296.919006
 31
0.0
  0
LINE
  5
3C1
330
1F
100
AcDbEntity
  8
0
 48
0.007496
370
    60
390
F
100
AcDbLine
 10
863.001709
 20
297.950195
 30
0.0
 11
863.02417
 21
297.651184
 31
0.0
  0
LINE
  5
3C2
330
1F
100
AcDbEntity
  8
0
 48
0.033341
370
    60
390
F
100
AcDbLine
 10
861.980103
 20
298.807465
 30
0.0
 11
863.001709
 21
297.950195
 31
0.0
  0
LINE
  5
3C3
330
1F
100
AcDbEntity
  8
0
 48
0.027961
370
    60
390
F
100
AcDbLine
 10
863.919067
 20
304.672424
 30
0.0
 11
864.101074
 21
303.568878
 31
0.0
  0
LINE
  5
3C4
330
1F
100
AcDbEntity
  8
0
 48
0.020243
370
    60
390
F
100
AcDbLine
 10
864.383545
 20
305.335693
 30
0.0
 11
863.919067
 21
304.672424
 31
0.0
  0
LINE
  5
3C5
330
1F
100
AcDbEntity
  8
0
 48
0.027744
370
    60
390
F
100
AcDbLine
 10
865.472778
 20
305.548157
 30
0.0
 11
864.383545
 21
305.335693
 31
0.0
  0
LINE
  5
3C6
330
1F
100
AcDbEntity
  8
0
 48
0.060822
370
    60
390
F
100
AcDbLine
 10
865.472778
 20
305.548157
 30
0.0
 11
867.465698
 21
304.15271
 31
0.0
  0
LINE
  5
3C7
330
1F
100
AcDbEntity
  8
0
 48
0.028298
370
    60
390
F
100
AcDbLine
 10
867.465698
 20
304.15271
 30
0.0
 11
867.657104
 21
303.037109
 31
0.0
  0
LINE
  5
3C8
330
1F
100
AcDbEntity
  8
0
 48
0.021612
370
    60
390
F
100
AcDbLine
 10
867.657104
 20
303.037109
 30
0.0
 11
867.161255
 21
302.328979
 31
0.0
  0
LINE
  5
3C9
330
1F
100
AcDbEntity
  8
0
 48
0.02682
370
    60
390
F
100
AcDbLine
 10
867.161255
 20
302.328979
 30
0.0
 11
866.100464
 21
302.168823
 31
0.0
  0
LINE
  5
3CA
330
1F
100
AcDbEntity
  8
0
 48
0.061021
370
    60
390
F
100
AcDbLine
 10
864.101074
 20
303.568878
 30
0.0
 11
866.100464
 21
302.168823
 31
0.0
  0
LINE
  5
3CB
330
1F
100
AcDbEntity
  8
0
 48
0.016463
370
    60
390
F
100
AcDbLine
 10
866.874634
 20
302.791382
 30
0.0
 11
866.223511
 21
302.693054
 31
0.0
  0
LINE
  5
3CC
330
1F
100
AcDbEntity
  8
0
 48
0.011108
370
    60
390
F
100
AcDbLine
 10
867.129517
 20
303.155334
 30
0.0
 11
866.874634
 21
302.791382
 31
0.0
  0
LINE
  5
3CD
330
1F
100
AcDbEntity
  8
0
 48
0.017942
370
    60
390
F
100
AcDbLine
 10
867.008179
 20
303.862671
 30
0.0
 11
867.129517
 21
303.155334
 31
0.0
  0
LINE
  5
3CE
330
1F
100
AcDbEntity
  8
0
 48
0.050301
370
    60
390
F
100
AcDbLine
 10
865.359985
 20
305.016724
 30
0.0
 11
867.008179
 21
303.862671
 31
0.0
  0
LINE
  5
3CF
330
1F
100
AcDbEntity
  8
0
 48
0.017387
370
    60
390
F
100
AcDbLine
 10
865.359985
 20
305.016724
 30
0.0
 11
864.677368
 21
304.883606
 31
0.0
  0
LINE
  5
3D0
330
1F
100
AcDbEntity
  8
0
 48
0.010102
370
    60
390
F
100
AcDbLine
 10
864.677368
 20
304.883606
 30
0.0
 11
864.445557
 21
304.552612
 31
0.0
  0
LINE
  5
3D1
330
1F
100
AcDbEntity
  8
0
 48
0.017605
370
    60
390
F
100
AcDbLine
 10
864.445557
 20
304.552612
 30
0.0
 11
864.560181
 21
303.857788
 31
0.0
  0
LINE
  5
3D2
330
1F
100
AcDbEntity
  8
0
 48
0.050765
370
    60
390
F
100
AcDbLine
 10
864.560181
 20
303.857788
 30
0.0
 11
866.223511
 21
302.693054
 31
0.0
  0
LINE
  5
3D3
330
1F
100
AcDbEntity
  8
0
 48
0.013192
370
    60
390
F
100
AcDbLine
 10
863.490234
 20
302.531586
 30
0.0
 11
863.668701
 21
302.035004
 31
0.0
  0
LINE
  5
3D4
330
1F
100
AcDbEntity
  8
0
 48
0.012498
370
    60
390
F
100
AcDbLine
 10
863.668701
 20
302.035004
 30
0.0
 11
863.198242
 21
301.865906
 31
0.0
  0
LINE
  5
3D5
330
1F
100
AcDbEntity
  8
0
 48
0.030892
370
    60
390
F
100
AcDbLine
 10
862.780273
 20
303.028748
 30
0.0
 11
863.198242
 21
301.865906
 31
0.0
  0
LINE
  5
3D6
330
1F
100
AcDbEntity
  8
0
 48
0.0125
370
    60
390
F
100
AcDbLine
 10
863.067139
 20
303.438293
 30
0.0
 11
862.780273
 21
303.028748
 31
0.0
  0
LINE
  5
3D7
330
1F
100
AcDbEntity
  8
0
 48
0.099998
370
    60
390
F
100
AcDbLine
 10
863.067139
 20
303.438293
 30
0.0
 11
866.343628
 21
301.143982
 31
0.0
  0
LINE
  5
3D8
330
1F
100
AcDbEntity
  8
0
 48
0.012499
370
    60
390
F
100
AcDbLine
 10
866.343628
 20
301.143982
 30
0.0
 11
866.056885
 21
300.734436
 31
0.0
  0
LINE
  5
3D9
330
1F
100
AcDbEntity
  8
0
 48
0.078332
370
    60
390
F
100
AcDbLine
 10
863.490234
 20
302.531586
 30
0.0
 11
866.056885
 21
300.734436
 31
0.0
  0
LINE
  5
3DA
330
1F
100
AcDbEntity
  8
0
 48
0.013193
370
    60
390
F
100
AcDbLine
 10
846.358521
 20
286.11084
 30
0.0
 11
846.356323
 21
285.58313
 31
0.0
  0
LINE
  5
3DB
330
1F
100
AcDbEntity
  8
0
 48
0.0125
370
    60
390
F
100
AcDbLine
 10
845.856323
 20
285.585175
 30
0.0
 11
846.356323
 21
285.58313
 31
0.0
  0
LINE
  5
3DC
330
1F
100
AcDbEntity
  8
0
 48
0.030891
370
    60
390
F
100
AcDbLine
 10
845.861328
 20
286.820801
 30
0.0
 11
845.856323
 21
285.585175
 31
0.0
  0
LINE
  5
3DD
330
1F
100
AcDbEntity
  8
0
 48
0.012502
370
    60
390
F
100
AcDbLine
 10
846.270996
 20
287.107605
 30
0.0
 11
845.861328
 21
286.820801
 31
0.0
  0
LINE
  5
3DE
330
1F
100
AcDbEntity
  8
0
 48
0.099998
370
    60
390
F
100
AcDbLine
 10
846.270996
 20
287.107605
 30
0.0
 11
848.565186
 21
283.830994
 31
0.0
  0
LINE
  5
3DF
330
1F
100
AcDbEntity
  8
0
 48
0.0125
370
    60
390
F
100
AcDbLine
 10
848.565186
 20
283.830994
 30
0.0
 11
848.15564
 21
283.544189
 31
0.0
  0
LINE
  5
3E0
330
1F
100
AcDbEntity
  8
0
 48
0.078332
370
    60
390
F
100
AcDbLine
 10
846.358521
 20
286.11084
 30
0.0
 11
848.15564
 21
283.544189
 31
0.0
  0
LINE
  5
3E1
330
1F
100
AcDbEntity
  8
0
 48
0.027961
370
    60
390
F
100
AcDbLine
 10
847.493652
 20
287.975891
 30
0.0
 11
847.287231
 21
286.876648
 31
0.0
  0
LINE
  5
3E2
330
1F
100
AcDbEntity
  8
0
 48
0.020244
370
    60
390
F
100
AcDbLine
 10
848.156982
 20
288.440308
 30
0.0
 11
847.493652
 21
287.975891
 31
0.0
  0
LINE
  5
3E3
330
1F
100
AcDbEntity
  8
0
 48
0.027744
370
    60
390
F
100
AcDbLine
 10
848.156982
 20
288.440308
 30
0.0
 11
849.253174
 21
288.267426
 31
0.0
  0
LINE
  5
3E4
330
1F
100
AcDbEntity
  8
0
 48
0.060822
370
    60
390
F
100
AcDbLine
 10
849.253174
 20
288.267426
 30
0.0
 11
850.64856
 21
286.274506
 31
0.0
  0
LINE
  5
3E5
330
1F
100
AcDbEntity
  8
0
 48
0.028297
370
    60
390
F
100
AcDbLine
 10
850.64856
 20
286.274506
 30
0.0
 11
850.447021
 21
285.160706
 31
0.0
  0
LINE
  5
3E6
330
1F
100
AcDbEntity
  8
0
 48
0.021614
370
    60
390
F
100
AcDbLine
 10
850.447021
 20
285.160706
 30
0.0
 11
849.73877
 21
284.664856
 31
0.0
  0
LINE
  5
3E7
330
1F
100
AcDbEntity
  8
0
 48
0.026818
370
    60
390
F
100
AcDbLine
 10
848.687256
 20
284.877197
 30
0.0
 11
849.73877
 21
284.664856
 31
0.0
  0
LINE
  5
3E8
330
1F
100
AcDbEntity
  8
0
 48
0.061022
370
    60
390
F
100
AcDbLine
 10
847.287231
 20
286.876648
 30
0.0
 11
848.687256
 21
284.877197
 31
0.0
  0
LINE
  5
3E9
330
1F
100
AcDbEntity
  8
0
 48
0.016464
370
    60
390
F
100
AcDbLine
 10
848.982178
 20
285.327759
 30
0.0
 11
849.627686
 21
285.197388
 31
0.0
  0
LINE
  5
3EA
330
1F
100
AcDbEntity
  8
0
 48
0.011107
370
    60
390
F
100
AcDbLine
 10
849.991577
 20
285.452271
 30
0.0
 11
849.627686
 21
285.197388
 31
0.0
  0
LINE
  5
3EB
330
1F
100
AcDbEntity
  8
0
 48
0.017942
370
    60
390
F
100
AcDbLine
 10
850.119507
 20
286.158447
 30
0.0
 11
849.991577
 21
285.452271
 31
0.0
  0
LINE
  5
3EC
330
1F
100
AcDbEntity
  8
0
 48
0.050303
370
    60
390
F
100
AcDbLine
 10
848.965332
 20
287.806641
 30
0.0
 11
850.119507
 21
286.158447
 31
0.0
  0
LINE
  5
3ED
330
1F
100
AcDbEntity
  8
0
 48
0.017385
370
    60
390
F
100
AcDbLine
 10
848.278442
 20
287.914978
 30
0.0
 11
848.965332
 21
287.806641
 31
0.0
  0
LINE
  5
3EE
330
1F
100
AcDbEntity
  8
0
 48
0.010103
370
    60
390
F
100
AcDbLine
 10
848.278442
 20
287.914978
 30
0.0
 11
847.947388
 21
287.683228
 31
0.0
  0
LINE
  5
3EF
330
1F
100
AcDbEntity
  8
0
 48
0.017605
370
    60
390
F
100
AcDbLine
 10
847.947388
 20
287.683228
 30
0.0
 11
847.817383
 21
286.991119
 31
0.0
  0
LINE
  5
3F0
330
1F
100
AcDbEntity
  8
0
 48
0.050766
370
    60
390
F
100
AcDbLine
 10
847.817383
 20
286.991119
 30
0.0
 11
848.982178
 21
285.327759
 31
0.0
  0
LINE
  5
3F1
330
1F
100
AcDbEntity
  8
0
 48
0.003463
370
    60
390
F
100
AcDbLine
 10
853.508789
 20
290.166504
 30
0.0
 11
853.370361
 21
290.171722
 31
0.0
  0
LINE
  5
3F2
330
1F
100
AcDbEntity
  8
0
 48
0.02964
370
    60
390
F
100
AcDbLine
 10
853.370361
 20
290.171722
 30
0.0
 11
852.462158
 21
289.409607
 31
0.0
  0
LINE
  5
3F3
330
1F
100
AcDbEntity
  8
0
 48
0.020326
370
    60
390
F
100
AcDbLine
 10
852.462158
 20
289.409607
 30
0.0
 11
852.272461
 21
288.618988
 31
0.0
  0
LINE
  5
3F4
330
1F
100
AcDbEntity
  8
0
 48
0.059169
370
    60
390
F
100
AcDbLine
 10
850.993042
 20
290.610107
 30
0.0
 11
852.272461
 21
288.618988
 31
0.0
  0
LINE
  5
3F5
330
1F
100
AcDbEntity
  8
0
 48
0.053635
370
    60
390
F
100
AcDbLine
 10
852.636475
 20
291.989197
 30
0.0
 11
850.993042
 21
290.610107
 31
0.0
  0
LINE
  5
3F6
330
1F
100
AcDbEntity
  8
0
 48
0.012501
370
    60
390
F
100
AcDbLine
 10
852.636475
 20
291.989197
 30
0.0
 11
852.957886
 21
291.60614
 31
0.0
  0
LINE
  5
3F7
330
1F
100
AcDbEntity
  8
0
 48
0.04263
370
    60
390
F
100
AcDbLine
 10
852.957886
 20
291.60614
 30
0.0
 11
851.651611
 21
290.510071
 31
0.0
  0
LINE
  5
3F8
330
1F
100
AcDbEntity
  8
0
 48
0.021775
370
    60
390
F
100
AcDbLine
 10
851.651611
 20
290.510071
 30
0.0
 11
852.122437
 21
289.777313
 31
0.0
  0
LINE
  5
3F9
330
1F
100
AcDbEntity
  8
0
 48
0.035057
370
    60
390
F
100
AcDbLine
 10
853.196655
 20
290.67865
 30
0.0
 11
852.122437
 21
289.777313
 31
0.0
  0
LINE
  5
3FA
330
1F
100
AcDbEntity
  8
0
 48
0.013825
370
    60
390
F
100
AcDbLine
 10
853.196655
 20
290.67865
 30
0.0
 11
853.749268
 21
290.657745
 31
0.0
  0
LINE
  5
3FB
330
1F
100
AcDbEntity
  8
0
 48
0.044153
370
    60
390
F
100
AcDbLine
 10
853.749268
 20
290.657745
 30
0.0
 11
854.884521
 21
289.30481
 31
0.0
  0
LINE
  5
3FC
330
1F
100
AcDbEntity
  8
0
 48
0.017853
370
    60
390
F
100
AcDbLine
 10
854.884521
 20
289.30481
 30
0.0
 11
854.813477
 21
288.594238
 31
0.0
  0
LINE
  5
3FD
330
1F
100
AcDbEntity
  8
0
 48
0.033982
370
    60
390
F
100
AcDbLine
 10
854.813477
 20
288.594238
 30
0.0
 11
853.772217
 21
287.72052
 31
0.0
  0
LINE
  5
3FE
330
1F
100
AcDbEntity
  8
0
 48
0.018567
370
    60
390
F
100
AcDbLine
 10
853.031006
 20
287.767181
 30
0.0
 11
853.772217
 21
287.72052
 31
0.0
  0
LINE
  5
3FF
330
1F
100
AcDbEntity
  8
0
 48
0.012499
370
    60
390
F
100
AcDbLine
 10
853.062378
 20
288.266174
 30
0.0
 11
853.031006
 21
287.767181
 31
0.0
  0
LINE
  5
400
330
1F
100
AcDbEntity
  8
0
 48
0.013567
370
    60
390
F
100
AcDbLine
 10
853.062378
 20
288.266174
 30
0.0
 11
853.604004
 21
288.232086
 31
0.0
  0
LINE
  5
401
330
1F
100
AcDbEntity
  8
0
 48
0.023895
370
    60
390
F
100
AcDbLine
 10
854.336182
 20
288.846466
 30
0.0
 11
853.604004
 21
288.232086
 31
0.0
  0
LINE
  5
402
330
1F
100
AcDbEntity
  8
0
 48
0.007496
370
    60
390
F
100
AcDbLine
 10
854.365967
 20
289.144836
 30
0.0
 11
854.336182
 21
288.846466
 31
0.0
  0
LINE
  5
403
330
1F
100
AcDbEntity
  8
0
 48
0.033341
370
    60
390
F
100
AcDbLine
 10
853.508789
 20
290.166504
 30
0.0
 11
854.365967
 21
289.144836
 31
0.0
  0
ARC
  5
40D
330
1F
100
AcDbEntity
  8
0
370
    60
390
F
100
AcDbCircle
 10
803.265625
 20
369.655823
 30
0.0
 40
105.307785
100
AcDbArc
 50
276.286025
 51
278.252976
  0
ARC
  5
40E
330
1F
100
AcDbEntity
  8
0
370
    60
390
F
100
AcDbCircle
 10
813.561279
 20
340.344452
 30
0.0
 40
72.393265
100
AcDbArc
 50
345.490495
 51
348.021046
  0
LWPOLYLINE
  5
40F
330
1F
100
AcDbEntity
  8
0
370
    60
390
F
100
AcDbPolyline
 90
       11
 70
     0
 43
0.0
 10
790.927429
 20
266.853302
 10
793.206543
 20
266.275513
 10
795.503662
 20
265.767334
 10
796.658447
 20
265.540955
 10
797.817078
 20
265.334106
 10
798.979065
 20
265.147522
 10
800.144165
 20
264.982086
 10
801.312012
 20
264.838654
 10
802.482117
 20
264.718109
 10
803.654175
 20
264.621399
 10
804.827759
 20
264.549561
  0
LINE
  5
41C
330
1F
100
AcDbEntity
  8
0
 48
0.025405
370
    60
390
F
100
AcDbLine
 10
758.503784
 20
279.062042
 30
0.0
 11
759.453125
 21
278.699585
 31
0.0
  0
ARC
  5
41D
330
1F
100
AcDbEntity
  8
0
370
    60
390
F
100
AcDbCircle
 10
807.466187
 20
312.809906
 30
0.0
 40
48.328938
100
AcDbArc
 50
269.858039
 51
270.851708
  0
ARC
  5
41E
330
1F
100
AcDbEntity
  8
0
370
    60
390
F
100
AcDbCircle
 10
805.034546
 20
358.149506
 30
0.0
 40
93.667091
100
AcDbArc
 50
278.274963
 51
282.91637
  0
ELLIPSE
  5
41F
330
1F
100
AcDbEntity
  8
0
370
    60
390
F
100
AcDbEllipse
 10
818.810669
 20
333.475891
 30
0.0
 11
-47.574462890625
 21
-52.83087158203125
 31
0.0
210
0.0
220
0.0
230
0.9999999999999999
 40
0.901289
 41
1.317350029945374
 42
1.721060752868652
  0
LINE
  5
420
330
1F
100
AcDbEntity
  8
0
 48
0.000601
370
    60
390
F
100
AcDbLine
 10
873.011841
 20
298.989502
 30
0.0
 11
873.025269
 21
299.00946
 31
0.0
  0
LINE
  5
421
330
1F
100
AcDbEntity
  8
0
 48
0.016092
370
    60
390
F
100
AcDbLine
 10
757.902344
 20
279.296631
 30
0.0
 11
758.503662
 21
279.067017
 31
0.0
  0
LINE
  5
422
330
1F
100
AcDbEntity
  8
0
 48
0.027071
370
    60
390
F
100
AcDbLine
 10
736.6604
 20
287.073608
 30
0.0
 11
737.682007
 21
286.7146
 31
0.0
  0
LWPOLYLINE
  5
423
330
1F
100
AcDbEntity
  8
0
370
    60
390
F
100
AcDbPolyline
 90
        4
 70
     0
 43
0.0
 10
378.049011
 20
326.33548
 10
355.254761
 20
326.312714
 10
321.069855
 20
326.335388
 10
292.596191
 20
326.362793
  0
LINE
  5
429
330
1F
100
AcDbEntity
  8
0
 48
0.448352
370
    60
390
F
100
AcDbLine
 10
242.792694
 20
326.378357
 30
0.0
 11
260.726776
 21
326.379761
 31
0.0
  0
ARC
  5
42A
330
1F
100
AcDbEntity
  8
0
370
    60
390
F
100
AcDbCircle
 10
183.155304
 20
132071.328125
 30
0.0
 40
131744.96875
100
AcDbArc
 50
270.005598
 51
270.024088
  0
LWPOLYLINE
  5
42B
330
1F
100
AcDbEntity
  8
0
370
    60
390
F
100
AcDbPolyline
 90
        4
 70
     0
 43
0.0
 10
434.143372
 20
326.490875
 10
418.843964
 20
326.474579
 10
398.44873
 20
326.403198
 10
378.049011
 20
326.33548
  0
ARC
  5
431
330
1F
100
AcDbEntity
  8
0
370
    60
390
F
100
AcDbCircle
 10
432.142578
 20
-2159.230713
 30
0.0
 40
2485.722168
100
AcDbArc
 50
89.672044
 51
89.953885
  0
ARC
  5
432
330
1F
100
AcDbEntity
  8
0
370
    60
390
F
100
AcDbCircle
 10
1069.513719727944
 20
-3135.226926676635
 30
0.0
 40
3455.212979487103
100
AcDbArc
 50
97.84918375380094
 51
99.4189815105499
  0
LWPOLYLINE
  5
433
330
1F
100
AcDbEntity
  8
0
370
    60
390
F
100
AcDbPolyline
 90
       13
 70
     0
 43
0.0
 10
592.980225
 20
287.0
 10
597.649109
 20
287.614075
 10
602.318848
 20
288.209869
 10
606.989502
 20
288.785614
 10
611.661011
 20
289.339539
 10
616.333374
 20
289.869873
 10
621.006653
 20
290.374847
 10
625.680786
 20
290.852753
 10
630.355835
 20
291.301788
 10
635.031738
 20
291.720215
 10
639.708496
 20
292.106201
 10
644.386108
 20
292.458099
 10
703.418701
 20
292.81012
  0
LWPOLYLINE
  5
442
330
1F
100
AcDbEntity
  8
0
370
    60
390
F
100
AcDbPolyline
 90
       10
 70
     0
 43
0.0
 10
703.418701
 20
292.81012
 10
707.859131
 20
292.421326
 10
712.299255
 20
291.958771
 10
716.738953
 20
291.419312
 10
718.959961
 20
291.119629
 10
721.178101
 20
290.799927
 10
723.399048
 20
290.459045
 10
725.616699
 20
290.097473
 10
727.837524
 20
289.713837
 10
730.054565
 20
289.308929
  0
LINE
  5
44E
330
1F
100
AcDbEntity
  8
0
 48
0.0055
370
    60
390
F
100
AcDbLine
 10
730.054565
 20
289.308929
 30
0.0
 11
730.2946743186022
 21
289.265631249351
 31
0.0
  0
ARC
  5
44F
330
1F
100
AcDbEntity
  8
0
370
    60
390
F
100
AcDbCircle
 10
154.094116
 20
446.341492
 30
0.0
 40
146.55246
100
AcDbArc
 50
230.550183
 51
233.038039
  0
ELLIPSE
  5
450
330
1F
100
AcDbEntity
  8
0
370
    60
390
F
100
AcDbEllipse
 10
122.756897
 20
417.069
 30
0.0
 11
82.1725769042969
 21
-90.32260131835939
 31
0.0
210
0.0
220
0.0
230
1.0
 40
0.8486119999999998
 41
4.474748134613037
 42
4.880890369415283
  0
ARC
  5
451
330
1F
100
AcDbEntity
  8
0
370
    60
390
F
100
AcDbCircle
 10
150.615387
 20
441.898804
 30
0.0
 40
140.910934
100
AcDbArc
 50
233.082081
 51
233.933284
  0
LINE
  5
452
330
1F
100
AcDbEntity
  8
0
 48
0.11154
370
    60
390
F
100
AcDbLine
 10
72.661484
 20
326.366852
 30
0.0
 11
77.123093
 21
326.366852
 31
0.0
  0
LINE
  5
453
330
1F
100
AcDbEntity
  8
0
370
    60
390
F
100
AcDbLine
 10
77.127167
 20
326.366852
 30
0.0
 11
120.462494
 21
326.366852
 31
0.0
  0
LINE
  5
454
330
1F
100
AcDbEntity
  8
0
370
    60
390
F
100
AcDbLine
 10
120.462479
 20
326.366852
 30
0.0
 11
196.021179
 21
326.366852
 31
0.0
  0
ARC
  5
455
330
1F
100
AcDbEntity
  8
0
370
    60
390
F
100
AcDbCircle
 10
72.661484
 20
334.866821
 30
0.0
 40
8.49998
100
AcDbArc
 50
233.933478
 51
270.000045
  0
LINE
  5
456
330
1F
100
AcDbEntity
  8
0
 48
0.000476
370
    60
390
F
100
AcDbLine
 10
97.79129
 20
326.366852
 30
0.0
 11
97.810318
 21
326.367035
 31
0.0
  0
ARC
  5
457
330
1F
100
AcDbEntity
  8
0
370
    60
390
F
100
AcDbCircle
 10
835.445557
 20
350.335938
 30
0.0
 40
105.899597
100
AcDbArc
 50
182.542519
 51
183.759222
  0
LWPOLYLINE
  5
458
330
1F
100
AcDbEntity
  8
0
370
    60
390
F
100
AcDbPolyline
 90
       17
 70
     0
 43
0.0
 10
808.334473
 20
264.488647
 10
807.256104
 20
264.482391
 10
806.174561
 20
264.499634
 10
805.090332
 20
264.539795
 10
804.003662
 20
264.602295
 10
802.914917
 20
264.686523
 10
801.824463
 20
264.791962
 10
800.732727
 20
264.91803
 10
798.546631
 20
265.229736
 10
796.359497
 20
265.617126
 10
794.174194
 20
266.075623
 10
791.99353
 20
266.6008
 10
789.819458
 20
267.190063
 10
787.653442
 20
267.842163
 10
785.496704
 20
268.555817
 10
783.350708
 20
269.329773
 10
781.216919
 20
270.162811
  0
ARC
  5
46B
330
1F
100
AcDbEntity
  8
0
370
    60
390
F
100
AcDbCircle
 10
807.483032
 20
315.454956
 30
0.0
 40
50.974224
100
AcDbArc
 50
267.014064
 51
269.82563
  0
ARC
  5
46C
330
1F
100
AcDbEntity
  8
0
370
    60
390
F
100
AcDbCircle
 10
807.458435
 20
312.780518
 30
0.0
 40
48.29966
100
AcDbArc
 50
269.845219
 51
270.812592
  0
LWPOLYLINE
  5
46D
330
1F
100
AcDbEntity
  8
0
370
    60
390
F
100
AcDbPolyline
 90
       36
 70
     0
 43
0.0
 10
762.841431
 20
279.37677
 10
761.8396
 20
280.109192
 10
760.822754
 20
280.879791
 10
759.791504
 20
281.688812
 10
758.749207
 20
282.535217
 10
757.698975
 20
283.417877
 10
756.644165
 20
284.335663
 10
755.588074
 20
285.287384
 10
754.533813
 20
286.271881
 10
753.484497
 20
287.287994
 10
752.442993
 20
288.334656
 10
751.41217
 20
289.410767
 10
750.394531
 20
290.515411
 10
749.392456
 20
291.647705
 10
748.407959
 20
292.806793
 10
747.442505
 20
293.991852
 10
746.497375
 20
295.201599
 10
745.573853
 20
296.43457
 10
744.673096
 20
297.689514
 10
743.796265
 20
298.965179
 10
742.944153
 20
300.260345
 10
742.117493
 20
301.573914
 10
741.317017
 20
302.904846
 10
740.543213
 20
304.252014
 10
739.796814
 20
305.61438
 10
739.078369
 20
306.990906
 10
738.388428
 20
308.380554
 10
737.727661
 20
309.782349
 10
737.096008
 20
311.195862
 10
736.493286
 20
312.621033
 10
735.918945
 20
314.0578
 10
735.372253
 20
315.506165
 10
734.852539
 20
316.966248
 10
734.358643
 20
318.438171
 10
733.889771
 20
319.922058
 10
733.444641
 20
321.41803
  0
LWPOLYLINE
  5
493
330
1F
100
AcDbEntity
  8
0
370
    60
390
F
100
AcDbPolyline
 90
        5
 70
     0
 43
0.0
 10
733.444641
 20
321.41803
 10
732.723877
 20
324.049622
 10
732.06604
 20
326.718811
 10
731.660156
 20
328.519592
 10
731.10791
 20
331.255219
  0
ARC
  5
49A
330
1F
100
AcDbEntity
  8
0
370
    60
390
F
100
AcDbCircle
 10
808.987305
 20
345.894714
 30
0.0
 40
79.243149
100
AcDbArc
 50
187.266947
 51
190.646034
  0
LWPOLYLINE
  5
49B
330
1F
100
AcDbEntity
  8
0
370
    60
390
F
100
AcDbPolyline
 90
        5
 70
     0
 43
0.0
 10
730.380859
 20
335.871063
 10
730.143921
 20
337.972076
 10
729.962646
 20
340.108521
 10
729.831177
 20
342.286285
 10
729.77948
 20
343.393219
  0
ARC
  5
4A2
330
1F
100
AcDbEntity
  8
0
370
    60
390
F
100
AcDbCircle
 10
802.774292
 20
373.685272
 30
0.0
 40
109.367325
100
AcDbArc
 50
274.155847
 51
278.275359
  0
ELLIPSE
  5
4A3
330
1F
100
AcDbEntity
  8
0
370
    60
390
F
100
AcDbEllipse
 10
848.714233
 20
317.410034
 30
0.0
 11
-26.12161254882812
 21
-41.23013305664064
 31
0.0
210
0.0
220
0.0
230
1.0
 40
0.6233609999999999
 41
1.518391251564026
 42
1.831577777862549
  0
ARC
  5
4A4
330
1F
100
AcDbEntity
  8
0
370
    60
390
F
100
AcDbCircle
 10
813.938232
 20
340.403381
 30
0.0
 40
72.046791
100
AcDbArc
 50
337.048062
 51
343.336478
  0
ARC
  5
4A5
330
1F
100
AcDbEntity
  8
0
370
    60
390
F
100
AcDbCircle
 10
813.38446
 20
340.418671
 30
0.0
 40
72.582458
100
AcDbArc
 50
343.450274
 51
349.621482
  0
LWPOLYLINE
  5
4A6
330
1F
100
AcDbEntity
  8
0
370
    60
390
F
100
AcDbPolyline
 90
        8
 70
     0
 43
0.0
 10
884.780273
 20
327.342743
 10
885.04895
 20
328.871735
 10
885.291138
 20
330.405518
 10
885.508423
 20
331.943604
 10
885.702515
 20
333.485535
 10
885.875366
 20
335.030884
 10
886.16394
 20
338.130005
 10
886.4197372404757
 20
341.2616533318822
  0
ARC
  5
4B0
330
1F
100
AcDbEntity
  8
0
370
    60
390
F
100
AcDbCircle
 10
310.13736
 20
-892.088928
 30
0.0
 40
1254.091309
100
AcDbArc
 50
67.936491
 51
68.224553
  0
ARC
  5
4B1
330
1F
100
AcDbEntity
  8
0
370
    60
390
F
100
AcDbCircle
 10
356.849304
 20
-775.269714
 30
0.0
 40
1128.278809
100
AcDbArc
 50
68.226706
 51
68.811567
  0
LWPOLYLINE
  5
4B2
330
1F
100
AcDbEntity
  8
0
370
    60
390
F
100
AcDbPolyline
 90
       18
 70
     0
 43
0.0
 10
764.650269
 20
276.733826
 10
756.507935
 20
279.848969
 10
751.144409
 20
281.855164
 10
745.829468
 20
283.804932
 10
740.559998
 20
285.698395
 10
735.332947
 20
287.535675
 10
730.14502
 20
289.317017
 10
724.99292
 20
291.042664
 10
719.873169
 20
292.712921
 10
714.782349
 20
294.328064
 10
709.716919
 20
295.888428
 10
704.673523
 20
297.394348
 10
699.648499
 20
298.8461
 10
694.638489
 20
300.244019
 10
689.639893
 20
301.58844
 10
684.649292
 20
302.879639
 10
679.663147
 20
304.118011
 10
674.678833
 20
305.30426
  0
LWPOLYLINE
  5
4C6
330
1F
100
AcDbEntity
  8
0
370
    60
390
F
100
AcDbPolyline
 90
       11
 70
     0
 43
0.0
 10
674.678833
 20
305.30426
 10
668.560547
 20
306.69165
 10
662.441895
 20
308.005646
 10
656.321045
 20
309.249176
 10
650.196533
 20
310.42514
 10
644.06665
 20
311.536407
 10
637.92981
 20
312.585876
 10
631.784302
 20
313.576447
 10
625.628479
 20
314.510986
 10
619.460815
 20
315.392426
 10
616.37207
 20
315.814087
  0
LWPOLYLINE
  5
4D3
330
1F
100
AcDbEntity
  8
0
370
    60
390
F
100
AcDbPolyline
 90
       19
 70
     0
 43
0.0
 10
616.37207
 20
315.814087
 10
611.634888
 20
316.43634
 10
606.888672
 20
317.03125
 10
602.132568
 20
317.600159
 10
597.365845
 20
318.144318
 10
592.587891
 20
318.665039
 10
587.797974
 20
319.163635
 10
582.995239
 20
319.641357
 10
578.180298
 20
320.099182
 10
573.355164
 20
320.537598
 10
563.682495
 20
321.358276
 10
553.994141
 20
322.107239
 10
544.306824
 20
322.788391
 10
534.63739
 20
323.40567
 10
525.002625
 20
323.962921
 10
515.419434
 20
324.464081
 10
505.904602
 20
324.913025
 10
496.474945
 20
325.31366
 10
487.147339
 20
325.669861
  0
LINE
  5
500
330
1F
100
AcDbEntity
  8
0
 48
0.010383
370
    60
390
F
100
AcDbLine
 10
529.519531
 20
323.71051
 30
0.0
 11
529.934143
 21
323.686584
 31
0.0
  0
LINE
  5
501
330
1F
100
AcDbEntity
  8
0
 48
0.023616
370
    60
390
F
100
AcDbLine
 10
196.021179
 20
326.366852
 30
0.0
 11
196.965836
 21
326.366852
 31
0.0
  0
LWPOLYLINE
  5
502
330
1F
100
AcDbEntity
  8
0
370
    60
390
F
100
AcDbPolyline
 90
        3
 70
     0
 43
0.0
 10
268.637665
 20
326.378021
 10
219.652008
 20
326.371338
 10
197.061874
 20
326.366852
  0
LWPOLYLINE
  5
507
330
1F
100
AcDbEntity
  8
0
370
    60
390
F
100
AcDbPolyline
 90
        5
 70
     0
 43
0.0
 10
378.049042
 20
326.33548
 10
355.005066
 20
326.312744
 10
320.446075
 20
326.335999
 10
274.393402
 20
326.37561
 10
268.637665
 20
326.378021
  0
LWPOLYLINE
  5
50E
330
1F
100
AcDbEntity
  8
0
370
    60
390
F
100
AcDbPolyline
 90
       12
 70
     0
 43
0.0
 10
486.411133
 20
325.696198
 10
480.717133
 20
325.881836
 10
475.016296
 20
326.037384
 10
469.310486
 20
326.165314
 10
463.601471
 20
326.268066
 10
457.891052
 20
326.348145
 10
452.181122
 20
326.407959
 10
440.767334
 20
326.476563
 10
429.360596
 20
326.492035
 10
412.257446
 20
326.454529
 10
389.453857
 20
326.369629
 10
378.049042
 20
326.33548
  0
LINE
  5
51C
330
1F
100
AcDbEntity
  8
0
 48
0.017628
370
    60
390
F
100
AcDbLine
 10
486.442688
 20
325.695068
 30
0.0
 11
487.147339
 21
325.669861
 31
0.0
  0
LINE
  5
54A
330
1F
100
AcDbEntity
  8
0
 48
0.0001
370
    60
390
F
100
AcDbLine
 10
504.058533
 20
273.402771
 30
0.0
 11
504.062195
 21
273.404388
 31
0.0
  0
ELLIPSE
  5
54B
330
1F
100
AcDbEntity
  8
0
370
    60
390
F
100
AcDbEllipse
 10
636.946777
 20
392.846893
 30
0.0
 11
145.9960632324219
 21
115.3576354980469
 31
0.0
210
0.0
220
0.0
230
1.0
 40
0.8876590000000001
 41
2.816872358322144
 42
3.129492998123169
  0
ARC
  5
54C
330
1F
100
AcDbEntity
  8
0
370
    60
390
F
100
AcDbCircle
 10
154.094116
 20
446.341492
 30
0.0
 40
146.55246
100
AcDbArc
 50
230.550183
 51
233.038039
  0
ARC
  5
54D
330
1F
100
AcDbEntity
  8
0
370
    60
390
F
100
AcDbCircle
 10
788.782104
 20
314.121887
 30
0.0
 40
43.362415
100
AcDbArc
 50
233.218262
 51
237.689179
  0
LWPOLYLINE
  5
54E
330
1F
100
AcDbEntity
  8
0
370
    60
390
F
100
AcDbPolyline
 90
        7
 70
     0
 43
0.0
 10
775.367432
 20
272.51651
 10
773.59137
 20
273.258026
 10
771.804688
 20
274.070007
 10
770.016724
 20
274.952332
 10
768.236511
 20
275.905884
 10
766.474487
 20
276.93222
 10
765.604065
 20
277.473267
  0
ARC
  5
55B
330
1F
100
AcDbEntity
  8
0
370
    60
390
F
100
AcDbCircle
 10
464.004089
 20
324.261383
 30
0.0
 40
1.999966
100
AcDbArc
 50
17.54404
 51
89.070339
  0
ARC
  5
574
330
1F
100
AcDbEntity
  8
0
370
    60
390
F
100
AcDbCircle
 10
501.6177003436889
 20
288.2041399758394
 30
0.0
 40
15.00026183614688
100
AcDbArc
 50
217.5329594925444
 51
279.3787445856137
  0
LWPOLYLINE
  5
576
330
1F
100
AcDbEntity
  8
0
370
    60
390
F
100
AcDbPolyline
 90
       25
 70
     0
 43
0.0
 10
873.011597
 20
298.989014
 10
871.953613
 20
297.472961
 10
870.862549
 20
295.985168
 10
869.739136
 20
294.526245
 10
868.584106
 20
293.096802
 10
867.39856
 20
291.697388
 10
866.183105
 20
290.328522
 10
864.938721
 20
288.990753
 10
863.666016
 20
287.684631
 10
862.365967
 20
286.410645
 10
861.039185
 20
285.169281
 10
859.686523
 20
283.96106
 10
858.308838
 20
282.786438
 10
856.906738
 20
281.645935
 10
855.481079
 20
280.540039
 10
854.032593
 20
279.469177
 10
852.562012
 20
278.433838
 10
851.070068
 20
277.434509
 10
849.557617
 20
276.471649
 10
848.025146
 20
275.545776
 10
846.473511
 20
274.657379
 10
844.903442
 20
273.806946
 10
843.315796
 20
272.994934
 10
841.710938
 20
272.221924
 10
840.089966
 20
271.488403
  0
ARC
  5
591
330
1F
100
AcDbEntity
  8
0
370
    60
390
F
100
AcDbCircle
 10
809.383545
 20
341.650177
 30
0.0
 40
76.587196
100
AcDbArc
 50
288.166292
 51
293.63668
  0
ARC
  5
592
330
1F
100
AcDbEntity
  8
0
370
    60
390
F
100
AcDbCircle
 10
807.495117
 20
347.461243
 30
0.0
 40
82.698135
100
AcDbArc
 50
283.099666
 51
288.154189
  0
ARC
  5
593
330
1F
100
AcDbEntity
  8
0
370
    60
390
F
100
AcDbCircle
 10
805.08313
 20
357.911011
 30
0.0
 40
93.423805
100
AcDbArc
 50
278.26663
 51
283.087917
  0
ARC
  5
594
330
1F
100
AcDbEntity
  8
0
370
    60
390
F
100
AcDbCircle
 10
807.626404
 20
309.844666
 30
0.0
 40
45.360752
100
AcDbArc
 50
272.962333
 51
273.88559
  0
ARC
  5
595
330
1F
100
AcDbEntity
  8
0
370
    60
390
F
100
AcDbCircle
 10
807.557068
 20
310.796204
 30
0.0
 40
46.314606
100
AcDbArc
 50
270.960698
 51
272.987877
  0
LINE
  5
596
330
1F
100
AcDbEntity
  8
0
 48
0.053841
370
    60
390
F
100
AcDbLine
 10
755.886169
 20
280.046814
 30
0.0
 11
757.899414
 21
279.281982
 31
0.0
  0
ARC
  5
597
330
1F
100
AcDbEntity
  8
0
370
    60
390
F
100
AcDbCircle
 10
454.033295
 20
-515.639587
 30
0.0
 40
851.017334
100
AcDbArc
 50
69.267509
 51
70.570272
  0
LINE
  5
598
330
1F
100
AcDbEntity
  8
0
 48
0.000894
370
    60
390
F
100
AcDbLine
 10
755.297485
 20
280.305023
 30
0.0
 11
755.298096
 21
280.269287
 31
0.0
  0
LINE
  5
599
330
1F
100
AcDbEntity
  8
0
 48
0.001013
370
    60
390
F
100
AcDbLine
 10
757.89917
 20
279.32251
 30
0.0
 11
757.899841
 21
279.282013
 31
0.0
  0
LINE
  5
59A
330
1F
100
AcDbEntity
  8
0
 48
0.069559
370
    60
390
F
100
AcDbLine
 10
755.298096
 20
280.269287
 30
0.0
 11
757.899414
 21
279.281982
 31
0.0
  0
LINE
  5
59B
330
1F
100
AcDbEntity
  8
0
 48
0.401063
370
    60
390
F
100
AcDbLine
 10
740.962036
 20
493.402039
 30
0.0
 11
755.975647
 21
487.749237
 31
0.0
  0
LINE
  5
59C
330
1F
100
AcDbEntity
  8
0
 48
0.049888
370
    60
390
F
100
AcDbLine
 10
739.094238
 20
494.105194
 30
0.0
 11
740.961792
 21
493.40213
 31
0.0
  0
LINE
  5
59D
330
1F
100
AcDbEntity
  8
0
 48
0.1104
370
    60
390
F
100
AcDbLine
 10
734.960205
 20
495.659363
 30
0.0
 11
739.09375
 21
494.105377
 31
0.0
  0
LINE
  5
59E
330
1F
100
AcDbEntity
  8
0
 48
0.056226
370
    60
390
F
100
AcDbLine
 10
732.854614
 20
496.449371
 30
0.0
 11
734.960327
 21
495.659302
 31
0.0
  0
ARC
  5
59F
330
1F
100
AcDbEntity
  8
0
370
    60
390
F
100
AcDbCircle
 10
557.122742
 20
-71.880463
 30
0.0
 40
594.878479
100
AcDbArc
 50
72.817998
 51
73.231335
  0
LINE
  5
5A0
330
1F
100
AcDbEntity
  8
0
 48
0.022157
370
    60
390
F
100
AcDbLine
 10
890.060547
 20
368.71637
 30
0.0
 11
889.922241
 21
369.591797
 31
0.0
  0
LWPOLYLINE
  5
5A1
330
1F
100
AcDbEntity
  8
0
370
    60
390
F
100
AcDbPolyline
 90
       23
 70
     0
 43
0.0
 10
889.356201
 20
372.91217
 10
889.052246
 20
374.533569
 10
888.728882
 20
376.150574
 10
888.385986
 20
377.762878
 10
888.023438
 20
379.370239
 10
887.640747
 20
380.972321
 10
887.238037
 20
382.568939
 10
886.815063
 20
384.15976
 10
886.371704
 20
385.744507
 10
885.907837
 20
387.322968
 10
885.423462
 20
388.894836
 10
884.918457
 20
390.459839
 10
884.3927
 20
392.017731
 10
883.846313
 20
393.568207
 10
883.279297
 20
395.111023
 10
882.691528
 20
396.645905
 10
882.08313
 20
398.172607
 10
881.453979
 20
399.690826
 10
880.804443
 20
401.200317
 10
880.134277
 20
402.700806
 10
879.443726
 20
404.192047
 10
878.732788
 20
405.673767
 10
878.001709
 20
407.14566
  0
LWPOLYLINE
  5
5BA
330
1F
100
AcDbEntity
  8
0
370
    60
390
F
100
AcDbPolyline
 90
       19
 70
     0
 43
0.0
 10
878.001831
 20
407.145508
 10
876.620361
 20
409.797363
 10
875.17334
 20
412.414215
 10
873.661499
 20
414.994507
 10
872.086182
 20
417.536743
 10
870.448364
 20
420.039307
 10
868.74939
 20
422.500549
 10
866.990723
 20
424.918762
 10
865.173828
 20
427.292236
 10
863.300293
 20
429.619293
 10
861.37207
 20
431.898102
 10
859.390869
 20
434.126923
 10
857.358765
 20
436.304016
 10
855.27771
 20
438.427551
 10
853.14978
 20
440.495789
 10
850.977417
 20
442.50705
 10
848.762817
 20
444.459595
 10
846.508423
 20
446.351837
 10
845.367065
 20
447.274841
  0
LWPOLYLINE
  5
5CF
330
1F
100
AcDbEntity
  8
0
370
    60
390
F
100
AcDbPolyline
 90
       20
 70
     0
 43
0.0
 10
845.367065
 20
447.274841
 10
843.918457
 20
448.41391
 10
842.453369
 20
449.530731
 10
840.97229
 20
450.625305
 10
839.475952
 20
451.69751
 10
837.964478
 20
452.747009
 10
836.438477
 20
453.773285
 10
834.898315
 20
454.775818
 10
833.34436
 20
455.754028
 10
831.7771
 20
456.707397
 10
830.196655
 20
457.635437
 10
828.603638
 20
458.537781
 10
826.998047
 20
459.414276
 10
825.380127
 20
460.264954
 10
823.750122
 20
461.090149
 10
822.108154
 20
461.890533
 10
820.454102
 20
462.667114
 10
818.787964
 20
463.421356
 10
817.109314
 20
464.155243
 10
815.417847
 20
464.871216
  0
ARC
  5
5E5
330
1F
100
AcDbEntity
  8
0
370
    60
390
F
100
AcDbCircle
 10
708.351807
 20
206.855682
 30
0.0
 40
279.348175
100
AcDbArc
 50
67.463506
 51
68.510041
  0
LWPOLYLINE
  5
5E6
330
1F
100
AcDbEntity
  8
0
370
    60
390
F
100
AcDbPolyline
 90
        4
 70
     0
 43
0.0
 10
810.688599
 20
466.785278
 10
805.118164
 20
468.966125
 10
793.981262
 20
473.30188
 10
781.885254
 20
477.943848
  0
LWPOLYLINE
  5
5EC
330
1F
100
AcDbEntity
  8
0
370
    60
390
F
100
AcDbPolyline
 90
        3
 70
     0
 43
0.0
 10
781.885254
 20
477.943848
 10
765.278442
 20
484.239166
 10
762.250671
 20
485.38504
  0
LINE
  5
5F1
330
1F
100
AcDbEntity
  8
0
 48
0.167626
370
    60
390
F
100
AcDbLine
 10
755.976074
 20
487.749054
 30
0.0
 11
762.250549
 21
485.385071
 31
0.0
  0
ARC
  5
5F2
330
1F
100
AcDbEntity
  8
0
370
    60
390
F
100
AcDbCircle
 10
761.999756
 20
484.566498
 30
0.0
 40
0.858558
100
AcDbArc
 50
69.230209
 51
74.96475500000001
  0
ARC
  5
5F3
330
1F
100
AcDbEntity
  8
0
370
    60
390
F
100
AcDbCircle
 10
744.454712
 20
346.197113
 30
0.0
 40
147.33696
100
AcDbArc
 50
7.481119
 51
8.791649
  0
LWPOLYLINE
  5
5F4
330
1F
100
AcDbEntity
  8
0
370
    60
390
F
100
AcDbPolyline
 90
       33
 70
     0
 43
0.0
 10
626.609131
 20
517.214294
 10
621.226685
 20
518.07196
 10
615.827637
 20
518.892822
 10
610.411987
 20
519.678162
 10
604.979675
 20
520.429199
 10
599.530762
 20
521.147217
 10
594.065186
 20
521.833374
 10
588.583252
 20
522.488892
 10
583.084961
 20
523.114746
 10
577.570435
 20
523.712036
 10
572.040039
 20
524.281799
 10
566.493896
 20
524.825012
 10
560.932495
 20
525.342529
 10
555.355957
 20
525.835327
 10
549.764771
 20
526.304199
 10
544.159302
 20
526.75
 10
538.5401
 20
527.173462
 10
532.907593
 20
527.575195
 10
527.26239
 20
527.955994
 10
521.60498
 20
528.316467
 10
515.935974
 20
528.657227
 10
504.566101
 20
529.281555
 10
493.158447
 20
529.832886
 10
481.719421
 20
530.314331
 10
470.256104
 20
530.728394
 10
458.776093
 20
531.076965
 10
447.287781
 20
531.361084
 10
435.80011
 20
531.581177
 10
424.322693
 20
531.737061
 10
412.865723
 20
531.82782
 10
401.440155
 20
531.851807
 10
390.057465
 20
531.806763
 10
384.385986
 20
531.757446
  0
LWPOLYLINE
  5
61A
330
1F
100
AcDbEntity
  8
0
370
    60
390
F
100
AcDbPolyline
 90
       19
 70
     0
 43
0.0
 10
48.47171
 20
414.865479
 10
46.673584
 20
413.295746
 10
44.924347
 20
411.675629
 10
43.22403
 20
410.005066
 10
41.572571
 20
408.284088
 10
39.970001
 20
406.512726
 10
38.416351
 20
404.690948
 10
36.911591
 20
402.818756
 10
35.455688
 20
400.896149
 10
34.048706
 20
398.923157
 10
32.690613
 20
396.899719
 10
31.381409
 20
394.825897
 10
30.121124
 20
392.70166
 10
28.909698
 20
390.527008
 10
27.747162
 20
388.301941
 10
26.633545
 20
386.026489
 10
25.568787
 20
383.700592
 10
24.552948
 20
381.32431
 10
24.063354
 20
380.117249
  0
LWPOLYLINE
  5
62F
330
1F
100
AcDbEntity
  8
0
370
    60
390
F
100
AcDbPolyline
 90
       36
 70
     0
 43
0.0
 10
384.385986
 20
531.757446
 10
376.619385
 20
531.658691
 10
368.876068
 20
531.521667
 10
361.158447
 20
531.344604
 10
353.468475
 20
531.125427
 10
345.807556
 20
530.861572
 10
338.176605
 20
530.550476
 10
330.576019
 20
530.188965
 10
323.005798
 20
529.773804
 10
315.465332
 20
529.301392
 10
307.953583
 20
528.767822
 10
300.469025
 20
528.168884
 10
293.009552
 20
527.500122
 10
289.288452
 20
527.138062
 10
285.572662
 20
526.756714
 10
281.861755
 20
526.355469
 10
278.155334
 20
525.933594
 10
274.452911
 20
525.490479
 10
270.753998
 20
525.025391
 10
267.058105
 20
524.537659
 10
263.364685
 20
524.026489
 10
259.673126
 20
523.49115
 10
255.982819
 20
522.930908
 10
252.293152
 20
522.344849
 10
248.603439
 20
521.7323
 10
244.912964
 20
521.092407
 10
241.221008
 20
520.424316
 10
237.526779
 20
519.727051
 10
233.829514
 20
518.999939
 10
230.128357
 20
518.241882
 10
226.422485
 20
517.452087
 10
222.710968
 20
516.629578
 10
218.99292
 20
515.773376
 10
215.267365
 20
514.882568
 10
211.533325
 20
513.956055
 10
207.789795
 20
512.99292
  0
LWPOLYLINE
  5
655
330
1F
100
AcDbEntity
  8
0
370
    60
390
F
100
AcDbPolyline
 90
       11
 70
     0
 43
0.0
 10
686.645996
 20
504.825592
 10
680.645508
 20
506.336578
 10
674.652466
 20
507.778046
 10
668.663879
 20
509.153412
 10
662.676636
 20
510.466064
 10
656.687622
 20
511.71936
 10
650.693848
 20
512.916748
 10
644.692139
 20
514.061523
 10
638.679504
 20
515.157104
 10
632.652832
 20
516.206909
 10
626.609131
 20
517.214294
  0
LINE
  5
662
330
1F
100
AcDbEntity
  8
0
 48
0.000681
370
    60
390
F
100
AcDbLine
 10
890.544678
 20
365.326843
 30
0.0
 11
890.541016
 21
365.353821
 31
0.0
  0
LWPOLYLINE
  5
663
330
1F
100
AcDbEntity
  8
0
370
    60
390
F
100
AcDbPolyline
 90
       62
 70
     0
 43
0.0
 10
58.249588
 20
418.38559
 10
60.083557
 20
420.451508
 10
63.803589
 20
424.552673
 10
67.587418
 20
428.607605
 10
71.429092
 20
432.61026
 10
75.323715
 20
436.554993
 10
77.289581
 20
438.503937
 10
79.267242
 20
440.436432
 10
81.256317
 20
442.351837
 10
83.25647
 20
444.249603
 10
85.267441
 20
446.12912
 10
87.289001
 20
447.989899
 10
89.320923
 20
449.83136
 10
91.363083
 20
451.653046
 10
93.415344
 20
453.454468
 10
95.477631
 20
455.235138
 10
97.549896
 20
456.994659
 10
99.632126
 20
458.732635
 10
101.724304
 20
460.448639
 10
103.826492
 20
462.142334
 10
105.938736
 20
463.813354
 10
108.061127
 20
465.461395
 10
110.193756
 20
467.086151
 10
112.336761
 20
468.687347
 10
114.490265
 20
470.26474
 10
116.654419
 20
471.818054
 10
118.829391
 20
473.347137
 10
121.015335
 20
474.851776
 10
123.212433
 20
476.331818
 10
125.420883
 20
477.787109
 10
127.640839
 20
479.217499
 10
129.872513
 20
480.622925
 10
132.116074
 20
482.003326
 10
134.371719
 20
483.358612
 10
136.639587
 20
484.688782
 10
138.919876
 20
485.993805
 10
141.212738
 20
487.273682
 10
143.518295
 20
488.528503
 10
145.836685
 20
489.75827
 10
148.16803
 20
490.963074
 10
150.512421
 20
492.143066
 10
152.869919
 20
493.298309
 10
155.24057
 20
494.428955
 10
157.624405
 20
495.535217
 10
160.021423
 20
496.617279
 10
162.431595
 20
497.675293
 10
164.854843
 20
498.709595
 10
167.291061
 20
499.720337
 10
169.740143
 20
500.707886
 10
172.201874
 20
501.672485
 10
174.676071
 20
502.614502
 10
177.162476
 20
503.534271
 10
179.660767
 20
504.432159
 10
182.170624
 20
505.308563
 10
184.69162
 20
506.163879
 10
187.223328
 20
506.998566
 10
189.765228
 20
507.81308
 10
192.316772
 20
508.60791
 10
194.87735
 20
509.383514
 10
197.446259
 20
510.140472
 10
202.606171
 20
511.600586
 10
207.789795
 20
512.99292
  0
ARC
  5
6A3
330
1F
100
AcDbEntity
  8
0
370
    60
390
F
100
AcDbCircle
 10
35.72821
 20
375.417206
 30
0.0
 40
12.575677
100
AcDbArc
 50
158.054225
 51
179.308025
  0
LINE
  5
6A4
330
1F
100
AcDbEntity
  8
0
 48
0.099998
370
    60
390
F
100
AcDbLine
 10
23.082825
 20
371.569794
 30
0.0
 11
23.152649
 21
375.569092
 31
0.0
  0
LINE
  5
6A5
330
1F
100
AcDbEntity
  8
0
 48
0.036348
370
    60
390
F
100
AcDbLine
 10
725.296753
 20
496.616638
 30
0.0
 11
726.52417
 21
497.395935
 31
0.0
  0
ARC
  5
6A7
330
1F
100
AcDbEntity
  8
0
370
    60
390
F
100
AcDbCircle
 10
727.971436
 20
495.116638
 30
0.0
 40
2.699982
100
AcDbArc
 50
73.239401
 51
122.414627
  0
ARC
  5
6A8
330
1F
100
AcDbEntity
  8
0
370
    60
390
F
100
AcDbCircle
 10
51.87921949899231
 20
423.9969812661708
 30
0.0
 40
8.489357027442002
100
AcDbArc
 50
274.587052213476
 51
318.6245841810087
  0
LINE
  5
6A9
330
1F
100
AcDbEntity
  8
0
 48
0.001197
370
    60
390
F
100
AcDbLine
 10
725.256226
 20
496.591125
 30
0.0
 11
725.296753
 21
496.616638
 31
0.0
  0
ARC
  5
6AA
330
1F
100
AcDbEntity
  8
0
370
    60
390
F
100
AcDbCircle
 10
720.741333
 20
503.792542
 30
0.0
 40
8.499725
100
AcDbArc
 50
291.249651
 51
302.085876
  0
ARC
  5
6AB
330
1F
100
AcDbEntity
  8
0
370
    60
390
F
100
AcDbCircle
 10
732.056641
 20
493.867065
 30
0.0
 40
2.702467
100
AcDbArc
 50
69.265741
 51
72.826119
  0
LINE
  5
6AD
330
1F
100
AcDbEntity
  8
0
 48
0.000327
370
    60
390
F
100
AcDbLine
 10
48.447021
 20
414.848541
 30
0.0
 11
48.457397
 21
414.856476
 31
0.0
  0
LINE
  5
6AF
330
1F
100
AcDbEntity
  8
0
 48
0.188038
370
    60
390
F
100
AcDbLine
 10
155.802124
 20
417.866852
 30
0.0
 11
163.321671
 21
418.038757
 31
0.0
  0
LWPOLYLINE
  5
6E6
330
1F
100
AcDbEntity
  8
0
370
    60
390
F
100
AcDbPolyline
 90
       68
 70
     0
 43
0.0
 10
884.621826
 20
363.848938
 10
884.198364
 20
365.390991
 10
883.743774
 20
366.922119
 10
883.258667
 20
368.441681
 10
882.743408
 20
369.949066
 10
882.198364
 20
371.443604
 10
881.624023
 20
372.924774
 10
881.020874
 20
374.391907
 10
880.389404
 20
375.844482
 10
879.72998
 20
377.281921
 10
879.043213
 20
378.703644
 10
878.329346
 20
380.109161
 10
877.589111
 20
381.497925
 10
876.822754
 20
382.869415
 10
876.030762
 20
384.223175
 10
875.213745
 20
385.558685
 10
874.37207
 20
386.875488
 10
873.506226
 20
388.173126
 10
872.616699
 20
389.451141
 10
871.704102
 20
390.709137
 10
870.768555
 20
391.946655
 10
869.810913
 20
393.16333
 10
868.831421
 20
394.358734
 10
867.830688
 20
395.532501
 10
866.809204
 20
396.684265
 10
865.767334
 20
397.81366
 10
864.705688
 20
398.920349
 10
863.624634
 20
400.004028
 10
862.52478
 20
401.064362
 10
861.406616
 20
402.101013
 10
860.270508
 20
403.113739
 10
859.117065
 20
404.102234
 10
857.946655
 20
405.066223
 10
856.759888
 20
406.005463
 10
855.557251
 20
406.919708
 10
854.339233
 20
407.808716
 10
853.106201
 20
408.672272
 10
851.858765
 20
409.510193
 10
850.597534
 20
410.322266
 10
849.322754
 20
411.108307
 10
848.035034
 20
411.868134
 10
846.734863
 20
412.601593
 10
845.422729
 20
413.308563
 10
844.099121
 20
413.988861
 10
842.764648
 20
414.642365
 10
841.419556
 20
415.269012
 10
840.064575
 20
415.868652
 10
838.700073
 20
416.441193
 10
837.326538
 20
416.986603
 10
835.94458
 20
417.504761
 10
834.554565
 20
417.995636
 10
833.156982
 20
418.459167
 10
831.752319
 20
418.895355
 10
830.341187
 20
419.304138
 10
828.92395
 20
419.685486
 10
827.501099
 20
420.039459
 10
826.07312
 20
420.366028
 10
824.640503
 20
420.665222
 10
823.203735
 20
420.937073
 10
821.763306
 20
421.18161
 10
820.319763
 20
421.398926
 10
818.873413
 20
421.58905
 10
817.424927
 20
421.752075
 10
815.97467
 20
421.888092
 10
814.523132
 20
421.997223
 10
813.070801
 20
422.079529
 10
812.7732518550935
 20
422.090054038232
 10
812.9199208963802
 20
422.0850036603099
  0
ARC
  5
72D
330
1F
100
AcDbEntity
  8
0
370
    60
390
F
100
AcDbCircle
 10
810.807922
 20
344.350128
 30
0.0
 40
76.34671
100
AcDbArc
 50
7.123161
 51
14.798509
  0
LINE
  5
72E
330
1F
100
AcDbEntity
  8
0
 48
0.001486
370
    60
390
F
100
AcDbLine
 10
58.241333
 20
418.326721
 30
0.0
 11
58.249588
 21
418.38559
 31
0.0
  0
LWPOLYLINE
  5
730
330
1F
100
AcDbEntity
  8
0
370
    60
390
F
100
AcDbPolyline
 90
        5
 70
     0
 43
0.0
 10
887.108154
 20
346.36087
 10
887.035889
 20
348.392334
 10
886.903687
 20
350.425476
 10
886.717163
 20
352.460114
 10
886.565063
 20
353.817291
  0
ARC
  5
737
330
1F
100
AcDbEntity
  8
0
370
    60
390
F
100
AcDbCircle
 10
807.304199
 20
344.669495
 30
0.0
 40
79.821808
100
AcDbArc
 50
358.241626
 51
1.214158
  0
LINE
  5
738
330
1F
100
AcDbEntity
  8
0
 48
0.000739
370
    60
390
F
100
AcDbLine
 10
887.058716
 20
342.220673
 30
0.0
 11
887.088257
 21
342.220184
 31
0.0
  0
LWPOLYLINE
  5
739
330
1F
100
AcDbEntity
  8
0
370
    60
390
F
100
AcDbPolyline
 90
        5
 70
     0
 43
0.0
 10
384.518005
 20
423.124115
 10
447.049622
 20
424.569641
 10
571.735718
 20
427.465149
 10
606.194458
 20
428.267365
 10
626.682861
 20
428.721863
  0
LINE
  5
740
330
1F
100
AcDbEntity
  8
0
 48
0.003273
370
    60
390
F
100
AcDbLine
 10
384.387329
 20
423.121124
 30
0.0
 11
384.518219
 21
423.124115
 31
0.0
  0
LWPOLYLINE
  5
741
330
1F
100
AcDbEntity
  8
0
370
    60
390
F
100
AcDbPolyline
 90
        3
 70
     0
 43
0.0
 10
207.114792
 20
419.04425
 10
353.807373
 20
422.415619
 10
384.351929
 20
423.1203
  0
LINE
  5
746
330
1F
100
AcDbEntity
  8
0
 48
0.017997
370
    60
390
F
100
AcDbLine
 10
206.395096
 20
419.027679
 30
0.0
 11
207.114792
 21
419.04425
 31
0.0
  0
LINE
  5
747
330
1F
100
AcDbEntity
  8
0
370
    60
390
F
100
AcDbLine
 10
175.180573
 20
418.30899
 30
0.0
 11
206.395081
 21
419.027679
 31
0.0
  0
LINE
  5
748
330
1F
100
AcDbEntity
  8
0
 48
0.111936
370
    60
390
F
100
AcDbLine
 10
170.703491
 20
418.206512
 30
0.0
 11
175.179764
 21
418.30896
 31
0.0
  0
LINE
  5
749
330
1F
100
AcDbEntity
  8
0
 48
0.015641
370
    60
390
F
100
AcDbLine
 10
727.355591
 20
445.600555
 30
0.0
 11
727.914001
 21
445.88266
 31
0.0
  0
ELLIPSE
  5
74A
330
1F
100
AcDbEntity
  8
0
370
    60
390
F
100
AcDbEllipse
 10
562.982788
 20
523.816895
 30
0.0
 11
194.268798828125
 21
-45.81320190429688
 31
0.0
210
0.0
220
0.0
230
0.9999999999999999
 40
0.4246380000000001
 41
5.735194683074951
 42
5.812995910644531
  0
LWPOLYLINE
  5
74B
330
1F
100
AcDbEntity
  8
0
370
    60
390
F
100
AcDbPolyline
 90
       31
 70
     0
 43
0.0
 10
627.680176
 20
428.740753
 10
634.24469
 20
428.831116
 10
640.807861
 20
428.93689
 10
645.179993
 20
429.040741
 10
649.546631
 20
429.184937
 10
653.905151
 20
429.378632
 10
658.253174
 20
429.628998
 10
662.588074
 20
429.941559
 10
666.907593
 20
430.320343
 10
671.209717
 20
430.768372
 10
675.492432
 20
431.287842
 10
679.754211
 20
431.880676
 10
681.876831
 20
432.205139
 10
683.993896
 20
432.548615
 10
686.105103
 20
432.911407
 10
688.210571
 20
433.293823
 10
690.309753
 20
433.696198
 10
692.401978
 20
434.118805
 10
694.486694
 20
434.562012
 10
696.563293
 20
435.026276
 10
698.631104
 20
435.512054
 10
700.689453
 20
436.019928
 10
702.737854
 20
436.550629
 10
704.775513
 20
437.104858
 10
706.801697
 20
437.683502
 10
708.815735
 20
438.287567
 10
710.816772
 20
438.918182
 10
712.803894
 20
439.576538
 10
714.776184
 20
440.264008
 10
716.732544
 20
440.982086
 10
718.671936
 20
441.732452
  0
LINE
  5
76C
330
1F
100
AcDbEntity
  8
0
 48
0.007545
370
    60
390
F
100
AcDbLine
 10
627.378662
 20
428.736023
 30
0.0
 11
627.68042
 21
428.740753
 31
0.0
  0
LINE
  5
76D
330
1F
100
AcDbEntity
  8
0
 48
0.017402
370
    60
390
F
100
AcDbLine
 10
626.682861
 20
428.721893
 30
0.0
 11
627.378784
 21
428.735992
 31
0.0
  0
LINE
  5
770
330
1F
100
AcDbEntity
  8
0
 48
0.183611
370
    60
390
F
100
AcDbLine
 10
163.330612
 20
418.038361
 30
0.0
 11
170.673157
 21
418.205872
 31
0.0
  0
ARC
  5
771
330
1F
100
AcDbEntity
  8
0
370
    60
390
F
100
AcDbCircle
 10
659.457080308099
 20
580.6095982939861
 30
0.0
 40
151.1212148482901
100
AcDbArc
 50
296.9358603980203
 51
307.4830031222255
  0
LINE
  5
787
330
1F
100
AcDbEntity
  8
0
 48
0.054812
370
    60
390
F
100
AcDbLine
 10
25.833313
 20
370.563385
 30
0.0
 11
28.025787
 21
370.560059
 31
0.0
  0
LINE
  5
788
330
1F
100
AcDbEntity
  8
0
 48
0.068888
370
    60
390
F
100
AcDbLine
 10
23.077789
 20
370.569824
 30
0.0
 11
25.833313
 21
370.563385
 31
0.0
  0
LINE
  5
789
330
1F
100
AcDbEntity
  8
0
 48
0.025
370
    60
390
F
100
AcDbLine
 10
23.077789
 20
370.569824
 30
0.0
 11
23.077789
 21
371.569824
 31
0.0
  0
LWPOLYLINE
  5
799
330
1F
100
AcDbEntity
  8
0
370
    60
390
F
100
AcDbPolyline
 90
        4
 70
     0
 43
0.0
 10
729.14563
 20
345.778717
 10
729.499512
 20
345.677979
 10
729.769775
 20
345.613525
 10
729.908569
 20
345.597229
  0
LWPOLYLINE
  5
79F
330
1F
100
AcDbEntity
  8
0
370
    60
390
F
100
AcDbPolyline
 90
       27
 70
     0
 43
0.0
 10
595.515625
 20
365.590759
 10
603.272461
 20
364.95163
 10
611.021362
 20
364.270874
 10
618.76123
 20
363.546082
 10
626.491028
 20
362.774536
 10
634.209412
 20
361.953278
 10
641.915039
 20
361.079041
 10
649.606689
 20
360.148315
 10
657.282715
 20
359.157196
 10
664.941895
 20
358.101593
 10
672.582947
 20
356.976929
 10
676.39624
 20
356.387177
 10
680.204651
 20
355.77832
 10
684.007874
 20
355.14978
 10
687.805664
 20
354.500916
 10
691.5979
 20
353.831024
 10
695.38446
 20
353.139404
 10
699.165039
 20
352.425323
 10
702.939453
 20
351.687958
 10
706.707397
 20
350.926544
 10
710.468628
 20
350.140198
 10
714.222778
 20
349.328094
 10
717.969604
 20
348.489288
 10
721.708618
 20
347.622864
 10
725.437378
 20
346.727051
 10
727.912109
 20
346.104858
 10
729.14563
 20
345.778717
  0
LWPOLYLINE
  5
7BC
330
1F
100
AcDbEntity
  8
0
370
    60
390
F
100
AcDbPolyline
 90
       16
 70
     0
 43
0.0
 10
487.245941
 20
370.562317
 10
492.957153
 20
370.54422
 10
498.667786
 20
370.490326
 10
504.377991
 20
370.402039
 10
510.087433
 20
370.280823
 10
515.795898
 20
370.128296
 10
521.503052
 20
369.946228
 10
527.208801
 20
369.736359
 10
532.912964
 20
369.500549
 10
538.615479
 20
369.24057
 10
544.316101
 20
368.95816
 10
550.014771
 20
368.654846
 10
561.405945
 20
367.99115
 10
572.78772
 20
367.257935
 10
584.158508
 20
366.458801
 10
595.515625
 20
365.590759
  0
LINE
  5
7CE
330
1F
100
AcDbEntity
  8
0
 48
0.024419
370
    60
390
F
100
AcDbLine
 10
891.997925
 20
341.199158
 30
0.0
 11
891.997925
 21
342.175903
 31
0.0
  0
LINE
  5
7CF
330
1F
100
AcDbEntity
  8
0
 48
0.000064
370
    60
390
F
100
AcDbLine
 10
891.997925
 20
341.199158
 30
0.0
 11
892.000488
 21
341.199127
 31
0.0
  0
LINE
  5
7D1
330
1F
100
AcDbEntity
  8
0
 48
0.024218
370
    60
390
F
100
AcDbLine
 10
887.049438
 20
341.251923
 30
0.0
 11
887.059326
 21
342.220612
 31
0.0
  0
LINE
  5
7D2
330
1F
100
AcDbEntity
  8
0
 48
0.040938
370
    60
390
F
100
AcDbLine
 10
887.049438
 20
341.251923
 30
0.0
 11
888.686768
 21
341.225769
 31
0.0
  0
LWPOLYLINE
  5
7D3
330
1F
100
AcDbEntity
  8
0
370
    60
390
F
100
AcDbPolyline
 90
        8
 70
     0
 43
0.0
 10
730.433167
 20
345.596985
 10
743.076904
 20
345.211395
 10
767.984314
 20
344.497711
 10
801.843567
 20
343.554993
 10
838.751343
 20
342.533844
 10
869.208496
 20
341.697357
 10
879.621948
 20
341.414734
 10
885.790161
 20
341.274139
  0
ARC
  5
7DD
330
1F
100
AcDbEntity
  8
0
370
    60
390
F
100
AcDbCircle
 10
888.867188
 20
479.11499
 30
0.0
 40
137.875061
100
AcDbArc
 50
268.721161
 51
269.244592
  0
LWPOLYLINE
  5
800
330
1F
100
AcDbEntity
  8
0
370
    60
390
F
100
AcDbPolyline
 90
       16
 70
     0
 43
0.0
 10
487.380066
 20
370.562317
 10
493.096375
 20
370.544189
 10
498.811981
 20
370.490234
 10
504.527191
 20
370.401855
 10
510.241669
 20
370.280548
 10
515.955139
 20
370.127899
 10
521.667358
 20
369.945709
 10
527.378113
 20
369.735748
 10
533.08728
 20
369.499847
 10
538.794739
 20
369.239807
 10
544.500366
 20
368.957306
 10
550.204102
 20
368.653992
 10
561.605286
 20
367.990295
 10
572.99707
 20
367.257263
 10
584.377869
 20
366.458374
 10
595.744995
 20
365.590759
  0
LWPOLYLINE
  5
812
330
1F
100
AcDbEntity
  8
0
370
    60
390
F
100
AcDbPolyline
 90
        5
 70
     0
 43
0.0
 10
28.025787
 20
370.560059
 10
35.410217
 20
370.563782
 10
66.687531
 20
370.608032
 10
127.158676
 20
370.664795
 10
144.48819
 20
370.670135
  0
LINE
  5
819
330
1F
100
AcDbEntity
  8
0
 48
0.013577
370
    60
390
F
100
AcDbLine
 10
144.48819
 20
370.670135
 30
0.0
 11
145.03125
 21
370.670197
 31
0.0
  0
ARC
  5
81A
330
1F
100
AcDbEntity
  8
0
370
    60
390
F
100
AcDbCircle
 10
123.549438
 20
-150462.53125
 30
0.0
 40
150833.21875
100
AcDbArc
 50
89.972689
 51
89.99184
  0
LWPOLYLINE
  5
81B
330
1F
100
AcDbEntity
  8
0
370
    60
390
F
100
AcDbPolyline
 90
        3
 70
     0
 43
0.0
 10
195.452545
 20
370.655701
 10
407.213104
 20
370.577393
 10
487.380066
 20
370.562317
  0
LINE
  5
820
330
1F
100
AcDbEntity
  8
0
 48
0.068888
370
    60
390
F
100
AcDbLine
 10
23.077789
 20
370.569824
 30
0.0
 11
25.833313
 21
370.563385
 31
0.0
  0
LINE
  5
821
330
1F
100
AcDbEntity
  8
0
 48
0.054812
370
    60
390
F
100
AcDbLine
 10
25.833313
 20
370.563385
 30
0.0
 11
28.025787
 21
370.560059
 31
0.0
  0
LINE
  5
822
330
1F
100
AcDbEntity
  8
0
 48
0.054697
370
    60
390
F
100
AcDbLine
 10
888.686768
 20
341.225769
 30
0.0
 11
891.997925
 21
341.199158
 31
0.0
  0
LINE
  5
824
330
1F
100
AcDbEntity
  8
0
 48
0.013116
370
    60
390
F
100
AcDbLine
 10
729.908447
 20
345.597321
 30
0.0
 11
730.433105
 21
345.597321
 31
0.0
  0
ARC
  5
826
330
1F
100
AcDbEntity
  8
0
370
    60
390
F
100
AcDbCircle
 10
726.163757
 20
343.368774
 30
0.0
 40
165.845139
100
AcDbArc
 50
8.791473
 51
10.261349
  0
LWPOLYLINE
  5
827
330
1F
100
AcDbEntity
  8
0
370
    60
390
F
100
AcDbPolyline
 90
        3
 70
     0
 43
0.0
 10
781.920654
 20
477.934052
 10
765.366272
 20
484.210297
 10
762.304199
 20
485.369263
  0
LWPOLYLINE
  5
82C
330
1F
100
AcDbEntity
  8
0
370
    60
390
F
100
AcDbPolyline
 90
        4
 70
     0
 43
0.0
 10
810.672546
 20
466.794006
 10
805.879639
 20
468.67215
 10
793.799988
 20
473.375427
 10
781.920654
 20
477.934021
  0
LINE
  5
832
330
1F
100
AcDbEntity
  8
0
 48
0.167988
370
    60
390
F
100
AcDbLine
 10
756.068115
 20
487.718933
 30
0.0
 11
762.356079
 21
485.34964
 31
0.0
  0
LINE
  5
833
330
1F
100
AcDbEntity
  8
0
 48
0.400083
370
    60
390
F
100
AcDbLine
 10
741.090942
 20
493.358337
 30
0.0
 11
756.067749
 21
487.719086
 31
0.0
  0
ARC
  5
834
330
1F
100
AcDbEntity
  8
0
370
    60
390
F
100
AcDbCircle
 10
717.193481
 20
228.939758
 30
0.0
 40
255.562119
100
AcDbArc
 50
67.401583
 51
68.544699
  0
ARC
  5
835
330
1F
100
AcDbEntity
  8
0
370
    60
390
F
100
AcDbCircle
 10
726.163757
 20
343.368774
 30
0.0
 40
165.845139
100
AcDbArc
 50
8.791473
 51
10.261349
  0
LWPOLYLINE
  5
836
330
1F
100
AcDbEntity
  8
0
370
    60
390
F
100
AcDbPolyline
 90
        5
 70
     0
 43
0.0
 10
890.544556
 20
365.326965
 10
890.95166
 20
361.93277
 10
891.283691
 20
358.559082
 10
891.543701
 20
355.233704
 10
891.635132
 20
353.816956
  0
ARC
  5
83D
330
1F
100
AcDbEntity
  8
0
370
    60
390
F
100
AcDbCircle
 10
560.627563
 20
339.0737
 30
0.0
 40
331.390869
100
AcDbArc
 50
0.536334
 51
1.260427
  0
ARC
  5
83E
330
1F
100
AcDbEntity
  8
0
370
    60
390
F
100
AcDbCircle
 10
697.779236
 20
342.220184
 30
0.0
 40
194.202744
100
AcDbArc
 50
1.221807
 51
3.423441
  0
ARC
  5
83F
330
1F
100
AcDbEntity
  8
0
370
    60
390
F
100
AcDbCircle
 10
50.276215
 20
409.953491
 30
0.0
 40
5.549735
100
AcDbArc
 50
89.192005
 51
92.272147
  0
LINE
  5
841
330
1F
100
AcDbEntity
  8
0
 48
0.021678
370
    60
390
F
100
AcDbLine
 10
739.228027
 20
494.059753
 30
0.0
 11
740.039551
 21
493.754303
 31
0.0
  0
ARC
  5
842
330
1F
100
AcDbEntity
  8
0
370
    60
390
F
100
AcDbCircle
 10
769.146484
 20
352.27533
 30
0.0
 40
121.906532
100
AcDbArc
 50
18.022732
 51
23.216008
  0
ARC
  5
843
330
1F
100
AcDbEntity
  8
0
370
    60
390
F
100
AcDbCircle
 10
770.19519
 20
352.692413
 30
0.0
 40
120.778389
100
AcDbArc
 50
26.288231
 51
26.798554
  0
LWPOLYLINE
  5
844
330
1F
100
AcDbEntity
  8
0
370
    60
390
F
100
AcDbPolyline
 90
        7
 70
     0
 43
0.0
 10
718.133057
 20
495.703278
 10
712.87561
 20
497.372131
 10
707.636108
 20
498.975769
 10
702.412292
 20
500.516388
 10
697.202393
 20
501.996155
 10
692.004395
 20
503.417206
 10
686.645996
 20
504.825592
  0
ARC
  5
84D
330
1F
100
AcDbEntity
  8
0
370
    60
390
F
100
AcDbCircle
 10
744.614441
 20
346.171387
 30
0.0
 40
147.182007
100
AcDbArc
 50
7.478157
 51
9.154661
  0
LWPOLYLINE
  5
84E
330
1F
100
AcDbEntity
  8
0
370
    60
390
F
100
AcDbPolyline
 90
        5
 70
     0
 43
0.0
 10
891.635132
 20
353.816956
 10
891.403809
 20
357.123962
 10
891.102905
 20
360.484039
 10
890.728394
 20
363.87149
 10
890.544556
 20
365.326965
  0
ARC
  5
855
330
1F
100
AcDbEntity
  8
0
370
    60
390
F
100
AcDbCircle
 10
560.627563
 20
339.0737
 30
0.0
 40
331.390869
100
AcDbArc
 50
0.536334
 51
1.260427
  0
ARC
  5
856
330
1F
100
AcDbEntity
  8
0
370
    60
390
F
100
AcDbCircle
 10
697.778931
 20
342.220184
 30
0.0
 40
194.203094
100
AcDbArc
 50
1.22181
 51
3.42344
  0
LWPOLYLINE
  5
857
330
1F
100
AcDbEntity
  8
0
370
    60
390
F
100
AcDbPolyline
 90
        7
 70
     0
 43
0.0
 10
50.056213
 20
415.498779
 10
49.847595
 20
415.480469
 10
49.559784
 20
415.421417
 10
49.286713
 20
415.339081
 10
48.991302
 20
415.214478
 10
48.697205
 20
415.04303
 10
48.442017
 20
414.8479
  0
LWPOLYLINE
  5
860
330
1F
100
AcDbEntity
  8
0
370
    60
390
F
100
AcDbPolyline
 90
        6
 70
     0
 43
0.0
 10
50.056213
 20
415.498779
 10
50.390106
 20
415.503113
 10
51.255981
 20
415.512207
 10
55.200165
 20
415.580688
 10
65.127655
 20
415.790161
 10
69.099228
 20
415.877136
  0
LWPOLYLINE
  5
868
330
1F
100
AcDbEntity
  8
0
370
    60
390
F
100
AcDbPolyline
 90
        4
 70
     0
 43
0.0
 10
155.802048
 20
417.866394
 10
92.663071
 20
416.411987
 10
71.962967
 20
415.939911
 10
69.099609
 20
415.877136
  0
ARC
  5
86E
330
1F
100
AcDbEntity
  8
0
370
    60
390
F
100
AcDbCircle
 10
720.741699
 20
503.790344
 30
0.0
 40
8.497504
100
AcDbArc
 50
252.122148
 51
291.252239
  0
LINE
  5
86F
330
1F
100
AcDbEntity
  8
0
 48
0.055838
370
    60
390
F
100
AcDbLine
 10
733.013428
 20
496.39447
 30
0.0
 11
735.104736
 21
495.610168
 31
0.0
  0
LINE
  5
870
330
1F
100
AcDbEntity
  8
0
 48
0.110119
370
    60
390
F
100
AcDbLine
 10
735.104736
 20
495.610168
 30
0.0
 11
739.227661
 21
494.059875
 31
0.0
  0
LINE
  5
871
330
1F
100
AcDbEntity
  8
0
 48
0.049758
370
    60
390
F
100
AcDbLine
 10
739.228027
 20
494.059753
 30
0.0
 11
741.090698
 21
493.358459
 31
0.0
  0
LINE
  5
872
330
1F
100
AcDbEntity
  8
0
 48
0.024418
370
    60
390
F
100
AcDbLine
 10
892.000488
 20
341.199127
 30
0.0
 11
892.000488
 21
342.175842
 31
0.0
  0
LINE
  5
873
330
1F
100
AcDbEntity
  8
0
 48
0.024418
370
    60
390
F
100
AcDbLine
 10
892.000488
 20
341.199127
 30
0.0
 11
892.000488
 21
342.175842
 31
0.0
  0
LINE
  5
874
330
1F
100
AcDbEntity
  8
0
  6
DASHDOT
 48
0.002074
370
    60
390
F
100
AcDbLine
 10
1190.137451
 20
264.473877
 30
0.0
 11
1190.137451
 21
264.556824
 31
0.0
  0
LINE
  5
875
330
1F
100
AcDbEntity
  8
0
  6
DASHDOT
 48
0.002094
370
    60
390
F
100
AcDbLine
 10
1366.901855
 20
264.556915
 30
0.0
 11
1366.901855
 21
264.473145
 31
0.0
  0
LINE
  5
8C6
330
1F
100
AcDbEntity
  8
0
 48
0.038282
370
    60
390
F
100
AcDbLine
 10
1446.150269
 20
324.978638
 30
0.0
 11
1446.771973
 21
326.378021
 31
0.0
  0
LINE
  5
8C7
330
1F
100
AcDbEntity
  8
0
 48
0.038557
370
    60
390
F
100
AcDbLine
 10
1110.893921
 20
324.96875
 30
0.0
 11
1110.267334
 21
326.378021
 31
0.0
  0
LINE
  5
8C8
330
1F
100
AcDbEntity
  8
0
 48
0.0125
370
    60
390
F
100
AcDbLine
 10
1290.355713
 20
266.852966
 30
0.0
 11
1290.855713
 21
266.852966
 31
0.0
  0
LINE
  5
8C9
330
1F
100
AcDbEntity
  8
0
370
    60
390
F
100
AcDbLine
 10
1290.855713
 20
266.852966
 30
0.0
 11
1310.869751
 21
266.852966
 31
0.0
  0
LINE
  5
8CA
330
1F
100
AcDbEntity
  8
0
 48
0.024319
370
    60
390
F
100
AcDbLine
 10
1310.869751
 20
266.852966
 30
0.0
 11
1311.842529
 21
266.852966
 31
0.0
  0
LINE
  5
8CB
330
1F
100
AcDbEntity
  8
0
 48
0.28782
370
    60
390
F
100
AcDbLine
 10
1311.842529
 20
266.852966
 30
0.0
 11
1323.355347
 21
266.852966
 31
0.0
  0
LINE
  5
8CC
330
1F
100
AcDbEntity
  8
0
 48
0.28782
370
    60
390
F
100
AcDbLine
 10
1233.68396
 20
266.852966
 30
0.0
 11
1245.196777
 21
266.852966
 31
0.0
  0
LINE
  5
8CD
330
1F
100
AcDbEntity
  8
0
 48
0.024319
370
    60
390
F
100
AcDbLine
 10
1245.196777
 20
266.852966
 30
0.0
 11
1246.169556
 21
266.852966
 31
0.0
  0
LINE
  5
8CE
330
1F
100
AcDbEntity
  8
0
370
    60
390
F
100
AcDbLine
 10
1266.183594
 20
266.852966
 30
0.0
 11
1246.169556
 21
266.852966
 31
0.0
  0
LINE
  5
8CF
330
1F
100
AcDbEntity
  8
0
 48
0.0125
370
    60
390
F
100
AcDbLine
 10
1266.183594
 20
266.852966
 30
0.0
 11
1266.683594
 21
266.852966
 31
0.0
  0
LINE
  5
8D0
330
1F
100
AcDbEntity
  8
0
 48
0.082611
370
    60
390
F
100
AcDbLine
 10
1266.683594
 20
266.852966
 30
0.0
 11
1269.988037
 21
266.852966
 31
0.0
  0
LINE
  5
8D1
330
1F
100
AcDbEntity
  8
0
 48
0.426581
370
    60
390
F
100
AcDbLine
 10
1269.988037
 20
266.852966
 30
0.0
 11
1287.05127
 21
266.852966
 31
0.0
  0
LINE
  5
8D2
330
1F
100
AcDbEntity
  8
0
 48
0.082611
370
    60
390
F
100
AcDbLine
 10
1287.05127
 20
266.852966
 30
0.0
 11
1290.355713
 21
266.852966
 31
0.0
  0
LINE
  5
8D3
330
1F
100
AcDbEntity
  8
0
 48
0.158767
370
    60
390
F
100
AcDbLine
 10
1290.355713
 20
266.852966
 30
0.0
 11
1290.244873
 21
273.202667
 31
0.0
  0
LINE
  5
8D4
330
1F
100
AcDbEntity
  8
0
 48
0.013392
370
    60
390
F
100
AcDbLine
 10
1310.278931
 20
273.20285
 30
0.0
 11
1310.800537
 21
273.080811
 31
0.0
  0
LWPOLYLINE
  5
8D5
330
1F
100
AcDbEntity
  8
0
370
    60
390
F
100
AcDbPolyline
 90
        6
 70
     0
 43
0.0
 10
1233.68396
 20
266.852966
 10
1234.946533
 20
267.56015
 10
1237.703979
 20
269.053528
 10
1240.318604
 20
270.402588
 10
1242.923218
 20
271.677429
 10
1245.261475
 20
272.759766
  0
ELLIPSE
  5
8DD
330
1F
100
AcDbEntity
  8
0
370
    60
390
F
100
AcDbEllipse
 10
1733.4729
 20
-494.637634
 30
0.0
 11
461.5673828124999
 21
-770.4607543945312
 31
0.0
210
0.0
220
0.0
230
0.9999999999999999
 40
0.161161
 41
2.865005016326904
 42
2.914206981658936
  0
LINE
  5
8DE
330
1F
100
AcDbEntity
  8
0
 48
0.013389
370
    60
390
F
100
AcDbLine
 10
1246.23877
 20
273.080811
 30
0.0
 11
1246.760254
 21
273.20285
 31
0.0
  0
LINE
  5
8DF
330
1F
100
AcDbEntity
  8
0
 48
0.158767
370
    60
390
F
100
AcDbLine
 10
1266.683594
 20
266.852966
 30
0.0
 11
1266.794434
 21
273.202667
 31
0.0
  0
ARC
  5
8E0
330
1F
100
AcDbEntity
  8
0
370
    60
390
F
100
AcDbCircle
 10
1247.410889
 20
267.847046
 30
0.0
 40
5.362884
100
AcDbArc
 50
102.622404
 51
113.629883
  0
ARC
  5
8E1
330
1F
100
AcDbEntity
  8
0
370
    60
390
F
100
AcDbCircle
 10
1309.628418
 20
267.847046
 30
0.0
 40
5.362883
100
AcDbArc
 50
66.370116
 51
77.377601
  0
LINE
  5
8E2
330
1F
100
AcDbEntity
  8
0
 48
0.157143
370
    60
390
F
100
AcDbLine
 10
1230.019653
 20
266.917236
 30
0.0
 11
1230.019653
 21
273.202972
 31
0.0
  0
LINE
  5
8E3
330
1F
100
AcDbEntity
  8
0
 48
0.157143
370
    60
390
F
100
AcDbLine
 10
1327.019653
 20
266.917236
 30
0.0
 11
1327.019653
 21
273.202972
 31
0.0
  0
LINE
  5
8E4
330
1F
100
AcDbEntity
  8
0
 48
0.091606
370
    60
390
F
100
AcDbLine
 10
1230.019653
 20
266.916931
 30
0.0
 11
1233.68335
 21
266.852966
 31
0.0
  0
LINE
  5
8E5
330
1F
100
AcDbEntity
  8
0
 48
0.091606
370
    60
390
F
100
AcDbLine
 10
1323.355957
 20
266.852966
 30
0.0
 11
1327.019653
 21
266.916931
 31
0.0
  0
LINE
  5
8E6
330
1F
100
AcDbEntity
  8
0
 48
0.141843
370
    60
390
F
100
AcDbLine
 10
1227.026245
 20
264.484741
 30
0.0
 11
1227.075684
 21
270.158264
 31
0.0
  0
LINE
  5
8E7
330
1F
100
AcDbEntity
  8
0
 48
0.076121
370
    60
390
F
100
AcDbLine
 10
1227.075684
 20
270.158264
 30
0.0
 11
1227.102295
 21
273.203003
 31
0.0
  0
LINE
  5
8E8
330
1F
100
AcDbEntity
  8
0
 48
0.076121
370
    60
390
F
100
AcDbLine
 10
1329.963623
 20
270.158264
 30
0.0
 11
1329.937012
 21
273.203003
 31
0.0
  0
LINE
  5
8E9
330
1F
100
AcDbEntity
  8
0
 48
0.141843
370
    60
390
F
100
AcDbLine
 10
1330.013062
 20
264.484741
 30
0.0
 11
1329.963623
 21
270.158264
 31
0.0
  0
LWPOLYLINE
  5
8EA
330
1F
100
AcDbEntity
  8
0
370
    60
390
F
100
AcDbPolyline
 90
        8
 70
     0
 43
0.0
 10
1187.637451
 20
264.48114
 10
1187.723755
 20
264.487244
 10
1188.592407
 20
264.525146
 10
1190.254272
 20
264.549744
 10
1192.053589
 20
264.511169
 10
1192.581787
 20
264.485199
 10
1192.634888
 20
264.481445
 10
1192.637451
 20
264.481018
  0
LINE
  5
8F4
330
1F
100
AcDbEntity
  8
0
 48
0.000089
370
    60
390
F
100
AcDbLine
 10
1192.633911
 20
264.480835
 30
0.0
 11
1192.637451
 21
264.481018
 31
0.0
  0
LWPOLYLINE
  5
8F5
330
1F
100
AcDbEntity
  8
0
370
    60
390
F
100
AcDbPolyline
 90
        6
 70
     0
 43
0.0
 10
1192.633911
 20
264.480835
 10
1192.506836
 20
264.485443
 10
1190.593628
 20
264.537842
 10
1188.68396
 20
264.518677
 10
1187.700195
 20
264.482788
 10
1187.641113
 20
264.480957
  0
LINE
  5
8FD
330
1F
100
AcDbEntity
  8
0
 48
0.000092
370
    60
390
F
100
AcDbLine
 10
1187.637451
 20
264.48114
 30
0.0
 11
1187.641113
 21
264.480957
 31
0.0
  0
LWPOLYLINE
  5
8FE
330
1F
100
AcDbEntity
  8
0
370
    60
390
F
100
AcDbPolyline
 90
       17
 70
     0
 43
0.0
 10
1132.280762
 20
279.37677
 10
1131.677979
 20
280.13443
 10
1131.069824
 20
280.932892
 10
1130.45752
 20
281.772339
 10
1129.842529
 20
282.651611
 10
1129.226318
 20
283.569458
 10
1128.610474
 20
284.524597
 10
1127.996216
 20
285.515747
 10
1127.384888
 20
286.541595
 10
1126.777832
 20
287.600922
 10
1126.176147
 20
288.692535
 10
1125.580933
 20
289.815247
 10
1124.993408
 20
290.968079
 10
1124.414307
 20
292.150085
 10
1123.844482
 20
293.360382
 10
1123.28479
 20
294.597778
 10
1122.735596
 20
295.860779
  0
LINE
  5
913
330
1F
100
AcDbEntity
  8
0
370
    60
390
F
100
AcDbLine
 10
1149.046753
 20
326.261078
 30
0.0
 11
1278.519653
 21
326.261047
 31
0.0
  0
ARC
  5
914
330
1F
100
AcDbEntity
  8
0
370
    60
390
F
100
AcDbCircle
 10
1148.779175
 20
-548.541443
 30
0.0
 40
874.802368
100
AcDbArc
 50
89.982476
 51
90.417703
  0
LWPOLYLINE
  5
915
330
1F
100
AcDbEntity
  8
0
370
    60
390
F
100
AcDbPolyline
 90
       14
 70
     0
 43
0.0
 10
1132.925903
 20
325.839355
 10
1132.897461
 20
325.852722
 10
1132.878784
 20
325.865936
 10
1132.87207
 20
325.874146
 10
1132.869873
 20
325.885468
 10
1132.874756
 20
325.896667
 10
1132.883423
 20
325.90448
 10
1132.937744
 20
325.929321
 10
1133.098511
 20
325.965332
 10
1133.467529
 20
326.010956
 10
1134.203003
 20
326.064331
 10
1135.848267
 20
326.132355
 10
1138.518188
 20
326.192566
 10
1142.401611
 20
326.237518
  0
LWPOLYLINE
  5
927
330
1F
100
AcDbEntity
  8
0
370
    60
390
F
100
AcDbPolyline
 90
        8
 70
     0
 43
0.0
 10
1108.217285
 20
326.312714
 10
1108.201782
 20
326.31366
 10
1108.203369
 20
326.315155
 10
1108.20874
 20
326.317413
 10
1108.238037
 20
326.321716
 10
1108.368164
 20
326.332306
 10
1109.13916
 20
326.362122
 10
1110.267334
 20
326.378021
  0
LINE
  5
931
330
1F
100
AcDbEntity
  8
0
 48
0.019864
370
    60
390
F
100
AcDbLine
 10
1110.267334
 20
326.378021
 30
0.0
 11
1111.06189
 21
326.380005
 31
0.0
  0
LINE
  5
93E
330
1F
100
AcDbEntity
  8
0
370
    60
390
F
100
AcDbLine
 10
1117.18689
 20
326.366852
 30
0.0
 11
1148.451172
 21
326.366852
 31
0.0
  0
LINE
  5
93F
330
1F
100
AcDbEntity
  8
0
370
    60
390
F
100
AcDbLine
 10
1148.45105
 20
326.366852
 30
0.0
 11
1217.902588
 21
326.366852
 31
0.0
  0
LINE
  5
940
330
1F
100
AcDbEntity
  8
0
370
    60
390
F
100
AcDbLine
 10
1217.922485
 20
326.366852
 30
0.0
 11
1278.519531
 21
326.366852
 31
0.0
  0
LINE
  5
941
330
1F
100
AcDbEntity
  8
0
370
    60
390
F
100
AcDbLine
 10
1278.519775
 20
326.366852
 30
0.0
 11
1339.116821
 21
326.366852
 31
0.0
  0
LINE
  5
942
330
1F
100
AcDbEntity
  8
0
370
    60
390
F
100
AcDbLine
 10
1339.136719
 20
326.366852
 30
0.0
 11
1408.588257
 21
326.366852
 31
0.0
  0
LINE
  5
943
330
1F
100
AcDbEntity
  8
0
370
    60
390
F
100
AcDbLine
 10
1408.588135
 20
326.366852
 30
0.0
 11
1439.852417
 21
326.366852
 31
0.0
  0
ARC
  5
944
330
1F
100
AcDbEntity
  8
0
370
    60
390
F
100
AcDbCircle
 10
1159.976929
 20
302.475525
 30
0.0
 40
36.064804
100
AcDbArc
 50
219.795628
 51
223.88833
  0
ARC
  5
945
330
1F
100
AcDbEntity
  8
0
370
    60
390
F
100
AcDbCircle
 10
1132.93103
 20
323.853088
 30
0.0
 40
1.98633
100
AcDbArc
 50
68.14774
 51
90.149037
  0
LINE
  5
946
330
1F
100
AcDbEntity
  8
0
 48
0.000772
370
    60
390
F
100
AcDbLine
 10
1133.67041
 20
325.696686
 30
0.0
 11
1133.698975
 21
325.684967
 31
0.0
  0
LWPOLYLINE
  5
947
330
1F
100
AcDbEntity
  8
0
370
    60
390
F
100
AcDbPolyline
 90
        8
 70
     0
 43
0.0
 10
1369.401855
 20
264.48114
 10
1369.315552
 20
264.487244
 10
1368.446899
 20
264.525146
 10
1366.785034
 20
264.549744
 10
1364.985718
 20
264.511169
 10
1364.45752
 20
264.485199
 10
1364.404419
 20
264.481445
 10
1364.401855
 20
264.481018
  0
LINE
  5
951
330
1F
100
AcDbEntity
  8
0
 48
0.000089
370
    60
390
F
100
AcDbLine
 10
1364.401855
 20
264.481018
 30
0.0
 11
1364.405396
 21
264.480835
 31
0.0
  0
LWPOLYLINE
  5
952
330
1F
100
AcDbEntity
  8
0
370
    60
390
F
100
AcDbPolyline
 90
        6
 70
     0
 43
0.0
 10
1364.405396
 20
264.480835
 10
1364.532471
 20
264.485443
 10
1366.445679
 20
264.537842
 10
1368.355347
 20
264.518677
 10
1369.339111
 20
264.482788
 10
1369.398193
 20
264.480957
  0
LINE
  5
95A
330
1F
100
AcDbEntity
  8
0
 48
0.000092
370
    60
390
F
100
AcDbLine
 10
1369.398193
 20
264.480957
 30
0.0
 11
1369.401855
 21
264.48114
 31
0.0
  0
LWPOLYLINE
  5
95B
330
1F
100
AcDbEntity
  8
0
370
    60
390
F
100
AcDbPolyline
 90
       17
 70
     0
 43
0.0
 10
1424.758545
 20
279.37677
 10
1425.361328
 20
280.13443
 10
1425.969482
 20
280.932892
 10
1426.581787
 20
281.772339
 10
1427.196777
 20
282.651611
 10
1427.812988
 20
283.569458
 10
1428.428833
 20
284.524597
 10
1429.043091
 20
285.515747
 10
1429.654419
 20
286.541595
 10
1430.261475
 20
287.600922
 10
1430.863159
 20
288.692535
 10
1431.458374
 20
289.815247
 10
1432.045898
 20
290.968079
 10
1432.625
 20
292.150085
 10
1433.194824
 20
293.360382
 10
1433.754517
 20
294.597778
 10
1434.303711
 20
295.860779
  0
LINE
  5
970
330
1F
100
AcDbEntity
  8
0
 48
0.019864
370
    60
390
F
100
AcDbLine
 10
1445.977417
 20
326.380005
 30
0.0
 11
1446.771973
 21
326.378021
 31
0.0
  0
LWPOLYLINE
  5
971
330
1F
100
AcDbEntity
  8
0
370
    60
390
F
100
AcDbPolyline
 90
        8
 70
     0
 43
0.0
 10
1448.822021
 20
326.312714
 10
1448.837524
 20
326.31366
 10
1448.835938
 20
326.315155
 10
1448.830566
 20
326.317413
 10
1448.80127
 20
326.321716
 10
1448.671143
 20
326.332306
 10
1447.900146
 20
326.362122
 10
1446.771973
 20
326.378021
  0
LWPOLYLINE
  5
97D
330
1F
100
AcDbEntity
  8
0
370
    60
390
F
100
AcDbPolyline
 90
       14
 70
     0
 43
0.0
 10
1424.113403
 20
325.839355
 10
1424.141846
 20
325.852722
 10
1424.160522
 20
325.865936
 10
1424.167236
 20
325.874146
 10
1424.169434
 20
325.885468
 10
1424.164551
 20
325.896667
 10
1424.155884
 20
325.90448
 10
1424.101563
 20
325.929321
 10
1423.940796
 20
325.965332
 10
1423.571777
 20
326.010956
 10
1422.836304
 20
326.064331
 10
1421.19104
 20
326.132355
 10
1418.521118
 20
326.192566
 10
1414.637695
 20
326.237518
  0
ARC
  5
98D
330
1F
100
AcDbEntity
  8
0
370
    60
390
F
100
AcDbCircle
 10
1408.260132
 20
-548.541443
 30
0.0
 40
874.802368
100
AcDbArc
 50
89.582295
 51
90.017522
  0
LINE
  5
98E
330
1F
100
AcDbEntity
  8
0
370
    60
390
F
100
AcDbLine
 10
1278.519653
 20
326.261047
 30
0.0
 11
1407.992554
 21
326.261078
 31
0.0
  0
ARC
  5
99B
330
1F
100
AcDbEntity
  8
0
370
    60
390
F
100
AcDbCircle
 10
1424.108276
 20
323.853088
 30
0.0
 40
1.98633
100
AcDbArc
 50
89.850968
 51
111.852258
  0
LINE
  5
99C
330
1F
100
AcDbEntity
  8
0
 48
0.000772
370
    60
390
F
100
AcDbLine
 10
1423.340332
 20
325.684967
 30
0.0
 11
1423.368896
 21
325.696686
 31
0.0
  0
LINE
  5
99D
330
1F
100
AcDbEntity
  8
0
 48
0.062503
370
    60
390
F
100
AcDbLine
 10
1224.526123
 20
264.484741
 30
0.0
 11
1227.026245
 21
264.484741
 31
0.0
  0
LINE
  5
99E
330
1F
100
AcDbEntity
  8
0
 48
0.062503
370
    60
390
F
100
AcDbLine
 10
1330.013062
 20
264.484741
 30
0.0
 11
1332.513184
 21
264.484741
 31
0.0
  0
LINE
  5
99F
330
1F
100
AcDbEntity
  8
0
370
    60
390
F
100
AcDbLine
 10
1155.164063
 20
264.48175
 30
0.0
 11
1187.641113
 21
264.480957
 31
0.0
  0
LINE
  5
9A0
330
1F
100
AcDbEntity
  8
0
370
    60
390
F
100
AcDbLine
 10
1192.633911
 20
264.480835
 30
0.0
 11
1224.526001
 21
264.480011
 31
0.0
  0
LWPOLYLINE
  5
9A1
330
1F
100
AcDbEntity
  8
0
370
    60
390
F
100
AcDbPolyline
 90
        8
 70
     0
 43
0.0
 10
1122.735596
 20
295.860779
 10
1121.518555
 20
298.74585
 10
1120.321289
 20
301.63913
 10
1118.081421
 20
307.168518
 10
1116.016235
 20
312.346252
 10
1114.123047
 20
317.091858
 10
1112.408325
 20
321.327911
 10
1110.893921
 20
324.96875
  0
LWPOLYLINE
  5
9AB
330
1F
100
AcDbEntity
  8
0
370
    60
390
F
100
AcDbPolyline
 90
        8
 70
     0
 43
0.0
 10
1079.497559
 20
370.636108
 10
1084.187134
 20
361.446777
 10
1087.992188
 20
354.101227
 10
1090.889038
 20
348.604004
 10
1093.833984
 20
343.11792
 10
1096.816162
 20
337.683289
 10
1099.822266
 20
332.341064
 10
1100.835449
 20
330.572906
  0
ARC
  5
9B5
330
1F
100
AcDbEntity
  8
0
370
    60
390
F
100
AcDbCircle
 10
1108.204712
 20
334.818298
 30
0.0
 40
8.504903
100
AcDbArc
 50
209.943763
 51
270.097942
  0
LWPOLYLINE
  5
9B6
330
1F
100
AcDbEntity
  8
0
370
    60
390
F
100
AcDbPolyline
 90
        3
 70
     0
 43
0.0
 10
1111.064697
 20
326.379944
 10
1114.077393
 20
326.371735
 10
1117.060547
 20
326.366852
  0
LINE
  5
9BB
330
1F
100
AcDbEntity
  8
0
 48
0.003198
370
    60
390
F
100
AcDbLine
 10
1117.054443
 20
326.366852
 30
0.0
 11
1117.182373
 21
326.366852
 31
0.0
  0
ELLIPSE
  5
9BC
330
1F
100
AcDbEntity
  8
0
370
    60
390
F
100
AcDbEllipse
 10
1391.317871
 20
319.837067
 30
0.0
 11
241.8435058593748
 21
-131.801513671875
 31
0.0
210
0.0
220
0.0
230
1.0
 40
0.764281
 41
3.741209268569946
 42
3.928125143051147
  0
LINE
  5
9BD
330
1F
100
AcDbEntity
  8
0
370
    60
390
F
100
AcDbLine
 10
1162.886597
 20
273.203796
 30
0.0
 11
1278.519531
 21
273.202332
 31
0.0
  0
ARC
  5
9BE
330
1F
100
AcDbEntity
  8
0
370
    60
390
F
100
AcDbCircle
 10
1162.886353
 20
288.203522
 30
0.0
 40
14.999707
100
AcDbArc
 50
204.086999
 51
270.000933
  0
LWPOLYLINE
  5
9BF
330
1F
100
AcDbEntity
  8
0
370
    60
390
F
100
AcDbPolyline
 90
        7
 70
     0
 43
0.0
 10
1134.81958
 20
324.337036
 10
1134.718384
 20
324.649414
 10
1134.567139
 20
324.94043
 10
1134.370361
 20
325.201294
 10
1134.101318
 20
325.450562
 10
1133.800903
 20
325.638184
 10
1133.69873
 20
325.685028
  0
LWPOLYLINE
  5
9C8
330
1F
100
AcDbEntity
  8
0
370
    60
390
F
100
AcDbPolyline
 90
       14
 70
     0
 43
0.0
 10
1155.164185
 20
264.481171
 10
1154.325928
 20
264.509644
 10
1153.493286
 20
264.591797
 10
1152.477295
 20
264.760223
 10
1151.47168
 20
264.996277
 10
1150.361572
 20
265.33197
 10
1149.193604
 20
265.765228
 10
1148.23877
 20
266.177307
 10
1147.248657
 20
266.657196
 10
1146.266724
 20
267.184265
 10
1145.00769
 20
267.932678
 10
1143.738037
 20
268.769073
 10
1142.479492
 20
269.67981
 10
1141.480713
 20
270.46228
  0
ARC
  5
9D8
330
1F
100
AcDbEntity
  8
0
370
    60
390
F
100
AcDbCircle
 10
1505.78186
 20
721.545532
 30
0.0
 40
579.820129
100
AcDbArc
 50
230.704835
 51
231.075398
  0
LWPOLYLINE
  5
9D9
330
1F
100
AcDbEntity
  8
0
370
    60
390
F
100
AcDbPolyline
 90
        7
 70
     0
 43
0.0
 10
1131.904053
 20
279.708008
 10
1132.972046
 20
278.378723
 10
1134.07605
 20
277.11377
 10
1135.18103
 20
275.940643
 10
1136.298828
 20
274.837219
 10
1137.429321
 20
273.799896
 10
1138.572266
 20
272.826813
  0
LWPOLYLINE
  5
9E2
330
1F
100
AcDbEntity
  8
0
370
    60
390
F
100
AcDbPolyline
 90
       12
 70
     0
 43
0.0
 10
1122.736328
 20
295.861847
 10
1123.309326
 20
294.545959
 10
1123.893433
 20
293.257233
 10
1124.488281
 20
291.996124
 10
1125.466309
 20
290.027649
 10
1126.605835
 20
287.885498
 10
1127.776611
 20
285.840149
 10
1128.976563
 20
283.893616
 10
1129.791992
 20
282.651489
 10
1130.619385
 20
281.454193
 10
1131.458252
 20
280.302032
 10
1131.916504
 20
279.697815
  0
LINE
  5
9F1
330
1F
100
AcDbEntity
  8
0
370
    60
390
F
100
AcDbLine
 10
1332.513306
 20
264.480011
 30
0.0
 11
1364.405396
 21
264.480835
 31
0.0
  0
LINE
  5
9F2
330
1F
100
AcDbEntity
  8
0
370
    60
390
F
100
AcDbLine
 10
1369.398193
 20
264.480957
 30
0.0
 11
1401.875244
 21
264.48175
 31
0.0
  0
LWPOLYLINE
  5
9F3
330
1F
100
AcDbEntity
  8
0
370
    60
390
F
100
AcDbPolyline
 90
        8
 70
     0
 43
0.0
 10
1446.150269
 20
324.978638
 10
1444.628052
 20
321.319885
 10
1442.910767
 20
317.077942
 10
1441.018066
 20
312.333801
 10
1438.954956
 20
307.161194
 10
1436.716797
 20
301.636108
 10
1435.520142
 20
298.744324
 10
1434.303711
 20
295.860779
  0
LWPOLYLINE
  5
9FD
330
1F
100
AcDbEntity
  8
0
370
    60
390
F
100
AcDbPolyline
 90
        8
 70
     0
 43
0.0
 10
1477.541748
 20
370.636108
 10
1472.852173
 20
361.446777
 10
1469.047119
 20
354.101227
 10
1466.150269
 20
348.604004
 10
1463.205322
 20
343.11792
 10
1460.223145
 20
337.683289
 10
1457.217041
 20
332.341064
 10
1456.203857
 20
330.572906
  0
LWPOLYLINE
  5
A07
330
1F
100
AcDbEntity
  8
0
370
    60
390
F
100
AcDbPolyline
 90
        3
 70
     0
 43
0.0
 10
1445.974609
 20
326.379944
 10
1441.948608
 20
326.36911
 10
1439.998047
 20
326.366882
  0
ARC
  5
A0C
330
1F
100
AcDbEntity
  8
0
370
    60
390
F
100
AcDbCircle
 10
1448.834595
 20
334.818298
 30
0.0
 40
8.504903
100
AcDbArc
 50
269.902059
 51
330.056236
  0
LINE
  5
A0D
330
1F
100
AcDbEntity
  8
0
 48
0.003198
370
    60
390
F
100
AcDbLine
 10
1439.856934
 20
326.366852
 30
0.0
 11
1440.006586867881
 21
326.3668917545402
 31
0.0
  0
ELLIPSE
  5
A0E
330
1F
100
AcDbEntity
  8
0
370
    60
390
F
100
AcDbEllipse
 10
1165.720825
 20
319.837097
 30
0.0
 11
241.84423828125
 21
131.8012084960938
 31
0.0
210
0.0
220
0.0
230
1.0
 40
0.7642810000000001
 41
5.496654987335205
 42
5.683570861816406
  0
LINE
  5
A0F
330
1F
100
AcDbEntity
  8
0
370
    60
390
F
100
AcDbLine
 10
1278.519775
 20
273.202332
 30
0.0
 11
1394.15271
 21
273.203796
 31
0.0
  0
ARC
  5
A10
330
1F
100
AcDbEntity
  8
0
370
    60
390
F
100
AcDbCircle
 10
1394.152954
 20
288.203369
 30
0.0
 40
14.999536
100
AcDbArc
 50
269.998652
 51
335.913375
  0
LWPOLYLINE
  5
A11
330
1F
100
AcDbEntity
  8
0
370
    60
390
F
100
AcDbPolyline
 90
        7
 70
     0
 43
0.0
 10
1423.340576
 20
325.685028
 10
1423.041138
 20
325.524048
 10
1422.785156
 20
325.320709
 10
1422.566162
 20
325.076324
 10
1422.391113
 20
324.799286
 10
1422.26416
 20
324.49646
 10
1422.219727
 20
324.337036
  0
LWPOLYLINE
  5
A1A
330
1F
100
AcDbEntity
  8
0
370
    60
390
F
100
AcDbPolyline
 90
       14
 70
     0
 43
0.0
 10
1401.875122
 20
264.481171
 10
1402.713379
 20
264.509644
 10
1403.546021
 20
264.591797
 10
1404.562012
 20
264.760223
 10
1405.567627
 20
264.996277
 10
1406.677734
 20
265.33197
 10
1407.845703
 20
265.765228
 10
1408.800537
 20
266.177307
 10
1409.790649
 20
266.657196
 10
1410.772583
 20
267.184265
 10
1412.031616
 20
267.932678
 10
1413.30127
 20
268.769073
 10
1414.559814
 20
269.67981
 10
1415.558594
 20
270.46228
  0
ARC
  5
A2A
330
1F
100
AcDbEntity
  8
0
370
    60
390
F
100
AcDbCircle
 10
1051.257446
 20
721.545532
 30
0.0
 40
579.820129
100
AcDbArc
 50
308.924605
 51
309.29517
  0
LWPOLYLINE
  5
A2B
330
1F
100
AcDbEntity
  8
0
370
    60
390
F
100
AcDbPolyline
 90
        7
 70
     0
 43
0.0
 10
1418.467041
 20
272.826843
 10
1419.609985
 20
273.799896
 10
1420.740601
 20
274.837341
 10
1421.949341
 20
276.034027
 10
1422.963135
 20
277.113708
 10
1424.055908
 20
278.365112
 10
1425.135254
 20
279.708069
  0
LWPOLYLINE
  5
A34
330
1F
100
AcDbEntity
  8
0
370
    60
390
F
100
AcDbPolyline
 90
       12
 70
     0
 43
0.0
 10
1434.302979
 20
295.861847
 10
1433.72998
 20
294.545959
 10
1433.145874
 20
293.257233
 10
1432.551025
 20
291.996124
 10
1431.572998
 20
290.027649
 10
1430.433472
 20
287.885498
 10
1429.262695
 20
285.840149
 10
1428.062744
 20
283.893616
 10
1427.247314
 20
282.651489
 10
1426.419922
 20
281.454193
 10
1425.581055
 20
280.302032
 10
1425.122803
 20
279.697815
  0
ARC
  5
A44
330
1F
100
AcDbEntity
  8
0
370
    60
390
F
100
AcDbCircle
 10
1086.576172
 20
421.64621
 30
0.0
 40
0.747932
100
AcDbArc
 50
155.188496
 51
184.043299
  0
ARC
  5
A45
330
1F
100
AcDbEntity
  8
0
370
    60
390
F
100
AcDbCircle
 10
1204.05127
 20
367.125
 30
0.0
 40
130.164841
100
AcDbArc
 50
155.262823
 51
159.459114
  0
ARC
  5
A50
330
1F
100
AcDbEntity
  8
0
370
    60
390
F
100
AcDbCircle
 10
1119.227295
 20
577.040588
 30
0.0
 40
159.73288
100
AcDbArc
 50
264.519652
 51
266.242683
  0
LWPOLYLINE
  5
A51
330
1F
100
AcDbEntity
  8
0
370
    60
390
F
100
AcDbPolyline
 90
        8
 70
     0
 43
0.0
 10
1132.740479
 20
416.578796
 10
1123.735474
 20
416.881714
 10
1116.890259
 20
417.165466
 10
1111.876343
 20
417.423004
 10
1108.329468
 20
417.649933
 10
1105.903931
 20
417.842987
 10
1104.317627
 20
417.999512
 10
1103.972168
 20
418.038757
  0
LINE
  5
A5B
330
1F
100
AcDbEntity
  8
0
 48
0.006552
370
    60
390
F
100
AcDbLine
 10
1255.425781
 20
415.505402
 30
0.0
 11
1255.687866
 21
415.505402
 31
0.0
  0
LINE
  5
A5C
330
1F
100
AcDbEntity
  8
0
370
    60
390
F
100
AcDbLine
 10
1255.68689
 20
415.505402
 30
0.0
 11
1278.519653
 21
415.505646
 31
0.0
  0
LWPOLYLINE
  5
A5D
330
1F
100
AcDbEntity
  8
0
370
    60
390
F
100
AcDbPolyline
 90
       14
 70
     0
 43
0.0
 10
1087.805908
 20
423.124115
 10
1087.815796
 20
423.290436
 10
1087.857544
 20
423.457367
 10
1087.930908
 20
423.624664
 10
1088.035767
 20
423.792114
 10
1088.171875
 20
423.959503
 10
1088.339111
 20
424.12677
 10
1088.537231
 20
424.293793
 10
1088.766235
 20
424.460571
 10
1089.025879
 20
424.627045
 10
1089.636719
 20
424.959351
 10
1090.369263
 20
425.291107
 10
1091.223022
 20
425.622955
 10
1092.19751
 20
425.955627
  0
LINE
  5
A6D
330
1F
100
AcDbEntity
  8
0
 48
0.000075
370
    60
390
F
100
AcDbLine
 10
1087.80603
 20
423.121124
 30
0.0
 11
1087.805786
 21
423.124115
 31
0.0
  0
LWPOLYLINE
  5
A6E
330
1F
100
AcDbEntity
  8
0
370
    60
390
F
100
AcDbPolyline
 90
       15
 70
     0
 43
0.0
 10
1097.828125
 20
419.04425
 10
1095.643311
 20
419.509003
 10
1094.194336
 20
419.857513
 10
1092.901367
 20
420.205841
 10
1091.759521
 20
420.553986
 10
1090.765381
 20
420.902069
 10
1089.916504
 20
421.250305
 10
1089.43042
 20
421.482697
 10
1089.007813
 20
421.715332
 10
1088.648682
 20
421.948334
 10
1088.352905
 20
422.181732
 10
1088.120605
 20
422.415619
 10
1087.951904
 20
422.649994
 10
1087.846924
 20
422.884888
 10
1087.806152
 20
423.1203
  0
LINE
  5
A7F
330
1F
100
AcDbEntity
  8
0
 48
0.002128
370
    60
390
F
100
AcDbLine
 10
1097.828125
 20
419.04425
 30
0.0
 11
1097.911621
 21
419.027679
 31
0.0
  0
LINE
  5
A80
330
1F
100
AcDbEntity
  8
0
 48
0.017039
370
    60
390
F
100
AcDbLine
 10
1101.978516
 20
418.30896
 30
0.0
 11
1102.652344
 21
418.206512
 31
0.0
  0
ARC
  5
A81
330
1F
100
AcDbEntity
  8
0
370
    60
390
F
100
AcDbCircle
 10
1117.192017
 20
516.290833
 30
0.0
 40
99.155724
100
AcDbArc
 50
258.787641
 51
261.1742180000001
  0
ARC
  5
A82
330
1F
100
AcDbEntity
  8
0
370
    60
390
F
100
AcDbCircle
 10
1108.711548
 20
460.773407
 30
0.0
 40
42.996082
100
AcDbArc
 50
261.904891
 51
263.681697
  0
ARC
  5
A84
330
1F
100
AcDbEntity
  8
0
370
    60
390
F
100
AcDbCircle
 10
1470.463135
 20
421.64621
 30
0.0
 40
0.747932
100
AcDbArc
 50
355.956705
 51
24.8115
  0
ARC
  5
A85
330
1F
100
AcDbEntity
  8
0
370
    60
390
F
100
AcDbCircle
 10
1352.988037
 20
367.125
 30
0.0
 40
130.164841
100
AcDbArc
 50
20.540892
 51
24.73717
  0
ARC
  5
A87
330
1F
100
AcDbEntity
  8
0
370
    60
390
F
100
AcDbCircle
 10
1437.812011999993
 20
577.0405880001995
 30
0.0
 40
159.7328800001993
100
AcDbArc
 50
274.6188344999969
 51
275.4803499999958
  0
LINE
  5
A9A
330
1F
100
AcDbEntity
  8
0
370
    60
390
F
100
AcDbLine
 10
1278.519653
 20
415.505646
 30
0.0
 11
1301.352417
 21
415.505402
 31
0.0
  0
LINE
  5
A9B
330
1F
100
AcDbEntity
  8
0
 48
0.006552
370
    60
390
F
100
AcDbLine
 10
1301.35144
 20
415.505402
 30
0.0
 11
1301.613525
 21
415.505402
 31
0.0
  0
LWPOLYLINE
  5
A9C
330
1F
100
AcDbEntity
  8
0
370
    60
390
F
100
AcDbPolyline
 90
       14
 70
     0
 43
0.0
 10
1469.233398
 20
423.124115
 10
1469.223511
 20
423.290436
 10
1469.181763
 20
423.457367
 10
1469.108398
 20
423.624664
 10
1469.00354
 20
423.792114
 10
1468.867432
 20
423.959503
 10
1468.700195
 20
424.12677
 10
1468.502075
 20
424.293793
 10
1468.273071
 20
424.460571
 10
1468.013428
 20
424.627045
 10
1467.402588
 20
424.959351
 10
1466.669922
 20
425.291107
 10
1465.816284
 20
425.622986
 10
1464.841797
 20
425.955658
  0
LINE
  5
AAC
330
1F
100
AcDbEntity
  8
0
 48
0.000075
370
    60
390
F
100
AcDbLine
 10
1469.233276
 20
423.121124
 30
0.0
 11
1469.233521
 21
423.124115
 31
0.0
  0
LWPOLYLINE
  5
AAD
330
1F
100
AcDbEntity
  8
0
370
    60
390
F
100
AcDbPolyline
 90
       15
 70
     0
 43
0.0
 10
1459.211182
 20
419.04425
 10
1461.395996
 20
419.509003
 10
1462.844971
 20
419.857513
 10
1464.137939
 20
420.205841
 10
1465.279785
 20
420.553986
 10
1466.273926
 20
420.902069
 10
1467.122803
 20
421.250305
 10
1467.608887
 20
421.482697
 10
1468.031494
 20
421.715332
 10
1468.390625
 20
421.948334
 10
1468.686401
 20
422.181732
 10
1468.918701
 20
422.415619
 10
1469.087402
 20
422.649994
 10
1469.192383
 20
422.884888
 10
1469.233154
 20
423.1203
  0
LINE
  5
ABE
330
1F
100
AcDbEntity
  8
0
 48
0.002128
370
    60
390
F
100
AcDbLine
 10
1459.127686
 20
419.027679
 30
0.0
 11
1459.211182
 21
419.04425
 31
0.0
  0
ARC
  5
ABF
330
1F
100
AcDbEntity
  8
0
370
    60
390
F
100
AcDbCircle
 10
1439.84729
 20
516.290833
 30
0.0
 40
99.155724
100
AcDbArc
 50
278.825777
 51
281.212361
  0
LINE
  5
AC0
330
1F
100
AcDbEntity
  8
0
 48
0.017039
370
    60
390
F
100
AcDbLine
 10
1454.386963
 20
418.206512
 30
0.0
 11
1455.060791
 21
418.30896
 31
0.0
  0
ARC
  5
AC1
330
1F
100
AcDbEntity
  8
0
370
    60
390
F
100
AcDbCircle
 10
1448.327759
 20
460.773407
 30
0.0
 40
42.996082
100
AcDbArc
 50
276.318298
 51
278.095111
  0
ARC
  5
AC2
330
1F
100
AcDbEntity
  8
0
370
    60
390
F
100
AcDbCircle
 10
1097.477295
 20
-3864.842041
 30
0.0
 40
4235.516602
100
AcDbArc
 50
90.081254
 51
90.17077100000002
  0
LINE
  5
AD0
330
1F
100
AcDbEntity
  8
0
 48
0.315341
370
    60
390
F
100
AcDbLine
 10
1210.699707
 20
370.560059
 30
0.0
 11
1223.313354
 21
370.563385
 31
0.0
  0
ARC
  5
AD1
330
1F
100
AcDbEntity
  8
0
370
    60
390
F
100
AcDbCircle
 10
1267.802612
 20
-156821.75
 30
0.0
 40
157192.328125
100
AcDbArc
 50
89.996096
 51
90.016217
  0
LWPOLYLINE
  5
AD2
330
1F
100
AcDbEntity
  8
0
370
    60
390
F
100
AcDbPolyline
 90
        5
 70
     0
 43
0.0
 10
1082.682617
 20
370.655701
 10
1076.061646
 20
370.628754
 10
1074.378662
 20
370.614014
 10
1073.981934
 20
370.606689
 10
1073.854858
 20
370.599335
  0
ARC
  5
AE1
330
1F
100
AcDbEntity
  8
0
370
    60
390
F
100
AcDbCircle
 10
1091.912109
 20
-2367.333008
 30
0.0
 40
2738.003662
100
AcDbArc
 50
90.021415
 51
90.19314
  0
LINE
  5
AE2
330
1F
100
AcDbEntity
  8
0
 48
0.003497
370
    60
390
F
100
AcDbLine
 10
1090.888916
 20
370.670197
 30
0.0
 11
1091.028809
 21
370.670135
 31
0.0
  0
LWPOLYLINE
  5
AE3
330
1F
100
AcDbEntity
  8
0
370
    60
390
F
100
AcDbPolyline
 90
        5
 70
     0
 43
0.0
 10
1210.699707
 20
370.560059
 10
1172.488403
 20
370.572296
 10
1116.490967
 20
370.634155
 10
1094.516602
 20
370.667358
 10
1091.028809
 20
370.670135
  0
ARC
  5
AF7
330
1F
100
AcDbEntity
  8
0
370
    60
390
F
100
AcDbCircle
 10
1459.577148
 20
-3858.292236
 30
0.0
 40
4228.966309
100
AcDbArc
 50
89.829173
 51
89.91888
  0
LWPOLYLINE
  5
AF9
330
1F
100
AcDbEntity
  8
0
370
    60
390
F
100
AcDbPolyline
 90
        5
 70
     0
 43
0.0
 10
1346.3396
 20
370.560059
 10
1384.550903
 20
370.572296
 10
1440.54834
 20
370.634155
 10
1462.522705
 20
370.667358
 10
1466.010498
 20
370.670135
  0
LINE
  5
B00
330
1F
100
AcDbEntity
  8
0
 48
0.003497
370
    60
390
F
100
AcDbLine
 10
1466.010498
 20
370.670135
 30
0.0
 11
1466.150391
 21
370.670197
 31
0.0
  0
ARC
  5
B01
330
1F
100
AcDbEntity
  8
0
370
    60
390
F
100
AcDbCircle
 10
1465.127197
 20
-2367.332275
 30
0.0
 40
2738.00293
100
AcDbArc
 50
89.806865
 51
89.97859
  0
LWPOLYLINE
  5
B02
330
1F
100
AcDbEntity
  8
0
370
    60
390
F
100
AcDbPolyline
 90
        5
 70
     0
 43
0.0
 10
1474.356689
 20
370.655701
 10
1480.995605
 20
370.628632
 10
1482.744751
 20
370.612823
 10
1483.078125
 20
370.606079
 10
1483.184448
 20
370.599304
  0
ARC
  5
B0F
330
1F
100
AcDbEntity
  8
0
370
    60
390
F
100
AcDbCircle
 10
1289.236694
 20
-156821.75
 30
0.0
 40
157192.328125
100
AcDbArc
 50
89.983781
 51
90.003909
  0
LINE
  5
B10
330
1F
100
AcDbEntity
  8
0
 48
0.315341
370
    60
390
F
100
AcDbLine
 10
1333.725952
 20
370.563385
 30
0.0
 11
1346.3396
 21
370.560059
 31
0.0
  0
LWPOLYLINE
  5
B12
330
1F
100
AcDbEntity
  8
0
370
    60
390
F
100
AcDbPolyline
 90
       19
 70
     0
 43
0.0
 10
1094.578491
 20
429.728546
 10
1095.227173
 20
432.283447
 10
1095.896973
 20
434.821106
 10
1096.588623
 20
437.341492
 10
1097.302612
 20
439.844604
 10
1098.039551
 20
442.330414
 10
1098.800293
 20
444.79895
 10
1099.585449
 20
447.250183
 10
1100.395508
 20
449.684143
 10
1101.230591
 20
452.099487
 10
1102.092041
 20
454.497803
 10
1102.980347
 20
456.87912
 10
1103.896118
 20
459.243408
 10
1104.840088
 20
461.590729
 10
1105.812866
 20
463.921082
 10
1106.815063
 20
466.234497
 10
1107.847168
 20
468.530975
 10
1108.99292
 20
470.985168
 10
1110.175049
 20
473.419922
  0
LWPOLYLINE
  5
B27
330
1F
100
AcDbEntity
  8
0
370
    60
390
F
100
AcDbPolyline
 90
       18
 70
     0
 43
0.0
 10
1074.192627
 20
380.118134
 10
1074.42041
 20
382.10965
 10
1074.677124
 20
384.067657
 10
1074.958618
 20
385.973938
 10
1075.270142
 20
387.872986
 10
1075.562622
 20
389.504944
 10
1075.877197
 20
391.132416
 10
1076.208374
 20
392.731079
 10
1076.54895
 20
394.274445
 10
1077.041138
 20
396.358978
 10
1077.545654
 20
398.350342
 10
1078.044189
 20
400.200226
 10
1078.56958
 20
402.046143
 10
1079.048218
 20
403.648651
 10
1080.031616
 20
406.747559
 10
1080.926392
 20
409.383423
 10
1081.740845
 20
411.659332
 10
1082.162109
 20
412.796661
  0
LWPOLYLINE
  5
B3B
330
1F
100
AcDbEntity
  8
0
370
    60
390
F
100
AcDbPolyline
 90
       49
 70
     0
 43
0.0
 10
1179.954468
 20
525.274658
 10
1177.805176
 20
524.896729
 10
1175.67627
 20
524.502075
 10
1173.689697
 20
524.110413
 10
1171.71228
 20
523.69397
 10
1169.986572
 20
523.305847
 10
1168.266602
 20
522.893494
 10
1166.56604
 20
522.458557
 10
1164.872803
 20
521.996338
 10
1163.041382
 20
521.461121
 10
1161.228882
 20
520.892822
 10
1159.436646
 20
520.290405
 10
1157.665405
 20
519.653076
 10
1155.889648
 20
518.969604
 10
1154.086792
 20
518.227478
 10
1152.334229
 20
517.456787
 10
1150.607666
 20
516.647339
 10
1149.007813
 20
515.850586
 10
1147.42688
 20
515.016846
 10
1145.844116
 20
514.133606
 10
1144.282837
 20
513.212708
 10
1142.690918
 20
512.220215
 10
1141.124268
 20
511.188293
 10
1139.552246
 20
510.094971
 10
1138.008545
 20
508.962097
 10
1136.521729
 20
507.812775
 10
1135.063721
 20
506.627319
 10
1133.633057
 20
505.405212
 10
1132.232178
 20
504.149139
 10
1130.898193
 20
502.895447
 10
1129.592773
 20
501.611816
 10
1128.310791
 20
500.293549
 10
1127.057983
 20
498.947479
 10
1125.770996
 20
497.501953
 10
1124.516235
 20
496.02832
 10
1123.286499
 20
494.519104
 10
1122.088867
 20
492.984253
 10
1120.960205
 20
491.475952
 10
1119.86084
 20
489.946198
 10
1118.785034
 20
488.388367
 10
1117.737549
 20
486.811249
 10
1116.731689
 20
485.237946
 10
1115.752197
 20
483.648132
 10
1114.796143
 20
482.039551
 10
1113.864868
 20
480.416565
 10
1112.925171
 20
478.721191
 10
1112.009521
 20
477.012634
 10
1111.08252
 20
475.224976
 10
1110.178223
 20
473.425598
  0
LWPOLYLINE
  5
B6E
330
1F
100
AcDbEntity
  8
0
370
    60
390
F
100
AcDbPolyline
 90
        4
 70
     0
 43
0.0
 10
1073.929565
 20
375.593262
 10
1073.991333
 20
377.481598
 10
1074.103394
 20
379.177856
 10
1074.192627
 20
380.118134
  0
LWPOLYLINE
  5
B74
330
1F
100
AcDbEntity
  8
0
370
    60
390
F
100
AcDbPolyline
 90
       23
 70
     0
 43
0.0
 10
1179.961914
 20
525.276184
 10
1182.670044
 20
525.730896
 10
1185.381592
 20
526.164429
 10
1188.104492
 20
526.578491
 10
1190.830322
 20
526.97229
 10
1193.566772
 20
527.347412
 10
1196.305908
 20
527.703247
 10
1201.806519
 20
528.36084
 10
1206.520874
 20
528.866943
 10
1211.250488
 20
529.324219
 10
1215.994263
 20
529.735046
 10
1220.750977
 20
530.101563
 10
1225.534546
 20
530.426941
 10
1230.328491
 20
530.712158
 10
1235.131714
 20
530.959473
 10
1239.942871
 20
531.171204
 10
1244.754272
 20
531.349304
 10
1249.571167
 20
531.496338
 10
1254.392334
 20
531.614624
 10
1259.216431
 20
531.706299
 10
1264.04248
 20
531.773682
 10
1268.869141
 20
531.81897
 10
1278.519653
 20
531.852539
  0
LINE
  5
B8D
330
1F
100
AcDbEntity
  8
0
 48
0.099996
370
    60
390
F
100
AcDbLine
 10
1073.859741
 20
371.593994
 30
0.0
 11
1073.929565
 21
375.593231
 31
0.0
  0
LWPOLYLINE
  5
B8E
330
1F
100
AcDbEntity
  8
0
370
    60
390
F
100
AcDbPolyline
 90
       13
 70
     0
 43
0.0
 10
1092.22876
 20
425.980164
 10
1091.014893
 20
425.577423
 10
1089.876099
 20
425.142181
 10
1089.101929
 20
424.798676
 10
1088.335815
 20
424.40094
 10
1087.774658
 20
424.055145
 10
1087.297241
 20
423.70636
 10
1086.962402
 20
423.418274
 10
1086.726074
 20
423.184814
 10
1086.493164
 20
422.921295
 10
1086.318359
 20
422.693939
 10
1086.149048
 20
422.439545
 10
1085.896484
 20
421.959106
  0
LINE
  5
B9D
330
1F
100
AcDbEntity
  8
0
370
    60
390
F
100
AcDbLine
 10
1255.68689
 20
415.505402
 30
0.0
 11
1278.519653
 21
415.505646
 31
0.0
  0
LWPOLYLINE
  5
B9E
330
1F
100
AcDbEntity
  8
0
370
    60
390
F
100
AcDbPolyline
 90
        6
 70
     0
 43
0.0
 10
1165.415405
 20
415.877502
 10
1179.020142
 20
415.715149
 10
1193.562378
 20
415.601746
 10
1208.708984
 20
415.536163
 10
1228.069092
 20
415.505402
 10
1255.425781
 20
415.505402
  0
LWPOLYLINE
  5
BA6
330
1F
100
AcDbEntity
  8
0
370
    60
390
F
100
AcDbPolyline
 90
        4
 70
     0
 43
0.0
 10
1132.718384
 20
416.579254
 10
1142.054443
 20
416.323883
 10
1153.126221
 20
416.081055
 10
1165.415283
 20
415.877502
  0
LWPOLYLINE
  5
BAC
330
1F
100
AcDbEntity
  8
0
370
    60
390
F
100
AcDbPolyline
 90
       10
 70
     0
 43
0.0
 10
1092.19751
 20
425.955627
 10
1092.276978
 20
426.015289
 10
1092.585449
 20
426.278381
 10
1093.037354
 20
426.741821
 10
1093.466309
 20
427.286621
 10
1093.754272
 20
427.72757
 10
1094.006348
 20
428.185028
 10
1094.23291
 20
428.678986
 10
1094.423828
 20
429.193115
 10
1094.578613
 20
429.72876
  0
LWPOLYLINE
  5
BB8
330
1F
100
AcDbEntity
  8
0
370
    60
390
F
100
AcDbPolyline
 90
       19
 70
     0
 43
0.0
 10
1446.864258
 20
473.419922
 10
1448.046387
 20
470.985168
 10
1449.192139
 20
468.530975
 10
1450.224243
 20
466.234497
 10
1451.22644
 20
463.921082
 10
1452.199219
 20
461.590729
 10
1453.143188
 20
459.243408
 10
1454.05896
 20
456.87912
 10
1454.947266
 20
454.497803
 10
1455.808716
 20
452.099487
 10
1456.643799
 20
449.684143
 10
1457.453857
 20
447.250183
 10
1458.239014
 20
444.79895
 10
1458.999756
 20
442.330414
 10
1459.736694
 20
439.844604
 10
1460.450684
 20
437.341492
 10
1461.142334
 20
434.821106
 10
1461.812134
 20
432.283447
 10
1462.460815
 20
429.728546
  0
LWPOLYLINE
  5
BCD
330
1F
100
AcDbEntity
  8
0
370
    60
390
F
100
AcDbPolyline
 90
       18
 70
     0
 43
0.0
 10
1474.877197
 20
412.796661
 10
1475.710327
 20
410.521637
 10
1476.505981
 20
408.244659
 10
1477.492676
 20
405.248993
 10
1477.991089
 20
403.648651
 10
1478.469727
 20
402.046143
 10
1478.995117
 20
400.200226
 10
1479.493652
 20
398.350342
 10
1479.998169
 20
396.358978
 10
1480.490356
 20
394.274445
 10
1480.830933
 20
392.731079
 10
1481.162109
 20
391.132416
 10
1481.476685
 20
389.504944
 10
1481.769165
 20
387.872986
 10
1482.080688
 20
385.973938
 10
1482.362183
 20
384.067657
 10
1482.618896
 20
382.10965
 10
1482.84668
 20
380.118134
  0
LWPOLYLINE
  5
BE1
330
1F
100
AcDbEntity
  8
0
370
    60
390
F
100
AcDbPolyline
 90
       49
 70
     0
 43
0.0
 10
1446.861084
 20
473.425598
 10
1445.956787
 20
475.224976
 10
1445.029785
 20
477.012634
 10
1444.114136
 20
478.721191
 10
1443.174438
 20
480.416565
 10
1442.243164
 20
482.039551
 10
1441.287109
 20
483.648132
 10
1440.307617
 20
485.237946
 10
1439.301758
 20
486.811249
 10
1438.254272
 20
488.388367
 10
1437.178467
 20
489.946198
 10
1436.079102
 20
491.475952
 10
1434.950439
 20
492.984253
 10
1433.752808
 20
494.519104
 10
1432.523071
 20
496.02832
 10
1431.268311
 20
497.501953
 10
1429.981323
 20
498.947479
 10
1428.728516
 20
500.293549
 10
1427.446533
 20
501.611816
 10
1426.141113
 20
502.895447
 10
1424.807129
 20
504.149139
 10
1423.40625
 20
505.405212
 10
1421.975586
 20
506.627319
 10
1420.517578
 20
507.812775
 10
1419.030762
 20
508.962097
 10
1417.487061
 20
510.094971
 10
1415.915039
 20
511.188293
 10
1414.348389
 20
512.220215
 10
1412.75647
 20
513.212708
 10
1411.19519
 20
514.133606
 10
1409.612427
 20
515.016846
 10
1408.031494
 20
515.850586
 10
1406.431641
 20
516.647339
 10
1404.705078
 20
517.456787
 10
1402.952515
 20
518.227478
 10
1401.149658
 20
518.969604
 10
1399.373901
 20
519.653076
 10
1397.602661
 20
520.290405
 10
1395.810425
 20
520.892822
 10
1393.997925
 20
521.461121
 10
1392.166504
 20
521.996338
 10
1390.473267
 20
522.458557
 10
1388.772705
 20
522.893494
 10
1387.052734
 20
523.305847
 10
1385.327026
 20
523.69397
 10
1383.349609
 20
524.110413
 10
1381.363037
 20
524.502075
 10
1379.234131
 20
524.896729
 10
1377.084839
 20
525.274658
  0
LWPOLYLINE
  5
C14
330
1F
100
AcDbEntity
  8
0
370
    60
390
F
100
AcDbPolyline
 90
        4
 70
     0
 43
0.0
 10
1483.109741
 20
375.593262
 10
1483.047974
 20
377.481598
 10
1482.935913
 20
379.177856
 10
1482.84668
 20
380.118134
  0
LWPOLYLINE
  5
C1A
330
1F
100
AcDbEntity
  8
0
370
    60
390
F
100
AcDbPolyline
 90
       23
 70
     0
 43
0.0
 10
1377.077393
 20
525.276184
 10
1374.369263
 20
525.730896
 10
1371.657715
 20
526.164429
 10
1368.934814
 20
526.578491
 10
1366.208984
 20
526.97229
 10
1363.472534
 20
527.347412
 10
1360.733398
 20
527.703247
 10
1355.232788
 20
528.36084
 10
1350.518433
 20
528.866943
 10
1345.788818
 20
529.324219
 10
1341.045044
 20
529.735046
 10
1336.28833
 20
530.101563
 10
1331.504761
 20
530.426941
 10
1326.710815
 20
530.712158
 10
1321.907593
 20
530.959473
 10
1317.096436
 20
531.171204
 10
1312.285034
 20
531.349304
 10
1307.46814
 20
531.496338
 10
1302.646973
 20
531.614624
 10
1297.822876
 20
531.706299
 10
1292.996826
 20
531.773682
 10
1288.170166
 20
531.81897
 10
1278.519653
 20
531.852539
  0
LINE
  5
C33
330
1F
100
AcDbEntity
  8
0
 48
0.099996
370
    60
390
F
100
AcDbLine
 10
1483.179565
 20
371.593994
 30
0.0
 11
1483.109741
 21
375.593231
 31
0.0
  0
LWPOLYLINE
  5
C34
330
1F
100
AcDbEntity
  8
0
370
    60
390
F
100
AcDbPolyline
 90
       13
 70
     0
 43
0.0
 10
1464.810425
 20
425.980194
 10
1466.024292
 20
425.577454
 10
1467.163086
 20
425.142181
 10
1467.937378
 20
424.798676
 10
1468.703491
 20
424.40094
 10
1469.264648
 20
424.055145
 10
1469.742065
 20
423.70636
 10
1470.076904
 20
423.418274
 10
1470.313232
 20
423.184845
 10
1470.546143
 20
422.921295
 10
1470.720947
 20
422.693939
 10
1470.890259
 20
422.439545
 10
1471.142822
 20
421.959106
  0
LINE
  5
C43
330
1F
100
AcDbEntity
  8
0
370
    60
390
F
100
AcDbLine
 10
1278.519653
 20
415.505646
 30
0.0
 11
1301.352417
 21
415.505402
 31
0.0
  0
LWPOLYLINE
  5
C44
330
1F
100
AcDbEntity
  8
0
370
    60
390
F
100
AcDbPolyline
 90
        6
 70
     0
 43
0.0
 10
1301.613525
 20
415.505402
 10
1328.970215
 20
415.505402
 10
1348.330322
 20
415.536163
 10
1363.476929
 20
415.601746
 10
1378.019165
 20
415.715149
 10
1391.623901
 20
415.877502
  0
LWPOLYLINE
  5
C4C
330
1F
100
AcDbEntity
  8
0
370
    60
390
F
100
AcDbPolyline
 90
        4
 70
     0
 43
0.0
 10
1450.674755365405
 20
417.8264467115763
 10
1414.984863
 20
416.323883
 10
1403.913086
 20
416.081055
 10
1391.624023
 20
415.877502
  0
LWPOLYLINE
  5
C52
330
1F
100
AcDbEntity
  8
0
370
    60
390
F
100
AcDbPolyline
 90
       10
 70
     0
 43
0.0
 10
1464.841797
 20
425.955658
 10
1464.762329
 20
426.015289
 10
1464.453857
 20
426.278381
 10
1464.001953
 20
426.741821
 10
1463.572998
 20
427.286621
 10
1463.285034
 20
427.72757
 10
1463.032959
 20
428.185028
 10
1462.806396
 20
428.678986
 10
1462.615479
 20
429.193115
 10
1462.460693
 20
429.72876
  0
LINE
  5
C5E
330
1F
100
AcDbEntity
  8
0
 48
0.02495
370
    60
390
F
100
AcDbLine
 10
1073.854858
 20
370.599335
 30
0.0
 11
1073.854858
 21
371.597351
 31
0.0
  0
LINE
  5
C5F
330
1F
100
AcDbEntity
  8
0
 48
0.024869
370
    60
390
F
100
AcDbLine
 10
1483.184448
 20
370.599304
 30
0.0
 11
1483.184448
 21
371.594055
 31
0.0
  0
DIMENSION
  5
C92
330
1F
100
AcDbEntity
  8
0
370
    25
100
AcDbDimension
  2
*D27
 10
-12.98775987052198
 20
326.490875
 30
0.0
 11
-40.98775987052198
 21
429.171341
 31
0.0
 70
    32
  1
205
 71
     5
 41
2.5
 42
205.360932
  3
Standard
100
AcDbAlignedDimension
 13
401.440155
 23
531.851807
 33
0.0
 14
434.143372
 24
326.490875
 34
0.0
 50
90.0
100
AcDbRotatedDimension
1001
ACAD
1000
DSTYLE
1002
{
1070
    41
1040
10.0
1070
    42
1040
0.625
1070
    43
1040
3.75
1070
    44
1040
1.25
1070
    73
1070
     0
1070
    74
1070
     0
1070
    77
1070
     1
1070
    78
1070
     8
1070
   140
1040
36.0
1070
   141
1040
2.5
1070
   143
1040
0.03937
1070
   147
1040
10.0
1070
   171
1070
     3
1070
   172
1070
     1
1070
   176
1070
     7
1070
   177
1070
     7
1070
   271
1070
     2
1070
   272
1070
     2
1070
   274
1070
     3
1070
   278
1070
    44
1070
   283
1070
     0
1070
   284
1070
     8
1070
   289
1070
     0
1002
}
  0
DIMENSION
  5
CEC
330
1F
100
AcDbEntity
  8
0
370
    25
100
AcDbDimension
  2
*D29
 10
842.803589
 20
154.2051094427528
 30
0.0
 11
964.803589
 21
182.2051094427528
 31
0.0
 70
   160
  1
Ø42÷76
 71
     5
 41
2.5
 42
74.72351100000003
  3
Standard
100
AcDbAlignedDimension
 13
768.080078
 23
226.2862095
 33
0.0
 14
842.803589
 24
226.2862095
 34
0.0
100
AcDbRotatedDimension
1001
ACAD
1000
DSTYLE
1002
{
1070
    41
1040
10.0
1070
    42
1040
0.625
1070
    43
1040
3.75
1070
    44
1040
1.25
1070
    73
1070
     0
1070
    74
1070
     0
1070
    77
1070
     1
1070
    78
1070
     8
1070
   140
1040
36.0
1070
   141
1040
2.5
1070
   143
1040
0.03937
1070
   147
1040
10.0
1070
   171
1070
     3
1070
   172
1070
     1
1070
   176
1070
     7
1070
   177
1070
     7
1070
   271
1070
     2
1070
   272
1070
     2
1070
   274
1070
     3
1070
   278
1070
    44
1070
   283
1070
     0
1070
   284
1070
     8
1070
   289
1070
     0
1002
}
  0
DIMENSION
  5
D5C
330
1F
100
AcDbEntity
  8
0
370
    25
100
AcDbDimension
  2
*D39
 10
1483.184448
 20
588.5116350743327
 30
0.0
 11
1278.519653
 21
616.5116350743327
 31
0.0
 70
   160
  1
410
 71
     5
 41
2.5
 42
409.3295900000001
  3
Standard
100
AcDbAlignedDimension
 13
1073.854858
 23
371.098343
 33
0.0
 14
1483.184448
 24
370.599304
 34
0.0
100
AcDbRotatedDimension
1001
ACAD
1000
DSTYLE
1002
{
1070
    41
1040
10.0
1070
    42
1040
0.625
1070
    43
1040
3.75
1070
    44
1040
1.25
1070
    73
1070
     0
1070
    74
1070
     0
1070
    77
1070
     1
1070
    78
1070
     8
1070
   140
1040
36.0
1070
   141
1040
2.5
1070
   143
1040
0.03937
1070
   147
1040
10.0
1070
   171
1070
     3
1070
   172
1070
     1
1070
   176
1070
     7
1070
   177
1070
     7
1070
   271
1070
     0
1070
   272
1070
     2
1070
   274
1070
     3
1070
   278
1070
    44
1070
   283
1070
     0
1070
   284
1070
     8
1070
   289
1070
     0
1002
}
  0
POINT
  5
E3C
330
1F
100
AcDbEntity
  8
0
 62
     7
100
AcDbPoint
 10
23.077789
 20
371.069824
 30
0.0
  0
POINT
  5
E3D
330
1F
100
AcDbEntity
  8
0
 62
     7
100
AcDbPoint
 10
892.000488
 20
341.6874845
 30
0.0
  0
DIMENSION
  5
EFC
330
1F
100
AcDbEntity
  8
0
370
    25
100
AcDbDimension
  2
*D41
 10
892.2320297606555
 20
588.5116350743328
 30
0.0
 11
469.9238729152699
 21
616.5116350743328
 31
0.0
 70
   160
 71
     5
 41
2.5
 42
869.1455518175538
  3
Standard
100
AcDbAlignedDimension
 13
23.08647794310157
 23
369.894493864755
 33
0.0
 14
892.2320297606555
 24
340.523796864755
 34
0.0
100
AcDbRotatedDimension
1001
ACAD
1000
DSTYLE
1002
{
1070
    41
1040
10.0
1070
    42
1040
0.625
1070
    43
1040
3.75
1070
    44
1040
1.25
1070
    73
1070
     0
1070
    74
1070
     0
1070
    77
1070
     1
1070
    78
1070
     8
1070
   140
1040
36.0
1070
   141
1040
2.5
1070
   143
1040
0.03937
1070
   147
1040
10.0
1070
   171
1070
     3
1070
   172
1070
     1
1070
   271
1070
     0
1070
   272
1070
     2
1070
   274
1070
     3
1070
   278
1070
    44
1070
   283
1070
     0
1070
   284
1070
     8
1070
   289
1070
     0
1002
}
  0
VIEWPORT
  5
C60
330
73
100
AcDbEntity
 67
     1
  8
0
 62
     0
370
     0
390
F
100
AcDbViewport
 10
0.0
 20
0.0
 30
0.0
 40
1000.0
 41
1000.0
 68
     1
 69
     1
 12
0.0
 22
0.0
 13
0.0
 23
0.0
 14
1.0
 24
1.0
 15
1.0
 25
1.0
 16
0.0
 26
0.0
 36
1.0
 17
0.0
 27
0.0
 37
0.0
 42
50.0
 43
0.0
 44
0.0
 45
1000.0
 50
0.0
 51
0.0
 72
   100
 90
   557056
  1

281
     0
 71
     0
 74
     0
110
0.0
120
0.0
130
0.0
111
1.0
121
0.0
131
0.0
112
0.0
122
1.0
132
0.0
 79
     0
146
0.0
170
     0
  0
ENDSEC
  0
SECTION
  2
OBJECTS
  0
DICTIONARY
  5
C
330
0
100
AcDbDictionary
281
     1
  3
ACAD_COLOR
350
6C
  3
ACAD_GROUP
350
D
  3
ACAD_LAYOUT
350
1A
  3
ACAD_MATERIAL
350
6B
  3
ACAD_MLEADERSTYLE
350
DCD
  3
ACAD_MLINESTYLE
350
17
  3
ACAD_PLOTSETTINGS
350
19
  3
ACAD_PLOTSTYLENAME
350
E
  3
ACAD_SCALELIST
350
99
  3
ACAD_TABLESTYLE
350
92
  3
ACAD_WIPEOUT_VARS
350
FA5
  3
AcDbVariableDictionary
350
59
  0
DICTIONARY
  5
6C
102
{ACAD_REACTORS
330
C
102
}
330
C
100
AcDbDictionary
281
     1
  0
DICTIONARY
  5
D
102
{ACAD_REACTORS
330
C
102
}
330
C
100
AcDbDictionary
281
     1
  3
*A1
350
E44
  0
DICTIONARY
  5
1A
102
{ACAD_REACTORS
330
C
102
}
330
C
100
AcDbDictionary
281
     1
  3
Layout1
350
74
  3
Model
350
22
  0
DICTIONARY
  5
6B
102
{ACAD_REACTORS
330
C
102
}
330
C
100
AcDbDictionary
281
     1
  0
DICTIONARY
  5
DCD
102
{ACAD_REACTORS
330
C
102
}
330
C
100
AcDbDictionary
281
     1
  0
DICTIONARY
  5
17
102
{ACAD_REACTORS
330
C
102
}
330
C
100
AcDbDictionary
281
     1
  3
Standard
350
18
  0
DICTIONARY
  5
19
102
{ACAD_REACTORS
330
C
102
}
330
C
100
AcDbDictionary
281
     1
  0
ACDBDICTIONARYWDFLT
  5
E
102
{ACAD_REACTORS
330
C
102
}
330
C
100
AcDbDictionary
281
     1
  3
Normal
350
F
100
AcDbDictionaryWithDefault
340
F
  0
DICTIONARY
  5
99
102
{ACAD_REACTORS
330
C
102
}
330
C
100
AcDbDictionary
281
     1
  3
A0
350
C62
  3
A1
350
C63
  3
A2
350
C64
  3
A3
350
C65
  3
A4
350
C66
  3
A5
350
C67
  3
A6
350
C68
  3
A7
350
C69
  3
A8
350
C6A
  3
A9
350
C6B
  3
B0
350
C6C
  3
B1
350
C6D
  3
B2
350
C6E
  3
B3
350
C6F
  3
B4
350
C70
  3
B5
350
C71
  3
B6
350
C72
  3
B7
350
C73
  3
B8
350
C74
  3
B9
350
C75
  3
C0
350
C76
  3
C1
350
C77
  3
C2
350
C78
  3
C3
350
C79
  3
C4
350
C7A
  3
C5
350
C7B
  3
C6
350
C7C
  3
C7
350
C7D
  3
C8
350
C7E
  3
C9
350
C7F
  3
D0
350
C80
  3
D1
350
C81
  3
D2
350
C82
  0
DICTIONARY
  5
92
102
{ACAD_REACTORS
330
C
102
}
330
C
100
AcDbDictionary
281
     1
  3
Standard
350
FA4
  0
WIPEOUTVARIABLES
  5
FA5
102
{ACAD_REACTORS
330
C
102
}
330
C
100
AcDbWipeoutVariables
 70
     1
  0
DICTIONARY
  5
59
102
{ACAD_REACTORS
330
C
102
}
330
C
100
AcDbDictionary
281
     1
  3
CTABLESTYLE
350
FA6
  3
DIMASSOC
350
5A
  3
HIDETEXT
350
5E
  0
GROUP
  5
E44
102
{ACAD_REACTORS
330
D
102
}
330
D
100
AcDbGroup
300

 70
     1
 71
     1
  0
LAYOUT
  5
74
102
{ACAD_REACTORS
330
1A
102
}
330
1A
100
AcDbPlotSettings
  1

  2
none_device
  4
none_user_media
  6

 40
0.0
 41
0.0
 42
0.0
 43
0.0
 44
0.0
 45
0.0
 46
0.0
 47
0.0
 48
0.0
 49
0.0
140
0.0
141
0.0
142
1.0
143
1.0
 70
   544
 72
     0
 73
     0
 74
     0
  7

 75
    16
 76
     0
 77
     2
 78
   300
147
1.0
148
0.0
149
0.0
100
AcDbLayout
  1
Layout1
 70
     1
 71
     0
 10
0.0
 20
0.0
 11
420.0
 21
297.0
 12
0.0
 22
0.0
 32
0.0
 14
0.0
 24
0.0
 34
0.0
 15
1483.198242
 25
563.165161
 35
2.0
146
0.0
 13
0.0
 23
0.0
 33
0.0
 16
1.0
 26
0.0
 36
0.0
 17
0.0
 27
1.0
 37
0.0
 76
     0
330
73
331
C60
  0
LAYOUT
  5
22
102
{ACAD_REACTORS
330
1A
102
}
330
1A
100
AcDbPlotSettings
  1

  2
none_device
  4
none_user_media
  6

 40
6.349999904632568
 41
6.349999904632568
 42
6.350006103515625
 43
6.350006103515625
 44
215.8999938964844
 45
279.3999938964844
 46
1.587498486042011
 47
-0.0000000000000142
 48
0.0
 49
0.0
140
0.0
141
0.0
142
1.0
143
1.142857194757788
 70
 11956
 72
     0
 73
     1
 74
     1
  7

 75
     0
 76
     0
 77
     2
 78
   300
147
0.8749999602635703
148
0.0
149
0.0
100
AcDbLayout
  1
Model
 70
     1
 71
     0
 10
0.0
 20
0.0
 11
420.0
 21
297.0
 12
0.0
 22
0.0
 32
0.0
 14
-31.98775987052198
 24
130.6642339143747
 34
0.0
 15
1483.184448
 25
873.651901900414
 35
0.0
146
0.0
 13
0.0
 23
0.0
 33
0.0
 16
1.0
 26
0.0
 36
0.0
 17
0.0
 27
1.0
 37
0.0
 76
     0
330
1F
331
97
1001
PROGE_PRINT_SETTINGS
1070
    73
1070
     2
1070
   311
1000
\\PRN100A\W366
1004
303030303030303035323030343930303433303034463030343830303230303034313030363630303639303036333030363930303646303032303030343130303530303033363030333130303330303034453030323030303530303034333030344330303230303033363030303030303030303030303030303030303030
1004
303030303030303030303443303035303030353430303331303033413030303030303030303030303030303030303030303030303030303030303030303030303030303030303030303030303030303030303030303030303030303030303030303030303030303030303030303030303030303030303030303030303030
1004
303030303030303030303030303030303030303030303030303030303030303030303030303030303030303030303030303030303030303030303030303030303030303030303030303030303030303030303030303030303030303030303030303030303030303030303030303030303030303030303030303030303030
1004
303030303030303030303030303030303030303030303030303030303030303030303030303030303030303030303030303030303030303030303030303030303030303030303030303030303030303030303030303030303030303030303030303030303030303030303030303030303030303030303030303030303030
1004
303030303030303030303030303030303030303030303030303030303030303030303030303030303030303030303030303030303030303030303030303030303030303030303030303030303030303030303030303030303030303030303030303030303030303030303030303030303030303030303030373430413030
1004
303030303030303030303030303030303030303130303030303037343041303030303531304430303030303130303030303030363030303030304230303930303030423330443030303030313030303030303030303030303030303030303030303030303030303030303030303030303030303030303030303030303030
1004
303030303030303030303030303030303030303030303030303030303030303030303030303030303030303036343030303030303035303030303030303030303030303030303030303030303030303030303030303130303030303030303030303030303030303030303030303630303030303030303030303030303030
1004
303030303030303030303030303030303030303030303030303030303030313830303030303030303030313032373130323731303237303030303130323730303030303030303030303030303030303130303030303030303030303030303030303030303030303030303030303030303030303030303030303030303030
1004
303030303030303030303030303030303030303030303030303030303030303030303030303030303030303030303030303030303030303030303030303030303030303030303030303030303030303030303030303030303030303030303030303030303030303030303030303030303030303030303030303030303030
1004
303030303030303030303030303030303030303030303030303030303030303030303030303030303030303030303030303030303030303030303030303030303030303030303030303030303030303030303030303030303030303030303030303030303030303030303030303030303030303030303030303030303030
1004
303030303030303030303030303030303030303030303030303030303030303030303030303030303030303030303030303030303030303030303030303030303030303030303030303030303030303030303030303030303030303030303030303030303030303030303030303030303030303030303030303030303030
1004
303030303030303030303030303030303030303030303030303030303030303030303030303030303030303030303030303030303030303030303030303030303030303030303030303030303030303030303030303030303030303030303030303030303030303030303030303030303030303030303030303030303030
1004
303030303030303030303030303030303030303030303030303030303030303030303030303030303030303030303030303030303030303030303030303030303030303030303030303030303030303030303030303030303030303030303030303030303030303030303030303030303030303030303030303030303030
1004
303030303030303030303030303030303030303030303030303030303030303030303030303030303030303030303030303030303030303030303030303030303030303030303030303030303030303030303030303030303030303030303030303030303030303030303030303030303030303030303030303030303030
1004
303030303030303030303030303030303030303030303030303030303030303030303030303030303030303030303030303030303030303030303030303030303030303030303030303030303030303030303030303030303030303030303030303030303030303030303030303030303030303030303030303030303030
1004
303030303030303030303030303030303030303030303030303030303030303030303030303030303030303030303030303030303030303030303030303030303030303030303030303030303030303030303030303030303030303030303030303030303030303030303030303030303030303030303030303030303030
1004
303030303030303030303030303030303030303030303030303030303030303030303030303030303030303030303030303030303030303030303030303030303030303030303030303030303030303030303030303030303030303030303030303030303030303030303030303030303030303030303030303030303030
1004
303030303030303030303030303030303030303030303030303030303030303030303030303030303030303030303030303030303030303030303030303030303030303030303030303030303030303030303030303030303030303030303030303030303030303030303030303030303030303030303030303030303030
1004
303030303030303030303030303030303030303030303030303030303030303030303030303030303030303030303030303030303030303030303030303030303030303030303030303030303030303030303030303030303030303030303030303030303030303030303030303030303030303030303030303030303030
1004
303030303030303030303030303030303030303030303030303030303030303030303030303030303030303030303030303030303030303030303030303030303030303030303030303030303030303030303030303030303030303030303030303030303030303030303030303030303030303030303030303030303030
1004
303030303030303030303030303030303030303030303030303030303030303030303030303030303030303030303030303030303030303030303030303030303030303030303030303030303030303030303030303030303030303030303030303030303030303030303030303030303030303030303030303030303030
1004
303030303030303030303030303030303030303030303030303030303030303030303030303030303030303030303030303030303030303030303030303030303030303030303030303030303030303030303030303030303030303030303030303030303030303030303030303030303030303030303030303030303030
1004
303030303030303030303030303030303030303030303030303030303030303030303030303030303030303030303030303030303030303030303030303030303030303030303030303030303030303030303030303030303030303030303030303030303030303030303030303030303030303030303030303030303030
1004
303030303030303030303030303030303030303030303030303030303030303030303030303030303030303030303030303030303030303030303030303030303030303030303030303030303030303030303030303030303030303030303030303030303030303030303030303030303030303030303030303030303030
1004
303030303030303030303030303030303030303030303030303030303030303030303030303030303030303030303030303130303030303030313030303030303030303030303030303030303030303030303030303030303030303030303030303130303030303030303030303030303031303030303030303030303030
1004
303030303030303030303030303030303030303030303030303030303030303030303030303030303030303030303030303030303030303030303030303030303030303030303030303036343030303030303030303030303030303030303030303030303030303030303034303030303030303630303030303030303030
1004
303030303031303030303030303030303030303030303030303030303030303030303030303030303030303030303030303030303031303030303030303130303030303030303030303030303030303030303030303130303030303030303030303030303030303030303030303030303030303030303030303030303030
1004
303030303030363430303030303030303030303030303030303030303030303030303030303030313030303030303030303030303030303130303030303030303030303030303030303030303030303030303030303030303030303030303030303030303030303030303030303030303030303030303030303030303030
1004
303030303030303030303030303030303030303030303030303030303030303030303030303030303030303030303030303030303030303030303030303030303030303030303030303030303030303030303030303030303030303030303030303030303030303045373033303030304537303330303030453730333030
1004
303045373033303030303030303030303030303030303030303030303030303030303030303030303030303030303030303030363030303030303334303830303030393930423030303030303030303030303434303036353030363630303631303037353030364330303734303030303030303030303030303030303030
1004
303030303030303030303030303030303030303030343030303030303030303030303030303030303030303030303030303030303030303030303030303030303030303030303030303030303030303030303030303030303030303030303030303030303030303030303030303030303030303030303030303030303030
1004
303030303030303030303030303030303030303030303030303030303030303030303030303030303030303030303030303030303030303030303030303030303030303030303030303030303030303030303030303030303030303030303030303030303030303030303030303030303030303030303030303030303030
1004
303030303030303030303030303030303030303030303030303030303030303030303030303030303030303030303030303030303030303030303030303030303030303030303030303030303030303030303030303030303030303030303030303030303030303030303030303030303030303030303030303030303030
1004
303030303030303030303030303030303030303030303030303030303030303030303030303030303030303030303030303030303030303030303030303030303030303030303030303030303030303030303030303030303030303030303030303030303030303030303030303030303030303030303030303030303030
1004
303030303030303030303030303030303030303030303030303030303030303030303030303030303030303030303030303030303030303030303030303030303030303030303030303030303030303030303030303030303030303030303030303030303030303030303030303030303030303030303030303030303030
1004
303030303030303030303030303030303030303030303030303030303030303030303030303030303030303030303030303030303030303030303030303030303030303030303030303030303030303030303030303030303030303030303030303030303030303030303030303030303030303030303030303030303030
1004
303030303030303030303030303030303030303030303030303030303030303030303030303030303030303030303030303030303030303030303030303030303030303030303030303030303030303030303030303030303030303030303030303030303030303030303030303030303030303030303030303030303030
1004
303030303030303030303030303030303030303030303030303030303030303030303030303030303030303030303030303030303030303030303030303030303030303030303030303030303030303030303030303030303030303030303030303030303030303030303030303030303030303030303030303030303030
1004
30303030303030303030303030303030303030303030303030303030303030303030303030303030303030303030303030303030303030303030303030303030303030303030303030303030303030303030303030313030303030303030303030303030303030303030303030303030303030303030303030303030
  0
MLINESTYLE
  5
18
102
{ACAD_REACTORS
330
17
102
}
330
17
100
AcDbMlineStyle
  2
Standard
 70
     0
  3

 62
     0
 51
90.0
 52
90.0
 71
     2
 49
0.5
 62
   256
  6
BYLAYER
 49
-0.5
 62
   256
  6
BYLAYER
  0
ACDBPLACEHOLDER
  5
F
102
{ACAD_REACTORS
330
E
102
}
330
E
  0
SCALE
  5
C62
102
{ACAD_REACTORS
330
99
102
}
330
99
100
AcDbScale
 70
     0
300
1:1
140
1.0
141
1.0
290
     1
  0
SCALE
  5
C63
102
{ACAD_REACTORS
330
99
102
}
330
99
100
AcDbScale
 70
     0
300
1:2
140
1.0
141
2.0
290
     0
  0
SCALE
  5
C64
102
{ACAD_REACTORS
330
99
102
}
330
99
100
AcDbScale
 70
     0
300
1:4
140
1.0
141
4.0
290
     0
  0
SCALE
  5
C65
102
{ACAD_REACTORS
330
99
102
}
330
99
100
AcDbScale
 70
     0
300
1:5
140
1.0
141
5.0
290
     0
  0
SCALE
  5
C66
102
{ACAD_REACTORS
330
99
102
}
330
99
100
AcDbScale
 70
     0
300
1:8
140
1.0
141
8.0
290
     0
  0
SCALE
  5
C67
102
{ACAD_REACTORS
330
99
102
}
330
99
100
AcDbScale
 70
     0
300
1:10
140
1.0
141
10.0
290
     0
  0
SCALE
  5
C68
102
{ACAD_REACTORS
330
99
102
}
330
99
100
AcDbScale
 70
     0
300
1:16
140
1.0
141
16.0
290
     0
  0
SCALE
  5
C69
102
{ACAD_REACTORS
330
99
102
}
330
99
100
AcDbScale
 70
     0
300
1:20
140
1.0
141
20.0
290
     0
  0
SCALE
  5
C6A
102
{ACAD_REACTORS
330
99
102
}
330
99
100
AcDbScale
 70
     0
300
1:30
140
1.0
141
30.0
290
     0
  0
SCALE
  5
C6B
102
{ACAD_REACTORS
330
99
102
}
330
99
100
AcDbScale
 70
     0
300
1:40
140
1.0
141
40.0
290
     0
  0
SCALE
  5
C6C
102
{ACAD_REACTORS
330
99
102
}
330
99
100
AcDbScale
 70
     0
300
1:50
140
1.0
141
50.0
290
     0
  0
SCALE
  5
C6D
102
{ACAD_REACTORS
330
99
102
}
330
99
100
AcDbScale
 70
     0
300
1:100
140
1.0
141
100.0
290
     0
  0
SCALE
  5
C6E
102
{ACAD_REACTORS
330
99
102
}
330
99
100
AcDbScale
 70
     0
300
2:1
140
2.0
141
1.0
290
     0
  0
SCALE
  5
C6F
102
{ACAD_REACTORS
330
99
102
}
330
99
100
AcDbScale
 70
     0
300
4:1
140
4.0
141
1.0
290
     0
  0
SCALE
  5
C70
102
{ACAD_REACTORS
330
99
102
}
330
99
100
AcDbScale
 70
     0
300
8:1
140
8.0
141
1.0
290
     0
  0
SCALE
  5
C71
102
{ACAD_REACTORS
330
99
102
}
330
99
100
AcDbScale
 70
     0
300
10:1
140
10.0
141
1.0
290
     0
  0
SCALE
  5
C72
102
{ACAD_REACTORS
330
99
102
}
330
99
100
AcDbScale
 70
     0
300
100:1
140
100.0
141
1.0
290
     0
  0
SCALE
  5
C73
102
{ACAD_REACTORS
330
99
102
}
330
99
100
AcDbScale
 70
     0
300
1/128" = 1'-0"
140
0.0078125
141
12.0
290
     0
  0
SCALE
  5
C74
102
{ACAD_REACTORS
330
99
102
}
330
99
100
AcDbScale
 70
     0
300
1/64" = 1'-0"
140
0.015625
141
12.0
290
     0
  0
SCALE
  5
C75
102
{ACAD_REACTORS
330
99
102
}
330
99
100
AcDbScale
 70
     0
300
1/32" = 1'-0"
140
0.03125
141
12.0
290
     0
  0
SCALE
  5
C76
102
{ACAD_REACTORS
330
99
102
}
330
99
100
AcDbScale
 70
     0
300
1/16" = 1'-0"
140
0.0625
141
12.0
290
     0
  0
SCALE
  5
C77
102
{ACAD_REACTORS
330
99
102
}
330
99
100
AcDbScale
 70
     0
300
3/32" = 1'-0"
140
0.09375
141
12.0
290
     0
  0
SCALE
  5
C78
102
{ACAD_REACTORS
330
99
102
}
330
99
100
AcDbScale
 70
     0
300
1/8" = 1'-0"
140
0.125
141
12.0
290
     0
  0
SCALE
  5
C79
102
{ACAD_REACTORS
330
99
102
}
330
99
100
AcDbScale
 70
     0
300
3/16" = 1'-0"
140
0.1875
141
12.0
290
     0
  0
SCALE
  5
C7A
102
{ACAD_REACTORS
330
99
102
}
330
99
100
AcDbScale
 70
     0
300
1/4" = 1'-0"
140
0.25
141
12.0
290
     0
  0
SCALE
  5
C7B
102
{ACAD_REACTORS
330
99
102
}
330
99
100
AcDbScale
 70
     0
300
3/8" = 1'-0"
140
0.375
141
12.0
290
     0
  0
SCALE
  5
C7C
102
{ACAD_REACTORS
330
99
102
}
330
99
100
AcDbScale
 70
     0
300
1/2" = 1'-0"
140
0.5
141
12.0
290
     0
  0
SCALE
  5
C7D
102
{ACAD_REACTORS
330
99
102
}
330
99
100
AcDbScale
 70
     0
300
3/4" = 1'-0"
140
0.75
141
12.0
290
     0
  0
SCALE
  5
C7E
102
{ACAD_REACTORS
330
99
102
}
330
99
100
AcDbScale
 70
     0
300
1" = 1'-0"
140
1.0
141
12.0
290
     0
  0
SCALE
  5
C7F
102
{ACAD_REACTORS
330
99
102
}
330
99
100
AcDbScale
 70
     0
300
1-1/2" = 1'-0"
140
1.5
141
12.0
290
     0
  0
SCALE
  5
C80
102
{ACAD_REACTORS
330
99
102
}
330
99
100
AcDbScale
 70
     0
300
3" = 1'-0"
140
3.0
141
12.0
290
     0
  0
SCALE
  5
C81
102
{ACAD_REACTORS
330
99
102
}
330
99
100
AcDbScale
 70
     0
300
6" = 1'-0"
140
6.0
141
12.0
290
     0
  0
SCALE
  5
C82
102
{ACAD_REACTORS
330
99
102
}
330
99
100
AcDbScale
 70
     0
300
1'-0" = 1'-0"
140
12.0
141
12.0
290
     0
  0
TABLESTYLE
  5
FA4
102
{ACAD_REACTORS
330
92
102
}
102
{ACAD_XDICTIONARY
360
FFB
102
}
330
92
100
AcDbTableStyle
  3
Standard
 70
     0
 71
     0
 40
0.06
 41
0.06
280
     0
281
     0
  7
Standard
140
0.18
170
     2
 62
     0
 63
     7
283
     0
274
    -2
284
     1
 64
     0
275
    -2
285
     1
 65
     0
276
    -2
286
     1
 66
     0
277
    -2
287
     1
 67
     0
278
    -2
288
     1
 68
     0
279
    -2
289
     1
 69
     0
  7
Standard
140
0.25
170
     5
 62
     0
 63
     7
283
     0
274
    -2
284
     1
 64
     0
275
    -2
285
     1
 65
     0
276
    -2
286
     1
 66
     0
277
    -2
287
     1
 67
     0
278
    -2
288
     1
 68
     0
279
    -2
289
     1
 69
     0
  7
Standard
140
0.18
170
     5
 62
     0
 63
     7
283
     0
274
    -2
284
     1
 64
     0
275
    -2
285
     1
 65
     0
276
    -2
286
     1
 66
     0
277
    -2
287
     1
 67
     0
278
    -2
288
     1
 68
     0
279
    -2
289
     1
 69
     0
  0
DICTIONARYVAR
  5
FA6
102
{ACAD_REACTORS
330
59
102
}
330
59
100
DictionaryVariables
280
     0
  1
Standard
  0
DICTIONARYVAR
  5
5A
102
{ACAD_REACTORS
330
59
102
}
330
59
100
DictionaryVariables
280
     0
  1
2
  0
DICTIONARYVAR
  5
5E
102
{ACAD_REACTORS
330
59
102
}
330
59
100
DictionaryVariables
280
     0
  1
1
  0
DICTIONARY
  5
FFB
330
FA4
100
AcDbDictionary
280
     1
281
     1
  3
ACAD_XREC_ROUNDTRIP
360
FFC
  0
XRECORD
  5
FFC
102
{ACAD_REACTORS
330
FFB
102
}
330
FFB
100
AcDbXrecord
280
     1
102
ACAD_ROUNDTRIP_PRE2007_TABLESTYLE
 90
      512
 91
        0
  1

 92
      512
 93
        0
  2

 94
      512
 95
        0
  3

  0
ENDSEC
  0
EOF
