  0
SECTION
  2
HEADER
  9
$ACADVER
  1
AC1018
  9
$ACADMAINTVER
 70
     0
  9
$DWGCODEPAGE
  3
ANSI_1252
  9
$LASTSAVEDBY
  1
BelottiMc
  9
$INSBASE
 10
0.0
 20
0.0
 30
0.0
  9
$EXTMIN
 10
-62.26967167342016
 20
18.85376
 30
0.0
  9
$EXTMAX
 10
401.744873
 20
457.7704900355563
 30
0.0
  9
$LIMMIN
 10
0.0
 20
0.0
  9
$LIMMAX
 10
420.0
 20
297.0
  9
$ORTHOMODE
 70
     0
  9
$REGENMODE
 70
     1
  9
$FILLMODE
 70
     1
  9
$QTEXTMODE
 70
     0
  9
$MIRRTEXT
 70
     1
  9
$LTSCALE
 40
1.0
  9
$ATTMODE
 70
     1
  9
$TEXTSIZE
 40
2.5
  9
$TRACEWID
 40
1.0
  9
$TEXTSTYLE
  7
Standard
  9
$CLAYER
  8
0
  9
$CELTYPE
  6
ByLayer
  9
$CECOLOR
 62
   256
  9
$CELTSCALE
 40
1.0
  9
$DISPSILH
 70
     0
  9
$DIMSCALE
 40
1.0
  9
$DIMASZ
 40
2.5
  9
$DIMEXO
 40
0.625
  9
$DIMDLI
 40
3.75
  9
$DIMRND
 40
0.0
  9
$DIMDLE
 40
0.0
  9
$DIMEXE
 40
1.25
  9
$DIMTP
 40
0.0
  9
$DIMTM
 40
0.0
  9
$DIMTXT
 40
2.5
  9
$DIMCEN
 40
2.5
  9
$DIMTSZ
 40
0.0
  9
$DIMTOL
 70
     0
  9
$DIMLIM
 70
     0
  9
$DIMTIH
 70
     0
  9
$DIMTOH
 70
     0
  9
$DIMSE1
 70
     0
  9
$DIMSE2
 70
     0
  9
$DIMTAD
 70
     1
  9
$DIMZIN
 70
     8
  9
$DIMBLK
  1

  9
$DIMASO
 70
     1
  9
$DIMSHO
 70
     1
  9
$DIMPOST
  1

  9
$DIMAPOST
  1

  9
$DIMALT
 70
     0
  9
$DIMALTD
 70
     3
  9
$DIMALTF
 40
0.03937
  9
$DIMLFAC
 40
1.0
  9
$DIMTOFL
 70
     1
  9
$DIMTVP
 40
0.0
  9
$DIMTIX
 70
     0
  9
$DIMSOXD
 70
     0
  9
$DIMSAH
 70
     0
  9
$DIMBLK1
  1

  9
$DIMBLK2
  1

  9
$DIMSTYLE
  2
Standard
  9
$DIMCLRD
 70
     0
  9
$DIMCLRE
 70
     0
  9
$DIMCLRT
 70
     0
  9
$DIMTFAC
 40
1.0
  9
$DIMGAP
 40
0.625
  9
$DIMJUST
 70
     0
  9
$DIMSD1
 70
     0
  9
$DIMSD2
 70
     0
  9
$DIMTOLJ
 70
     0
  9
$DIMTZIN
 70
     8
  9
$DIMALTZ
 70
     0
  9
$DIMALTTZ
 70
     0
  9
$DIMUPT
 70
     0
  9
$DIMDEC
 70
     2
  9
$DIMTDEC
 70
     2
  9
$DIMALTU
 70
     2
  9
$DIMALTTD
 70
     3
  9
$DIMTXSTY
  7
Standard
  9
$DIMAUNIT
 70
     0
  9
$DIMADEC
 70
     0
  9
$DIMALTRND
 40
0.0
  9
$DIMAZIN
 70
     0
  9
$DIMDSEP
 70
    46
  9
$DIMATFIT
 70
     0
  9
$DIMFRAC
 70
     0
  9
$DIMLDRBLK
  1

  9
$DIMLUNIT
 70
     2
  9
$DIMLWD
 70
    -2
  9
$DIMLWE
 70
    -2
  9
$DIMTMOVE
 70
     2
  9
$LUNITS
 70
     2
  9
$LUPREC
 70
     4
  9
$SKETCHINC
 40
1.0
  9
$FILLETRAD
 40
2.5
  9
$AUNITS
 70
     0
  9
$AUPREC
 70
     0
  9
$MENU
  1
.
  9
$ELEVATION
 40
0.0
  9
$PELEVATION
 40
0.0
  9
$THICKNESS
 40
0.0
  9
$LIMCHECK
 70
     0
  9
$CHAMFERA
 40
2.5
  9
$CHAMFERB
 40
2.5
  9
$CHAMFERC
 40
0.0
  9
$CHAMFERD
 40
0.0
  9
$SKPOLY
 70
     0
  9
$TDCREATE
 40
2447893.0
  9
$TDUCREATE
 40
2447892.916666667
  9
$TDUPDATE
 40
2447892.999999977
  9
$TDUUPDATE
 40
2447892.916666644
  9
$TDINDWG
 40
0.015786956
  9
$TDUSRTIMER
 40
0.0157753588
  9
$USRTIMER
 70
     1
  9
$ANGBASE
 50
0.0
  9
$ANGDIR
 70
     0
  9
$PDMODE
 70
     0
  9
$PDSIZE
 40
0.0
  9
$PLINEWID
 40
0.0
  9
$SPLFRAME
 70
     0
  9
$SPLINETYPE
 70
     6
  9
$SPLINESEGS
 70
     8
  9
$HANDSEED
  5
BA8
  9
$SURFTAB1
 70
     6
  9
$SURFTAB2
 70
     6
  9
$SURFTYPE
 70
     6
  9
$SURFU
 70
     6
  9
$SURFV
 70
     6
  9
$UCSBASE
  2

  9
$UCSNAME
  2

  9
$UCSORG
 10
0.0
 20
0.0
 30
0.0
  9
$UCSXDIR
 10
1.0
 20
0.0
 30
0.0
  9
$UCSYDIR
 10
0.0
 20
1.0
 30
0.0
  9
$UCSORTHOREF
  2

  9
$UCSORTHOVIEW
 70
     0
  9
$UCSORGTOP
 10
0.0
 20
0.0
 30
0.0
  9
$UCSORGBOTTOM
 10
0.0
 20
0.0
 30
0.0
  9
$UCSORGLEFT
 10
0.0
 20
0.0
 30
0.0
  9
$UCSORGRIGHT
 10
0.0
 20
0.0
 30
0.0
  9
$UCSORGFRONT
 10
0.0
 20
0.0
 30
0.0
  9
$UCSORGBACK
 10
0.0
 20
0.0
 30
0.0
  9
$PUCSBASE
  2

  9
$PUCSNAME
  2

  9
$PUCSORG
 10
0.0
 20
0.0
 30
0.0
  9
$PUCSXDIR
 10
1.0
 20
0.0
 30
0.0
  9
$PUCSYDIR
 10
0.0
 20
1.0
 30
0.0
  9
$PUCSORTHOREF
  2

  9
$PUCSORTHOVIEW
 70
     0
  9
$PUCSORGTOP
 10
0.0
 20
0.0
 30
0.0
  9
$PUCSORGBOTTOM
 10
0.0
 20
0.0
 30
0.0
  9
$PUCSORGLEFT
 10
0.0
 20
0.0
 30
0.0
  9
$PUCSORGRIGHT
 10
0.0
 20
0.0
 30
0.0
  9
$PUCSORGFRONT
 10
0.0
 20
0.0
 30
0.0
  9
$PUCSORGBACK
 10
0.0
 20
0.0
 30
0.0
  9
$USERI1
 70
     0
  9
$USERI2
 70
     0
  9
$USERI3
 70
     0
  9
$USERI4
 70
     0
  9
$USERI5
 70
     0
  9
$USERR1
 40
0.0
  9
$USERR2
 40
0.0
  9
$USERR3
 40
0.0
  9
$USERR4
 40
0.0
  9
$USERR5
 40
0.0
  9
$WORLDVIEW
 70
     1
  9
$SHADEDGE
 70
     3
  9
$SHADEDIF
 70
    70
  9
$TILEMODE
 70
     1
  9
$MAXACTVP
 70
    48
  9
$PINSBASE
 10
0.0
 20
0.0
 30
0.0
  9
$PLIMCHECK
 70
     0
  9
$PEXTMIN
 10
0.0
 20
0.0
 30
0.0
  9
$PEXTMAX
 10
401.706116
 20
438.281525
 30
2.0
  9
$PLIMMIN
 10
0.0
 20
0.0
  9
$PLIMMAX
 10
420.0
 20
297.0
  9
$UNITMODE
 70
     0
  9
$VISRETAIN
 70
     0
  9
$PLINEGEN
 70
     0
  9
$PSLTSCALE
 70
     1
  9
$TREEDEPTH
 70
  3020
  9
$CMLSTYLE
  2
Standard
  9
$CMLJUST
 70
     0
  9
$CMLSCALE
 40
20.0
  9
$PROXYGRAPHICS
 70
     1
  9
$MEASUREMENT
 70
     1
  9
$CELWEIGHT
370
    -1
  9
$ENDCAPS
280
     0
  9
$JOINSTYLE
280
     0
  9
$LWDISPLAY
290
     0
  9
$INSUNITS
 70
     0
  9
$HYPERLINKBASE
  1

  9
$STYLESHEET
  1

  9
$XEDIT
290
     1
  9
$CEPSNTYPE
380
     0
  9
$PSTYLEMODE
290
     1
  9
$FINGERPRINTGUID
  2
{A3804EC2-8F15-4E08-B7C7-D8B122FAFD74}
  9
$VERSIONGUID
  2
{FAEB1C32-E019-11D5-929B-00C0DF256EC4}
  9
$EXTNAMES
290
     1
  9
$PSVPSCALE
 40
0.0
  9
$OLESTARTUP
290
     0
  9
$SORTENTS
280
   127
  9
$INDEXCTL
280
     0
  9
$HIDETEXT
280
     1
  9
$XCLIPFRAME
290
     0
  9
$HALOGAP
280
     0
  9
$OBSCOLOR
 70
   257
  9
$OBSLTYPE
280
     0
  9
$INTERSECTIONDISPLAY
280
     0
  9
$INTERSECTIONCOLOR
 70
   257
  9
$DIMASSOC
280
     2
  9
$PROJECTNAME
  1

  0
ENDSEC
  0
SECTION
  2
CLASSES
  0
CLASS
  1
ACDBDICTIONARYWDFLT
  2
AcDbDictionaryWithDefault
  3
ObjectDBX Classes
 90
        0
 91
        4
280
     0
281
     0
  0
CLASS
  1
ACDBPLACEHOLDER
  2
AcDbPlaceHolder
  3
ObjectDBX Classes
 90
        0
 91
        1
280
     0
281
     0
  0
CLASS
  1
LAYOUT
  2
AcDbLayout
  3
ObjectDBX Classes
 90
        0
 91
        1
280
     0
281
     0
  0
CLASS
  1
DICTIONARYVAR
  2
AcDbDictionaryVar
  3
ObjectDBX Classes
 90
        0
 91
        4
280
     0
281
     0
  0
CLASS
  1
TABLESTYLE
  2
AcDbTableStyle
  3
ObjectDBX Classes
 90
     4095
 91
        6
280
     0
281
     0
  0
CLASS
  1
SCALE
  2
AcDbScale
  3
ObjectDBX Classes
 90
     1153
 91
       70
280
     0
281
     0
  0
ENDSEC
  0
SECTION
  2
TABLES
  0
TABLE
  2
VPORT
  5
8
330
0
100
AcDbSymbolTable
 70
     2
  0
VPORT
  5
97
330
8
100
AcDbSymbolTableRecord
100
AcDbViewportTableRecord
  2
*ACTIVE
 70
     0
 10
0.0
 20
0.0
 11
1.0
 21
1.0
 12
217.4744472427824
 22
145.1966262260968
 13
0.0
 23
0.0
 14
1.0
 24
1.0
 15
0.5
 25
0.5
 16
0.0
 26
0.0
 36
1.0
 17
0.0
 27
0.0
 37
0.0
 40
669.02665810145
 41
0.688564
 42
50.0
 43
0.0
 44
0.0
 50
0.0
 51
0.0
 71
     0
 72
   100
 73
     1
 74
     1
 75
     0
 76
     0
 77
     0
 78
     0
281
     0
 65
     1
110
0.0
120
0.0
130
0.0
111
1.0
121
0.0
131
0.0
112
0.0
122
1.0
132
0.0
 79
     0
146
0.0
  0
ENDTAB
  0
TABLE
  2
LTYPE
  5
5
330
0
100
AcDbSymbolTable
 70
     8
  0
LTYPE
  5
14
330
5
100
AcDbSymbolTableRecord
100
AcDbLinetypeTableRecord
  2
ByBlock
 70
     0
  3

 72
    65
 73
     0
 40
0.0
  0
LTYPE
  5
15
330
5
100
AcDbSymbolTableRecord
100
AcDbLinetypeTableRecord
  2
ByLayer
 70
     0
  3

 72
    65
 73
     0
 40
0.0
  0
LTYPE
  5
16
330
5
100
AcDbSymbolTableRecord
100
AcDbLinetypeTableRecord
  2
Continuous
 70
     0
  3
Solid line
 72
    65
 73
     0
 40
0.0
  0
LTYPE
  5
B6D
330
5
100
AcDbSymbolTableRecord
100
AcDbLinetypeTableRecord
  2
DASHED
 70
     0
  3
__ __ __ __ __ __ __ __ __ __ __ __ __ __ __ __
 72
    65
 73
     2
 40
15.0
 49
12.0
 74
     0
 49
-3.0
 74
     0
  0
LTYPE
  5
B6E
330
5
100
AcDbSymbolTableRecord
100
AcDbLinetypeTableRecord
  2
DASHDOT
 70
     0
  3
 __ . __ . __ . __ . __ . __ . __ . 
 72
    65
 73
     4
 40
18.5
 49
12.0
 74
     0
 49
-3.0
 74
     0
 49
0.5
 74
     0
 49
-3.0
 74
     0
  0
LTYPE
  5
B6F
330
5
100
AcDbSymbolTableRecord
100
AcDbLinetypeTableRecord
  2
DOT
 70
     0
  3
 . . . . . . . . . . . . . . . .
 72
    65
 73
     2
 40
3.5
 49
0.5
 74
     0
 49
-3.0
 74
     0
  0
LTYPE
  5
B70
330
5
100
AcDbSymbolTableRecord
100
AcDbLinetypeTableRecord
  2
DASHSPACE
 70
     0
  3
__    __    __    __    __   
 72
    65
 73
     2
 40
30.0
 49
12.0
 74
     0
 49
-18.0
 74
     0
  0
LTYPE
  5
B71
330
5
100
AcDbSymbolTableRecord
100
AcDbLinetypeTableRecord
  2
DASHDOT2
 70
     0
  3
__ . . __ . . __ . . __ 
 72
    65
 73
     6
 40
22.0
 49
12.0
 74
     0
 49
-3.0
 74
     0
 49
0.5
 74
     0
 49
-3.0
 74
     0
 49
0.5
 74
     0
 49
-3.0
 74
     0
  0
LTYPE
  5
B72
330
5
100
AcDbSymbolTableRecord
100
AcDbLinetypeTableRecord
  2
PHANTOM
 70
     0
  3
____________    ____    ____   _
 72
    65
 73
     6
 40
20.0
 49
10.0
 74
     0
 49
-2.0
 74
     0
 49
2.0
 74
     0
 49
-2.0
 74
     0
 49
2.0
 74
     0
 49
-2.0
 74
     0
  0
LTYPE
  5
B73
330
5
100
AcDbSymbolTableRecord
100
AcDbLinetypeTableRecord
  2
AXES
 70
     0
  3
________  __  ________  __  _____
 72
    65
 73
     4
 40
24.0
 49
15.0
 74
     0
 49
-3.0
 74
     0
 49
3.0
 74
     0
 49
-3.0
 74
     0
  0
ENDTAB
  0
TABLE
  2
LAYER
  5
2
330
0
100
AcDbSymbolTable
 70
     2
  0
LAYER
  5
10
330
2
100
AcDbSymbolTableRecord
100
AcDbLayerTableRecord
  2
0
 70
     0
 62
     7
  6
Continuous
370
    -3
390
F
  0
LAYER
  5
9A2
330
2
100
AcDbSymbolTableRecord
100
AcDbLayerTableRecord
  2
DEFPOINTS
 70
     0
 62
     7
  6
Continuous
290
     0
370
    -3
390
F
  0
ENDTAB
  0
TABLE
  2
STYLE
  5
3
330
0
100
AcDbSymbolTable
 70
     1
  0
STYLE
  5
11
330
3
100
AcDbSymbolTableRecord
100
AcDbTextStyleTableRecord
  2
Standard
 70
     0
 40
0.0
 41
1.0
 50
0.0
 71
     0
 42
0.2
  3
txt
  4

  0
ENDTAB
  0
TABLE
  2
VIEW
  5
6
330
0
100
AcDbSymbolTable
 70
     0
  0
ENDTAB
  0
TABLE
  2
UCS
  5
7
330
0
100
AcDbSymbolTable
 70
     0
  0
ENDTAB
  0
TABLE
  2
APPID
  5
9
330
0
100
AcDbSymbolTable
 70
     3
  0
APPID
  5
12
330
9
100
AcDbSymbolTableRecord
100
AcDbRegAppTableRecord
  2
ACAD
 70
     0
  0
APPID
  5
B6B
330
9
100
AcDbSymbolTableRecord
100
AcDbRegAppTableRecord
  2
Conv5506CA
 70
     0
  0
APPID
  5
B6C
330
9
100
AcDbSymbolTableRecord
100
AcDbRegAppTableRecord
  2
PROGE_PRINT_SETTINGS
 70
     0
  0
ENDTAB
  0
TABLE
  2
DIMSTYLE
  5
A
330
0
100
AcDbSymbolTable
 70
     1
100
AcDbDimStyleTable
  0
DIMSTYLE
105
27
102
{ACAD_REACTORS
330
AC4
330
B0D
102
}
330
A
100
AcDbSymbolTableRecord
100
AcDbDimStyleTableRecord
  2
Standard
 70
     0
340
11
  0
ENDTAB
  0
TABLE
  2
BLOCK_RECORD
  5
1
330
0
100
AcDbSymbolTable
 70
    24
  0
BLOCK_RECORD
  5
1F
330
1
100
AcDbSymbolTableRecord
100
AcDbBlockTableRecord
  2
*Model_Space
340
22
  0
BLOCK_RECORD
  5
73
330
1
100
AcDbSymbolTableRecord
100
AcDbBlockTableRecord
  2
*Paper_Space
340
74
  0
BLOCK_RECORD
  5
9AE
330
1
100
AcDbSymbolTableRecord
100
AcDbBlockTableRecord
  2
*D0
340
0
  0
BLOCK_RECORD
  5
9BA
330
1
100
AcDbSymbolTableRecord
100
AcDbBlockTableRecord
  2
*D1
340
0
  0
BLOCK_RECORD
  5
9C6
330
1
100
AcDbSymbolTableRecord
100
AcDbBlockTableRecord
  2
*D2
340
0
  0
BLOCK_RECORD
  5
9D3
330
1
100
AcDbSymbolTableRecord
100
AcDbBlockTableRecord
  2
*D3
340
0
  0
BLOCK_RECORD
  5
9DE
330
1
100
AcDbSymbolTableRecord
100
AcDbBlockTableRecord
  2
*D4
340
0
  0
BLOCK_RECORD
  5
9EA
330
1
100
AcDbSymbolTableRecord
100
AcDbBlockTableRecord
  2
*D5
340
0
  0
BLOCK_RECORD
  5
9F7
330
1
100
AcDbSymbolTableRecord
100
AcDbBlockTableRecord
  2
*D6
340
0
  0
BLOCK_RECORD
  5
A02
330
1
100
AcDbSymbolTableRecord
100
AcDbBlockTableRecord
  2
*D7
340
0
  0
BLOCK_RECORD
  5
A0E
330
1
100
AcDbSymbolTableRecord
100
AcDbBlockTableRecord
  2
*D8
340
0
  0
BLOCK_RECORD
  5
A1A
330
1
100
AcDbSymbolTableRecord
100
AcDbBlockTableRecord
  2
*D9
340
0
  0
BLOCK_RECORD
  5
A25
330
1
100
AcDbSymbolTableRecord
100
AcDbBlockTableRecord
  2
*D10
340
0
  0
BLOCK_RECORD
  5
A30
330
1
100
AcDbSymbolTableRecord
100
AcDbBlockTableRecord
  2
*D11
340
0
  0
BLOCK_RECORD
  5
ACF
330
1
100
AcDbSymbolTableRecord
100
AcDbBlockTableRecord
  2
*D12
340
0
  0
BLOCK_RECORD
  5
AF3
330
1
100
AcDbSymbolTableRecord
100
AcDbBlockTableRecord
  2
*D13
340
0
  0
BLOCK_RECORD
  5
AFF
330
1
100
AcDbSymbolTableRecord
100
AcDbBlockTableRecord
  2
*D14
340
0
  0
BLOCK_RECORD
  5
B0C
330
1
100
AcDbSymbolTableRecord
100
AcDbBlockTableRecord
  2
*D15
340
0
  0
BLOCK_RECORD
  5
B18
330
1
100
AcDbSymbolTableRecord
100
AcDbBlockTableRecord
  2
*D16
340
0
  0
BLOCK_RECORD
  5
B23
330
1
100
AcDbSymbolTableRecord
100
AcDbBlockTableRecord
  2
*D17
340
0
  0
BLOCK_RECORD
  5
B2F
330
1
100
AcDbSymbolTableRecord
100
AcDbBlockTableRecord
  2
*D18
340
0
  0
BLOCK_RECORD
  5
B3A
330
1
100
AcDbSymbolTableRecord
100
AcDbBlockTableRecord
  2
*D19
340
0
  0
BLOCK_RECORD
  5
B46
330
1
100
AcDbSymbolTableRecord
100
AcDbBlockTableRecord
  2
*D20
340
0
  0
BLOCK_RECORD
  5
B53
330
1
100
AcDbSymbolTableRecord
100
AcDbBlockTableRecord
  2
*D21
340
0
  0
BLOCK_RECORD
  5
B5E
330
1
100
AcDbSymbolTableRecord
100
AcDbBlockTableRecord
  2
*D22
340
0
  0
BLOCK_RECORD
  5
B69
330
1
100
AcDbSymbolTableRecord
100
AcDbBlockTableRecord
  2
*D23
340
0
  0
ENDTAB
  0
ENDSEC
  0
SECTION
  2
BLOCKS
  0
BLOCK
  5
20
330
1F
100
AcDbEntity
  8
0
100
AcDbBlockBegin
  2
*Model_Space
 70
     0
 10
0.0
 20
0.0
 30
0.0
  3
*Model_Space
  1

  0
ENDBLK
  5
21
330
1F
100
AcDbEntity
  8
0
100
AcDbBlockEnd
  0
BLOCK
  5
75
330
73
100
AcDbEntity
 67
     1
  8
0
100
AcDbBlockBegin
  2
*Paper_Space
 70
     0
 10
0.0
 20
0.0
 30
0.0
  3
*Paper_Space
  1

  0
ENDBLK
  5
76
330
73
100
AcDbEntity
 67
     1
  8
0
100
AcDbBlockEnd
  0
BLOCK
  5
B76
330
9AE
100
AcDbEntity
  8
0
100
AcDbBlockBegin
  2
*D0
 70
     1
 10
0.0
 20
0.0
 30
0.0
  3
*D0
  1

  0
POINT
  5
9A5
330
9AE
100
AcDbEntity
  8
DEFPOINTS
  6
ByBlock
 62
     0
380
     1
100
AcDbPoint
 10
18.92561598329914
 20
438.281525
 30
0.0
  0
POINT
  5
9A6
330
9AE
100
AcDbEntity
  8
DEFPOINTS
  6
ByBlock
 62
     0
380
     1
100
AcDbPoint
 10
18.92561598329914
 20
357.061279
 30
0.0
  0
LINE
  5
9A7
330
9AE
100
AcDbEntity
  8
0
  6
ByBlock
 62
     0
370
    -2
380
     1
100
AcDbLine
 10
18.30061598329914
 20
438.281525
 30
0.0
 11
-20.55579270033685
 21
438.281525
 31
0.0
  0
LINE
  5
9A8
330
9AE
100
AcDbEntity
  8
0
  6
ByBlock
 62
     0
370
    -2
380
     1
100
AcDbLine
 10
18.30061598329914
 20
357.061279
 30
0.0
 11
-20.55579270033685
 21
357.061279
 31
0.0
  0
LINE
  5
9A9
330
9AE
100
AcDbEntity
  8
0
  6
ByBlock
 62
     0
370
    -2
380
     1
100
AcDbLine
 10
-19.30579270033685
 20
435.781525
 30
0.0
 11
-19.30579270033685
 21
359.561279
 31
0.0
  0
SOLID
  5
9AA
330
9AE
100
AcDbEntity
  8
0
  6
ByBlock
 62
     0
380
     1
100
AcDbTrace
 10
-19.30579270033685
 20
438.281525
 30
0.0
 11
-19.72245936700352
 21
435.781525
 31
0.0
 12
-18.88912603367019
 22
435.781525
 32
0.0
 13
-18.88912603367019
 23
435.781525
 33
0.0
  0
SOLID
  5
9AB
330
9AE
100
AcDbEntity
  8
0
  6
ByBlock
 62
     0
380
     1
100
AcDbTrace
 10
-19.30579270033685
 20
357.061279
 30
0.0
 11
-19.72245936700352
 21
359.561279
 31
0.0
 12
-18.88912603367019
 22
359.561279
 32
0.0
 13
-18.88912603367019
 23
359.561279
 33
0.0
  0
MTEXT
  5
9AC
330
9AE
100
AcDbEntity
  8
0
  6
ByBlock
 62
     0
370
    -2
380
     1
100
AcDbMText
 10
-21.18079270033685
 20
397.671402
 30
0.0
 40
2.5
 41
0.0
 71
     5
 72
     1
  1
\A1;81.22
 11
6.123031769111886E-17
 21
1.0
 31
0.0
 73
     1
 44
1.0
  0
ENDBLK
  5
B77
330
9AE
100
AcDbEntity
  8
0
100
AcDbBlockEnd
  0
BLOCK
  5
B78
330
9BA
100
AcDbEntity
  8
0
100
AcDbBlockBegin
  2
*D1
 70
     1
 10
0.0
 20
0.0
 30
0.0
  3
*D1
  1

  0
POINT
  5
9B1
330
9BA
100
AcDbEntity
  8
DEFPOINTS
  6
ByBlock
 62
     0
380
     1
100
AcDbPoint
 10
203.6521813455564
 20
438.281525
 30
0.0
  0
POINT
  5
9B2
330
9BA
100
AcDbEntity
  8
DEFPOINTS
  6
ByBlock
 62
     0
380
     1
100
AcDbPoint
 10
204.7215374094812
 20
356.9608374448494
 30
0.0
  0
LINE
  5
9B3
330
9BA
100
AcDbEntity
  8
0
  6
ByBlock
 62
     0
370
    -2
380
     1
100
AcDbLine
 10
203.0271813455564
 20
438.281525
 30
0.0
 11
-16.60628035305282
 21
438.281525
 31
0.0
  0
LINE
  5
9B4
330
9BA
100
AcDbEntity
  8
0
  6
ByBlock
 62
     0
370
    -2
380
     1
100
AcDbLine
 10
204.0965374094812
 20
356.9608374448494
 30
0.0
 11
-16.60628035305282
 21
356.9608374448494
 31
0.0
  0
LINE
  5
9B5
330
9BA
100
AcDbEntity
  8
0
  6
ByBlock
 62
     0
370
    -2
380
     1
100
AcDbLine
 10
-15.35628035305282
 20
435.781525
 30
0.0
 11
-15.35628035305282
 21
359.4608374448494
 31
0.0
  0
SOLID
  5
9B6
330
9BA
100
AcDbEntity
  8
0
  6
ByBlock
 62
     0
380
     1
100
AcDbTrace
 10
-15.35628035305282
 20
438.281525
 30
0.0
 11
-15.77294701971948
 21
435.781525
 31
0.0
 12
-14.93961368638617
 22
435.781525
 32
0.0
 13
-14.93961368638617
 23
435.781525
 33
0.0
  0
SOLID
  5
9B7
330
9BA
100
AcDbEntity
  8
0
  6
ByBlock
 62
     0
380
     1
100
AcDbTrace
 10
-15.35628035305282
 20
356.9608374448494
 30
0.0
 11
-15.77294701971948
 21
359.4608374448494
 31
0.0
 12
-14.93961368638617
 22
359.4608374448494
 32
0.0
 13
-14.93961368638617
 23
359.4608374448494
 33
0.0
  0
MTEXT
  5
9B8
330
9BA
100
AcDbEntity
  8
0
  6
ByBlock
 62
     0
370
    -2
380
     1
100
AcDbMText
 10
-17.23128035305282
 20
397.6211812224247
 30
0.0
 40
2.5
 41
0.0
 71
     5
 72
     1
  1
\A1;81.32
 11
6.123031769111886E-17
 21
1.0
 31
0.0
 73
     1
 44
1.0
  0
ENDBLK
  5
B79
330
9BA
100
AcDbEntity
  8
0
100
AcDbBlockEnd
  0
BLOCK
  5
B7A
330
9C6
100
AcDbEntity
  8
0
100
AcDbBlockBegin
  2
*D2
 70
     1
 10
0.0
 20
0.0
 30
0.0
  3
*D2
  1

  0
POINT
  5
9BC
330
9C6
100
AcDbEntity
  8
DEFPOINTS
  6
ByBlock
 62
     7
380
     1
100
AcDbPoint
 10
203.6521813455564
 20
438.281525
 30
0.0
  0
POINT
  5
9BD
330
9C6
100
AcDbEntity
  8
DEFPOINTS
  6
ByBlock
 62
     7
380
     1
100
AcDbPoint
 10
204.7215374094812
 20
356.9608374448494
 30
0.0
  0
LINE
  5
9BE
330
9C6
100
AcDbEntity
  8
0
  6
ByBlock
 62
     7
370
    -2
380
     1
100
AcDbLine
 10
203.0271813455564
 20
438.281525
 30
0.0
 11
-16.60628035305282
 21
438.281525
 31
0.0
  0
LINE
  5
9BF
330
9C6
100
AcDbEntity
  8
0
  6
ByBlock
 62
     7
370
    -2
380
     1
100
AcDbLine
 10
204.0965374094812
 20
356.9608374448494
 30
0.0
 11
-16.60628035305282
 21
356.9608374448494
 31
0.0
  0
LINE
  5
9C0
330
9C6
100
AcDbEntity
  8
0
  6
ByBlock
 62
     7
370
    -2
380
     1
100
AcDbLine
 10
-15.35628035305282
 20
438.281525
 30
0.0
 11
-15.35628035305282
 21
356.9608374448494
 31
0.0
  0
SOLID
  5
9C1
330
9C6
100
AcDbEntity
  8
0
  6
ByBlock
 62
     7
380
     1
100
AcDbTrace
 10
-15.35628035305282
 20
438.281525
 30
0.0
 11
-17.02294701971948
 21
428.281525
 31
0.0
 12
-13.68961368638617
 22
428.281525
 32
0.0
 13
-13.68961368638617
 23
428.281525
 33
0.0
  0
SOLID
  5
9C2
330
9C6
100
AcDbEntity
  8
0
  6
ByBlock
 62
     7
380
     1
100
AcDbTrace
 10
-15.35628035305282
 20
356.9608374448494
 30
0.0
 11
-17.02294701971948
 21
366.9608374448494
 31
0.0
 12
-13.68961368638617
 22
366.9608374448494
 32
0.0
 13
-13.68961368638617
 23
366.9608374448494
 33
0.0
  0
LINE
  5
9C3
330
9C6
100
AcDbEntity
  8
0
  6
ByBlock
 62
     7
370
    -2
380
     1
100
AcDbLine
 10
203.6521813455564
 20
438.281525
 30
0.0
 11
203.6521813455564
 21
438.281525
 31
0.0
  0
MTEXT
  5
9C4
330
9C6
100
AcDbEntity
  8
0
  6
ByBlock
 62
     0
370
    -2
380
     1
100
AcDbMText
 10
-17.23128035305282
 20
397.6211812224247
 30
0.0
 40
2.5
 41
0.0
 71
     5
 72
     1
  1
\A1;81.32
 11
6.123031769111886E-17
 21
1.0
 31
0.0
 73
     1
 44
1.0
  0
ENDBLK
  5
B7B
330
9C6
100
AcDbEntity
  8
0
100
AcDbBlockEnd
  0
BLOCK
  5
B7C
330
9D3
100
AcDbEntity
  8
0
100
AcDbBlockBegin
  2
*D3
 70
     1
 10
0.0
 20
0.0
 30
0.0
  3
*D3
  1

  0
POINT
  5
9C8
330
9D3
100
AcDbEntity
  8
DEFPOINTS
  6
ByBlock
 62
     7
380
     1
100
AcDbPoint
 10
203.6521813455564
 20
438.281525
 30
0.0
  0
POINT
  5
9C9
330
9D3
100
AcDbEntity
  8
DEFPOINTS
  6
ByBlock
 62
     7
380
     1
100
AcDbPoint
 10
204.7215374094812
 20
356.9608374448494
 30
0.0
  0
LINE
  5
9CA
330
9D3
100
AcDbEntity
  8
0
  6
ByBlock
 62
     7
370
    -2
380
     1
100
AcDbLine
 10
203.0271813455564
 20
438.281525
 30
0.0
 11
-16.60628035305282
 21
438.281525
 31
0.0
  0
LINE
  5
9CB
330
9D3
100
AcDbEntity
  8
0
  6
ByBlock
 62
     7
370
    -2
380
     1
100
AcDbLine
 10
204.0965374094812
 20
356.9608374448494
 30
0.0
 11
-16.60628035305282
 21
356.9608374448494
 31
0.0
  0
LINE
  5
9CC
330
9D3
100
AcDbEntity
  8
0
  6
ByBlock
 62
     7
370
    -2
380
     1
100
AcDbLine
 10
-15.35628035305282
 20
448.281525
 30
0.0
 11
-15.35628035305282
 21
458.281525
 31
0.0
  0
LINE
  5
9CD
330
9D3
100
AcDbEntity
  8
0
  6
ByBlock
 62
     7
370
    -2
380
     1
100
AcDbLine
 10
-15.35628035305282
 20
346.9608374448494
 30
0.0
 11
-15.35628035305282
 21
336.9608374448494
 31
0.0
  0
SOLID
  5
9CE
330
9D3
100
AcDbEntity
  8
0
  6
ByBlock
 62
     7
380
     1
100
AcDbTrace
 10
-15.35628035305282
 20
438.281525
 30
0.0
 11
-17.02294701971948
 21
448.281525
 31
0.0
 12
-13.68961368638617
 22
448.281525
 32
0.0
 13
-13.68961368638617
 23
448.281525
 33
0.0
  0
SOLID
  5
9CF
330
9D3
100
AcDbEntity
  8
0
  6
ByBlock
 62
     7
380
     1
100
AcDbTrace
 10
-15.35628035305282
 20
356.9608374448494
 30
0.0
 11
-17.02294701971948
 21
346.9608374448494
 31
0.0
 12
-13.68961368638617
 22
346.9608374448494
 32
0.0
 13
-13.68961368638617
 23
346.9608374448494
 33
0.0
  0
LINE
  5
9D0
330
9D3
100
AcDbEntity
  8
0
  6
ByBlock
 62
     7
370
    -2
380
     1
100
AcDbLine
 10
-15.35628035305282
 20
438.281525
 30
0.0
 11
-15.35628035305282
 21
356.9608374448494
 31
0.0
  0
MTEXT
  5
9D1
330
9D3
100
AcDbEntity
  8
0
  6
ByBlock
 62
     0
370
    -2
380
     1
100
AcDbMText
 10
-27.35628035305282
 20
397.6211812224247
 30
0.0
 40
14.0
 41
0.0
 71
     5
 72
     1
  1
\A1;81.32
 11
6.123031769111886E-17
 21
1.0
 31
0.0
 73
     1
 44
1.0
  0
ENDBLK
  5
B7D
330
9D3
100
AcDbEntity
  8
0
100
AcDbBlockEnd
  0
BLOCK
  5
B7E
330
9DE
100
AcDbEntity
  8
0
100
AcDbBlockBegin
  2
*D4
 70
     1
 10
0.0
 20
0.0
 30
0.0
  3
*D4
  1

  0
POINT
  5
9D5
330
9DE
100
AcDbEntity
  8
DEFPOINTS
  6
ByBlock
 62
     7
380
     1
100
AcDbPoint
 10
203.6521813455564
 20
438.281525
 30
0.0
  0
POINT
  5
9D6
330
9DE
100
AcDbEntity
  8
DEFPOINTS
  6
ByBlock
 62
     7
380
     1
100
AcDbPoint
 10
204.7215374094812
 20
356.9608374448494
 30
0.0
  0
LINE
  5
9D7
330
9DE
100
AcDbEntity
  8
0
  6
ByBlock
 62
     7
370
    -2
380
     1
100
AcDbLine
 10
203.0271813455564
 20
438.281525
 30
0.0
 11
-16.60628035305282
 21
438.281525
 31
0.0
  0
LINE
  5
9D8
330
9DE
100
AcDbEntity
  8
0
  6
ByBlock
 62
     7
370
    -2
380
     1
100
AcDbLine
 10
204.0965374094812
 20
356.9608374448494
 30
0.0
 11
-16.60628035305282
 21
356.9608374448494
 31
0.0
  0
LINE
  5
9D9
330
9DE
100
AcDbEntity
  8
0
  6
ByBlock
 62
     7
370
    -2
380
     1
100
AcDbLine
 10
-15.35628035305282
 20
428.281525
 30
0.0
 11
-15.35628035305282
 21
366.9608374448494
 31
0.0
  0
SOLID
  5
9DA
330
9DE
100
AcDbEntity
  8
0
  6
ByBlock
 62
     7
380
     1
100
AcDbTrace
 10
-15.35628035305282
 20
438.281525
 30
0.0
 11
-17.02294701971948
 21
428.281525
 31
0.0
 12
-13.68961368638617
 22
428.281525
 32
0.0
 13
-13.68961368638617
 23
428.281525
 33
0.0
  0
SOLID
  5
9DB
330
9DE
100
AcDbEntity
  8
0
  6
ByBlock
 62
     7
380
     1
100
AcDbTrace
 10
-15.35628035305282
 20
356.9608374448494
 30
0.0
 11
-17.02294701971948
 21
366.9608374448494
 31
0.0
 12
-13.68961368638617
 22
366.9608374448494
 32
0.0
 13
-13.68961368638617
 23
366.9608374448494
 33
0.0
  0
MTEXT
  5
9DC
330
9DE
100
AcDbEntity
  8
0
  6
ByBlock
 62
     0
370
    -2
380
     1
100
AcDbMText
 10
-27.35628035305282
 20
397.6211812224247
 30
0.0
 40
14.0
 41
0.0
 71
     5
 72
     1
  1
81
 11
6.123031769111886E-17
 21
1.0
 31
0.0
 73
     1
 44
1.0
  0
ENDBLK
  5
B7F
330
9DE
100
AcDbEntity
  8
0
100
AcDbBlockEnd
  0
BLOCK
  5
B80
330
9EA
100
AcDbEntity
  8
0
100
AcDbBlockBegin
  2
*D5
 70
     1
 10
0.0
 20
0.0
 30
0.0
  3
*D5
  1

  0
POINT
  5
9E1
330
9EA
100
AcDbEntity
  8
DEFPOINTS
  6
ByBlock
 62
     0
380
     1
100
AcDbPoint
 10
249.6252135
 20
319.8618315
 30
0.0
  0
POINT
  5
9E2
330
9EA
100
AcDbEntity
  8
DEFPOINTS
  6
ByBlock
 62
     0
380
     1
100
AcDbPoint
 10
267.339737
 20
24.313202
 30
0.0
  0
LINE
  5
9E3
330
9EA
100
AcDbEntity
  8
0
  6
ByBlock
 62
     0
370
    -2
380
     1
100
AcDbLine
 10
249.0002135
 20
319.8618315
 30
0.0
 11
17.63823624292422
 21
319.8618315
 31
0.0
  0
LINE
  5
9E4
330
9EA
100
AcDbEntity
  8
0
  6
ByBlock
 62
     0
370
    -2
380
     1
100
AcDbLine
 10
266.714737
 20
24.31320199999999
 30
0.0
 11
17.63823624292422
 21
24.31320199999999
 31
0.0
  0
LINE
  5
9E5
330
9EA
100
AcDbEntity
  8
0
  6
ByBlock
 62
     0
370
    -2
380
     1
100
AcDbLine
 10
18.88823624292422
 20
317.3618315
 30
0.0
 11
18.88823624292422
 21
26.81320199999999
 31
0.0
  0
SOLID
  5
9E6
330
9EA
100
AcDbEntity
  8
0
  6
ByBlock
 62
     0
380
     1
100
AcDbTrace
 10
18.88823624292422
 20
319.8618315
 30
0.0
 11
18.47156957625756
 21
317.3618315
 31
0.0
 12
19.30490290959088
 22
317.3618315
 32
0.0
 13
19.30490290959088
 23
317.3618315
 33
0.0
  0
SOLID
  5
9E7
330
9EA
100
AcDbEntity
  8
0
  6
ByBlock
 62
     0
380
     1
100
AcDbTrace
 10
18.88823624292422
 20
24.31320199999999
 30
0.0
 11
18.47156957625756
 21
26.81320199999999
 31
0.0
 12
19.30490290959088
 22
26.81320199999999
 32
0.0
 13
19.30490290959088
 23
26.81320199999999
 33
0.0
  0
MTEXT
  5
9E8
330
9EA
100
AcDbEntity
  8
0
  6
ByBlock
 62
     0
370
    -2
380
     1
100
AcDbMText
 10
17.01323624292422
 20
172.08751675
 30
0.0
 40
2.5
 41
0.0
 71
     5
 72
     1
  1
\A1;295.55
 11
6.123031769111886E-17
 21
1.0
 31
0.0
 73
     1
 44
1.0
  0
ENDBLK
  5
B81
330
9EA
100
AcDbEntity
  8
0
100
AcDbBlockEnd
  0
BLOCK
  5
B82
330
9F7
100
AcDbEntity
  8
0
100
AcDbBlockBegin
  2
*D6
 70
     1
 10
0.0
 20
0.0
 30
0.0
  3
*D6
  1

  0
POINT
  5
9EE
330
9F7
100
AcDbEntity
  8
DEFPOINTS
  6
ByBlock
 62
     0
380
     1
100
AcDbPoint
 10
256.093231
 20
319.903259
 30
0.0
  0
POINT
  5
9EF
330
9F7
100
AcDbEntity
  8
DEFPOINTS
  6
ByBlock
 62
     0
380
     1
100
AcDbPoint
 10
276.008209
 20
24.376801
 30
0.0
  0
LINE
  5
9F0
330
9F7
100
AcDbEntity
  8
0
  6
ByBlock
 62
     0
370
    -2
380
     1
100
AcDbLine
 10
255.468231
 20
319.903259
 30
0.0
 11
-16.6062803530528
 21
319.903259
 31
0.0
  0
LINE
  5
9F1
330
9F7
100
AcDbEntity
  8
0
  6
ByBlock
 62
     0
370
    -2
380
     1
100
AcDbLine
 10
275.383209
 20
24.376801
 30
0.0
 11
-16.6062803530528
 21
24.376801
 31
0.0
  0
LINE
  5
9F2
330
9F7
100
AcDbEntity
  8
0
  6
ByBlock
 62
     0
370
    -2
380
     1
100
AcDbLine
 10
-15.3562803530528
 20
317.403259
 30
0.0
 11
-15.3562803530528
 21
26.876801
 31
0.0
  0
SOLID
  5
9F3
330
9F7
100
AcDbEntity
  8
0
  6
ByBlock
 62
     0
380
     1
100
AcDbTrace
 10
-15.3562803530528
 20
319.903259
 30
0.0
 11
-15.77294701971948
 21
317.403259
 31
0.0
 12
-14.93961368638611
 22
317.403259
 32
0.0
 13
-14.93961368638611
 23
317.403259
 33
0.0
  0
SOLID
  5
9F4
330
9F7
100
AcDbEntity
  8
0
  6
ByBlock
 62
     0
380
     1
100
AcDbTrace
 10
-15.3562803530528
 20
24.376801
 30
0.0
 11
-15.77294701971948
 21
26.876801
 31
0.0
 12
-14.93961368638611
 22
26.876801
 32
0.0
 13
-14.93961368638611
 23
26.876801
 33
0.0
  0
MTEXT
  5
9F5
330
9F7
100
AcDbEntity
  8
0
  6
ByBlock
 62
     0
370
    -2
380
     1
100
AcDbMText
 10
-17.2312803530528
 20
172.14003
 30
0.0
 40
2.5
 41
0.0
 71
     5
 72
     1
  1
\A1;295.53
 11
6.123031769111886E-17
 21
1.0
 31
0.0
 73
     1
 44
1.0
  0
ENDBLK
  5
B83
330
9F7
100
AcDbEntity
  8
0
100
AcDbBlockEnd
  0
BLOCK
  5
B84
330
A02
100
AcDbEntity
  8
0
100
AcDbBlockBegin
  2
*D7
 70
     1
 10
0.0
 20
0.0
 30
0.0
  3
*D7
  1

  0
POINT
  5
9F9
330
A02
100
AcDbEntity
  8
DEFPOINTS
  6
ByBlock
 62
     7
380
     1
100
AcDbPoint
 10
203.6521813455564
 20
438.281525
 30
0.0
  0
POINT
  5
9FA
330
A02
100
AcDbEntity
  8
DEFPOINTS
  6
ByBlock
 62
     7
380
     1
100
AcDbPoint
 10
204.7215374094812
 20
356.9608374448494
 30
0.0
  0
LINE
  5
9FB
330
A02
100
AcDbEntity
  8
0
  6
ByBlock
 62
     7
370
    -2
380
     1
100
AcDbLine
 10
203.0271813455564
 20
438.281525
 30
0.0
 11
-16.60628035305282
 21
438.281525
 31
0.0
  0
LINE
  5
9FC
330
A02
100
AcDbEntity
  8
0
  6
ByBlock
 62
     7
370
    -2
380
     1
100
AcDbLine
 10
204.0965374094812
 20
356.9608374448494
 30
0.0
 11
-16.60628035305282
 21
356.9608374448494
 31
0.0
  0
LINE
  5
9FD
330
A02
100
AcDbEntity
  8
0
  6
ByBlock
 62
     7
370
    -2
380
     1
100
AcDbLine
 10
-15.35628035305282
 20
428.281525
 30
0.0
 11
-15.35628035305282
 21
366.9608374448494
 31
0.0
  0
SOLID
  5
9FE
330
A02
100
AcDbEntity
  8
0
  6
ByBlock
 62
     7
380
     1
100
AcDbTrace
 10
-15.35628035305282
 20
438.281525
 30
0.0
 11
-17.02294701971948
 21
428.281525
 31
0.0
 12
-13.68961368638617
 22
428.281525
 32
0.0
 13
-13.68961368638617
 23
428.281525
 33
0.0
  0
SOLID
  5
9FF
330
A02
100
AcDbEntity
  8
0
  6
ByBlock
 62
     7
380
     1
100
AcDbTrace
 10
-15.35628035305282
 20
356.9608374448494
 30
0.0
 11
-17.02294701971948
 21
366.9608374448494
 31
0.0
 12
-13.68961368638617
 22
366.9608374448494
 32
0.0
 13
-13.68961368638617
 23
366.9608374448494
 33
0.0
  0
MTEXT
  5
A00
330
A02
100
AcDbEntity
  8
0
  6
ByBlock
 62
     0
370
    -2
380
     1
100
AcDbMText
 10
-27.35628035305282
 20
397.6211812224247
 30
0.0
 40
14.0
 41
0.0
 71
     5
 72
     1
  1
81
 11
6.123031769111886E-17
 21
1.0
 31
0.0
 73
     1
 44
1.0
  0
ENDBLK
  5
B85
330
A02
100
AcDbEntity
  8
0
100
AcDbBlockEnd
  0
BLOCK
  5
B86
330
A0E
100
AcDbEntity
  8
0
100
AcDbBlockBegin
  2
*D8
 70
     1
 10
0.0
 20
0.0
 30
0.0
  3
*D8
  1

  0
POINT
  5
A04
330
A0E
100
AcDbEntity
  8
DEFPOINTS
  6
ByBlock
 62
     0
380
     1
100
AcDbPoint
 10
256.093231
 20
319.903259
 30
0.0
  0
POINT
  5
A05
330
A0E
100
AcDbEntity
  8
DEFPOINTS
  6
ByBlock
 62
     0
380
     1
100
AcDbPoint
 10
276.008209
 20
24.376801
 30
0.0
  0
LINE
  5
A06
330
A0E
100
AcDbEntity
  8
0
  6
ByBlock
 62
     0
370
    -2
380
     1
100
AcDbLine
 10
255.468231
 20
319.903259
 30
0.0
 11
-16.6062803530528
 21
319.903259
 31
0.0
  0
LINE
  5
A07
330
A0E
100
AcDbEntity
  8
0
  6
ByBlock
 62
     0
370
    -2
380
     1
100
AcDbLine
 10
275.383209
 20
24.376801
 30
0.0
 11
-16.6062803530528
 21
24.376801
 31
0.0
  0
LINE
  5
A08
330
A0E
100
AcDbEntity
  8
0
  6
ByBlock
 62
     0
370
    -2
380
     1
100
AcDbLine
 10
-15.3562803530528
 20
319.903259
 30
0.0
 11
-15.3562803530528
 21
24.376801
 31
0.0
  0
SOLID
  5
A09
330
A0E
100
AcDbEntity
  8
0
  6
ByBlock
 62
     0
380
     1
100
AcDbTrace
 10
-15.3562803530528
 20
319.903259
 30
0.0
 11
-15.77294701971948
 21
317.403259
 31
0.0
 12
-14.93961368638611
 22
317.403259
 32
0.0
 13
-14.93961368638611
 23
317.403259
 33
0.0
  0
SOLID
  5
A0A
330
A0E
100
AcDbEntity
  8
0
  6
ByBlock
 62
     0
380
     1
100
AcDbTrace
 10
-15.3562803530528
 20
24.376801
 30
0.0
 11
-15.77294701971948
 21
26.876801
 31
0.0
 12
-14.93961368638611
 22
26.876801
 32
0.0
 13
-14.93961368638611
 23
26.876801
 33
0.0
  0
LINE
  5
A0B
330
A0E
100
AcDbEntity
  8
0
  6
ByBlock
 62
     0
370
    -2
380
     1
100
AcDbLine
 10
256.093231
 20
319.903259
 30
0.0
 11
256.093231
 21
319.903259
 31
0.0
  0
MTEXT
  5
A0C
330
A0E
100
AcDbEntity
  8
0
  6
ByBlock
 62
     0
370
    -2
380
     1
100
AcDbMText
 10
-17.2312803530528
 20
172.14003
 30
0.0
 40
2.5
 41
0.0
 71
     5
 72
     1
  1
\A1;295.53
 11
6.123031769111886E-17
 21
1.0
 31
0.0
 73
     1
 44
1.0
  0
ENDBLK
  5
B87
330
A0E
100
AcDbEntity
  8
0
100
AcDbBlockEnd
  0
BLOCK
  5
B88
330
A1A
100
AcDbEntity
  8
0
100
AcDbBlockBegin
  2
*D9
 70
     1
 10
0.0
 20
0.0
 30
0.0
  3
*D9
  1

  0
POINT
  5
A10
330
A1A
100
AcDbEntity
  8
DEFPOINTS
  6
ByBlock
 62
     7
380
     1
100
AcDbPoint
 10
256.093231
 20
319.903259
 30
0.0
  0
POINT
  5
A11
330
A1A
100
AcDbEntity
  8
DEFPOINTS
  6
ByBlock
 62
     7
380
     1
100
AcDbPoint
 10
276.008209
 20
24.376801
 30
0.0
  0
LINE
  5
A12
330
A1A
100
AcDbEntity
  8
0
  6
ByBlock
 62
     7
370
    -2
380
     1
100
AcDbLine
 10
255.468231
 20
319.903259
 30
0.0
 11
-16.6062803530528
 21
319.903259
 31
0.0
  0
LINE
  5
A13
330
A1A
100
AcDbEntity
  8
0
  6
ByBlock
 62
     7
370
    -2
380
     1
100
AcDbLine
 10
275.383209
 20
24.376801
 30
0.0
 11
-16.6062803530528
 21
24.376801
 31
0.0
  0
LINE
  5
A14
330
A1A
100
AcDbEntity
  8
0
  6
ByBlock
 62
     7
370
    -2
380
     1
100
AcDbLine
 10
-15.3562803530528
 20
319.903259
 30
0.0
 11
-15.3562803530528
 21
24.376801
 31
0.0
  0
SOLID
  5
A15
330
A1A
100
AcDbEntity
  8
0
  6
ByBlock
 62
     7
380
     1
100
AcDbTrace
 10
-15.3562803530528
 20
319.903259
 30
0.0
 11
-17.02294701971948
 21
309.903259
 31
0.0
 12
-13.68961368638611
 22
309.903259
 32
0.0
 13
-13.68961368638611
 23
309.903259
 33
0.0
  0
SOLID
  5
A16
330
A1A
100
AcDbEntity
  8
0
  6
ByBlock
 62
     7
380
     1
100
AcDbTrace
 10
-15.3562803530528
 20
24.376801
 30
0.0
 11
-17.02294701971948
 21
34.376801
 31
0.0
 12
-13.68961368638611
 22
34.376801
 32
0.0
 13
-13.68961368638611
 23
34.376801
 33
0.0
  0
LINE
  5
A17
330
A1A
100
AcDbEntity
  8
0
  6
ByBlock
 62
     7
370
    -2
380
     1
100
AcDbLine
 10
256.093231
 20
319.903259
 30
0.0
 11
256.093231
 21
319.903259
 31
0.0
  0
MTEXT
  5
A18
330
A1A
100
AcDbEntity
  8
0
  6
ByBlock
 62
     0
370
    -2
380
     1
100
AcDbMText
 10
-17.2312803530528
 20
172.14003
 30
0.0
 40
14.0
 41
0.0
 71
     5
 72
     1
  1
\A1;295.53
 11
6.123031769111886E-17
 21
1.0
 31
0.0
 73
     1
 44
1.0
  0
ENDBLK
  5
B89
330
A1A
100
AcDbEntity
  8
0
100
AcDbBlockEnd
  0
BLOCK
  5
B8A
330
A25
100
AcDbEntity
  8
0
100
AcDbBlockBegin
  2
*D10
 70
     1
 10
0.0
 20
0.0
 30
0.0
  3
*D10
  1

  0
POINT
  5
A1C
330
A25
100
AcDbEntity
  8
DEFPOINTS
  6
ByBlock
 62
     7
380
     1
100
AcDbPoint
 10
256.093231
 20
319.903259
 30
0.0
  0
POINT
  5
A1D
330
A25
100
AcDbEntity
  8
DEFPOINTS
  6
ByBlock
 62
     7
380
     1
100
AcDbPoint
 10
276.008209
 20
24.376801
 30
0.0
  0
LINE
  5
A1E
330
A25
100
AcDbEntity
  8
0
  6
ByBlock
 62
     7
370
    -2
380
     1
100
AcDbLine
 10
255.468231
 20
319.903259
 30
0.0
 11
-16.6062803530528
 21
319.903259
 31
0.0
  0
LINE
  5
A1F
330
A25
100
AcDbEntity
  8
0
  6
ByBlock
 62
     7
370
    -2
380
     1
100
AcDbLine
 10
275.383209
 20
24.376801
 30
0.0
 11
-16.6062803530528
 21
24.376801
 31
0.0
  0
LINE
  5
A20
330
A25
100
AcDbEntity
  8
0
  6
ByBlock
 62
     7
370
    -2
380
     1
100
AcDbLine
 10
-15.3562803530528
 20
309.903259
 30
0.0
 11
-15.3562803530528
 21
34.376801
 31
0.0
  0
SOLID
  5
A21
330
A25
100
AcDbEntity
  8
0
  6
ByBlock
 62
     7
380
     1
100
AcDbTrace
 10
-15.3562803530528
 20
319.903259
 30
0.0
 11
-17.02294701971948
 21
309.903259
 31
0.0
 12
-13.68961368638611
 22
309.903259
 32
0.0
 13
-13.68961368638611
 23
309.903259
 33
0.0
  0
SOLID
  5
A22
330
A25
100
AcDbEntity
  8
0
  6
ByBlock
 62
     7
380
     1
100
AcDbTrace
 10
-15.3562803530528
 20
24.376801
 30
0.0
 11
-17.02294701971948
 21
34.376801
 31
0.0
 12
-13.68961368638611
 22
34.376801
 32
0.0
 13
-13.68961368638611
 23
34.376801
 33
0.0
  0
MTEXT
  5
A23
330
A25
100
AcDbEntity
  8
0
  6
ByBlock
 62
     0
370
    -2
380
     1
100
AcDbMText
 10
-27.3562803530528
 20
172.14003
 30
0.0
 40
14.0
 41
0.0
 71
     5
 72
     1
  1
\A1;295.53
 11
6.123031769111886E-17
 21
1.0
 31
0.0
 73
     1
 44
1.0
  0
ENDBLK
  5
B8B
330
A25
100
AcDbEntity
  8
0
100
AcDbBlockEnd
  0
BLOCK
  5
B8C
330
A30
100
AcDbEntity
  8
0
100
AcDbBlockBegin
  2
*D11
 70
     1
 10
0.0
 20
0.0
 30
0.0
  3
*D11
  1

  0
POINT
  5
A27
330
A30
100
AcDbEntity
  8
DEFPOINTS
  6
ByBlock
 62
     7
380
     1
100
AcDbPoint
 10
256.093231
 20
319.903259
 30
0.0
  0
POINT
  5
A28
330
A30
100
AcDbEntity
  8
DEFPOINTS
  6
ByBlock
 62
     7
380
     1
100
AcDbPoint
 10
276.008209
 20
24.376801
 30
0.0
  0
LINE
  5
A29
330
A30
100
AcDbEntity
  8
0
  6
ByBlock
 62
     7
370
    -2
380
     1
100
AcDbLine
 10
255.468231
 20
319.903259
 30
0.0
 11
-16.6062803530528
 21
319.903259
 31
0.0
  0
LINE
  5
A2A
330
A30
100
AcDbEntity
  8
0
  6
ByBlock
 62
     7
370
    -2
380
     1
100
AcDbLine
 10
275.383209
 20
24.376801
 30
0.0
 11
-16.6062803530528
 21
24.376801
 31
0.0
  0
LINE
  5
A2B
330
A30
100
AcDbEntity
  8
0
  6
ByBlock
 62
     7
370
    -2
380
     1
100
AcDbLine
 10
-15.3562803530528
 20
309.903259
 30
0.0
 11
-15.3562803530528
 21
34.376801
 31
0.0
  0
SOLID
  5
A2C
330
A30
100
AcDbEntity
  8
0
  6
ByBlock
 62
     7
380
     1
100
AcDbTrace
 10
-15.3562803530528
 20
319.903259
 30
0.0
 11
-17.02294701971948
 21
309.903259
 31
0.0
 12
-13.68961368638611
 22
309.903259
 32
0.0
 13
-13.68961368638611
 23
309.903259
 33
0.0
  0
SOLID
  5
A2D
330
A30
100
AcDbEntity
  8
0
  6
ByBlock
 62
     7
380
     1
100
AcDbTrace
 10
-15.3562803530528
 20
24.376801
 30
0.0
 11
-17.02294701971948
 21
34.376801
 31
0.0
 12
-13.68961368638611
 22
34.376801
 32
0.0
 13
-13.68961368638611
 23
34.376801
 33
0.0
  0
MTEXT
  5
A2E
330
A30
100
AcDbEntity
  8
0
  6
ByBlock
 62
     0
370
    -2
380
     1
100
AcDbMText
 10
-27.3562803530528
 20
172.14003
 30
0.0
 40
14.0
 41
0.0
 71
     5
 72
     1
  1
296
 11
6.123031769111886E-17
 21
1.0
 31
0.0
 73
     1
 44
1.0
  0
ENDBLK
  5
B8D
330
A30
100
AcDbEntity
  8
0
100
AcDbBlockEnd
  0
BLOCK
  5
B8E
330
ACF
100
AcDbEntity
  8
0
100
AcDbBlockBegin
  2
*D12
 70
     1
 10
0.0
 20
0.0
 30
0.0
  3
*D12
  1

  0
POINT
  5
AC6
330
ACF
100
AcDbEntity
  8
DEFPOINTS
  6
ByBlock
 62
     0
380
     1
100
AcDbPoint
 10
201.7251579216614
 20
438.281525
 30
0.0
  0
POINT
  5
AC7
330
ACF
100
AcDbEntity
  8
DEFPOINTS
  6
ByBlock
 62
     0
380
     1
100
AcDbPoint
 10
204.4564203618991
 20
357.1091733318463
 30
0.0
  0
LINE
  5
AC8
330
ACF
100
AcDbEntity
  8
0
  6
ByBlock
 62
     0
370
    -2
380
     1
100
AcDbLine
 10
201.1001579216614
 20
438.281525
 30
0.0
 11
-71.74617532171101
 21
438.281525
 31
0.0
  0
LINE
  5
AC9
330
ACF
100
AcDbEntity
  8
0
  6
ByBlock
 62
     0
370
    -2
380
     1
100
AcDbLine
 10
203.8314203618991
 20
357.1091733318463
 30
0.0
 11
-71.74617532171101
 21
357.1091733318463
 31
0.0
  0
LINE
  5
ACA
330
ACF
100
AcDbEntity
  8
0
  6
ByBlock
 62
     0
370
    -2
380
     1
100
AcDbLine
 10
-70.49617532171101
 20
435.781525
 30
0.0
 11
-70.49617532171101
 21
359.6091733318463
 31
0.0
  0
SOLID
  5
ACB
330
ACF
100
AcDbEntity
  8
0
  6
ByBlock
 62
     0
380
     1
100
AcDbTrace
 10
-70.49617532171101
 20
438.281525
 30
0.0
 11
-70.91284198837769
 21
435.781525
 31
0.0
 12
-70.07950865504432
 22
435.781525
 32
0.0
 13
-70.07950865504432
 23
435.781525
 33
0.0
  0
SOLID
  5
ACC
330
ACF
100
AcDbEntity
  8
0
  6
ByBlock
 62
     0
380
     1
100
AcDbTrace
 10
-70.49617532171101
 20
357.1091733318463
 30
0.0
 11
-70.91284198837769
 21
359.6091733318463
 31
0.0
 12
-70.07950865504432
 22
359.6091733318463
 32
0.0
 13
-70.07950865504432
 23
359.6091733318463
 33
0.0
  0
MTEXT
  5
ACD
330
ACF
100
AcDbEntity
  8
0
  6
ByBlock
 62
     0
370
    -2
380
     1
100
AcDbMText
 10
-72.37117532171101
 20
397.6953491659232
 30
0.0
 40
2.5
 41
0.0
 71
     5
 72
     1
  1
\A1;81.17
 11
6.123031769111886E-17
 21
1.0
 31
0.0
 73
     1
 44
1.0
  0
ENDBLK
  5
B8F
330
ACF
100
AcDbEntity
  8
0
100
AcDbBlockEnd
  0
BLOCK
  5
B90
330
AF3
100
AcDbEntity
  8
0
100
AcDbBlockBegin
  2
*D13
 70
     1
 10
0.0
 20
0.0
 30
0.0
  3
*D13
  1

  0
POINT
  5
AE9
330
AF3
100
AcDbEntity
  8
DEFPOINTS
  6
ByBlock
 62
     0
380
     1
100
AcDbPoint
 10
256.5846570370283
 20
438.0869877690944
 30
0.0
  0
POINT
  5
AEA
330
AF3
100
AcDbEntity
  8
DEFPOINTS
  6
ByBlock
 62
     0
380
     1
100
AcDbPoint
 10
259.315919477266
 20
356.9146361009408
 30
0.0
  0
LINE
  5
AEB
330
AF3
100
AcDbEntity
  8
0
  6
ByBlock
 62
     0
370
    -2
380
     1
100
AcDbLine
 10
255.9596570370283
 20
438.0869877690944
 30
0.0
 11
-16.88667620634408
 21
438.0869877690944
 31
0.0
  0
LINE
  5
AEC
330
AF3
100
AcDbEntity
  8
0
  6
ByBlock
 62
     0
370
    -2
380
     1
100
AcDbLine
 10
258.690919477266
 20
356.9146361009408
 30
0.0
 11
-16.88667620634408
 21
356.9146361009408
 31
0.0
  0
LINE
  5
AED
330
AF3
100
AcDbEntity
  8
0
  6
ByBlock
 62
     0
370
    -2
380
     1
100
AcDbLine
 10
-15.63667620634408
 20
438.0869877690944
 30
0.0
 11
-15.63667620634408
 21
356.9146361009408
 31
0.0
  0
SOLID
  5
AEE
330
AF3
100
AcDbEntity
  8
0
  6
ByBlock
 62
     0
380
     1
100
AcDbTrace
 10
-15.63667620634408
 20
438.0869877690944
 30
0.0
 11
-16.05334287301076
 21
435.5869877690944
 31
0.0
 12
-15.22000953967739
 22
435.5869877690944
 32
0.0
 13
-15.22000953967739
 23
435.5869877690944
 33
0.0
  0
SOLID
  5
AEF
330
AF3
100
AcDbEntity
  8
0
  6
ByBlock
 62
     0
380
     1
100
AcDbTrace
 10
-15.63667620634408
 20
356.9146361009408
 30
0.0
 11
-16.05334287301076
 21
359.4146361009408
 31
0.0
 12
-15.22000953967739
 22
359.4146361009408
 32
0.0
 13
-15.22000953967739
 23
359.4146361009408
 33
0.0
  0
LINE
  5
AF0
330
AF3
100
AcDbEntity
  8
0
  6
ByBlock
 62
     0
370
    -2
380
     1
100
AcDbLine
 10
256.5846570370283
 20
438.0869877690944
 30
0.0
 11
256.5846570370283
 21
438.0869877690944
 31
0.0
  0
MTEXT
  5
AF1
330
AF3
100
AcDbEntity
  8
0
  6
ByBlock
 62
     0
370
    -2
380
     1
100
AcDbMText
 10
-17.51167620634408
 20
397.5008119350176
 30
0.0
 40
2.5
 41
0.0
 71
     5
 72
     1
  1
\A1;81.17
 11
6.123031769111886E-17
 21
1.0
 31
0.0
 73
     1
 44
1.0
  0
ENDBLK
  5
B91
330
AF3
100
AcDbEntity
  8
0
100
AcDbBlockEnd
  0
BLOCK
  5
B92
330
AFF
100
AcDbEntity
  8
0
100
AcDbBlockBegin
  2
*D14
 70
     1
 10
0.0
 20
0.0
 30
0.0
  3
*D14
  1

  0
POINT
  5
AF5
330
AFF
100
AcDbEntity
  8
DEFPOINTS
  6
ByBlock
 62
     0
380
     1
100
AcDbPoint
 10
255.9516615699522
 20
437.7704900355563
 30
0.0
  0
POINT
  5
AF6
330
AFF
100
AcDbEntity
  8
DEFPOINTS
  6
ByBlock
 62
     0
380
     1
100
AcDbPoint
 10
258.6829240101899
 20
356.5981383674027
 30
0.0
  0
LINE
  5
AF7
330
AFF
100
AcDbEntity
  8
0
  6
ByBlock
 62
     0
370
    -2
380
     1
100
AcDbLine
 10
255.3266615699522
 20
437.7704900355563
 30
0.0
 11
-17.51967167342016
 21
437.7704900355563
 31
0.0
  0
LINE
  5
AF8
330
AFF
100
AcDbEntity
  8
0
  6
ByBlock
 62
     0
370
    -2
380
     1
100
AcDbLine
 10
258.0579240101899
 20
356.5981383674027
 30
0.0
 11
-17.51967167342016
 21
356.5981383674027
 31
0.0
  0
LINE
  5
AF9
330
AFF
100
AcDbEntity
  8
0
  6
ByBlock
 62
     0
370
    -2
380
     1
100
AcDbLine
 10
-16.26967167342016
 20
437.7704900355563
 30
0.0
 11
-16.26967167342016
 21
356.5981383674027
 31
0.0
  0
SOLID
  5
AFA
330
AFF
100
AcDbEntity
  8
0
  6
ByBlock
 62
     0
380
     1
100
AcDbTrace
 10
-16.26967167342016
 20
437.7704900355563
 30
0.0
 11
-16.68633834008685
 21
435.2704900355563
 31
0.0
 12
-15.85300500675348
 22
435.2704900355563
 32
0.0
 13
-15.85300500675348
 23
435.2704900355563
 33
0.0
  0
SOLID
  5
AFB
330
AFF
100
AcDbEntity
  8
0
  6
ByBlock
 62
     0
380
     1
100
AcDbTrace
 10
-16.26967167342016
 20
356.5981383674027
 30
0.0
 11
-16.68633834008685
 21
359.0981383674027
 31
0.0
 12
-15.85300500675348
 22
359.0981383674027
 32
0.0
 13
-15.85300500675348
 23
359.0981383674027
 33
0.0
  0
LINE
  5
AFC
330
AFF
100
AcDbEntity
  8
0
  6
ByBlock
 62
     0
370
    -2
380
     1
100
AcDbLine
 10
255.9516615699522
 20
437.7704900355563
 30
0.0
 11
255.9516615699522
 21
437.7704900355563
 31
0.0
  0
MTEXT
  5
AFD
330
AFF
100
AcDbEntity
  8
0
  6
ByBlock
 62
     0
370
    -2
380
     1
100
AcDbMText
 10
-18.14467167342016
 20
397.1843142014795
 30
0.0
 40
2.5
 41
0.0
 71
     5
 72
     1
  1
\A1;81.17
 11
6.123031769111886E-17
 21
1.0
 31
0.0
 73
     1
 44
1.0
  0
ENDBLK
  5
B93
330
AFF
100
AcDbEntity
  8
0
100
AcDbBlockEnd
  0
BLOCK
  5
B94
330
B0C
100
AcDbEntity
  8
0
100
AcDbBlockBegin
  2
*D15
 70
     1
 10
0.0
 20
0.0
 30
0.0
  3
*D15
  1

  0
POINT
  5
B01
330
B0C
100
AcDbEntity
  8
DEFPOINTS
  6
ByBlock
 62
     0
380
     1
100
AcDbPoint
 10
255.9516615699522
 20
437.7704900355563
 30
0.0
  0
POINT
  5
B02
330
B0C
100
AcDbEntity
  8
DEFPOINTS
  6
ByBlock
 62
     0
380
     1
100
AcDbPoint
 10
258.6829240101899
 20
356.5981383674027
 30
0.0
  0
LINE
  5
B03
330
B0C
100
AcDbEntity
  8
0
  6
ByBlock
 62
     0
370
    -2
380
     1
100
AcDbLine
 10
255.3266615699522
 20
437.7704900355563
 30
0.0
 11
-17.51967167342016
 21
437.7704900355563
 31
0.0
  0
LINE
  5
B04
330
B0C
100
AcDbEntity
  8
0
  6
ByBlock
 62
     0
370
    -2
380
     1
100
AcDbLine
 10
258.0579240101899
 20
356.5981383674027
 30
0.0
 11
-17.51967167342016
 21
356.5981383674027
 31
0.0
  0
LINE
  5
B05
330
B0C
100
AcDbEntity
  8
0
  6
ByBlock
 62
     0
370
    -2
380
     1
100
AcDbLine
 10
-16.26967167342016
 20
447.7704900355563
 30
0.0
 11
-16.26967167342016
 21
457.7704900355563
 31
0.0
  0
LINE
  5
B06
330
B0C
100
AcDbEntity
  8
0
  6
ByBlock
 62
     0
370
    -2
380
     1
100
AcDbLine
 10
-16.26967167342016
 20
346.5981383674027
 30
0.0
 11
-16.26967167342016
 21
336.5981383674027
 31
0.0
  0
SOLID
  5
B07
330
B0C
100
AcDbEntity
  8
0
  6
ByBlock
 62
     0
380
     1
100
AcDbTrace
 10
-16.26967167342016
 20
437.7704900355563
 30
0.0
 11
-17.93633834008685
 21
447.7704900355563
 31
0.0
 12
-14.60300500675348
 22
447.7704900355563
 32
0.0
 13
-14.60300500675348
 23
447.7704900355563
 33
0.0
  0
SOLID
  5
B08
330
B0C
100
AcDbEntity
  8
0
  6
ByBlock
 62
     0
380
     1
100
AcDbTrace
 10
-16.26967167342016
 20
356.5981383674027
 30
0.0
 11
-17.93633834008685
 21
346.5981383674027
 31
0.0
 12
-14.60300500675348
 22
346.5981383674027
 32
0.0
 13
-14.60300500675348
 23
346.5981383674027
 33
0.0
  0
LINE
  5
B09
330
B0C
100
AcDbEntity
  8
0
  6
ByBlock
 62
     0
370
    -2
380
     1
100
AcDbLine
 10
-16.26967167342016
 20
437.7704900355563
 30
0.0
 11
-16.26967167342016
 21
356.5981383674027
 31
0.0
  0
MTEXT
  5
B0A
330
B0C
100
AcDbEntity
  8
0
  6
ByBlock
 62
     0
370
    -2
380
     1
100
AcDbMText
 10
-44.26967167342016
 20
397.1843142014795
 30
0.0
 40
36.0
 41
0.0
 71
     5
 72
     1
  1
\A1;81
 11
6.123031769111886E-17
 21
1.0
 31
0.0
 73
     1
 44
1.0
  0
ENDBLK
  5
B95
330
B0C
100
AcDbEntity
  8
0
100
AcDbBlockEnd
  0
BLOCK
  5
B96
330
B18
100
AcDbEntity
  8
0
100
AcDbBlockBegin
  2
*D16
 70
     1
 10
0.0
 20
0.0
 30
0.0
  3
*D16
  1

  0
POINT
  5
B0F
330
B18
100
AcDbEntity
  8
DEFPOINTS
  6
ByBlock
 62
     0
380
     1
100
AcDbPoint
 10
258.622223
 20
319.902527
 30
0.0
  0
POINT
  5
B10
330
B18
100
AcDbEntity
  8
DEFPOINTS
  6
ByBlock
 62
     0
380
     1
100
AcDbPoint
 10
258.63611583609
 20
24.24882249074774
 30
0.0
  0
LINE
  5
B11
330
B18
100
AcDbEntity
  8
0
  6
ByBlock
 62
     0
370
    -2
380
     1
100
AcDbLine
 10
257.997223
 20
319.902527
 30
0.0
 11
-16.73967083140087
 21
319.902527
 31
0.0
  0
LINE
  5
B12
330
B18
100
AcDbEntity
  8
0
  6
ByBlock
 62
     0
370
    -2
380
     1
100
AcDbLine
 10
258.01111583609
 20
24.24882249074773
 30
0.0
 11
-16.73967083140087
 21
24.24882249074773
 31
0.0
  0
LINE
  5
B13
330
B18
100
AcDbEntity
  8
0
  6
ByBlock
 62
     0
370
    -2
380
     1
100
AcDbLine
 10
-15.48967083140087
 20
317.402527
 30
0.0
 11
-15.48967083140087
 21
26.74882249074773
 31
0.0
  0
SOLID
  5
B14
330
B18
100
AcDbEntity
  8
0
  6
ByBlock
 62
     0
380
     1
100
AcDbTrace
 10
-15.48967083140087
 20
319.902527
 30
0.0
 11
-15.90633749806756
 21
317.402527
 31
0.0
 12
-15.07300416473419
 22
317.402527
 32
0.0
 13
-15.07300416473419
 23
317.402527
 33
0.0
  0
SOLID
  5
B15
330
B18
100
AcDbEntity
  8
0
  6
ByBlock
 62
     0
380
     1
100
AcDbTrace
 10
-15.48967083140087
 20
24.24882249074773
 30
0.0
 11
-15.90633749806756
 21
26.74882249074773
 31
0.0
 12
-15.07300416473419
 22
26.74882249074773
 32
0.0
 13
-15.07300416473419
 23
26.74882249074773
 33
0.0
  0
MTEXT
  5
B16
330
B18
100
AcDbEntity
  8
0
  6
ByBlock
 62
     0
370
    -2
380
     1
100
AcDbMText
 10
-17.36467083140087
 20
172.0756747453739
 30
0.0
 40
2.5
 41
0.0
 71
     5
 72
     1
  1
\A1;295.65
 11
6.123031769111886E-17
 21
1.0
 31
0.0
 73
     1
 44
1.0
  0
ENDBLK
  5
B97
330
B18
100
AcDbEntity
  8
0
100
AcDbBlockEnd
  0
BLOCK
  5
B98
330
B23
100
AcDbEntity
  8
0
100
AcDbBlockBegin
  2
*D17
 70
     1
 10
0.0
 20
0.0
 30
0.0
  3
*D17
  1

  0
POINT
  5
B1A
330
B23
100
AcDbEntity
  8
DEFPOINTS
  6
ByBlock
 62
     0
380
     1
100
AcDbPoint
 10
258.622223
 20
319.902527
 30
0.0
  0
POINT
  5
B1B
330
B23
100
AcDbEntity
  8
DEFPOINTS
  6
ByBlock
 62
     0
380
     1
100
AcDbPoint
 10
258.63611583609
 20
24.24882249074774
 30
0.0
  0
LINE
  5
B1C
330
B23
100
AcDbEntity
  8
0
  6
ByBlock
 62
     0
370
    -2
380
     1
100
AcDbLine
 10
257.997223
 20
319.902527
 30
0.0
 11
-16.73967083140087
 21
319.902527
 31
0.0
  0
LINE
  5
B1D
330
B23
100
AcDbEntity
  8
0
  6
ByBlock
 62
     0
370
    -2
380
     1
100
AcDbLine
 10
258.01111583609
 20
24.24882249074773
 30
0.0
 11
-16.73967083140087
 21
24.24882249074773
 31
0.0
  0
LINE
  5
B1E
330
B23
100
AcDbEntity
  8
0
  6
ByBlock
 62
     0
370
    -2
380
     1
100
AcDbLine
 10
-15.48967083140087
 20
309.902527
 30
0.0
 11
-15.48967083140087
 21
34.24882249074773
 31
0.0
  0
SOLID
  5
B1F
330
B23
100
AcDbEntity
  8
0
  6
ByBlock
 62
     0
380
     1
100
AcDbTrace
 10
-15.48967083140087
 20
319.902527
 30
0.0
 11
-17.15633749806756
 21
309.902527
 31
0.0
 12
-13.82300416473419
 22
309.902527
 32
0.0
 13
-13.82300416473419
 23
309.902527
 33
0.0
  0
SOLID
  5
B20
330
B23
100
AcDbEntity
  8
0
  6
ByBlock
 62
     0
380
     1
100
AcDbTrace
 10
-15.48967083140087
 20
24.24882249074773
 30
0.0
 11
-17.15633749806756
 21
34.24882249074773
 31
0.0
 12
-13.82300416473419
 22
34.24882249074773
 32
0.0
 13
-13.82300416473419
 23
34.24882249074773
 33
0.0
  0
MTEXT
  5
B21
330
B23
100
AcDbEntity
  8
0
  6
ByBlock
 62
     0
370
    -2
380
     1
100
AcDbMText
 10
-43.48967083140087
 20
172.0756747453739
 30
0.0
 40
36.0
 41
0.0
 71
     5
 72
     1
  1
\A1;296
 11
6.123031769111886E-17
 21
1.0
 31
0.0
 73
     1
 44
1.0
  0
ENDBLK
  5
B99
330
B23
100
AcDbEntity
  8
0
100
AcDbBlockEnd
  0
BLOCK
  5
B9A
330
B2F
100
AcDbEntity
  8
0
100
AcDbBlockBegin
  2
*D18
 70
     1
 10
0.0
 20
0.0
 30
0.0
  3
*D18
  1

  0
POINT
  5
B26
330
B2F
100
AcDbEntity
  8
DEFPOINTS
  6
ByBlock
 62
     0
380
     1
100
AcDbPoint
 10
258.6127447683292
 20
319.9001574420823
 30
0.0
  0
POINT
  5
B27
330
B2F
100
AcDbEntity
  8
DEFPOINTS
  6
ByBlock
 62
     0
380
     1
100
AcDbPoint
 10
258.6266376044191
 20
24.24645293283002
 30
0.0
  0
LINE
  5
B28
330
B2F
100
AcDbEntity
  8
0
  6
ByBlock
 62
     0
370
    -2
380
     1
100
AcDbLine
 10
257.9877447683292
 20
319.9001574420823
 30
0.0
 11
-16.74914906307174
 21
319.9001574420823
 31
0.0
  0
LINE
  5
B29
330
B2F
100
AcDbEntity
  8
0
  6
ByBlock
 62
     0
370
    -2
380
     1
100
AcDbLine
 10
258.0016376044191
 20
24.24645293283004
 30
0.0
 11
-16.74914906307174
 21
24.24645293283004
 31
0.0
  0
LINE
  5
B2A
330
B2F
100
AcDbEntity
  8
0
  6
ByBlock
 62
     0
370
    -2
380
     1
100
AcDbLine
 10
-15.49914906307174
 20
309.9001574420823
 30
0.0
 11
-15.49914906307174
 21
34.24645293283004
 31
0.0
  0
SOLID
  5
B2B
330
B2F
100
AcDbEntity
  8
0
  6
ByBlock
 62
     0
380
     1
100
AcDbTrace
 10
-15.49914906307174
 20
319.9001574420823
 30
0.0
 11
-17.16581572973843
 21
309.9001574420823
 31
0.0
 12
-13.83248239640506
 22
309.9001574420823
 32
0.0
 13
-13.83248239640506
 23
309.9001574420823
 33
0.0
  0
SOLID
  5
B2C
330
B2F
100
AcDbEntity
  8
0
  6
ByBlock
 62
     0
380
     1
100
AcDbTrace
 10
-15.49914906307174
 20
24.24645293283004
 30
0.0
 11
-17.16581572973843
 21
34.24645293283004
 31
0.0
 12
-13.83248239640506
 22
34.24645293283004
 32
0.0
 13
-13.83248239640506
 23
34.24645293283004
 33
0.0
  0
MTEXT
  5
B2D
330
B2F
100
AcDbEntity
  8
0
  6
ByBlock
 62
     0
370
    -2
380
     1
100
AcDbMText
 10
-43.49914906307174
 20
172.0733051874562
 30
0.0
 40
36.0
 41
0.0
 71
     5
 72
     1
  1
\A1;296
 11
6.123031769111886E-17
 21
1.0
 31
0.0
 73
     1
 44
1.0
  0
ENDBLK
  5
B9B
330
B2F
100
AcDbEntity
  8
0
100
AcDbBlockEnd
  0
BLOCK
  5
B9C
330
B3A
100
AcDbEntity
  8
0
100
AcDbBlockBegin
  2
*D19
 70
     1
 10
0.0
 20
0.0
 30
0.0
  3
*D19
  1

  0
POINT
  5
B31
330
B3A
100
AcDbEntity
  8
DEFPOINTS
  6
ByBlock
 62
     0
380
     1
100
AcDbPoint
 10
258.2811715560337
 20
319.9001574420823
 30
0.0
  0
POINT
  5
B32
330
B3A
100
AcDbEntity
  8
DEFPOINTS
  6
ByBlock
 62
     0
380
     1
100
AcDbPoint
 10
258.2950643921236
 20
24.24645293283002
 30
0.0
  0
LINE
  5
B33
330
B3A
100
AcDbEntity
  8
0
  6
ByBlock
 62
     0
370
    -2
380
     1
100
AcDbLine
 10
257.6561715560337
 20
319.9001574420823
 30
0.0
 11
-17.08072227536724
 21
319.9001574420823
 31
0.0
  0
LINE
  5
B34
330
B3A
100
AcDbEntity
  8
0
  6
ByBlock
 62
     0
370
    -2
380
     1
100
AcDbLine
 10
257.6700643921236
 20
24.24645293283004
 30
0.0
 11
-17.08072227536724
 21
24.24645293283004
 31
0.0
  0
LINE
  5
B35
330
B3A
100
AcDbEntity
  8
0
  6
ByBlock
 62
     0
370
    -2
380
     1
100
AcDbLine
 10
-15.83072227536724
 20
309.9001574420823
 30
0.0
 11
-15.83072227536724
 21
34.24645293283004
 31
0.0
  0
SOLID
  5
B36
330
B3A
100
AcDbEntity
  8
0
  6
ByBlock
 62
     0
380
     1
100
AcDbTrace
 10
-15.83072227536724
 20
319.9001574420823
 30
0.0
 11
-17.49738894203392
 21
309.9001574420823
 31
0.0
 12
-14.16405560870055
 22
309.9001574420823
 32
0.0
 13
-14.16405560870055
 23
309.9001574420823
 33
0.0
  0
SOLID
  5
B37
330
B3A
100
AcDbEntity
  8
0
  6
ByBlock
 62
     0
380
     1
100
AcDbTrace
 10
-15.83072227536724
 20
24.24645293283004
 30
0.0
 11
-17.49738894203392
 21
34.24645293283004
 31
0.0
 12
-14.16405560870055
 22
34.24645293283004
 32
0.0
 13
-14.16405560870055
 23
34.24645293283004
 33
0.0
  0
MTEXT
  5
B38
330
B3A
100
AcDbEntity
  8
0
  6
ByBlock
 62
     0
370
    -2
380
     1
100
AcDbMText
 10
-43.83072227536724
 20
172.0733051874562
 30
0.0
 40
36.0
 41
0.0
 71
     5
 72
     1
  1
\A1;296
 11
6.123031769111886E-17
 21
1.0
 31
0.0
 73
     1
 44
1.0
  0
ENDBLK
  5
B9D
330
B3A
100
AcDbEntity
  8
0
100
AcDbBlockEnd
  0
BLOCK
  5
B9E
330
B46
100
AcDbEntity
  8
0
100
AcDbBlockBegin
  2
*D20
 70
     1
 10
0.0
 20
0.0
 30
0.0
  3
*D20
  1

  0
POINT
  5
B3D
330
B46
100
AcDbEntity
  8
DEFPOINTS
  6
ByBlock
 62
     0
380
     1
100
AcDbPoint
 10
257.9982213023698
 20
319.9001574420823
 30
0.0
  0
POINT
  5
B3E
330
B46
100
AcDbEntity
  8
DEFPOINTS
  6
ByBlock
 62
     0
380
     1
100
AcDbPoint
 10
258.0121141384598
 20
24.24645293283002
 30
0.0
  0
LINE
  5
B3F
330
B46
100
AcDbEntity
  8
0
  6
ByBlock
 62
     0
370
    -2
380
     1
100
AcDbLine
 10
257.3732213023698
 20
319.9001574420823
 30
0.0
 11
-17.36367252903108
 21
319.9001574420823
 31
0.0
  0
LINE
  5
B40
330
B46
100
AcDbEntity
  8
0
  6
ByBlock
 62
     0
370
    -2
380
     1
100
AcDbLine
 10
257.3871141384598
 20
24.24645293283004
 30
0.0
 11
-17.36367252903108
 21
24.24645293283004
 31
0.0
  0
LINE
  5
B41
330
B46
100
AcDbEntity
  8
0
  6
ByBlock
 62
     0
370
    -2
380
     1
100
AcDbLine
 10
-16.11367252903108
 20
309.9001574420823
 30
0.0
 11
-16.11367252903108
 21
34.24645293283004
 31
0.0
  0
SOLID
  5
B42
330
B46
100
AcDbEntity
  8
0
  6
ByBlock
 62
     0
380
     1
100
AcDbTrace
 10
-16.11367252903108
 20
319.9001574420823
 30
0.0
 11
-17.78033919569776
 21
309.9001574420823
 31
0.0
 12
-14.44700586236439
 22
309.9001574420823
 32
0.0
 13
-14.44700586236439
 23
309.9001574420823
 33
0.0
  0
SOLID
  5
B43
330
B46
100
AcDbEntity
  8
0
  6
ByBlock
 62
     0
380
     1
100
AcDbTrace
 10
-16.11367252903108
 20
24.24645293283004
 30
0.0
 11
-17.78033919569776
 21
34.24645293283004
 31
0.0
 12
-14.44700586236439
 22
34.24645293283004
 32
0.0
 13
-14.44700586236439
 23
34.24645293283004
 33
0.0
  0
MTEXT
  5
B44
330
B46
100
AcDbEntity
  8
0
  6
ByBlock
 62
     0
370
    -2
380
     1
100
AcDbMText
 10
-44.11367252903108
 20
172.0733051874562
 30
0.0
 40
36.0
 41
0.0
 71
     5
 72
     1
  1
\A1;296
 11
6.123031769111886E-17
 21
1.0
 31
0.0
 73
     1
 44
1.0
  0
ENDBLK
  5
B9F
330
B46
100
AcDbEntity
  8
0
100
AcDbBlockEnd
  0
BLOCK
  5
BA0
330
B53
100
AcDbEntity
  8
0
100
AcDbBlockBegin
  2
*D21
 70
     1
 10
0.0
 20
0.0
 30
0.0
  3
*D21
  1

  0
POINT
  5
B48
330
B53
100
AcDbEntity
  8
DEFPOINTS
  6
ByBlock
 62
     0
380
     1
100
AcDbPoint
 10
255.9516615699522
 20
437.7704900355563
 30
0.0
  0
POINT
  5
B49
330
B53
100
AcDbEntity
  8
DEFPOINTS
  6
ByBlock
 62
     0
380
     1
100
AcDbPoint
 10
258.6829240101899
 20
356.5981383674027
 30
0.0
  0
LINE
  5
B4A
330
B53
100
AcDbEntity
  8
0
  6
ByBlock
 62
     0
370
    -2
380
     1
100
AcDbLine
 10
255.3266615699522
 20
437.7704900355563
 30
0.0
 11
-17.51967167342016
 21
437.7704900355563
 31
0.0
  0
LINE
  5
B4B
330
B53
100
AcDbEntity
  8
0
  6
ByBlock
 62
     0
370
    -2
380
     1
100
AcDbLine
 10
258.0579240101899
 20
356.5981383674027
 30
0.0
 11
-17.51967167342016
 21
356.5981383674027
 31
0.0
  0
LINE
  5
B4C
330
B53
100
AcDbEntity
  8
0
  6
ByBlock
 62
     0
370
    -2
380
     1
100
AcDbLine
 10
-16.26967167342016
 20
447.7704900355563
 30
0.0
 11
-16.26967167342016
 21
457.7704900355563
 31
0.0
  0
LINE
  5
B4D
330
B53
100
AcDbEntity
  8
0
  6
ByBlock
 62
     0
370
    -2
380
     1
100
AcDbLine
 10
-16.26967167342016
 20
346.5981383674027
 30
0.0
 11
-16.26967167342016
 21
336.5981383674027
 31
0.0
  0
SOLID
  5
B4E
330
B53
100
AcDbEntity
  8
0
  6
ByBlock
 62
     0
380
     1
100
AcDbTrace
 10
-16.26967167342016
 20
437.7704900355563
 30
0.0
 11
-17.93633834008685
 21
447.7704900355563
 31
0.0
 12
-14.60300500675348
 22
447.7704900355563
 32
0.0
 13
-14.60300500675348
 23
447.7704900355563
 33
0.0
  0
SOLID
  5
B4F
330
B53
100
AcDbEntity
  8
0
  6
ByBlock
 62
     0
380
     1
100
AcDbTrace
 10
-16.26967167342016
 20
356.5981383674027
 30
0.0
 11
-17.93633834008685
 21
346.5981383674027
 31
0.0
 12
-14.60300500675348
 22
346.5981383674027
 32
0.0
 13
-14.60300500675348
 23
346.5981383674027
 33
0.0
  0
LINE
  5
B50
330
B53
100
AcDbEntity
  8
0
  6
ByBlock
 62
     0
370
    -2
380
     1
100
AcDbLine
 10
-16.26967167342016
 20
437.7704900355563
 30
0.0
 11
-16.26967167342016
 21
356.5981383674027
 31
0.0
  0
MTEXT
  5
B51
330
B53
100
AcDbEntity
  8
0
  6
ByBlock
 62
     0
370
    -2
380
     1
100
AcDbMText
 10
-44.26967167342016
 20
397.1843142014795
 30
0.0
 40
36.0
 41
0.0
 71
     5
 72
     1
  1
\A1;81
 11
6.123031769111886E-17
 21
1.0
 31
0.0
 73
     1
 44
1.0
  0
ENDBLK
  5
BA1
330
B53
100
AcDbEntity
  8
0
100
AcDbBlockEnd
  0
BLOCK
  5
BA2
330
B5E
100
AcDbEntity
  8
0
100
AcDbBlockBegin
  2
*D22
 70
     1
 10
0.0
 20
0.0
 30
0.0
  3
*D22
  1

  0
POINT
  5
B55
330
B5E
100
AcDbEntity
  8
DEFPOINTS
  6
ByBlock
 62
     0
380
     1
100
AcDbPoint
 10
257.9982213023698
 20
319.9001574420823
 30
0.0
  0
POINT
  5
B56
330
B5E
100
AcDbEntity
  8
DEFPOINTS
  6
ByBlock
 62
     0
380
     1
100
AcDbPoint
 10
258.0121141384598
 20
24.24645293283002
 30
0.0
  0
LINE
  5
B57
330
B5E
100
AcDbEntity
  8
0
  6
ByBlock
 62
     0
370
    -2
380
     1
100
AcDbLine
 10
257.3732213023698
 20
319.9001574420823
 30
0.0
 11
-17.36367252903108
 21
319.9001574420823
 31
0.0
  0
LINE
  5
B58
330
B5E
100
AcDbEntity
  8
0
  6
ByBlock
 62
     0
370
    -2
380
     1
100
AcDbLine
 10
257.3871141384598
 20
24.24645293283004
 30
0.0
 11
-17.36367252903108
 21
24.24645293283004
 31
0.0
  0
LINE
  5
B59
330
B5E
100
AcDbEntity
  8
0
  6
ByBlock
 62
     0
370
    -2
380
     1
100
AcDbLine
 10
-16.11367252903108
 20
309.9001574420823
 30
0.0
 11
-16.11367252903108
 21
34.24645293283004
 31
0.0
  0
SOLID
  5
B5A
330
B5E
100
AcDbEntity
  8
0
  6
ByBlock
 62
     0
380
     1
100
AcDbTrace
 10
-16.11367252903108
 20
319.9001574420823
 30
0.0
 11
-17.78033919569776
 21
309.9001574420823
 31
0.0
 12
-14.44700586236439
 22
309.9001574420823
 32
0.0
 13
-14.44700586236439
 23
309.9001574420823
 33
0.0
  0
SOLID
  5
B5B
330
B5E
100
AcDbEntity
  8
0
  6
ByBlock
 62
     0
380
     1
100
AcDbTrace
 10
-16.11367252903108
 20
24.24645293283004
 30
0.0
 11
-17.78033919569776
 21
34.24645293283004
 31
0.0
 12
-14.44700586236439
 22
34.24645293283004
 32
0.0
 13
-14.44700586236439
 23
34.24645293283004
 33
0.0
  0
MTEXT
  5
B5C
330
B5E
100
AcDbEntity
  8
0
  6
ByBlock
 62
     0
370
    -2
380
     1
100
AcDbMText
 10
-44.11367252903108
 20
172.0733051874562
 30
0.0
 40
36.0
 41
0.0
 71
     5
 72
     1
  1
\A1;296
 11
6.123031769111886E-17
 21
1.0
 31
0.0
 73
     1
 44
1.0
  0
ENDBLK
  5
BA3
330
B5E
100
AcDbEntity
  8
0
100
AcDbBlockEnd
  0
BLOCK
  5
BA4
330
B69
100
AcDbEntity
  8
0
100
AcDbBlockBegin
  2
*D23
 70
     1
 10
0.0
 20
0.0
 30
0.0
  3
*D23
  1

  0
POINT
  5
B60
330
B69
100
AcDbEntity
  8
DEFPOINTS
  6
ByBlock
 62
     0
380
     1
100
AcDbPoint
 10
257.9982213023698
 20
319.9001574420823
 30
0.0
  0
POINT
  5
B61
330
B69
100
AcDbEntity
  8
DEFPOINTS
  6
ByBlock
 62
     0
380
     1
100
AcDbPoint
 10
258.0121141384598
 20
24.24645293283002
 30
0.0
  0
LINE
  5
B62
330
B69
100
AcDbEntity
  8
0
  6
ByBlock
 62
     0
370
    -2
380
     1
100
AcDbLine
 10
257.3732213023698
 20
319.9001574420823
 30
0.0
 11
-17.36367252903108
 21
319.9001574420823
 31
0.0
  0
LINE
  5
B63
330
B69
100
AcDbEntity
  8
0
  6
ByBlock
 62
     0
370
    -2
380
     1
100
AcDbLine
 10
257.3871141384598
 20
24.24645293283004
 30
0.0
 11
-17.36367252903108
 21
24.24645293283004
 31
0.0
  0
LINE
  5
B64
330
B69
100
AcDbEntity
  8
0
  6
ByBlock
 62
     0
370
    -2
380
     1
100
AcDbLine
 10
-16.11367252903108
 20
309.9001574420823
 30
0.0
 11
-16.11367252903108
 21
34.24645293283004
 31
0.0
  0
SOLID
  5
B65
330
B69
100
AcDbEntity
  8
0
  6
ByBlock
 62
     0
380
     1
100
AcDbTrace
 10
-16.11367252903108
 20
319.9001574420823
 30
0.0
 11
-17.78033919569776
 21
309.9001574420823
 31
0.0
 12
-14.44700586236439
 22
309.9001574420823
 32
0.0
 13
-14.44700586236439
 23
309.9001574420823
 33
0.0
  0
SOLID
  5
B66
330
B69
100
AcDbEntity
  8
0
  6
ByBlock
 62
     0
380
     1
100
AcDbTrace
 10
-16.11367252903108
 20
24.24645293283004
 30
0.0
 11
-17.78033919569776
 21
34.24645293283004
 31
0.0
 12
-14.44700586236439
 22
34.24645293283004
 32
0.0
 13
-14.44700586236439
 23
34.24645293283004
 33
0.0
  0
MTEXT
  5
B67
330
B69
100
AcDbEntity
  8
0
  6
ByBlock
 62
     0
370
    -2
380
     1
100
AcDbMText
 10
-44.11367252903108
 20
172.0733051874562
 30
0.0
 40
36.0
 41
0.0
 71
     5
 72
     1
  1
\A1;296
 11
6.123031769111886E-17
 21
1.0
 31
0.0
 73
     1
 44
1.0
  0
ENDBLK
  5
BA5
330
B69
100
AcDbEntity
  8
0
100
AcDbBlockEnd
  0
ENDSEC
  0
SECTION
  2
ENTITIES
  0
LWPOLYLINE
  5
24
330
1F
100
AcDbEntity
  8
0
370
    60
100
AcDbPolyline
 90
        4
 70
     0
 43
0.0
 10
32.810623
 20
93.666809
 10
33.433502
 20
91.893776
 10
34.095001
 20
90.135094
 10
35.014389
 20
87.869843
  0
LINE
  5
2A
330
1F
100
AcDbEntity
  8
0
 48
0.005817
370
    60
100
AcDbLine
 10
401.485962
 20
74.228203
 30
0.0
 11
401.597443
 21
74.432419
 31
0.0
  0
LWPOLYLINE
  5
2B
330
1F
100
AcDbEntity
  8
0
370
    60
100
AcDbPolyline
 90
        4
 70
     0
 43
0.0
 10
401.154663
 20
270.272125
 10
401.340698
 20
270.105499
 10
401.49411
 20
269.911469
 10
401.597443
 20
269.719543
  0
LWPOLYLINE
  5
31
330
1F
100
AcDbEntity
  8
0
370
    60
100
AcDbPolyline
 90
       33
 70
     0
 43
0.0
 10
48.829895
 20
170.825989
 10
48.864716
 20
166.651703
 10
48.941452
 20
162.478027
 10
49.055649
 20
158.490173
 10
49.211182
 20
154.504456
 10
49.402512
 20
150.641998
 10
49.63446
 20
146.782944
 10
49.903061
 20
142.985458
 10
50.211517
 20
139.192474
 10
50.947632
 20
131.610794
 10
51.579468
 20
126.103996
 10
52.263504
 20
120.801071
 10
52.557251
 20
118.690643
 10
52.619431
 20
118.255081
 10
52.740326
 20
117.416458
 10
52.852173
 20
116.651466
 10
52.969574
 20
115.860893
 10
53.08696
 20
115.090103
 10
53.214844
 20
114.287895
 10
53.764435
 20
111.415436
 10
54.47226
 20
108.559799
 10
55.33606
 20
105.734177
 10
56.352676
 20
102.951073
 10
57.518341
 20
100.222008
 10
58.828873
 20
97.557404
 10
60.279739
 20
94.966537
 10
61.866364
 20
92.457497
 10
63.584229
 20
90.037209
 10
65.429077
 20
87.711479
 10
67.397079
 20
85.485039
 10
69.485001
 20
83.36161
 10
71.690353
 20
81.343971
 10
71.870621
 20
81.188217
  0
LWPOLYLINE
  5
54
330
1F
100
AcDbEntity
  8
0
370
    60
100
AcDbPolyline
 90
       48
 70
     0
 43
0.0
 10
71.870621
 20
81.188217
 10
73.069763
 20
80.183701
 10
74.291168
 20
79.217155
 10
76.618179
 20
77.530838
 10
79.066254
 20
75.946625
 10
79.405258
 20
75.738823
 10
80.975754
 20
74.807953
 10
82.577484
 20
73.915573
 10
84.030655
 20
73.153313
 10
85.507294
 20
72.424057
 10
86.25943
 20
72.069603
 10
89.248047
 20
70.77224
 10
90.768044
 20
70.177971
 10
92.307251
 20
69.619698
 10
93.847336
 20
69.103958
 10
95.404243
 20
68.625198
 10
95.538795
 20
68.5858
 10
97.101952
 20
68.151405
 10
98.678947
 20
67.757126
 10
101.412338
 20
67.174973
 10
103.409676
 20
66.829094
 10
105.418915
 20
66.547012
 10
108.487404
 20
66.248131
 10
110.998909
 20
66.117683
 10
111.514458
 20
66.103882
 10
112.537506
 20
66.09256
 10
113.04528
 20
66.093208
 10
114.579109
 20
66.108917
 10
115.629761
 20
66.125069
 10
117.713066
 20
66.155602
 10
120.639778
 20
66.189949
 10
121.845764
 20
66.203194
 10
130.186554
 20
66.2929
 10
138.634598
 20
66.367577
 10
148.483673
 20
66.413422
 10
158.46405
 20
66.393654
 10
164.607391
 20
66.348282
 10
173.412964
 20
66.253799
 10
179.754608
 20
66.172272
 10
182.260208
 20
66.138092
 10
191.128387
 20
66.015976
 10
200.004135
 20
65.903259
 10
221.746658
 20
65.735519
 10
244.020737
 20
65.720764
 10
267.396698
 20
65.859993
 10
292.977997
 20
66.162727
 10
323.290192
 20
66.662308
 10
339.51239
 20
66.961952
  0
LWPOLYLINE
  5
86
330
1F
100
AcDbEntity
  8
0
370
    60
100
AcDbPolyline
 90
        7
 70
     0
 43
0.0
 10
339.51239
 20
66.961952
 10
344.376648
 20
67.061317
 10
354.106873
 20
67.287163
 10
363.83075
 20
67.580986
 10
373.590332
 20
67.980278
 10
383.378662
 20
68.515152
 10
384.383606
 20
68.577431
  0
LWPOLYLINE
  5
8F
330
1F
100
AcDbEntity
  8
0
370
    60
100
AcDbPolyline
 90
        5
 70
     0
 43
0.0
 10
399.314453
 20
76.159332
 10
397.131714
 20
74.43132
 10
396.101868
 20
73.688744
 10
395.132813
 20
73.038788
 10
394.719025
 20
72.77774
  0
LWPOLYLINE
  5
96
330
1F
100
AcDbEntity
  8
0
370
    60
100
AcDbPolyline
 90
       16
 70
     0
 43
0.0
 10
394.718994
 20
72.777374
 10
391.832764
 20
70.912086
 10
389.868073
 20
69.52845
 10
388.629211
 20
68.594139
 10
387.449738
 20
67.651299
 10
385.297668
 20
65.79023
 10
382.75415
 20
63.43515
 10
381.614288
 20
62.385437
 10
380.282349
 20
61.207359
 10
378.985168
 20
60.127647
 10
377.836121
 20
59.231728
 10
376.784424
 20
58.46315
 10
375.756012
 20
57.762291
 10
374.80481
 20
57.162941
 10
373.868195
 20
56.622986
 10
373.639618
 20
56.499237
  0
LWPOLYLINE
  5
A51
330
1F
100
AcDbEntity
  8
0
370
    60
100
AcDbPolyline
 90
        8
 70
     0
 43
0.0
 10
384.383606
 20
68.577324
 10
384.749146
 20
68.606628
 10
385.734985
 20
68.711853
 10
386.71582
 20
68.858086
 10
387.65918
 20
69.039841
 10
388.593994
 20
69.262054
 10
388.609558
 20
69.266121
 10
390.237
 20
69.764008
  0
LINE
  5
A52
330
1F
100
AcDbEntity
  8
0
 48
0.052258
370
    60
100
AcDbLine
 10
396.935364
 20
69.82872
 30
0.0
 11
395.272919
 21
68.561554
 31
0.0
  0
LINE
  5
A53
330
1F
100
AcDbEntity
  8
0
 48
0.076248
370
    60
100
AcDbLine
 10
395.272919
 20
68.561554
 30
0.0
 11
392.826172
 21
66.740723
 31
0.0
  0
LINE
  5
A54
330
1F
100
AcDbEntity
  8
0
 48
0.068082
370
    60
100
AcDbLine
 10
392.826172
 20
66.740723
 30
0.0
 11
390.61322
 21
65.15358
 31
0.0
  0
LINE
  5
A55
330
1F
100
AcDbEntity
  8
0
 48
0.06107
370
    60
100
AcDbLine
 10
390.61322
 20
65.15358
 30
0.0
 11
388.637695
 21
63.716751
 31
0.0
  0
LINE
  5
A56
330
1F
100
AcDbEntity
  8
0
 48
0.056138
370
    60
100
AcDbLine
 10
388.637695
 20
63.716751
 30
0.0
 11
386.862335
 21
62.341789
 31
0.0
  0
LINE
  5
A57
330
1F
100
AcDbEntity
  8
0
 48
0.044429
370
    60
100
AcDbLine
 10
386.862335
 20
62.341789
 30
0.0
 11
385.500549
 21
61.199921
 31
0.0
  0
LINE
  5
A58
330
1F
100
AcDbEntity
  8
0
 48
0.04052
370
    60
100
AcDbLine
 10
385.500549
 20
61.199921
 30
0.0
 11
384.32077
 21
60.088554
 31
0.0
  0
LINE
  5
A59
330
1F
100
AcDbEntity
  8
0
 48
0.047216
370
    60
100
AcDbLine
 10
384.32077
 20
60.088554
 30
0.0
 11
382.983276
 21
58.755119
 31
0.0
  0
LINE
  5
A5A
330
1F
100
AcDbEntity
  8
0
 48
0.056123
370
    60
100
AcDbLine
 10
382.983276
 20
58.755119
 30
0.0
 11
381.398987
 21
57.164597
 31
0.0
  0
LINE
  5
BB
330
1F
100
AcDbEntity
  8
0
 48
0.054178
370
    60
100
AcDbLine
 10
381.398987
 20
57.164597
 30
0.0
 11
379.875122
 21
55.623734
 31
0.0
  0
LINE
  5
BC
330
1F
100
AcDbEntity
  8
0
 48
0.042757
370
    60
100
AcDbLine
 10
379.875122
 20
55.623734
 30
0.0
 11
378.664764
 21
54.415398
 31
0.0
  0
LWPOLYLINE
  5
BD
330
1F
100
AcDbEntity
  8
0
370
    60
100
AcDbPolyline
 90
        4
 70
     0
 43
0.0
 10
378.664764
 20
54.415398
 10
377.835144
 20
53.640144
 10
377.011932
 20
52.926788
 10
376.317139
 20
52.369057
  0
LINE
  5
C3
330
1F
100
AcDbEntity
  8
0
 48
0.047767
370
    60
100
AcDbLine
 10
376.317139
 20
52.369057
 30
0.0
 11
374.819153
 21
51.183022
 31
0.0
  0
LINE
  5
C4
330
1F
100
AcDbEntity
  8
0
 48
0.047058
370
    60
100
AcDbLine
 10
374.819153
 20
51.183022
 30
0.0
 11
373.33728
 21
50.022316
 31
0.0
  0
LINE
  5
C5
330
1F
100
AcDbEntity
  8
0
 48
0.052527
370
    60
100
AcDbLine
 10
373.33728
 20
50.022316
 30
0.0
 11
371.618164
 21
48.814331
 31
0.0
  0
LWPOLYLINE
  5
C6
330
1F
100
AcDbEntity
  8
0
370
    60
100
AcDbPolyline
 90
        5
 70
     0
 43
0.0
 10
400.714111
 20
73.332054
 10
399.954803
 20
72.459854
 10
398.741943
 20
71.260117
 10
397.387756
 20
70.142395
 10
396.943848
 20
69.816818
  0
LWPOLYLINE
  5
CD
330
1F
100
AcDbEntity
  8
0
370
    60
100
AcDbPolyline
 90
       55
 70
     0
 43
0.0
 10
384.383453
 20
275.574554
 10
382.036194
 20
275.718475
 10
373.590149
 20
276.171692
 10
372.252106
 20
276.233673
 10
363.830536
 20
276.571014
 10
362.701416
 20
276.609619
 10
352.693054
 20
276.901154
 10
344.376862
 20
277.090424
 10
339.512878
 20
277.188721
 10
334.635956
 20
277.283142
 10
333.298737
 20
277.30838
 10
324.861145
 20
277.46344
 10
315.033813
 20
277.636139
 10
310.650818
 20
277.710541
 10
309.880127
 20
277.723511
 10
297.484314
 20
277.921936
 10
296.457336
 20
277.9375
 10
279.894928
 20
278.161804
 10
275.47757
 20
278.21228
 10
274.955109
 20
278.218018
 10
266.590149
 20
278.299896
 10
264.383606
 20
278.318665
 10
261.651642
 20
278.340149
 10
243.927521
 20
278.430695
 10
226.692932
 20
278.432709
 10
222.24411
 20
278.418518
 10
221.459488
 20
278.415527
 10
208.897293
 20
278.337463
 10
208.373764
 20
278.333069
 10
200.004333
 20
278.248749
 10
199.481674
 20
278.242615
 10
191.128372
 20
278.135986
 10
190.606033
 20
278.128845
 10
182.260162
 20
278.013916
 10
179.754608
 20
277.979675
 10
178.551575
 20
277.963684
 10
173.412842
 20
277.898193
 10
172.213623
 20
277.883698
 10
164.607208
 20
277.803711
 10
164.095932
 20
277.799072
 10
155.859802
 20
277.746399
 10
155.352844
 20
277.744568
 10
147.195862
 20
277.74118
 10
146.694702
 20
277.742554
 10
138.633957
 20
277.784271
 10
137.48111
 20
277.79303
 10
130.185837
 20
277.859039
 10
129.048431
 20
277.870819
 10
121.845276
 20
277.9487
 10
120.639709
 20
277.961975
 10
117.712936
 20
277.996368
 10
115.629738
 20
278.026825
 10
114.579117
 20
278.04306
 10
113.045258
 20
278.058716
 10
111.515663
 20
278.048218
  0
LWPOLYLINE
  5
106
330
1F
100
AcDbEntity
  8
0
370
    60
100
AcDbPolyline
 90
       47
 70
     0
 43
0.0
 10
111.515663
 20
278.048218
 10
111.514671
 20
278.048218
 10
111.514481
 20
278.048187
 10
110.998924
 20
278.03421
 10
110.484818
 20
278.015991
 10
109.463997
 20
277.966736
 10
107.877708
 20
277.857086
 10
106.298149
 20
277.706909
 10
105.418945
 20
277.605042
 10
103.409645
 20
277.322876
 10
101.579559
 20
277.008484
 10
101.4123
 20
276.977051
 10
98.364738
 20
276.319702
 10
95.538834
 20
275.566162
 10
93.62616
 20
274.976624
 10
92.665146
 20
274.655762
 10
89.614296
 20
273.526917
 10
86.630569
 20
272.253265
 10
86.259552
 20
272.082611
 10
84.664795
 20
271.317322
 10
84.494522
 20
271.232574
 10
82.762451
 20
270.335846
 10
82.577408
 20
270.236237
 10
81.066376
 20
269.395996
 10
79.405029
 20
268.413025
 10
77.884552
 20
267.460968
 10
76.392487
 20
266.465942
 10
76.180038
 20
266.31842
 10
75.58197
 20
265.894379
 10
73.291443
 20
264.148285
 10
71.870102
 20
262.964203
 10
70.729813
 20
261.95575
 10
69.611084
 20
260.911774
 10
67.840149
 20
259.136597
 10
65.943588
 20
257.045319
 10
64.134262
 20
254.835068
 10
63.232376
 20
253.64119
 10
62.358459
 20
252.416992
 10
60.820786
 20
250.075836
 10
60.051636
 20
248.799469
 10
59.313492
 20
247.496399
 10
58.282867
 20
245.526459
 10
57.903931
 20
244.750885
 10
57.58049
 20
244.06424
 10
56.975174
 20
242.708496
 10
56.404465
 20
241.331924
 10
55.545029
 20
239.032257
  0
LWPOLYLINE
  5
137
330
1F
100
AcDbEntity
  8
0
370
    60
100
AcDbPolyline
 90
       26
 70
     0
 43
0.0
 10
55.545029
 20
239.032257
 10
54.658493
 20
236.251297
 10
53.99733
 20
233.75
 10
53.818924
 20
232.982224
 10
53.260376
 20
230.137985
 10
53.214783
 20
229.864166
 10
53.087555
 20
229.061752
 10
52.969666
 20
228.291092
 10
52.853073
 20
227.505905
 10
52.852264
 20
227.500488
 10
52.619461
 20
225.896896
 10
52.557251
 20
225.461334
 10
52.496216
 20
225.026886
 10
52.263779
 20
223.350876
 10
51.817505
 20
219.963577
 10
51.580063
 20
218.047913
 10
51.013748
 20
213.145859
 10
50.821991
 20
211.351089
 10
50.443542
 20
207.532761
 10
50.105179
 20
203.709183
 10
49.780075
 20
199.499496
 10
49.656067
 20
197.696136
 10
49.231155
 20
190.084381
 10
49.060242
 20
185.798843
 10
48.870483
 20
177.972961
 10
48.829971
 20
173.325989
  0
LWPOLYLINE
  5
153
330
1F
100
AcDbEntity
  8
0
370
    60
100
AcDbPolyline
 90
       12
 70
     0
 43
0.0
 10
256.093231
 20
24.248703
 10
243.25238
 20
24.330475
 10
228.476105
 20
24.575974
 10
220.732498
 20
24.763382
 10
212.990082
 20
24.992538
 10
205.678589
 20
25.250122
 10
198.368912
 20
25.551071
 10
191.618088
 20
25.87059
 10
184.869446
 20
26.232391
 10
178.443207
 20
26.617859
 10
172.019409
 20
27.043701
 10
162.257935
 20
27.766449
  0
LWPOLYLINE
  5
161
330
1F
100
AcDbEntity
  8
0
370
    60
100
AcDbPolyline
 90
       28
 70
     0
 43
0.0
 10
162.257935
 20
27.766449
 10
157.709076
 20
28.123505
 10
152.968842
 20
28.508499
 10
148.306549
 20
28.896469
 10
143.448486
 20
29.308273
 10
138.898773
 20
29.69371
 10
134.16304
 20
30.100983
 10
129.447021
 20
30.516373
 10
124.753761
 20
30.946732
 10
120.08992
 20
31.411133
 10
115.4328
 20
31.936569
 10
112.425529
 20
32.322342
 10
109.422607
 20
32.752579
 10
106.7761
 20
33.174667
 10
104.137451
 20
33.641861
 10
101.832306
 20
34.093277
 10
99.536621
 20
34.588058
 10
97.465103
 20
35.077423
 10
95.40387
 20
35.608521
 10
92.903557
 20
36.316879
 10
91.052528
 20
36.889816
 10
89.213821
 20
37.502411
 10
87.446167
 20
38.134125
 10
85.692642
 20
38.803879
 10
82.266266
 20
40.241211
 10
78.875229
 20
41.835922
 10
75.458847
 20
43.616302
 10
73.484146
 20
44.722542
  0
LWPOLYLINE
  5
17F
330
1F
100
AcDbEntity
  8
0
370
    60
100
AcDbPolyline
 90
        6
 70
     0
 43
0.0
 10
327.871765
 20
25.713211
 10
310.670654
 20
25.111069
 10
293.341064
 20
24.66394
 10
276.008209
 20
24.376801
 10
258.671265
 20
24.249603
 10
258.3703
 20
24.24881
  0
LINE
  5
187
330
1F
100
AcDbEntity
  8
0
 48
0.056927
370
    60
100
AcDbLine
 10
258.3703
 20
24.24881
 30
0.0
 11
256.093231
 21
24.248703
 31
0.0
  0
LWPOLYLINE
  5
188
330
1F
100
AcDbEntity
  8
0
370
    60
100
AcDbPolyline
 90
       17
 70
     0
 43
0.0
 10
60.28125
 20
53.993149
 10
57.387482
 20
56.526489
 10
54.592682
 20
59.185677
 10
51.906509
 20
61.962257
 10
50.607193
 20
63.391586
 10
49.337982
 20
64.847321
 10
48.101181
 20
66.326797
 10
46.895721
 20
67.831306
 10
45.725571
 20
69.355827
 10
44.587845
 20
70.904045
 10
43.488144
 20
72.468262
 10
42.421829
 20
74.054932
 10
41.39595
 20
75.653374
 10
40.404327
 20
77.273117
 10
39.4552
 20
78.90036
 10
38.541046
 20
80.547829
 10
37.63916
 20
82.26078
  0
LWPOLYLINE
  5
19B
330
1F
100
AcDbEntity
  8
0
370
    60
100
AcDbPolyline
 90
       26
 70
     0
 43
0.0
 10
37.63916
 20
82.26078
 10
36.733963
 20
84.075531
 10
35.872238
 20
85.911339
 10
34.46669
 20
89.197731
 10
33.164429
 20
92.644173
 10
32.415604
 20
94.855301
 10
31.401871
 20
98.20575
 10
31.285828
 20
98.618912
 10
31.016907
 20
99.600372
 10
30.041046
 20
103.522392
 10
29.216721
 20
107.401573
 10
28.799988
 20
109.615807
 10
28.688492
 20
110.242912
 10
28.423126
 20
111.799858
 10
27.728363
 20
116.428749
 10
27.052795
 20
121.877159
 10
26.867599
 20
123.586647
 10
26.248062
 20
130.108566
 10
26.128052
 20
131.521408
 10
25.776581
 20
135.975754
 10
25.241165
 20
144.066925
 10
25.000839
 20
148.540466
 10
24.802628
 20
153.015671
 10
24.539734
 20
161.689865
 10
24.518112
 20
162.77597
 10
24.438278
 20
170.825989
  0
LWPOLYLINE
  5
1B7
330
1F
100
AcDbEntity
  8
0
370
    60
100
AcDbPolyline
 90
       79
 70
     0
 43
0.0
 10
364.823608
 20
49.225029
 10
351.833252
 20
47.745369
 10
338.8302
 20
46.425316
 10
325.81601
 20
45.264984
 10
312.79187
 20
44.26442
 10
299.758789
 20
43.423645
 10
286.717651
 20
42.742676
 10
273.66925
 20
42.221558
 10
260.614227
 20
41.860275
 10
247.553162
 20
41.658875
 10
234.486496
 20
41.617386
 10
221.414566
 20
41.735825
 10
208.337616
 20
42.014282
 10
195.255783
 20
42.452805
 10
182.169098
 20
43.051498
 10
176.070999
 20
43.385132
 10
169.520325
 20
43.782364
 10
162.972336
 20
44.2201
 10
149.990448
 20
45.208176
 10
136.914017
 20
46.363571
 10
130.408478
 20
46.998657
 10
123.907097
 20
47.674881
 10
117.492706
 20
48.38517
 10
112.58419
 20
48.946342
 10
107.693268
 20
49.638344
 10
104.388069
 20
50.289482
 10
100.999092
 20
51.118355
 10
99.326637
 20
51.589157
 10
97.665436
 20
52.098816
 10
95.762138
 20
52.73558
 10
94.129005
 20
53.327621
 10
92.510147
 20
53.957054
 10
90.906754
 20
54.623398
 10
89.319305
 20
55.326462
 10
87.749649
 20
56.065414
 10
86.19754
 20
56.840363
 10
84.665115
 20
57.650215
 10
83.151794
 20
58.495255
 10
80.187119
 20
60.288185
 10
77.307022
 20
62.216881
 10
74.571503
 20
64.235092
 10
73.205673
 20
65.316307
 10
71.865219
 20
66.428825
 10
70.558273
 20
67.565643
 10
69.278046
 20
68.732361
 10
66.803925
 20
71.149483
 10
64.44104
 20
73.681381
 10
62.191574
 20
76.325958
 10
60.575287
 20
78.389091
 10
59.541992
 20
79.789322
 10
58.541229
 20
81.21299
 10
57.575638
 20
82.656242
 10
56.643692
 20
84.121422
 10
55.749283
 20
85.602264
 10
54.889496
 20
87.103447
 10
54.067673
 20
88.618973
 10
53.281311
 20
90.153183
 10
51.81868
 20
93.269905
 10
50.778839
 20
95.745941
 10
49.567932
 20
98.995827
 10
49.019577
 20
100.639252
 10
48.50975
 20
102.294838
 10
48.043442
 20
103.94561
 10
47.615921
 20
105.606987
 10
46.877823
 20
108.95414
 10
46.853516
 20
109.078178
 10
46.537857
 20
110.808929
 10
46.265884
 20
112.547096
 10
45.838852
 20
115.844955
 10
45.283218
 20
120.647255
 10
44.777985
 20
125.455139
 10
44.355682
 20
129.87944
 10
43.974869
 20
134.307526
 10
43.648392
 20
138.57872
 10
43.362579
 20
142.852768
 10
42.919357
 20
151.285446
 10
42.632233
 20
159.777161
 10
42.494263
 20
168.507675
 10
42.482498
 20
170.825989
  0
LWPOLYLINE
  5
208
330
1F
100
AcDbEntity
  8
0
370
    60
100
AcDbPolyline
 90
       17
 70
     0
 43
0.0
 10
364.939636
 20
49.238968
 10
365.591064
 20
49.343666
 10
366.234497
 20
49.488106
 10
366.860413
 20
49.669868
 10
367.473572
 20
49.889938
 10
368.067841
 20
50.145889
 10
368.64502
 20
50.438202
 10
369.738159
 20
51.126305
 10
370.742004
 20
51.946716
 10
371.009552
 20
52.20295
 10
371.460083
 20
52.67794
 10
371.880554
 20
53.179779
 10
372.267151
 20
53.703758
 10
372.620789
 20
54.25071
 10
372.939331
 20
54.817184
 10
373.222351
 20
55.402275
 10
373.640015
 20
56.499016
  0
LWPOLYLINE
  5
21B
330
1F
100
AcDbEntity
  8
0
370
    60
100
AcDbPolyline
 90
       14
 70
     0
 43
0.0
 10
365.426392
 20
46.21949
 10
366.871155
 20
46.514259
 10
368.284302
 20
46.965302
 10
369.646545
 20
47.567581
 10
370.940308
 20
48.31411
 10
372.149536
 20
49.19622
 10
373.259521
 20
50.203712
 10
373.773193
 20
50.750984
 10
374.257019
 20
51.324883
 10
374.709717
 20
51.924026
 10
375.129883
 20
52.54644
 10
375.516052
 20
53.190102
 10
375.867218
 20
53.853317
 10
376.361267
 20
54.96994
  0
LWPOLYLINE
  5
22B
330
1F
100
AcDbEntity
  8
0
370
    60
100
AcDbPolyline
 90
       78
 70
     0
 43
0.0
 10
364.823547
 20
294.926941
 10
351.872253
 20
296.402405
 10
338.869232
 20
297.722931
 10
325.855072
 20
298.883759
 10
312.830963
 20
299.884796
 10
299.797913
 20
300.726074
 10
286.756775
 20
301.407471
 10
273.708405
 20
301.929077
 10
260.653412
 20
302.290833
 10
247.592361
 20
302.492737
 10
234.525711
 20
302.534729
 10
221.453796
 20
302.416748
 10
208.376862
 20
302.138794
 10
195.295044
 20
301.700745
 10
182.208374
 20
301.102509
 10
176.070999
 20
300.766846
 10
169.530762
 20
300.3703
 10
162.993164
 20
299.93335
 10
150.011368
 20
298.945526
 10
136.935059
 20
297.790405
 10
130.429291
 20
297.155396
 10
123.927689
 20
296.479309
 10
117.492706
 20
295.766815
 10
112.58419
 20
295.205627
 10
107.693268
 20
294.513641
 10
104.388069
 20
293.862488
 10
100.999092
 20
293.03363
 10
99.326637
 20
292.562805
 10
97.665436
 20
292.053162
 10
95.762138
 20
291.416382
 10
92.511581
 20
290.195496
 10
90.908173
 20
289.529175
 10
89.320702
 20
288.826172
 10
87.751022
 20
288.087219
 10
86.198898
 20
287.312317
 10
84.666458
 20
286.502502
 10
83.153122
 20
285.657471
 10
80.188416
 20
283.864624
 10
77.308273
 20
281.935974
 10
74.571503
 20
279.91687
 10
73.20546
 20
278.83548
 10
71.864777
 20
277.722778
 10
70.557846
 20
276.585938
 10
69.277618
 20
275.41922
 10
66.803513
 20
273.002075
 10
64.440659
 20
270.470154
 10
62.191208
 20
267.825562
 10
60.575287
 20
265.762878
 10
59.541962
 20
264.36261
 10
58.541168
 20
262.938904
 10
57.575577
 20
261.495636
 10
56.643631
 20
260.030457
 10
55.749222
 20
258.549622
 10
54.889435
 20
257.048431
 10
54.067612
 20
255.532898
 10
53.281265
 20
253.998688
 10
51.818634
 20
250.881958
 10
50.778839
 20
248.406036
 10
49.568253
 20
245.157059
 10
49.019867
 20
243.513641
 10
48.51001
 20
241.858063
 10
48.043701
 20
240.207291
 10
47.61615
 20
238.545914
 10
46.878006
 20
235.198776
 10
46.853516
 20
235.073807
 10
46.537857
 20
233.343033
 10
46.265884
 20
231.604874
 10
45.838852
 20
228.307022
 10
45.283218
 20
223.50473
 10
44.777985
 20
218.696838
 10
44.354614
 20
214.260727
 10
43.972946
 20
209.820801
 10
43.646713
 20
205.549896
 10
43.361145
 20
201.276138
 10
42.918365
 20
192.843521
 10
42.631653
 20
184.35141
 10
42.49408
 20
175.619949
 10
42.482498
 20
173.325989
  0
LINE
  5
27B
330
1F
100
AcDbEntity
  8
0
 48
0.002332
370
    60
100
AcDbLine
 10
401.347961
 20
268.555206
 30
0.0
 11
401.263611
 21
268.515411
 31
0.0
  0
LWPOLYLINE
  5
27C
330
1F
100
AcDbEntity
  8
0
370
    60
100
AcDbPolyline
 90
        5
 70
     0
 43
0.0
 10
399.314484
 20
267.992615
 10
397.131958
 20
269.720459
 10
396.102112
 20
270.463074
 10
395.133057
 20
271.113037
 10
394.719055
 20
271.374207
  0
LWPOLYLINE
  5
283
330
1F
100
AcDbEntity
  8
0
370
    60
100
AcDbPolyline
 90
       15
 70
     0
 43
0.0
 10
394.719055
 20
271.374207
 10
393.070221
 20
272.419281
 10
391.490173
 20
273.47348
 10
390.481567
 20
274.179596
 10
389.867737
 20
274.623413
 10
387.60672
 20
276.37262
 10
385.425079
 20
278.246429
 10
382.967926
 20
280.518738
 10
382.856659
 20
280.622589
 10
380.96048
 20
282.351807
 10
379.143066
 20
283.897064
 10
377.347717
 20
285.283051
 10
376.285156
 20
286.035522
 10
375.245056
 20
286.717987
 10
373.639587
 20
287.65274
  0
LWPOLYLINE
  5
294
330
1F
100
AcDbEntity
  8
0
370
    60
100
AcDbPolyline
 90
        7
 70
     0
 43
0.0
 10
390.412964
 20
274.325623
 10
388.690308
 20
274.864868
 10
388.609558
 20
274.886169
 10
386.807007
 20
275.277771
 10
384.890747
 20
275.53299
 10
384.749207
 20
275.545532
 10
384.383453
 20
275.574677
  0
LWPOLYLINE
  5
29D
330
1F
100
AcDbEntity
  8
0
370
    60
100
AcDbPolyline
 90
       17
 70
     0
 43
0.0
 10
364.939636
 20
294.913025
 10
365.591064
 20
294.808319
 10
366.234497
 20
294.663879
 10
366.860413
 20
294.482117
 10
367.473572
 20
294.262024
 10
368.067841
 20
294.006104
 10
368.64502
 20
293.713776
 10
369.738159
 20
293.025665
 10
370.742004
 20
292.205261
 10
371.009552
 20
291.949036
 10
371.460052
 20
291.47406
 10
371.880493
 20
290.97226
 10
372.26709
 20
290.448303
 10
372.620789
 20
289.901337
 10
372.939301
 20
289.334869
 10
373.222321
 20
288.749786
 10
373.640015
 20
287.652954
  0
LINE
  5
2B0
330
1F
100
AcDbEntity
  8
0
 48
0.061987
370
    60
100
AcDbLine
 10
396.943268
 20
274.334625
 30
0.0
 11
394.972412
 21
275.839142
 31
0.0
  0
LINE
  5
2B1
330
1F
100
AcDbEntity
  8
0
 48
0.090904
370
    60
100
AcDbLine
 10
394.972412
 20
275.839142
 30
0.0
 11
392.040405
 21
277.989746
 31
0.0
  0
LINE
  5
2B2
330
1F
100
AcDbEntity
  8
0
 48
0.078171
370
    60
100
AcDbLine
 10
392.040405
 20
277.989746
 30
0.0
 11
389.498169
 21
279.810211
 31
0.0
  0
LINE
  5
2B3
330
1F
100
AcDbEntity
  8
0
 48
0.069962
370
    60
100
AcDbLine
 10
389.498169
 20
279.810211
 30
0.0
 11
387.271881
 21
281.505829
 31
0.0
  0
LINE
  5
2B4
330
1F
100
AcDbEntity
  8
0
 48
0.064816
370
    60
100
AcDbLine
 10
387.271881
 20
281.505829
 30
0.0
 11
385.294373
 21
283.182495
 31
0.0
  0
LINE
  5
2B5
330
1F
100
AcDbEntity
  8
0
 48
0.061468
370
    60
100
AcDbLine
 10
385.294373
 20
283.182495
 30
0.0
 11
383.505829
 21
284.869598
 31
0.0
  0
LINE
  5
2B6
330
1F
100
AcDbEntity
  8
0
 48
0.058773
370
    60
100
AcDbLine
 10
383.505829
 20
284.869598
 30
0.0
 11
381.854309
 21
286.542725
 31
0.0
  0
LINE
  5
2B7
330
1F
100
AcDbEntity
  8
0
 48
0.055899
370
    60
100
AcDbLine
 10
381.854309
 20
286.542725
 30
0.0
 11
380.296417
 21
288.146637
 31
0.0
  0
LINE
  5
2B8
330
1F
100
AcDbEntity
  8
0
 48
0.052499
370
    60
100
AcDbLine
 10
380.296417
 20
288.146637
 30
0.0
 11
378.798035
 21
289.61792
 31
0.0
  0
LINE
  5
2B9
330
1F
100
AcDbEntity
  8
0
 48
0.048768
370
    60
100
AcDbLine
 10
378.798035
 20
289.61792
 30
0.0
 11
377.334717
 21
290.907898
 31
0.0
  0
LINE
  5
2BA
330
1F
100
AcDbEntity
  8
0
 48
0.064677
370
    60
100
AcDbLine
 10
377.334717
 20
290.907898
 30
0.0
 11
375.313141
 21
292.522247
 31
0.0
  0
LINE
  5
2BB
330
1F
100
AcDbEntity
  8
0
 48
0.063134
370
    60
100
AcDbLine
 10
375.313141
 20
292.522247
 30
0.0
 11
373.328918
 21
294.084412
 31
0.0
  0
LWPOLYLINE
  5
2BC
330
1F
100
AcDbEntity
  8
0
370
    60
100
AcDbPolyline
 90
        3
 70
     0
 43
0.0
 10
373.328918
 20
294.084412
 10
371.568726
 20
295.371796
 10
371.223083
 20
295.613068
  0
LWPOLYLINE
  5
2C1
330
1F
100
AcDbEntity
  8
0
370
    60
100
AcDbPolyline
 90
        8
 70
     0
 43
0.0
 10
396.943726
 20
274.335266
 10
397.671997
 20
273.791351
 10
398.374146
 20
273.215759
 10
399.032104
 20
272.624023
 10
399.661926
 20
272.00238
 10
399.954834
 20
271.692169
 10
401.067688
 20
270.380737
 10
401.153534
 20
270.271179
  0
LWPOLYLINE
  5
2CB
330
1F
100
AcDbEntity
  8
0
370
    60
100
AcDbPolyline
 90
       14
 70
     0
 43
0.0
 10
365.426392
 20
297.932495
 10
366.871216
 20
297.637695
 10
368.284363
 20
297.186646
 10
369.646637
 20
296.584351
 10
370.940369
 20
295.83783
 10
372.149567
 20
294.955719
 10
373.259583
 20
293.948212
 10
373.773254
 20
293.40094
 10
374.25705
 20
292.827026
 10
374.709778
 20
292.227905
 10
375.129913
 20
291.605469
 10
375.516083
 20
290.961823
 10
375.867249
 20
290.298584
 10
376.361267
 20
289.182037
  0
LWPOLYLINE
  5
2DB
330
1F
100
AcDbEntity
  8
0
370
    60
100
AcDbPolyline
 90
       12
 70
     0
 43
0.0
 10
256.093231
 20
319.903259
 10
243.157196
 20
319.820404
 10
228.370239
 20
319.57373
 10
220.627441
 20
319.385773
 10
212.885864
 20
319.156067
 10
205.578506
 20
318.898041
 10
198.272964
 20
318.596649
 10
191.52533
 20
318.276733
 10
184.779877
 20
317.91449
 10
178.354813
 20
317.528534
 10
171.932205
 20
317.102234
 10
162.257935
 20
316.385529
  0
LWPOLYLINE
  5
2E9
330
1F
100
AcDbEntity
  8
0
370
    60
100
AcDbPolyline
 90
       28
 70
     0
 43
0.0
 10
162.257935
 20
316.385529
 10
157.709076
 20
316.028473
 10
152.968842
 20
315.643494
 10
148.306549
 20
315.255493
 10
143.448486
 20
314.843689
 10
138.898773
 20
314.458252
 10
134.16304
 20
314.050995
 10
129.447021
 20
313.63562
 10
124.753761
 20
313.205261
 10
120.08992
 20
312.740845
 10
115.4328
 20
312.215393
 10
112.420944
 20
311.82901
 10
109.413452
 20
311.39801
 10
106.767578
 20
310.975891
 10
104.129562
 20
310.508636
 10
101.824875
 20
310.05719
 10
99.529648
 20
309.562347
 10
97.458435
 20
309.072906
 10
95.397499
 20
308.541748
 10
92.903557
 20
307.835083
 10
91.053093
 20
307.262329
 10
89.214943
 20
306.649963
 10
87.447266
 20
306.01825
 10
85.693726
 20
305.348511
 10
82.267334
 20
303.911255
 10
78.876297
 20
302.316589
 10
75.45993
 20
300.536255
 10
73.484146
 20
299.429443
  0
LWPOLYLINE
  5
307
330
1F
100
AcDbEntity
  8
0
370
    60
100
AcDbPolyline
 90
        6
 70
     0
 43
0.0
 10
327.871765
 20
318.438782
 10
310.621613
 20
319.042419
 10
293.292053
 20
319.489075
 10
275.959167
 20
319.775757
 10
258.622223
 20
319.902527
 10
258.3703
 20
319.903168
  0
LINE
  5
30F
330
1F
100
AcDbEntity
  8
0
 48
0.056927
370
    60
100
AcDbLine
 10
258.3703
 20
319.903168
 30
0.0
 11
256.093231
 21
319.903259
 31
0.0
  0
LWPOLYLINE
  5
310
330
1F
100
AcDbEntity
  8
0
370
    60
100
AcDbPolyline
 90
       17
 70
     0
 43
0.0
 10
60.28125
 20
290.158813
 10
57.388016
 20
287.625977
 10
54.593201
 20
284.966797
 10
51.906998
 20
282.190247
 10
50.607666
 20
280.760925
 10
49.33844
 20
279.305206
 10
48.101639
 20
277.825745
 10
46.896164
 20
276.321228
 10
45.725998
 20
274.796722
 10
44.588272
 20
273.248505
 10
43.488541
 20
271.684296
 10
42.422226
 20
270.097656
 10
41.396332
 20
268.499207
 10
40.404678
 20
266.879456
 10
39.455551
 20
265.252228
 10
38.541367
 20
263.604767
 10
37.63916
 20
261.891205
  0
LWPOLYLINE
  5
323
330
1F
100
AcDbEntity
  8
0
370
    60
100
AcDbPolyline
 90
       26
 70
     0
 43
0.0
 10
37.63916
 20
261.891205
 10
36.733887
 20
260.076294
 10
35.872086
 20
258.240295
 10
34.466553
 20
254.953918
 10
33.164307
 20
251.507462
 10
32.415604
 20
249.296677
 10
31.402039
 20
245.946808
 10
31.285828
 20
245.533066
 10
31.016907
 20
244.551605
 10
30.04039
 20
240.626755
 10
29.216721
 20
236.750412
 10
28.799988
 20
234.536179
 10
28.688492
 20
233.909073
 10
28.423126
 20
232.352127
 10
27.728363
 20
227.723236
 10
27.052795
 20
222.274765
 10
26.867599
 20
220.565338
 10
26.248062
 20
214.043411
 10
26.128052
 20
212.630569
 10
25.776581
 20
208.176224
 10
25.241165
 20
200.085052
 10
25.001617
 20
195.627472
 10
24.803879
 20
191.168259
 10
24.540405
 20
182.494125
 10
24.518112
 20
181.376007
 10
24.438278
 20
173.325989
  0
LINE
  5
39A
330
1F
100
AcDbEntity
  8
0
 48
0.029513
370
    60
100
AcDbLine
 10
401.469727
 20
74.239082
 30
0.0
 11
400.715698
 21
73.330742
 31
0.0
  0
LWPOLYLINE
  5
39B
330
1F
100
AcDbEntity
  8
0
370
    60
100
AcDbPolyline
 90
        4
 70
     0
 43
0.0
 10
365.245819
 20
46.238655
 10
365.132935
 20
46.149719
 10
365.050842
 20
46.033066
 10
365.005676
 20
45.895409
  0
LINE
  5
3A1
330
1F
100
AcDbEntity
  8
0
 48
0.008467
370
    60
100
AcDbLine
 10
401.706116
 20
74.753349
 30
0.0
 11
401.59552
 21
74.433243
 31
0.0
  0
LINE
  5
3A2
330
1F
100
AcDbEntity
  8
0
 48
0.0156
370
    60
100
AcDbLine
 10
401.727783
 20
75.270744
 30
0.0
 11
401.307953
 21
75.732407
 31
0.0
  0
LINE
  5
3A3
330
1F
100
AcDbEntity
  8
0
 48
0.012946
370
    60
100
AcDbLine
 10
401.727783
 20
75.270744
 30
0.0
 11
401.706116
 21
74.753349
 31
0.0
  0
LINE
  5
3A4
330
1F
100
AcDbEntity
  8
0
 48
0.008837
370
    60
100
AcDbLine
 10
399.967102
 20
76.234528
 30
0.0
 11
399.633545
 21
76.351524
 31
0.0
  0
LINE
  5
3A5
330
1F
100
AcDbEntity
  8
0
 48
0.009292
370
    60
100
AcDbLine
 10
399.633545
 20
76.351524
 30
0.0
 11
399.315125
 21
76.159821
 31
0.0
  0
LINE
  5
3A6
330
1F
100
AcDbEntity
  8
0
 48
0.007391
370
    60
100
AcDbLine
 10
399.633545
 20
267.800537
 30
0.0
 11
399.383423
 21
267.95813
 31
0.0
  0
LINE
  5
3A7
330
1F
100
AcDbEntity
  8
0
 48
0.008838
370
    60
100
AcDbLine
 10
399.967163
 20
267.91748
 30
0.0
 11
399.633545
 21
267.800537
 31
0.0
  0
LINE
  5
3A8
330
1F
100
AcDbEntity
  8
0
 48
0.001907
370
    60
100
AcDbLine
 10
399.383423
 20
267.95813
 30
0.0
 11
399.315186
 21
267.992188
 31
0.0
  0
LINE
  5
3A9
330
1F
100
AcDbEntity
  8
0
 48
0.0625
370
    60
100
AcDbLine
 10
41.899338
 20
173.325989
 30
0.0
 11
41.899338
 21
170.825989
 31
0.0
  0
LWPOLYLINE
  5
3AA
330
1F
100
AcDbEntity
  8
0
370
    60
100
AcDbPolyline
 90
        4
 70
     0
 43
0.0
 10
365.005676
 20
298.256561
 10
365.049316
 20
298.121948
 10
365.130341
 20
298.004974
 10
365.247467
 20
297.912384
  0
LINE
  5
3B0
330
1F
100
AcDbEntity
  8
0
 48
0.01251
370
    60
100
AcDbLine
 10
401.727783
 20
268.881226
 30
0.0
 11
401.347534
 21
268.555969
 31
0.0
  0
LINE
  5
3B1
330
1F
100
AcDbEntity
  8
0
 48
0.012946
370
    60
100
AcDbLine
 10
401.727783
 20
268.881226
 30
0.0
 11
401.706116
 21
269.398621
 31
0.0
  0
LINE
  5
3B2
330
1F
100
AcDbEntity
  8
0
 48
0.008467
370
    60
100
AcDbLine
 10
401.706116
 20
269.398621
 30
0.0
 11
401.59552
 21
269.718719
 31
0.0
  0
LWPOLYLINE
  5
3B3
330
1F
100
AcDbEntity
  8
0
370
    60
100
AcDbPolyline
 90
        4
 70
     0
 43
0.0
 10
32.810623
 20
93.666809
 10
33.433502
 20
91.893776
 10
34.095001
 20
90.135094
 10
35.014389
 20
87.869843
  0
LINE
  5
3B9
330
1F
100
AcDbEntity
  8
0
 48
0.005817
370
    60
100
AcDbLine
 10
401.485962
 20
74.228203
 30
0.0
 11
401.597443
 21
74.432419
 31
0.0
  0
ARC
  5
3BA
330
1F
100
AcDbEntity
  8
0
370
    60
100
AcDbCircle
 10
404.909607
 20
85.243149
 30
0.0
 40
10.275439
100
AcDbArc
 50
241.248902
 51
249.213538
  0
LWPOLYLINE
  5
3BB
330
1F
100
AcDbEntity
  8
0
370
    60
100
AcDbPolyline
 90
        4
 70
     0
 43
0.0
 10
401.154663
 20
270.272125
 10
401.340698
 20
270.105499
 10
401.49411
 20
269.911469
 10
401.597443
 20
269.719543
  0
LINE
  5
3C1
330
1F
100
AcDbEntity
  8
0
 48
0.158686
370
    60
100
AcDbLine
 10
48.829956
 20
170.825989
 30
0.0
 11
42.482498
 21
170.825989
 31
0.0
  0
LWPOLYLINE
  5
3C2
330
1F
100
AcDbEntity
  8
0
370
    60
100
AcDbPolyline
 90
       33
 70
     0
 43
0.0
 10
48.829895
 20
170.825989
 10
48.864716
 20
166.651703
 10
48.941452
 20
162.478027
 10
49.055649
 20
158.490173
 10
49.211182
 20
154.504456
 10
49.402512
 20
150.641998
 10
49.63446
 20
146.782944
 10
49.903061
 20
142.985458
 10
50.211517
 20
139.192474
 10
50.947632
 20
131.610794
 10
51.579468
 20
126.103996
 10
52.263504
 20
120.801071
 10
52.557251
 20
118.690643
 10
52.619431
 20
118.255081
 10
52.740326
 20
117.416458
 10
52.852173
 20
116.651466
 10
52.969574
 20
115.860893
 10
53.08696
 20
115.090103
 10
53.214844
 20
114.287895
 10
53.764435
 20
111.415436
 10
54.47226
 20
108.559799
 10
55.33606
 20
105.734177
 10
56.352676
 20
102.951073
 10
57.518341
 20
100.222008
 10
58.828873
 20
97.557404
 10
60.279739
 20
94.966537
 10
61.866364
 20
92.457497
 10
63.584229
 20
90.037209
 10
65.429077
 20
87.711479
 10
67.397079
 20
85.485039
 10
69.485001
 20
83.36161
 10
71.690353
 20
81.343971
 10
71.870621
 20
81.188217
  0
LWPOLYLINE
  5
3E5
330
1F
100
AcDbEntity
  8
0
370
    60
100
AcDbPolyline
 90
       48
 70
     0
 43
0.0
 10
71.870621
 20
81.188217
 10
73.069763
 20
80.183701
 10
74.291168
 20
79.217155
 10
76.618179
 20
77.530838
 10
79.066254
 20
75.946625
 10
79.405258
 20
75.738823
 10
80.975754
 20
74.807953
 10
82.577484
 20
73.915573
 10
84.030655
 20
73.153313
 10
85.507294
 20
72.424057
 10
86.25943
 20
72.069603
 10
89.248047
 20
70.77224
 10
90.768044
 20
70.177971
 10
92.307251
 20
69.619698
 10
93.847336
 20
69.103958
 10
95.404243
 20
68.625198
 10
95.538795
 20
68.5858
 10
97.101952
 20
68.151405
 10
98.678947
 20
67.757126
 10
101.412338
 20
67.174973
 10
103.409676
 20
66.829094
 10
105.418915
 20
66.547012
 10
108.487404
 20
66.248131
 10
110.998909
 20
66.117683
 10
111.514458
 20
66.103882
 10
112.537506
 20
66.09256
 10
113.04528
 20
66.093208
 10
114.579109
 20
66.108917
 10
115.629761
 20
66.125069
 10
117.713066
 20
66.155602
 10
120.639778
 20
66.189949
 10
121.845764
 20
66.203194
 10
130.186554
 20
66.2929
 10
138.634598
 20
66.367577
 10
148.483673
 20
66.413422
 10
158.46405
 20
66.393654
 10
164.607391
 20
66.348282
 10
173.412964
 20
66.253799
 10
179.754608
 20
66.172272
 10
182.260208
 20
66.138092
 10
191.128387
 20
66.015976
 10
200.004135
 20
65.903259
 10
221.746658
 20
65.735519
 10
244.020737
 20
65.720764
 10
267.396698
 20
65.859993
 10
292.977997
 20
66.162727
 10
323.290192
 20
66.662308
 10
339.51239
 20
66.961952
  0
LWPOLYLINE
  5
417
330
1F
100
AcDbEntity
  8
0
370
    60
100
AcDbPolyline
 90
        7
 70
     0
 43
0.0
 10
339.51239
 20
66.961952
 10
344.376648
 20
67.061317
 10
354.106873
 20
67.287163
 10
363.83075
 20
67.580986
 10
373.590332
 20
67.980278
 10
383.378662
 20
68.515152
 10
384.383606
 20
68.577431
  0
LWPOLYLINE
  5
420
330
1F
100
AcDbEntity
  8
0
370
    60
100
AcDbPolyline
 90
        5
 70
     0
 43
0.0
 10
399.314453
 20
76.159332
 10
397.131714
 20
74.43132
 10
396.101868
 20
73.688744
 10
395.132813
 20
73.038788
 10
394.719025
 20
72.77774
  0
LWPOLYLINE
  5
427
330
1F
100
AcDbEntity
  8
0
370
    60
100
AcDbPolyline
 90
       16
 70
     0
 43
0.0
 10
394.718994
 20
72.777374
 10
391.832764
 20
70.912086
 10
389.868073
 20
69.52845
 10
388.629211
 20
68.594139
 10
387.449738
 20
67.651299
 10
385.297668
 20
65.79023
 10
382.75415
 20
63.43515
 10
381.614288
 20
62.385437
 10
380.282349
 20
61.207359
 10
378.985168
 20
60.127647
 10
377.836121
 20
59.231728
 10
376.784424
 20
58.46315
 10
375.756012
 20
57.762291
 10
374.80481
 20
57.162941
 10
373.868195
 20
56.622986
 10
373.639618
 20
56.499237
  0
LWPOLYLINE
  5
439
330
1F
100
AcDbEntity
  8
0
370
    60
100
AcDbPolyline
 90
        8
 70
     0
 43
0.0
 10
384.383606
 20
68.577324
 10
384.749146
 20
68.606628
 10
385.734985
 20
68.711853
 10
386.71582
 20
68.858086
 10
387.65918
 20
69.039841
 10
388.593994
 20
69.262054
 10
388.609558
 20
69.266121
 10
390.237
 20
69.764008
  0
LINE
  5
443
330
1F
100
AcDbEntity
  8
0
 48
0.03125
370
    60
100
AcDbLine
 10
48.215027
 20
170.825989
 30
0.0
 11
48.214737
 21
172.075989
 31
0.0
  0
LINE
  5
444
330
1F
100
AcDbEntity
  8
0
 48
0.052258
370
    60
100
AcDbLine
 10
396.935364
 20
69.82872
 30
0.0
 11
395.272919
 21
68.561554
 31
0.0
  0
LINE
  5
445
330
1F
100
AcDbEntity
  8
0
 48
0.076248
370
    60
100
AcDbLine
 10
395.272919
 20
68.561554
 30
0.0
 11
392.826172
 21
66.740723
 31
0.0
  0
LINE
  5
446
330
1F
100
AcDbEntity
  8
0
 48
0.068082
370
    60
100
AcDbLine
 10
392.826172
 20
66.740723
 30
0.0
 11
390.61322
 21
65.15358
 31
0.0
  0
LINE
  5
447
330
1F
100
AcDbEntity
  8
0
 48
0.06107
370
    60
100
AcDbLine
 10
390.61322
 20
65.15358
 30
0.0
 11
388.637695
 21
63.716751
 31
0.0
  0
LINE
  5
448
330
1F
100
AcDbEntity
  8
0
 48
0.056138
370
    60
100
AcDbLine
 10
388.637695
 20
63.716751
 30
0.0
 11
386.862335
 21
62.341789
 31
0.0
  0
LINE
  5
449
330
1F
100
AcDbEntity
  8
0
 48
0.044429
370
    60
100
AcDbLine
 10
386.862335
 20
62.341789
 30
0.0
 11
385.500549
 21
61.199921
 31
0.0
  0
LINE
  5
44A
330
1F
100
AcDbEntity
  8
0
 48
0.04052
370
    60
100
AcDbLine
 10
385.500549
 20
61.199921
 30
0.0
 11
384.32077
 21
60.088554
 31
0.0
  0
LINE
  5
44B
330
1F
100
AcDbEntity
  8
0
 48
0.047216
370
    60
100
AcDbLine
 10
384.32077
 20
60.088554
 30
0.0
 11
382.983276
 21
58.755119
 31
0.0
  0
LINE
  5
44C
330
1F
100
AcDbEntity
  8
0
 48
0.056123
370
    60
100
AcDbLine
 10
382.983276
 20
58.755119
 30
0.0
 11
381.398987
 21
57.164597
 31
0.0
  0
LINE
  5
44D
330
1F
100
AcDbEntity
  8
0
 48
0.054178
370
    60
100
AcDbLine
 10
381.398987
 20
57.164597
 30
0.0
 11
379.875122
 21
55.623734
 31
0.0
  0
LINE
  5
44E
330
1F
100
AcDbEntity
  8
0
 48
0.042757
370
    60
100
AcDbLine
 10
379.875122
 20
55.623734
 30
0.0
 11
378.664764
 21
54.415398
 31
0.0
  0
LWPOLYLINE
  5
44F
330
1F
100
AcDbEntity
  8
0
370
    60
100
AcDbPolyline
 90
        4
 70
     0
 43
0.0
 10
378.664764
 20
54.415398
 10
377.835144
 20
53.640144
 10
377.011932
 20
52.926788
 10
376.317139
 20
52.369057
  0
LINE
  5
455
330
1F
100
AcDbEntity
  8
0
 48
0.047767
370
    60
100
AcDbLine
 10
376.317139
 20
52.369057
 30
0.0
 11
374.819153
 21
51.183022
 31
0.0
  0
LINE
  5
456
330
1F
100
AcDbEntity
  8
0
 48
0.047058
370
    60
100
AcDbLine
 10
374.819153
 20
51.183022
 30
0.0
 11
373.33728
 21
50.022316
 31
0.0
  0
LINE
  5
457
330
1F
100
AcDbEntity
  8
0
 48
0.052527
370
    60
100
AcDbLine
 10
373.33728
 20
50.022316
 30
0.0
 11
371.618164
 21
48.814331
 31
0.0
  0
LWPOLYLINE
  5
458
330
1F
100
AcDbEntity
  8
0
370
    60
100
AcDbPolyline
 90
        5
 70
     0
 43
0.0
 10
400.714111
 20
73.332054
 10
399.954803
 20
72.459854
 10
398.741943
 20
71.260117
 10
397.387756
 20
70.142395
 10
396.943848
 20
69.816818
  0
LINE
  5
45F
330
1F
100
AcDbEntity
  8
0
 48
0.158686
370
    60
100
AcDbLine
 10
48.829926
 20
173.325989
 30
0.0
 11
42.482498
 21
173.325989
 31
0.0
  0
LWPOLYLINE
  5
460
330
1F
100
AcDbEntity
  8
0
370
    60
100
AcDbPolyline
 90
       55
 70
     0
 43
0.0
 10
384.383453
 20
275.574554
 10
382.036194
 20
275.718475
 10
373.590149
 20
276.171692
 10
372.252106
 20
276.233673
 10
363.830536
 20
276.571014
 10
362.701416
 20
276.609619
 10
352.693054
 20
276.901154
 10
344.376862
 20
277.090424
 10
339.512878
 20
277.188721
 10
334.635956
 20
277.283142
 10
333.298737
 20
277.30838
 10
324.861145
 20
277.46344
 10
315.033813
 20
277.636139
 10
310.650818
 20
277.710541
 10
309.880127
 20
277.723511
 10
297.484314
 20
277.921936
 10
296.457336
 20
277.9375
 10
279.894928
 20
278.161804
 10
275.47757
 20
278.21228
 10
274.955109
 20
278.218018
 10
266.590149
 20
278.299896
 10
264.383606
 20
278.318665
 10
261.651642
 20
278.340149
 10
243.927521
 20
278.430695
 10
226.692932
 20
278.432709
 10
222.24411
 20
278.418518
 10
221.459488
 20
278.415527
 10
208.897293
 20
278.337463
 10
208.373764
 20
278.333069
 10
200.004333
 20
278.248749
 10
199.481674
 20
278.242615
 10
191.128372
 20
278.135986
 10
190.606033
 20
278.128845
 10
182.260162
 20
278.013916
 10
179.754608
 20
277.979675
 10
178.551575
 20
277.963684
 10
173.412842
 20
277.898193
 10
172.213623
 20
277.883698
 10
164.607208
 20
277.803711
 10
164.095932
 20
277.799072
 10
155.859802
 20
277.746399
 10
155.352844
 20
277.744568
 10
147.195862
 20
277.74118
 10
146.694702
 20
277.742554
 10
138.633957
 20
277.784271
 10
137.48111
 20
277.79303
 10
130.185837
 20
277.859039
 10
129.048431
 20
277.870819
 10
121.845276
 20
277.9487
 10
120.639709
 20
277.961975
 10
117.712936
 20
277.996368
 10
115.629738
 20
278.026825
 10
114.579117
 20
278.04306
 10
113.045258
 20
278.058716
 10
111.515663
 20
278.048218
  0
LWPOLYLINE
  5
499
330
1F
100
AcDbEntity
  8
0
370
    60
100
AcDbPolyline
 90
       47
 70
     0
 43
0.0
 10
111.515663
 20
278.048218
 10
111.514671
 20
278.048218
 10
111.514481
 20
278.048187
 10
110.998924
 20
278.03421
 10
110.484818
 20
278.015991
 10
109.463997
 20
277.966736
 10
107.877708
 20
277.857086
 10
106.298149
 20
277.706909
 10
105.418945
 20
277.605042
 10
103.409645
 20
277.322876
 10
101.579559
 20
277.008484
 10
101.4123
 20
276.977051
 10
98.364738
 20
276.319702
 10
95.538834
 20
275.566162
 10
93.62616
 20
274.976624
 10
92.665146
 20
274.655762
 10
89.614296
 20
273.526917
 10
86.630569
 20
272.253265
 10
86.259552
 20
272.082611
 10
84.664795
 20
271.317322
 10
84.494522
 20
271.232574
 10
82.762451
 20
270.335846
 10
82.577408
 20
270.236237
 10
81.066376
 20
269.395996
 10
79.405029
 20
268.413025
 10
77.884552
 20
267.460968
 10
76.392487
 20
266.465942
 10
76.180038
 20
266.31842
 10
75.58197
 20
265.894379
 10
73.291443
 20
264.148285
 10
71.870102
 20
262.964203
 10
70.729813
 20
261.95575
 10
69.611084
 20
260.911774
 10
67.840149
 20
259.136597
 10
65.943588
 20
257.045319
 10
64.134262
 20
254.835068
 10
63.232376
 20
253.64119
 10
62.358459
 20
252.416992
 10
60.820786
 20
250.075836
 10
60.051636
 20
248.799469
 10
59.313492
 20
247.496399
 10
58.282867
 20
245.526459
 10
57.903931
 20
244.750885
 10
57.58049
 20
244.06424
 10
56.975174
 20
242.708496
 10
56.404465
 20
241.331924
 10
55.545029
 20
239.032257
  0
LWPOLYLINE
  5
4CA
330
1F
100
AcDbEntity
  8
0
370
    60
100
AcDbPolyline
 90
       26
 70
     0
 43
0.0
 10
55.545029
 20
239.032257
 10
54.658493
 20
236.251297
 10
53.99733
 20
233.75
 10
53.818924
 20
232.982224
 10
53.260376
 20
230.137985
 10
53.214783
 20
229.864166
 10
53.087555
 20
229.061752
 10
52.969666
 20
228.291092
 10
52.853073
 20
227.505905
 10
52.852264
 20
227.500488
 10
52.619461
 20
225.896896
 10
52.557251
 20
225.461334
 10
52.496216
 20
225.026886
 10
52.263779
 20
223.350876
 10
51.817505
 20
219.963577
 10
51.580063
 20
218.047913
 10
51.013748
 20
213.145859
 10
50.821991
 20
211.351089
 10
50.443542
 20
207.532761
 10
50.105179
 20
203.709183
 10
49.780075
 20
199.499496
 10
49.656067
 20
197.696136
 10
49.231155
 20
190.084381
 10
49.060242
 20
185.798843
 10
48.870483
 20
177.972961
 10
48.829971
 20
173.325989
  0
LINE
  5
4E6
330
1F
100
AcDbEntity
  8
0
 48
0.03125
370
    60
100
AcDbLine
 10
48.215118
 20
173.325989
 30
0.0
 11
48.214737
 21
172.075989
 31
0.0
  0
LINE
  5
4E7
330
1F
100
AcDbEntity
  8
0
 48
0.451105
370
    60
100
AcDbLine
 10
42.482498
 20
170.825989
 30
0.0
 11
24.438278
 21
170.825989
 31
0.0
  0
ARC
  5
4E8
330
1F
100
AcDbEntity
  8
0
370
    60
100
AcDbCircle
 10
365.505615
 20
45.722977
 30
0.0
 40
0.506281
100
AcDbArc
 50
99.066093
 51
180.453608
  0
ARC
  5
4E9
330
1F
100
AcDbEntity
  8
0
370
    60
100
AcDbCircle
 10
373.847382
 20
56.4328
 30
0.0
 40
0.217782
100
AcDbArc
 50
56.83782000000001
 51
162.269085
  0
ARC
  5
4EA
330
1F
100
AcDbEntity
  8
0
370
    60
100
AcDbCircle
 10
373.847229
 20
287.719177
 30
0.0
 40
0.217752
100
AcDbArc
 50
197.739931
 51
303.242144
  0
CIRCLE
  5
4EB
330
1F
100
AcDbEntity
  8
0
370
    60
100
AcDbCircle
 10
66.647369
 20
51.861237
 30
0.0
 40
2.1
  0
CIRCLE
  5
4EC
330
1F
100
AcDbEntity
  8
0
370
    60
100
AcDbCircle
 10
329.999023
 20
30.953766
 30
0.0
 40
2.1
  0
ARC
  5
4ED
330
1F
100
AcDbEntity
  8
0
370
    60
100
AcDbCircle
 10
69.317886
 20
44.320122
 30
0.0
 40
2.5
100
AcDbArc
 50
57.95168800000002
 51
109.500464
  0
ARC
  5
4EE
330
1F
100
AcDbEntity
  8
0
370
    60
100
AcDbCircle
 10
121.788208
 20
127.83744
 30
0.0
 40
96.132034
100
AcDbArc
 50
237.858252
 51
239.836043
  0
LWPOLYLINE
  5
4EF
330
1F
100
AcDbEntity
  8
0
370
    60
100
AcDbPolyline
 90
       12
 70
     0
 43
0.0
 10
256.093231
 20
24.248703
 10
243.25238
 20
24.330475
 10
228.476105
 20
24.575974
 10
220.732498
 20
24.763382
 10
212.990082
 20
24.992538
 10
205.678589
 20
25.250122
 10
198.368912
 20
25.551071
 10
191.618088
 20
25.87059
 10
184.869446
 20
26.232391
 10
178.443207
 20
26.617859
 10
172.019409
 20
27.043701
 10
162.257935
 20
27.766449
  0
LWPOLYLINE
  5
4FD
330
1F
100
AcDbEntity
  8
0
370
    60
100
AcDbPolyline
 90
       28
 70
     0
 43
0.0
 10
162.257935
 20
27.766449
 10
157.709076
 20
28.123505
 10
152.968842
 20
28.508499
 10
148.306549
 20
28.896469
 10
143.448486
 20
29.308273
 10
138.898773
 20
29.69371
 10
134.16304
 20
30.100983
 10
129.447021
 20
30.516373
 10
124.753761
 20
30.946732
 10
120.08992
 20
31.411133
 10
115.4328
 20
31.936569
 10
112.425529
 20
32.322342
 10
109.422607
 20
32.752579
 10
106.7761
 20
33.174667
 10
104.137451
 20
33.641861
 10
101.832306
 20
34.093277
 10
99.536621
 20
34.588058
 10
97.465103
 20
35.077423
 10
95.40387
 20
35.608521
 10
92.903557
 20
36.316879
 10
91.052528
 20
36.889816
 10
89.213821
 20
37.502411
 10
87.446167
 20
38.134125
 10
85.692642
 20
38.803879
 10
82.266266
 20
40.241211
 10
78.875229
 20
41.835922
 10
75.458847
 20
43.616302
 10
73.484146
 20
44.722542
  0
LWPOLYLINE
  5
51B
330
1F
100
AcDbEntity
  8
0
370
    60
100
AcDbPolyline
 90
        6
 70
     0
 43
0.0
 10
327.871765
 20
25.713211
 10
310.670654
 20
25.111069
 10
293.341064
 20
24.66394
 10
276.008209
 20
24.376801
 10
258.671265
 20
24.249603
 10
258.3703
 20
24.24881
  0
LINE
  5
523
330
1F
100
AcDbEntity
  8
0
 48
0.056927
370
    60
100
AcDbLine
 10
258.3703
 20
24.24881
 30
0.0
 11
256.093231
 21
24.248703
 31
0.0
  0
ARC
  5
524
330
1F
100
AcDbEntity
  8
0
370
    60
100
AcDbCircle
 10
327.970673
 20
23.215164
 30
0.0
 40
2.5
100
AcDbArc
 50
75.31449300000003
 51
92.267104
  0
ARC
  5
525
330
1F
100
AcDbEntity
  8
0
370
    60
100
AcDbCircle
 10
332.651154
 20
23.406158
 30
0.0
 40
2.5
100
AcDbArc
 50
92.42143900000002
 51
109.3608
  0
ARC
  5
526
330
1F
100
AcDbEntity
  8
0
370
    60
100
AcDbCircle
 10
253.989807
 20
1894.96167
 30
0.0
 40
1870.707764
100
AcDbArc
 50
272.406702
 51
272.965684
  0
ARC
  5
527
330
1F
100
AcDbEntity
  8
0
370
    60
100
AcDbCircle
 10
349.999023
 20
41.739258
 30
0.0
 40
15.0
100
AcDbArc
 50
272.969489
 51
0.0000049999999943
  0
LWPOLYLINE
  5
528
330
1F
100
AcDbEntity
  8
0
370
    60
100
AcDbPolyline
 90
       17
 70
     0
 43
0.0
 10
60.28125
 20
53.993149
 10
57.387482
 20
56.526489
 10
54.592682
 20
59.185677
 10
51.906509
 20
61.962257
 10
50.607193
 20
63.391586
 10
49.337982
 20
64.847321
 10
48.101181
 20
66.326797
 10
46.895721
 20
67.831306
 10
45.725571
 20
69.355827
 10
44.587845
 20
70.904045
 10
43.488144
 20
72.468262
 10
42.421829
 20
74.054932
 10
41.39595
 20
75.653374
 10
40.404327
 20
77.273117
 10
39.4552
 20
78.90036
 10
38.541046
 20
80.547829
 10
37.63916
 20
82.26078
  0
LWPOLYLINE
  5
53B
330
1F
100
AcDbEntity
  8
0
370
    60
100
AcDbPolyline
 90
       26
 70
     0
 43
0.0
 10
37.63916
 20
82.26078
 10
36.733963
 20
84.075531
 10
35.872238
 20
85.911339
 10
34.46669
 20
89.197731
 10
33.164429
 20
92.644173
 10
32.415604
 20
94.855301
 10
31.401871
 20
98.20575
 10
31.285828
 20
98.618912
 10
31.016907
 20
99.600372
 10
30.041046
 20
103.522392
 10
29.216721
 20
107.401573
 10
28.799988
 20
109.615807
 10
28.688492
 20
110.242912
 10
28.423126
 20
111.799858
 10
27.728363
 20
116.428749
 10
27.052795
 20
121.877159
 10
26.867599
 20
123.586647
 10
26.248062
 20
130.108566
 10
26.128052
 20
131.521408
 10
25.776581
 20
135.975754
 10
25.241165
 20
144.066925
 10
25.000839
 20
148.540466
 10
24.802628
 20
153.015671
 10
24.539734
 20
161.689865
 10
24.518112
 20
162.77597
 10
24.438278
 20
170.825989
  0
ARC
  5
557
330
1F
100
AcDbEntity
  8
0
370
    60
100
AcDbCircle
 10
58.673248
 20
52.078896
 30
0.0
 40
2.5
100
AcDbArc
 50
4.878427000000016
 51
49.96935500000001
  0
ARC
  5
558
330
1F
100
AcDbEntity
  8
0
370
    60
100
AcDbCircle
 10
66.647369
 20
51.861237
 30
0.0
 40
5.5
100
AcDbArc
 50
175.5130950000001
 51
233.919511
  0
ARC
  5
559
330
1F
100
AcDbEntity
  8
0
370
    60
100
AcDbCircle
 10
66.647369
 20
51.861237
 30
0.0
 40
5.5
100
AcDbArc
 50
233.919511
 51
289.500473
  0
ARC
  5
55A
330
1F
100
AcDbEntity
  8
0
370
    60
100
AcDbCircle
 10
329.999023
 20
30.953766
 30
0.0
 40
5.5
100
AcDbArc
 50
255.31181
 51
270.000003
  0
ARC
  5
55B
330
1F
100
AcDbEntity
  8
0
370
    60
100
AcDbCircle
 10
329.999023
 20
30.953766
 30
0.0
 40
5.5
100
AcDbArc
 50
270.000003
 51
289.360795
  0
LINE
  5
55C
330
1F
100
AcDbEntity
  8
0
 48
0.451105
370
    60
100
AcDbLine
 10
42.482498
 20
173.325989
 30
0.0
 11
24.438278
 21
173.325989
 31
0.0
  0
ARC
  5
55D
330
1F
100
AcDbEntity
  8
0
370
    60
100
AcDbCircle
 10
365.505615
 20
298.429016
 30
0.0
 40
0.506281
100
AcDbArc
 50
179.546403
 51
260.935098
  0
ARC
  5
55E
330
1F
100
AcDbEntity
  8
0
370
    60
100
AcDbCircle
 10
376.183716
 20
55.045509
 30
0.0
 40
0.192834
100
AcDbArc
 50
336.946764
 51
62.16094200000001
  0
ARC
  5
55F
330
1F
100
AcDbEntity
  8
0
370
    60
100
AcDbCircle
 10
376.183899
 20
289.106476
 30
0.0
 40
0.192675
100
AcDbArc
 50
297.781367
 51
23.07181000000002
  0
LINE
  5
560
330
1F
100
AcDbEntity
  8
0
 48
0.099493
370
    60
100
AcDbLine
 10
364.999023
 20
45.718964
 30
0.0
 11
364.999023
 21
41.739258
 31
0.0
  0
ARC
  5
561
330
1F
100
AcDbEntity
  8
0
370
    60
100
AcDbCircle
 10
386.357361
 20
74.44101
 30
0.0
 40
21.709389
100
AcDbArc
 50
235.196681
 51
242.322744
  0
LWPOLYLINE
  5
562
330
1F
100
AcDbEntity
  8
0
370
    60
100
AcDbPolyline
 90
       79
 70
     0
 43
0.0
 10
364.823608
 20
49.225029
 10
351.833252
 20
47.745369
 10
338.8302
 20
46.425316
 10
325.81601
 20
45.264984
 10
312.79187
 20
44.26442
 10
299.758789
 20
43.423645
 10
286.717651
 20
42.742676
 10
273.66925
 20
42.221558
 10
260.614227
 20
41.860275
 10
247.553162
 20
41.658875
 10
234.486496
 20
41.617386
 10
221.414566
 20
41.735825
 10
208.337616
 20
42.014282
 10
195.255783
 20
42.452805
 10
182.169098
 20
43.051498
 10
176.070999
 20
43.385132
 10
169.520325
 20
43.782364
 10
162.972336
 20
44.2201
 10
149.990448
 20
45.208176
 10
136.914017
 20
46.363571
 10
130.408478
 20
46.998657
 10
123.907097
 20
47.674881
 10
117.492706
 20
48.38517
 10
112.58419
 20
48.946342
 10
107.693268
 20
49.638344
 10
104.388069
 20
50.289482
 10
100.999092
 20
51.118355
 10
99.326637
 20
51.589157
 10
97.665436
 20
52.098816
 10
95.762138
 20
52.73558
 10
94.129005
 20
53.327621
 10
92.510147
 20
53.957054
 10
90.906754
 20
54.623398
 10
89.319305
 20
55.326462
 10
87.749649
 20
56.065414
 10
86.19754
 20
56.840363
 10
84.665115
 20
57.650215
 10
83.151794
 20
58.495255
 10
80.187119
 20
60.288185
 10
77.307022
 20
62.216881
 10
74.571503
 20
64.235092
 10
73.205673
 20
65.316307
 10
71.865219
 20
66.428825
 10
70.558273
 20
67.565643
 10
69.278046
 20
68.732361
 10
66.803925
 20
71.149483
 10
64.44104
 20
73.681381
 10
62.191574
 20
76.325958
 10
60.575287
 20
78.389091
 10
59.541992
 20
79.789322
 10
58.541229
 20
81.21299
 10
57.575638
 20
82.656242
 10
56.643692
 20
84.121422
 10
55.749283
 20
85.602264
 10
54.889496
 20
87.103447
 10
54.067673
 20
88.618973
 10
53.281311
 20
90.153183
 10
51.81868
 20
93.269905
 10
50.778839
 20
95.745941
 10
49.567932
 20
98.995827
 10
49.019577
 20
100.639252
 10
48.50975
 20
102.294838
 10
48.043442
 20
103.94561
 10
47.615921
 20
105.606987
 10
46.877823
 20
108.95414
 10
46.853516
 20
109.078178
 10
46.537857
 20
110.808929
 10
46.265884
 20
112.547096
 10
45.838852
 20
115.844955
 10
45.283218
 20
120.647255
 10
44.777985
 20
125.455139
 10
44.355682
 20
129.87944
 10
43.974869
 20
134.307526
 10
43.648392
 20
138.57872
 10
43.362579
 20
142.852768
 10
42.919357
 20
151.285446
 10
42.632233
 20
159.777161
 10
42.494263
 20
168.507675
 10
42.482498
 20
170.825989
  0
LWPOLYLINE
  5
5B3
330
1F
100
AcDbEntity
  8
0
370
    60
100
AcDbPolyline
 90
       17
 70
     0
 43
0.0
 10
364.939636
 20
49.238968
 10
365.591064
 20
49.343666
 10
366.234497
 20
49.488106
 10
366.860413
 20
49.669868
 10
367.473572
 20
49.889938
 10
368.067841
 20
50.145889
 10
368.64502
 20
50.438202
 10
369.738159
 20
51.126305
 10
370.742004
 20
51.946716
 10
371.009552
 20
52.20295
 10
371.460083
 20
52.67794
 10
371.880554
 20
53.179779
 10
372.267151
 20
53.703758
 10
372.620789
 20
54.25071
 10
372.939331
 20
54.817184
 10
373.222351
 20
55.402275
 10
373.640015
 20
56.499016
  0
LINE
  5
5C6
330
1F
100
AcDbEntity
  8
0
 48
0.002921
370
    60
100
AcDbLine
 10
364.939545
 20
49.239571
 30
0.0
 11
364.823608
 21
49.225029
 31
0.0
  0
LWPOLYLINE
  5
5C7
330
1F
100
AcDbEntity
  8
0
370
    60
100
AcDbPolyline
 90
       14
 70
     0
 43
0.0
 10
365.426392
 20
46.21949
 10
366.871155
 20
46.514259
 10
368.284302
 20
46.965302
 10
369.646545
 20
47.567581
 10
370.940308
 20
48.31411
 10
372.149536
 20
49.19622
 10
373.259521
 20
50.203712
 10
373.773193
 20
50.750984
 10
374.257019
 20
51.324883
 10
374.709717
 20
51.924026
 10
375.129883
 20
52.54644
 10
375.516052
 20
53.190102
 10
375.867218
 20
53.853317
 10
376.361267
 20
54.96994
  0
CIRCLE
  5
5D7
330
1F
100
AcDbEntity
  8
0
370
    60
100
AcDbCircle
 10
66.647369
 20
292.290741
 30
0.0
 40
2.1
  0
CIRCLE
  5
5D8
330
1F
100
AcDbEntity
  8
0
370
    60
100
AcDbCircle
 10
329.999023
 20
313.198212
 30
0.0
 40
2.1
  0
ARC
  5
5D9
330
1F
100
AcDbEntity
  8
0
370
    60
100
AcDbCircle
 10
66.647369
 20
292.290741
 30
0.0
 40
5.5
100
AcDbArc
 50
126.080502
 51
184.4859320000001
  0
ARC
  5
5DA
330
1F
100
AcDbEntity
  8
0
370
    60
100
AcDbCircle
 10
66.647369
 20
292.290741
 30
0.0
 40
5.5
100
AcDbArc
 50
70.49953699999996
 51
126.080502
  0
ARC
  5
5DB
330
1F
100
AcDbEntity
  8
0
370
    60
100
AcDbCircle
 10
329.999023
 20
313.198212
 30
0.0
 40
5.5
100
AcDbArc
 50
90.00000100000003
 51
104.687366
  0
ARC
  5
5DC
330
1F
100
AcDbEntity
  8
0
370
    60
100
AcDbCircle
 10
329.999023
 20
313.198212
 30
0.0
 40
5.5
100
AcDbArc
 50
70.63931000000005
 51
90.00000100000003
  0
LWPOLYLINE
  5
5DD
330
1F
100
AcDbEntity
  8
0
370
    60
100
AcDbPolyline
 90
       78
 70
     0
 43
0.0
 10
364.823547
 20
294.926941
 10
351.872253
 20
296.402405
 10
338.869232
 20
297.722931
 10
325.855072
 20
298.883759
 10
312.830963
 20
299.884796
 10
299.797913
 20
300.726074
 10
286.756775
 20
301.407471
 10
273.708405
 20
301.929077
 10
260.653412
 20
302.290833
 10
247.592361
 20
302.492737
 10
234.525711
 20
302.534729
 10
221.453796
 20
302.416748
 10
208.376862
 20
302.138794
 10
195.295044
 20
301.700745
 10
182.208374
 20
301.102509
 10
176.070999
 20
300.766846
 10
169.530762
 20
300.3703
 10
162.993164
 20
299.93335
 10
150.011368
 20
298.945526
 10
136.935059
 20
297.790405
 10
130.429291
 20
297.155396
 10
123.927689
 20
296.479309
 10
117.492706
 20
295.766815
 10
112.58419
 20
295.205627
 10
107.693268
 20
294.513641
 10
104.388069
 20
293.862488
 10
100.999092
 20
293.03363
 10
99.326637
 20
292.562805
 10
97.665436
 20
292.053162
 10
95.762138
 20
291.416382
 10
92.511581
 20
290.195496
 10
90.908173
 20
289.529175
 10
89.320702
 20
288.826172
 10
87.751022
 20
288.087219
 10
86.198898
 20
287.312317
 10
84.666458
 20
286.502502
 10
83.153122
 20
285.657471
 10
80.188416
 20
283.864624
 10
77.308273
 20
281.935974
 10
74.571503
 20
279.91687
 10
73.20546
 20
278.83548
 10
71.864777
 20
277.722778
 10
70.557846
 20
276.585938
 10
69.277618
 20
275.41922
 10
66.803513
 20
273.002075
 10
64.440659
 20
270.470154
 10
62.191208
 20
267.825562
 10
60.575287
 20
265.762878
 10
59.541962
 20
264.36261
 10
58.541168
 20
262.938904
 10
57.575577
 20
261.495636
 10
56.643631
 20
260.030457
 10
55.749222
 20
258.549622
 10
54.889435
 20
257.048431
 10
54.067612
 20
255.532898
 10
53.281265
 20
253.998688
 10
51.818634
 20
250.881958
 10
50.778839
 20
248.406036
 10
49.568253
 20
245.157059
 10
49.019867
 20
243.513641
 10
48.51001
 20
241.858063
 10
48.043701
 20
240.207291
 10
47.61615
 20
238.545914
 10
46.878006
 20
235.198776
 10
46.853516
 20
235.073807
 10
46.537857
 20
233.343033
 10
46.265884
 20
231.604874
 10
45.838852
 20
228.307022
 10
45.283218
 20
223.50473
 10
44.777985
 20
218.696838
 10
44.354614
 20
214.260727
 10
43.972946
 20
209.820801
 10
43.646713
 20
205.549896
 10
43.361145
 20
201.276138
 10
42.918365
 20
192.843521
 10
42.631653
 20
184.35141
 10
42.49408
 20
175.619949
 10
42.482498
 20
173.325989
  0
ARC
  5
62D
330
1F
100
AcDbEntity
  8
0
370
    60
100
AcDbCircle
 10
404.909607
 20
258.908844
 30
0.0
 40
10.27541
100
AcDbArc
 50
110.78484
 51
118.750644
  0
LINE
  5
62E
330
1F
100
AcDbEntity
  8
0
 48
0.002332
370
    60
100
AcDbLine
 10
401.347961
 20
268.555206
 30
0.0
 11
401.263611
 21
268.515411
 31
0.0
  0
LWPOLYLINE
  5
62F
330
1F
100
AcDbEntity
  8
0
370
    60
100
AcDbPolyline
 90
        5
 70
     0
 43
0.0
 10
399.314484
 20
267.992615
 10
397.131958
 20
269.720459
 10
396.102112
 20
270.463074
 10
395.133057
 20
271.113037
 10
394.719055
 20
271.374207
  0
LWPOLYLINE
  5
636
330
1F
100
AcDbEntity
  8
0
370
    60
100
AcDbPolyline
 90
       15
 70
     0
 43
0.0
 10
394.719055
 20
271.374207
 10
393.070221
 20
272.419281
 10
391.490173
 20
273.47348
 10
390.481567
 20
274.179596
 10
389.867737
 20
274.623413
 10
387.60672
 20
276.37262
 10
385.425079
 20
278.246429
 10
382.967926
 20
280.518738
 10
382.856659
 20
280.622589
 10
380.96048
 20
282.351807
 10
379.143066
 20
283.897064
 10
377.347717
 20
285.283051
 10
376.285156
 20
286.035522
 10
375.245056
 20
286.717987
 10
373.639587
 20
287.65274
  0
LWPOLYLINE
  5
647
330
1F
100
AcDbEntity
  8
0
370
    60
100
AcDbPolyline
 90
        7
 70
     0
 43
0.0
 10
390.412964
 20
274.325623
 10
388.690308
 20
274.864868
 10
388.609558
 20
274.886169
 10
386.807007
 20
275.277771
 10
384.890747
 20
275.53299
 10
384.749207
 20
275.545532
 10
384.383453
 20
275.574677
  0
LWPOLYLINE
  5
650
330
1F
100
AcDbEntity
  8
0
370
    60
100
AcDbPolyline
 90
       17
 70
     0
 43
0.0
 10
364.939636
 20
294.913025
 10
365.591064
 20
294.808319
 10
366.234497
 20
294.663879
 10
366.860413
 20
294.482117
 10
367.473572
 20
294.262024
 10
368.067841
 20
294.006104
 10
368.64502
 20
293.713776
 10
369.738159
 20
293.025665
 10
370.742004
 20
292.205261
 10
371.009552
 20
291.949036
 10
371.460052
 20
291.47406
 10
371.880493
 20
290.97226
 10
372.26709
 20
290.448303
 10
372.620789
 20
289.901337
 10
372.939301
 20
289.334869
 10
373.222321
 20
288.749786
 10
373.640015
 20
287.652954
  0
LINE
  5
663
330
1F
100
AcDbEntity
  8
0
 48
0.002923
370
    60
100
AcDbLine
 10
364.939545
 20
294.912415
 30
0.0
 11
364.823547
 21
294.926941
 31
0.0
  0
ARC
  5
664
330
1F
100
AcDbEntity
  8
0
370
    60
100
AcDbCircle
 10
386.357361
 20
269.710968
 30
0.0
 40
21.709389
100
AcDbArc
 50
117.6772930000001
 51
124.802874
  0
LINE
  5
665
330
1F
100
AcDbEntity
  8
0
 48
0.061987
370
    60
100
AcDbLine
 10
396.943268
 20
274.334625
 30
0.0
 11
394.972412
 21
275.839142
 31
0.0
  0
LINE
  5
666
330
1F
100
AcDbEntity
  8
0
 48
0.090904
370
    60
100
AcDbLine
 10
394.972412
 20
275.839142
 30
0.0
 11
392.040405
 21
277.989746
 31
0.0
  0
LINE
  5
667
330
1F
100
AcDbEntity
  8
0
 48
0.078171
370
    60
100
AcDbLine
 10
392.040405
 20
277.989746
 30
0.0
 11
389.498169
 21
279.810211
 31
0.0
  0
LINE
  5
668
330
1F
100
AcDbEntity
  8
0
 48
0.069962
370
    60
100
AcDbLine
 10
389.498169
 20
279.810211
 30
0.0
 11
387.271881
 21
281.505829
 31
0.0
  0
LINE
  5
669
330
1F
100
AcDbEntity
  8
0
 48
0.064816
370
    60
100
AcDbLine
 10
387.271881
 20
281.505829
 30
0.0
 11
385.294373
 21
283.182495
 31
0.0
  0
LINE
  5
66A
330
1F
100
AcDbEntity
  8
0
 48
0.061468
370
    60
100
AcDbLine
 10
385.294373
 20
283.182495
 30
0.0
 11
383.505829
 21
284.869598
 31
0.0
  0
LINE
  5
66B
330
1F
100
AcDbEntity
  8
0
 48
0.058773
370
    60
100
AcDbLine
 10
383.505829
 20
284.869598
 30
0.0
 11
381.854309
 21
286.542725
 31
0.0
  0
LINE
  5
66C
330
1F
100
AcDbEntity
  8
0
 48
0.055899
370
    60
100
AcDbLine
 10
381.854309
 20
286.542725
 30
0.0
 11
380.296417
 21
288.146637
 31
0.0
  0
LINE
  5
66D
330
1F
100
AcDbEntity
  8
0
 48
0.052499
370
    60
100
AcDbLine
 10
380.296417
 20
288.146637
 30
0.0
 11
378.798035
 21
289.61792
 31
0.0
  0
LINE
  5
66E
330
1F
100
AcDbEntity
  8
0
 48
0.048768
370
    60
100
AcDbLine
 10
378.798035
 20
289.61792
 30
0.0
 11
377.334717
 21
290.907898
 31
0.0
  0
LINE
  5
66F
330
1F
100
AcDbEntity
  8
0
 48
0.064677
370
    60
100
AcDbLine
 10
377.334717
 20
290.907898
 30
0.0
 11
375.313141
 21
292.522247
 31
0.0
  0
LINE
  5
670
330
1F
100
AcDbEntity
  8
0
 48
0.063134
370
    60
100
AcDbLine
 10
375.313141
 20
292.522247
 30
0.0
 11
373.328918
 21
294.084412
 31
0.0
  0
LWPOLYLINE
  5
671
330
1F
100
AcDbEntity
  8
0
370
    60
100
AcDbPolyline
 90
        3
 70
     0
 43
0.0
 10
373.328918
 20
294.084412
 10
371.568726
 20
295.371796
 10
371.223083
 20
295.613068
  0
LWPOLYLINE
  5
676
330
1F
100
AcDbEntity
  8
0
370
    60
100
AcDbPolyline
 90
        8
 70
     0
 43
0.0
 10
396.943726
 20
274.335266
 10
397.671997
 20
273.791351
 10
398.374146
 20
273.215759
 10
399.032104
 20
272.624023
 10
399.661926
 20
272.00238
 10
399.954834
 20
271.692169
 10
401.067688
 20
270.380737
 10
401.153534
 20
270.271179
  0
LWPOLYLINE
  5
680
330
1F
100
AcDbEntity
  8
0
370
    60
100
AcDbPolyline
 90
       14
 70
     0
 43
0.0
 10
365.426392
 20
297.932495
 10
366.871216
 20
297.637695
 10
368.284363
 20
297.186646
 10
369.646637
 20
296.584351
 10
370.940369
 20
295.83783
 10
372.149567
 20
294.955719
 10
373.259583
 20
293.948212
 10
373.773254
 20
293.40094
 10
374.25705
 20
292.827026
 10
374.709778
 20
292.227905
 10
375.129913
 20
291.605469
 10
375.516083
 20
290.961823
 10
375.867249
 20
290.298584
 10
376.361267
 20
289.182037
  0
ARC
  5
690
330
1F
100
AcDbEntity
  8
0
370
    60
100
AcDbCircle
 10
69.317886
 20
299.831848
 30
0.0
 40
2.5
100
AcDbArc
 50
250.499526
 51
302.048322
  0
ARC
  5
691
330
1F
100
AcDbEntity
  8
0
370
    60
100
AcDbCircle
 10
121.788208
 20
216.314545
 30
0.0
 40
96.132034
100
AcDbArc
 50
120.163947
 51
122.141751
  0
LWPOLYLINE
  5
692
330
1F
100
AcDbEntity
  8
0
370
    60
100
AcDbPolyline
 90
       12
 70
     0
 43
0.0
 10
256.093231
 20
319.903259
 10
243.157196
 20
319.820404
 10
228.370239
 20
319.57373
 10
220.627441
 20
319.385773
 10
212.885864
 20
319.156067
 10
205.578506
 20
318.898041
 10
198.272964
 20
318.596649
 10
191.52533
 20
318.276733
 10
184.779877
 20
317.91449
 10
178.354813
 20
317.528534
 10
171.932205
 20
317.102234
 10
162.257935
 20
316.385529
  0
LWPOLYLINE
  5
6A0
330
1F
100
AcDbEntity
  8
0
370
    60
100
AcDbPolyline
 90
       28
 70
     0
 43
0.0
 10
162.257935
 20
316.385529
 10
157.709076
 20
316.028473
 10
152.968842
 20
315.643494
 10
148.306549
 20
315.255493
 10
143.448486
 20
314.843689
 10
138.898773
 20
314.458252
 10
134.16304
 20
314.050995
 10
129.447021
 20
313.63562
 10
124.753761
 20
313.205261
 10
120.08992
 20
312.740845
 10
115.4328
 20
312.215393
 10
112.420944
 20
311.82901
 10
109.413452
 20
311.39801
 10
106.767578
 20
310.975891
 10
104.129562
 20
310.508636
 10
101.824875
 20
310.05719
 10
99.529648
 20
309.562347
 10
97.458435
 20
309.072906
 10
95.397499
 20
308.541748
 10
92.903557
 20
307.835083
 10
91.053093
 20
307.262329
 10
89.214943
 20
306.649963
 10
87.447266
 20
306.01825
 10
85.693726
 20
305.348511
 10
82.267334
 20
303.911255
 10
78.876297
 20
302.316589
 10
75.45993
 20
300.536255
 10
73.484146
 20
299.429443
  0
LWPOLYLINE
  5
6BE
330
1F
100
AcDbEntity
  8
0
370
    60
100
AcDbPolyline
 90
        6
 70
     0
 43
0.0
 10
327.871765
 20
318.438782
 10
310.621613
 20
319.042419
 10
293.292053
 20
319.489075
 10
275.959167
 20
319.775757
 10
258.622223
 20
319.902527
 10
258.3703
 20
319.903168
  0
LINE
  5
6C6
330
1F
100
AcDbEntity
  8
0
 48
0.056927
370
    60
100
AcDbLine
 10
258.3703
 20
319.903168
 30
0.0
 11
256.093231
 21
319.903259
 31
0.0
  0
ARC
  5
6C7
330
1F
100
AcDbEntity
  8
0
370
    60
100
AcDbCircle
 10
327.970673
 20
320.936829
 30
0.0
 40
2.5
100
AcDbArc
 50
267.732892
 51
284.687354
  0
ARC
  5
6C8
330
1F
100
AcDbEntity
  8
0
370
    60
100
AcDbCircle
 10
332.651154
 20
320.745819
 30
0.0
 40
2.5
100
AcDbArc
 50
250.638984
 51
267.578557
  0
ARC
  5
6C9
330
1F
100
AcDbEntity
  8
0
370
    60
100
AcDbCircle
 10
253.989792
 20
-1550.80957
 30
0.0
 40
1870.707764
100
AcDbArc
 50
87.03430500000003
 51
87.59328799999997
  0
ARC
  5
6CA
330
1F
100
AcDbEntity
  8
0
370
    60
100
AcDbCircle
 10
349.999023
 20
302.41272
 30
0.0
 40
15.0
100
AcDbArc
 50
0.0000049999999943
 51
87.03050800000001
  0
LINE
  5
6CB
330
1F
100
AcDbEntity
  8
0
 48
0.099493
370
    60
100
AcDbLine
 10
364.999023
 20
302.41272
 30
0.0
 11
364.999023
 21
298.433014
 31
0.0
  0
LWPOLYLINE
  5
6CC
330
1F
100
AcDbEntity
  8
0
370
    60
100
AcDbPolyline
 90
       17
 70
     0
 43
0.0
 10
60.28125
 20
290.158813
 10
57.388016
 20
287.625977
 10
54.593201
 20
284.966797
 10
51.906998
 20
282.190247
 10
50.607666
 20
280.760925
 10
49.33844
 20
279.305206
 10
48.101639
 20
277.825745
 10
46.896164
 20
276.321228
 10
45.725998
 20
274.796722
 10
44.588272
 20
273.248505
 10
43.488541
 20
271.684296
 10
42.422226
 20
270.097656
 10
41.396332
 20
268.499207
 10
40.404678
 20
266.879456
 10
39.455551
 20
265.252228
 10
38.541367
 20
263.604767
 10
37.63916
 20
261.891205
  0
LWPOLYLINE
  5
6DF
330
1F
100
AcDbEntity
  8
0
370
    60
100
AcDbPolyline
 90
       26
 70
     0
 43
0.0
 10
37.63916
 20
261.891205
 10
36.733887
 20
260.076294
 10
35.872086
 20
258.240295
 10
34.466553
 20
254.953918
 10
33.164307
 20
251.507462
 10
32.415604
 20
249.296677
 10
31.402039
 20
245.946808
 10
31.285828
 20
245.533066
 10
31.016907
 20
244.551605
 10
30.04039
 20
240.626755
 10
29.216721
 20
236.750412
 10
28.799988
 20
234.536179
 10
28.688492
 20
233.909073
 10
28.423126
 20
232.352127
 10
27.728363
 20
227.723236
 10
27.052795
 20
222.274765
 10
26.867599
 20
220.565338
 10
26.248062
 20
214.043411
 10
26.128052
 20
212.630569
 10
25.776581
 20
208.176224
 10
25.241165
 20
200.085052
 10
25.001617
 20
195.627472
 10
24.803879
 20
191.168259
 10
24.540405
 20
182.494125
 10
24.518112
 20
181.376007
 10
24.438278
 20
173.325989
  0
ARC
  5
6FB
330
1F
100
AcDbEntity
  8
0
370
    60
100
AcDbCircle
 10
58.673248
 20
292.07309
 30
0.0
 40
2.5
100
AcDbArc
 50
310.030642
 51
355.123619
  0
LINE
  5
6FC
330
1F
100
AcDbEntity
  8
0
  6
DASHDOT
370
    25
100
AcDbLine
 10
78.74736
 20
51.861237
 30
0.0
 11
54.547363
 21
51.861237
 31
0.0
  0
LINE
  5
6FD
330
1F
100
AcDbEntity
  8
0
  6
DASHDOT
370
    25
100
AcDbLine
 10
66.647369
 20
63.961235
 30
0.0
 11
66.647369
 21
39.76123
 31
0.0
  0
LINE
  5
6FE
330
1F
100
AcDbEntity
  8
0
  6
DASHDOT
370
    25
100
AcDbLine
 10
342.098999
 20
30.953766
 30
0.0
 11
317.899017
 21
30.953766
 31
0.0
  0
LINE
  5
6FF
330
1F
100
AcDbEntity
  8
0
  6
DASHDOT
370
    25
100
AcDbLine
 10
329.999023
 20
43.053757
 30
0.0
 11
329.999023
 21
18.85376
 31
0.0
  0
LINE
  5
700
330
1F
100
AcDbEntity
  8
0
  6
DASHDOT
370
    25
100
AcDbLine
 10
78.74736
 20
292.290741
 30
0.0
 11
54.547363
 21
292.290741
 31
0.0
  0
LINE
  5
701
330
1F
100
AcDbEntity
  8
0
  6
DASHDOT
370
    25
100
AcDbLine
 10
66.647369
 20
304.390747
 30
0.0
 11
66.647369
 21
280.190735
 31
0.0
  0
LINE
  5
702
330
1F
100
AcDbEntity
  8
0
  6
DASHDOT
370
    25
100
AcDbLine
 10
342.098999
 20
313.198212
 30
0.0
 11
317.899017
 21
313.198212
 31
0.0
  0
LINE
  5
703
330
1F
100
AcDbEntity
  8
0
  6
DASHDOT
370
    25
100
AcDbLine
 10
329.999023
 20
325.298218
 30
0.0
 11
329.999023
 21
301.098206
 31
0.0
  0
POINT
  5
704
330
1F
100
AcDbEntity
  8
0
370
    60
100
AcDbPoint
 10
401.706116
 20
74.753349
 30
0.0
  0
LINE
  5
705
330
1F
100
AcDbEntity
  8
0
 48
0.0625
370
    60
100
AcDbLine
 10
24.438278
 20
173.325989
 30
0.0
 11
24.438278
 21
170.825989
 31
0.0
  0
POINT
  5
706
330
1F
100
AcDbEntity
  8
0
370
    60
100
AcDbPoint
 10
256.093231
 20
319.903259
 30
0.0
  0
POINT
  5
707
330
1F
100
AcDbEntity
  8
0
370
    60
100
AcDbPoint
 10
256.093231
 20
24.248703
 30
0.0
  0
LWPOLYLINE
  5
708
330
1F
100
AcDbEntity
  8
0
370
    60
100
AcDbPolyline
 90
        3
 70
     0
 43
0.0
 10
68.485321
 20
437.781525
 10
69.131363
 20
436.9552
 10
69.794083
 20
436.195007
  0
LWPOLYLINE
  5
70D
330
1F
100
AcDbEntity
  8
0
370
    60
100
AcDbPolyline
 90
        6
 70
     0
 43
0.0
 10
69.794083
 20
436.195007
 10
70.147461
 20
435.858917
 10
70.505005
 20
435.582764
 10
70.789398
 20
435.41626
 10
71.061462
 20
435.312561
 10
71.291214
 20
435.281525
  0
LWPOLYLINE
  5
715
330
1F
100
AcDbEntity
  8
0
370
    60
100
AcDbPolyline
 90
        6
 70
     0
 43
0.0
 10
325.288513
 20
435.281525
 10
325.710663
 20
435.35907
 10
326.305542
 20
435.630981
 10
327.126038
 20
436.180359
 10
327.506775
 20
436.501587
 10
327.86499
 20
436.871063
  0
LWPOLYLINE
  5
71D
330
1F
100
AcDbEntity
  8
0
370
    60
100
AcDbPolyline
 90
        4
 70
     0
 43
0.0
 10
334.925293
 20
435.281525
 10
334.5495
 20
435.361328
 10
333.986145
 20
435.647095
 10
333.716431
 20
435.823303
  0
LWPOLYLINE
  5
723
330
1F
100
AcDbEntity
  8
0
370
    60
100
AcDbPolyline
 90
        4
 70
     0
 43
0.0
 10
333.716431
 20
435.823303
 10
333.16687
 20
436.246246
 10
332.628296
 20
436.767792
 10
332.538696
 20
436.871399
  0
LINE
  5
729
330
1F
100
AcDbEntity
  8
0
 48
0.075448
370
    60
100
AcDbLine
 10
46.053467
 20
413.26239
 30
0.0
 11
48.533081
 21
411.542114
 31
0.0
  0
LINE
  5
72A
330
1F
100
AcDbEntity
  8
0
 48
0.040469
370
    60
100
AcDbLine
 10
48.533081
 20
411.542114
 30
0.0
 11
49.862427
 21
410.618408
 31
0.0
  0
LINE
  5
72B
330
1F
100
AcDbEntity
  8
0
 48
0.026344
370
    60
100
AcDbLine
 10
49.862427
 20
410.618408
 30
0.0
 11
50.732162
 21
410.023468
 31
0.0
  0
LINE
  5
72C
330
1F
100
AcDbEntity
  8
0
 48
0.048935
370
    60
100
AcDbLine
 10
50.732162
 20
410.023468
 30
0.0
 11
52.357758
 21
408.933105
 31
0.0
  0
LINE
  5
72D
330
1F
100
AcDbEntity
  8
0
 48
0.079781
370
    60
100
AcDbLine
 10
52.357758
 20
408.933105
 30
0.0
 11
55.01326
 21
407.1633
 31
0.0
  0
LINE
  5
72E
330
1F
100
AcDbEntity
  8
0
 48
0.104002
370
    60
100
AcDbLine
 10
55.01326
 20
407.1633
 30
0.0
 11
58.478256
 21
404.861084
 31
0.0
  0
LINE
  5
72F
330
1F
100
AcDbEntity
  8
0
 48
0.124826
370
    60
100
AcDbLine
 10
58.478256
 20
404.861084
 30
0.0
 11
62.639221
 21
402.101196
 31
0.0
  0
LINE
  5
730
330
1F
100
AcDbEntity
  8
0
 48
0.1423
370
    60
100
AcDbLine
 10
62.639221
 20
402.101196
 30
0.0
 11
67.382446
 21
398.954651
 31
0.0
  0
LINE
  5
731
330
1F
100
AcDbEntity
  8
0
 48
0.142574
370
    60
100
AcDbLine
 10
67.382446
 20
398.954651
 30
0.0
 11
72.135071
 21
395.80249
 31
0.0
  0
LINE
  5
732
330
1F
100
AcDbEntity
  8
0
 48
0.17575
370
    60
100
AcDbLine
 10
72.135071
 20
395.80249
 30
0.0
 11
77.970016
 21
391.88147
 31
0.0
  0
LWPOLYLINE
  5
733
330
1F
100
AcDbEntity
  8
0
370
    60
100
AcDbPolyline
 90
        4
 70
     0
 43
0.0
 10
401.62207
 20
384.983429
 10
401.62207
 20
384.983429
 10
401.52951
 20
384.910522
 10
401.250977
 20
384.845886
  0
LINE
  5
751
330
1F
100
AcDbEntity
  8
0
 48
0.070081
370
    60
100
AcDbLine
 10
112.798698
 20
374.522522
 30
0.0
 11
115.390694
 21
373.454987
 31
0.0
  0
LINE
  5
752
330
1F
100
AcDbEntity
  8
0
 48
0.135056
370
    60
100
AcDbLine
 10
115.390694
 20
373.454987
 30
0.0
 11
120.411057
 21
371.45993
 31
0.0
  0
LINE
  5
753
330
1F
100
AcDbEntity
  8
0
 48
0.032361
370
    60
100
AcDbLine
 10
120.411057
 20
371.45993
 30
0.0
 11
121.620018
 21
370.997314
 31
0.0
  0
LWPOLYLINE
  5
754
330
1F
100
AcDbEntity
  8
0
370
    60
100
AcDbPolyline
 90
        3
 70
     0
 43
0.0
 10
121.620018
 20
370.997314
 10
127.445503
 20
368.865479
 10
129.982666
 20
367.989746
  0
LWPOLYLINE
  5
759
330
1F
100
AcDbEntity
  8
0
370
    60
100
AcDbPolyline
 90
        4
 70
     0
 43
0.0
 10
282.573914
 20
361.628418
 10
277.625641
 20
361.035461
 10
272.672913
 20
360.482483
 10
266.675415
 20
359.866882
  0
LINE
  5
75F
330
1F
100
AcDbEntity
  8
0
 48
0.111132
370
    60
100
AcDbLine
 10
266.675415
 20
359.866882
 30
0.0
 11
262.249695
 21
359.45047
 31
0.0
  0
LINE
  5
760
330
1F
100
AcDbEntity
  8
0
 48
0.222696
370
    60
100
AcDbLine
 10
262.249695
 20
359.45047
 30
0.0
 11
253.372406
 21
358.713104
 31
0.0
  0
LINE
  5
761
330
1F
100
AcDbEntity
  8
0
 48
0.222392
370
    60
100
AcDbLine
 10
253.372406
 20
358.713104
 30
0.0
 11
244.497284
 21
358.108398
 31
0.0
  0
LINE
  5
762
330
1F
100
AcDbEntity
  8
0
 48
0.222593
370
    60
100
AcDbLine
 10
244.497284
 20
358.108398
 30
0.0
 11
235.606018
 21
357.637878
 31
0.0
  0
LWPOLYLINE
  5
763
330
1F
100
AcDbEntity
  8
0
370
    60
100
AcDbPolyline
 90
        3
 70
     0
 43
0.0
 10
235.606018
 20
357.637878
 10
226.116394
 20
357.288147
 10
222.250809
 20
357.191345
  0
LWPOLYLINE
  5
768
330
1F
100
AcDbEntity
  8
0
370
    60
100
AcDbPolyline
 90
        3
 70
     0
 43
0.0
 10
222.250809
 20
357.191345
 10
212.828583
 20
357.067444
 10
208.877808
 20
357.063049
  0
LINE
  5
76D
330
1F
100
AcDbEntity
  8
0
 48
0.222779
370
    60
100
AcDbLine
 10
208.877808
 20
357.063049
 30
0.0
 11
199.967133
 21
357.156006
 31
0.0
  0
LWPOLYLINE
  5
76E
330
1F
100
AcDbEntity
  8
0
370
    60
100
AcDbPolyline
 90
        3
 70
     0
 43
0.0
 10
199.967133
 20
357.156006
 10
191.631134
 20
357.389526
 10
191.073303
 20
357.410889
  0
LWPOLYLINE
  5
773
330
1F
100
AcDbEntity
  8
0
370
    60
100
AcDbPolyline
 90
        4
 70
     0
 43
0.0
 10
191.073303
 20
357.410889
 10
187.456314
 20
357.571594
 10
183.841431
 20
357.772308
 10
182.187012
 20
357.877563
  0
LINE
  5
779
330
1F
100
AcDbEntity
  8
0
 48
0.06603
370
    60
100
AcDbLine
 10
182.187012
 20
357.877563
 30
0.0
 11
179.552475
 21
358.064911
 31
0.0
  0
LINE
  5
77A
330
1F
100
AcDbEntity
  8
0
 48
0.156382
370
    60
100
AcDbLine
 10
179.552475
 20
358.064911
 30
0.0
 11
173.32135
 21
358.614075
 31
0.0
  0
LWPOLYLINE
  5
77B
330
1F
100
AcDbEntity
  8
0
370
    60
100
AcDbPolyline
 90
        4
 70
     0
 43
0.0
 10
173.32135
 20
358.614075
 10
170.349792
 20
358.932037
 10
167.383011
 20
359.289856
 10
164.497131
 20
359.676849
  0
LWPOLYLINE
  5
781
330
1F
100
AcDbEntity
  8
0
370
    60
100
AcDbPolyline
 90
        3
 70
     0
 43
0.0
 10
164.497131
 20
359.676849
 10
159.118896
 20
360.514648
 10
155.731232
 20
361.125977
  0
LWPOLYLINE
  5
78B
330
1F
100
AcDbEntity
  8
0
370
    60
100
AcDbPolyline
 90
        3
 70
     0
 43
0.0
 10
112.269737
 20
374.734863
 10
111.206299
 20
375.168518
 10
110.784935
 20
375.341431
  0
LWPOLYLINE
  5
790
330
1F
100
AcDbEntity
  8
0
370
    60
100
AcDbPolyline
 90
       17
 70
     0
 43
0.0
 10
110.784935
 20
375.341431
 10
110.670837
 20
375.388367
 10
107.052292
 20
376.900574
 10
103.466438
 20
378.448181
 10
102.798073
 20
378.742645
 10
100.729286
 20
379.667175
 10
98.680206
 20
380.603973
 10
95.916985
 20
381.905273
 10
93.198212
 20
383.233307
 10
90.728279
 20
384.485809
 10
88.303513
 20
385.763245
 10
85.047684
 20
387.563171
 10
84.876419
 20
387.660828
 10
83.224396
 20
388.618469
 10
80.800186
 20
390.080963
 10
79.685104
 20
390.777496
 10
77.970016
 20
391.88147
  0
LINE
  5
7A3
330
1F
100
AcDbEntity
  8
0
 48
0.012418
370
    60
100
AcDbLine
 10
384.145966
 20
381.821533
 30
0.0
 11
383.660156
 21
381.718018
 31
0.0
  0
LINE
  5
7A4
330
1F
100
AcDbEntity
  8
0
 48
0.250986
370
    60
100
AcDbLine
 10
383.660156
 20
381.718018
 30
0.0
 11
373.848816
 21
379.59021
 31
0.0
  0
LINE
  5
7A5
330
1F
100
AcDbEntity
  8
0
 48
0.250957
370
    60
100
AcDbLine
 10
373.848816
 20
379.59021
 30
0.0
 11
364.068054
 21
377.330994
 31
0.0
  0
LWPOLYLINE
  5
7A6
330
1F
100
AcDbEntity
  8
0
370
    60
100
AcDbPolyline
 90
       11
 70
     0
 43
0.0
 10
364.068054
 20
377.330994
 10
348.913208
 20
373.725037
 10
339.708313
 20
371.594299
 10
334.824188
 20
370.512238
 10
330.006744
 20
369.485596
 10
325.180969
 20
368.498901
 10
320.444305
 20
367.571655
 10
315.699982
 20
366.684509
 10
315.195007
 20
366.59256
 10
305.860779
 20
364.97821
 10
297.619934
 20
363.684998
  0
LWPOLYLINE
  5
7B3
330
1F
100
AcDbEntity
  8
0
370
    60
100
AcDbPolyline
 90
        5
 70
     0
 43
0.0
 10
401.25
 20
384.845978
 10
400.578461
 20
384.719727
 10
394.049194
 20
383.552673
 10
389.253052
 20
382.724823
 10
385.040955
 20
381.999817
  0
LINE
  5
7BA
330
1F
100
AcDbEntity
  8
0
 48
0.022811
370
    60
100
AcDbLine
 10
385.040955
 20
381.999817
 30
0.0
 11
384.146149
 21
381.821289
 31
0.0
  0
LWPOLYLINE
  5
7BB
330
1F
100
AcDbEntity
  8
0
370
    60
100
AcDbPolyline
 90
        9
 70
     0
 43
0.0
 10
376.362183
 20
438.281525
 10
378.771545
 20
430.637238
 10
381.474915
 20
422.576508
 10
383.19635
 20
417.694611
 10
384.395752
 20
414.437225
 10
385.640289
 20
411.220154
 10
386.578735
 20
408.922852
 10
387.558319
 20
406.651978
 10
388.600342
 20
404.281403
  0
LINE
  5
7CB
330
1F
100
AcDbEntity
  8
0
 48
0.093548
370
    60
100
AcDbLine
 10
394.741943
 20
393.412964
 30
0.0
 11
396.855713
 21
390.325256
 31
0.0
  0
LWPOLYLINE
  5
7D3
330
1F
100
AcDbEntity
  8
0
370
    60
100
AcDbPolyline
 90
        4
 70
     0
 43
0.0
 10
152.809158
 20
361.707703
 10
147.649292
 20
362.861603
 10
142.458176
 20
364.184875
 10
138.455109
 20
365.312561
  0
LINE
  5
7D9
330
1F
100
AcDbEntity
  8
0
 48
0.000085
370
    60
100
AcDbLine
 10
226.71138
 20
357.304199
 30
0.0
 11
226.707977
 21
357.304077
 31
0.0
  0
LINE
  5
7DA
330
1F
100
AcDbEntity
  8
0
 48
0.000165
370
    60
100
AcDbLine
 10
208.891754
 20
357.058716
 30
0.0
 11
208.885162
 21
357.058716
 31
0.0
  0
LWPOLYLINE
  5
7DB
330
1F
100
AcDbEntity
  8
0
370
    60
100
AcDbPolyline
 90
        3
 70
     0
 43
0.0
 10
191.070496
 20
357.410767
 10
191.071503
 20
357.410736
 10
191.072083
 20
357.410706
  0
LINE
  5
7E5
330
1F
100
AcDbEntity
  8
0
 48
0.000287
370
    60
100
AcDbLine
 10
393.002502
 20
383.371063
 30
0.0
 11
393.013824
 21
383.373047
 31
0.0
  0
LWPOLYLINE
  5
7E6
330
1F
100
AcDbEntity
  8
0
370
    60
100
AcDbPolyline
 90
        3
 70
     0
 43
0.0
 10
398.27594
 20
384.296234
 10
398.276917
 20
384.296417
 10
398.277832
 20
384.29657
  0
LINE
  5
7F3
330
1F
100
AcDbEntity
  8
0
 48
0.081834
370
    60
100
AcDbLine
 10
384.785339
 20
413.410919
 30
0.0
 11
385.983917
 21
410.364868
 31
0.0
  0
LINE
  5
7F8
330
1F
100
AcDbEntity
  8
0
 48
0.044422
370
    60
100
AcDbLine
 10
383.706757
 20
416.292877
 30
0.0
 11
384.324707
 21
414.626892
 31
0.0
  0
LINE
  5
7F9
330
1F
100
AcDbEntity
  8
0
 48
0.034047
370
    60
100
AcDbLine
 10
382.805969
 20
418.783386
 30
0.0
 11
383.266479
 21
417.50174
 31
0.0
  0
LINE
  5
802
330
1F
100
AcDbEntity
  8
0
 48
0.009173
370
    60
100
AcDbLine
 10
396.855469
 20
390.325684
 30
0.0
 11
396.962891
 21
390.1769715
 31
0.0
  0
LINE
  5
82C
330
1F
100
AcDbEntity
  8
0
 48
0.050005
370
    60
100
AcDbLine
 10
324.636902
 20
433.281525
 30
0.0
 11
324.664917
 21
435.281525
 31
0.0
  0
LINE
  5
82D
330
1F
100
AcDbEntity
  8
0
 48
0.050005
370
    60
100
AcDbLine
 10
335.333313
 20
435.281525
 30
0.0
 11
335.361115
 21
433.281525
 31
0.0
  0
LINE
  5
82E
330
1F
100
AcDbEntity
  8
0
 48
0.050004
370
    60
100
AcDbLine
 10
72.118103
 20
435.281525
 30
0.0
 11
72.142166
 21
433.281525
 31
0.0
  0
LINE
  5
82F
330
1F
100
AcDbEntity
  8
0
 48
0.125
370
    60
100
AcDbLine
 10
61.152557
 20
433.281525
 30
0.0
 11
61.164215
 21
438.281525
 31
0.0
  0
LINE
  5
830
330
1F
100
AcDbEntity
  8
0
 48
0.010894
370
    60
100
AcDbLine
 10
46.053467
 20
413.26239
 30
0.0
 11
46.411896
 21
413.014587
 31
0.0
  0
LINE
  5
833
330
1F
100
AcDbEntity
  8
0
 48
0.019732
370
    60
100
AcDbLine
 10
61.152557
 20
433.281525
 30
0.0
 11
61.50322
 21
432.574402
 31
0.0
  0
LINE
  5
834
330
1F
100
AcDbEntity
  8
0
 48
0.019584
370
    60
100
AcDbLine
 10
61.50322
 20
432.574402
 30
0.0
 11
62.229782
 21
432.281525
 31
0.0
  0
LINE
  5
835
330
1F
100
AcDbEntity
  8
0
 48
0.019732
370
    60
100
AcDbLine
 10
71.791504
 20
432.574402
 30
0.0
 11
72.142166
 21
433.281525
 31
0.0
  0
LINE
  5
836
330
1F
100
AcDbEntity
  8
0
 48
0.019584
370
    60
100
AcDbLine
 10
71.064941
 20
432.281525
 30
0.0
 11
71.791504
 21
432.574402
 31
0.0
  0
LINE
  5
837
330
1F
100
AcDbEntity
  8
0
 48
0.044186
370
    60
100
AcDbLine
 10
62.229782
 20
432.281525
 30
0.0
 11
63.997223
 21
432.281525
 31
0.0
  0
LINE
  5
838
330
1F
100
AcDbEntity
  8
0
 48
0.176693
370
    60
100
AcDbLine
 10
63.997223
 20
432.281525
 30
0.0
 11
71.064941
 21
432.281525
 31
0.0
  0
LINE
  5
839
330
1F
100
AcDbEntity
  8
0
 48
0.019645
370
    60
100
AcDbLine
 10
324.791901
 20
432.574402
 30
0.0
 11
325.521088
 21
432.281525
 31
0.0
  0
LINE
  5
83A
330
1F
100
AcDbEntity
  8
0
 48
0.018098
370
    60
100
AcDbLine
 10
324.636902
 20
433.281525
 30
0.0
 11
324.791901
 21
432.574402
 31
0.0
  0
LINE
  5
83B
330
1F
100
AcDbEntity
  8
0
 48
0.018098
370
    60
100
AcDbLine
 10
335.206116
 20
432.574402
 30
0.0
 11
335.361115
 21
433.281525
 31
0.0
  0
LINE
  5
83C
330
1F
100
AcDbEntity
  8
0
 48
0.019644
370
    60
100
AcDbLine
 10
334.476959
 20
432.281525
 30
0.0
 11
335.206116
 21
432.574402
 31
0.0
  0
LINE
  5
83D
330
1F
100
AcDbEntity
  8
0
 48
0.111948
370
    60
100
AcDbLine
 10
325.521088
 20
432.281525
 30
0.0
 11
329.999023
 21
432.281525
 31
0.0
  0
LINE
  5
83E
330
1F
100
AcDbEntity
  8
0
 48
0.111948
370
    60
100
AcDbLine
 10
329.999023
 20
432.281525
 30
0.0
 11
334.476959
 21
432.281525
 31
0.0
  0
LWPOLYLINE
  5
83F
330
1F
100
AcDbEntity
  8
0
370
    60
100
AcDbPolyline
 90
        7
 70
     0
 43
0.0
 10
401.643646
 20
385.034363
 10
401.716003
 20
385.156982
 10
401.744873
 20
385.286774
 10
401.732178
 20
385.422852
 10
401.676422
 20
385.564819
 10
401.429504
 20
385.849121
 10
401.097443
 20
386.055603
  0
LINE
  5
848
330
1F
100
AcDbEntity
  8
0
 48
0.0125
370
    60
100
AcDbLine
 10
24.438278
 20
437.781525
 30
0.0
 11
24.438278
 21
438.281525
 31
0.0
  0
LWPOLYLINE
  5
849
330
1F
100
AcDbEntity
  8
0
370
    60
100
AcDbPolyline
 90
        3
 70
     0
 43
0.0
 10
68.485321
 20
437.781525
 10
69.131363
 20
436.9552
 10
69.794083
 20
436.195007
  0
LWPOLYLINE
  5
84E
330
1F
100
AcDbEntity
  8
0
370
    60
100
AcDbPolyline
 90
        6
 70
     0
 43
0.0
 10
69.794083
 20
436.195007
 10
70.147461
 20
435.858917
 10
70.505005
 20
435.582764
 10
70.789398
 20
435.41626
 10
71.061462
 20
435.312561
 10
71.291214
 20
435.281525
  0
LWPOLYLINE
  5
856
330
1F
100
AcDbEntity
  8
0
370
    60
100
AcDbPolyline
 90
        6
 70
     0
 43
0.0
 10
325.288513
 20
435.281525
 10
325.710663
 20
435.35907
 10
326.305542
 20
435.630981
 10
327.126038
 20
436.180359
 10
327.506775
 20
436.501587
 10
327.86499
 20
436.871063
  0
ARC
  5
85E
330
1F
100
AcDbEntity
  8
0
370
    60
100
AcDbCircle
 10
302.501007
 20
458.156494
 30
0.0
 40
33.11216
100
AcDbArc
 50
319.996603
 51
322.024978
  0
ARC
  5
85F
330
1F
100
AcDbEntity
  8
0
370
    60
100
AcDbCircle
 10
368.040039
 20
465.547699
 30
0.0
 40
45.636486
100
AcDbArc
 50
217.475996
 51
218.929064
  0
LWPOLYLINE
  5
860
330
1F
100
AcDbEntity
  8
0
370
    60
100
AcDbPolyline
 90
        4
 70
     0
 43
0.0
 10
334.925293
 20
435.281525
 10
334.5495
 20
435.361328
 10
333.986145
 20
435.647095
 10
333.716431
 20
435.823303
  0
LWPOLYLINE
  5
866
330
1F
100
AcDbEntity
  8
0
370
    60
100
AcDbPolyline
 90
        4
 70
     0
 43
0.0
 10
333.716431
 20
435.823303
 10
333.16687
 20
436.246246
 10
332.628296
 20
436.767792
 10
332.538696
 20
436.871399
  0
ARC
  5
86C
330
1F
100
AcDbEntity
  8
0
370
    60
100
AcDbCircle
 10
39.769226
 20
434.781525
 30
0.0
 40
0.5
100
AcDbArc
 50
14.472047
 51
90.015623
  0
LINE
  5
874
330
1F
100
AcDbEntity
  8
0
 48
0.075448
370
    60
100
AcDbLine
 10
46.053467
 20
413.26239
 30
0.0
 11
48.533081
 21
411.542114
 31
0.0
  0
LINE
  5
875
330
1F
100
AcDbEntity
  8
0
 48
0.040469
370
    60
100
AcDbLine
 10
48.533081
 20
411.542114
 30
0.0
 11
49.862427
 21
410.618408
 31
0.0
  0
LINE
  5
876
330
1F
100
AcDbEntity
  8
0
 48
0.026344
370
    60
100
AcDbLine
 10
49.862427
 20
410.618408
 30
0.0
 11
50.732162
 21
410.023468
 31
0.0
  0
LINE
  5
877
330
1F
100
AcDbEntity
  8
0
 48
0.048935
370
    60
100
AcDbLine
 10
50.732162
 20
410.023468
 30
0.0
 11
52.357758
 21
408.933105
 31
0.0
  0
LINE
  5
878
330
1F
100
AcDbEntity
  8
0
 48
0.079781
370
    60
100
AcDbLine
 10
52.357758
 20
408.933105
 30
0.0
 11
55.01326
 21
407.1633
 31
0.0
  0
LINE
  5
879
330
1F
100
AcDbEntity
  8
0
 48
0.104002
370
    60
100
AcDbLine
 10
55.01326
 20
407.1633
 30
0.0
 11
58.478256
 21
404.861084
 31
0.0
  0
LINE
  5
87A
330
1F
100
AcDbEntity
  8
0
 48
0.124826
370
    60
100
AcDbLine
 10
58.478256
 20
404.861084
 30
0.0
 11
62.639221
 21
402.101196
 31
0.0
  0
LINE
  5
87B
330
1F
100
AcDbEntity
  8
0
 48
0.1423
370
    60
100
AcDbLine
 10
62.639221
 20
402.101196
 30
0.0
 11
67.382446
 21
398.954651
 31
0.0
  0
LINE
  5
87C
330
1F
100
AcDbEntity
  8
0
 48
0.142574
370
    60
100
AcDbLine
 10
67.382446
 20
398.954651
 30
0.0
 11
72.135071
 21
395.80249
 31
0.0
  0
LINE
  5
87D
330
1F
100
AcDbEntity
  8
0
 48
0.17575
370
    60
100
AcDbLine
 10
72.135071
 20
395.80249
 30
0.0
 11
77.970016
 21
391.88147
 31
0.0
  0
ARC
  5
87E
330
1F
100
AcDbEntity
  8
0
370
    60
100
AcDbCircle
 10
46.665909
 20
414.052887
 30
0.0
 40
1.0
100
AcDbArc
 50
194.467316
 51
232.233262
  0
LINE
  5
87F
330
1F
100
AcDbEntity
  8
0
 48
0.03218
370
    60
100
AcDbLine
 10
25.688202
 20
435.616394
 30
0.0
 11
26.931076
 21
435.281525
 31
0.0
  0
ARC
  5
880
330
1F
100
AcDbEntity
  8
0
370
    60
100
AcDbCircle
 10
26.937607
 20
437.781525
 30
0.0
 40
2.499334
100
AcDbArc
 50
180.000101
 51
185.740765
  0
LINE
  5
881
330
1F
100
AcDbEntity
  8
0
 48
0.000187
370
    60
100
AcDbLine
 10
24.443314
 20
437.531525
 30
0.0
 11
24.45079
 21
437.531525
 31
0.0
  0
ARC
  5
882
330
1F
100
AcDbEntity
  8
0
370
    60
100
AcDbCircle
 10
362.499023
 20
437.781525
 30
0.0
 40
2.5
100
AcDbArc
 50
270.000001
 51
0.0
  0
LINE
  5
883
330
1F
100
AcDbEntity
  8
0
 48
0.0125
370
    60
100
AcDbLine
 10
364.999023
 20
437.781525
 30
0.0
 11
364.999023
 21
438.281525
 31
0.0
  0
LWPOLYLINE
  5
884
330
1F
100
AcDbEntity
  8
0
370
    60
100
AcDbPolyline
 90
        4
 70
     0
 43
0.0
 10
401.6437778047334
 20
385.0345863614522
 10
401.62207
 20
384.983429
 10
401.52951
 20
384.910522
 10
401.250977
 20
384.845886
  0
LWPOLYLINE
  5
88B
330
1F
100
AcDbEntity
  8
0
370
    60
100
AcDbPolyline
 90
        4
 70
     0
 43
0.0
 10
398.896576
 20
387.89563
 10
399.500671
 20
387.327271
 10
400.119873
 20
386.799377
 10
401.097443
 20
386.055603
  0
LINE
  5
89C
330
1F
100
AcDbEntity
  8
0
 48
0.103187
370
    60
100
AcDbLine
 10
293.534485
 20
363.097412
 30
0.0
 11
297.619934
 21
363.684998
 31
0.0
  0
LINE
  5
89D
330
1F
100
AcDbEntity
  8
0
 48
0.16344
370
    60
100
AcDbLine
 10
132.212128
 20
367.252991
 30
0.0
 11
138.455109
 21
365.312531
 31
0.0
  0
LINE
  5
89E
330
1F
100
AcDbEntity
  8
0
 48
0.058701
370
    60
100
AcDbLine
 10
129.982666
 20
367.989746
 30
0.0
 11
132.212128
 21
367.252991
 31
0.0
  0
LINE
  5
89F
330
1F
100
AcDbEntity
  8
0
 48
0.01425
370
    60
100
AcDbLine
 10
112.269737
 20
374.734863
 30
0.0
 11
112.798698
 21
374.522522
 31
0.0
  0
LINE
  5
8A0
330
1F
100
AcDbEntity
  8
0
 48
0.276463
370
    60
100
AcDbLine
 10
282.573029
 20
361.635437
 30
0.0
 11
293.534485
 21
363.097412
 31
0.0
  0
LINE
  5
8A7
330
1F
100
AcDbEntity
  8
0
 48
0.070081
370
    60
100
AcDbLine
 10
112.798698
 20
374.522522
 30
0.0
 11
115.390694
 21
373.454987
 31
0.0
  0
LINE
  5
8A8
330
1F
100
AcDbEntity
  8
0
 48
0.135056
370
    60
100
AcDbLine
 10
115.390694
 20
373.454987
 30
0.0
 11
120.411057
 21
371.45993
 31
0.0
  0
LINE
  5
8A9
330
1F
100
AcDbEntity
  8
0
 48
0.032361
370
    60
100
AcDbLine
 10
120.411057
 20
371.45993
 30
0.0
 11
121.620018
 21
370.997314
 31
0.0
  0
LWPOLYLINE
  5
8AA
330
1F
100
AcDbEntity
  8
0
370
    60
100
AcDbPolyline
 90
        3
 70
     0
 43
0.0
 10
121.620018
 20
370.997314
 10
127.445503
 20
368.865479
 10
129.982666
 20
367.989746
  0
LWPOLYLINE
  5
8AF
330
1F
100
AcDbEntity
  8
0
370
    60
100
AcDbPolyline
 90
        4
 70
     0
 43
0.0
 10
282.573914
 20
361.628418
 10
277.625641
 20
361.035461
 10
272.672913
 20
360.482483
 10
266.675415
 20
359.866882
  0
LINE
  5
8B5
330
1F
100
AcDbEntity
  8
0
 48
0.111132
370
    60
100
AcDbLine
 10
266.675415
 20
359.866882
 30
0.0
 11
262.249695
 21
359.45047
 31
0.0
  0
LINE
  5
8B6
330
1F
100
AcDbEntity
  8
0
 48
0.222696
370
    60
100
AcDbLine
 10
262.249695
 20
359.45047
 30
0.0
 11
253.372406
 21
358.713104
 31
0.0
  0
LINE
  5
8B7
330
1F
100
AcDbEntity
  8
0
 48
0.222392
370
    60
100
AcDbLine
 10
253.372406
 20
358.713104
 30
0.0
 11
244.497284
 21
358.108398
 31
0.0
  0
LINE
  5
8B8
330
1F
100
AcDbEntity
  8
0
 48
0.222593
370
    60
100
AcDbLine
 10
244.497284
 20
358.108398
 30
0.0
 11
235.606018
 21
357.637878
 31
0.0
  0
LWPOLYLINE
  5
8B9
330
1F
100
AcDbEntity
  8
0
370
    60
100
AcDbPolyline
 90
        3
 70
     0
 43
0.0
 10
235.606018
 20
357.637878
 10
226.116394
 20
357.288147
 10
222.250809
 20
357.191345
  0
LWPOLYLINE
  5
8BE
330
1F
100
AcDbEntity
  8
0
370
    60
100
AcDbPolyline
 90
        3
 70
     0
 43
0.0
 10
222.250809
 20
357.191345
 10
212.828583
 20
357.067444
 10
208.877808
 20
357.063049
  0
LINE
  5
8C3
330
1F
100
AcDbEntity
  8
0
 48
0.222779
370
    60
100
AcDbLine
 10
208.877808
 20
357.063049
 30
0.0
 11
199.967133
 21
357.156006
 31
0.0
  0
LWPOLYLINE
  5
8C4
330
1F
100
AcDbEntity
  8
0
370
    60
100
AcDbPolyline
 90
        3
 70
     0
 43
0.0
 10
199.967133
 20
357.156006
 10
191.631134
 20
357.389526
 10
191.073303
 20
357.410889
  0
LWPOLYLINE
  5
8C9
330
1F
100
AcDbEntity
  8
0
370
    60
100
AcDbPolyline
 90
        4
 70
     0
 43
0.0
 10
191.073303
 20
357.410889
 10
187.456314
 20
357.571594
 10
183.841431
 20
357.772308
 10
182.187012
 20
357.877563
  0
LINE
  5
8CF
330
1F
100
AcDbEntity
  8
0
 48
0.06603
370
    60
100
AcDbLine
 10
182.187012
 20
357.877563
 30
0.0
 11
179.552475
 21
358.064911
 31
0.0
  0
LINE
  5
8D0
330
1F
100
AcDbEntity
  8
0
 48
0.156382
370
    60
100
AcDbLine
 10
179.552475
 20
358.064911
 30
0.0
 11
173.32135
 21
358.614075
 31
0.0
  0
LWPOLYLINE
  5
8D1
330
1F
100
AcDbEntity
  8
0
370
    60
100
AcDbPolyline
 90
        4
 70
     0
 43
0.0
 10
173.32135
 20
358.614075
 10
170.349792
 20
358.932037
 10
167.383011
 20
359.289856
 10
164.497131
 20
359.676849
  0
LWPOLYLINE
  5
8D7
330
1F
100
AcDbEntity
  8
0
370
    60
100
AcDbPolyline
 90
        3
 70
     0
 43
0.0
 10
164.497131
 20
359.676849
 10
159.118896
 20
360.514648
 10
155.731232
 20
361.125977
  0
LWPOLYLINE
  5
8E1
330
1F
100
AcDbEntity
  8
0
370
    60
100
AcDbPolyline
 90
        3
 70
     0
 43
0.0
 10
112.269737
 20
374.734863
 10
111.206299
 20
375.168518
 10
110.784935
 20
375.341431
  0
LWPOLYLINE
  5
8E6
330
1F
100
AcDbEntity
  8
0
370
    60
100
AcDbPolyline
 90
       17
 70
     0
 43
0.0
 10
110.784935
 20
375.341431
 10
110.670837
 20
375.388367
 10
107.052292
 20
376.900574
 10
103.466438
 20
378.448181
 10
102.798073
 20
378.742645
 10
100.729286
 20
379.667175
 10
98.680206
 20
380.603973
 10
95.916985
 20
381.905273
 10
93.198212
 20
383.233307
 10
90.728279
 20
384.485809
 10
88.303513
 20
385.763245
 10
85.047684
 20
387.563171
 10
84.876419
 20
387.660828
 10
83.224396
 20
388.618469
 10
80.800186
 20
390.080963
 10
79.685104
 20
390.777496
 10
77.970016
 20
391.88147
  0
LINE
  5
8F9
330
1F
100
AcDbEntity
  8
0
 48
0.012418
370
    60
100
AcDbLine
 10
384.145966
 20
381.821533
 30
0.0
 11
383.660156
 21
381.718018
 31
0.0
  0
LINE
  5
8FA
330
1F
100
AcDbEntity
  8
0
 48
0.250986
370
    60
100
AcDbLine
 10
383.660156
 20
381.718018
 30
0.0
 11
373.848816
 21
379.59021
 31
0.0
  0
LINE
  5
8FB
330
1F
100
AcDbEntity
  8
0
 48
0.250957
370
    60
100
AcDbLine
 10
373.848816
 20
379.59021
 30
0.0
 11
364.068054
 21
377.330994
 31
0.0
  0
LWPOLYLINE
  5
8FC
330
1F
100
AcDbEntity
  8
0
370
    60
100
AcDbPolyline
 90
       11
 70
     0
 43
0.0
 10
364.068054
 20
377.330994
 10
348.913208
 20
373.725037
 10
339.708313
 20
371.594299
 10
334.824188
 20
370.512238
 10
330.006744
 20
369.485596
 10
325.180969
 20
368.498901
 10
320.444305
 20
367.571655
 10
315.699982
 20
366.684509
 10
315.195007
 20
366.59256
 10
305.860779
 20
364.97821
 10
297.619934
 20
363.684998
  0
LWPOLYLINE
  5
909
330
1F
100
AcDbEntity
  8
0
370
    60
100
AcDbPolyline
 90
        5
 70
     0
 43
0.0
 10
401.25
 20
384.845978
 10
400.578461
 20
384.719727
 10
394.049194
 20
383.552673
 10
389.253052
 20
382.724823
 10
385.040955
 20
381.999817
  0
LINE
  5
910
330
1F
100
AcDbEntity
  8
0
 48
0.022811
370
    60
100
AcDbLine
 10
385.040955
 20
381.999817
 30
0.0
 11
384.146149
 21
381.821289
 31
0.0
  0
LINE
  5
921
330
1F
100
AcDbEntity
  8
0
 48
0.093548
370
    60
100
AcDbLine
 10
394.741943
 20
393.412964
 30
0.0
 11
396.855713
 21
390.325256
 31
0.0
  0
ARC
  5
929
330
1F
100
AcDbEntity
  8
0
370
    60
100
AcDbCircle
 10
26.930908
 20
437.781647
 30
0.0
 40
2.500166
100
AcDbArc
 50
185.741899
 51
239.473235
  0
LINE
  5
92A
330
1F
100
AcDbEntity
  8
0
 48
0.074483
370
    60
100
AcDbLine
 10
152.814957
 20
361.735596
 30
0.0
 11
155.731094
 21
361.125244
 31
0.0
  0
LINE
  5
92B
330
1F
100
AcDbEntity
  8
0
 48
0.028718
370
    60
100
AcDbLine
 10
221.108124
 20
357.168518
 30
0.0
 11
222.256607
 21
357.191345
 31
0.0
  0
LWPOLYLINE
  5
92D
330
1F
100
AcDbEntity
  8
0
370
    60
100
AcDbPolyline
 90
        4
 70
     0
 43
0.0
 10
152.809158
 20
361.707703
 10
147.649292
 20
362.861603
 10
142.458176
 20
364.184875
 10
138.455109
 20
365.312561
  0
LINE
  5
933
330
1F
100
AcDbEntity
  8
0
 48
0.000085
370
    60
100
AcDbLine
 10
226.71138
 20
357.304199
 30
0.0
 11
226.707977
 21
357.304077
 31
0.0
  0
LINE
  5
934
330
1F
100
AcDbEntity
  8
0
 48
0.000165
370
    60
100
AcDbLine
 10
208.891754
 20
357.058716
 30
0.0
 11
208.885162
 21
357.058716
 31
0.0
  0
LWPOLYLINE
  5
935
330
1F
100
AcDbEntity
  8
0
370
    60
100
AcDbPolyline
 90
        3
 70
     0
 43
0.0
 10
191.070496
 20
357.410767
 10
191.071503
 20
357.410736
 10
191.072083
 20
357.410706
  0
LINE
  5
93F
330
1F
100
AcDbEntity
  8
0
 48
0.000287
370
    60
100
AcDbLine
 10
393.002502
 20
383.371063
 30
0.0
 11
393.013824
 21
383.373047
 31
0.0
  0
LWPOLYLINE
  5
940
330
1F
100
AcDbEntity
  8
0
370
    60
100
AcDbPolyline
 90
        3
 70
     0
 43
0.0
 10
398.27594
 20
384.296234
 10
398.276917
 20
384.296417
 10
398.277832
 20
384.29657
  0
LINE
  5
945
330
1F
100
AcDbEntity
  8
0
 48
0.010677
370
    60
100
AcDbLine
 10
364.999023
 20
438.281525
 30
0.0
 11
365.426086
 21
438.281525
 31
0.0
  0
LINE
  5
946
330
1F
100
AcDbEntity
  8
0
 48
0.054028
370
    60
100
AcDbLine
 10
68.483337
 20
438.281525
 30
0.0
 11
70.64447
 21
438.281525
 31
0.0
  0
LINE
  5
947
330
1F
100
AcDbEntity
  8
0
 48
0.070992
370
    60
100
AcDbLine
 10
70.64447
 20
438.281525
 30
0.0
 11
73.484146
 21
438.281525
 31
0.0
  0
LINE
  5
948
330
1F
100
AcDbEntity
  8
0
370
    60
100
AcDbLine
 10
73.484146
 20
438.281525
 30
0.0
 11
256.093231
 21
438.281525
 31
0.0
  0
LINE
  5
949
330
1F
100
AcDbEntity
  8
0
370
    60
100
AcDbLine
 10
256.093231
 20
438.281525
 30
0.0
 11
327.871765
 21
438.281525
 31
0.0
  0
LINE
  5
94A
330
1F
100
AcDbEntity
  8
0
 48
0.018317
370
    60
100
AcDbLine
 10
327.871765
 20
438.281525
 30
0.0
 11
328.604431
 21
438.281525
 31
0.0
  0
LINE
  5
94B
330
1F
100
AcDbEntity
  8
0
 48
0.018079
370
    60
100
AcDbLine
 10
331.822357
 20
438.281525
 30
0.0
 11
332.545532
 21
438.281525
 31
0.0
  0
LINE
  5
94C
330
1F
100
AcDbEntity
  8
0
 48
0.455763
370
    60
100
AcDbLine
 10
332.545532
 20
438.281525
 30
0.0
 11
350.776062
 21
438.281525
 31
0.0
  0
LINE
  5
94D
330
1F
100
AcDbEntity
  8
0
 48
0.355574
370
    60
100
AcDbLine
 10
350.776062
 20
438.281525
 30
0.0
 11
364.999023
 21
438.281525
 31
0.0
  0
LINE
  5
94E
330
1F
100
AcDbEntity
  8
0
370
    60
100
AcDbLine
 10
24.438278
 20
438.281525
 30
0.0
 11
60.28125
 21
438.281525
 31
0.0
  0
LINE
  5
94F
330
1F
100
AcDbEntity
  8
0
 48
0.022074
370
    60
100
AcDbLine
 10
60.28125
 20
438.281525
 30
0.0
 11
61.164215
 21
438.281525
 31
0.0
  0
LINE
  5
950
330
1F
100
AcDbEntity
  8
0
 48
0.056102
370
    60
100
AcDbLine
 10
61.164215
 20
438.281525
 30
0.0
 11
63.408295
 21
438.281525
 31
0.0
  0
LINE
  5
951
330
1F
100
AcDbEntity
  8
0
 48
0.126876
370
    60
100
AcDbLine
 10
63.408295
 20
438.281525
 30
0.0
 11
68.483337
 21
438.281525
 31
0.0
  0
LINE
  5
952
330
1F
100
AcDbEntity
  8
0
 48
0.045583
370
    60
100
AcDbLine
 10
329.999023
 20
438.281525
 30
0.0
 11
331.822357
 21
438.281525
 31
0.0
  0
LINE
  5
953
330
1F
100
AcDbEntity
  8
0
 48
0.034865
370
    60
100
AcDbLine
 10
328.604431
 20
438.281525
 30
0.0
 11
329.999023
 21
438.281525
 31
0.0
  0
LINE
  5
954
330
1F
100
AcDbEntity
  8
0
 48
0.27338
370
    60
100
AcDbLine
 10
365.426086
 20
438.281525
 30
0.0
 11
376.361267
 21
438.281525
 31
0.0
  0
LWPOLYLINE
  5
955
330
1F
100
AcDbEntity
  8
0
370
    60
100
AcDbPolyline
 90
        4
 70
     0
 43
0.0
 10
388.600342
 20
404.281403
 10
389.470764
 20
402.505066
 10
390.377441
 20
400.747803
 10
394.741943
 20
393.412964
  0
LINE
  5
95D
330
1F
100
AcDbEntity
  8
0
 48
0.081834
370
    60
100
AcDbLine
 10
384.785339
 20
413.410919
 30
0.0
 11
385.983917
 21
410.364868
 31
0.0
  0
LINE
  5
962
330
1F
100
AcDbEntity
  8
0
 48
0.044422
370
    60
100
AcDbLine
 10
383.706757
 20
416.292877
 30
0.0
 11
384.324707
 21
414.626892
 31
0.0
  0
LINE
  5
963
330
1F
100
AcDbEntity
  8
0
 48
0.034047
370
    60
100
AcDbLine
 10
382.805969
 20
418.783386
 30
0.0
 11
383.266479
 21
417.50174
 31
0.0
  0
LINE
  5
96C
330
1F
100
AcDbEntity
  8
0
 48
0.009173
370
    60
100
AcDbLine
 10
396.962891
 20
390.1769715
 30
0.0
 11
398.896576
 21
387.89563
 31
0.0
  0
LINE
  5
96D
330
1F
100
AcDbEntity
  8
0
370
    60
100
AcDbLine
 10
40.252975
 20
434.906372
 30
0.0
 11
45.69754
 21
413.80304
 31
0.0
  0
LINE
  5
96E
330
1F
100
AcDbEntity
  8
0
 48
0.016996
370
    60
100
AcDbLine
 10
71.291214
 20
435.281525
 30
0.0
 11
71.971054
 21
435.281525
 31
0.0
  0
LINE
  5
96F
330
1F
100
AcDbEntity
  8
0
 48
0.069132
370
    60
100
AcDbLine
 10
71.971054
 20
435.281525
 30
0.0
 11
74.736328
 21
435.281525
 31
0.0
  0
LINE
  5
970
330
1F
100
AcDbEntity
  8
0
370
    60
100
AcDbLine
 10
74.736328
 20
435.281525
 30
0.0
 11
256.103821
 21
435.281525
 31
0.0
  0
LINE
  5
971
330
1F
100
AcDbEntity
  8
0
370
    60
100
AcDbLine
 10
256.103821
 20
435.281525
 30
0.0
 11
325.288513
 21
435.281525
 31
0.0
  0
LINE
  5
972
330
1F
100
AcDbEntity
  8
0
 48
0.393032
370
    60
100
AcDbLine
 10
334.925293
 20
435.281525
 30
0.0
 11
350.646576
 21
435.281525
 31
0.0
  0
LINE
  5
973
330
1F
100
AcDbEntity
  8
0
 48
0.296311
370
    60
100
AcDbLine
 10
350.646576
 20
435.281525
 30
0.0
 11
362.499023
 21
435.281525
 31
0.0
  0
LINE
  5
974
330
1F
100
AcDbEntity
  8
0
370
    60
100
AcDbLine
 10
26.931076
 20
435.281525
 30
0.0
 11
61.157227
 21
435.281525
 31
0.0
  0
LINE
  5
975
330
1F
100
AcDbEntity
  8
0
  6
DASHDOT
370
    25
100
AcDbLine
 10
66.647369
 20
422.281525
 30
0.0
 11
66.647369
 21
448.281525
 31
0.0
  0
LINE
  5
976
330
1F
100
AcDbEntity
  8
0
  6
DASHDOT
370
    25
100
AcDbLine
 10
329.999023
 20
422.281525
 30
0.0
 11
329.999023
 21
448.281525
 31
0.0
  0
POINT
  5
977
330
1F
100
AcDbEntity
  8
0
370
    60
100
AcDbPoint
 10
210.210571
 20
357.061279
 30
0.0
  0
POINT
  5
A64
330
1F
100
AcDbEntity
  8
0
 62
     7
100
AcDbPoint
 10
256.093231
 20
319.903259
 30
0.0
  0
POINT
  5
A65
330
1F
100
AcDbEntity
  8
0
 62
     7
100
AcDbPoint
 10
276.008209
 20
24.376801
 30
0.0
  0
POINT
  5
A6C
330
1F
100
AcDbEntity
  8
0
 62
     7
100
AcDbPoint
 10
203.6521813455564
 20
438.281525
 30
0.0
  0
POINT
  5
A6D
330
1F
100
AcDbEntity
  8
0
 62
     7
100
AcDbPoint
 10
204.7215374094812
 20
356.9608374448494
 30
0.0
  0
DIMENSION
  5
AC4
330
1F
100
AcDbEntity
  8
0
370
    25
100
AcDbDimension
  2
*D21
 10
-16.26967167342016
 20
356.5981383674027
 30
0.0
 11
-44.26967167342016
 21
397.1843142014795
 31
0.0
 70
    32
 71
     5
 41
2.5
 42
81.17235166815368
  3
Standard
100
AcDbAlignedDimension
 13
255.9516615699522
 23
437.7704900355563
 33
0.0
 14
258.6829240101899
 24
356.5981383674027
 34
0.0
 50
90.0
100
AcDbRotatedDimension
1001
ACAD
1000
DSTYLE
1002
{
1070
    41
1040
10.0
1070
    42
1040
0.625
1070
    43
1040
3.75
1070
    44
1040
1.25
1070
    73
1070
     0
1070
    74
1070
     0
1070
    77
1070
     1
1070
    78
1070
     8
1070
   140
1040
36.0
1070
   141
1040
2.5
1070
   143
1040
0.03937
1070
   147
1040
10.0
1070
   171
1070
     3
1070
   172
1070
     1
1070
   271
1070
     0
1070
   272
1070
     2
1070
   274
1070
     3
1070
   283
1070
     0
1070
   284
1070
     8
1070
   289
1070
     0
1002
}
  0
DIMENSION
  5
B0D
330
1F
100
AcDbEntity
  8
0
370
    25
100
AcDbDimension
  2
*D23
 10
-16.11367252903108
 20
24.24645293283004
 30
0.0
 11
-44.11367252903108
 21
172.0733051874562
 31
0.0
 70
    32
 71
     5
 41
2.5
 42
295.6537045092523
  3
Standard
100
AcDbAlignedDimension
 13
257.9982213023698
 23
319.9001574420823
 33
0.0
 14
258.0121141384598
 24
24.24645293283002
 34
0.0
 50
90.0
100
AcDbRotatedDimension
1001
ACAD
1000
DSTYLE
1002
{
1070
    41
1040
10.0
1070
    42
1040
0.625
1070
    43
1040
3.75
1070
    44
1040
1.25
1070
    73
1070
     0
1070
    74
1070
     0
1070
    77
1070
     1
1070
    78
1070
     8
1070
   140
1040
36.0
1070
   141
1040
2.5
1070
   143
1040
0.03937
1070
   147
1040
10.0
1070
   171
1070
     3
1070
   172
1070
     1
1070
   271
1070
     0
1070
   272
1070
     2
1070
   274
1070
     3
1070
   283
1070
     0
1070
   284
1070
     8
1070
   289
1070
     0
1002
}
  0
VIEWPORT
  5
978
330
73
100
AcDbEntity
 67
     1
  8
0
 62
     0
100
AcDbViewport
 10
0.0
 20
0.0
 30
0.0
 40
1000.0
 41
1000.0
 68
     1
 69
     1
 12
0.0
 22
0.0
 13
0.0
 23
0.0
 14
1.0
 24
1.0
 15
1.0
 25
1.0
 16
0.0
 26
0.0
 36
1.0
 17
0.0
 27
0.0
 37
0.0
 42
50.0
 43
0.0
 44
0.0
 45
1000.0
 50
0.0
 51
0.0
 72
   100
 90
   557216
  1

281
     0
 71
     1
 74
     0
110
0.0
120
0.0
130
0.0
111
1.0
121
0.0
131
0.0
112
0.0
122
1.0
132
0.0
 79
     0
146
0.0
170
     0
  0
ENDSEC
  0
SECTION
  2
OBJECTS
  0
DICTIONARY
  5
C
330
0
100
AcDbDictionary
281
     1
  3
ACAD_COLOR
350
6C
  3
ACAD_GROUP
350
D
  3
ACAD_LAYOUT
350
1A
  3
ACAD_MATERIAL
350
6B
  3
ACAD_MLEADERSTYLE
350
A5B
  3
ACAD_MLINESTYLE
350
17
  3
ACAD_PLOTSETTINGS
350
19
  3
ACAD_PLOTSTYLENAME
350
E
  3
ACAD_SCALELIST
350
99
  3
ACAD_TABLESTYLE
350
92
  3
AcDbVariableDictionary
350
59
  0
DICTIONARY
  5
6C
102
{ACAD_REACTORS
330
C
102
}
330
C
100
AcDbDictionary
281
     1
  0
DICTIONARY
  5
D
102
{ACAD_REACTORS
330
C
102
}
330
C
100
AcDbDictionary
281
     1
  3
*A1
350
A74
  3
*A2
350
A75
  0
DICTIONARY
  5
1A
102
{ACAD_REACTORS
330
C
102
}
330
C
100
AcDbDictionary
281
     1
  3
Layout1
350
74
  3
Model
350
22
  0
DICTIONARY
  5
6B
102
{ACAD_REACTORS
330
C
102
}
330
C
100
AcDbDictionary
281
     1
  0
DICTIONARY
  5
A5B
102
{ACAD_REACTORS
330
C
102
}
330
C
100
AcDbDictionary
281
     1
  0
DICTIONARY
  5
17
102
{ACAD_REACTORS
330
C
102
}
330
C
100
AcDbDictionary
281
     1
  3
Standard
350
18
  0
DICTIONARY
  5
19
102
{ACAD_REACTORS
330
C
102
}
330
C
100
AcDbDictionary
281
     1
  0
ACDBDICTIONARYWDFLT
  5
E
102
{ACAD_REACTORS
330
C
102
}
330
C
100
AcDbDictionary
281
     1
  3
Normal
350
F
100
AcDbDictionaryWithDefault
340
F
  0
DICTIONARY
  5
99
102
{ACAD_REACTORS
330
C
102
}
330
C
100
AcDbDictionary
281
     1
  3
A0
350
97D
  3
A1
350
97E
  3
A2
350
97F
  3
A3
350
980
  3
A4
350
981
  3
A5
350
982
  3
A6
350
983
  3
A7
350
984
  3
A8
350
985
  3
A9
350
986
  3
B0
350
987
  3
B1
350
988
  3
B2
350
989
  3
B3
350
98A
  3
B4
350
98B
  3
B5
350
98C
  3
B6
350
98D
  3
B7
350
98E
  3
B8
350
98F
  3
B9
350
990
  3
C0
350
991
  3
C1
350
992
  3
C2
350
993
  3
C3
350
994
  3
C4
350
995
  3
C5
350
996
  3
C6
350
997
  3
C7
350
998
  3
C8
350
999
  3
C9
350
99A
  3
D0
350
99B
  3
D1
350
99C
  3
D2
350
99D
  0
DICTIONARY
  5
92
102
{ACAD_REACTORS
330
C
102
}
330
C
100
AcDbDictionary
281
     1
  3
Standard
350
B74
  0
DICTIONARY
  5
59
102
{ACAD_REACTORS
330
C
102
}
330
C
100
AcDbDictionary
281
     1
  3
CTABLESTYLE
350
B75
  3
DIMASSOC
350
5A
  3
HIDETEXT
350
5E
  0
GROUP
  5
A74
102
{ACAD_REACTORS
330
D
102
}
330
D
100
AcDbGroup
300

 70
     1
 71
     1
  0
GROUP
  5
A75
102
{ACAD_REACTORS
330
D
102
}
330
D
100
AcDbGroup
300

 70
     1
 71
     1
  0
LAYOUT
  5
74
102
{ACAD_REACTORS
330
1A
102
}
330
1A
100
AcDbPlotSettings
  1

  2
none_device
  4
Letter_(8.50_x_11.00_Inches)
  6

 40
6.35
 41
6.35
 42
6.35000508
 43
6.35000508
 44
215.9
 45
279.4
 46
0.0
 47
0.0
 48
0.0
 49
0.0
140
0.0
141
0.0
142
1.0
143
1.0
 70
   688
 72
     0
 73
     0
 74
     5
  7

 75
    16
 76
     0
 77
     2
 78
   300
147
1.0
148
0.0
149
0.0
100
AcDbLayout
  1
Layout1
 70
     1
 71
     1
 10
0.0
 20
0.0
 11
420.0
 21
297.0
 12
0.0
 22
0.0
 32
0.0
 14
0.0
 24
0.0
 34
0.0
 15
401.706116
 25
438.281525
 35
2.0
146
0.0
 13
0.0
 23
0.0
 33
0.0
 16
1.0
 26
0.0
 36
0.0
 17
0.0
 27
1.0
 37
0.0
 76
     0
330
73
331
978
  0
LAYOUT
  5
22
102
{ACAD_REACTORS
330
1A
102
}
330
1A
100
AcDbPlotSettings
  1

  2
none_device
  4
none_user_media
  6

 40
6.349999904632568
 41
6.349999904632568
 42
6.350006103515625
 43
6.350006103515625
 44
215.8999938964844
 45
279.3999938964844
 46
1.587498486042011
 47
-0.0000000000000151
 48
0.0
 49
0.0
140
0.0
141
0.0
142
1.0
143
1.142857194757788
 70
 11956
 72
     0
 73
     1
 74
     1
  7

 75
     0
 76
     0
 77
     2
 78
   300
147
0.8749999602635703
148
0.0
149
0.0
100
AcDbLayout
  1
Model
 70
     1
 71
     0
 10
0.0
 20
0.0
 11
420.0
 21
297.0
 12
0.0
 22
0.0
 32
0.0
 14
-62.26967167342016
 24
18.85376
 34
0.0
 15
401.744873
 25
457.7704900355563
 35
0.0
146
0.0
 13
0.0
 23
0.0
 33
0.0
 16
1.0
 26
0.0
 36
0.0
 17
0.0
 27
1.0
 37
0.0
 76
     0
330
1F
331
97
1001
PROGE_PRINT_SETTINGS
1070
    73
1070
     2
1070
   311
1000
\\PRN100A\W366
1004
303030303030303035323030343930303433303034463030343830303230303034313030363630303639303036333030363930303646303032303030343130303530303033363030333130303330303034453030323030303530303034333030344330303230303033363030303030303030303030303030303030303030
1004
303030303030303030303443303035303030353430303331303033413030303030303030303030303030303030303030303030303030303030303030303030303030303030303030303030303030303030303030303030303030303030303030303030303030303030303030303030303030303030303030303030303030
1004
303030303030303030303030303030303030303030303030303030303030303030303030303030303030303030303030303030303030303030303030303030303030303030303030303030303030303030303030303030303030303030303030303030303030303030303030303030303030303030303030303030303030
1004
303030303030303030303030303030303030303030303030303030303030303030303030303030303030303030303030303030303030303030303030303030303030303030303030303030303030303030303030303030303030303030303030303030303030303030303030303030303030303030303030303030303030
1004
303030303030303030303030303030303030303030303030303030303030303030303030303030303030303030303030303030303030303030303030303030303030303030303030303030303030303030303030303030303030303030303030303030303030303030303030303030303030303030303030373430413030
1004
303030303030303030303030303030303030303130303030303037343041303030303531304430303030303130303030303030363030303030304230303930303030423330443030303030313030303030303030303030303030303030303030303030303030303030303030303030303030303030303030303030303030
1004
303030303030303030303030303030303030303030303030303030303030303030303030303030303030303036343030303030303035303030303030303030303030303030303030303030303030303030303030303130303030303030303030303030303030303030303030303630303030303030303030303030303030
1004
303030303030303030303030303030303030303030303030303030303030313830303030303030303030313032373130323731303237303030303130323730303030303030303030303030303030303130303030303030303030303030303030303030303030303030303030303030303030303030303030303030303030
1004
303030303030303030303030303030303030303030303030303030303030303030303030303030303030303030303030303030303030303030303030303030303030303030303030303030303030303030303030303030303030303030303030303030303030303030303030303030303030303030303030303030303030
1004
303030303030303030303030303030303030303030303030303030303030303030303030303030303030303030303030303030303030303030303030303030303030303030303030303030303030303030303030303030303030303030303030303030303030303030303030303030303030303030303030303030303030
1004
303030303030303030303030303030303030303030303030303030303030303030303030303030303030303030303030303030303030303030303030303030303030303030303030303030303030303030303030303030303030303030303030303030303030303030303030303030303030303030303030303030303030
1004
303030303030303030303030303030303030303030303030303030303030303030303030303030303030303030303030303030303030303030303030303030303030303030303030303030303030303030303030303030303030303030303030303030303030303030303030303030303030303030303030303030303030
1004
303030303030303030303030303030303030303030303030303030303030303030303030303030303030303030303030303030303030303030303030303030303030303030303030303030303030303030303030303030303030303030303030303030303030303030303030303030303030303030303030303030303030
1004
303030303030303030303030303030303030303030303030303030303030303030303030303030303030303030303030303030303030303030303030303030303030303030303030303030303030303030303030303030303030303030303030303030303030303030303030303030303030303030303030303030303030
1004
303030303030303030303030303030303030303030303030303030303030303030303030303030303030303030303030303030303030303030303030303030303030303030303030303030303030303030303030303030303030303030303030303030303030303030303030303030303030303030303030303030303030
1004
303030303030303030303030303030303030303030303030303030303030303030303030303030303030303030303030303030303030303030303030303030303030303030303030303030303030303030303030303030303030303030303030303030303030303030303030303030303030303030303030303030303030
1004
303030303030303030303030303030303030303030303030303030303030303030303030303030303030303030303030303030303030303030303030303030303030303030303030303030303030303030303030303030303030303030303030303030303030303030303030303030303030303030303030303030303030
1004
303030303030303030303030303030303030303030303030303030303030303030303030303030303030303030303030303030303030303030303030303030303030303030303030303030303030303030303030303030303030303030303030303030303030303030303030303030303030303030303030303030303030
1004
303030303030303030303030303030303030303030303030303030303030303030303030303030303030303030303030303030303030303030303030303030303030303030303030303030303030303030303030303030303030303030303030303030303030303030303030303030303030303030303030303030303030
1004
303030303030303030303030303030303030303030303030303030303030303030303030303030303030303030303030303030303030303030303030303030303030303030303030303030303030303030303030303030303030303030303030303030303030303030303030303030303030303030303030303030303030
1004
303030303030303030303030303030303030303030303030303030303030303030303030303030303030303030303030303030303030303030303030303030303030303030303030303030303030303030303030303030303030303030303030303030303030303030303030303030303030303030303030303030303030
1004
303030303030303030303030303030303030303030303030303030303030303030303030303030303030303030303030303030303030303030303030303030303030303030303030303030303030303030303030303030303030303030303030303030303030303030303030303030303030303030303030303030303030
1004
303030303030303030303030303030303030303030303030303030303030303030303030303030303030303030303030303030303030303030303030303030303030303030303030303030303030303030303030303030303030303030303030303030303030303030303030303030303030303030303030303030303030
1004
303030303030303030303030303030303030303030303030303030303030303030303030303030303030303030303030303030303030303030303030303030303030303030303030303030303030303030303030303030303030303030303030303030303030303030303030303030303030303030303030303030303030
1004
303030303030303030303030303030303030303030303030303030303030303030303030303030303030303030303030303130303030303030313030303030303030303030303030303030303030303030303030303030303030303030303030303130303030303030303030303030303031303030303030303030303030
1004
303030303030303030303030303030303030303030303030303030303030303030303030303030303030303030303030303030303030303030303030303030303030303030303030303036343030303030303030303030303030303030303030303030303030303030303034303030303030303630303030303030303030
1004
303030303031303030303030303030303030303030303030303030303030303030303030303030303030303030303030303030303031303030303030303130303030303030303030303030303030303030303030303130303030303030303030303030303030303030303030303030303030303030303030303030303030
1004
303030303030363430303030303030303030303030303030303030303030303030303030303030313030303030303030303030303030303130303030303030303030303030303030303030303030303030303030303030303030303030303030303030303030303030303030303030303030303030303030303030303030
1004
303030303030303030303030303030303030303030303030303030303030303030303030303030303030303030303030303030303030303030303030303030303030303030303030303030303030303030303030303030303030303030303030303030303030303045373033303030304537303330303030453730333030
1004
303045373033303030303030303030303030303030303030303030303030303030303030303030303030303030303030303030363030303030303334303830303030393930423030303030303030303030303434303036353030363630303631303037353030364330303734303030303030303030303030303030303030
1004
303030303030303030303030303030303030303030343030303030303030303030303030303030303030303030303030303030303030303030303030303030303030303030303030303030303030303030303030303030303030303030303030303030303030303030303030303030303030303030303030303030303030
1004
303030303030303030303030303030303030303030303030303030303030303030303030303030303030303030303030303030303030303030303030303030303030303030303030303030303030303030303030303030303030303030303030303030303030303030303030303030303030303030303030303030303030
1004
303030303030303030303030303030303030303030303030303030303030303030303030303030303030303030303030303030303030303030303030303030303030303030303030303030303030303030303030303030303030303030303030303030303030303030303030303030303030303030303030303030303030
1004
303030303030303030303030303030303030303030303030303030303030303030303030303030303030303030303030303030303030303030303030303030303030303030303030303030303030303030303030303030303030303030303030303030303030303030303030303030303030303030303030303030303030
1004
303030303030303030303030303030303030303030303030303030303030303030303030303030303030303030303030303030303030303030303030303030303030303030303030303030303030303030303030303030303030303030303030303030303030303030303030303030303030303030303030303030303030
1004
303030303030303030303030303030303030303030303030303030303030303030303030303030303030303030303030303030303030303030303030303030303030303030303030303030303030303030303030303030303030303030303030303030303030303030303030303030303030303030303030303030303030
1004
303030303030303030303030303030303030303030303030303030303030303030303030303030303030303030303030303030303030303030303030303030303030303030303030303030303030303030303030303030303030303030303030303030303030303030303030303030303030303030303030303030303030
1004
303030303030303030303030303030303030303030303030303030303030303030303030303030303030303030303030303030303030303030303030303030303030303030303030303030303030303030303030303030303030303030303030303030303030303030303030303030303030303030303030303030303030
1004
30303030303030303030303030303030303030303030303030303030303030303030303030303030303030303030303030303030303030303030303030303030303030303030303030303030303030303030303030313030303030303030303030303030303030303030303030303030303030303030303030303030
  0
MLINESTYLE
  5
18
102
{ACAD_REACTORS
330
17
102
}
330
17
100
AcDbMlineStyle
  2
STANDARD
 70
     0
  3

 62
     0
 51
90.0
 52
90.0
 71
     2
 49
0.5
 62
   256
  6
BYLAYER
 49
-0.5
 62
   256
  6
BYLAYER
  0
ACDBPLACEHOLDER
  5
F
102
{ACAD_REACTORS
330
E
102
}
330
E
  0
SCALE
  5
97D
102
{ACAD_REACTORS
330
99
102
}
330
99
100
AcDbScale
 70
     0
300
1:1
140
1.0
141
1.0
290
     1
  0
SCALE
  5
97E
102
{ACAD_REACTORS
330
99
102
}
330
99
100
AcDbScale
 70
     0
300
1:2
140
1.0
141
2.0
290
     0
  0
SCALE
  5
97F
102
{ACAD_REACTORS
330
99
102
}
330
99
100
AcDbScale
 70
     0
300
1:4
140
1.0
141
4.0
290
     0
  0
SCALE
  5
980
102
{ACAD_REACTORS
330
99
102
}
330
99
100
AcDbScale
 70
     0
300
1:5
140
1.0
141
5.0
290
     0
  0
SCALE
  5
981
102
{ACAD_REACTORS
330
99
102
}
330
99
100
AcDbScale
 70
     0
300
1:8
140
1.0
141
8.0
290
     0
  0
SCALE
  5
982
102
{ACAD_REACTORS
330
99
102
}
330
99
100
AcDbScale
 70
     0
300
1:10
140
1.0
141
10.0
290
     0
  0
SCALE
  5
983
102
{ACAD_REACTORS
330
99
102
}
330
99
100
AcDbScale
 70
     0
300
1:16
140
1.0
141
16.0
290
     0
  0
SCALE
  5
984
102
{ACAD_REACTORS
330
99
102
}
330
99
100
AcDbScale
 70
     0
300
1:20
140
1.0
141
20.0
290
     0
  0
SCALE
  5
985
102
{ACAD_REACTORS
330
99
102
}
330
99
100
AcDbScale
 70
     0
300
1:30
140
1.0
141
30.0
290
     0
  0
SCALE
  5
986
102
{ACAD_REACTORS
330
99
102
}
330
99
100
AcDbScale
 70
     0
300
1:40
140
1.0
141
40.0
290
     0
  0
SCALE
  5
987
102
{ACAD_REACTORS
330
99
102
}
330
99
100
AcDbScale
 70
     0
300
1:50
140
1.0
141
50.0
290
     0
  0
SCALE
  5
988
102
{ACAD_REACTORS
330
99
102
}
330
99
100
AcDbScale
 70
     0
300
1:100
140
1.0
141
100.0
290
     0
  0
SCALE
  5
989
102
{ACAD_REACTORS
330
99
102
}
330
99
100
AcDbScale
 70
     0
300
2:1
140
2.0
141
1.0
290
     0
  0
SCALE
  5
98A
102
{ACAD_REACTORS
330
99
102
}
330
99
100
AcDbScale
 70
     0
300
4:1
140
4.0
141
1.0
290
     0
  0
SCALE
  5
98B
102
{ACAD_REACTORS
330
99
102
}
330
99
100
AcDbScale
 70
     0
300
8:1
140
8.0
141
1.0
290
     0
  0
SCALE
  5
98C
102
{ACAD_REACTORS
330
99
102
}
330
99
100
AcDbScale
 70
     0
300
10:1
140
10.0
141
1.0
290
     0
  0
SCALE
  5
98D
102
{ACAD_REACTORS
330
99
102
}
330
99
100
AcDbScale
 70
     0
300
100:1
140
100.0
141
1.0
290
     0
  0
SCALE
  5
98E
102
{ACAD_REACTORS
330
99
102
}
330
99
100
AcDbScale
 70
     0
300
1/128" = 1'-0"
140
0.0078125
141
12.0
290
     0
  0
SCALE
  5
98F
102
{ACAD_REACTORS
330
99
102
}
330
99
100
AcDbScale
 70
     0
300
1/64" = 1'-0"
140
0.015625
141
12.0
290
     0
  0
SCALE
  5
990
102
{ACAD_REACTORS
330
99
102
}
330
99
100
AcDbScale
 70
     0
300
1/32" = 1'-0"
140
0.03125
141
12.0
290
     0
  0
SCALE
  5
991
102
{ACAD_REACTORS
330
99
102
}
330
99
100
AcDbScale
 70
     0
300
1/16" = 1'-0"
140
0.0625
141
12.0
290
     0
  0
SCALE
  5
992
102
{ACAD_REACTORS
330
99
102
}
330
99
100
AcDbScale
 70
     0
300
3/32" = 1'-0"
140
0.09375
141
12.0
290
     0
  0
SCALE
  5
993
102
{ACAD_REACTORS
330
99
102
}
330
99
100
AcDbScale
 70
     0
300
1/8" = 1'-0"
140
0.125
141
12.0
290
     0
  0
SCALE
  5
994
102
{ACAD_REACTORS
330
99
102
}
330
99
100
AcDbScale
 70
     0
300
3/16" = 1'-0"
140
0.1875
141
12.0
290
     0
  0
SCALE
  5
995
102
{ACAD_REACTORS
330
99
102
}
330
99
100
AcDbScale
 70
     0
300
1/4" = 1'-0"
140
0.25
141
12.0
290
     0
  0
SCALE
  5
996
102
{ACAD_REACTORS
330
99
102
}
330
99
100
AcDbScale
 70
     0
300
3/8" = 1'-0"
140
0.375
141
12.0
290
     0
  0
SCALE
  5
997
102
{ACAD_REACTORS
330
99
102
}
330
99
100
AcDbScale
 70
     0
300
1/2" = 1'-0"
140
0.5
141
12.0
290
     0
  0
SCALE
  5
998
102
{ACAD_REACTORS
330
99
102
}
330
99
100
AcDbScale
 70
     0
300
3/4" = 1'-0"
140
0.75
141
12.0
290
     0
  0
SCALE
  5
999
102
{ACAD_REACTORS
330
99
102
}
330
99
100
AcDbScale
 70
     0
300
1" = 1'-0"
140
1.0
141
12.0
290
     0
  0
SCALE
  5
99A
102
{ACAD_REACTORS
330
99
102
}
330
99
100
AcDbScale
 70
     0
300
1-1/2" = 1'-0"
140
1.5
141
12.0
290
     0
  0
SCALE
  5
99B
102
{ACAD_REACTORS
330
99
102
}
330
99
100
AcDbScale
 70
     0
300
3" = 1'-0"
140
3.0
141
12.0
290
     0
  0
SCALE
  5
99C
102
{ACAD_REACTORS
330
99
102
}
330
99
100
AcDbScale
 70
     0
300
6" = 1'-0"
140
6.0
141
12.0
290
     0
  0
SCALE
  5
99D
102
{ACAD_REACTORS
330
99
102
}
330
99
100
AcDbScale
 70
     0
300
1'-0" = 1'-0"
140
12.0
141
12.0
290
     0
  0
TABLESTYLE
  5
B74
102
{ACAD_REACTORS
330
92
102
}
102
{ACAD_XDICTIONARY
360
BA6
102
}
330
92
100
AcDbTableStyle
  3
Standard
 70
     0
 71
     0
 40
0.06
 41
0.06
280
     0
281
     0
  7
Standard
140
0.18
170
     2
 62
     0
 63
     7
283
     0
274
    -2
284
     1
 64
     0
275
    -2
285
     1
 65
     0
276
    -2
286
     1
 66
     0
277
    -2
287
     1
 67
     0
278
    -2
288
     1
 68
     0
279
    -2
289
     1
 69
     0
  7
Standard
140
0.25
170
     5
 62
     0
 63
     7
283
     0
274
    -2
284
     1
 64
     0
275
    -2
285
     1
 65
     0
276
    -2
286
     1
 66
     0
277
    -2
287
     1
 67
     0
278
    -2
288
     1
 68
     0
279
    -2
289
     1
 69
     0
  7
Standard
140
0.18
170
     5
 62
     0
 63
     7
283
     0
274
    -2
284
     1
 64
     0
275
    -2
285
     1
 65
     0
276
    -2
286
     1
 66
     0
277
    -2
287
     1
 67
     0
278
    -2
288
     1
 68
     0
279
    -2
289
     1
 69
     0
  0
DICTIONARYVAR
  5
B75
102
{ACAD_REACTORS
330
59
102
}
330
59
100
DictionaryVariables
280
     0
  1
Standard
  0
DICTIONARYVAR
  5
5A
102
{ACAD_REACTORS
330
59
102
}
330
59
100
DictionaryVariables
280
     0
  1
2
  0
DICTIONARYVAR
  5
5E
102
{ACAD_REACTORS
330
59
102
}
330
59
100
DictionaryVariables
280
     0
  1
1
  0
DICTIONARY
  5
BA6
330
B74
100
AcDbDictionary
280
     1
281
     1
  3
ACAD_XREC_ROUNDTRIP
360
BA7
  0
XRECORD
  5
BA7
102
{ACAD_REACTORS
330
BA6
102
}
330
BA6
100
AcDbXrecord
280
     1
102
ACAD_ROUNDTRIP_PRE2007_TABLESTYLE
 90
      512
 91
        0
  1

 92
      512
 93
        0
  2

 94
      512
 95
        0
  3

  0
ENDSEC
  0
EOF
