  0
SECTION
  2
HEADER
  9
$ACADVER
  1
AC1018
  9
$ACADMAINTVER
 70
     0
  9
$DWGCODEPAGE
  3
ANSI_1252
  9
$LASTSAVEDBY
  1
BelottiMc
  9
$INSBASE
 10
0.0
 20
0.0
 30
0.0
  9
$EXTMIN
 10
-43.7112845578873
 20
-36.35259045775252
 30
0.0
  9
$EXTMAX
 10
302.555542
 20
498.975403
 30
0.0
  9
$LIMMIN
 10
0.0
 20
0.0
  9
$LIMMAX
 10
420.0
 20
297.0
  9
$ORTHOMODE
 70
     0
  9
$REGENMODE
 70
     1
  9
$FILLMODE
 70
     1
  9
$QTEXTMODE
 70
     0
  9
$MIRRTEXT
 70
     1
  9
$LTSCALE
 40
1.0
  9
$ATTMODE
 70
     1
  9
$TEXTSIZE
 40
2.5
  9
$TRACEWID
 40
1.0
  9
$TEXTSTYLE
  7
Standard
  9
$CLAYER
  8
0
  9
$CELTYPE
  6
ByLayer
  9
$CECOLOR
 62
   256
  9
$CELTSCALE
 40
1.0
  9
$DISPSILH
 70
     0
  9
$DIMSCALE
 40
1.0
  9
$DIMASZ
 40
2.5
  9
$DIMEXO
 40
0.625
  9
$DIMDLI
 40
3.75
  9
$DIMRND
 40
0.0
  9
$DIMDLE
 40
0.0
  9
$DIMEXE
 40
1.25
  9
$DIMTP
 40
0.0
  9
$DIMTM
 40
0.0
  9
$DIMTXT
 40
2.5
  9
$DIMCEN
 40
2.5
  9
$DIMTSZ
 40
0.0
  9
$DIMTOL
 70
     0
  9
$DIMLIM
 70
     0
  9
$DIMTIH
 70
     0
  9
$DIMTOH
 70
     0
  9
$DIMSE1
 70
     0
  9
$DIMSE2
 70
     0
  9
$DIMTAD
 70
     1
  9
$DIMZIN
 70
     8
  9
$DIMBLK
  1

  9
$DIMASO
 70
     1
  9
$DIMSHO
 70
     1
  9
$DIMPOST
  1

  9
$DIMAPOST
  1

  9
$DIMALT
 70
     0
  9
$DIMALTD
 70
     3
  9
$DIMALTF
 40
0.03937
  9
$DIMLFAC
 40
1.0
  9
$DIMTOFL
 70
     1
  9
$DIMTVP
 40
0.0
  9
$DIMTIX
 70
     0
  9
$DIMSOXD
 70
     0
  9
$DIMSAH
 70
     0
  9
$DIMBLK1
  1

  9
$DIMBLK2
  1

  9
$DIMSTYLE
  2
Standard
  9
$DIMCLRD
 70
     0
  9
$DIMCLRE
 70
     0
  9
$DIMCLRT
 70
     0
  9
$DIMTFAC
 40
1.0
  9
$DIMGAP
 40
0.625
  9
$DIMJUST
 70
     0
  9
$DIMSD1
 70
     0
  9
$DIMSD2
 70
     0
  9
$DIMTOLJ
 70
     0
  9
$DIMTZIN
 70
     8
  9
$DIMALTZ
 70
     0
  9
$DIMALTTZ
 70
     0
  9
$DIMUPT
 70
     0
  9
$DIMDEC
 70
     2
  9
$DIMTDEC
 70
     2
  9
$DIMALTU
 70
     2
  9
$DIMALTTD
 70
     3
  9
$DIMTXSTY
  7
Standard
  9
$DIMAUNIT
 70
     0
  9
$DIMADEC
 70
     0
  9
$DIMALTRND
 40
0.0
  9
$DIMAZIN
 70
     0
  9
$DIMDSEP
 70
    46
  9
$DIMATFIT
 70
     0
  9
$DIMFRAC
 70
     0
  9
$DIMLDRBLK
  1

  9
$DIMLUNIT
 70
     2
  9
$DIMLWD
 70
    -2
  9
$DIMLWE
 70
    -2
  9
$DIMTMOVE
 70
     2
  9
$LUNITS
 70
     2
  9
$LUPREC
 70
     4
  9
$SKETCHINC
 40
1.0
  9
$FILLETRAD
 40
2.5
  9
$AUNITS
 70
     0
  9
$AUPREC
 70
     0
  9
$MENU
  1
.
  9
$ELEVATION
 40
0.0
  9
$PELEVATION
 40
0.0
  9
$THICKNESS
 40
0.0
  9
$LIMCHECK
 70
     0
  9
$CHAMFERA
 40
2.5
  9
$CHAMFERB
 40
2.5
  9
$CHAMFERC
 40
0.0
  9
$CHAMFERD
 40
0.0
  9
$SKPOLY
 70
     0
  9
$TDCREATE
 40
2447893.0
  9
$TDUCREATE
 40
2447892.916666667
  9
$TDUPDATE
 40
2447892.999999977
  9
$TDUUPDATE
 40
2447892.916666644
  9
$TDINDWG
 40
0.0408679398
  9
$TDUSRTIMER
 40
0.0408679398
  9
$USRTIMER
 70
     1
  9
$ANGBASE
 50
0.0
  9
$ANGDIR
 70
     0
  9
$PDMODE
 70
     0
  9
$PDSIZE
 40
0.0
  9
$PLINEWID
 40
0.0
  9
$SPLFRAME
 70
     0
  9
$SPLINETYPE
 70
     6
  9
$SPLINESEGS
 70
     8
  9
$HANDSEED
  5
D65
  9
$SURFTAB1
 70
     6
  9
$SURFTAB2
 70
     6
  9
$SURFTYPE
 70
     6
  9
$SURFU
 70
     6
  9
$SURFV
 70
     6
  9
$UCSBASE
  2

  9
$UCSNAME
  2

  9
$UCSORG
 10
0.0
 20
0.0
 30
0.0
  9
$UCSXDIR
 10
1.0
 20
0.0
 30
0.0
  9
$UCSYDIR
 10
0.0
 20
1.0
 30
0.0
  9
$UCSORTHOREF
  2

  9
$UCSORTHOVIEW
 70
     0
  9
$UCSORGTOP
 10
0.0
 20
0.0
 30
0.0
  9
$UCSORGBOTTOM
 10
0.0
 20
0.0
 30
0.0
  9
$UCSORGLEFT
 10
0.0
 20
0.0
 30
0.0
  9
$UCSORGRIGHT
 10
0.0
 20
0.0
 30
0.0
  9
$UCSORGFRONT
 10
0.0
 20
0.0
 30
0.0
  9
$UCSORGBACK
 10
0.0
 20
0.0
 30
0.0
  9
$PUCSBASE
  2

  9
$PUCSNAME
  2

  9
$PUCSORG
 10
0.0
 20
0.0
 30
0.0
  9
$PUCSXDIR
 10
1.0
 20
0.0
 30
0.0
  9
$PUCSYDIR
 10
0.0
 20
1.0
 30
0.0
  9
$PUCSORTHOREF
  2

  9
$PUCSORTHOVIEW
 70
     0
  9
$PUCSORGTOP
 10
0.0
 20
0.0
 30
0.0
  9
$PUCSORGBOTTOM
 10
0.0
 20
0.0
 30
0.0
  9
$PUCSORGLEFT
 10
0.0
 20
0.0
 30
0.0
  9
$PUCSORGRIGHT
 10
0.0
 20
0.0
 30
0.0
  9
$PUCSORGFRONT
 10
0.0
 20
0.0
 30
0.0
  9
$PUCSORGBACK
 10
0.0
 20
0.0
 30
0.0
  9
$USERI1
 70
     0
  9
$USERI2
 70
     0
  9
$USERI3
 70
     0
  9
$USERI4
 70
     0
  9
$USERI5
 70
     0
  9
$USERR1
 40
0.0
  9
$USERR2
 40
0.0
  9
$USERR3
 40
0.0
  9
$USERR4
 40
0.0
  9
$USERR5
 40
0.0
  9
$WORLDVIEW
 70
     1
  9
$SHADEDGE
 70
     3
  9
$SHADEDIF
 70
    70
  9
$TILEMODE
 70
     1
  9
$MAXACTVP
 70
    48
  9
$PINSBASE
 10
0.0
 20
0.0
 30
0.0
  9
$PLIMCHECK
 70
     0
  9
$PEXTMIN
 10
0.0
 20
0.0
 30
0.0
  9
$PEXTMAX
 10
302.555542
 20
498.990326
 30
2.0
  9
$PLIMMIN
 10
0.0
 20
0.0
  9
$PLIMMAX
 10
420.0
 20
297.0
  9
$UNITMODE
 70
     0
  9
$VISRETAIN
 70
     0
  9
$PLINEGEN
 70
     0
  9
$PSLTSCALE
 70
     1
  9
$TREEDEPTH
 70
  3020
  9
$CMLSTYLE
  2
Standard
  9
$CMLJUST
 70
     0
  9
$CMLSCALE
 40
20.0
  9
$PROXYGRAPHICS
 70
     1
  9
$MEASUREMENT
 70
     1
  9
$CELWEIGHT
370
    -1
  9
$ENDCAPS
280
     0
  9
$JOINSTYLE
280
     0
  9
$LWDISPLAY
290
     0
  9
$INSUNITS
 70
     0
  9
$HYPERLINKBASE
  1

  9
$STYLESHEET
  1

  9
$XEDIT
290
     1
  9
$CEPSNTYPE
380
     0
  9
$PSTYLEMODE
290
     1
  9
$FINGERPRINTGUID
  2
{BC0C35E0-A647-4FA3-9888-DA45903C6B2D}
  9
$VERSIONGUID
  2
{FAEB1C32-E019-11D5-929B-00C0DF256EC4}
  9
$EXTNAMES
290
     1
  9
$PSVPSCALE
 40
0.0
  9
$OLESTARTUP
290
     0
  9
$SORTENTS
280
   127
  9
$INDEXCTL
280
     0
  9
$HIDETEXT
280
     1
  9
$XCLIPFRAME
290
     0
  9
$HALOGAP
280
     0
  9
$OBSCOLOR
 70
   257
  9
$OBSLTYPE
280
     0
  9
$INTERSECTIONDISPLAY
280
     0
  9
$INTERSECTIONCOLOR
 70
   257
  9
$DIMASSOC
280
     2
  9
$PROJECTNAME
  1

  0
ENDSEC
  0
SECTION
  2
CLASSES
  0
CLASS
  1
ACDBDICTIONARYWDFLT
  2
AcDbDictionaryWithDefault
  3
ObjectDBX Classes
 90
        0
 91
        4
280
     0
281
     0
  0
CLASS
  1
ACDBPLACEHOLDER
  2
AcDbPlaceHolder
  3
ObjectDBX Classes
 90
        0
 91
        1
280
     0
281
     0
  0
CLASS
  1
LAYOUT
  2
AcDbLayout
  3
ObjectDBX Classes
 90
        0
 91
        1
280
     0
281
     0
  0
CLASS
  1
DICTIONARYVAR
  2
AcDbDictionaryVar
  3
ObjectDBX Classes
 90
        0
 91
        4
280
     0
281
     0
  0
CLASS
  1
TABLESTYLE
  2
AcDbTableStyle
  3
ObjectDBX Classes
 90
     4095
 91
        6
280
     0
281
     0
  0
CLASS
  1
SCALE
  2
AcDbScale
  3
ObjectDBX Classes
 90
     1153
 91
       70
280
     0
281
     0
  0
ENDSEC
  0
SECTION
  2
TABLES
  0
TABLE
  2
VPORT
  5
8
330
0
100
AcDbSymbolTable
 70
     2
  0
VPORT
  5
97
330
8
100
AcDbSymbolTableRecord
100
AcDbViewportTableRecord
  2
*ACTIVE
 70
     0
 10
0.0
 20
0.0
 11
1.0
 21
1.0
 12
487.420781123904
 22
101.2607001526865
 13
0.0
 23
0.0
 14
1.0
 24
1.0
 15
0.5
 25
0.5
 16
0.0
 26
0.0
 36
1.0
 17
0.0
 27
0.0
 37
0.0
 40
1400.755480856783
 41
0.688564
 42
50.0
 43
0.0
 44
0.0
 50
0.0
 51
0.0
 71
     0
 72
   100
 73
     1
 74
     1
 75
     0
 76
     0
 77
     0
 78
     0
281
     0
 65
     1
110
0.0
120
0.0
130
0.0
111
1.0
121
0.0
131
0.0
112
0.0
122
1.0
132
0.0
 79
     0
146
0.0
  0
ENDTAB
  0
TABLE
  2
LTYPE
  5
5
330
0
100
AcDbSymbolTable
 70
     8
  0
LTYPE
  5
14
330
5
100
AcDbSymbolTableRecord
100
AcDbLinetypeTableRecord
  2
ByBlock
 70
     0
  3

 72
    65
 73
     0
 40
0.0
  0
LTYPE
  5
15
330
5
100
AcDbSymbolTableRecord
100
AcDbLinetypeTableRecord
  2
ByLayer
 70
     0
  3

 72
    65
 73
     0
 40
0.0
  0
LTYPE
  5
16
330
5
100
AcDbSymbolTableRecord
100
AcDbLinetypeTableRecord
  2
Continuous
 70
     0
  3
Solid line
 72
    65
 73
     0
 40
0.0
  0
LTYPE
  5
D2C
330
5
100
AcDbSymbolTableRecord
100
AcDbLinetypeTableRecord
  2
DASHED
 70
     0
  3
__ __ __ __ __ __ __ __ __ __ __ __ __ __ __ __
 72
    65
 73
     2
 40
15.0
 49
12.0
 74
     0
 49
-3.0
 74
     0
  0
LTYPE
  5
D2D
330
5
100
AcDbSymbolTableRecord
100
AcDbLinetypeTableRecord
  2
DASHDOT
 70
     0
  3
 __ . __ . __ . __ . __ . __ . __ . 
 72
    65
 73
     4
 40
18.5
 49
12.0
 74
     0
 49
-3.0
 74
     0
 49
0.5
 74
     0
 49
-3.0
 74
     0
  0
LTYPE
  5
D2E
330
5
100
AcDbSymbolTableRecord
100
AcDbLinetypeTableRecord
  2
DOT
 70
     0
  3
 . . . . . . . . . . . . . . . .
 72
    65
 73
     2
 40
3.5
 49
0.5
 74
     0
 49
-3.0
 74
     0
  0
LTYPE
  5
D2F
330
5
100
AcDbSymbolTableRecord
100
AcDbLinetypeTableRecord
  2
DASHSPACE
 70
     0
  3
__    __    __    __    __   
 72
    65
 73
     2
 40
30.0
 49
12.0
 74
     0
 49
-18.0
 74
     0
  0
LTYPE
  5
D30
330
5
100
AcDbSymbolTableRecord
100
AcDbLinetypeTableRecord
  2
DASHDOT2
 70
     0
  3
__ . . __ . . __ . . __ 
 72
    65
 73
     6
 40
22.0
 49
12.0
 74
     0
 49
-3.0
 74
     0
 49
0.5
 74
     0
 49
-3.0
 74
     0
 49
0.5
 74
     0
 49
-3.0
 74
     0
  0
LTYPE
  5
D31
330
5
100
AcDbSymbolTableRecord
100
AcDbLinetypeTableRecord
  2
PHANTOM
 70
     0
  3
____________    ____    ____   _
 72
    65
 73
     6
 40
20.0
 49
10.0
 74
     0
 49
-2.0
 74
     0
 49
2.0
 74
     0
 49
-2.0
 74
     0
 49
2.0
 74
     0
 49
-2.0
 74
     0
  0
LTYPE
  5
D32
330
5
100
AcDbSymbolTableRecord
100
AcDbLinetypeTableRecord
  2
AXES
 70
     0
  3
________  __  ________  __  _____
 72
    65
 73
     4
 40
24.0
 49
15.0
 74
     0
 49
-3.0
 74
     0
 49
3.0
 74
     0
 49
-3.0
 74
     0
  0
ENDTAB
  0
TABLE
  2
LAYER
  5
2
330
0
100
AcDbSymbolTable
 70
     2
  0
LAYER
  5
10
330
2
100
AcDbSymbolTableRecord
100
AcDbLayerTableRecord
  2
0
 70
     0
 62
     7
  6
Continuous
370
    -3
390
F
  0
LAYER
  5
B8E
330
2
100
AcDbSymbolTableRecord
100
AcDbLayerTableRecord
  2
DEFPOINTS
 70
     0
 62
     7
  6
Continuous
290
     0
370
    -3
390
F
  0
ENDTAB
  0
TABLE
  2
STYLE
  5
3
330
0
100
AcDbSymbolTable
 70
     1
  0
STYLE
  5
11
330
3
100
AcDbSymbolTableRecord
100
AcDbTextStyleTableRecord
  2
Standard
 70
     0
 40
0.0
 41
1.0
 50
0.0
 71
     0
 42
0.2
  3
txt
  4

  0
ENDTAB
  0
TABLE
  2
VIEW
  5
6
330
0
100
AcDbSymbolTable
 70
     0
  0
ENDTAB
  0
TABLE
  2
UCS
  5
7
330
0
100
AcDbSymbolTable
 70
     0
  0
ENDTAB
  0
TABLE
  2
APPID
  5
9
330
0
100
AcDbSymbolTable
 70
     2
  0
APPID
  5
12
330
9
100
AcDbSymbolTableRecord
100
AcDbRegAppTableRecord
  2
ACAD
 70
     0
  0
APPID
  5
D2B
330
9
100
AcDbSymbolTableRecord
100
AcDbRegAppTableRecord
  2
Conv5506CA
 70
     0
  0
ENDTAB
  0
TABLE
  2
DIMSTYLE
  5
A
330
0
100
AcDbSymbolTable
 70
     1
100
AcDbDimStyleTable
  0
DIMSTYLE
105
27
102
{ACAD_REACTORS
330
B9B
330
BF6
330
C56
102
}
330
A
100
AcDbSymbolTableRecord
100
AcDbDimStyleTableRecord
  2
Standard
 70
     0
340
11
  0
ENDTAB
  0
TABLE
  2
BLOCK_RECORD
  5
1
330
0
100
AcDbSymbolTable
 70
    23
  0
BLOCK_RECORD
  5
1F
330
1
100
AcDbSymbolTableRecord
100
AcDbBlockTableRecord
  2
*Model_Space
340
22
  0
BLOCK_RECORD
  5
73
330
1
100
AcDbSymbolTableRecord
100
AcDbBlockTableRecord
  2
*Paper_Space
340
74
  0
BLOCK_RECORD
  5
B9A
330
1
100
AcDbSymbolTableRecord
100
AcDbBlockTableRecord
  2
*D0
340
0
  0
BLOCK_RECORD
  5
BA6
330
1
100
AcDbSymbolTableRecord
100
AcDbBlockTableRecord
  2
*D1
340
0
  0
BLOCK_RECORD
  5
BB2
330
1
100
AcDbSymbolTableRecord
100
AcDbBlockTableRecord
  2
*D2
340
0
  0
BLOCK_RECORD
  5
BBE
330
1
100
AcDbSymbolTableRecord
100
AcDbBlockTableRecord
  2
*D3
340
0
  0
BLOCK_RECORD
  5
BC9
330
1
100
AcDbSymbolTableRecord
100
AcDbBlockTableRecord
  2
*D4
340
0
  0
BLOCK_RECORD
  5
BD4
330
1
100
AcDbSymbolTableRecord
100
AcDbBlockTableRecord
  2
*D5
340
0
  0
BLOCK_RECORD
  5
C01
330
1
100
AcDbSymbolTableRecord
100
AcDbBlockTableRecord
  2
*D6
340
0
  0
BLOCK_RECORD
  5
C0D
330
1
100
AcDbSymbolTableRecord
100
AcDbBlockTableRecord
  2
*D7
340
0
  0
BLOCK_RECORD
  5
C19
330
1
100
AcDbSymbolTableRecord
100
AcDbBlockTableRecord
  2
*D8
340
0
  0
BLOCK_RECORD
  5
C24
330
1
100
AcDbSymbolTableRecord
100
AcDbBlockTableRecord
  2
*D9
340
0
  0
BLOCK_RECORD
  5
C2F
330
1
100
AcDbSymbolTableRecord
100
AcDbBlockTableRecord
  2
*D10
340
0
  0
BLOCK_RECORD
  5
C3B
330
1
100
AcDbSymbolTableRecord
100
AcDbBlockTableRecord
  2
*D11
340
0
  0
BLOCK_RECORD
  5
C49
330
1
100
AcDbSymbolTableRecord
100
AcDbBlockTableRecord
  2
*D12
340
0
  0
BLOCK_RECORD
  5
C61
330
1
100
AcDbSymbolTableRecord
100
AcDbBlockTableRecord
  2
*D13
340
0
  0
BLOCK_RECORD
  5
C6D
330
1
100
AcDbSymbolTableRecord
100
AcDbBlockTableRecord
  2
*D14
340
0
  0
BLOCK_RECORD
  5
C78
330
1
100
AcDbSymbolTableRecord
100
AcDbBlockTableRecord
  2
*D15
340
0
  0
BLOCK_RECORD
  5
C83
330
1
100
AcDbSymbolTableRecord
100
AcDbBlockTableRecord
  2
*D16
340
0
  0
BLOCK_RECORD
  5
C8E
330
1
100
AcDbSymbolTableRecord
100
AcDbBlockTableRecord
  2
*D17
340
0
  0
BLOCK_RECORD
  5
CFD
330
1
100
AcDbSymbolTableRecord
100
AcDbBlockTableRecord
  2
*D18
340
0
  0
BLOCK_RECORD
  5
D08
330
1
100
AcDbSymbolTableRecord
100
AcDbBlockTableRecord
  2
*D19
340
0
  0
BLOCK_RECORD
  5
D13
330
1
100
AcDbSymbolTableRecord
100
AcDbBlockTableRecord
  2
*D20
340
0
  0
BLOCK_RECORD
  5
D1E
330
1
100
AcDbSymbolTableRecord
100
AcDbBlockTableRecord
  2
*D21
340
0
  0
BLOCK_RECORD
  5
D29
330
1
100
AcDbSymbolTableRecord
100
AcDbBlockTableRecord
  2
*D22
340
0
  0
ENDTAB
  0
ENDSEC
  0
SECTION
  2
BLOCKS
  0
BLOCK
  5
20
330
1F
100
AcDbEntity
  8
0
100
AcDbBlockBegin
  2
*Model_Space
 70
     0
 10
0.0
 20
0.0
 30
0.0
  3
*Model_Space
  1

  0
ENDBLK
  5
21
330
1F
100
AcDbEntity
  8
0
100
AcDbBlockEnd
  0
BLOCK
  5
75
330
73
100
AcDbEntity
 67
     1
  8
0
100
AcDbBlockBegin
  2
*Paper_Space
 70
     0
 10
0.0
 20
0.0
 30
0.0
  3
*Paper_Space
  1

  0
ENDBLK
  5
76
330
73
100
AcDbEntity
 67
     1
  8
0
100
AcDbBlockEnd
  0
BLOCK
  5
D35
102
{ACAD_REACTORS
330
B9B
330
BF6
330
C56
102
}
330
B9A
100
AcDbEntity
  8
0
100
AcDbBlockBegin
  2
*D0
 70
     1
 10
0.0
 20
0.0
 30
0.0
  3
*D0
  1

  0
POINT
  5
B91
330
B9A
100
AcDbEntity
  8
DEFPOINTS
  6
ByBlock
 62
     0
380
     1
100
AcDbPoint
 10
23.91426333465915
 20
498.977753
 30
0.0
  0
POINT
  5
B92
330
B9A
100
AcDbEntity
  8
DEFPOINTS
  6
ByBlock
 62
     0
380
     1
100
AcDbPoint
 10
19.95214349340225
 20
342.914673
 30
0.0
  0
LINE
  5
B93
330
B9A
100
AcDbEntity
  8
0
  6
ByBlock
 62
     0
370
    -2
380
     1
100
AcDbLine
 10
23.28926333465915
 20
498.977753
 30
0.0
 11
-10.86136609136093
 21
498.977753
 31
0.0
  0
LINE
  5
B94
330
B9A
100
AcDbEntity
  8
0
  6
ByBlock
 62
     0
370
    -2
380
     1
100
AcDbLine
 10
19.32714349340225
 20
342.914673
 30
0.0
 11
-10.86136609136093
 21
342.914673
 31
0.0
  0
LINE
  5
B95
330
B9A
100
AcDbEntity
  8
0
  6
ByBlock
 62
     0
370
    -2
380
     1
100
AcDbLine
 10
-9.611366091360932
 20
496.477753
 30
0.0
 11
-9.611366091360932
 21
345.414673
 31
0.0
  0
SOLID
  5
B96
330
B9A
100
AcDbEntity
  8
0
  6
ByBlock
 62
     0
380
     1
100
AcDbTrace
 10
-9.611366091360932
 20
498.977753
 30
0.0
 11
-10.0280327580276
 21
496.477753
 31
0.0
 12
-9.194699424694267
 22
496.477753
 32
0.0
 13
-9.194699424694267
 23
496.477753
 33
0.0
  0
SOLID
  5
B97
330
B9A
100
AcDbEntity
  8
0
  6
ByBlock
 62
     0
380
     1
100
AcDbTrace
 10
-9.611366091360932
 20
342.914673
 30
0.0
 11
-10.0280327580276
 21
345.414673
 31
0.0
 12
-9.194699424694267
 22
345.414673
 32
0.0
 13
-9.194699424694267
 23
345.414673
 33
0.0
  0
MTEXT
  5
B98
330
B9A
100
AcDbEntity
  8
0
  6
ByBlock
 62
     0
370
    -2
380
     1
100
AcDbMText
 10
-11.48636609136093
 20
420.946213
 30
0.0
 40
2.5
 41
0.0
 71
     5
 72
     1
  1
\A1;156.06
 11
6.123031769111886E-17
 21
1.0
 31
0.0
 73
     1
 44
1.0
  0
ENDBLK
  5
D36
330
B9A
100
AcDbEntity
  8
0
100
AcDbBlockEnd
  0
BLOCK
  5
D37
330
BA6
100
AcDbEntity
  8
0
100
AcDbBlockBegin
  2
*D1
 70
     1
 10
0.0
 20
0.0
 30
0.0
  3
*D1
  1

  0
POINT
  5
B9D
330
BA6
100
AcDbEntity
  8
DEFPOINTS
  6
ByBlock
 62
     0
380
     1
100
AcDbPoint
 10
171.795746
 20
498.955536
 30
0.0
  0
POINT
  5
B9E
330
BA6
100
AcDbEntity
  8
DEFPOINTS
  6
ByBlock
 62
     0
380
     1
100
AcDbPoint
 10
66.421066
 20
342.914673
 30
0.0
  0
LINE
  5
B9F
330
BA6
100
AcDbEntity
  8
0
  6
ByBlock
 62
     0
370
    -2
380
     1
100
AcDbLine
 10
171.170746
 20
498.955536
 30
0.0
 11
1.038715442112704
 21
498.955536
 31
0.0
  0
LINE
  5
BA0
330
BA6
100
AcDbEntity
  8
0
  6
ByBlock
 62
     0
370
    -2
380
     1
100
AcDbLine
 10
65.796066
 20
342.914673
 30
0.0
 11
1.038715442112704
 21
342.914673
 31
0.0
  0
LINE
  5
BA1
330
BA6
100
AcDbEntity
  8
0
  6
ByBlock
 62
     0
370
    -2
380
     1
100
AcDbLine
 10
2.288715442112704
 20
496.455536
 30
0.0
 11
2.288715442112704
 21
345.414673
 31
0.0
  0
SOLID
  5
BA2
330
BA6
100
AcDbEntity
  8
0
  6
ByBlock
 62
     0
380
     1
100
AcDbTrace
 10
2.288715442112704
 20
498.955536
 30
0.0
 11
1.872048775446046
 21
496.455536
 31
0.0
 12
2.705382108779361
 22
496.455536
 32
0.0
 13
2.705382108779361
 23
496.455536
 33
0.0
  0
SOLID
  5
BA3
330
BA6
100
AcDbEntity
  8
0
  6
ByBlock
 62
     0
380
     1
100
AcDbTrace
 10
2.288715442112704
 20
342.914673
 30
0.0
 11
1.872048775446046
 21
345.414673
 31
0.0
 12
2.705382108779361
 22
345.414673
 32
0.0
 13
2.705382108779361
 23
345.414673
 33
0.0
  0
MTEXT
  5
BA4
330
BA6
100
AcDbEntity
  8
0
  6
ByBlock
 62
     0
370
    -2
380
     1
100
AcDbMText
 10
0.4137154421127036
 20
420.9351045
 30
0.0
 40
2.5
 41
0.0
 71
     5
 72
     1
  1
\A1;156.04
 11
6.123031769111886E-17
 21
1.0
 31
0.0
 73
     1
 44
1.0
  0
ENDBLK
  5
D38
330
BA6
100
AcDbEntity
  8
0
100
AcDbBlockEnd
  0
BLOCK
  5
D39
330
BB2
100
AcDbEntity
  8
0
100
AcDbBlockBegin
  2
*D2
 70
     1
 10
0.0
 20
0.0
 30
0.0
  3
*D2
  1

  0
POINT
  5
BA8
330
BB2
100
AcDbEntity
  8
DEFPOINTS
  6
ByBlock
 62
     0
380
     1
100
AcDbPoint
 10
171.795746
 20
498.955536
 30
0.0
  0
POINT
  5
BA9
330
BB2
100
AcDbEntity
  8
DEFPOINTS
  6
ByBlock
 62
     0
380
     1
100
AcDbPoint
 10
66.421066
 20
342.914673
 30
0.0
  0
LINE
  5
BAA
330
BB2
100
AcDbEntity
  8
0
  6
ByBlock
 62
     0
370
    -2
380
     1
100
AcDbLine
 10
171.170746
 20
498.955536
 30
0.0
 11
1.038715442112704
 21
498.955536
 31
0.0
  0
LINE
  5
BAB
330
BB2
100
AcDbEntity
  8
0
  6
ByBlock
 62
     0
370
    -2
380
     1
100
AcDbLine
 10
65.796066
 20
342.914673
 30
0.0
 11
1.038715442112704
 21
342.914673
 31
0.0
  0
LINE
  5
BAC
330
BB2
100
AcDbEntity
  8
0
  6
ByBlock
 62
     0
370
    -2
380
     1
100
AcDbLine
 10
2.288715442112704
 20
498.955536
 30
0.0
 11
2.288715442112704
 21
342.914673
 31
0.0
  0
SOLID
  5
BAD
330
BB2
100
AcDbEntity
  8
0
  6
ByBlock
 62
     0
380
     1
100
AcDbTrace
 10
2.288715442112704
 20
498.955536
 30
0.0
 11
1.872048775446046
 21
496.455536
 31
0.0
 12
2.705382108779361
 22
496.455536
 32
0.0
 13
2.705382108779361
 23
496.455536
 33
0.0
  0
SOLID
  5
BAE
330
BB2
100
AcDbEntity
  8
0
  6
ByBlock
 62
     0
380
     1
100
AcDbTrace
 10
2.288715442112704
 20
342.914673
 30
0.0
 11
1.872048775446046
 21
345.414673
 31
0.0
 12
2.705382108779361
 22
345.414673
 32
0.0
 13
2.705382108779361
 23
345.414673
 33
0.0
  0
LINE
  5
BAF
330
BB2
100
AcDbEntity
  8
0
  6
ByBlock
 62
     0
370
    -2
380
     1
100
AcDbLine
 10
171.795746
 20
498.955536
 30
0.0
 11
171.795746
 21
498.955536
 31
0.0
  0
MTEXT
  5
BB0
330
BB2
100
AcDbEntity
  8
0
  6
ByBlock
 62
     0
370
    -2
380
     1
100
AcDbMText
 10
0.4137154421127036
 20
420.9351045
 30
0.0
 40
2.5
 41
0.0
 71
     5
 72
     1
  1
\A1;156.04
 11
6.123031769111886E-17
 21
1.0
 31
0.0
 73
     1
 44
1.0
  0
ENDBLK
  5
D3A
330
BB2
100
AcDbEntity
  8
0
100
AcDbBlockEnd
  0
BLOCK
  5
D3B
330
BBE
100
AcDbEntity
  8
0
100
AcDbBlockBegin
  2
*D3
 70
     1
 10
0.0
 20
0.0
 30
0.0
  3
*D3
  1

  0
POINT
  5
BB4
330
BBE
100
AcDbEntity
  8
DEFPOINTS
  6
ByBlock
 62
     7
380
     1
100
AcDbPoint
 10
171.795746
 20
498.955536
 30
0.0
  0
POINT
  5
BB5
330
BBE
100
AcDbEntity
  8
DEFPOINTS
  6
ByBlock
 62
     7
380
     1
100
AcDbPoint
 10
66.421066
 20
342.914673
 30
0.0
  0
LINE
  5
BB6
330
BBE
100
AcDbEntity
  8
0
  6
ByBlock
 62
     7
370
    -2
380
     1
100
AcDbLine
 10
171.170746
 20
498.955536
 30
0.0
 11
1.038715442112704
 21
498.955536
 31
0.0
  0
LINE
  5
BB7
330
BBE
100
AcDbEntity
  8
0
  6
ByBlock
 62
     7
370
    -2
380
     1
100
AcDbLine
 10
65.796066
 20
342.914673
 30
0.0
 11
1.038715442112704
 21
342.914673
 31
0.0
  0
LINE
  5
BB8
330
BBE
100
AcDbEntity
  8
0
  6
ByBlock
 62
     7
370
    -2
380
     1
100
AcDbLine
 10
2.288715442112704
 20
498.955536
 30
0.0
 11
2.288715442112704
 21
342.914673
 31
0.0
  0
SOLID
  5
BB9
330
BBE
100
AcDbEntity
  8
0
  6
ByBlock
 62
     7
380
     1
100
AcDbTrace
 10
2.288715442112704
 20
498.955536
 30
0.0
 11
0.6220487754460464
 21
488.955536
 31
0.0
 12
3.955382108779361
 22
488.955536
 32
0.0
 13
3.955382108779361
 23
488.955536
 33
0.0
  0
SOLID
  5
BBA
330
BBE
100
AcDbEntity
  8
0
  6
ByBlock
 62
     7
380
     1
100
AcDbTrace
 10
2.288715442112704
 20
342.914673
 30
0.0
 11
0.6220487754460464
 21
352.914673
 31
0.0
 12
3.955382108779361
 22
352.914673
 32
0.0
 13
3.955382108779361
 23
352.914673
 33
0.0
  0
LINE
  5
BBB
330
BBE
100
AcDbEntity
  8
0
  6
ByBlock
 62
     7
370
    -2
380
     1
100
AcDbLine
 10
171.795746
 20
498.955536
 30
0.0
 11
171.795746
 21
498.955536
 31
0.0
  0
MTEXT
  5
BBC
330
BBE
100
AcDbEntity
  8
0
  6
ByBlock
 62
     0
370
    -2
380
     1
100
AcDbMText
 10
0.4137154421127036
 20
420.9351045
 30
0.0
 40
14.0
 41
0.0
 71
     5
 72
     1
  1
\A1;156.04
 11
6.123031769111886E-17
 21
1.0
 31
0.0
 73
     1
 44
1.0
  0
ENDBLK
  5
D3C
330
BBE
100
AcDbEntity
  8
0
100
AcDbBlockEnd
  0
BLOCK
  5
D3D
330
BC9
100
AcDbEntity
  8
0
100
AcDbBlockBegin
  2
*D4
 70
     1
 10
0.0
 20
0.0
 30
0.0
  3
*D4
  1

  0
POINT
  5
BC0
330
BC9
100
AcDbEntity
  8
DEFPOINTS
  6
ByBlock
 62
     7
380
     1
100
AcDbPoint
 10
171.795746
 20
498.955536
 30
0.0
  0
POINT
  5
BC1
330
BC9
100
AcDbEntity
  8
DEFPOINTS
  6
ByBlock
 62
     7
380
     1
100
AcDbPoint
 10
66.421066
 20
342.914673
 30
0.0
  0
LINE
  5
BC2
330
BC9
100
AcDbEntity
  8
0
  6
ByBlock
 62
     7
370
    -2
380
     1
100
AcDbLine
 10
171.170746
 20
498.955536
 30
0.0
 11
1.038715442112704
 21
498.955536
 31
0.0
  0
LINE
  5
BC3
330
BC9
100
AcDbEntity
  8
0
  6
ByBlock
 62
     7
370
    -2
380
     1
100
AcDbLine
 10
65.796066
 20
342.914673
 30
0.0
 11
1.038715442112704
 21
342.914673
 31
0.0
  0
LINE
  5
BC4
330
BC9
100
AcDbEntity
  8
0
  6
ByBlock
 62
     7
370
    -2
380
     1
100
AcDbLine
 10
2.288715442112704
 20
488.955536
 30
0.0
 11
2.288715442112704
 21
352.914673
 31
0.0
  0
SOLID
  5
BC5
330
BC9
100
AcDbEntity
  8
0
  6
ByBlock
 62
     7
380
     1
100
AcDbTrace
 10
2.288715442112704
 20
498.955536
 30
0.0
 11
0.6220487754460464
 21
488.955536
 31
0.0
 12
3.955382108779361
 22
488.955536
 32
0.0
 13
3.955382108779361
 23
488.955536
 33
0.0
  0
SOLID
  5
BC6
330
BC9
100
AcDbEntity
  8
0
  6
ByBlock
 62
     7
380
     1
100
AcDbTrace
 10
2.288715442112704
 20
342.914673
 30
0.0
 11
0.6220487754460464
 21
352.914673
 31
0.0
 12
3.955382108779361
 22
352.914673
 32
0.0
 13
3.955382108779361
 23
352.914673
 33
0.0
  0
MTEXT
  5
BC7
330
BC9
100
AcDbEntity
  8
0
  6
ByBlock
 62
     0
370
    -2
380
     1
100
AcDbMText
 10
-9.711284557887296
 20
420.9351045
 30
0.0
 40
14.0
 41
0.0
 71
     5
 72
     1
  1
\A1;156.04
 11
6.123031769111886E-17
 21
1.0
 31
0.0
 73
     1
 44
1.0
  0
ENDBLK
  5
D3E
330
BC9
100
AcDbEntity
  8
0
100
AcDbBlockEnd
  0
BLOCK
  5
D3F
330
BD4
100
AcDbEntity
  8
0
100
AcDbBlockBegin
  2
*D5
 70
     1
 10
0.0
 20
0.0
 30
0.0
  3
*D5
  1

  0
POINT
  5
BCB
330
BD4
100
AcDbEntity
  8
DEFPOINTS
  6
ByBlock
 62
     7
380
     1
100
AcDbPoint
 10
171.795746
 20
498.955536
 30
0.0
  0
POINT
  5
BCC
330
BD4
100
AcDbEntity
  8
DEFPOINTS
  6
ByBlock
 62
     7
380
     1
100
AcDbPoint
 10
66.421066
 20
342.914673
 30
0.0
  0
LINE
  5
BCD
330
BD4
100
AcDbEntity
  8
0
  6
ByBlock
 62
     7
370
    -2
380
     1
100
AcDbLine
 10
171.170746
 20
498.955536
 30
0.0
 11
1.038715442112704
 21
498.955536
 31
0.0
  0
LINE
  5
BCE
330
BD4
100
AcDbEntity
  8
0
  6
ByBlock
 62
     7
370
    -2
380
     1
100
AcDbLine
 10
65.796066
 20
342.914673
 30
0.0
 11
1.038715442112704
 21
342.914673
 31
0.0
  0
LINE
  5
BCF
330
BD4
100
AcDbEntity
  8
0
  6
ByBlock
 62
     7
370
    -2
380
     1
100
AcDbLine
 10
2.288715442112704
 20
488.955536
 30
0.0
 11
2.288715442112704
 21
352.914673
 31
0.0
  0
SOLID
  5
BD0
330
BD4
100
AcDbEntity
  8
0
  6
ByBlock
 62
     7
380
     1
100
AcDbTrace
 10
2.288715442112704
 20
498.955536
 30
0.0
 11
0.6220487754460464
 21
488.955536
 31
0.0
 12
3.955382108779361
 22
488.955536
 32
0.0
 13
3.955382108779361
 23
488.955536
 33
0.0
  0
SOLID
  5
BD1
330
BD4
100
AcDbEntity
  8
0
  6
ByBlock
 62
     7
380
     1
100
AcDbTrace
 10
2.288715442112704
 20
342.914673
 30
0.0
 11
0.6220487754460464
 21
352.914673
 31
0.0
 12
3.955382108779361
 22
352.914673
 32
0.0
 13
3.955382108779361
 23
352.914673
 33
0.0
  0
MTEXT
  5
BD2
330
BD4
100
AcDbEntity
  8
0
  6
ByBlock
 62
     0
370
    -2
380
     1
100
AcDbMText
 10
-9.711284557887296
 20
420.9351045
 30
0.0
 40
14.0
 41
0.0
 71
     5
 72
     1
  1
156
 11
6.123031769111886E-17
 21
1.0
 31
0.0
 73
     1
 44
1.0
  0
ENDBLK
  5
D40
330
BD4
100
AcDbEntity
  8
0
100
AcDbBlockEnd
  0
BLOCK
  5
D41
330
C01
100
AcDbEntity
  8
0
100
AcDbBlockBegin
  2
*D6
 70
     1
 10
0.0
 20
0.0
 30
0.0
  3
*D6
  1

  0
POINT
  5
BF8
330
C01
100
AcDbEntity
  8
DEFPOINTS
  6
ByBlock
 62
     0
380
     1
100
AcDbPoint
 10
19.975861
 20
162.944916
 30
0.0
  0
POINT
  5
BF9
330
C01
100
AcDbEntity
  8
DEFPOINTS
  6
ByBlock
 62
     0
380
     1
100
AcDbPoint
 10
302.555542
 20
125.151634
 30
0.0
  0
LINE
  5
BFA
330
C01
100
AcDbEntity
  8
0
  6
ByBlock
 62
     0
370
    -2
380
     1
100
AcDbLine
 10
19.975861
 20
163.569916
 30
0.0
 11
19.975861
 21
287.0007660581664
 31
0.0
  0
LINE
  5
BFB
330
C01
100
AcDbEntity
  8
0
  6
ByBlock
 62
     0
370
    -2
380
     1
100
AcDbLine
 10
302.555542
 20
125.776634
 30
0.0
 11
302.555542
 21
287.0007660581664
 31
0.0
  0
LINE
  5
BFC
330
C01
100
AcDbEntity
  8
0
  6
ByBlock
 62
     0
370
    -2
380
     1
100
AcDbLine
 10
22.475861
 20
285.7507660581664
 30
0.0
 11
300.055542
 21
285.7507660581664
 31
0.0
  0
SOLID
  5
BFD
330
C01
100
AcDbEntity
  8
0
  6
ByBlock
 62
     0
380
     1
100
AcDbTrace
 10
19.975861
 20
285.7507660581664
 30
0.0
 11
22.475861
 21
285.3340993914998
 31
0.0
 12
22.475861
 22
286.1674327248331
 32
0.0
 13
22.475861
 23
286.1674327248331
 33
0.0
  0
SOLID
  5
BFE
330
C01
100
AcDbEntity
  8
0
  6
ByBlock
 62
     0
380
     1
100
AcDbTrace
 10
302.555542
 20
285.7507660581664
 30
0.0
 11
300.055542
 21
285.3340993914998
 31
0.0
 12
300.055542
 22
286.1674327248331
 32
0.0
 13
300.055542
 23
286.1674327248331
 33
0.0
  0
MTEXT
  5
BFF
330
C01
100
AcDbEntity
  8
0
  6
ByBlock
 62
     0
370
    -2
380
     1
100
AcDbMText
 10
161.2657015
 20
287.6257660581664
 30
0.0
 40
2.5
 41
0.0
 71
     5
 72
     1
  1
\A1;282.58
 73
     1
 44
1.0
  0
ENDBLK
  5
D42
330
C01
100
AcDbEntity
  8
0
100
AcDbBlockEnd
  0
BLOCK
  5
D43
330
C0D
100
AcDbEntity
  8
0
100
AcDbBlockBegin
  2
*D7
 70
     1
 10
0.0
 20
0.0
 30
0.0
  3
*D7
  1

  0
POINT
  5
C03
330
C0D
100
AcDbEntity
  8
DEFPOINTS
  6
ByBlock
 62
     0
380
     1
100
AcDbPoint
 10
19.975861
 20
162.944916
 30
0.0
  0
POINT
  5
C04
330
C0D
100
AcDbEntity
  8
DEFPOINTS
  6
ByBlock
 62
     0
380
     1
100
AcDbPoint
 10
302.555542
 20
125.151634
 30
0.0
  0
LINE
  5
C05
330
C0D
100
AcDbEntity
  8
0
  6
ByBlock
 62
     0
370
    -2
380
     1
100
AcDbLine
 10
19.975861
 20
163.569916
 30
0.0
 11
19.975861
 21
287.0007660581664
 31
0.0
  0
LINE
  5
C06
330
C0D
100
AcDbEntity
  8
0
  6
ByBlock
 62
     0
370
    -2
380
     1
100
AcDbLine
 10
302.555542
 20
125.776634
 30
0.0
 11
302.555542
 21
287.0007660581664
 31
0.0
  0
LINE
  5
C07
330
C0D
100
AcDbEntity
  8
0
  6
ByBlock
 62
     0
370
    -2
380
     1
100
AcDbLine
 10
19.975861
 20
285.7507660581664
 30
0.0
 11
302.555542
 21
285.7507660581664
 31
0.0
  0
SOLID
  5
C08
330
C0D
100
AcDbEntity
  8
0
  6
ByBlock
 62
     0
380
     1
100
AcDbTrace
 10
19.975861
 20
285.7507660581664
 30
0.0
 11
22.475861
 21
285.3340993914998
 31
0.0
 12
22.475861
 22
286.1674327248331
 32
0.0
 13
22.475861
 23
286.1674327248331
 33
0.0
  0
SOLID
  5
C09
330
C0D
100
AcDbEntity
  8
0
  6
ByBlock
 62
     0
380
     1
100
AcDbTrace
 10
302.555542
 20
285.7507660581664
 30
0.0
 11
300.055542
 21
285.3340993914998
 31
0.0
 12
300.055542
 22
286.1674327248331
 32
0.0
 13
300.055542
 23
286.1674327248331
 33
0.0
  0
LINE
  5
C0A
330
C0D
100
AcDbEntity
  8
0
  6
ByBlock
 62
     0
370
    -2
380
     1
100
AcDbLine
 10
19.975861
 20
162.944916
 30
0.0
 11
19.975861
 21
162.944916
 31
0.0
  0
MTEXT
  5
C0B
330
C0D
100
AcDbEntity
  8
0
  6
ByBlock
 62
     0
370
    -2
380
     1
100
AcDbMText
 10
161.2657015
 20
287.6257660581664
 30
0.0
 40
2.5
 41
0.0
 71
     5
 72
     1
  1
\A1;282.58
 73
     1
 44
1.0
  0
ENDBLK
  5
D44
330
C0D
100
AcDbEntity
  8
0
100
AcDbBlockEnd
  0
BLOCK
  5
D45
330
C19
100
AcDbEntity
  8
0
100
AcDbBlockBegin
  2
*D8
 70
     1
 10
0.0
 20
0.0
 30
0.0
  3
*D8
  1

  0
POINT
  5
C0F
330
C19
100
AcDbEntity
  8
DEFPOINTS
  6
ByBlock
 62
     7
380
     1
100
AcDbPoint
 10
19.975861
 20
162.944916
 30
0.0
  0
POINT
  5
C10
330
C19
100
AcDbEntity
  8
DEFPOINTS
  6
ByBlock
 62
     7
380
     1
100
AcDbPoint
 10
302.555542
 20
125.151634
 30
0.0
  0
LINE
  5
C11
330
C19
100
AcDbEntity
  8
0
  6
ByBlock
 62
     7
370
    -2
380
     1
100
AcDbLine
 10
19.975861
 20
163.569916
 30
0.0
 11
19.975861
 21
287.0007660581664
 31
0.0
  0
LINE
  5
C12
330
C19
100
AcDbEntity
  8
0
  6
ByBlock
 62
     7
370
    -2
380
     1
100
AcDbLine
 10
302.555542
 20
125.776634
 30
0.0
 11
302.555542
 21
287.0007660581664
 31
0.0
  0
LINE
  5
C13
330
C19
100
AcDbEntity
  8
0
  6
ByBlock
 62
     7
370
    -2
380
     1
100
AcDbLine
 10
19.975861
 20
285.7507660581664
 30
0.0
 11
302.555542
 21
285.7507660581664
 31
0.0
  0
SOLID
  5
C14
330
C19
100
AcDbEntity
  8
0
  6
ByBlock
 62
     7
380
     1
100
AcDbTrace
 10
19.975861
 20
285.7507660581664
 30
0.0
 11
29.975861
 21
284.0840993914998
 31
0.0
 12
29.975861
 22
287.4174327248331
 32
0.0
 13
29.975861
 23
287.4174327248331
 33
0.0
  0
SOLID
  5
C15
330
C19
100
AcDbEntity
  8
0
  6
ByBlock
 62
     7
380
     1
100
AcDbTrace
 10
302.555542
 20
285.7507660581664
 30
0.0
 11
292.555542
 21
284.0840993914998
 31
0.0
 12
292.555542
 22
287.4174327248331
 32
0.0
 13
292.555542
 23
287.4174327248331
 33
0.0
  0
LINE
  5
C16
330
C19
100
AcDbEntity
  8
0
  6
ByBlock
 62
     7
370
    -2
380
     1
100
AcDbLine
 10
19.975861
 20
162.944916
 30
0.0
 11
19.975861
 21
162.944916
 31
0.0
  0
MTEXT
  5
C17
330
C19
100
AcDbEntity
  8
0
  6
ByBlock
 62
     0
370
    -2
380
     1
100
AcDbMText
 10
161.2657015
 20
287.6257660581664
 30
0.0
 40
14.0
 41
0.0
 71
     5
 72
     1
  1
\A1;282.58
 73
     1
 44
1.0
  0
ENDBLK
  5
D46
330
C19
100
AcDbEntity
  8
0
100
AcDbBlockEnd
  0
BLOCK
  5
D47
330
C24
100
AcDbEntity
  8
0
100
AcDbBlockBegin
  2
*D9
 70
     1
 10
0.0
 20
0.0
 30
0.0
  3
*D9
  1

  0
POINT
  5
C1B
330
C24
100
AcDbEntity
  8
DEFPOINTS
  6
ByBlock
 62
     7
380
     1
100
AcDbPoint
 10
19.975861
 20
162.944916
 30
0.0
  0
POINT
  5
C1C
330
C24
100
AcDbEntity
  8
DEFPOINTS
  6
ByBlock
 62
     7
380
     1
100
AcDbPoint
 10
302.555542
 20
125.151634
 30
0.0
  0
LINE
  5
C1D
330
C24
100
AcDbEntity
  8
0
  6
ByBlock
 62
     7
370
    -2
380
     1
100
AcDbLine
 10
19.975861
 20
163.569916
 30
0.0
 11
19.975861
 21
287.0007660581664
 31
0.0
  0
LINE
  5
C1E
330
C24
100
AcDbEntity
  8
0
  6
ByBlock
 62
     7
370
    -2
380
     1
100
AcDbLine
 10
302.555542
 20
125.776634
 30
0.0
 11
302.555542
 21
287.0007660581664
 31
0.0
  0
LINE
  5
C1F
330
C24
100
AcDbEntity
  8
0
  6
ByBlock
 62
     7
370
    -2
380
     1
100
AcDbLine
 10
29.975861
 20
285.7507660581664
 30
0.0
 11
292.555542
 21
285.7507660581664
 31
0.0
  0
SOLID
  5
C20
330
C24
100
AcDbEntity
  8
0
  6
ByBlock
 62
     7
380
     1
100
AcDbTrace
 10
19.975861
 20
285.7507660581664
 30
0.0
 11
29.975861
 21
284.0840993914998
 31
0.0
 12
29.975861
 22
287.4174327248331
 32
0.0
 13
29.975861
 23
287.4174327248331
 33
0.0
  0
SOLID
  5
C21
330
C24
100
AcDbEntity
  8
0
  6
ByBlock
 62
     7
380
     1
100
AcDbTrace
 10
302.555542
 20
285.7507660581664
 30
0.0
 11
292.555542
 21
284.0840993914998
 31
0.0
 12
292.555542
 22
287.4174327248331
 32
0.0
 13
292.555542
 23
287.4174327248331
 33
0.0
  0
MTEXT
  5
C22
330
C24
100
AcDbEntity
  8
0
  6
ByBlock
 62
     0
370
    -2
380
     1
100
AcDbMText
 10
161.2657015
 20
297.7507660581664
 30
0.0
 40
14.0
 41
0.0
 71
     5
 72
     1
  1
\A1;282.58
 73
     1
 44
1.0
  0
ENDBLK
  5
D48
330
C24
100
AcDbEntity
  8
0
100
AcDbBlockEnd
  0
BLOCK
  5
D49
330
C2F
100
AcDbEntity
  8
0
100
AcDbBlockBegin
  2
*D10
 70
     1
 10
0.0
 20
0.0
 30
0.0
  3
*D10
  1

  0
POINT
  5
C26
330
C2F
100
AcDbEntity
  8
DEFPOINTS
  6
ByBlock
 62
     7
380
     1
100
AcDbPoint
 10
19.975861
 20
162.944916
 30
0.0
  0
POINT
  5
C27
330
C2F
100
AcDbEntity
  8
DEFPOINTS
  6
ByBlock
 62
     7
380
     1
100
AcDbPoint
 10
302.555542
 20
125.151634
 30
0.0
  0
LINE
  5
C28
330
C2F
100
AcDbEntity
  8
0
  6
ByBlock
 62
     7
370
    -2
380
     1
100
AcDbLine
 10
19.975861
 20
163.569916
 30
0.0
 11
19.975861
 21
287.0007660581664
 31
0.0
  0
LINE
  5
C29
330
C2F
100
AcDbEntity
  8
0
  6
ByBlock
 62
     7
370
    -2
380
     1
100
AcDbLine
 10
302.555542
 20
125.776634
 30
0.0
 11
302.555542
 21
287.0007660581664
 31
0.0
  0
LINE
  5
C2A
330
C2F
100
AcDbEntity
  8
0
  6
ByBlock
 62
     7
370
    -2
380
     1
100
AcDbLine
 10
29.975861
 20
285.7507660581664
 30
0.0
 11
292.555542
 21
285.7507660581664
 31
0.0
  0
SOLID
  5
C2B
330
C2F
100
AcDbEntity
  8
0
  6
ByBlock
 62
     7
380
     1
100
AcDbTrace
 10
19.975861
 20
285.7507660581664
 30
0.0
 11
29.975861
 21
284.0840993914998
 31
0.0
 12
29.975861
 22
287.4174327248331
 32
0.0
 13
29.975861
 23
287.4174327248331
 33
0.0
  0
SOLID
  5
C2C
330
C2F
100
AcDbEntity
  8
0
  6
ByBlock
 62
     7
380
     1
100
AcDbTrace
 10
302.555542
 20
285.7507660581664
 30
0.0
 11
292.555542
 21
284.0840993914998
 31
0.0
 12
292.555542
 22
287.4174327248331
 32
0.0
 13
292.555542
 23
287.4174327248331
 33
0.0
  0
MTEXT
  5
C2D
330
C2F
100
AcDbEntity
  8
0
  6
ByBlock
 62
     0
370
    -2
380
     1
100
AcDbMText
 10
161.2657015
 20
297.7507660581664
 30
0.0
 40
14.0
 41
0.0
 71
     5
 72
     1
  1
283
 73
     1
 44
1.0
  0
ENDBLK
  5
D4A
330
C2F
100
AcDbEntity
  8
0
100
AcDbBlockEnd
  0
BLOCK
  5
D4B
330
C3B
100
AcDbEntity
  8
0
100
AcDbBlockBegin
  2
*D11
 70
     1
 10
0.0
 20
0.0
 30
0.0
  3
*D11
  1

  0
POINT
  5
C32
330
C3B
100
AcDbEntity
  8
DEFPOINTS
  6
ByBlock
 62
     0
380
     1
100
AcDbPoint
 10
184.982635
 20
269.411316
 30
0.0
  0
POINT
  5
C33
330
C3B
100
AcDbEntity
  8
DEFPOINTS
  6
ByBlock
 62
     0
380
     1
100
AcDbPoint
 10
69.577179
 20
0.000015
 30
0.0
  0
LINE
  5
C34
330
C3B
100
AcDbEntity
  8
0
  6
ByBlock
 62
     0
370
    -2
380
     1
100
AcDbLine
 10
184.357635
 20
269.411316
 30
0.0
 11
-97.71576514961319
 21
269.411316
 31
0.0
  0
LINE
  5
C35
330
C3B
100
AcDbEntity
  8
0
  6
ByBlock
 62
     0
370
    -2
380
     1
100
AcDbLine
 10
68.952179
 20
0.000015000000019
 30
0.0
 11
-97.71576514961319
 21
0.000015000000019
 31
0.0
  0
LINE
  5
C36
330
C3B
100
AcDbEntity
  8
0
  6
ByBlock
 62
     0
370
    -2
380
     1
100
AcDbLine
 10
-96.46576514961319
 20
266.911316
 30
0.0
 11
-96.46576514961319
 21
2.500015000000019
 31
0.0
  0
SOLID
  5
C37
330
C3B
100
AcDbEntity
  8
0
  6
ByBlock
 62
     0
380
     1
100
AcDbTrace
 10
-96.46576514961319
 20
269.411316
 30
0.0
 11
-96.88243181627988
 21
266.911316
 31
0.0
 12
-96.0490984829465
 22
266.911316
 32
0.0
 13
-96.0490984829465
 23
266.911316
 33
0.0
  0
SOLID
  5
C38
330
C3B
100
AcDbEntity
  8
0
  6
ByBlock
 62
     0
380
     1
100
AcDbTrace
 10
-96.46576514961319
 20
0.000015000000019
 30
0.0
 11
-96.88243181627988
 21
2.500015000000019
 31
0.0
 12
-96.0490984829465
 22
2.500015000000019
 32
0.0
 13
-96.0490984829465
 23
2.500015000000019
 33
0.0
  0
MTEXT
  5
C39
330
C3B
100
AcDbEntity
  8
0
  6
ByBlock
 62
     0
370
    -2
380
     1
100
AcDbMText
 10
-98.34076514961319
 20
134.7056655
 30
0.0
 40
2.5
 41
0.0
 71
     5
 72
     1
  1
\A1;269.41
 11
6.123031769111886E-17
 21
1.0
 31
0.0
 73
     1
 44
1.0
  0
ENDBLK
  5
D4C
330
C3B
100
AcDbEntity
  8
0
100
AcDbBlockEnd
  0
BLOCK
  5
D4D
330
C49
100
AcDbEntity
  8
0
100
AcDbBlockBegin
  2
*D12
 70
     1
 10
0.0
 20
0.0
 30
0.0
  3
*D12
  1

  0
POINT
  5
C3E
330
C49
100
AcDbEntity
  8
DEFPOINTS
  6
ByBlock
 62
     0
380
     1
100
AcDbPoint
 10
184.982635
 20
269.411316
 30
0.0
  0
POINT
  5
C3F
330
C49
100
AcDbEntity
  8
DEFPOINTS
  6
ByBlock
 62
     0
380
     1
100
AcDbPoint
 10
69.577179
 20
0.000015
 30
0.0
  0
LINE
  5
C40
330
C49
100
AcDbEntity
  8
0
  6
ByBlock
 62
     0
370
    -2
380
     1
100
AcDbLine
 10
184.357635
 20
269.411316
 30
0.0
 11
-97.71576514961319
 21
269.411316
 31
0.0
  0
LINE
  5
C41
330
C49
100
AcDbEntity
  8
0
  6
ByBlock
 62
     0
370
    -2
380
     1
100
AcDbLine
 10
68.952179
 20
0.000015000000019
 30
0.0
 11
-97.71576514961319
 21
0.000015000000019
 31
0.0
  0
LINE
  5
C42
330
C49
100
AcDbEntity
  8
0
  6
ByBlock
 62
     0
370
    -2
380
     1
100
AcDbLine
 10
-96.46576514961319
 20
269.411316
 30
0.0
 11
-96.46576514961319
 21
141.1639988333334
 31
0.0
  0
LINE
  5
C43
330
C49
100
AcDbEntity
  8
0
  6
ByBlock
 62
     0
370
    -2
380
     1
100
AcDbLine
 10
-96.46576514961319
 20
0.000015000000019
 30
0.0
 11
-96.46576514961319
 21
128.2473321666667
 31
0.0
  0
SOLID
  5
C44
330
C49
100
AcDbEntity
  8
0
  6
ByBlock
 62
     0
380
     1
100
AcDbTrace
 10
-96.46576514961319
 20
269.411316
 30
0.0
 11
-96.88243181627988
 21
266.911316
 31
0.0
 12
-96.0490984829465
 22
266.911316
 32
0.0
 13
-96.0490984829465
 23
266.911316
 33
0.0
  0
SOLID
  5
C45
330
C49
100
AcDbEntity
  8
0
  6
ByBlock
 62
     0
380
     1
100
AcDbTrace
 10
-96.46576514961319
 20
0.000015000000019
 30
0.0
 11
-96.88243181627988
 21
2.500015000000019
 31
0.0
 12
-96.0490984829465
 22
2.500015000000019
 32
0.0
 13
-96.0490984829465
 23
2.500015000000019
 33
0.0
  0
LINE
  5
C46
330
C49
100
AcDbEntity
  8
0
  6
ByBlock
 62
     0
370
    -2
380
     1
100
AcDbLine
 10
184.982635
 20
269.411316
 30
0.0
 11
184.982635
 21
269.411316
 31
0.0
  0
MTEXT
  5
C47
330
C49
100
AcDbEntity
  8
0
  6
ByBlock
 62
     0
370
    -2
380
     1
100
AcDbMText
 10
-96.46576514961319
 20
134.7056655
 30
0.0
 40
2.5
 41
0.0
 71
     5
 72
     1
  1
\A1;269.41
 11
6.123031769111886E-17
 21
1.0
 31
0.0
 73
     1
 44
1.0
  0
ENDBLK
  5
D4E
330
C49
100
AcDbEntity
  8
0
100
AcDbBlockEnd
  0
BLOCK
  5
D4F
330
C61
100
AcDbEntity
  8
0
100
AcDbBlockBegin
  2
*D13
 70
     1
 10
0.0
 20
0.0
 30
0.0
  3
*D13
  1

  0
POINT
  5
C58
330
C61
100
AcDbEntity
  8
DEFPOINTS
  6
ByBlock
 62
     0
380
     1
100
AcDbPoint
 10
184.9826362533617
 20
269.4113081469386
 30
0.0
  0
POINT
  5
C59
330
C61
100
AcDbEntity
  8
DEFPOINTS
  6
ByBlock
 62
     0
380
     1
100
AcDbPoint
 10
65.696167
 20
0.000015
 30
0.0
  0
LINE
  5
C5A
330
C61
100
AcDbEntity
  8
0
  6
ByBlock
 62
     0
370
    -2
380
     1
100
AcDbLine
 10
184.3576362533617
 20
269.4113081469386
 30
0.0
 11
1.038715442112704
 21
269.4113081469386
 31
0.0
  0
LINE
  5
C5B
330
C61
100
AcDbEntity
  8
0
  6
ByBlock
 62
     0
370
    -2
380
     1
100
AcDbLine
 10
65.071167
 20
0.000015000000019
 30
0.0
 11
1.038715442112704
 21
0.000015000000019
 31
0.0
  0
LINE
  5
C5C
330
C61
100
AcDbEntity
  8
0
  6
ByBlock
 62
     0
370
    -2
380
     1
100
AcDbLine
 10
2.288715442112704
 20
266.9113081469386
 30
0.0
 11
2.288715442112704
 21
2.500015000000019
 31
0.0
  0
SOLID
  5
C5D
330
C61
100
AcDbEntity
  8
0
  6
ByBlock
 62
     0
380
     1
100
AcDbTrace
 10
2.288715442112704
 20
269.4113081469386
 30
0.0
 11
1.872048775446046
 21
266.9113081469386
 31
0.0
 12
2.705382108779361
 22
266.9113081469386
 32
0.0
 13
2.705382108779361
 23
266.9113081469386
 33
0.0
  0
SOLID
  5
C5E
330
C61
100
AcDbEntity
  8
0
  6
ByBlock
 62
     0
380
     1
100
AcDbTrace
 10
2.288715442112704
 20
0.000015000000019
 30
0.0
 11
1.872048775446046
 21
2.500015000000019
 31
0.0
 12
2.705382108779361
 22
2.500015000000019
 32
0.0
 13
2.705382108779361
 23
2.500015000000019
 33
0.0
  0
MTEXT
  5
C5F
330
C61
100
AcDbEntity
  8
0
  6
ByBlock
 62
     0
370
    -2
380
     1
100
AcDbMText
 10
0.4137154421127036
 20
134.7056615734693
 30
0.0
 40
2.5
 41
0.0
 71
     5
 72
     1
  1
\A1;269.41
 11
6.123031769111886E-17
 21
1.0
 31
0.0
 73
     1
 44
1.0
  0
ENDBLK
  5
D50
330
C61
100
AcDbEntity
  8
0
100
AcDbBlockEnd
  0
BLOCK
  5
D51
330
C6D
100
AcDbEntity
  8
0
100
AcDbBlockBegin
  2
*D14
 70
     1
 10
0.0
 20
0.0
 30
0.0
  3
*D14
  1

  0
POINT
  5
C63
330
C6D
100
AcDbEntity
  8
DEFPOINTS
  6
ByBlock
 62
     0
380
     1
100
AcDbPoint
 10
184.9826362533617
 20
269.4113081469386
 30
0.0
  0
POINT
  5
C64
330
C6D
100
AcDbEntity
  8
DEFPOINTS
  6
ByBlock
 62
     0
380
     1
100
AcDbPoint
 10
65.696167
 20
0.000015
 30
0.0
  0
LINE
  5
C65
330
C6D
100
AcDbEntity
  8
0
  6
ByBlock
 62
     0
370
    -2
380
     1
100
AcDbLine
 10
184.3576362533617
 20
269.4113081469386
 30
0.0
 11
1.038715442112704
 21
269.4113081469386
 31
0.0
  0
LINE
  5
C66
330
C6D
100
AcDbEntity
  8
0
  6
ByBlock
 62
     0
370
    -2
380
     1
100
AcDbLine
 10
65.071167
 20
0.000015000000019
 30
0.0
 11
1.038715442112704
 21
0.000015000000019
 31
0.0
  0
LINE
  5
C67
330
C6D
100
AcDbEntity
  8
0
  6
ByBlock
 62
     0
370
    -2
380
     1
100
AcDbLine
 10
2.288715442112704
 20
269.4113081469386
 30
0.0
 11
2.288715442112704
 21
0.000015000000019
 31
0.0
  0
SOLID
  5
C68
330
C6D
100
AcDbEntity
  8
0
  6
ByBlock
 62
     0
380
     1
100
AcDbTrace
 10
2.288715442112704
 20
269.4113081469386
 30
0.0
 11
1.872048775446046
 21
266.9113081469386
 31
0.0
 12
2.705382108779361
 22
266.9113081469386
 32
0.0
 13
2.705382108779361
 23
266.9113081469386
 33
0.0
  0
SOLID
  5
C69
330
C6D
100
AcDbEntity
  8
0
  6
ByBlock
 62
     0
380
     1
100
AcDbTrace
 10
2.288715442112704
 20
0.000015000000019
 30
0.0
 11
1.872048775446046
 21
2.500015000000019
 31
0.0
 12
2.705382108779361
 22
2.500015000000019
 32
0.0
 13
2.705382108779361
 23
2.500015000000019
 33
0.0
  0
LINE
  5
C6A
330
C6D
100
AcDbEntity
  8
0
  6
ByBlock
 62
     0
370
    -2
380
     1
100
AcDbLine
 10
184.9826362533617
 20
269.4113081469386
 30
0.0
 11
184.9826362533617
 21
269.4113081469386
 31
0.0
  0
MTEXT
  5
C6B
330
C6D
100
AcDbEntity
  8
0
  6
ByBlock
 62
     0
370
    -2
380
     1
100
AcDbMText
 10
0.4137154421127036
 20
134.7056615734693
 30
0.0
 40
2.5
 41
0.0
 71
     5
 72
     1
  1
\A1;269.41
 11
6.123031769111886E-17
 21
1.0
 31
0.0
 73
     1
 44
1.0
  0
ENDBLK
  5
D52
330
C6D
100
AcDbEntity
  8
0
100
AcDbBlockEnd
  0
BLOCK
  5
D53
330
C78
100
AcDbEntity
  8
0
100
AcDbBlockBegin
  2
*D15
 70
     1
 10
0.0
 20
0.0
 30
0.0
  3
*D15
  1

  0
POINT
  5
C6F
330
C78
100
AcDbEntity
  8
DEFPOINTS
  6
ByBlock
 62
     7
380
     1
100
AcDbPoint
 10
184.9826362533617
 20
269.4113081469386
 30
0.0
  0
POINT
  5
C70
330
C78
100
AcDbEntity
  8
DEFPOINTS
  6
ByBlock
 62
     7
380
     1
100
AcDbPoint
 10
65.696167
 20
0.000015
 30
0.0
  0
LINE
  5
C71
330
C78
100
AcDbEntity
  8
0
  6
ByBlock
 62
     7
370
    -2
380
     1
100
AcDbLine
 10
184.3576362533617
 20
269.4113081469386
 30
0.0
 11
1.038715442112704
 21
269.4113081469386
 31
0.0
  0
LINE
  5
C72
330
C78
100
AcDbEntity
  8
0
  6
ByBlock
 62
     7
370
    -2
380
     1
100
AcDbLine
 10
65.071167
 20
0.000015000000019
 30
0.0
 11
1.038715442112704
 21
0.000015000000019
 31
0.0
  0
LINE
  5
C73
330
C78
100
AcDbEntity
  8
0
  6
ByBlock
 62
     7
370
    -2
380
     1
100
AcDbLine
 10
2.288715442112704
 20
259.4113081469386
 30
0.0
 11
2.288715442112704
 21
10.00001500000002
 31
0.0
  0
SOLID
  5
C74
330
C78
100
AcDbEntity
  8
0
  6
ByBlock
 62
     7
380
     1
100
AcDbTrace
 10
2.288715442112704
 20
269.4113081469386
 30
0.0
 11
0.6220487754460464
 21
259.4113081469386
 31
0.0
 12
3.955382108779361
 22
259.4113081469386
 32
0.0
 13
3.955382108779361
 23
259.4113081469386
 33
0.0
  0
SOLID
  5
C75
330
C78
100
AcDbEntity
  8
0
  6
ByBlock
 62
     7
380
     1
100
AcDbTrace
 10
2.288715442112704
 20
0.000015000000019
 30
0.0
 11
0.6220487754460464
 21
10.00001500000002
 31
0.0
 12
3.955382108779361
 22
10.00001500000002
 32
0.0
 13
3.955382108779361
 23
10.00001500000002
 33
0.0
  0
MTEXT
  5
C76
330
C78
100
AcDbEntity
  8
0
  6
ByBlock
 62
     0
370
    -2
380
     1
100
AcDbMText
 10
-9.711284557887296
 20
134.7056615734693
 30
0.0
 40
14.0
 41
0.0
 71
     5
 72
     1
  1
\A1;269.41
 11
6.123031769111886E-17
 21
1.0
 31
0.0
 73
     1
 44
1.0
  0
ENDBLK
  5
D54
330
C78
100
AcDbEntity
  8
0
100
AcDbBlockEnd
  0
BLOCK
  5
D55
330
C83
100
AcDbEntity
  8
0
100
AcDbBlockBegin
  2
*D16
 70
     1
 10
0.0
 20
0.0
 30
0.0
  3
*D16
  1

  0
POINT
  5
C7A
330
C83
100
AcDbEntity
  8
DEFPOINTS
  6
ByBlock
 62
     7
380
     1
100
AcDbPoint
 10
184.9826362533617
 20
269.4113081469386
 30
0.0
  0
POINT
  5
C7B
330
C83
100
AcDbEntity
  8
DEFPOINTS
  6
ByBlock
 62
     7
380
     1
100
AcDbPoint
 10
65.696167
 20
0.000015
 30
0.0
  0
LINE
  5
C7C
330
C83
100
AcDbEntity
  8
0
  6
ByBlock
 62
     7
370
    -2
380
     1
100
AcDbLine
 10
184.3576362533617
 20
269.4113081469386
 30
0.0
 11
1.038715442112704
 21
269.4113081469386
 31
0.0
  0
LINE
  5
C7D
330
C83
100
AcDbEntity
  8
0
  6
ByBlock
 62
     7
370
    -2
380
     1
100
AcDbLine
 10
65.071167
 20
0.000015000000019
 30
0.0
 11
1.038715442112704
 21
0.000015000000019
 31
0.0
  0
LINE
  5
C7E
330
C83
100
AcDbEntity
  8
0
  6
ByBlock
 62
     7
370
    -2
380
     1
100
AcDbLine
 10
2.288715442112704
 20
259.4113081469386
 30
0.0
 11
2.288715442112704
 21
10.00001500000002
 31
0.0
  0
SOLID
  5
C7F
330
C83
100
AcDbEntity
  8
0
  6
ByBlock
 62
     7
380
     1
100
AcDbTrace
 10
2.288715442112704
 20
269.4113081469386
 30
0.0
 11
0.6220487754460464
 21
259.4113081469386
 31
0.0
 12
3.955382108779361
 22
259.4113081469386
 32
0.0
 13
3.955382108779361
 23
259.4113081469386
 33
0.0
  0
SOLID
  5
C80
330
C83
100
AcDbEntity
  8
0
  6
ByBlock
 62
     7
380
     1
100
AcDbTrace
 10
2.288715442112704
 20
0.000015000000019
 30
0.0
 11
0.6220487754460464
 21
10.00001500000002
 31
0.0
 12
3.955382108779361
 22
10.00001500000002
 32
0.0
 13
3.955382108779361
 23
10.00001500000002
 33
0.0
  0
MTEXT
  5
C81
330
C83
100
AcDbEntity
  8
0
  6
ByBlock
 62
     0
370
    -2
380
     1
100
AcDbMText
 10
-9.711284557887296
 20
134.7056615734693
 30
0.0
 40
14.0
 41
0.0
 71
     5
 72
     1
  1
\A1;269.41
 11
6.123031769111886E-17
 21
1.0
 31
0.0
 73
     1
 44
1.0
  0
ENDBLK
  5
D56
330
C83
100
AcDbEntity
  8
0
100
AcDbBlockEnd
  0
BLOCK
  5
D57
330
C8E
100
AcDbEntity
  8
0
100
AcDbBlockBegin
  2
*D17
 70
     1
 10
0.0
 20
0.0
 30
0.0
  3
*D17
  1

  0
POINT
  5
C85
330
C8E
100
AcDbEntity
  8
DEFPOINTS
  6
ByBlock
 62
     7
380
     1
100
AcDbPoint
 10
184.9826362533617
 20
269.4113081469386
 30
0.0
  0
POINT
  5
C86
330
C8E
100
AcDbEntity
  8
DEFPOINTS
  6
ByBlock
 62
     7
380
     1
100
AcDbPoint
 10
65.696167
 20
0.000015
 30
0.0
  0
LINE
  5
C87
330
C8E
100
AcDbEntity
  8
0
  6
ByBlock
 62
     7
370
    -2
380
     1
100
AcDbLine
 10
184.3576362533617
 20
269.4113081469386
 30
0.0
 11
1.038715442112704
 21
269.4113081469386
 31
0.0
  0
LINE
  5
C88
330
C8E
100
AcDbEntity
  8
0
  6
ByBlock
 62
     7
370
    -2
380
     1
100
AcDbLine
 10
65.071167
 20
0.000015000000019
 30
0.0
 11
1.038715442112704
 21
0.000015000000019
 31
0.0
  0
LINE
  5
C89
330
C8E
100
AcDbEntity
  8
0
  6
ByBlock
 62
     7
370
    -2
380
     1
100
AcDbLine
 10
2.288715442112704
 20
259.4113081469386
 30
0.0
 11
2.288715442112704
 21
10.00001500000002
 31
0.0
  0
SOLID
  5
C8A
330
C8E
100
AcDbEntity
  8
0
  6
ByBlock
 62
     7
380
     1
100
AcDbTrace
 10
2.288715442112704
 20
269.4113081469386
 30
0.0
 11
0.6220487754460464
 21
259.4113081469386
 31
0.0
 12
3.955382108779361
 22
259.4113081469386
 32
0.0
 13
3.955382108779361
 23
259.4113081469386
 33
0.0
  0
SOLID
  5
C8B
330
C8E
100
AcDbEntity
  8
0
  6
ByBlock
 62
     7
380
     1
100
AcDbTrace
 10
2.288715442112704
 20
0.000015000000019
 30
0.0
 11
0.6220487754460464
 21
10.00001500000002
 31
0.0
 12
3.955382108779361
 22
10.00001500000002
 32
0.0
 13
3.955382108779361
 23
10.00001500000002
 33
0.0
  0
MTEXT
  5
C8C
330
C8E
100
AcDbEntity
  8
0
  6
ByBlock
 62
     0
370
    -2
380
     1
100
AcDbMText
 10
-9.711284557887296
 20
134.7056615734693
 30
0.0
 40
14.0
 41
0.0
 71
     5
 72
     1
  1
270
 11
6.123031769111886E-17
 21
1.0
 31
0.0
 73
     1
 44
1.0
  0
ENDBLK
  5
D58
330
C8E
100
AcDbEntity
  8
0
100
AcDbBlockEnd
  0
BLOCK
  5
D59
330
CFD
100
AcDbEntity
  8
0
100
AcDbBlockBegin
  2
*D18
 70
     1
 10
0.0
 20
0.0
 30
0.0
  3
*D18
  1

  0
POINT
  5
CF4
330
CFD
100
AcDbEntity
  8
DEFPOINTS
  6
ByBlock
 62
     7
380
     1
100
AcDbPoint
 10
171.795746
 20
498.955536
 30
0.0
  0
POINT
  5
CF5
330
CFD
100
AcDbEntity
  8
DEFPOINTS
  6
ByBlock
 62
     7
380
     1
100
AcDbPoint
 10
66.421066
 20
342.914673
 30
0.0
  0
LINE
  5
CF6
330
CFD
100
AcDbEntity
  8
0
  6
ByBlock
 62
     7
370
    -2
380
     1
100
AcDbLine
 10
171.170746
 20
498.955536
 30
0.0
 11
1.038715442112704
 21
498.955536
 31
0.0
  0
LINE
  5
CF7
330
CFD
100
AcDbEntity
  8
0
  6
ByBlock
 62
     7
370
    -2
380
     1
100
AcDbLine
 10
65.796066
 20
342.914673
 30
0.0
 11
1.038715442112704
 21
342.914673
 31
0.0
  0
LINE
  5
CF8
330
CFD
100
AcDbEntity
  8
0
  6
ByBlock
 62
     7
370
    -2
380
     1
100
AcDbLine
 10
2.288715442112704
 20
488.955536
 30
0.0
 11
2.288715442112704
 21
352.914673
 31
0.0
  0
SOLID
  5
CF9
330
CFD
100
AcDbEntity
  8
0
  6
ByBlock
 62
     7
380
     1
100
AcDbTrace
 10
2.288715442112704
 20
498.955536
 30
0.0
 11
0.6220487754460464
 21
488.955536
 31
0.0
 12
3.955382108779361
 22
488.955536
 32
0.0
 13
3.955382108779361
 23
488.955536
 33
0.0
  0
SOLID
  5
CFA
330
CFD
100
AcDbEntity
  8
0
  6
ByBlock
 62
     7
380
     1
100
AcDbTrace
 10
2.288715442112704
 20
342.914673
 30
0.0
 11
0.6220487754460464
 21
352.914673
 31
0.0
 12
3.955382108779361
 22
352.914673
 32
0.0
 13
3.955382108779361
 23
352.914673
 33
0.0
  0
MTEXT
  5
CFB
330
CFD
100
AcDbEntity
  8
0
  6
ByBlock
 62
     0
370
    -2
380
     1
100
AcDbMText
 10
-25.7112845578873
 20
420.9351045
 30
0.0
 40
36.0
 41
0.0
 71
     5
 72
     1
  1
156
 11
6.123031769111886E-17
 21
1.0
 31
0.0
 73
     1
 44
1.0
  0
ENDBLK
  5
D5A
330
CFD
100
AcDbEntity
  8
0
100
AcDbBlockEnd
  0
BLOCK
  5
D5B
330
D08
100
AcDbEntity
  8
0
100
AcDbBlockBegin
  2
*D19
 70
     1
 10
0.0
 20
0.0
 30
0.0
  3
*D19
  1

  0
POINT
  5
CFF
330
D08
100
AcDbEntity
  8
DEFPOINTS
  6
ByBlock
 62
     7
380
     1
100
AcDbPoint
 10
19.975861
 20
162.944916
 30
0.0
  0
POINT
  5
D00
330
D08
100
AcDbEntity
  8
DEFPOINTS
  6
ByBlock
 62
     7
380
     1
100
AcDbPoint
 10
302.555542
 20
125.151634
 30
0.0
  0
LINE
  5
D01
330
D08
100
AcDbEntity
  8
0
  6
ByBlock
 62
     7
370
    -2
380
     1
100
AcDbLine
 10
19.975861
 20
163.569916
 30
0.0
 11
19.975861
 21
287.0007660581664
 31
0.0
  0
LINE
  5
D02
330
D08
100
AcDbEntity
  8
0
  6
ByBlock
 62
     7
370
    -2
380
     1
100
AcDbLine
 10
302.555542
 20
125.776634
 30
0.0
 11
302.555542
 21
287.0007660581664
 31
0.0
  0
LINE
  5
D03
330
D08
100
AcDbEntity
  8
0
  6
ByBlock
 62
     7
370
    -2
380
     1
100
AcDbLine
 10
29.975861
 20
285.7507660581664
 30
0.0
 11
292.555542
 21
285.7507660581664
 31
0.0
  0
SOLID
  5
D04
330
D08
100
AcDbEntity
  8
0
  6
ByBlock
 62
     7
380
     1
100
AcDbTrace
 10
19.975861
 20
285.7507660581664
 30
0.0
 11
29.975861
 21
284.0840993914997
 31
0.0
 12
29.975861
 22
287.4174327248331
 32
0.0
 13
29.975861
 23
287.4174327248331
 33
0.0
  0
SOLID
  5
D05
330
D08
100
AcDbEntity
  8
0
  6
ByBlock
 62
     7
380
     1
100
AcDbTrace
 10
302.555542
 20
285.7507660581664
 30
0.0
 11
292.555542
 21
284.0840993914997
 31
0.0
 12
292.555542
 22
287.4174327248331
 32
0.0
 13
292.555542
 23
287.4174327248331
 33
0.0
  0
MTEXT
  5
D06
330
D08
100
AcDbEntity
  8
0
  6
ByBlock
 62
     0
370
    -2
380
     1
100
AcDbMText
 10
161.2657015
 20
313.7507660581664
 30
0.0
 40
36.0
 41
0.0
 71
     5
 72
     1
  1
283
 73
     1
 44
1.0
  0
ENDBLK
  5
D5C
330
D08
100
AcDbEntity
  8
0
100
AcDbBlockEnd
  0
BLOCK
  5
D5D
330
D13
100
AcDbEntity
  8
0
100
AcDbBlockBegin
  2
*D20
 70
     1
 10
0.0
 20
0.0
 30
0.0
  3
*D20
  1

  0
POINT
  5
D0A
330
D13
100
AcDbEntity
  8
DEFPOINTS
  6
ByBlock
 62
     7
380
     1
100
AcDbPoint
 10
184.9826362533617
 20
269.4113081469386
 30
0.0
  0
POINT
  5
D0B
330
D13
100
AcDbEntity
  8
DEFPOINTS
  6
ByBlock
 62
     7
380
     1
100
AcDbPoint
 10
65.696167
 20
0.000015
 30
0.0
  0
LINE
  5
D0C
330
D13
100
AcDbEntity
  8
0
  6
ByBlock
 62
     7
370
    -2
380
     1
100
AcDbLine
 10
184.3576362533617
 20
269.4113081469386
 30
0.0
 11
1.038715442112704
 21
269.4113081469386
 31
0.0
  0
LINE
  5
D0D
330
D13
100
AcDbEntity
  8
0
  6
ByBlock
 62
     7
370
    -2
380
     1
100
AcDbLine
 10
65.071167
 20
0.000015000000019
 30
0.0
 11
1.038715442112704
 21
0.000015000000019
 31
0.0
  0
LINE
  5
D0E
330
D13
100
AcDbEntity
  8
0
  6
ByBlock
 62
     7
370
    -2
380
     1
100
AcDbLine
 10
2.288715442112704
 20
259.4113081469386
 30
0.0
 11
2.288715442112704
 21
10.00001500000002
 31
0.0
  0
SOLID
  5
D0F
330
D13
100
AcDbEntity
  8
0
  6
ByBlock
 62
     7
380
     1
100
AcDbTrace
 10
2.288715442112704
 20
269.4113081469386
 30
0.0
 11
0.6220487754460464
 21
259.4113081469386
 31
0.0
 12
3.955382108779361
 22
259.4113081469386
 32
0.0
 13
3.955382108779361
 23
259.4113081469386
 33
0.0
  0
SOLID
  5
D10
330
D13
100
AcDbEntity
  8
0
  6
ByBlock
 62
     7
380
     1
100
AcDbTrace
 10
2.288715442112704
 20
0.000015000000019
 30
0.0
 11
0.6220487754460464
 21
10.00001500000002
 31
0.0
 12
3.955382108779361
 22
10.00001500000002
 32
0.0
 13
3.955382108779361
 23
10.00001500000002
 33
0.0
  0
MTEXT
  5
D11
330
D13
100
AcDbEntity
  8
0
  6
ByBlock
 62
     0
370
    -2
380
     1
100
AcDbMText
 10
-25.7112845578873
 20
134.7056615734693
 30
0.0
 40
36.0
 41
0.0
 71
     5
 72
     1
  1
270
 11
6.123031769111886E-17
 21
1.0
 31
0.0
 73
     1
 44
1.0
  0
ENDBLK
  5
D5E
330
D13
100
AcDbEntity
  8
0
100
AcDbBlockEnd
  0
BLOCK
  5
D5F
330
D1E
100
AcDbEntity
  8
0
100
AcDbBlockBegin
  2
*D21
 70
     1
 10
0.0
 20
0.0
 30
0.0
  3
*D21
  1

  0
POINT
  5
D15
330
D1E
100
AcDbEntity
  8
DEFPOINTS
  6
ByBlock
 62
     7
380
     1
100
AcDbPoint
 10
19.975861
 20
126.5923105422475
 30
0.0
  0
POINT
  5
D16
330
D1E
100
AcDbEntity
  8
DEFPOINTS
  6
ByBlock
 62
     7
380
     1
100
AcDbPoint
 10
302.555542
 20
88.79902854224748
 30
0.0
  0
LINE
  5
D17
330
D1E
100
AcDbEntity
  8
0
  6
ByBlock
 62
     7
370
    -2
380
     1
100
AcDbLine
 10
19.975861
 20
127.2173105422475
 30
0.0
 11
19.975861
 21
250.6481606004139
 31
0.0
  0
LINE
  5
D18
330
D1E
100
AcDbEntity
  8
0
  6
ByBlock
 62
     7
370
    -2
380
     1
100
AcDbLine
 10
302.555542
 20
89.42402854224748
 30
0.0
 11
302.555542
 21
250.6481606004139
 31
0.0
  0
LINE
  5
D19
330
D1E
100
AcDbEntity
  8
0
  6
ByBlock
 62
     7
370
    -2
380
     1
100
AcDbLine
 10
29.975861
 20
249.3981606004139
 30
0.0
 11
292.555542
 21
249.3981606004139
 31
0.0
  0
SOLID
  5
D1A
330
D1E
100
AcDbEntity
  8
0
  6
ByBlock
 62
     7
380
     1
100
AcDbTrace
 10
19.975861
 20
249.3981606004139
 30
0.0
 11
29.975861
 21
247.7314939337472
 31
0.0
 12
29.975861
 22
251.0648272670805
 32
0.0
 13
29.975861
 23
251.0648272670805
 33
0.0
  0
SOLID
  5
D1B
330
D1E
100
AcDbEntity
  8
0
  6
ByBlock
 62
     7
380
     1
100
AcDbTrace
 10
302.555542
 20
249.3981606004139
 30
0.0
 11
292.555542
 21
247.7314939337472
 31
0.0
 12
292.555542
 22
251.0648272670805
 32
0.0
 13
292.555542
 23
251.0648272670805
 33
0.0
  0
MTEXT
  5
D1C
330
D1E
100
AcDbEntity
  8
0
  6
ByBlock
 62
     0
370
    -2
380
     1
100
AcDbMText
 10
161.2657015
 20
277.3981606004139
 30
0.0
 40
36.0
 41
0.0
 71
     5
 72
     1
  1
283
 73
     1
 44
1.0
  0
ENDBLK
  5
D60
330
D1E
100
AcDbEntity
  8
0
100
AcDbBlockEnd
  0
BLOCK
  5
D61
330
D29
100
AcDbEntity
  8
0
100
AcDbBlockBegin
  2
*D22
 70
     1
 10
0.0
 20
0.0
 30
0.0
  3
*D22
  1

  0
POINT
  5
D20
330
D29
100
AcDbEntity
  8
DEFPOINTS
  6
ByBlock
 62
     7
380
     1
100
AcDbPoint
 10
184.9826362533617
 20
233.0587026891861
 30
0.0
  0
POINT
  5
D21
330
D29
100
AcDbEntity
  8
DEFPOINTS
  6
ByBlock
 62
     7
380
     1
100
AcDbPoint
 10
65.696167
 20
-36.35259045775252
 30
0.0
  0
LINE
  5
D22
330
D29
100
AcDbEntity
  8
0
  6
ByBlock
 62
     7
370
    -2
380
     1
100
AcDbLine
 10
184.3576362533617
 20
233.0587026891861
 30
0.0
 11
1.038715442112704
 21
233.0587026891861
 31
0.0
  0
LINE
  5
D23
330
D29
100
AcDbEntity
  8
0
  6
ByBlock
 62
     7
370
    -2
380
     1
100
AcDbLine
 10
65.071167
 20
-36.35259045775251
 30
0.0
 11
1.038715442112704
 21
-36.35259045775251
 31
0.0
  0
LINE
  5
D24
330
D29
100
AcDbEntity
  8
0
  6
ByBlock
 62
     7
370
    -2
380
     1
100
AcDbLine
 10
2.288715442112704
 20
223.0587026891861
 30
0.0
 11
2.288715442112704
 21
-26.35259045775251
 31
0.0
  0
SOLID
  5
D25
330
D29
100
AcDbEntity
  8
0
  6
ByBlock
 62
     7
380
     1
100
AcDbTrace
 10
2.288715442112704
 20
233.0587026891861
 30
0.0
 11
0.6220487754460464
 21
223.0587026891861
 31
0.0
 12
3.955382108779361
 22
223.0587026891861
 32
0.0
 13
3.955382108779361
 23
223.0587026891861
 33
0.0
  0
SOLID
  5
D26
330
D29
100
AcDbEntity
  8
0
  6
ByBlock
 62
     7
380
     1
100
AcDbTrace
 10
2.288715442112704
 20
-36.35259045775251
 30
0.0
 11
0.6220487754460464
 21
-26.35259045775251
 31
0.0
 12
3.955382108779361
 22
-26.35259045775251
 32
0.0
 13
3.955382108779361
 23
-26.35259045775251
 33
0.0
  0
MTEXT
  5
D27
330
D29
100
AcDbEntity
  8
0
  6
ByBlock
 62
     0
370
    -2
380
     1
100
AcDbMText
 10
-25.7112845578873
 20
98.35305611571678
 30
0.0
 40
36.0
 41
0.0
 71
     5
 72
     1
  1
270
 11
6.123031769111886E-17
 21
1.0
 31
0.0
 73
     1
 44
1.0
  0
ENDBLK
  5
D62
330
D29
100
AcDbEntity
  8
0
100
AcDbBlockEnd
  0
ENDSEC
  0
SECTION
  2
ENTITIES
  0
LWPOLYLINE
  5
24
330
1F
100
AcDbEntity
  8
0
 62
     7
370
    60
100
AcDbPolyline
 90
        8
 70
     0
 43
0.0
 10
92.423584
 20
-34.79150145775252
 10
92.701263
 20
-34.78261345775252
 10
92.981293
 20
-34.75044745775251
 10
93.22699
 20
-34.70080345775251
 10
93.467682
 20
-34.63032345775252
 10
93.687225
 20
-34.54460645775251
 10
93.897003
 20
-34.44056445775252
 10
94.190033
 20
-34.25061545775252
  0
LWPOLYLINE
  5
2E
330
1F
100
AcDbEntity
  8
0
 62
     7
370
    60
100
AcDbPolyline
 90
       12
 70
     0
 43
0.0
 10
94.190033
 20
-34.25061545775252
 10
94.368103
 20
-34.10362745775252
 10
94.531921
 20
-33.94162545775252
 10
94.675995
 20
-33.77056645775252
 10
94.803864
 20
-33.58709445775251
 10
94.912994
 20
-33.39520845775252
 10
95.004333
 20
-33.19372345775252
 10
95.076874
 20
-32.98505945775252
 10
95.130341
 20
-32.77007045775252
 10
95.164215
 20
-32.55063445775252
 10
95.178162
 20
-32.32882445775252
 10
95.178528
 20
-32.29150145775252
  0
LWPOLYLINE
  5
3C
330
1F
100
AcDbEntity
  8
0
 62
     7
370
    60
100
AcDbPolyline
 90
        8
 70
     0
 43
0.0
 10
183.423584
 20
-34.79150145775252
 10
183.701263
 20
-34.78261345775252
 10
183.981293
 20
-34.75044745775251
 10
184.22699
 20
-34.70080345775251
 10
184.467682
 20
-34.63032345775252
 10
184.687225
 20
-34.54460645775251
 10
184.897018
 20
-34.44056445775252
 10
185.190033
 20
-34.25061545775252
  0
LWPOLYLINE
  5
46
330
1F
100
AcDbEntity
  8
0
 62
     7
370
    60
100
AcDbPolyline
 90
       12
 70
     0
 43
0.0
 10
185.190033
 20
-34.25061545775252
 10
185.368103
 20
-34.10362745775252
 10
185.531921
 20
-33.94162545775252
 10
185.675995
 20
-33.77056645775252
 10
185.803864
 20
-33.58709445775251
 10
185.912979
 20
-33.39520845775252
 10
186.004333
 20
-33.19372345775252
 10
186.076859
 20
-32.98505145775252
 10
186.130325
 20
-32.77007045775252
 10
186.164215
 20
-32.55063445775252
 10
186.178162
 20
-32.32881745775252
 10
186.178528
 20
-32.29150145775252
  0
LWPOLYLINE
  5
54
330
1F
100
AcDbEntity
  8
0
 62
     7
370
    60
100
AcDbPolyline
 90
       10
 70
     0
 43
0.0
 10
185.35582
 20
229.0761665422474
 10
176.036835
 20
228.1926525422475
 10
166.719742
 20
227.2889355422475
 10
157.714096
 20
226.3950145422475
 10
148.710556
 20
225.4801885422474
 10
140.137741
 20
224.5885265422475
 10
131.567123
 20
223.6760815422475
 10
123.354675
 20
222.7812445422475
 10
115.14447
 20
221.8657785422475
 10
109.00415
 20
221.1669255422474
  0
LWPOLYLINE
  5
60
330
1F
100
AcDbEntity
  8
0
 62
     7
370
    60
100
AcDbPolyline
 90
       10
 70
     0
 43
0.0
 10
184.982635
 20
233.0587105422475
 10
175.019455
 20
232.1133975422475
 10
165.058472
 20
231.1449535422475
 10
156.080994
 20
230.2509715422474
 10
147.105621
 20
229.3360545422475
 10
138.554733
 20
228.4438425422475
 10
130.006027
 20
227.5308785422475
 10
121.811005
 20
226.6351565422474
 10
113.618286
 20
225.7187755422474
 10
108.547668
 20
225.1408025422475
  0
LWPOLYLINE
  5
BE9
330
1F
100
AcDbEntity
  8
0
 62
     7
370
    60
100
AcDbPolyline
 90
        8
 70
     0
 43
0.0
 10
169.1875
 20
-34.79150145775252
 10
168.909821
 20
-34.78261345775252
 10
168.629791
 20
-34.75044745775251
 10
168.384094
 20
-34.70080345775251
 10
168.143402
 20
-34.63032345775252
 10
167.923859
 20
-34.54460645775251
 10
167.714081
 20
-34.44056445775252
 10
167.421051
 20
-34.25061545775252
  0
LWPOLYLINE
  5
BEA
330
1F
100
AcDbEntity
  8
0
 62
     7
370
    60
100
AcDbPolyline
 90
       12
 70
     0
 43
0.0
 10
167.421051
 20
-34.25061545775252
 10
167.242981
 20
-34.10363545775252
 10
167.079178
 20
-33.94163245775252
 10
166.935104
 20
-33.77057445775252
 10
166.807236
 20
-33.58711045775252
 10
166.698105
 20
-33.39521545775251
 10
166.60675
 20
-33.19373045775252
 10
166.534225
 20
-32.98506745775251
 10
166.480759
 20
-32.77007845775252
 10
166.446869
 20
-32.55064145775252
 10
166.432922
 20
-32.32883245775252
 10
166.432602
 20
-32.30188545775252
  0
LWPOLYLINE
  5
84
330
1F
100
AcDbEntity
  8
0
 62
     7
370
    60
100
AcDbPolyline
 90
        8
 70
     0
 43
0.0
 10
78.1875
 20
-34.79150145775252
 10
77.909821
 20
-34.78261345775252
 10
77.629791
 20
-34.75044745775251
 10
77.384094
 20
-34.70080345775251
 10
77.143402
 20
-34.63032345775252
 10
76.923859
 20
-34.54460645775251
 10
76.714081
 20
-34.44055745775252
 10
76.421051
 20
-34.25061545775252
  0
LWPOLYLINE
  5
8E
330
1F
100
AcDbEntity
  8
0
 62
     7
370
    60
100
AcDbPolyline
 90
       12
 70
     0
 43
0.0
 10
76.421051
 20
-34.25061545775252
 10
76.242981
 20
-34.10364345775252
 10
76.079193
 20
-33.94164045775252
 10
75.93512
 20
-33.77058945775251
 10
75.80722
 20
-33.58711745775252
 10
75.69812
 20
-33.39522345775251
 10
75.60675
 20
-33.19374645775252
 10
75.534241
 20
-32.98507445775252
 10
75.480743
 20
-32.77009345775252
 10
75.446869
 20
-32.55065645775252
 10
75.432922
 20
-32.32884745775252
 10
75.432617
 20
-32.30188545775252
  0
LWPOLYLINE
  5
BEB
330
1F
100
AcDbEntity
  8
0
 62
     7
370
    60
100
AcDbPolyline
 90
        3
 70
     0
 43
0.0
 10
194.822296
 20
205.4670055422475
 10
197.86264
 20
205.7610875422475
 10
199.651932
 20
205.8934885422475
  0
LWPOLYLINE
  5
BEC
330
1F
100
AcDbEntity
  8
0
 62
     7
370
    60
100
AcDbPolyline
 90
       25
 70
     0
 43
0.0
 10
105.322144
 20
164.9112185422475
 10
105.281677
 20
166.3955785422475
 10
105.231476
 20
167.1363165422475
 10
105.161316
 20
167.8754215422475
 10
105.07132
 20
168.6121775422475
 10
104.961456
 20
169.3461865422475
 10
104.831909
 20
170.0767315422475
 10
104.682709
 20
170.8034615422475
 10
104.514008
 20
171.5256295422475
 10
104.325928
 20
172.2429455422475
 10
104.118591
 20
172.9547065422475
 10
103.89212
 20
173.6605785422475
 10
103.382599
 20
175.0523785422475
 10
102.798767
 20
176.4145145422475
 10
102.142212
 20
177.7432195422475
 10
101.414795
 20
179.0348155422475
 10
100.618561
 20
180.2856395422475
 10
99.755768
 20
181.4920755422475
 10
98.828949
 20
182.6505375422475
 10
97.840942
 20
183.7574405422475
 10
97.324982
 20
184.2904305422475
 10
96.794891
 20
184.8092595422475
 10
95.83017
 20
185.6856335422475
 10
95.63855
 20
185.8511605422475
 10
95.447144
 20
186.0169625422475
  0
LWPOLYLINE
  5
BC
330
1F
100
AcDbEntity
  8
0
 62
     7
370
    60
100
AcDbPolyline
 90
        4
 70
     0
 43
0.0
 10
35.881073
 20
-24.32282745775252
 10
36.308197
 20
-24.75471245775252
 10
37.129913
 20
-25.46114145775252
 10
37.69754
 20
-25.91380045775252
  0
LWPOLYLINE
  5
C2
330
1F
100
AcDbEntity
  8
0
 62
     7
370
    60
100
AcDbPolyline
 90
        3
 70
     0
 43
0.0
 10
37.69754
 20
-25.91380045775252
 10
38.811859
 20
-26.77451145775252
 10
39.435394
 20
-27.22947445775252
  0
LWPOLYLINE
  5
C7
330
1F
100
AcDbEntity
  8
0
 62
     7
370
    60
100
AcDbPolyline
 90
        4
 70
     0
 43
0.0
 10
39.435394
 20
-27.22947445775252
 10
39.870575
 20
-27.47118145775251
 10
40.941132
 20
-27.96714545775252
 10
41.305115
 20
-28.12582145775252
  0
LWPOLYLINE
  5
CD
330
1F
100
AcDbEntity
  8
0
 62
     7
370
    60
100
AcDbPolyline
 90
        3
 70
     0
 43
0.0
 10
41.305115
 20
-28.12582145775252
 10
42.556641
 20
-28.65060245775252
 10
43.328094
 20
-28.93644445775252
  0
LWPOLYLINE
  5
D2
330
1F
100
AcDbEntity
  8
0
 62
     7
370
    60
100
AcDbPolyline
 90
        4
 70
     0
 43
0.0
 10
43.328094
 20
-28.93644445775252
 10
43.732361
 20
-29.06025445775252
 10
43.839172
 20
-29.09023845775252
 10
43.882477
 20
-29.09893545775252
  0
LWPOLYLINE
  5
D8
330
1F
100
AcDbEntity
  8
0
 62
     7
370
    60
100
AcDbPolyline
 90
        6
 70
     0
 43
0.0
 10
46.869202
 20
-29.58438645775252
 10
46.293243
 20
-29.53371945775252
 10
45.719299
 20
-29.46313245775252
 10
45.14856
 20
-29.37277745775252
 10
44.581329
 20
-29.26270845775252
 10
43.882538
 20
-29.09869945775252
  0
LWPOLYLINE
  5
E0
330
1F
100
AcDbEntity
  8
0
 62
     7
370
    60
100
AcDbPolyline
 90
        5
 70
     0
 43
0.0
 10
35.864685
 20
-24.33812445775252
 10
35.106964
 20
-23.46809145775252
 10
34.411591
 20
-22.54794845775252
 10
33.781921
 20
-21.58218145775252
 10
33.439514
 20
-20.98748545775252
  0
LWPOLYLINE
  5
14B
330
1F
100
AcDbEntity
  8
0
 62
     7
370
    60
100
AcDbPolyline
 90
       37
 70
     0
 43
0.0
 10
158.564743
 20
68.54903654224748
 10
158.616333
 20
67.33828154224749
 10
158.746048
 20
66.13314254224748
 10
158.953293
 20
64.93916554224748
 10
159.237152
 20
63.76165954224749
 10
159.596405
 20
62.60558554224748
 10
160.029602
 20
61.47556554224748
 10
160.535126
 20
60.37594054224748
 10
161.111115
 20
59.31085454224748
 10
161.755524
 20
58.28438054224748
 10
162.466049
 20
57.30059254224749
 10
163.240021
 20
56.36364254224748
 10
164.074326
 20
55.47780854224749
 10
164.546921
 20
55.02392054224748
 10
165.466949
 20
54.22514554224749
 10
166.440018
 20
53.48594154224749
 10
166.946167
 20
53.13910854224748
 10
167.464706
 20
52.80813054224748
 10
167.99408
 20
52.49407454224749
 10
168.536743
 20
52.19572654224748
 10
169.086533
 20
51.91653654224748
 10
169.651169
 20
51.65281854224749
 10
169.999237
 20
51.50139054224748
 10
170.573746
 20
51.26932754224748
 10
171.166245
 20
51.05238554224748
 10
171.760162
 20
50.85682154224749
 10
172.375351
 20
50.67650854224749
 10
172.985413
 20
50.51935054224748
 10
173.620193
 20
50.37810754224748
 10
173.701859
 20
50.36155154224748
 10
174.324066
 20
50.24741554224748
 10
174.972305
 20
50.15055354224748
 10
175.604584
 20
50.07726554224749
 10
176.257751
 20
50.02323354224748
 10
176.891617
 20
49.99170954224748
 10
177.542267
 20
49.98060054224749
 10
177.555542
 20
49.98059354224748
  0
LWPOLYLINE
  5
172
330
1F
100
AcDbEntity
  8
0
 62
     7
370
    60
100
AcDbPolyline
 90
       18
 70
     0
 43
0.0
 10
177.555542
 20
127.6174875422475
 10
176.329193
 20
127.5793705422475
 10
175.11319
 20
127.4656775422475
 10
173.915115
 20
127.2778575422475
 10
173.606247
 20
127.2169445422475
 10
172.425842
 20
126.9355105422475
 10
171.272324
 20
126.5821935422475
 10
170.138321
 20
126.1545665422475
 10
169.727463
 20
125.9788765422475
 10
168.628403
 20
125.4505565422475
 10
167.568329
 20
124.8535105422475
 10
166.546036
 20
124.1867925422475
 10
165.564774
 20
123.4516395422475
 10
165.092194
 20
123.0600685422475
 10
164.631699
 20
122.6523075422475
 10
164.187897
 20
122.2324165422475
 10
163.756607
 20
121.7962595422475
 10
163.63089
 20
121.6634465422475
  0
LWPOLYLINE
  5
186
330
1F
100
AcDbEntity
  8
0
 62
     7
370
    60
100
AcDbPolyline
 90
       24
 70
     0
 43
0.0
 10
163.63089
 20
121.6634465422475
 10
163.211929
 20
121.2015025422475
 10
162.806061
 20
120.7234295422475
 10
162.422623
 20
120.2403965422475
 10
162.052704
 20
119.7414035422475
 10
161.703812
 20
119.2367345422475
 10
161.369034
 20
118.7164715422475
 10
161.054718
 20
118.1905465422475
 10
160.755234
 20
117.6495155422475
 10
160.476166
 20
117.1034945422475
 10
160.212708
 20
116.5430395422475
 10
159.96991
 20
115.9788005422475
 10
159.743546
 20
115.4009195422475
 10
159.538147
 20
114.8209025422475
 10
159.350021
 20
114.2281895422475
 10
159.183151
 20
113.6352795422475
 10
159.034332
 20
113.0307105422475
 10
158.906937
 20
112.4280495422475
 10
158.79834
 20
111.8148595422475
 10
158.711105
 20
111.2056835422475
 10
158.643356
 20
110.5871835422475
 10
158.596741
 20
109.9746805422475
 10
158.57019
 20
109.3540745422475
 10
158.564865
 20
109.0606335422475
  0
LWPOLYLINE
  5
1A0
330
1F
100
AcDbEntity
  8
0
 62
     7
370
    60
100
AcDbPolyline
 90
        3
 70
     0
 43
0.0
 10
194.822296
 20
204.0411325422475
 10
198.167068
 20
204.3944645422475
 10
200.134888
 20
204.6169985422475
  0
LWPOLYLINE
  5
1BC
330
1F
100
AcDbEntity
  8
0
 62
     7
370
    60
100
AcDbPolyline
 90
        7
 70
     0
 43
0.0
 10
31.378845
 20
428.3284
 10
31.393707
 20
427.986694
 10
31.429413
 20
427.722076
 10
31.46933
 20
427.5802
 10
31.514038
 20
427.491943
 10
31.561462
 20
427.441559
 10
31.645844
 20
427.414673
  0
LWPOLYLINE
  5
1D2
330
1F
100
AcDbEntity
  8
0
 62
     7
370
    60
100
AcDbPolyline
 90
        7
 70
     0
 43
0.0
 10
31.822205
 20
451.902557
 10
31.82193
 20
451.904053
 10
31.821106
 20
451.905426
 10
31.819763
 20
451.906738
 10
31.815399
 20
451.909027
 10
31.800201
 20
451.912445
 10
31.752716
 20
451.914673
  0
LWPOLYLINE
  5
1DB
330
1F
100
AcDbEntity
  8
0
 62
     7
370
    60
100
AcDbPolyline
 90
       24
 70
     0
 43
0.0
 10
207.547546
 20
482.274445
 10
208.213623
 20
481.561371
 10
208.863892
 20
480.835388
 10
209.484497
 20
480.112213
 10
210.088715
 20
479.37674
 10
210.66304
 20
478.645813
 10
211.220459
 20
477.90329
 10
211.748291
 20
477.166504
 10
212.258743
 20
476.418854
 10
212.740128
 20
475.677887
 10
213.20369
 20
474.926849
 10
213.638824
 20
474.18335
 10
214.055725
 20
473.430511
 10
214.444901
 20
472.685974
 10
214.81546
 20
471.932922
 10
215.159058
 20
471.188843
 10
215.483688
 20
470.437042
 10
215.782135
 20
469.694885
 10
216.061295
 20
468.945862
 10
216.315048
 20
468.207092
 10
216.549255
 20
467.46228
 10
216.758835
 20
466.728363
 10
216.948639
 20
465.989258
 10
217.064529
 20
465.490997
  0
LWPOLYLINE
  5
1F5
330
1F
100
AcDbEntity
  8
0
 62
     7
370
    60
100
AcDbPolyline
 90
        5
 70
     0
 43
0.0
 10
188.820663
 20
495.003937
 10
190.773132
 20
494.140961
 10
192.707687
 20
493.198822
 10
194.614441
 20
492.181488
 10
196.404465
 20
491.141663
  0
LWPOLYLINE
  5
1FC
330
1F
100
AcDbEntity
  8
0
 62
     7
370
    60
100
AcDbPolyline
 90
        3
 70
     0
 43
0.0
 10
183.36824
 20
496.967285
 10
183.851852
 20
496.819244
 10
184.333969
 20
496.666595
  0
LWPOLYLINE
  5
201
330
1F
100
AcDbEntity
  8
0
 62
     7
370
    60
100
AcDbPolyline
 90
        5
 70
     0
 43
0.0
 10
170.094177
 20
498.975403
 10
171.795746
 20
498.955536
 10
173.547058
 20
498.856323
 10
175.344925
 20
498.675537
 10
176.645355
 20
498.496887
  0
LWPOLYLINE
  5
208
330
1F
100
AcDbEntity
  8
0
 62
     7
370
    60
100
AcDbPolyline
 90
        3
 70
     0
 43
0.0
 10
185.054199
 20
496.429443
 10
184.69693
 20
496.548615
 10
184.33876
 20
496.665344
  0
LWPOLYLINE
  5
20D
330
1F
100
AcDbEntity
  8
0
 62
     7
370
    60
100
AcDbPolyline
 90
        3
 70
     0
 43
0.0
 10
114.602936
 20
493.016632
 10
116.045593
 20
493.301666
 10
116.657043
 20
493.424988
  0
LWPOLYLINE
  5
212
330
1F
100
AcDbEntity
  8
0
 62
     7
370
    60
100
AcDbPolyline
 90
        3
 70
     0
 43
0.0
 10
116.657043
 20
493.424988
 10
117.927826
 20
493.659546
 10
121.348389
 20
494.278137
  0
LWPOLYLINE
  5
223
330
1F
100
AcDbEntity
  8
0
 62
     7
370
    60
100
AcDbPolyline
 90
        7
 70
     0
 43
0.0
 10
32.135132
 20
446.894043
 10
32.175873
 20
447.659058
 10
32.191559
 20
448.400665
 10
32.157654
 20
449.592896
 10
32.058868
 20
450.625336
 10
31.919006
 20
451.474396
 10
31.822418
 20
451.914246
  0
LWPOLYLINE
  5
22C
330
1F
100
AcDbEntity
  8
0
 62
     7
370
    60
100
AcDbPolyline
 90
        7
 70
     0
 43
0.0
 10
32.135468
 20
446.894012
 10
31.96582
 20
444.26593
 10
31.817444
 20
441.636597
 10
31.698029
 20
439.155548
 10
31.599609
 20
436.673615
 10
31.5271
 20
434.339081
 10
31.474884
 20
432.003937
  0
LINE
  5
2E1
330
1F
100
AcDbEntity
  8
0
 62
     7
 48
0.254702
370
    60
100
AcDbLine
 10
212.867462
 20
122.0488375422475
 30
0.0
 11
223.055542
 21
122.0490365422475
 31
0.0
  0
LINE
  5
2E2
330
1F
100
AcDbEntity
  8
0
 62
     7
 48
0.0625
370
    60
100
AcDbLine
 10
223.055542
 20
122.0490365422475
 30
0.0
 11
225.555542
 21
122.0490365422475
 31
0.0
  0
LINE
  5
2E3
330
1F
100
AcDbEntity
  8
0
 62
     7
 48
0.325
370
    60
100
AcDbLine
 10
288.555542
 20
53.79903654224748
 30
0.0
 11
301.555542
 21
53.79903654224748
 31
0.0
  0
LINE
  5
2E4
330
1F
100
AcDbEntity
  8
0
 62
     7
370
    60
100
AcDbLine
 10
225.555542
 20
62.32889054224748
 30
0.0
 11
270.555542
 21
62.29903654224748
 31
0.0
  0
LINE
  5
2E5
330
1F
100
AcDbEntity
  8
0
 62
     7
370
    60
100
AcDbLine
 10
225.555542
 20
115.2691905422475
 30
0.0
 11
270.555542
 21
115.2990365422475
 31
0.0
  0
LINE
  5
2E6
330
1F
100
AcDbEntity
  8
0
 62
     7
 48
0.497651
370
    60
100
AcDbLine
 10
270.555542
 20
62.29903654224748
 30
0.0
 11
288.555542
 21
53.79903654224748
 31
0.0
  0
LINE
  5
2E7
330
1F
100
AcDbEntity
  8
0
 62
     7
 48
0.497651
370
    60
100
AcDbLine
 10
270.555542
 20
115.2990365422475
 30
0.0
 11
288.555542
 21
123.7990365422475
 31
0.0
  0
LINE
  5
2E8
330
1F
100
AcDbEntity
  8
0
 62
     7
 48
0.325
370
    60
100
AcDbLine
 10
288.555542
 20
123.7990365422475
 30
0.0
 11
301.555542
 21
123.7990365422475
 31
0.0
  0
LINE
  5
2E9
330
1F
100
AcDbEntity
  8
0
 62
     7
370
    60
100
AcDbLine
 10
64.805542
 20
149.7990365422475
 30
0.0
 11
95.305542
 21
149.7990365422475
 31
0.0
  0
ARC
  5
2EA
330
1F
100
AcDbEntity
  8
0
 62
     7
370
    60
100
AcDbCircle
 10
82.742462
 20
107.0490365422475
 30
0.0
 40
4.246902
100
AcDbArc
 50
216.147553
 51
219.22708
  0
ARC
  5
2EB
330
1F
100
AcDbEntity
  8
0
 62
     7
370
    60
100
AcDbCircle
 10
132.368286
 20
109.2990365422475
 30
0.0
 40
2.25
100
AcDbArc
 50
44.632416
 51
49.203845
  0
LINE
  5
2EF
330
1F
100
AcDbEntity
  8
0
 62
     7
 48
0.001239
370
    60
100
AcDbLine
 10
198.97699
 20
181.2346745422475
 30
0.0
 11
199.026535
 21
181.2346745422475
 31
0.0
  0
ARC
  5
2F2
330
1F
100
AcDbEntity
  8
0
 62
     7
370
    60
100
AcDbCircle
 10
61.682251
 20
7.070955542247482
 30
0.0
 40
0.49942
100
AcDbArc
 50
134.909499
 51
148.538665
  0
LINE
  5
2F3
330
1F
100
AcDbEntity
  8
0
 62
     7
 48
0.0042
370
    60
100
AcDbLine
 10
188.305542
 20
-29.39593245775252
 30
0.0
 11
188.427734
 21
-29.28065245775252
 31
0.0
  0
LINE
  5
2F4
330
1F
100
AcDbEntity
  8
0
 62
     7
 48
0.01295
370
    60
100
AcDbLine
 10
200.659073
 20
-29.14604745775252
 30
0.0
 11
201.0466076817377
 21
-28.78166689273827
 31
0.0
  0
LINE
  5
2F5
330
1F
100
AcDbEntity
  8
0
 62
     7
 48
0.050003
370
    60
100
AcDbLine
 10
186.305542
 20
-29.41794345775252
 30
0.0
 11
188.305542
 21
-29.39593245775252
 31
0.0
  0
LINE
  5
2F6
330
1F
100
AcDbEntity
  8
0
 62
     7
 48
0.050003
370
    60
100
AcDbLine
 10
164.305542
 20
-29.66005445775252
 30
0.0
 11
166.305542
 21
-29.63804445775252
 31
0.0
  0
LINE
  5
2F7
330
1F
100
AcDbEntity
  8
0
 62
     7
 48
0.022439
370
    60
100
AcDbLine
 10
151.2784271439357
 20
-29.06511183459585
 30
0.0
 11
151.952011
 21
-29.68207345775252
 31
0.0
  0
LINE
  5
2F8
330
1F
100
AcDbEntity
  8
0
 62
     7
 48
0.004154
370
    60
100
AcDbLine
 10
164.18335
 20
-29.54746745775252
 30
0.0
 11
164.305542
 21
-29.66005445775252
 31
0.0
  0
LINE
  5
2F9
330
1F
100
AcDbEntity
  8
0
 62
     7
370
    60
100
AcDbLine
 10
64.805542
 20
144.9090825422475
 30
0.0
 11
95.305542
 21
144.9090825422475
 31
0.0
  0
LINE
  5
2FA
330
1F
100
AcDbEntity
  8
0
 62
     7
370
    60
100
AcDbLine
 10
59.42099
 20
144.4598025422475
 30
0.0
 11
100.690094
 21
144.4598025422475
 31
0.0
  0
LINE
  5
2FB
330
1F
100
AcDbEntity
  8
0
 62
     7
 48
0.050957
370
    60
100
AcDbLine
 10
97.805542
 20
144.8828985422475
 30
0.0
 11
99.843811
 21
144.8828985422475
 31
0.0
  0
LINE
  5
2FC
330
1F
100
AcDbEntity
  8
0
 62
     7
 48
0.023654
370
    60
100
AcDbLine
 10
99.843811
 20
144.8828985422475
 30
0.0
 11
100.690094
 21
144.4598025422475
 31
0.0
  0
LINE
  5
2FD
330
1F
100
AcDbEntity
  8
0
 62
     7
 48
0.050957
370
    60
100
AcDbLine
 10
60.267273
 20
144.8828985422475
 30
0.0
 11
62.305542
 21
144.8828985422475
 31
0.0
  0
LINE
  5
2FE
330
1F
100
AcDbEntity
  8
0
 62
     7
 48
0.023654
370
    60
100
AcDbLine
 10
59.42099
 20
144.4598025422475
 30
0.0
 11
60.267273
 21
144.8828985422475
 31
0.0
  0
LINE
  5
313
330
1F
100
AcDbEntity
  8
0
 62
     7
370
    60
100
AcDbLine
 10
104.574768
 20
191.8792975422475
 30
0.0
 11
104.574768
 21
216.1995945422475
 31
0.0
  0
ARC
  5
314
330
1F
100
AcDbEntity
  8
0
 62
     7
370
    60
100
AcDbCircle
 10
109.574768
 20
216.1995945422475
 30
0.0
 40
5.0
100
AcDbArc
 50
96.55313199999999
 51
180.000005
  0
LINE
  5
316
330
1F
100
AcDbEntity
  8
0
 62
     7
 48
0.06224
370
    60
100
AcDbLine
 10
90.305542
 20
-34.79150145775252
 30
0.0
 11
90.305542
 21
-32.30188545775252
 31
0.0
  0
LINE
  5
317
330
1F
100
AcDbEntity
  8
0
 62
     7
 48
0.06224
370
    60
100
AcDbLine
 10
92.305542
 20
-34.79150145775252
 30
0.0
 11
92.305542
 21
-32.30188545775252
 31
0.0
  0
LWPOLYLINE
  5
318
330
1F
100
AcDbEntity
  8
0
 62
     7
370
    60
100
AcDbPolyline
 90
        8
 70
     0
 43
0.0
 10
92.423584
 20
-34.79150145775252
 10
92.701263
 20
-34.78261345775252
 10
92.981293
 20
-34.75044745775251
 10
93.22699
 20
-34.70080345775251
 10
93.467682
 20
-34.63032345775252
 10
93.687225
 20
-34.54460645775251
 10
93.897003
 20
-34.44056445775252
 10
94.190033
 20
-34.25061545775252
  0
LWPOLYLINE
  5
322
330
1F
100
AcDbEntity
  8
0
 62
     7
370
    60
100
AcDbPolyline
 90
       12
 70
     0
 43
0.0
 10
94.190033
 20
-34.25061545775252
 10
94.368103
 20
-34.10362745775252
 10
94.531921
 20
-33.94162545775252
 10
94.675995
 20
-33.77056645775252
 10
94.803864
 20
-33.58709445775251
 10
94.912994
 20
-33.39520845775252
 10
95.004333
 20
-33.19372345775252
 10
95.076874
 20
-32.98505945775252
 10
95.130341
 20
-32.77007045775252
 10
95.164215
 20
-32.55063445775252
 10
95.178162
 20
-32.32882445775252
 10
95.178528
 20
-32.29150145775252
  0
LINE
  5
333
330
1F
100
AcDbEntity
  8
0
 62
     7
 48
0.071247
370
    60
100
AcDbLine
 10
90.305542
 20
-32.30188545775252
 30
0.0
 11
90.3053162996881
 21
-29.41237226628867
 31
0.0
  0
LINE
  5
334
330
1F
100
AcDbEntity
  8
0
 62
     7
 48
0.07154
370
    60
100
AcDbLine
 10
92.305542
 20
-32.30188545775252
 30
0.0
 11
92.30531816991433
 21
-29.40098164666594
 31
0.0
  0
LINE
  5
335
330
1F
100
AcDbEntity
  8
0
 62
     7
 48
0.071665
370
    60
100
AcDbLine
 10
95.178528
 20
-32.29150145775252
 30
0.0
 11
95.17829857998314
 21
-29.38461914844941
 31
0.0
  0
LINE
  5
336
330
1F
100
AcDbEntity
  8
0
 62
     7
 48
0.465774
370
    60
100
AcDbLine
 10
194.822296
 20
205.4670055422475
 30
0.0
 11
194.822296
 21
224.0979565422475
 31
0.0
  0
LINE
  5
337
330
1F
100
AcDbEntity
  8
0
 62
     7
 48
0.071829
370
    60
100
AcDbLine
 10
183.305542
 20
-29.43468245775252
 30
0.0
 11
186.178528
 21
-29.40306645775252
 31
0.0
  0
ARC
  5
338
330
1F
100
AcDbEntity
  8
0
 62
     7
370
    60
100
AcDbCircle
 10
109.574768
 20
216.1995945422475
 30
0.0
 40
9.0
100
AcDbArc
 50
96.55313199999999
 51
180.000005
  0
LINE
  5
339
330
1F
100
AcDbEntity
  8
0
 62
     7
370
    60
100
AcDbLine
 10
100.574768
 20
191.0805305422475
 30
0.0
 11
100.574768
 21
216.1995945422475
 31
0.0
  0
LINE
  5
33A
330
1F
100
AcDbEntity
  8
0
 62
     7
 48
0.025
370
    60
100
AcDbLine
 10
21.725861
 20
0.4057635422474846
 30
0.0
 11
22.725861
 21
0.4057635422474846
 31
0.0
  0
LINE
  5
33B
330
1F
100
AcDbEntity
  8
0
 62
     7
 48
0.09375
370
    60
100
AcDbLine
 10
27.225861
 20
0.4057635422474846
 30
0.0
 11
30.975861
 21
0.4057635422474846
 31
0.0
  0
LINE
  5
33D
330
1F
100
AcDbEntity
  8
0
 62
     7
 48
0.025
370
    60
100
AcDbLine
 10
21.725861
 20
124.8922985422475
 30
0.0
 11
22.725861
 21
124.8922985422475
 31
0.0
  0
LINE
  5
33E
330
1F
100
AcDbEntity
  8
0
 62
     7
 48
0.09375
370
    60
100
AcDbLine
 10
27.225861
 20
124.8922985422475
 30
0.0
 11
30.975861
 21
124.8922985422475
 31
0.0
  0
LINE
  5
33F
330
1F
100
AcDbEntity
  8
0
 62
     7
 48
0.017678
370
    60
100
AcDbLine
 10
26.725861
 20
128.5923105422475
 30
0.0
 11
27.225861
 21
128.0923105422475
 31
0.0
  0
LINE
  5
340
330
1F
100
AcDbEntity
  8
0
 62
     7
 48
0.017678
370
    60
100
AcDbLine
 10
22.725861
 20
128.0923105422475
 30
0.0
 11
23.225861
 21
128.5923105422475
 31
0.0
  0
LINE
  5
341
330
1F
100
AcDbEntity
  8
0
 62
     7
 48
0.0875
370
    60
100
AcDbLine
 10
23.225861
 20
128.5923105422475
 30
0.0
 11
26.725861
 21
128.5923105422475
 31
0.0
  0
LINE
  5
342
330
1F
100
AcDbEntity
  8
0
 62
     7
 48
0.005
370
    60
100
AcDbLine
 10
22.725861
 20
124.8922985422475
 30
0.0
 11
22.725861
 21
125.0923105422475
 31
0.0
  0
LINE
  5
343
330
1F
100
AcDbEntity
  8
0
 62
     7
 48
0.0375
370
    60
100
AcDbLine
 10
22.725861
 20
126.5923105422475
 30
0.0
 11
22.725861
 21
128.0923105422475
 31
0.0
  0
LINE
  5
344
330
1F
100
AcDbEntity
  8
0
 62
     7
 48
0.0375
370
    60
100
AcDbLine
 10
27.225861
 20
126.5923105422475
 30
0.0
 11
27.225861
 21
128.0923105422475
 31
0.0
  0
LINE
  5
345
330
1F
100
AcDbEntity
  8
0
 62
     7
 48
0.005
370
    60
100
AcDbLine
 10
27.225861
 20
124.8922985422475
 30
0.0
 11
27.225861
 21
125.0923105422475
 31
0.0
  0
LINE
  5
346
330
1F
100
AcDbEntity
  8
0
 62
     7
 48
0.016765
370
    60
100
AcDbLine
 10
22.725861
 20
124.8922985422475
 30
0.0
 11
23.395874
 21
124.8647105422475
 31
0.0
  0
LINE
  5
347
330
1F
100
AcDbEntity
  8
0
 62
     7
 48
0.039451
370
    60
100
AcDbLine
 10
23.395874
 20
124.8647105422475
 30
0.0
 11
24.973877
 21
124.8534185422475
 31
0.0
  0
LINE
  5
348
330
1F
100
AcDbEntity
  8
0
 62
     7
 48
0.039339
370
    60
100
AcDbLine
 10
24.973877
 20
124.8534185422475
 30
0.0
 11
26.547394
 21
124.8648935422475
 31
0.0
  0
LINE
  5
349
330
1F
100
AcDbEntity
  8
0
 62
     7
 48
0.016976
370
    60
100
AcDbLine
 10
26.547394
 20
124.8648935422475
 30
0.0
 11
27.225861
 21
124.8922985422475
 31
0.0
  0
LINE
  5
34A
330
1F
100
AcDbEntity
  8
0
 62
     7
 48
0.1125
370
    60
100
AcDbLine
 10
22.725861
 20
128.0923105422475
 30
0.0
 11
27.225861
 21
128.0923105422475
 31
0.0
  0
LINE
  5
34B
330
1F
100
AcDbEntity
  8
0
 62
     7
 48
0.135098
370
    60
100
AcDbLine
 10
106.692383
 20
144.4598025422475
 30
0.0
 11
112.096283
 21
144.4598025422475
 31
0.0
  0
LINE
  5
34C
330
1F
100
AcDbEntity
  8
0
 62
     7
 48
0.06224
370
    60
100
AcDbLine
 10
183.305542
 20
-34.79150145775252
 30
0.0
 11
183.305542
 21
-32.30188545775252
 31
0.0
  0
LWPOLYLINE
  5
34D
330
1F
100
AcDbEntity
  8
0
 62
     7
370
    60
100
AcDbPolyline
 90
        8
 70
     0
 43
0.0
 10
183.423584
 20
-34.79150145775252
 10
183.701263
 20
-34.78261345775252
 10
183.981293
 20
-34.75044745775251
 10
184.22699
 20
-34.70080345775251
 10
184.467682
 20
-34.63032345775252
 10
184.687225
 20
-34.54460645775251
 10
184.897018
 20
-34.44056445775252
 10
185.190033
 20
-34.25061545775252
  0
LWPOLYLINE
  5
357
330
1F
100
AcDbEntity
  8
0
 62
     7
370
    60
100
AcDbPolyline
 90
       12
 70
     0
 43
0.0
 10
185.190033
 20
-34.25061545775252
 10
185.368103
 20
-34.10362745775252
 10
185.531921
 20
-33.94162545775252
 10
185.675995
 20
-33.77056645775252
 10
185.803864
 20
-33.58709445775251
 10
185.912979
 20
-33.39520845775252
 10
186.004333
 20
-33.19372345775252
 10
186.076859
 20
-32.98505145775252
 10
186.130325
 20
-32.77007045775252
 10
186.164215
 20
-32.55063445775252
 10
186.178162
 20
-32.32881745775252
 10
186.178528
 20
-32.29150145775252
  0
LINE
  5
365
330
1F
100
AcDbEntity
  8
0
 62
     7
 48
0.06224
370
    60
100
AcDbLine
 10
181.305542
 20
-34.79150145775252
 30
0.0
 11
181.305542
 21
-32.30188545775252
 31
0.0
  0
LINE
  5
366
330
1F
100
AcDbEntity
  8
0
 62
     7
 48
0.025222
370
    60
100
AcDbLine
 10
181.305542
 20
-29.40993245775252
 30
0.0
 11
182.314331
 21
-29.39676445775252
 31
0.0
  0
LINE
  5
367
330
1F
100
AcDbEntity
  8
0
 62
     7
 48
0.024781
370
    60
100
AcDbLine
 10
182.314331
 20
-29.39676445775252
 30
0.0
 11
183.305542
 21
-29.38792145775252
 31
0.0
  0
LINE
  5
368
330
1F
100
AcDbEntity
  8
0
 62
     7
 48
0.003197
370
    60
100
AcDbLine
 10
186.178528
 20
-29.40306645775252
 30
0.0
 11
186.305542
 21
-29.41794345775252
 31
0.0
  0
LINE
  5
369
330
1F
100
AcDbEntity
  8
0
 62
     7
 48
0.072849
370
    60
100
AcDbLine
 10
183.305542
 20
-32.30188545775252
 30
0.0
 11
183.305542
 21
-29.38792145775252
 31
0.0
  0
LINE
  5
36A
330
1F
100
AcDbEntity
  8
0
 62
     7
 48
0.072211
370
    60
100
AcDbLine
 10
186.178528
 20
-32.29150145775252
 30
0.0
 11
186.178528
 21
-29.40306645775252
 31
0.0
  0
LINE
  5
36B
330
1F
100
AcDbEntity
  8
0
 62
     7
 48
0.072299
370
    60
100
AcDbLine
 10
181.305542
 20
-32.30188545775252
 30
0.0
 11
181.305542
 21
-29.40993245775252
 31
0.0
  0
LINE
  5
36C
330
1F
100
AcDbEntity
  8
0
 62
     7
 48
0.250015
370
    60
100
AcDbLine
 10
171.305542
 20
-29.56674745775252
 30
0.0
 11
181.305542
 21
-29.45669345775252
 31
0.0
  0
LINE
  5
36E
330
1F
100
AcDbEntity
  8
0
 62
     7
 48
0.009257
370
    60
100
AcDbLine
 10
106.430542
 20
144.7216285422475
 30
0.0
 11
106.692383
 21
144.4598025422475
 31
0.0
  0
LINE
  5
36F
330
1F
100
AcDbEntity
  8
0
 62
     7
370
    60
100
AcDbLine
 10
106.430542
 20
144.7216285422475
 30
0.0
 11
106.430542
 21
164.9112185422475
 31
0.0
  0
LINE
  5
376
330
1F
100
AcDbEntity
  8
0
 62
     7
 48
0.031081
370
    60
100
AcDbLine
 10
21.725861
 20
123.6490425422475
 30
0.0
 11
21.725861
 21
124.8922985422475
 31
0.0
  0
LINE
  5
377
330
1F
100
AcDbEntity
  8
0
 62
     7
 48
0.077478
370
    60
100
AcDbLine
 10
222.262939
 20
173.8790995422475
 30
0.0
 11
222.262939
 21
176.9782355422475
 31
0.0
  0
LINE
  5
378
330
1F
100
AcDbEntity
  8
0
 62
     7
 48
0.077479
370
    60
100
AcDbLine
 10
222.262939
 20
156.1290535422475
 30
0.0
 11
222.262939
 21
159.2282055422475
 31
0.0
  0
LWPOLYLINE
  5
379
330
1F
100
AcDbEntity
  8
0
 62
     7
370
    60
100
AcDbPolyline
 90
       10
 70
     0
 43
0.0
 10
185.35582
 20
229.0761665422474
 10
176.036835
 20
228.1926525422475
 10
166.719742
 20
227.2889355422475
 10
157.714096
 20
226.3950145422475
 10
148.710556
 20
225.4801885422474
 10
140.137741
 20
224.5885265422475
 10
131.567123
 20
223.6760815422475
 10
123.354675
 20
222.7812445422475
 10
115.14447
 20
221.8657785422475
 10
109.00415
 20
221.1669255422474
  0
ARC
  5
385
330
1F
100
AcDbEntity
  8
0
 62
     7
370
    60
100
AcDbCircle
 10
185.822296
 20
224.0979565422475
 30
0.0
 40
5.0
100
AcDbArc
 50
0.0
 51
95.353225
  0
LINE
  5
386
330
1F
100
AcDbEntity
  8
0
 62
     7
 48
0.476398
370
    60
100
AcDbLine
 10
190.822296
 20
205.0420175422475
 30
0.0
 11
190.822296
 21
224.0979565422475
 31
0.0
  0
ARC
  5
387
330
1F
100
AcDbEntity
  8
0
 62
     7
370
    60
100
AcDbCircle
 10
185.822296
 20
224.0979565422475
 30
0.0
 40
9.0
100
AcDbArc
 50
0.0
 51
95.353225
  0
LWPOLYLINE
  5
388
330
1F
100
AcDbEntity
  8
0
 62
     7
370
    60
100
AcDbPolyline
 90
       10
 70
     0
 43
0.0
 10
184.982635
 20
233.0587105422475
 10
175.019455
 20
232.1133975422475
 10
165.058472
 20
231.1449535422475
 10
156.080994
 20
230.2509715422474
 10
147.105621
 20
229.3360545422475
 10
138.554733
 20
228.4438425422475
 10
130.006027
 20
227.5308785422475
 10
121.811005
 20
226.6351565422474
 10
113.618286
 20
225.7187755422474
 10
108.547668
 20
225.1408025422475
  0
LINE
  5
394
330
1F
100
AcDbEntity
  8
0
 62
     7
 48
0.068751
370
    60
100
AcDbLine
 10
219.472321
 20
174.0536445422475
 30
0.0
 11
219.472321
 21
176.8036905422475
 31
0.0
  0
LINE
  5
395
330
1F
100
AcDbEntity
  8
0
 62
     7
 48
0.068751
370
    60
100
AcDbLine
 10
219.472321
 20
156.3036135422475
 30
0.0
 11
219.472321
 21
159.0536445422475
 31
0.0
  0
LINE
  5
397
330
1F
100
AcDbEntity
  8
0
 62
     7
 48
0.000982
370
    60
100
AcDbLine
 10
222.262939
 20
156.0897775422475
 30
0.0
 11
222.262939
 21
156.1290535422475
 31
0.0
  0
LINE
  5
398
330
1F
100
AcDbEntity
  8
0
 62
     7
 48
0.069902
370
    60
100
AcDbLine
 10
219.472321
 20
156.3036135422475
 30
0.0
 11
222.262939
 21
156.1290535422475
 31
0.0
  0
LINE
  5
39A
330
1F
100
AcDbEntity
  8
0
 62
     7
 48
0.035245
370
    60
100
AcDbLine
 10
218.062515
 20
156.3036135422475
 30
0.0
 11
219.472321
 21
156.3036135422475
 31
0.0
  0
LINE
  5
39C
330
1F
100
AcDbEntity
  8
0
 62
     7
 48
0.000982
370
    60
100
AcDbLine
 10
222.262939
 20
176.9782355422475
 30
0.0
 11
222.262939
 21
177.0175115422475
 31
0.0
  0
LINE
  5
39D
330
1F
100
AcDbEntity
  8
0
 62
     7
 48
0.069902
370
    60
100
AcDbLine
 10
219.472321
 20
176.8036905422475
 30
0.0
 11
222.262939
 21
176.9782355422475
 31
0.0
  0
LINE
  5
39F
330
1F
100
AcDbEntity
  8
0
 62
     7
 48
0.035245
370
    60
100
AcDbLine
 10
218.062515
 20
176.8036905422475
 30
0.0
 11
219.472321
 21
176.8036905422475
 31
0.0
  0
LINE
  5
3A0
330
1F
100
AcDbEntity
  8
0
 62
     7
 48
0.071829
370
    60
100
AcDbLine
 10
166.432556
 20
-29.62037445775252
 30
0.0
 11
169.305542
 21
-29.58875845775252
 31
0.0
  0
LINE
  5
3A2
330
1F
100
AcDbEntity
  8
0
 62
     7
 48
0.06224
370
    60
100
AcDbLine
 10
171.305542
 20
-34.79150145775252
 30
0.0
 11
171.305542
 21
-32.30188545775252
 31
0.0
  0
LINE
  5
3A3
330
1F
100
AcDbEntity
  8
0
 62
     7
 48
0.06224
370
    60
100
AcDbLine
 10
169.305542
 20
-34.79150145775252
 30
0.0
 11
169.305542
 21
-32.30188545775252
 31
0.0
  0
LWPOLYLINE
  5
3A4
330
1F
100
AcDbEntity
  8
0
 62
     7
370
    60
100
AcDbPolyline
 90
        8
 70
     0
 43
0.0
 10
169.1875
 20
-34.79150145775252
 10
168.909821
 20
-34.78261345775252
 10
168.629791
 20
-34.75044745775251
 10
168.384094
 20
-34.70080345775251
 10
168.143402
 20
-34.63032345775252
 10
167.923859
 20
-34.54460645775251
 10
167.714081
 20
-34.44056445775252
 10
167.421051
 20
-34.25061545775252
  0
LWPOLYLINE
  5
3AE
330
1F
100
AcDbEntity
  8
0
 62
     7
370
    60
100
AcDbPolyline
 90
       12
 70
     0
 43
0.0
 10
167.421051
 20
-34.25061545775252
 10
167.242981
 20
-34.10363545775252
 10
167.079178
 20
-33.94163245775252
 10
166.935104
 20
-33.77057445775252
 10
166.807236
 20
-33.58711045775252
 10
166.698105
 20
-33.39521545775251
 10
166.60675
 20
-33.19373045775252
 10
166.534225
 20
-32.98506745775251
 10
166.480759
 20
-32.77007845775252
 10
166.446869
 20
-32.55064145775252
 10
166.432922
 20
-32.32883245775252
 10
166.432602
 20
-32.30188545775252
  0
LINE
  5
3BC
330
1F
100
AcDbEntity
  8
0
 62
     7
 48
0.003206
370
    60
100
AcDbLine
 10
166.305542
 20
-29.63804445775252
 30
0.0
 11
166.432556
 21
-29.62037445775252
 31
0.0
  0
LINE
  5
3BD
330
1F
100
AcDbEntity
  8
0
 62
     7
 48
0.024781
370
    60
100
AcDbLine
 10
170.314331
 20
-29.52882145775252
 30
0.0
 11
171.305542
 21
-29.51997945775252
 31
0.0
  0
LINE
  5
3BE
330
1F
100
AcDbEntity
  8
0
 62
     7
 48
0.025222
370
    60
100
AcDbLine
 10
169.305542
 20
-29.54198945775252
 30
0.0
 11
170.314331
 21
-29.52882145775252
 31
0.0
  0
LINE
  5
3BF
330
1F
100
AcDbEntity
  8
0
 62
     7
 48
0.069548
370
    60
100
AcDbLine
 10
171.305542
 20
-32.30188545775252
 30
0.0
 11
171.305542
 21
-29.51997945775252
 31
0.0
  0
LINE
  5
3C0
330
1F
100
AcDbEntity
  8
0
 62
     7
 48
0.068997
370
    60
100
AcDbLine
 10
169.305542
 20
-32.30188545775252
 30
0.0
 11
169.305542
 21
-29.54198945775252
 31
0.0
  0
LINE
  5
3C1
330
1F
100
AcDbEntity
  8
0
 62
     7
 48
0.067038
370
    60
100
AcDbLine
 10
166.432556
 20
-32.30188545775252
 30
0.0
 11
166.432556
 21
-29.62037445775252
 31
0.0
  0
LINE
  5
3C2
330
1F
100
AcDbEntity
  8
0
 62
     7
 48
0.002951
370
    60
100
AcDbLine
 10
183.305542
 20
-34.79150145775252
 30
0.0
 11
183.423584
 21
-34.79150145775252
 31
0.0
  0
LINE
  5
3C4
330
1F
100
AcDbEntity
  8
0
 62
     7
 48
0.025
370
    60
100
AcDbLine
 10
182.305542
 20
-34.79150145775252
 30
0.0
 11
183.305542
 21
-34.79150145775252
 31
0.0
  0
LINE
  5
3C5
330
1F
100
AcDbEntity
  8
0
 62
     7
 48
0.025
370
    60
100
AcDbLine
 10
181.305542
 20
-34.79150145775252
 30
0.0
 11
182.305542
 21
-34.79150145775252
 31
0.0
  0
LINE
  5
3C6
330
1F
100
AcDbEntity
  8
0
 62
     7
 48
0.25
370
    60
100
AcDbLine
 10
171.305542
 20
-34.79150145775252
 30
0.0
 11
181.305542
 21
-34.79150145775252
 31
0.0
  0
LINE
  5
3C7
330
1F
100
AcDbEntity
  8
0
 62
     7
 48
0.002951
370
    60
100
AcDbLine
 10
169.1875
 20
-34.79150145775252
 30
0.0
 11
169.305542
 21
-34.79150145775252
 31
0.0
  0
LINE
  5
3C8
330
1F
100
AcDbEntity
  8
0
 62
     7
 48
0.025
370
    60
100
AcDbLine
 10
169.305542
 20
-34.79150145775252
 30
0.0
 11
170.305542
 21
-34.79150145775252
 31
0.0
  0
LINE
  5
3C9
330
1F
100
AcDbEntity
  8
0
 62
     7
 48
0.008048
370
    60
100
AcDbLine
 10
168.86557
 20
-34.79150145775252
 30
0.0
 11
169.1875
 21
-34.79150145775252
 31
0.0
  0
LINE
  5
3CA
330
1F
100
AcDbEntity
  8
0
 62
     7
 48
0.025
370
    60
100
AcDbLine
 10
170.305542
 20
-34.79150145775252
 30
0.0
 11
171.305542
 21
-34.79150145775252
 31
0.0
  0
LINE
  5
3CC
330
1F
100
AcDbEntity
  8
0
 62
     7
 48
0.06224
370
    60
100
AcDbLine
 10
78.305542
 20
-34.79150145775252
 30
0.0
 11
78.305542
 21
-32.30188545775252
 31
0.0
  0
LWPOLYLINE
  5
3CD
330
1F
100
AcDbEntity
  8
0
 62
     7
370
    60
100
AcDbPolyline
 90
        8
 70
     0
 43
0.0
 10
78.1875
 20
-34.79150145775252
 10
77.909821
 20
-34.78261345775252
 10
77.629791
 20
-34.75044745775251
 10
77.384094
 20
-34.70080345775251
 10
77.143402
 20
-34.63032345775252
 10
76.923859
 20
-34.54460645775251
 10
76.714081
 20
-34.44055745775252
 10
76.421051
 20
-34.25061545775252
  0
LWPOLYLINE
  5
3D7
330
1F
100
AcDbEntity
  8
0
 62
     7
370
    60
100
AcDbPolyline
 90
       12
 70
     0
 43
0.0
 10
76.421051
 20
-34.25061545775252
 10
76.242981
 20
-34.10364345775252
 10
76.079193
 20
-33.94164045775252
 10
75.93512
 20
-33.77058945775251
 10
75.80722
 20
-33.58711745775252
 10
75.69812
 20
-33.39522345775251
 10
75.60675
 20
-33.19374645775252
 10
75.534241
 20
-32.98507445775252
 10
75.480743
 20
-32.77009345775252
 10
75.446869
 20
-32.55065645775252
 10
75.432922
 20
-32.32884745775252
 10
75.432617
 20
-32.30188545775252
  0
LINE
  5
3E5
330
1F
100
AcDbEntity
  8
0
 62
     7
 48
0.06224
370
    60
100
AcDbLine
 10
80.305542
 20
-34.79150145775252
 30
0.0
 11
80.305542
 21
-32.30188545775252
 31
0.0
  0
LINE
  5
3E9
330
1F
100
AcDbEntity
  8
0
 62
     7
 48
0.069489
370
    60
100
AcDbLine
 10
78.305542
 20
-32.30188545775252
 30
0.0
 11
78.30530495873317
 21
-29.48071598470618
 31
0.0
  0
LINE
  5
3EA
330
1F
100
AcDbEntity
  8
0
 62
     7
 48
0.069031
370
    60
100
AcDbLine
 10
75.432556
 20
-32.30188545775252
 30
0.0
 11
75.4323079530854
 21
-29.49707857743959
 31
0.0
  0
LINE
  5
3EB
330
1F
100
AcDbEntity
  8
0
 62
     7
 48
0.069782
370
    60
100
AcDbLine
 10
80.305542
 20
-32.30188545775252
 30
0.0
 11
80.30530686882524
 21
-29.4693253648564
 31
0.0
  0
LINE
  5
3EC
330
1F
100
AcDbEntity
  8
0
 62
     7
 48
0.002951
370
    60
100
AcDbLine
 10
92.305542
 20
-34.79150145775252
 30
0.0
 11
92.423584
 21
-34.79150145775252
 31
0.0
  0
LINE
  5
3ED
330
1F
100
AcDbEntity
  8
0
 62
     7
 48
0.025
370
    60
100
AcDbLine
 10
91.305542
 20
-34.79150145775252
 30
0.0
 11
92.305542
 21
-34.79150145775252
 31
0.0
  0
LINE
  5
3EE
330
1F
100
AcDbEntity
  8
0
 62
     7
 48
0.025
370
    60
100
AcDbLine
 10
90.305542
 20
-34.79150145775252
 30
0.0
 11
91.305542
 21
-34.79150145775252
 31
0.0
  0
LINE
  5
3F0
330
1F
100
AcDbEntity
  8
0
 62
     7
 48
0.002951
370
    60
100
AcDbLine
 10
78.1875
 20
-34.79150145775252
 30
0.0
 11
78.305542
 21
-34.79150145775252
 31
0.0
  0
LINE
  5
3F1
330
1F
100
AcDbEntity
  8
0
 62
     7
 48
0.025
370
    60
100
AcDbLine
 10
78.305542
 20
-34.79150145775252
 30
0.0
 11
79.305542
 21
-34.79150145775252
 31
0.0
  0
LINE
  5
3F3
330
1F
100
AcDbEntity
  8
0
 62
     7
 48
0.025
370
    60
100
AcDbLine
 10
79.305542
 20
-34.79150145775252
 30
0.0
 11
80.305542
 21
-34.79150145775252
 31
0.0
  0
LINE
  5
3F5
330
1F
100
AcDbEntity
  8
0
 62
     7
 48
0.25
370
    60
100
AcDbLine
 10
80.305542
 20
-34.79150145775252
 30
0.0
 11
90.305542
 21
-34.79150145775252
 31
0.0
  0
LINE
  5
400
330
1F
100
AcDbEntity
  8
0
 62
     7
 48
0.05
370
    60
100
AcDbLine
 10
21.725861
 20
0.4057635422474846
 30
0.0
 11
21.725861
 21
2.405763542247485
 31
0.0
  0
LINE
  5
402
330
1F
100
AcDbEntity
  8
0
 62
     7
 48
0.000982
370
    60
100
AcDbLine
 10
222.262939
 20
0.5601755422474852
 30
0.0
 11
222.262939
 21
0.5994515422474862
 31
0.0
  0
LINE
  5
403
330
1F
100
AcDbEntity
  8
0
 62
     7
 48
0.069902
370
    60
100
AcDbLine
 10
219.472321
 20
0.773996542247481
 30
0.0
 11
222.262939
 21
0.5994515422474862
 31
0.0
  0
LINE
  5
404
330
1F
100
AcDbEntity
  8
0
 62
     7
 48
0.077478
370
    60
100
AcDbLine
 10
222.262939
 20
0.5994515422474862
 30
0.0
 11
222.262939
 21
3.698587542247481
 31
0.0
  0
LINE
  5
405
330
1F
100
AcDbEntity
  8
0
 62
     7
 48
0.077479
370
    60
100
AcDbLine
 10
222.262939
 20
18.34948154224748
 30
0.0
 11
222.262939
 21
21.44862554224748
 31
0.0
  0
LINE
  5
406
330
1F
100
AcDbEntity
  8
0
 62
     7
 48
0.035245
370
    60
100
AcDbLine
 10
218.062515
 20
0.773996542247481
 30
0.0
 11
219.472321
 21
0.773996542247481
 31
0.0
  0
LINE
  5
407
330
1F
100
AcDbEntity
  8
0
 62
     7
 48
0.068751
370
    60
100
AcDbLine
 10
219.472321
 20
18.52403454224748
 30
0.0
 11
219.472321
 21
21.27407254224748
 31
0.0
  0
LINE
  5
408
330
1F
100
AcDbEntity
  8
0
 62
     7
 48
0.068751
370
    60
100
AcDbLine
 10
219.472321
 20
0.773996542247481
 30
0.0
 11
219.472321
 21
3.524034542247485
 31
0.0
  0
LINE
  5
40B
330
1F
100
AcDbEntity
  8
0
 62
     7
 48
0.000982
370
    60
100
AcDbLine
 10
222.262939
 20
21.44862554224748
 30
0.0
 11
222.262939
 21
21.48790254224748
 31
0.0
  0
LINE
  5
40C
330
1F
100
AcDbEntity
  8
0
 62
     7
 48
0.069902
370
    60
100
AcDbLine
 10
219.472321
 20
21.27407254224748
 30
0.0
 11
222.262939
 21
21.44862554224748
 31
0.0
  0
LINE
  5
40D
330
1F
100
AcDbEntity
  8
0
 62
     7
 48
0.035245
370
    60
100
AcDbLine
 10
218.062515
 20
21.27407254224748
 30
0.0
 11
219.472321
 21
21.27407254224748
 31
0.0
  0
LINE
  5
410
330
1F
100
AcDbEntity
  8
0
 62
     7
 48
0.174809
370
    60
100
AcDbLine
 10
104.914917
 20
-36.35259045775252
 30
0.0
 11
104.9147401476473
 21
-29.32916714911521
 31
0.0
  0
LINE
  5
411
330
1F
100
AcDbEntity
  8
0
 62
     7
 48
0.174442
370
    60
100
AcDbLine
 10
102.408905
 20
-36.35259045775252
 30
0.0
 11
102.4087257471622
 21
-29.3434396641713
 31
0.0
  0
LINE
  5
414
330
1F
100
AcDbEntity
  8
0
 62
     7
 48
0.093606
370
    60
100
AcDbLine
 10
195.914917
 20
-29.16570045775252
 30
0.0
 11
199.65892
 21
-29.12450145775252
 31
0.0
  0
LINE
  5
415
330
1F
100
AcDbEntity
  8
0
 62
     7
 48
0.093756
370
    60
100
AcDbLine
 10
189.65892
 20
-29.23454845775252
 30
0.0
 11
193.40892
 21
-29.19328045775252
 31
0.0
  0
LINE
  5
416
330
1F
100
AcDbEntity
  8
0
 62
     7
 48
0.062654
370
    60
100
AcDbLine
 10
193.40892
 20
-29.07482645775252
 30
0.0
 11
195.914917
 21
-29.04678845775252
 31
0.0
  0
LINE
  5
417
330
1F
100
AcDbEntity
  8
0
 62
     7
 48
0.182645
370
    60
100
AcDbLine
 10
195.914917
 20
-36.35259045775252
 30
0.0
 11
195.914917
 21
-29.04678845775252
 31
0.0
  0
LINE
  5
418
330
1F
100
AcDbEntity
  8
0
 62
     7
 48
0.181944
370
    60
100
AcDbLine
 10
193.40892
 20
-36.35259045775252
 30
0.0
 11
193.40892
 21
-29.07482645775252
 31
0.0
  0
LINE
  5
419
330
1F
100
AcDbEntity
  8
0
 62
     7
 48
0.062654
370
    60
100
AcDbLine
 10
156.696167
 20
-29.48554045775252
 30
0.0
 11
159.202164
 21
-29.45750245775252
 31
0.0
  0
LINE
  5
41A
330
1F
100
AcDbEntity
  8
0
 62
     7
 48
0.002794
370
    60
100
AcDbLine
 10
156.696167
 20
-29.59731045775252
 30
0.0
 11
156.696167
 21
-29.48554045775252
 31
0.0
  0
LINE
  5
41B
330
1F
100
AcDbEntity
  8
0
 62
     7
 48
0.171676
370
    60
100
AcDbLine
 10
156.696167
 20
-36.35259045775252
 30
0.0
 11
156.696167
 21
-29.48554045775252
 31
0.0
  0
LINE
  5
41C
330
1F
100
AcDbEntity
  8
0
 62
     7
 48
0.172377
370
    60
100
AcDbLine
 10
159.202164
 20
-36.35259045775252
 30
0.0
 11
159.202164
 21
-29.45750245775252
 31
0.0
  0
LINE
  5
41D
330
1F
100
AcDbEntity
  8
0
 62
     7
 48
0.093606
370
    60
100
AcDbLine
 10
152.952164
 20
-29.63851745775252
 30
0.0
 11
156.696167
 21
-29.59731045775252
 31
0.0
  0
LINE
  5
41E
330
1F
100
AcDbEntity
  8
0
 62
     7
 48
0.093756
370
    60
100
AcDbLine
 10
159.202164
 20
-29.56973045775252
 30
0.0
 11
162.952164
 21
-29.52846345775252
 31
0.0
  0
LINE
  5
41F
330
1F
100
AcDbEntity
  8
0
 62
     7
 48
0.03125
370
    60
100
AcDbLine
 10
97.805542
 20
151.0490365422475
 30
0.0
 11
97.805542
 21
152.2990365422475
 31
0.0
  0
LINE
  5
420
330
1F
100
AcDbEntity
  8
0
 62
     7
 48
0.154153
370
    60
100
AcDbLine
 10
97.805542
 20
144.8828985422475
 30
0.0
 11
97.805542
 21
151.0490365422475
 31
0.0
  0
LINE
  5
421
330
1F
100
AcDbEntity
  8
0
 62
     7
 48
0.0625
370
    60
100
AcDbLine
 10
95.305542
 20
144.8828985422475
 30
0.0
 11
97.805542
 21
144.8828985422475
 31
0.0
  0
LINE
  5
422
330
1F
100
AcDbEntity
  8
0
 62
     7
 48
0.03125
370
    60
100
AcDbLine
 10
95.305542
 20
151.0490365422475
 30
0.0
 11
95.305542
 21
152.2990365422475
 31
0.0
  0
LINE
  5
423
330
1F
100
AcDbEntity
  8
0
 62
     7
 48
0.154153
370
    60
100
AcDbLine
 10
95.305542
 20
144.8828985422475
 30
0.0
 11
95.305542
 21
151.0490365422475
 31
0.0
  0
ARC
  5
424
330
1F
100
AcDbEntity
  8
0
 62
     7
370
    60
100
AcDbCircle
 10
107.658905
 20
-35.35259045775252
 30
0.0
 40
1.0
100
AcDbArc
 50
270.000001
 51
0.0
  0
ARC
  5
425
330
1F
100
AcDbEntity
  8
0
 62
     7
370
    60
100
AcDbCircle
 10
99.658905
 20
-35.35259045775252
 30
0.0
 40
1.0
100
AcDbArc
 50
180.000005
 51
270.000001
  0
ARC
  5
426
330
1F
100
AcDbEntity
  8
0
 62
     7
370
    60
100
AcDbCircle
 10
190.65892
 20
-35.35259045775252
 30
0.0
 40
1.0
100
AcDbArc
 50
180.000005
 51
270.000001
  0
ARC
  5
427
330
1F
100
AcDbEntity
  8
0
 62
     7
370
    60
100
AcDbCircle
 10
198.65892
 20
-35.35259045775252
 30
0.0
 40
1.0
100
AcDbArc
 50
270.000001
 51
0.0
  0
LINE
  5
428
330
1F
100
AcDbEntity
  8
0
 62
     7
 48
0.030782
370
    60
100
AcDbLine
 10
188.427734
 20
-29.28066045775252
 30
0.0
 11
189.65892
 21
-29.26711045775252
 31
0.0
  0
LINE
  5
429
330
1F
100
AcDbEntity
  8
0
 62
     7
 48
0.025005
370
    60
100
AcDbLine
 10
199.65892
 20
-29.15706445775252
 30
0.0
 11
200.659073
 21
-29.14605445775252
 31
0.0
  0
LINE
  5
42A
330
1F
100
AcDbEntity
  8
0
 62
     7
 48
0.0686
370
    60
100
AcDbLine
 10
195.914917
 20
-36.35259045775252
 30
0.0
 11
198.65892
 21
-36.35259045775252
 31
0.0
  0
LINE
  5
42B
330
1F
100
AcDbEntity
  8
0
 62
     7
 48
0.06875
370
    60
100
AcDbLine
 10
190.65892
 20
-36.35259045775252
 30
0.0
 11
193.40892
 21
-36.35259045775252
 31
0.0
  0
LINE
  5
42C
330
1F
100
AcDbEntity
  8
0
 62
     7
 48
0.06265
370
    60
100
AcDbLine
 10
193.40892
 20
-36.35259045775252
 30
0.0
 11
195.914917
 21
-36.35259045775252
 31
0.0
  0
ARC
  5
42D
330
1F
100
AcDbEntity
  8
0
 62
     7
370
    60
100
AcDbCircle
 10
153.952164
 20
-35.35259045775252
 30
0.0
 40
1.0
100
AcDbArc
 50
180.000005
 51
270.000001
  0
ARC
  5
42E
330
1F
100
AcDbEntity
  8
0
 62
     7
370
    60
100
AcDbCircle
 10
161.952164
 20
-35.35259045775252
 30
0.0
 40
1.0
100
AcDbArc
 50
270.000001
 51
0.0
  0
LINE
  5
42F
330
1F
100
AcDbEntity
  8
0
 62
     7
 48
0.025005
370
    60
100
AcDbLine
 10
151.952011
 20
-29.68208045775252
 30
0.0
 11
152.952164
 21
-29.67107945775252
 31
0.0
  0
LINE
  5
430
330
1F
100
AcDbEntity
  8
0
 62
     7
 48
0.030782
370
    60
100
AcDbLine
 10
162.952164
 20
-29.56102545775252
 30
0.0
 11
164.18335
 21
-29.54747545775252
 31
0.0
  0
ARC
  5
433
330
1F
100
AcDbEntity
  8
0
 62
     7
370
    60
100
AcDbCircle
 10
70.952179
 20
-35.35259045775252
 30
0.0
 40
1.0
100
AcDbArc
 50
270.000001
 51
0.0
  0
ARC
  5
434
330
1F
100
AcDbEntity
  8
0
 62
     7
370
    60
100
AcDbCircle
 10
62.952179
 20
-35.35259045775252
 30
0.0
 40
1.0
100
AcDbArc
 50
180.000005
 51
270.000001
  0
LINE
  5
436
330
1F
100
AcDbEntity
  8
0
 62
     7
 48
0.169427
370
    60
100
AcDbLine
 10
68.202179
 20
-36.35259045775252
 30
0.0
 11
68.20196686194627
 21
-29.53825757148844
 31
0.0
  0
LINE
  5
437
330
1F
100
AcDbEntity
  8
0
 62
     7
 48
0.0686
370
    60
100
AcDbLine
 10
62.952179
 20
-36.35259045775252
 30
0.0
 11
65.696167
 21
-36.35259045775252
 31
0.0
  0
LINE
  5
438
330
1F
100
AcDbEntity
  8
0
 62
     7
 48
0.06875
370
    60
100
AcDbLine
 10
68.202179
 20
-36.35259045775252
 30
0.0
 11
70.952179
 21
-36.35259045775252
 31
0.0
  0
LINE
  5
439
330
1F
100
AcDbEntity
  8
0
 62
     7
 48
0.06265
370
    60
100
AcDbLine
 10
65.696167
 20
-36.35259045775252
 30
0.0
 11
68.202179
 21
-36.35259045775252
 31
0.0
  0
LINE
  5
43A
330
1F
100
AcDbEntity
  8
0
 62
     7
 48
0.16906
370
    60
100
AcDbLine
 10
65.696167
 20
-36.35259045775252
 30
0.0
 11
65.69595245576608
 21
-29.55253008657696
 31
0.0
  0
LINE
  5
43B
330
1F
100
AcDbEntity
  8
0
 62
     7
 48
0.063765
370
    60
100
AcDbLine
 10
100.574768
 20
188.5299325422475
 30
0.0
 11
100.574768
 21
191.0805305422475
 31
0.0
  0
ARC
  5
43C
330
1F
100
AcDbEntity
  8
0
 62
     7
370
    60
100
AcDbCircle
 10
298.413269
 20
-789.2434744577524
 30
0.0
 40
997.587585
100
AcDbArc
 50
100.398111
 51
101.438554
  0
ARC
  5
43F
330
1F
100
AcDbEntity
  8
0
 62
     7
370
    60
100
AcDbCircle
 10
363.945068
 20
-791.2233334577525
 30
0.0
 40
1014.534546
100
AcDbArc
 50
105.046158
 51
105.281335
  0
ARC
  5
440
330
1F
100
AcDbEntity
  8
0
 62
     7
370
    60
100
AcDbCircle
 10
298.491516
 20
-789.6812184577525
 30
0.0
 40
1000.532166
100
AcDbArc
 50
99.197358
 51
101.175428
  0
ARC
  5
441
330
1F
100
AcDbEntity
  8
0
 62
     7
370
    60
100
AcDbCircle
 10
364.225128
 20
-791.6834164577525
 30
0.0
 40
1017.514893
100
AcDbArc
 50
105.017382
 51
105.251835
  0
ARC
  5
442
330
1F
100
AcDbEntity
  8
0
 62
     7
370
    60
100
AcDbCircle
 10
77.843262
 20
164.9113715422475
 30
0.0
 40
28.587233
100
AcDbArc
 50
359.999709
 51
49.113101
  0
LINE
  5
443
330
1F
100
AcDbEntity
  8
0
 62
     7
 48
0.022932
370
    60
100
AcDbLine
 10
96.555542
 20
186.5234015422475
 30
0.0
 11
96.555542
 21
187.4406685422475
 31
0.0
  0
LINE
  5
444
330
1F
100
AcDbEntity
  8
0
 62
     7
 48
0.031926
370
    60
100
AcDbLine
 10
96.555542
 20
187.4406685422475
 30
0.0
 11
96.555542
 21
188.7177225422475
 31
0.0
  0
LINE
  5
445
330
1F
100
AcDbEntity
  8
0
 62
     7
 48
0.031893
370
    60
100
AcDbLine
 10
96.555542
 20
188.7177225422475
 30
0.0
 11
96.555542
 21
189.9934485422475
 31
0.0
  0
LINE
  5
446
330
1F
100
AcDbEntity
  8
0
 62
     7
 48
0.030465
370
    60
100
AcDbLine
 10
95.447144
 20
186.0169625422475
 30
0.0
 11
96.555542
 21
186.5234015422475
 31
0.0
  0
LINE
  5
447
330
1F
100
AcDbEntity
  8
0
 62
     7
 48
0.043866
370
    60
100
AcDbLine
 10
95.447144
 20
188.6332345422475
 30
0.0
 11
96.555542
 21
189.9934485422475
 31
0.0
  0
LINE
  5
448
330
1F
100
AcDbEntity
  8
0
 62
     7
 48
0.366272
370
    60
100
AcDbLine
 10
222.262939
 20
159.2282055422475
 30
0.0
 11
222.262939
 21
173.8790995422475
 31
0.0
  0
LINE
  5
449
330
1F
100
AcDbEntity
  8
0
 62
     7
 48
0.375
370
    60
100
AcDbLine
 10
219.472321
 20
159.0536445422475
 30
0.0
 11
219.472321
 21
174.0536445422475
 31
0.0
  0
LINE
  5
44B
330
1F
100
AcDbEntity
  8
0
 62
     7
 48
0.069902
370
    60
100
AcDbLine
 10
219.472321
 20
174.0536445422475
 30
0.0
 11
222.262939
 21
173.8790995422475
 31
0.0
  0
LINE
  5
44E
330
1F
100
AcDbEntity
  8
0
 62
     7
 48
0.069902
370
    60
100
AcDbLine
 10
219.472321
 20
159.0536445422475
 30
0.0
 11
222.262939
 21
159.2282055422475
 31
0.0
  0
LINE
  5
451
330
1F
100
AcDbEntity
  8
0
 62
     7
 48
0.366272
370
    60
100
AcDbLine
 10
222.262939
 20
3.698587542247481
 30
0.0
 11
222.262939
 21
18.34948154224748
 31
0.0
  0
LINE
  5
452
330
1F
100
AcDbEntity
  8
0
 62
     7
 48
0.375
370
    60
100
AcDbLine
 10
219.472321
 20
3.524034542247485
 30
0.0
 11
219.472321
 21
18.52403454224748
 31
0.0
  0
LINE
  5
454
330
1F
100
AcDbEntity
  8
0
 62
     7
 48
0.069902
370
    60
100
AcDbLine
 10
219.472321
 20
18.52403454224748
 30
0.0
 11
222.262939
 21
18.34948154224748
 31
0.0
  0
LINE
  5
457
330
1F
100
AcDbEntity
  8
0
 62
     7
 48
0.069902
370
    60
100
AcDbLine
 10
219.472321
 20
3.524034542247485
 30
0.0
 11
222.262939
 21
3.698587542247481
 31
0.0
  0
ARC
  5
45A
330
1F
100
AcDbEntity
  8
0
 62
     7
370
    60
100
AcDbCircle
 10
298.598877
 20
-790.3181814577525
 30
0.0
 40
1001.178162
100
AcDbArc
 50
96.17985499999999
 51
99.197596
  0
ARC
  5
45B
330
1F
100
AcDbEntity
  8
0
 62
     7
370
    60
100
AcDbCircle
 10
212.741241
 20
211.7078195422475
 30
0.0
 40
5.456236
100
AcDbArc
 50
271.978351
 51
274.067351
  0
LWPOLYLINE
  5
45C
330
1F
100
AcDbEntity
  8
0
 62
     7
370
    60
100
AcDbPolyline
 90
        3
 70
     0
 43
0.0
 10
194.822296
 20
205.4670055422475
 10
197.86264
 20
205.7610875422475
 10
199.651932
 20
205.8934885422475
  0
LINE
  5
461
330
1F
100
AcDbEntity
  8
0
 62
     7
370
    60
100
AcDbLine
 10
37.555542
 20
144.4598025422475
 30
0.0
 11
59.42099
 21
144.4598025422475
 31
0.0
  0
LINE
  5
462
330
1F
100
AcDbEntity
  8
0
 62
     7
 48
0.150057
370
    60
100
AcDbLine
 10
100.690094
 20
144.4598025422475
 30
0.0
 11
106.692383
 21
144.4598025422475
 31
0.0
  0
ARC
  5
464
330
1F
100
AcDbEntity
  8
0
 62
     7
370
    60
100
AcDbCircle
 10
37.687408
 20
138.2617595422475
 30
0.0
 40
6.297844
100
AcDbArc
 50
164.16316
 51
179.658618
  0
ARC
  5
466
330
1F
100
AcDbEntity
  8
0
 62
     7
370
    60
100
AcDbCircle
 10
47.13655433623539
 20
-12.86202787825185
 30
0.0
 40
15.75829640725967
100
AcDbArc
 50
180.5051485175225
 51
187.7370793943998
  0
LINE
  5
46A
330
1F
100
AcDbEntity
  8
0
 62
     7
 48
0.006262
370
    60
100
AcDbLine
 10
30.975861
 20
124.8922985422475
 30
0.0
 11
30.975861
 21
125.0860545422475
 31
0.0
  0
LINE
  5
46B
330
1F
100
AcDbEntity
  8
0
 62
     7
 48
0.045627
370
    60
100
AcDbLine
 10
30.975861
 20
-4.619306457752518
 30
0.0
 11
30.975861
 21
-2.794233457752519
 31
0.0
  0
LINE
  5
46C
330
1F
100
AcDbEntity
  8
0
 62
     7
 48
0.006262
370
    60
100
AcDbLine
 10
30.975861
 20
0.2120155422474852
 30
0.0
 11
30.975861
 21
0.4057635422474846
 31
0.0
  0
LINE
  5
46D
330
1F
100
AcDbEntity
  8
0
 62
     7
370
    60
100
AcDbLine
 10
30.975861
 20
2.388307542247482
 30
0.0
 11
30.975861
 21
122.9097545422475
 31
0.0
  0
LINE
  5
46F
330
1F
100
AcDbEntity
  8
0
 62
     7
 48
0.017015
370
    60
100
AcDbLine
 10
31.383911
 20
137.6187075422475
 30
0.0
 11
31.389709
 21
138.2992805422475
 31
0.0
  0
LINE
  5
471
330
1F
100
AcDbEntity
  8
0
 62
     7
 48
0.020628
370
    60
100
AcDbLine
 10
31.315125
 20
-10.90137245775252
 30
0.0
 11
31.355194
 21
-11.72553045775252
 31
0.0
  0
LINE
  5
472
330
1F
100
AcDbEntity
  8
0
 62
     7
 48
0.031891
370
    60
100
AcDbLine
 10
31.355194
 20
-11.72553045775252
 30
0.0
 11
31.378845
 21
-13.00096645775252
 31
0.0
  0
LWPOLYLINE
  5
479
330
1F
100
AcDbEntity
  8
0
 62
     7
370
    60
100
AcDbPolyline
 90
        4
 70
     0
 43
0.0
 10
30.975861
 20
-4.619306457752518
 10
30.998779
 20
-7.997258457752519
 10
31.024536
 20
-9.103673457752517
 10
31.055542
 20
-9.600278457752516
  0
ARC
  5
47F
330
1F
100
AcDbEntity
  8
0
 62
     7
370
    60
100
AcDbCircle
 10
213.513992
 20
200.3037975422475
 30
0.0
 40
5.973878
100
AcDbArc
 50
91.27253499999999
 51
93.70227899999999
  0
LINE
  5
481
330
1F
100
AcDbEntity
  8
0
 62
     7
370
    60
100
AcDbLine
 10
64.805542
 20
152.2990365422475
 30
0.0
 11
95.305542
 21
152.2990365422475
 31
0.0
  0
LINE
  5
482
330
1F
100
AcDbEntity
  8
0
 62
     7
 48
0.0625
370
    60
100
AcDbLine
 10
95.305542
 20
152.2990365422475
 30
0.0
 11
97.805542
 21
152.2990365422475
 31
0.0
  0
LINE
  5
483
330
1F
100
AcDbEntity
  8
0
 62
     7
 48
0.03125
370
    60
100
AcDbLine
 10
62.305542
 20
151.0490365422475
 30
0.0
 11
62.305542
 21
152.2990365422475
 31
0.0
  0
LINE
  5
484
330
1F
100
AcDbEntity
  8
0
 62
     7
 48
0.0625
370
    60
100
AcDbLine
 10
62.305542
 20
152.2990365422475
 30
0.0
 11
64.805542
 21
152.2990365422475
 31
0.0
  0
LINE
  5
485
330
1F
100
AcDbEntity
  8
0
 62
     7
 48
0.154153
370
    60
100
AcDbLine
 10
62.305542
 20
144.8828985422475
 30
0.0
 11
62.305542
 21
151.0490365422475
 31
0.0
  0
LINE
  5
486
330
1F
100
AcDbEntity
  8
0
 62
     7
 48
0.0625
370
    60
100
AcDbLine
 10
62.305542
 20
144.8828985422475
 30
0.0
 11
64.805542
 21
144.8828985422475
 31
0.0
  0
LINE
  5
487
330
1F
100
AcDbEntity
  8
0
 62
     7
 48
0.03125
370
    60
100
AcDbLine
 10
64.805542
 20
151.0490365422475
 30
0.0
 11
64.805542
 21
152.2990365422475
 31
0.0
  0
LINE
  5
488
330
1F
100
AcDbEntity
  8
0
 62
     7
 48
0.154153
370
    60
100
AcDbLine
 10
64.805542
 20
144.8828985422475
 30
0.0
 11
64.805542
 21
151.0490365422475
 31
0.0
  0
ARC
  5
489
330
1F
100
AcDbEntity
  8
0
 62
     7
370
    60
100
AcDbCircle
 10
179.358063
 20
11.02388254224748
 30
0.0
 40
3.844696
100
AcDbArc
 50
237.386886
 51
240.551122
  0
LINE
  5
48A
330
1F
100
AcDbEntity
  8
0
 62
     7
370
    60
100
AcDbLine
 10
105.322144
 20
144.4598025422475
 30
0.0
 11
105.322144
 21
164.9112185422475
 31
0.0
  0
LWPOLYLINE
  5
48B
330
1F
100
AcDbEntity
  8
0
 62
     7
370
    60
100
AcDbPolyline
 90
       25
 70
     0
 43
0.0
 10
105.322144
 20
164.9112185422475
 10
105.281677
 20
166.3955785422475
 10
105.231476
 20
167.1363165422475
 10
105.161316
 20
167.8754215422475
 10
105.07132
 20
168.6121775422475
 10
104.961456
 20
169.3461865422475
 10
104.831909
 20
170.0767315422475
 10
104.682709
 20
170.8034615422475
 10
104.514008
 20
171.5256295422475
 10
104.325928
 20
172.2429455422475
 10
104.118591
 20
172.9547065422475
 10
103.89212
 20
173.6605785422475
 10
103.382599
 20
175.0523785422475
 10
102.798767
 20
176.4145145422475
 10
102.142212
 20
177.7432195422475
 10
101.414795
 20
179.0348155422475
 10
100.618561
 20
180.2856395422475
 10
99.755768
 20
181.4920755422475
 10
98.828949
 20
182.6505375422475
 10
97.840942
 20
183.7574405422475
 10
97.324982
 20
184.2904305422475
 10
96.794891
 20
184.8092595422475
 10
95.83017
 20
185.6856335422475
 10
95.63855
 20
185.8511605422475
 10
95.447144
 20
186.0169625422475
  0
LINE
  5
4A6
330
1F
100
AcDbEntity
  8
0
 62
     7
 48
0.029865
370
    60
100
AcDbLine
 10
95.447144
 20
186.0169625422475
 30
0.0
 11
95.447144
 21
187.2115725422475
 31
0.0
  0
LINE
  5
4A7
330
1F
100
AcDbEntity
  8
0
 62
     7
 48
0.035542
370
    60
100
AcDbLine
 10
95.447144
 20
187.2115725422475
 30
0.0
 11
95.447144
 21
188.6332345422475
 31
0.0
  0
LINE
  5
4A8
330
1F
100
AcDbEntity
  8
0
 62
     7
370
    60
100
AcDbLine
 10
21.725861
 20
2.405763542247485
 30
0.0
 11
21.725861
 21
123.6490425422475
 31
0.0
  0
LINE
  5
4A9
330
1F
100
AcDbEntity
  8
0
 62
     7
 48
0.227309
370
    60
100
AcDbLine
 10
21.725861
 20
122.9097545422475
 30
0.0
 11
30.975861
 21
122.9097545422475
 31
0.0
  0
LINE
  5
4AA
330
1F
100
AcDbEntity
  8
0
 62
     7
 48
0.227309
370
    60
100
AcDbLine
 10
21.725861
 20
2.388307542247482
 30
0.0
 11
30.975861
 21
2.388307542247482
 31
0.0
  0
LINE
  5
4AC
330
1F
100
AcDbEntity
  8
0
 62
     7
 48
0.017678
370
    60
100
AcDbLine
 10
22.725861
 20
-2.794233457752519
 30
0.0
 11
23.225861
 21
-3.294233457752519
 31
0.0
  0
LINE
  5
4AD
330
1F
100
AcDbEntity
  8
0
 62
     7
 48
0.017678
370
    60
100
AcDbLine
 10
26.725861
 20
-3.294233457752519
 30
0.0
 11
27.225861
 21
-2.794233457752519
 31
0.0
  0
LINE
  5
4AE
330
1F
100
AcDbEntity
  8
0
 62
     7
 48
0.0875
370
    60
100
AcDbLine
 10
23.225861
 20
-3.294233457752519
 30
0.0
 11
26.725861
 21
-3.294233457752519
 31
0.0
  0
LINE
  5
4AF
330
1F
100
AcDbEntity
  8
0
 62
     7
 48
0.0375
370
    60
100
AcDbLine
 10
27.225861
 20
-2.794233457752519
 30
0.0
 11
27.225861
 21
-1.294233457752519
 31
0.0
  0
LINE
  5
4B0
330
1F
100
AcDbEntity
  8
0
 62
     7
 48
0.005
370
    60
100
AcDbLine
 10
27.225861
 20
0.2057665422474813
 30
0.0
 11
27.225861
 21
0.4057635422474846
 31
0.0
  0
LINE
  5
4B1
330
1F
100
AcDbEntity
  8
0
 62
     7
 48
0.005
370
    60
100
AcDbLine
 10
22.725861
 20
0.2057665422474813
 30
0.0
 11
22.725861
 21
0.4057635422474846
 31
0.0
  0
LINE
  5
4B2
330
1F
100
AcDbEntity
  8
0
 62
     7
 48
0.0375
370
    60
100
AcDbLine
 10
22.725861
 20
-2.794233457752519
 30
0.0
 11
22.725861
 21
-1.294233457752519
 31
0.0
  0
LINE
  5
4B3
330
1F
100
AcDbEntity
  8
0
 62
     7
 48
0.039339
370
    60
100
AcDbLine
 10
23.404327
 20
0.4331685422474862
 30
0.0
 11
24.977844
 21
0.44465054224748
 31
0.0
  0
LINE
  5
4B4
330
1F
100
AcDbEntity
  8
0
 62
     7
 48
0.016976
370
    60
100
AcDbLine
 10
22.725861
 20
0.4057635422474846
 30
0.0
 11
23.404327
 21
0.4331685422474862
 31
0.0
  0
LINE
  5
4B5
330
1F
100
AcDbEntity
  8
0
 62
     7
 48
0.039451
370
    60
100
AcDbLine
 10
24.977844
 20
0.44465054224748
 30
0.0
 11
26.555847
 21
0.4333595422474801
 31
0.0
  0
LINE
  5
4B6
330
1F
100
AcDbEntity
  8
0
 62
     7
 48
0.016765
370
    60
100
AcDbLine
 10
26.555847
 20
0.4333595422474801
 30
0.0
 11
27.225861
 21
0.4057635422474846
 31
0.0
  0
LINE
  5
4B7
330
1F
100
AcDbEntity
  8
0
 62
     7
 48
0.1125
370
    60
100
AcDbLine
 10
22.725861
 20
-2.794233457752519
 30
0.0
 11
27.225861
 21
-2.794233457752519
 31
0.0
  0
ARC
  5
4B8
330
1F
100
AcDbEntity
  8
0
 62
     7
370
    60
100
AcDbCircle
 10
233.51152
 20
-793.9772394577525
 30
0.0
 40
1000.443848
100
AcDbArc
 50
91.17881799999999
 51
91.93952299999998
  0
LINE
  5
4B9
330
1F
100
AcDbEntity
  8
0
 62
     7
370
    60
100
AcDbLine
 10
218.773727
 20
179.5116215422475
 30
0.0
 11
218.773727
 21
201.0582675422475
 31
0.0
  0
LINE
  5
4BA
330
1F
100
AcDbEntity
  8
0
 62
     7
370
    60
100
AcDbLine
 10
218.773727
 20
132.0490365422475
 30
0.0
 11
218.773727
 21
153.5956825422475
 31
0.0
  0
LINE
  5
4BB
330
1F
100
AcDbEntity
  8
0
 62
     7
370
    60
100
AcDbLine
 10
218.773727
 20
-23.50096645775252
 30
0.0
 11
218.773727
 21
-1.933934457752514
 31
0.0
  0
LINE
  5
4BC
330
1F
100
AcDbEntity
  8
0
 62
     7
370
    60
100
AcDbLine
 10
218.773727
 20
23.98200454224748
 30
0.0
 11
218.773727
 21
45.54903654224748
 31
0.0
  0
ARC
  5
4BD
330
1F
100
AcDbEntity
  8
0
 62
     7
370
    60
100
AcDbCircle
 10
212.3807045794183
 20
79.64085211840928
 30
0.0
 40
49.62903058887539
100
AcDbArc
 50
46.14167746984949
 51
83.6497612220758
  0
ARC
  5
4BF
330
1F
100
AcDbEntity
  8
0
 62
     7
370
    60
100
AcDbCircle
 10
212.1644672531166
 20
98.27234675397797
 30
0.0
 40
50.00611865444428
100
AcDbArc
 50
276.5795992705247
 51
313.7867950578075
  0
LINE
  5
4C7
330
1F
100
AcDbEntity
  8
0
 62
     7
 48
0.033168
370
    60
100
AcDbLine
 10
31.055542
 20
-9.600278457752516
 30
0.0
 11
31.315125
 21
-10.90137245775252
 31
0.0
  0
ARC
  5
4CD
330
1F
100
AcDbEntity
  8
0
 62
     7
370
    60
100
AcDbCircle
 10
48.055725
 20
-13.00093645775252
 30
0.0
 40
16.660934
100
AcDbArc
 50
189.959049
 51
189.966603
  0
LINE
  5
4CF
330
1F
100
AcDbEntity
  8
0
 62
     7
 48
0.152951
370
    60
100
AcDbLine
 10
189.65892
 20
-35.35259045775252
 30
0.0
 11
189.65892
 21
-29.23454845775252
 31
0.0
  0
LINE
  5
4D0
330
1F
100
AcDbEntity
  8
0
 62
     7
 48
0.155702
370
    60
100
AcDbLine
 10
199.65892
 20
-35.35259045775252
 30
0.0
 11
199.65892
 21
-29.12450145775252
 31
0.0
  0
LINE
  5
4D1
330
1F
100
AcDbEntity
  8
0
 62
     7
 48
0.142852
370
    60
100
AcDbLine
 10
152.952164
 20
-35.35259045775252
 30
0.0
 11
152.952164
 21
-29.63851745775252
 31
0.0
  0
LINE
  5
4D2
330
1F
100
AcDbEntity
  8
0
 62
     7
 48
0.145603
370
    60
100
AcDbLine
 10
162.952164
 20
-35.35259045775252
 30
0.0
 11
162.952164
 21
-29.52846345775252
 31
0.0
  0
LINE
  5
4D3
330
1F
100
AcDbEntity
  8
0
 62
     7
 48
0.06265
370
    60
100
AcDbLine
 10
156.696167
 20
-36.35259045775252
 30
0.0
 11
159.202164
 21
-36.35259045775252
 31
0.0
  0
LINE
  5
4D4
330
1F
100
AcDbEntity
  8
0
 62
     7
 48
0.0686
370
    60
100
AcDbLine
 10
153.952164
 20
-36.35259045775252
 30
0.0
 11
156.696167
 21
-36.35259045775252
 31
0.0
  0
LINE
  5
4D5
330
1F
100
AcDbEntity
  8
0
 62
     7
 48
0.06875
370
    60
100
AcDbLine
 10
159.202164
 20
-36.35259045775252
 30
0.0
 11
161.952164
 21
-36.35259045775252
 31
0.0
  0
LINE
  5
4D8
330
1F
100
AcDbEntity
  8
0
 62
     7
 48
0.06265
370
    60
100
AcDbLine
 10
102.408905
 20
-36.35259045775252
 30
0.0
 11
104.914917
 21
-36.35259045775252
 31
0.0
  0
LINE
  5
4D9
330
1F
100
AcDbEntity
  8
0
 62
     7
 48
0.0686
370
    60
100
AcDbLine
 10
104.914917
 20
-36.35259045775252
 30
0.0
 11
107.658905
 21
-36.35259045775252
 31
0.0
  0
LINE
  5
4DA
330
1F
100
AcDbEntity
  8
0
 62
     7
 48
0.06875
370
    60
100
AcDbLine
 10
99.658905
 20
-36.35259045775252
 30
0.0
 11
102.408905
 21
-36.35259045775252
 31
0.0
  0
LINE
  5
4DB
330
1F
100
AcDbEntity
  8
0
 62
     7
 48
0.148804
370
    60
100
AcDbLine
 10
98.658905
 20
-35.35259045775252
 30
0.0
 11
98.6587019950492
 21
-29.36479719126785
 31
0.0
  0
LINE
  5
4DC
330
1F
100
AcDbEntity
  8
0
 62
     7
 48
0.150269
370
    60
100
AcDbLine
 10
108.658905
 20
-35.35259045775252
 30
0.0
 11
108.6587114657779
 21
-29.30784409247307
 31
0.0
  0
LINE
  5
4DD
330
1F
100
AcDbEntity
  8
0
 62
     7
 48
0.143425
370
    60
100
AcDbLine
 10
61.952179
 20
-35.35259045775252
 30
0.0
 11
61.95194138000448
 21
-29.57385336965092
 31
0.0
  0
LINE
  5
4DE
330
1F
100
AcDbEntity
  8
0
 62
     7
 48
0.144891
370
    60
100
AcDbLine
 10
71.952179
 20
-35.35259045775252
 30
0.0
 11
71.95195081086734
 21
-29.51690027108319
 31
0.0
  0
CIRCLE
  5
4E7
330
1F
100
AcDbEntity
  8
0
 62
     7
370
    60
100
AcDbCircle
 10
103.098022
 20
88.79903654224748
 30
0.0
 40
1.532803
  0
CIRCLE
  5
4E9
330
1F
100
AcDbEntity
  8
0
 62
     7
370
    60
100
AcDbCircle
 10
148.098007
 20
88.79903654224748
 30
0.0
 40
1.532803
  0
ARC
  5
511
330
1F
100
AcDbEntity
  8
0
 62
     7
370
    60
100
AcDbCircle
 10
30.83432
 20
129.0814155422475
 30
0.0
 40
0.987881
100
AcDbArc
 50
338.377051
 51
0.051606
  0
CIRCLE
  5
512
330
1F
100
AcDbEntity
  8
0
 62
     7
370
    60
100
AcDbCircle
 10
103.098022
 20
88.79903654224748
 30
0.0
 40
2.1
  0
CIRCLE
  5
513
330
1F
100
AcDbEntity
  8
0
 62
     7
370
    60
100
AcDbCircle
 10
148.098007
 20
88.79903654224748
 30
0.0
 40
2.1
  0
LWPOLYLINE
  5
514
330
1F
100
AcDbEntity
  8
0
 62
     7
370
    60
100
AcDbPolyline
 90
        6
 70
     0
 43
0.0
 10
31.822418
 20
124.0923105422475
 10
31.812347
 20
124.2339425422475
 10
31.782288
 20
124.3727365422475
 10
31.73288
 20
124.5058695422475
 10
31.665131
 20
124.6306555422475
 10
30.975861
 20
125.0860545422475
  0
LWPOLYLINE
  5
51C
330
1F
100
AcDbEntity
  8
0
 62
     7
370
    60
100
AcDbPolyline
 90
        3
 70
     0
 43
0.0
 10
31.1788519253472
 20
128.0923105422475
 10
31.658997
 20
128.5374705422475
 10
31.752716
 20
128.7173865422475
  0
LWPOLYLINE
  5
521
330
1F
100
AcDbEntity
  8
0
 62
     7
370
    60
100
AcDbPolyline
 90
        6
 70
     0
 43
0.0
 10
30.975861
 20
0.2120155422474852
 10
31.622009
 20
0.605257542247486
 10
31.699036
 20
0.7245735422474837
 10
31.758362
 20
0.8535865422474842
 10
31.798798
 20
0.9897105422474795
 10
31.822418
 20
1.205766542247481
  0
LINE
  5
529
330
1F
100
AcDbEntity
  8
0
 62
     7
 48
0.009864
370
    60
100
AcDbLine
 10
46.86908
 20
-29.58639345775252
 30
0.0
 11
47.260468
 21
-29.63647245775252
 31
0.0
  0
LWPOLYLINE
  5
52A
330
1F
100
AcDbEntity
  8
0
 62
     7
370
    60
100
AcDbPolyline
 90
        4
 70
     0
 43
0.0
 10
35.881073
 20
-24.32282745775252
 10
36.308197
 20
-24.75471245775252
 10
37.129913
 20
-25.46114145775252
 10
37.69754
 20
-25.91380045775252
  0
LWPOLYLINE
  5
530
330
1F
100
AcDbEntity
  8
0
 62
     7
370
    60
100
AcDbPolyline
 90
        3
 70
     0
 43
0.0
 10
37.69754
 20
-25.91380045775252
 10
38.811859
 20
-26.77451145775252
 10
39.435394
 20
-27.22947445775252
  0
LWPOLYLINE
  5
535
330
1F
100
AcDbEntity
  8
0
 62
     7
370
    60
100
AcDbPolyline
 90
        4
 70
     0
 43
0.0
 10
39.435394
 20
-27.22947445775252
 10
39.870575
 20
-27.47118145775251
 10
40.941132
 20
-27.96714545775252
 10
41.305115
 20
-28.12582145775252
  0
LWPOLYLINE
  5
53B
330
1F
100
AcDbEntity
  8
0
 62
     7
370
    60
100
AcDbPolyline
 90
        3
 70
     0
 43
0.0
 10
41.305115
 20
-28.12582145775252
 10
42.556641
 20
-28.65060245775252
 10
43.328094
 20
-28.93644445775252
  0
LWPOLYLINE
  5
540
330
1F
100
AcDbEntity
  8
0
 62
     7
370
    60
100
AcDbPolyline
 90
        4
 70
     0
 43
0.0
 10
43.328094
 20
-28.93644445775252
 10
43.732361
 20
-29.06025445775252
 10
43.839172
 20
-29.09023845775252
 10
43.882477
 20
-29.09893545775252
  0
ARC
  5
546
330
1F
100
AcDbEntity
  8
0
 62
     7
370
    60
100
AcDbCircle
 10
48.040436
 20
-12.19060245775252
 30
0.0
 40
17.463291
100
AcDbArc
 50
267.440046
 51
270.47183
  0
LINE
  5
547
330
1F
100
AcDbEntity
  8
0
 62
     7
 48
0.095548
370
    60
100
AcDbLine
 10
31.980682
 20
-17.37772145775252
 30
0.0
 11
33.430115
 21
-20.91412845775252
 31
0.0
  0
LINE
  5
548
330
1F
100
AcDbEntity
  8
0
 62
     7
 48
0.032674
370
    60
100
AcDbLine
 10
31.634796
 20
-15.83268545775252
 30
0.0
 11
31.918915
 21
-17.10840345775252
 31
0.0
  0
LINE
  5
549
330
1F
100
AcDbEntity
  8
0
 62
     7
 48
0.006908
370
    60
100
AcDbLine
 10
31.918915
 20
-17.10840345775252
 30
0.0
 11
31.980682
 21
-17.37772145775252
 31
0.0
  0
LINE
  5
54A
330
1F
100
AcDbEntity
  8
0
 62
     7
 48
0.001733
370
    60
100
AcDbLine
 10
33.430115
 20
-20.91412845775252
 30
0.0
 11
33.456085
 21
-20.97839145775252
 31
0.0
  0
ARC
  5
54B
330
1F
100
AcDbEntity
  8
0
 62
     7
370
    60
100
AcDbCircle
 10
43.955353
 20
-13.71694745775252
 30
0.0
 40
12.497981
100
AcDbArc
 50
185.816499
 51
189.744049
  0
LWPOLYLINE
  5
54C
330
1F
100
AcDbEntity
  8
0
 62
     7
370
    60
100
AcDbPolyline
 90
        6
 70
     0
 43
0.0
 10
46.869202
 20
-29.58438645775252
 10
46.293243
 20
-29.53371945775252
 10
45.719299
 20
-29.46313245775252
 10
45.14856
 20
-29.37277745775252
 10
44.581329
 20
-29.26270845775252
 10
43.882538
 20
-29.09869945775252
  0
LWPOLYLINE
  5
554
330
1F
100
AcDbEntity
  8
0
 62
     7
370
    60
100
AcDbPolyline
 90
        5
 70
     0
 43
0.0
 10
35.864685
 20
-24.33812445775252
 10
35.106964
 20
-23.46809145775252
 10
34.411591
 20
-22.54794845775252
 10
33.781921
 20
-21.58218145775252
 10
33.439514
 20
-20.98748545775252
  0
ARC
  5
55B
330
1F
100
AcDbEntity
  8
0
 62
     7
370
    60
100
AcDbCircle
 10
214.015717
 20
-24.50051645775252
 30
0.0
 40
4.17962
100
AcDbArc
 50
284.920466
 51
287.132656
  0
ARC
  5
588
330
1F
100
AcDbEntity
  8
0
 62
     7
370
    60
100
AcDbCircle
 10
213.805695
 20
202.1439005422475
 30
0.0
 40
4.151597
100
AcDbArc
 50
86.909957
 51
93.57917900000001
  0
LWPOLYLINE
  5
5A3
330
1F
100
AcDbEntity
  8
0
 62
     7
370
    60
100
AcDbPolyline
 90
       26
 70
     0
 43
0.0
 10
218.773727
 20
45.76798454224749
 10
218.763718
 20
46.08434554224748
 10
218.733704
 20
46.39942354224748
 10
218.683823
 20
46.71195454224748
 10
218.614273
 20
47.02070854224748
 10
218.525314
 20
47.32442654224748
 10
218.417343
 20
47.62191254224749
 10
218.290756
 20
47.91195154224748
 10
218.146072
 20
48.19339954224748
 10
217.983871
 20
48.46512854224748
 10
217.80481
 20
48.72604554224748
 10
217.609604
 20
48.97510754224749
 10
217.399017
 20
49.21131354224748
 10
217.17392
 20
49.43371854224748
 10
216.935196
 20
49.64143554224748
 10
216.683807
 20
49.83363554224748
 10
216.420746
 20
50.00954654224748
 10
216.147095
 20
50.16845154224748
 10
215.863922
 20
50.30973254224749
 10
215.572372
 20
50.43281754224748
 10
215.273621
 20
50.53721054224748
 10
214.968857
 20
50.62249254224749
 10
214.659302
 20
50.68831854224749
 10
214.346176
 20
50.73443854224749
 10
214.030762
 20
50.76065254224748
 10
213.77449
 20
50.76722154224748
  0
LWPOLYLINE
  5
5BF
330
1F
100
AcDbEntity
  8
0
 62
     7
370
    60
100
AcDbPolyline
 90
       26
 70
     0
 43
0.0
 10
213.77449
 20
126.8308505422475
 10
214.090851
 20
126.8408605422475
 10
214.40593
 20
126.8708745422475
 10
214.71846
 20
126.9207555422475
 10
215.027222
 20
126.9903055422475
 10
215.330933
 20
127.0792485422475
 10
215.628418
 20
127.1872355422475
 10
215.918457
 20
127.3138225422475
 10
216.199905
 20
127.4585055422475
 10
216.471634
 20
127.6207065422475
 10
216.732544
 20
127.7997685422475
 10
216.981613
 20
127.9949745422475
 10
217.217819
 20
128.2055615422475
 10
217.440231
 20
128.4306585422475
 10
217.647949
 20
128.6693825422475
 10
217.840134
 20
128.9207705422475
 10
218.016052
 20
129.1838325422475
 10
218.174957
 20
129.4574835422475
 10
218.316238
 20
129.7406565422475
 10
218.439316
 20
130.0322055422475
 10
218.543716
 20
130.3309575422475
 10
218.628998
 20
130.6357215422475
 10
218.694824
 20
130.9452765422475
 10
218.740952
 20
131.2584025422475
 10
218.767166
 20
131.5738165422475
 10
218.773727
 20
131.8300875422475
  0
LINE
  5
5DD
330
1F
100
AcDbEntity
  8
0
 62
     7
 48
0.030355
370
    60
100
AcDbLine
 10
213.1158615024439
 20
51.22107531971707
 30
0.0
 11
212.987869
 21
49.98059354224748
 31
0.0
  0
LINE
  5
5DE
330
1F
100
AcDbEntity
  8
0
 62
     7
 48
0.030355
370
    60
100
AcDbLine
 10
213.0056457300266
 20
125.2170123918177
 30
0.0
 11
212.987854
 21
127.6174875422475
 31
0.0
  0
LINE
  5
5DF
330
1F
100
AcDbEntity
  8
0
 62
     7
 48
0.017153
370
    60
100
AcDbLine
 10
213.160797
 20
126.5240275422475
 30
0.0
 11
213.77449
 21
126.8308505422475
 31
0.0
  0
LINE
  5
5E0
330
1F
100
AcDbEntity
  8
0
 62
     7
 48
0.017153
370
    60
100
AcDbLine
 10
213.160797
 20
51.07404554224749
 30
0.0
 11
213.77449
 21
50.76722154224748
 31
0.0
  0
LINE
  5
5E1
330
1F
100
AcDbEntity
  8
0
 62
     7
 48
0.037991
370
    60
100
AcDbLine
 10
19.975861
 20
-2.794233457752519
 30
0.0
 11
21.495483
 21
-2.794233457752519
 31
0.0
  0
LINE
  5
5E2
330
1F
100
AcDbEntity
  8
0
 62
     7
 48
0.075
370
    60
100
AcDbLine
 10
19.975861
 20
-2.794233457752519
 30
0.0
 11
19.975861
 21
0.2057665422474813
 31
0.0
  0
LINE
  5
603
330
1F
100
AcDbEntity
  8
0
 62
     7
 48
0.080129
370
    60
100
AcDbLine
 10
28.530548
 20
-2.794233457752519
 30
0.0
 11
30.975861
 21
-2.794233457752519
 31
0.0
  0
LINE
  5
604
330
1F
100
AcDbEntity
  8
0
 62
     7
 48
0.022932
370
    60
100
AcDbLine
 10
21.495483
 20
-1.294233457752519
 30
0.0
 11
22.41275
 21
-1.294233457752519
 31
0.0
  0
LINE
  5
605
330
1F
100
AcDbEntity
  8
0
 62
     7
 48
0.152945
370
    60
100
AcDbLine
 10
22.41275
 20
-1.294233457752519
 30
0.0
 11
28.530548
 21
-1.294233457752519
 31
0.0
  0
LINE
  5
606
330
1F
100
AcDbEntity
  8
0
 62
     7
 48
0.060922
370
    60
100
AcDbLine
 10
19.975861
 20
0.2057665422474813
 30
0.0
 11
22.41275
 21
0.2057665422474813
 31
0.0
  0
LINE
  5
607
330
1F
100
AcDbEntity
  8
0
 62
     7
 48
0.231226
370
    60
100
AcDbLine
 10
22.41275
 20
0.2057665422474813
 30
0.0
 11
30.975861
 21
0.2057665422474813
 31
0.0
  0
LINE
  5
608
330
1F
100
AcDbEntity
  8
0
 62
     7
 48
0.020992
370
    60
100
AcDbLine
 10
21.578003
 20
-2.794233457752519
 30
0.0
 11
22.417694
 21
-2.794233457752519
 31
0.0
  0
LINE
  5
609
330
1F
100
AcDbEntity
  8
0
 62
     7
 48
0.0375
370
    60
100
AcDbLine
 10
22.417694
 20
-2.794233457752519
 30
0.0
 11
22.417694
 21
-1.294233457752519
 31
0.0
  0
LINE
  5
60A
330
1F
100
AcDbEntity
  8
0
 62
     7
 48
0.006241
370
    60
100
AcDbLine
 10
22.476227
 20
-2.794233457752519
 30
0.0
 11
22.725861
 21
-2.794233457752519
 31
0.0
  0
LINE
  5
60B
330
1F
100
AcDbEntity
  8
0
 62
     7
 48
0.0375
370
    60
100
AcDbLine
 10
22.476227
 20
-2.794233457752519
 30
0.0
 11
22.476227
 21
-1.294233457752519
 31
0.0
  0
LINE
  5
60C
330
1F
100
AcDbEntity
  8
0
 62
     7
 48
0.00624
370
    60
100
AcDbLine
 10
27.225861
 20
-2.794233457752519
 30
0.0
 11
27.475464
 21
-2.794233457752519
 31
0.0
  0
LINE
  5
60D
330
1F
100
AcDbEntity
  8
0
 62
     7
 48
0.0375
370
    60
100
AcDbLine
 10
27.475464
 20
-2.794233457752519
 30
0.0
 11
27.475464
 21
-1.294233457752519
 31
0.0
  0
LINE
  5
60E
330
1F
100
AcDbEntity
  8
0
 62
     7
 48
0.020992
370
    60
100
AcDbLine
 10
27.534027
 20
-2.794233457752519
 30
0.0
 11
28.373718
 21
-2.794233457752519
 31
0.0
  0
LINE
  5
60F
330
1F
100
AcDbEntity
  8
0
 62
     7
 48
0.0375
370
    60
100
AcDbLine
 10
27.534027
 20
-2.794233457752519
 30
0.0
 11
27.534027
 21
-1.294233457752519
 31
0.0
  0
LINE
  5
610
330
1F
100
AcDbEntity
  8
0
 62
     7
 48
0.003921
370
    60
100
AcDbLine
 10
28.373718
 20
-2.794233457752519
 30
0.0
 11
28.530548
 21
-2.794233457752519
 31
0.0
  0
LINE
  5
611
330
1F
100
AcDbEntity
  8
0
 62
     7
 48
0.0375
370
    60
100
AcDbLine
 10
28.530548
 20
-2.794233457752519
 30
0.0
 11
28.530548
 21
-1.294233457752519
 31
0.0
  0
LINE
  5
612
330
1F
100
AcDbEntity
  8
0
 62
     7
 48
0.0375
370
    60
100
AcDbLine
 10
28.373718
 20
-2.794233457752519
 30
0.0
 11
28.373718
 21
-1.294233457752519
 31
0.0
  0
LINE
  5
613
330
1F
100
AcDbEntity
  8
0
 62
     7
 48
0.0375
370
    60
100
AcDbLine
 10
21.495483
 20
-2.794233457752519
 30
0.0
 11
21.495483
 21
-1.294233457752519
 31
0.0
  0
LINE
  5
614
330
1F
100
AcDbEntity
  8
0
 62
     7
 48
0.0375
370
    60
100
AcDbLine
 10
21.578003
 20
-2.794233457752519
 30
0.0
 11
21.578003
 21
-1.294233457752519
 31
0.0
  0
LINE
  5
615
330
1F
100
AcDbEntity
  8
0
 62
     7
 48
0.060922
370
    60
100
AcDbLine
 10
19.975861
 20
125.0923105422475
 30
0.0
 11
22.41275
 21
125.0923105422475
 31
0.0
  0
LINE
  5
616
330
1F
100
AcDbEntity
  8
0
 62
     7
 48
0.037991
370
    60
100
AcDbLine
 10
19.975861
 20
128.0923105422475
 30
0.0
 11
21.495483
 21
128.0923105422475
 31
0.0
  0
LINE
  5
627
330
1F
100
AcDbEntity
  8
0
 62
     7
 48
0.231226
370
    60
100
AcDbLine
 10
22.41275
 20
125.0923105422475
 30
0.0
 11
30.975861
 21
125.0860545422475
 31
0.0
  0
LINE
  5
628
330
1F
100
AcDbEntity
  8
0
 62
     7
 48
0.078683
370
    60
100
AcDbLine
 10
28.530548
 20
128.0923105422475
 30
0.0
 11
31.1788519253472
 21
128.0923105422475
 31
0.0
  0
LINE
  5
629
330
1F
100
AcDbEntity
  8
0
 62
     7
 48
0.022932
370
    60
100
AcDbLine
 10
21.495483
 20
126.5923105422475
 30
0.0
 11
22.41275
 21
126.5923105422475
 31
0.0
  0
LINE
  5
62A
330
1F
100
AcDbEntity
  8
0
 62
     7
 48
0.152945
370
    60
100
AcDbLine
 10
22.41275
 20
126.5923105422475
 30
0.0
 11
28.530548
 21
126.5923105422475
 31
0.0
  0
LINE
  5
62B
330
1F
100
AcDbEntity
  8
0
 62
     7
 48
0.0375
370
    60
100
AcDbLine
 10
21.495483
 20
126.5923105422475
 30
0.0
 11
21.495483
 21
128.0923105422475
 31
0.0
  0
LINE
  5
62C
330
1F
100
AcDbEntity
  8
0
 62
     7
 48
0.003921
370
    60
100
AcDbLine
 10
28.373718
 20
128.0923105422475
 30
0.0
 11
28.530548
 21
128.0923105422475
 31
0.0
  0
LINE
  5
62D
330
1F
100
AcDbEntity
  8
0
 62
     7
 48
0.0375
370
    60
100
AcDbLine
 10
28.530548
 20
126.5923105422475
 30
0.0
 11
28.530548
 21
128.0923105422475
 31
0.0
  0
LINE
  5
62E
330
1F
100
AcDbEntity
  8
0
 62
     7
 48
0.020992
370
    60
100
AcDbLine
 10
27.534027
 20
128.0923105422475
 30
0.0
 11
28.373718
 21
128.0923105422475
 31
0.0
  0
LINE
  5
62F
330
1F
100
AcDbEntity
  8
0
 62
     7
 48
0.0375
370
    60
100
AcDbLine
 10
28.373718
 20
126.5923105422475
 30
0.0
 11
28.373718
 21
128.0923105422475
 31
0.0
  0
LINE
  5
630
330
1F
100
AcDbEntity
  8
0
 62
     7
 48
0.0375
370
    60
100
AcDbLine
 10
27.534027
 20
126.5923105422475
 30
0.0
 11
27.534027
 21
128.0923105422475
 31
0.0
  0
LINE
  5
631
330
1F
100
AcDbEntity
  8
0
 62
     7
 48
0.00624
370
    60
100
AcDbLine
 10
27.225861
 20
128.0923105422475
 30
0.0
 11
27.475464
 21
128.0923105422475
 31
0.0
  0
LINE
  5
632
330
1F
100
AcDbEntity
  8
0
 62
     7
 48
0.0375
370
    60
100
AcDbLine
 10
27.475464
 20
126.5923105422475
 30
0.0
 11
27.475464
 21
128.0923105422475
 31
0.0
  0
LINE
  5
633
330
1F
100
AcDbEntity
  8
0
 62
     7
 48
0.006241
370
    60
100
AcDbLine
 10
22.476227
 20
128.0923105422475
 30
0.0
 11
22.725861
 21
128.0923105422475
 31
0.0
  0
LINE
  5
634
330
1F
100
AcDbEntity
  8
0
 62
     7
 48
0.0375
370
    60
100
AcDbLine
 10
22.476227
 20
126.5923105422475
 30
0.0
 11
22.476227
 21
128.0923105422475
 31
0.0
  0
LINE
  5
635
330
1F
100
AcDbEntity
  8
0
 62
     7
 48
0.020992
370
    60
100
AcDbLine
 10
21.578003
 20
128.0923105422475
 30
0.0
 11
22.417694
 21
128.0923105422475
 31
0.0
  0
LINE
  5
636
330
1F
100
AcDbEntity
  8
0
 62
     7
 48
0.0375
370
    60
100
AcDbLine
 10
21.578003
 20
126.5923105422475
 30
0.0
 11
21.578003
 21
128.0923105422475
 31
0.0
  0
LINE
  5
637
330
1F
100
AcDbEntity
  8
0
 62
     7
 48
0.0375
370
    60
100
AcDbLine
 10
22.417694
 20
126.5923105422475
 30
0.0
 11
22.417694
 21
128.0923105422475
 31
0.0
  0
LWPOLYLINE
  5
638
330
1F
100
AcDbEntity
  8
0
 62
     7
370
    60
100
AcDbPolyline
 90
       37
 70
     0
 43
0.0
 10
158.564743
 20
68.54903654224748
 10
158.616333
 20
67.33828154224749
 10
158.746048
 20
66.13314254224748
 10
158.953293
 20
64.93916554224748
 10
159.237152
 20
63.76165954224749
 10
159.596405
 20
62.60558554224748
 10
160.029602
 20
61.47556554224748
 10
160.535126
 20
60.37594054224748
 10
161.111115
 20
59.31085454224748
 10
161.755524
 20
58.28438054224748
 10
162.466049
 20
57.30059254224749
 10
163.240021
 20
56.36364254224748
 10
164.074326
 20
55.47780854224749
 10
164.546921
 20
55.02392054224748
 10
165.466949
 20
54.22514554224749
 10
166.440018
 20
53.48594154224749
 10
166.946167
 20
53.13910854224748
 10
167.464706
 20
52.80813054224748
 10
167.99408
 20
52.49407454224749
 10
168.536743
 20
52.19572654224748
 10
169.086533
 20
51.91653654224748
 10
169.651169
 20
51.65281854224749
 10
169.999237
 20
51.50139054224748
 10
170.573746
 20
51.26932754224748
 10
171.166245
 20
51.05238554224748
 10
171.760162
 20
50.85682154224749
 10
172.375351
 20
50.67650854224749
 10
172.985413
 20
50.51935054224748
 10
173.620193
 20
50.37810754224748
 10
173.701859
 20
50.36155154224748
 10
174.324066
 20
50.24741554224748
 10
174.972305
 20
50.15055354224748
 10
175.604584
 20
50.07726554224749
 10
176.257751
 20
50.02323354224748
 10
176.891617
 20
49.99170954224748
 10
177.542267
 20
49.98060054224749
 10
177.555542
 20
49.98059354224748
  0
LWPOLYLINE
  5
65F
330
1F
100
AcDbEntity
  8
0
 62
     7
370
    60
100
AcDbPolyline
 90
        6
 70
     0
 43
0.0
 10
158.564865
 20
109.0606335422475
 10
158.485336
 20
97.34562154224749
 10
158.474319
 20
83.99962854224748
 10
158.498169
 20
77.38208954224748
 10
158.541016
 20
71.08662654224749
 10
158.564743
 20
68.54903654224748
  0
LWPOLYLINE
  5
667
330
1F
100
AcDbEntity
  8
0
 62
     7
370
    60
100
AcDbPolyline
 90
       18
 70
     0
 43
0.0
 10
177.555542
 20
127.6174875422475
 10
176.329193
 20
127.5793705422475
 10
175.11319
 20
127.4656775422475
 10
173.915115
 20
127.2778575422475
 10
173.606247
 20
127.2169445422475
 10
172.425842
 20
126.9355105422475
 10
171.272324
 20
126.5821935422475
 10
170.138321
 20
126.1545665422475
 10
169.727463
 20
125.9788765422475
 10
168.628403
 20
125.4505565422475
 10
167.568329
 20
124.8535105422475
 10
166.546036
 20
124.1867925422475
 10
165.564774
 20
123.4516395422475
 10
165.092194
 20
123.0600685422475
 10
164.631699
 20
122.6523075422475
 10
164.187897
 20
122.2324165422475
 10
163.756607
 20
121.7962595422475
 10
163.63089
 20
121.6634465422475
  0
LWPOLYLINE
  5
67B
330
1F
100
AcDbEntity
  8
0
 62
     7
370
    60
100
AcDbPolyline
 90
       24
 70
     0
 43
0.0
 10
163.63089
 20
121.6634465422475
 10
163.211929
 20
121.2015025422475
 10
162.806061
 20
120.7234295422475
 10
162.422623
 20
120.2403965422475
 10
162.052704
 20
119.7414035422475
 10
161.703812
 20
119.2367345422475
 10
161.369034
 20
118.7164715422475
 10
161.054718
 20
118.1905465422475
 10
160.755234
 20
117.6495155422475
 10
160.476166
 20
117.1034945422475
 10
160.212708
 20
116.5430395422475
 10
159.96991
 20
115.9788005422475
 10
159.743546
 20
115.4009195422475
 10
159.538147
 20
114.8209025422475
 10
159.350021
 20
114.2281895422475
 10
159.183151
 20
113.6352795422475
 10
159.034332
 20
113.0307105422475
 10
158.906937
 20
112.4280495422475
 10
158.79834
 20
111.8148595422475
 10
158.711105
 20
111.2056835422475
 10
158.643356
 20
110.5871835422475
 10
158.596741
 20
109.9746805422475
 10
158.57019
 20
109.3540745422475
 10
158.564865
 20
109.0606335422475
  0
LINE
  5
695
330
1F
100
AcDbEntity
  8
0
 62
     7
370
    60
100
AcDbLine
 10
177.555542
 20
127.6174875422475
 30
0.0
 11
212.987854
 21
127.6174875422475
 31
0.0
  0
LINE
  5
696
330
1F
100
AcDbEntity
  8
0
 62
     7
370
    60
100
AcDbLine
 10
83.852936
 20
61.20832254224749
 30
0.0
 11
83.852936
 21
116.5568035422475
 31
0.0
  0
ARC
  5
697
330
1F
100
AcDbEntity
  8
0
 62
     7
370
    60
100
AcDbCircle
 10
81.602936
 20
116.5568035422475
 30
0.0
 40
2.25
100
AcDbArc
 50
0.0
 51
90.00000299999999
  0
ARC
  5
698
330
1F
100
AcDbEntity
  8
0
 62
     7
370
    60
100
AcDbCircle
 10
81.602936
 20
116.5568035422475
 30
0.0
 40
2.25
100
AcDbArc
 50
90.00000299999999
 51
180.000005
  0
LINE
  5
699
330
1F
100
AcDbEntity
  8
0
 62
     7
370
    60
100
AcDbLine
 10
79.352936
 20
61.20832254224749
 30
0.0
 11
79.352936
 21
116.5568035422475
 31
0.0
  0
ARC
  5
69A
330
1F
100
AcDbEntity
  8
0
 62
     7
370
    60
100
AcDbCircle
 10
81.602936
 20
61.20832254224749
 30
0.0
 40
2.25
100
AcDbArc
 50
180.000005
 51
270.000001
  0
ARC
  5
69B
330
1F
100
AcDbEntity
  8
0
 62
     7
370
    60
100
AcDbCircle
 10
81.602936
 20
61.20832254224749
 30
0.0
 40
2.25
100
AcDbArc
 50
270.000001
 51
0.0
  0
LINE
  5
69C
330
1F
100
AcDbEntity
  8
0
 62
     7
370
    60
100
AcDbLine
 10
177.555542
 20
49.98059354224748
 30
0.0
 11
212.987869
 21
49.98059354224748
 31
0.0
  0
LINE
  5
69D
330
1F
100
AcDbEntity
  8
0
 62
     7
 48
0.123691
370
    60
100
AcDbLine
 10
134.374191
 20
111.9037725422475
 30
0.0
 11
139.321823
 21
111.9037725422475
 31
0.0
  0
LINE
  5
69E
330
1F
100
AcDbEntity
  8
0
 62
     7
 48
0.005
370
    60
100
AcDbLine
 10
133.778107
 20
111.6025035422475
 30
0.0
 11
133.78154
 21
111.8024695422475
 31
0.0
  0
LINE
  5
69F
330
1F
100
AcDbEntity
  8
0
 62
     7
 48
0.02009
370
    60
100
AcDbLine
 10
133.778107
 20
110.7988835422475
 30
0.0
 11
133.778107
 21
111.6025035422475
 31
0.0
  0
LINE
  5
6A0
330
1F
100
AcDbEntity
  8
0
 62
     7
 48
0.003278
370
    60
100
AcDbLine
 10
133.78154
 20
111.8024695422475
 30
0.0
 11
133.874268
 21
111.8951975422475
 31
0.0
  0
LINE
  5
6A1
330
1F
100
AcDbEntity
  8
0
 62
     7
 48
0.153495
370
    60
100
AcDbLine
 10
133.778107
 20
110.7988835422475
 30
0.0
 11
139.917908
 21
110.7988835422475
 31
0.0
  0
LINE
  5
6A2
330
1F
100
AcDbEntity
  8
0
 62
     7
 48
0.005
370
    60
100
AcDbLine
 10
139.914474
 20
111.8024695422475
 30
0.0
 11
139.917908
 21
111.6025035422475
 31
0.0
  0
LINE
  5
6A3
330
1F
100
AcDbEntity
  8
0
 62
     7
 48
0.02009
370
    60
100
AcDbLine
 10
139.917908
 20
110.7988835422475
 30
0.0
 11
139.917908
 21
111.6025035422475
 31
0.0
  0
LINE
  5
6A4
330
1F
100
AcDbEntity
  8
0
 62
     7
 48
0.003278
370
    60
100
AcDbLine
 10
139.821747
 20
111.8951975422475
 30
0.0
 11
139.914474
 21
111.8024695422475
 31
0.0
  0
LINE
  5
6A5
330
1F
100
AcDbEntity
  8
0
 62
     7
 48
0.0125
370
    60
100
AcDbLine
 10
133.874268
 20
111.8951975422475
 30
0.0
 11
134.374191
 21
111.9037725422475
 31
0.0
  0
LINE
  5
6A6
330
1F
100
AcDbEntity
  8
0
 62
     7
 48
0.0125
370
    60
100
AcDbLine
 10
139.321823
 20
111.9037725422475
 30
0.0
 11
139.821747
 21
111.8951975422475
 31
0.0
  0
LINE
  5
6A7
330
1F
100
AcDbEntity
  8
0
 62
     7
 48
0.123692
370
    60
100
AcDbLine
 10
111.874176
 20
111.9037725422475
 30
0.0
 11
116.821838
 21
111.9037725422475
 31
0.0
  0
LINE
  5
6A8
330
1F
100
AcDbEntity
  8
0
 62
     7
 48
0.005
370
    60
100
AcDbLine
 10
111.278107
 20
111.6025035422475
 30
0.0
 11
111.281555
 21
111.8024695422475
 31
0.0
  0
LINE
  5
6A9
330
1F
100
AcDbEntity
  8
0
 62
     7
 48
0.02009
370
    60
100
AcDbLine
 10
111.278107
 20
110.7988835422475
 30
0.0
 11
111.278107
 21
111.6025035422475
 31
0.0
  0
LINE
  5
6AA
330
1F
100
AcDbEntity
  8
0
 62
     7
 48
0.003278
370
    60
100
AcDbLine
 10
111.281555
 20
111.8024695422475
 30
0.0
 11
111.374268
 21
111.8951975422475
 31
0.0
  0
LINE
  5
6AB
330
1F
100
AcDbEntity
  8
0
 62
     7
 48
0.153495
370
    60
100
AcDbLine
 10
111.278107
 20
110.7988835422475
 30
0.0
 11
117.417908
 21
110.7988835422475
 31
0.0
  0
LINE
  5
6AC
330
1F
100
AcDbEntity
  8
0
 62
     7
 48
0.005
370
    60
100
AcDbLine
 10
117.414459
 20
111.8024695422475
 30
0.0
 11
117.417908
 21
111.6025035422475
 31
0.0
  0
LINE
  5
6AD
330
1F
100
AcDbEntity
  8
0
 62
     7
 48
0.02009
370
    60
100
AcDbLine
 10
117.417908
 20
110.7988835422475
 30
0.0
 11
117.417908
 21
111.6025035422475
 31
0.0
  0
LINE
  5
6AE
330
1F
100
AcDbEntity
  8
0
 62
     7
 48
0.003278
370
    60
100
AcDbLine
 10
117.321747
 20
111.8951975422475
 30
0.0
 11
117.414459
 21
111.8024695422475
 31
0.0
  0
LINE
  5
6AF
330
1F
100
AcDbEntity
  8
0
 62
     7
 48
0.0125
370
    60
100
AcDbLine
 10
111.374268
 20
111.8951975422475
 30
0.0
 11
111.874176
 21
111.9037725422475
 31
0.0
  0
LINE
  5
6B0
330
1F
100
AcDbEntity
  8
0
 62
     7
 48
0.0125
370
    60
100
AcDbLine
 10
116.821838
 20
111.9037725422475
 30
0.0
 11
117.321747
 21
111.8951975422475
 31
0.0
  0
LINE
  5
6B1
330
1F
100
AcDbEntity
  8
0
 62
     7
 48
0.123692
370
    60
100
AcDbLine
 10
123.124176
 20
111.9037725422475
 30
0.0
 11
128.071838
 21
111.9037725422475
 31
0.0
  0
LINE
  5
6B2
330
1F
100
AcDbEntity
  8
0
 62
     7
 48
0.005
370
    60
100
AcDbLine
 10
128.664459
 20
111.8024695422475
 30
0.0
 11
128.667908
 21
111.6025035422475
 31
0.0
  0
LINE
  5
6B3
330
1F
100
AcDbEntity
  8
0
 62
     7
 48
0.02009
370
    60
100
AcDbLine
 10
128.667908
 20
110.7988835422475
 30
0.0
 11
128.667908
 21
111.6025035422475
 31
0.0
  0
LINE
  5
6B4
330
1F
100
AcDbEntity
  8
0
 62
     7
 48
0.003278
370
    60
100
AcDbLine
 10
128.571747
 20
111.8951975422475
 30
0.0
 11
128.664459
 21
111.8024695422475
 31
0.0
  0
LINE
  5
6B5
330
1F
100
AcDbEntity
  8
0
 62
     7
 48
0.005
370
    60
100
AcDbLine
 10
122.528107
 20
111.6025035422475
 30
0.0
 11
122.531555
 21
111.8024695422475
 31
0.0
  0
LINE
  5
6B6
330
1F
100
AcDbEntity
  8
0
 62
     7
 48
0.02009
370
    60
100
AcDbLine
 10
122.528107
 20
110.7988835422475
 30
0.0
 11
122.528107
 21
111.6025035422475
 31
0.0
  0
LINE
  5
6B7
330
1F
100
AcDbEntity
  8
0
 62
     7
 48
0.003278
370
    60
100
AcDbLine
 10
122.531555
 20
111.8024695422475
 30
0.0
 11
122.624268
 21
111.8951975422475
 31
0.0
  0
LINE
  5
6B8
330
1F
100
AcDbEntity
  8
0
 62
     7
 48
0.0125
370
    60
100
AcDbLine
 10
128.071838
 20
111.9037725422475
 30
0.0
 11
128.571747
 21
111.8951975422475
 31
0.0
  0
LINE
  5
6B9
330
1F
100
AcDbEntity
  8
0
 62
     7
 48
0.0125
370
    60
100
AcDbLine
 10
122.624268
 20
111.8951975422475
 30
0.0
 11
123.124176
 21
111.9037725422475
 31
0.0
  0
LINE
  5
6BA
330
1F
100
AcDbEntity
  8
0
 62
     7
 48
0.123691
370
    60
100
AcDbLine
 10
134.374191
 20
65.69430754224749
 30
0.0
 11
139.321823
 21
65.69430754224749
 31
0.0
  0
LINE
  5
6BB
330
1F
100
AcDbEntity
  8
0
 62
     7
 48
0.005
370
    60
100
AcDbLine
 10
133.778107
 20
65.99557754224749
 30
0.0
 11
133.78154
 21
65.79560354224748
 31
0.0
  0
LINE
  5
6BC
330
1F
100
AcDbEntity
  8
0
 62
     7
 48
0.02009
370
    60
100
AcDbLine
 10
133.778107
 20
65.99557754224749
 30
0.0
 11
133.778107
 21
66.79918854224748
 31
0.0
  0
LINE
  5
6BD
330
1F
100
AcDbEntity
  8
0
 62
     7
 48
0.003278
370
    60
100
AcDbLine
 10
133.78154
 20
65.79560354224748
 30
0.0
 11
133.874268
 21
65.70288354224748
 31
0.0
  0
LINE
  5
6BE
330
1F
100
AcDbEntity
  8
0
 62
     7
 48
0.153495
370
    60
100
AcDbLine
 10
133.778107
 20
66.79918854224748
 30
0.0
 11
139.917908
 21
66.79918854224748
 31
0.0
  0
LINE
  5
6BF
330
1F
100
AcDbEntity
  8
0
 62
     7
 48
0.005
370
    60
100
AcDbLine
 10
139.914474
 20
65.79560354224748
 30
0.0
 11
139.917908
 21
65.99557754224749
 31
0.0
  0
LINE
  5
6C0
330
1F
100
AcDbEntity
  8
0
 62
     7
 48
0.02009
370
    60
100
AcDbLine
 10
139.917908
 20
65.99557754224749
 30
0.0
 11
139.917908
 21
66.79918854224748
 31
0.0
  0
LINE
  5
6C1
330
1F
100
AcDbEntity
  8
0
 62
     7
 48
0.003278
370
    60
100
AcDbLine
 10
139.821747
 20
65.70288354224748
 30
0.0
 11
139.914474
 21
65.79560354224748
 31
0.0
  0
LINE
  5
6C2
330
1F
100
AcDbEntity
  8
0
 62
     7
 48
0.0125
370
    60
100
AcDbLine
 10
133.874268
 20
65.70288354224748
 30
0.0
 11
134.374191
 21
65.69430754224749
 31
0.0
  0
LINE
  5
6C3
330
1F
100
AcDbEntity
  8
0
 62
     7
 48
0.0125
370
    60
100
AcDbLine
 10
139.321823
 20
65.69430754224749
 30
0.0
 11
139.821747
 21
65.70288354224748
 31
0.0
  0
LINE
  5
6C4
330
1F
100
AcDbEntity
  8
0
 62
     7
 48
0.123692
370
    60
100
AcDbLine
 10
111.874176
 20
65.69430754224749
 30
0.0
 11
116.821838
 21
65.69430754224749
 31
0.0
  0
LINE
  5
6C5
330
1F
100
AcDbEntity
  8
0
 62
     7
 48
0.005
370
    60
100
AcDbLine
 10
111.278107
 20
65.99557754224749
 30
0.0
 11
111.281555
 21
65.79560354224748
 31
0.0
  0
LINE
  5
6C6
330
1F
100
AcDbEntity
  8
0
 62
     7
 48
0.02009
370
    60
100
AcDbLine
 10
111.278107
 20
65.99557754224749
 30
0.0
 11
111.278107
 21
66.79918854224748
 31
0.0
  0
LINE
  5
6C7
330
1F
100
AcDbEntity
  8
0
 62
     7
 48
0.003278
370
    60
100
AcDbLine
 10
111.281555
 20
65.79560354224748
 30
0.0
 11
111.374268
 21
65.70288354224748
 31
0.0
  0
LINE
  5
6C8
330
1F
100
AcDbEntity
  8
0
 62
     7
 48
0.153495
370
    60
100
AcDbLine
 10
111.278107
 20
66.79918854224748
 30
0.0
 11
117.417908
 21
66.79918854224748
 31
0.0
  0
LINE
  5
6C9
330
1F
100
AcDbEntity
  8
0
 62
     7
 48
0.005
370
    60
100
AcDbLine
 10
117.414459
 20
65.79560354224748
 30
0.0
 11
117.417908
 21
65.99557754224749
 31
0.0
  0
LINE
  5
6CA
330
1F
100
AcDbEntity
  8
0
 62
     7
 48
0.02009
370
    60
100
AcDbLine
 10
117.417908
 20
65.99557754224749
 30
0.0
 11
117.417908
 21
66.79918854224748
 31
0.0
  0
LINE
  5
6CB
330
1F
100
AcDbEntity
  8
0
 62
     7
 48
0.003278
370
    60
100
AcDbLine
 10
117.321747
 20
65.70288354224748
 30
0.0
 11
117.414459
 21
65.79560354224748
 31
0.0
  0
LINE
  5
6CC
330
1F
100
AcDbEntity
  8
0
 62
     7
 48
0.0125
370
    60
100
AcDbLine
 10
111.374268
 20
65.70288354224748
 30
0.0
 11
111.874176
 21
65.69430754224749
 31
0.0
  0
LINE
  5
6CD
330
1F
100
AcDbEntity
  8
0
 62
     7
 48
0.0125
370
    60
100
AcDbLine
 10
116.821838
 20
65.69430754224749
 30
0.0
 11
117.321747
 21
65.70288354224748
 31
0.0
  0
LINE
  5
6CE
330
1F
100
AcDbEntity
  8
0
 62
     7
 48
0.123692
370
    60
100
AcDbLine
 10
123.124176
 20
65.69430754224749
 30
0.0
 11
128.071838
 21
65.69430754224749
 31
0.0
  0
LINE
  5
6CF
330
1F
100
AcDbEntity
  8
0
 62
     7
 48
0.005
370
    60
100
AcDbLine
 10
128.664459
 20
65.79560354224748
 30
0.0
 11
128.667908
 21
65.99557754224749
 31
0.0
  0
LINE
  5
6D0
330
1F
100
AcDbEntity
  8
0
 62
     7
 48
0.02009
370
    60
100
AcDbLine
 10
128.667908
 20
65.99557754224749
 30
0.0
 11
128.667908
 21
66.79918854224748
 31
0.0
  0
LINE
  5
6D1
330
1F
100
AcDbEntity
  8
0
 62
     7
 48
0.003278
370
    60
100
AcDbLine
 10
128.571747
 20
65.70288354224748
 30
0.0
 11
128.664459
 21
65.79560354224748
 31
0.0
  0
LINE
  5
6D2
330
1F
100
AcDbEntity
  8
0
 62
     7
 48
0.153495
370
    60
100
AcDbLine
 10
122.528107
 20
66.79918854224748
 30
0.0
 11
128.667908
 21
66.79918854224748
 31
0.0
  0
LINE
  5
6D3
330
1F
100
AcDbEntity
  8
0
 62
     7
 48
0.005
370
    60
100
AcDbLine
 10
122.528107
 20
65.99557754224749
 30
0.0
 11
122.531555
 21
65.79560354224748
 31
0.0
  0
LINE
  5
6D4
330
1F
100
AcDbEntity
  8
0
 62
     7
 48
0.02009
370
    60
100
AcDbLine
 10
122.528107
 20
65.99557754224749
 30
0.0
 11
122.528107
 21
66.79918854224748
 31
0.0
  0
LINE
  5
6D5
330
1F
100
AcDbEntity
  8
0
 62
     7
 48
0.003278
370
    60
100
AcDbLine
 10
122.531555
 20
65.79560354224748
 30
0.0
 11
122.624268
 21
65.70288354224748
 31
0.0
  0
LINE
  5
6D6
330
1F
100
AcDbEntity
  8
0
 62
     7
 48
0.0125
370
    60
100
AcDbLine
 10
128.071838
 20
65.69430754224749
 30
0.0
 11
128.571747
 21
65.70288354224748
 31
0.0
  0
LINE
  5
6D7
330
1F
100
AcDbEntity
  8
0
 62
     7
 48
0.0125
370
    60
100
AcDbLine
 10
122.624268
 20
65.70288354224748
 30
0.0
 11
123.124176
 21
65.69430754224749
 31
0.0
  0
LWPOLYLINE
  5
6E7
330
1F
100
AcDbEntity
  8
0
 62
     7
370
    60
100
AcDbPolyline
 90
       21
 70
     0
 43
0.0
 10
213.160797
 20
126.5240275422475
 10
213.150314
 20
126.5087535422475
 10
213.12709
 20
126.4407905422475
 10
213.06604
 20
126.0354715422475
 10
212.976089
 20
124.8164615422475
 10
212.860657
 20
122.0382635422475
 10
212.731766
 20
116.8462775422475
 10
212.611862
 20
108.6165715422475
 10
212.531265
 20
97.45496554224748
 10
212.517853
 20
84.56794154224748
 10
212.540466
 20
78.15132354224748
 10
212.582108
 20
72.05520854224748
 10
212.638107
 20
66.72983754224748
 10
212.708618
 20
62.00373354224749
 10
212.781723
 20
58.41913854224748
 10
212.863159
 20
55.48301154224748
 10
212.934647
 20
53.61028554224748
 10
213.009521
 20
52.23884854224748
 10
213.065414
 20
51.56838454224749
 10
213.122131
 20
51.17791254224748
 10
213.160797
 20
51.07404554224749
  0
LINE
  5
6FE
330
1F
100
AcDbEntity
  8
0
 62
     7
 48
0.036958
370
    60
100
AcDbLine
 10
218.293106
 20
23.74199854224748
 30
0.0
 11
219.771423
 21
23.74199854224748
 31
0.0
  0
LWPOLYLINE
  5
6FF
330
1F
100
AcDbEntity
  8
0
 62
     7
370
    60
100
AcDbPolyline
 90
       16
 70
     0
 43
0.0
 10
222.221298
 20
21.74230454224748
 10
222.166702
 20
21.95948254224749
 10
222.092896
 20
22.17090054224748
 10
222.000458
 20
22.37488054224748
 10
221.890121
 20
22.56976554224748
 10
221.762787
 20
22.75400054224748
 10
221.619461
 20
22.92610354224748
 10
221.461304
 20
23.08469654224749
 10
221.289581
 20
23.22850254224748
 10
221.105667
 20
23.35637154224748
 10
220.911041
 20
23.46727254224749
 10
220.707275
 20
23.56031254224748
 10
220.495987
 20
23.63474454224748
 10
220.27887
 20
23.68997454224748
 10
220.057693
 20
23.72555754224749
 10
219.771423
 20
23.74199854224748
  0
LINE
  5
711
330
1F
100
AcDbEntity
  8
0
 62
     7
 48
0.036958
370
    60
100
AcDbLine
 10
218.533112
 20
23.98200454224748
 30
0.0
 11
220.011444
 21
23.98200454224748
 31
0.0
  0
LWPOLYLINE
  5
712
330
1F
100
AcDbEntity
  8
0
 62
     7
370
    60
100
AcDbPolyline
 90
       12
 70
     0
 43
0.0
 10
222.017303
 20
22.97471854224748
 10
221.875641
 20
23.14820354224748
 10
221.719025
 20
23.30831354224748
 10
221.548706
 20
23.45376854224748
 10
221.366028
 20
23.58340654224748
 10
221.172485
 20
23.69617654224749
 10
220.96962
 20
23.79117854224748
 10
220.759064
 20
23.86764754224748
 10
220.542496
 20
23.92497454224748
 10
220.321671
 20
23.96268654224748
 10
220.098358
 20
23.98049354224748
 10
220.011444
 20
23.98200454224748
  0
LINE
  5
721
330
1F
100
AcDbEntity
  8
0
 62
     7
370
    60
100
AcDbLine
 10
222.511673
 20
0.565080542247486
 30
0.0
 11
222.511673
 21
21.48299654224748
 31
0.0
  0
LWPOLYLINE
  5
722
330
1F
100
AcDbEntity
  8
0
 62
     7
370
    60
100
AcDbPolyline
 90
        8
 70
     0
 43
0.0
 10
222.012085
 20
-0.9343394577525146
 10
222.138245
 20
-0.7493114577525191
 10
222.247345
 20
-0.5537314577525194
 10
222.338501
 20
-0.349164457752515
 10
222.410995
 20
-0.137258457752516
 10
222.464218
 20
0.0802935422474818
 10
222.497757
 20
0.3017445422474836
 10
222.511673
 20
0.565080542247486
  0
LWPOLYLINE
  5
72C
330
1F
100
AcDbEntity
  8
0
 62
     7
370
    60
100
AcDbPolyline
 90
        8
 70
     0
 43
0.0
 10
222.511673
 20
21.48299654224748
 10
222.501633
 20
21.70676654224749
 10
222.471619
 20
21.92872854224748
 10
222.421844
 20
22.14710454224748
 10
222.352737
 20
22.36014754224748
 10
222.264847
 20
22.56614154224749
 10
222.158859
 20
22.76343754224748
 10
222.017639
 20
22.97497054224748
  0
LWPOLYLINE
  5
738
330
1F
100
AcDbEntity
  8
0
 62
     7
370
    60
100
AcDbPolyline
 90
        3
 70
     0
 43
0.0
 10
222.221298
 20
0.3057735422474792
 10
222.243637
 20
0.4318645422474816
 10
222.259506
 20
0.5589315422474854
  0
LWPOLYLINE
  5
73E
330
1F
100
AcDbEntity
  8
0
 62
     7
370
    60
100
AcDbPolyline
 90
        3
 70
     0
 43
0.0
 10
222.259506
 20
21.48913754224748
 10
222.243637
 20
21.61621354224749
 10
222.221298
 20
21.74230454224748
  0
LINE
  5
743
330
1F
100
AcDbEntity
  8
0
 62
     7
 48
0.036958
370
    60
100
AcDbLine
 10
218.293106
 20
-1.693921457752516
 30
0.0
 11
219.771423
 21
-1.693921457752516
 31
0.0
  0
LWPOLYLINE
  5
744
330
1F
100
AcDbEntity
  8
0
 62
     7
370
    60
100
AcDbPolyline
 90
       16
 70
     0
 43
0.0
 10
219.771423
 20
-1.693921457752516
 10
219.995239
 20
-1.683889457752514
 10
220.217239
 20
-1.653867457752519
 10
220.435669
 20
-1.604108457752517
 10
220.648773
 20
-1.53499345775252
 10
220.854813
 20
-1.447095457752518
 10
221.05217
 20
-1.341115457752515
 10
221.239243
 20
-1.217900457752521
 10
221.41452
 20
-1.07844345775252
 10
221.576614
 20
-0.923864457752515
 10
221.724228
 20
-0.7553994577525174
 10
221.85614
 20
-0.5744144577525176
 10
221.971344
 20
-0.3823444577525166
 10
222.068863
 20
-0.1807534577525161
 10
222.147964
 20
0.0287575422474831
 10
222.221298
 20
0.3057735422474792
  0
LINE
  5
756
330
1F
100
AcDbEntity
  8
0
 62
     7
 48
0.036958
370
    60
100
AcDbLine
 10
218.533112
 20
-1.933934457752514
 30
0.0
 11
220.011444
 21
-1.933934457752514
 31
0.0
  0
LWPOLYLINE
  5
757
330
1F
100
AcDbEntity
  8
0
 62
     7
370
    60
100
AcDbPolyline
 90
       12
 70
     0
 43
0.0
 10
220.011444
 20
-1.933934457752514
 10
220.235245
 20
-1.923902457752519
 10
220.457245
 20
-1.893880457752516
 10
220.675674
 20
-1.84411345775252
 10
220.888779
 20
-1.775006457752518
 10
221.094833
 20
-1.687108457752515
 10
221.292175
 20
-1.581121457752516
 10
221.479248
 20
-1.457906457752514
 10
221.654541
 20
-1.318448457752517
 10
221.81662
 20
-1.163869457752519
 10
221.964233
 20
-0.9954044577525138
 10
222.011734
 20
-0.9340874577525184
  0
LWPOLYLINE
  5
774
330
1F
100
AcDbEntity
  8
0
 62
     7
370
    60
100
AcDbPolyline
 90
        6
 70
     0
 43
0.0
 10
213.822296
 20
-28.70890545775252
 10
214.14032
 20
-28.69708045775252
 10
214.456833
 20
-28.66526545775252
 10
214.770462
 20
-28.61362245775252
 10
215.080063
 20
-28.54234045775252
 10
215.091873
 20
-28.53921245775252
  0
LINE
  5
77C
330
1F
100
AcDbEntity
  8
0
 62
     7
 48
0.036958
370
    60
100
AcDbLine
 10
218.293106
 20
179.2716015422475
 30
0.0
 11
219.771423
 21
179.2716015422475
 31
0.0
  0
LWPOLYLINE
  5
77D
330
1F
100
AcDbEntity
  8
0
 62
     7
370
    60
100
AcDbPolyline
 90
       16
 70
     0
 43
0.0
 10
222.221298
 20
177.2719065422475
 10
222.166702
 20
177.4890995422475
 10
222.092896
 20
177.7005255422475
 10
222.000458
 20
177.9045055422475
 10
221.890121
 20
178.0993905422475
 10
221.762787
 20
178.2836245422475
 10
221.619461
 20
178.4557135422475
 10
221.461304
 20
178.6143135422475
 10
221.289581
 20
178.7581125422475
 10
221.105667
 20
178.8859805422475
 10
220.911041
 20
178.9968815422475
 10
220.707275
 20
179.0899295422475
 10
220.495987
 20
179.1643625422475
 10
220.27887
 20
179.2195995422475
 10
220.057693
 20
179.2551825422475
 10
219.771423
 20
179.2716015422475
  0
LINE
  5
78F
330
1F
100
AcDbEntity
  8
0
 62
     7
 48
0.036958
370
    60
100
AcDbLine
 10
218.533112
 20
179.5116215422475
 30
0.0
 11
220.011444
 21
179.5116215422475
 31
0.0
  0
LWPOLYLINE
  5
790
330
1F
100
AcDbEntity
  8
0
 62
     7
370
    60
100
AcDbPolyline
 90
       12
 70
     0
 43
0.0
 10
222.017303
 20
178.5043285422475
 10
221.875641
 20
178.6778205422475
 10
221.719025
 20
178.8379155422475
 10
221.548706
 20
178.9833935422475
 10
221.366028
 20
179.1130165422475
 10
221.172485
 20
179.2257945422475
 10
220.96962
 20
179.3207955422475
 10
220.759064
 20
179.3972725422475
 10
220.542496
 20
179.4545845422475
 10
220.321671
 20
179.4923045422475
 10
220.098358
 20
179.5101115422475
 10
220.011444
 20
179.5116215422475
  0
LINE
  5
79F
330
1F
100
AcDbEntity
  8
0
 62
     7
370
    60
100
AcDbLine
 10
222.511673
 20
156.0946905422475
 30
0.0
 11
222.511673
 21
177.0126135422475
 31
0.0
  0
LWPOLYLINE
  5
7A0
330
1F
100
AcDbEntity
  8
0
 62
     7
370
    60
100
AcDbPolyline
 90
        8
 70
     0
 43
0.0
 10
222.016968
 20
154.6018165422475
 10
222.142532
 20
154.7872565422475
 10
222.250992
 20
154.9831795422475
 10
222.341476
 20
155.1880435422475
 10
222.413269
 20
155.4002025422475
 10
222.46579
 20
155.6179145422475
 10
222.498611
 20
155.8394725422475
 10
222.511673
 20
156.0946905422475
  0
LWPOLYLINE
  5
7AA
330
1F
100
AcDbEntity
  8
0
 62
     7
370
    60
100
AcDbPolyline
 90
        8
 70
     0
 43
0.0
 10
222.511673
 20
177.0126135422475
 10
222.501633
 20
177.2363835422475
 10
222.471619
 20
177.4583385422475
 10
222.421844
 20
177.6767215422475
 10
222.352737
 20
177.8897655422475
 10
222.264847
 20
178.0957585422475
 10
222.158859
 20
178.2930545422475
 10
222.017639
 20
178.5045875422475
  0
LINE
  5
7B5
330
1F
100
AcDbEntity
  8
0
 62
     7
 48
0.002174
370
    60
100
AcDbLine
 10
222.262939
 20
156.2481785422475
 30
0.0
 11
222.271652
 21
156.3347115422475
 31
0.0
  0
LWPOLYLINE
  5
7B6
330
1F
100
AcDbEntity
  8
0
 62
     7
370
    60
100
AcDbPolyline
 90
        3
 70
     0
 43
0.0
 10
222.221298
 20
155.8353825422475
 10
222.243637
 20
155.9614815422475
 10
222.259506
 20
156.0885565422475
  0
LINE
  5
7BB
330
1F
100
AcDbEntity
  8
0
 62
     7
 48
0.002173
370
    60
100
AcDbLine
 10
222.262939
 20
176.8590945422475
 30
0.0
 11
222.271652
 21
176.7726085422475
 31
0.0
  0
LWPOLYLINE
  5
7BC
330
1F
100
AcDbEntity
  8
0
 62
     7
370
    60
100
AcDbPolyline
 90
        3
 70
     0
 43
0.0
 10
222.259506
 20
177.0187625422475
 10
222.243637
 20
177.1458225422475
 10
222.221298
 20
177.2719065422475
  0
LINE
  5
7C1
330
1F
100
AcDbEntity
  8
0
 62
     7
 48
0.036958
370
    60
100
AcDbLine
 10
218.293106
 20
153.8356875422475
 30
0.0
 11
219.771423
 21
153.8356875422475
 31
0.0
  0
LWPOLYLINE
  5
7C2
330
1F
100
AcDbEntity
  8
0
 62
     7
370
    60
100
AcDbPolyline
 90
       16
 70
     0
 43
0.0
 10
219.771423
 20
153.8356875422475
 10
219.995239
 20
153.8457285422475
 10
220.217239
 20
153.8757425422475
 10
220.435669
 20
153.9255015422475
 10
220.648773
 20
153.9946235422475
 10
220.854813
 20
154.0825145422475
 10
221.05217
 20
154.1885015422475
 10
221.239243
 20
154.3117165422475
 10
221.41452
 20
154.4511665422475
 10
221.576614
 20
154.6057535422475
 10
221.724228
 20
154.7742255422475
 10
221.85614
 20
154.9551945422475
 10
221.971344
 20
155.1472725422475
 10
222.068863
 20
155.3488715422475
 10
222.147964
 20
155.5583745422475
 10
222.221298
 20
155.8353825422475
  0
LINE
  5
7D4
330
1F
100
AcDbEntity
  8
0
 62
     7
 48
0.036958
370
    60
100
AcDbLine
 10
218.533112
 20
153.5956825422475
 30
0.0
 11
220.011444
 21
153.5956825422475
 31
0.0
  0
LWPOLYLINE
  5
7D5
330
1F
100
AcDbEntity
  8
0
 62
     7
370
    60
100
AcDbPolyline
 90
       12
 70
     0
 43
0.0
 10
220.011444
 20
153.5956825422475
 10
220.235245
 20
153.6057075422475
 10
220.457245
 20
153.6357365422475
 10
220.675674
 20
153.6855105422475
 10
220.888779
 20
153.7546025422475
 10
221.094833
 20
153.8425085422475
 10
221.292175
 20
153.9484965422475
 10
221.479248
 20
154.0717105422475
 10
221.654541
 20
154.2111765422475
 10
221.81662
 20
154.3657475422475
 10
221.964233
 20
154.5342045422475
 10
222.016632
 20
154.6020755422475
  0
LWPOLYLINE
  5
7F2
330
1F
100
AcDbEntity
  8
0
 62
     7
370
    60
100
AcDbPolyline
 90
       26
 70
     0
 43
0.0
 10
112.065033
 20
144.4510745422475
 10
112.381378
 20
144.4610845422475
 10
112.696472
 20
144.4910985422475
 10
113.009003
 20
144.5409795422475
 10
113.317749
 20
144.6105295422475
 10
113.62149
 20
144.6994885422475
 10
113.918945
 20
144.8074595422475
 10
114.209015
 20
144.9340465422475
 10
114.490448
 20
145.0787295422475
 10
114.762177
 20
145.2409305422475
 10
115.023102
 20
145.4199925422475
 10
115.272156
 20
145.6151985422475
 10
115.508362
 20
145.8257855422475
 10
115.730774
 20
146.0508825422475
 10
115.938477
 20
146.2896065422475
 10
116.130676
 20
146.5409945422475
 10
116.30658
 20
146.8040565422475
 10
116.465485
 20
147.0777075422475
 10
116.606781
 20
147.3608805422475
 10
116.729858
 20
147.6524295422475
 10
116.834259
 20
147.9511815422475
 10
116.919525
 20
148.2559455422475
 10
116.985382
 20
148.5655005422475
 10
117.031494
 20
148.8786265422475
 10
117.057709
 20
149.1940255422475
 10
117.06427
 20
149.4503115422475
  0
ARC
  5
80E
330
1F
100
AcDbEntity
  8
0
 62
     7
370
    60
100
AcDbCircle
 10
122.063507
 20
188.6521555422475
 30
0.0
 40
4.999529
100
AcDbArc
 50
100.213594
 51
179.99644
  0
ARC
  5
80F
330
1F
100
AcDbEntity
  8
0
 62
     7
370
    60
100
AcDbCircle
 10
168.603607
 20
173.5956975422475
 30
0.0
 40
2.248222
100
AcDbArc
 50
49.774587
 51
90.01715300000001
  0
ARC
  5
810
330
1F
100
AcDbEntity
  8
0
 62
     7
370
    60
100
AcDbCircle
 10
168.602966
 20
173.5938365422475
 30
0.0
 40
2.250062
100
AcDbArc
 50
90.00074
 51
179.999254
  0
LINE
  5
811
330
1F
100
AcDbEntity
  8
0
 62
     7
370
    60
100
AcDbLine
 10
166.352936
 20
146.1856335422475
 30
0.0
 11
166.352936
 21
173.5938665422475
 31
0.0
  0
ARC
  5
812
330
1F
100
AcDbEntity
  8
0
 62
     7
370
    60
100
AcDbCircle
 10
168.602966
 20
146.1856635422475
 30
0.0
 40
2.250062
100
AcDbArc
 50
180.000743
 51
269.999263
  0
ARC
  5
813
330
1F
100
AcDbEntity
  8
0
 62
     7
370
    60
100
AcDbCircle
 10
168.603607
 20
146.1838015422475
 30
0.0
 40
2.248222
100
AcDbArc
 50
269.982843
 51
310.223777
  0
LINE
  5
814
330
1F
100
AcDbEntity
  8
0
 62
     7
370
    60
100
AcDbLine
 10
158.852936
 20
146.1778815422475
 30
0.0
 11
158.852936
 21
172.1046085422475
 31
0.0
  0
ARC
  5
815
330
1F
100
AcDbEntity
  8
0
 62
     7
370
    60
100
AcDbCircle
 10
156.602905
 20
172.1045785422475
 30
0.0
 40
2.250062
100
AcDbArc
 50
0.000755
 51
89.999265
  0
ARC
  5
816
330
1F
100
AcDbEntity
  8
0
 62
     7
370
    60
100
AcDbCircle
 10
156.602966
 20
172.1045785422475
 30
0.0
 40
2.250061
100
AcDbArc
 50
90.00071999999999
 51
179.99924
  0
LINE
  5
817
330
1F
100
AcDbEntity
  8
0
 62
     7
370
    60
100
AcDbLine
 10
154.352936
 20
146.1778815422475
 30
0.0
 11
154.352936
 21
172.1046085422475
 31
0.0
  0
ARC
  5
818
330
1F
100
AcDbEntity
  8
0
 62
     7
370
    60
100
AcDbCircle
 10
156.602966
 20
146.1779125422475
 30
0.0
 40
2.250061
100
AcDbArc
 50
180.000756
 51
269.99929
  0
ARC
  5
819
330
1F
100
AcDbEntity
  8
0
 62
     7
370
    60
100
AcDbCircle
 10
156.602905
 20
146.1779125422475
 30
0.0
 40
2.250062
100
AcDbArc
 50
270.000738
 51
359.999245
  0
LINE
  5
81A
330
1F
100
AcDbEntity
  8
0
 62
     7
370
    60
100
AcDbLine
 10
145.852936
 20
146.1599675422475
 30
0.0
 11
145.852936
 21
170.5043735422475
 31
0.0
  0
ARC
  5
81B
330
1F
100
AcDbEntity
  8
0
 62
     7
370
    60
100
AcDbCircle
 10
143.602905
 20
170.5043435422475
 30
0.0
 40
2.250062
100
AcDbArc
 50
0.000783
 51
89.999279
  0
ARC
  5
81C
330
1F
100
AcDbEntity
  8
0
 62
     7
370
    60
100
AcDbCircle
 10
143.602951
 20
170.5043435422475
 30
0.0
 40
2.250061
100
AcDbArc
 50
90.00069199999999
 51
179.999226
  0
LINE
  5
81D
330
1F
100
AcDbEntity
  8
0
 62
     7
370
    60
100
AcDbLine
 10
141.352936
 20
146.1599675422475
 30
0.0
 11
141.352936
 21
170.5043735422475
 31
0.0
  0
ARC
  5
81E
330
1F
100
AcDbEntity
  8
0
 62
     7
370
    60
100
AcDbCircle
 10
143.602951
 20
146.1599985422475
 30
0.0
 40
2.250061
100
AcDbArc
 50
180.00077
 51
269.999318
  0
ARC
  5
81F
330
1F
100
AcDbEntity
  8
0
 62
     7
370
    60
100
AcDbCircle
 10
143.602905
 20
146.1599985422475
 30
0.0
 40
2.250062
100
AcDbArc
 50
270.000711
 51
359.999218
  0
LINE
  5
820
330
1F
100
AcDbEntity
  8
0
 62
     7
 48
0.00785
370
    60
100
AcDbLine
 10
117.069763
 20
158.1268865422475
 30
0.0
 11
117.081726
 21
158.4406685422475
 31
0.0
  0
LINE
  5
821
330
1F
100
AcDbEntity
  8
0
 62
     7
 48
0.017156
370
    60
100
AcDbLine
 10
117.06427
 20
157.4406685422475
 30
0.0
 11
117.069763
 21
158.1268865422475
 31
0.0
  0
LINE
  5
822
330
1F
100
AcDbEntity
  8
0
 62
     7
 48
0.017156
370
    60
100
AcDbLine
 10
117.06427
 20
183.4406685422475
 30
0.0
 11
117.069763
 21
182.7544505422475
 31
0.0
  0
LINE
  5
823
330
1F
100
AcDbEntity
  8
0
 62
     7
 48
0.00785
370
    60
100
AcDbLine
 10
117.069763
 20
182.7544505422475
 30
0.0
 11
117.081726
 21
182.4406685422475
 31
0.0
  0
LINE
  5
824
330
1F
100
AcDbEntity
  8
0
 62
     7
370
    60
100
AcDbLine
 10
117.081726
 20
158.4406685422475
 30
0.0
 11
117.081726
 21
182.4406685422475
 31
0.0
  0
LINE
  5
825
330
1F
100
AcDbEntity
  8
0
 62
     7
 48
0.199759
370
    60
100
AcDbLine
 10
117.06427
 20
149.4503115422475
 30
0.0
 11
117.06427
 21
157.4406685422475
 31
0.0
  0
LINE
  5
826
330
1F
100
AcDbEntity
  8
0
 62
     7
 48
0.130295
370
    60
100
AcDbLine
 10
117.06427
 20
183.4406685422475
 30
0.0
 11
117.06427
 21
188.6524605422475
 31
0.0
  0
LWPOLYLINE
  5
827
330
1F
100
AcDbEntity
  8
0
 62
     7
370
    60
100
AcDbPolyline
 90
        3
 70
     0
 43
0.0
 10
194.822296
 20
204.0411325422475
 10
198.167068
 20
204.3944645422475
 10
200.134888
 20
204.6169985422475
  0
ARC
  5
82C
330
1F
100
AcDbEntity
  8
0
 62
     7
370
    60
100
AcDbCircle
 10
298.594574
 20
-790.2736264577525
 30
0.0
 40
999.71521
100
AcDbArc
 50
95.95814099999998
 51
100.222323
  0
LINE
  5
82D
330
1F
100
AcDbEntity
  8
0
 62
     7
370
    60
100
AcDbLine
 10
177.352936
 20
146.1701455422475
 30
0.0
 11
177.352936
 21
175.0648905422475
 31
0.0
  0
ARC
  5
82E
330
1F
100
AcDbEntity
  8
0
 62
     7
370
    60
100
AcDbCircle
 10
179.602966
 20
175.0648445422475
 30
0.0
 40
2.25007
100
AcDbArc
 50
90.00074699999999
 51
179.999035
  0
ARC
  5
82F
330
1F
100
AcDbEntity
  8
0
 62
     7
370
    60
100
AcDbCircle
 10
179.602921
 20
175.0648595422475
 30
0.0
 40
2.250056
100
AcDbArc
 50
0.000907
 51
89.999552
  0
LINE
  5
830
330
1F
100
AcDbEntity
  8
0
 62
     7
370
    60
100
AcDbLine
 10
181.852936
 20
146.1701455422475
 30
0.0
 11
181.852936
 21
175.0648905422475
 31
0.0
  0
ARC
  5
831
330
1F
100
AcDbEntity
  8
0
 62
     7
370
    60
100
AcDbCircle
 10
179.602921
 20
146.1701915422475
 30
0.0
 40
2.250056
100
AcDbArc
 50
270.000438
 51
359.999081
  0
ARC
  5
832
330
1F
100
AcDbEntity
  8
0
 62
     7
370
    60
100
AcDbCircle
 10
179.602966
 20
146.1701915422475
 30
0.0
 40
2.25007
100
AcDbArc
 50
180.000961
 51
269.999263
  0
LINE
  5
833
330
1F
100
AcDbEntity
  8
0
 62
     7
370
    60
100
AcDbLine
 10
170.852936
 20
146.1856335422475
 30
0.0
 11
170.852936
 21
173.5938665422475
 31
0.0
  0
ARC
  5
834
330
1F
100
AcDbEntity
  8
0
 62
     7
370
    60
100
AcDbCircle
 10
168.605637
 20
173.5951175422475
 30
0.0
 40
2.247433
100
AcDbArc
 50
359.967935
 51
49.823791
  0
ARC
  5
835
330
1F
100
AcDbEntity
  8
0
 62
     7
370
    60
100
AcDbCircle
 10
168.605637
 20
146.1843815422475
 30
0.0
 40
2.247433
100
AcDbArc
 50
310.174571
 51
0.032054
  0
LINE
  5
836
330
1F
100
AcDbEntity
  8
0
 62
     7
370
    60
100
AcDbLine
 10
191.852936
 20
146.1184335422475
 30
0.0
 11
191.852936
 21
176.9673715422475
 31
0.0
  0
ARC
  5
837
330
1F
100
AcDbEntity
  8
0
 62
     7
370
    60
100
AcDbCircle
 10
189.602936
 20
176.9673105422475
 30
0.0
 40
2.250056
100
AcDbArc
 50
0.001867
 51
90.00026199999999
  0
ARC
  5
838
330
1F
100
AcDbEntity
  8
0
 62
     7
370
    60
100
AcDbCircle
 10
189.602951
 20
176.9672795422475
 30
0.0
 40
2.250094
100
AcDbArc
 50
90.00031699999998
 51
179.997792
  0
LINE
  5
839
330
1F
100
AcDbEntity
  8
0
 62
     7
370
    60
100
AcDbLine
 10
187.352936
 20
146.1184335422475
 30
0.0
 11
187.352936
 21
176.9673715422475
 31
0.0
  0
ARC
  5
83A
330
1F
100
AcDbEntity
  8
0
 62
     7
370
    60
100
AcDbCircle
 10
189.602951
 20
146.1185245422475
 30
0.0
 40
2.250094
100
AcDbArc
 50
180.002204
 51
270.107317
  0
ARC
  5
83B
330
1F
100
AcDbEntity
  8
0
 62
     7
370
    60
100
AcDbCircle
 10
189.602936
 20
146.1184945422475
 30
0.0
 40
2.250057
100
AcDbArc
 50
270.107399
 51
359.998125
  0
LINE
  5
83C
330
1F
100
AcDbEntity
  8
0
 62
     7
370
    60
100
AcDbLine
 10
200.852936
 20
146.0402325422475
 30
0.0
 11
200.852936
 21
179.1601205422475
 31
0.0
  0
ARC
  5
83D
330
1F
100
AcDbEntity
  8
0
 62
     7
370
    60
100
AcDbCircle
 10
198.602921
 20
179.1599985422475
 30
0.0
 40
2.250084
100
AcDbArc
 50
0.00301
 51
89.999757
  0
ARC
  5
83E
330
1F
100
AcDbEntity
  8
0
 62
     7
370
    60
100
AcDbCircle
 10
198.602951
 20
179.1599675422475
 30
0.0
 40
2.250152
100
AcDbArc
 50
90.00054199999998
 51
179.995852
  0
LINE
  5
83F
330
1F
100
AcDbEntity
  8
0
 62
     7
370
    60
100
AcDbLine
 10
196.352936
 20
146.0402325422475
 30
0.0
 11
196.352936
 21
179.1601205422475
 31
0.0
  0
ARC
  5
840
330
1F
100
AcDbEntity
  8
0
 62
     7
370
    60
100
AcDbCircle
 10
198.602951
 20
146.0403995422475
 30
0.0
 40
2.250151
100
AcDbArc
 50
180.00413
 51
269.999482
  0
ARC
  5
841
330
1F
100
AcDbEntity
  8
0
 62
     7
370
    60
100
AcDbCircle
 10
198.602921
 20
146.0403545422475
 30
0.0
 40
2.250085
100
AcDbArc
 50
270.000247
 51
359.996977
  0
LINE
  5
842
330
1F
100
AcDbEntity
  8
0
 62
     7
370
    60
100
AcDbLine
 10
204.352936
 20
145.9379825422475
 30
0.0
 11
204.352936
 21
181.5552925422475
 31
0.0
  0
ARC
  5
843
330
1F
100
AcDbEntity
  8
0
 62
     7
370
    60
100
AcDbCircle
 10
206.603058
 20
181.5551395422475
 30
0.0
 40
2.250154
100
AcDbArc
 50
90.00338299999999
 51
179.996084
  0
ARC
  5
844
330
1F
100
AcDbEntity
  8
0
 62
     7
370
    60
100
AcDbCircle
 10
206.602661
 20
181.5549565422475
 30
0.0
 40
2.250318
100
AcDbArc
 50
0.00855
 51
89.99322
  0
LINE
  5
845
330
1F
100
AcDbEntity
  8
0
 62
     7
370
    60
100
AcDbLine
 10
208.852936
 20
145.9379825422475
 30
0.0
 11
208.852936
 21
181.5552925422475
 31
0.0
  0
ARC
  5
846
330
1F
100
AcDbEntity
  8
0
 62
     7
370
    60
100
AcDbCircle
 10
206.602844
 20
145.9381655422475
 30
0.0
 40
2.25014
100
AcDbArc
 50
270.002268
 51
359.995502
  0
ARC
  5
847
330
1F
100
AcDbEntity
  8
0
 62
     7
370
    60
100
AcDbCircle
 10
206.603073
 20
145.9381655422475
 30
0.0
 40
2.25017
100
AcDbArc
 50
180.004404
 51
269.996203
  0
LINE
  5
848
330
1F
100
AcDbEntity
  8
0
 62
     7
370
    60
100
AcDbLine
 10
170.852936
 20
-0.1888934577525205
 30
0.0
 11
170.852936
 21
31.41243954224748
 31
0.0
  0
ARC
  5
849
330
1F
100
AcDbEntity
  8
0
 62
     7
370
    60
100
AcDbCircle
 10
168.605515
 20
31.41359954224748
 30
0.0
 40
2.247544
100
AcDbArc
 50
359.97034
 51
48.51181600000001
  0
ARC
  5
84A
330
1F
100
AcDbEntity
  8
0
 62
     7
370
    60
100
AcDbCircle
 10
168.605515
 20
-0.1900534577525193
 30
0.0
 40
2.247544
100
AcDbArc
 50
311.485448
 51
0.029664
  0
LINE
  5
84B
330
1F
100
AcDbEntity
  8
0
 62
     7
370
    60
100
AcDbLine
 10
181.852936
 20
-0.4468284577525168
 30
0.0
 11
181.852936
 21
31.42792754224749
 31
0.0
  0
ARC
  5
84C
330
1F
100
AcDbEntity
  8
0
 62
     7
370
    60
100
AcDbCircle
 10
179.602921
 20
31.42788154224748
 30
0.0
 40
2.250056
100
AcDbArc
 50
0.000907
 51
89.999552
  0
ARC
  5
84D
330
1F
100
AcDbEntity
  8
0
 62
     7
370
    60
100
AcDbCircle
 10
179.602966
 20
31.42788154224748
 30
0.0
 40
2.25007
100
AcDbArc
 50
90.00074699999999
 51
179.999035
  0
LINE
  5
84E
330
1F
100
AcDbEntity
  8
0
 62
     7
370
    60
100
AcDbLine
 10
177.352936
 20
-0.4468284577525168
 30
0.0
 11
177.352936
 21
31.42792754224749
 31
0.0
  0
ARC
  5
84F
330
1F
100
AcDbEntity
  8
0
 62
     7
370
    60
100
AcDbCircle
 10
179.602966
 20
-0.4467904577525204
 30
0.0
 40
2.25007
100
AcDbArc
 50
180.000961
 51
269.999263
  0
ARC
  5
850
330
1F
100
AcDbEntity
  8
0
 62
     7
370
    60
100
AcDbCircle
 10
179.602921
 20
-0.4467904577525204
 30
0.0
 40
2.250056
100
AcDbArc
 50
270.000438
 51
359.999081
  0
LINE
  5
851
330
1F
100
AcDbEntity
  8
0
 62
     7
370
    60
100
AcDbLine
 10
191.852936
 20
-1.201787457752516
 30
0.0
 11
191.852936
 21
31.47963954224748
 31
0.0
  0
ARC
  5
852
330
1F
100
AcDbEntity
  8
0
 62
     7
370
    60
100
AcDbCircle
 10
189.602936
 20
31.47957054224749
 30
0.0
 40
2.250056
100
AcDbArc
 50
0.001867
 51
90.00026199999999
  0
ARC
  5
853
330
1F
100
AcDbEntity
  8
0
 62
     7
370
    60
100
AcDbCircle
 10
189.602951
 20
31.47955554224748
 30
0.0
 40
2.250094
100
AcDbArc
 50
90.00031699999998
 51
179.997792
  0
LINE
  5
854
330
1F
100
AcDbEntity
  8
0
 62
     7
370
    60
100
AcDbLine
 10
187.352936
 20
-1.201787457752516
 30
0.0
 11
187.352936
 21
31.47963954224748
 31
0.0
  0
ARC
  5
855
330
1F
100
AcDbEntity
  8
0
 62
     7
370
    60
100
AcDbCircle
 10
189.602951
 20
-1.201696457752519
 30
0.0
 40
2.250094
100
AcDbArc
 50
180.002204
 51
270.107344
  0
ARC
  5
856
330
1F
100
AcDbEntity
  8
0
 62
     7
370
    60
100
AcDbCircle
 10
189.602936
 20
-1.201711457752516
 30
0.0
 40
2.250057
100
AcDbArc
 50
270.107399
 51
359.998125
  0
LINE
  5
857
330
1F
100
AcDbEntity
  8
0
 62
     7
370
    60
100
AcDbLine
 10
200.852936
 20
-2.365338457752515
 30
0.0
 11
200.852936
 21
31.55784054224748
 31
0.0
  0
ARC
  5
858
330
1F
100
AcDbEntity
  8
0
 62
     7
370
    60
100
AcDbCircle
 10
198.602921
 20
31.55771854224749
 30
0.0
 40
2.250084
100
AcDbArc
 50
0.00301
 51
89.999757
  0
ARC
  5
859
330
1F
100
AcDbEntity
  8
0
 62
     7
370
    60
100
AcDbCircle
 10
198.602951
 20
31.55768054224748
 30
0.0
 40
2.250152
100
AcDbArc
 50
90.00054199999998
 51
179.995852
  0
LINE
  5
85A
330
1F
100
AcDbEntity
  8
0
 62
     7
370
    60
100
AcDbLine
 10
196.352936
 20
-2.365338457752515
 30
0.0
 11
196.352936
 21
31.55784054224748
 31
0.0
  0
ARC
  5
85B
330
1F
100
AcDbEntity
  8
0
 62
     7
370
    60
100
AcDbCircle
 10
198.602951
 20
-2.365171457752517
 30
0.0
 40
2.250151
100
AcDbArc
 50
180.00413
 51
269.999482
  0
ARC
  5
85C
330
1F
100
AcDbEntity
  8
0
 62
     7
370
    60
100
AcDbCircle
 10
198.602921
 20
-2.365216457752517
 30
0.0
 40
2.250085
100
AcDbArc
 50
270.000247
 51
359.996977
  0
LINE
  5
85D
330
1F
100
AcDbEntity
  8
0
 62
     7
370
    60
100
AcDbLine
 10
208.852936
 20
-3.929082457752514
 30
0.0
 11
208.852936
 21
31.66009754224748
 31
0.0
  0
ARC
  5
85E
330
1F
100
AcDbEntity
  8
0
 62
     7
370
    60
100
AcDbCircle
 10
206.602661
 20
31.65976154224748
 30
0.0
 40
2.250317
100
AcDbArc
 50
0.008545
 51
89.99322
  0
ARC
  5
85F
330
1F
100
AcDbEntity
  8
0
 62
     7
370
    60
100
AcDbCircle
 10
206.603058
 20
31.65994454224749
 30
0.0
 40
2.250154
100
AcDbArc
 50
90.00338299999999
 51
179.996084
  0
LINE
  5
860
330
1F
100
AcDbEntity
  8
0
 62
     7
370
    60
100
AcDbLine
 10
204.352936
 20
-3.929082457752514
 30
0.0
 11
204.352936
 21
31.66009754224748
 31
0.0
  0
ARC
  5
861
330
1F
100
AcDbEntity
  8
0
 62
     7
370
    60
100
AcDbCircle
 10
206.603073
 20
-3.928914457752519
 30
0.0
 40
2.25017
100
AcDbArc
 50
180.00439
 51
269.996203
  0
ARC
  5
862
330
1F
100
AcDbEntity
  8
0
 62
     7
370
    60
100
AcDbCircle
 10
206.602844
 20
-3.928907457752516
 30
0.0
 40
2.25014
100
AcDbArc
 50
270.002268
 51
359.995502
  0
LINE
  5
863
330
1F
100
AcDbEntity
  8
0
 62
     7
370
    60
100
AcDbLine
 10
218.773727
 20
131.8300875422475
 30
0.0
 11
218.773727
 21
153.5956825422475
 31
0.0
  0
LINE
  5
864
330
1F
100
AcDbEntity
  8
0
 62
     7
 48
0.008485
370
    60
100
AcDbLine
 10
218.293106
 20
153.8356875422475
 30
0.0
 11
218.533112
 21
153.5956825422475
 31
0.0
  0
LINE
  5
865
330
1F
100
AcDbEntity
  8
0
 62
     7
 48
0.008486
370
    60
100
AcDbLine
 10
218.293106
 20
179.2716015422475
 30
0.0
 11
218.533112
 21
179.5116215422475
 31
0.0
  0
LINE
  5
866
330
1F
100
AcDbEntity
  8
0
 62
     7
 48
0.499564
370
    60
100
AcDbLine
 10
218.058075
 20
156.5623725422475
 30
0.0
 11
218.058075
 21
176.5449165422475
 31
0.0
  0
LINE
  5
867
330
1F
100
AcDbEntity
  8
0
 62
     7
 48
0.0125
370
    60
100
AcDbLine
 10
218.058075
 20
176.5449165422475
 30
0.0
 11
218.06665
 21
177.0448555422475
 31
0.0
  0
LINE
  5
868
330
1F
100
AcDbEntity
  8
0
 62
     7
 48
0.0125
370
    60
100
AcDbLine
 10
218.058075
 20
156.5623725422475
 30
0.0
 11
218.06665
 21
156.0624645422475
 31
0.0
  0
LINE
  5
869
330
1F
100
AcDbEntity
  8
0
 62
     7
 48
0.049992
370
    60
100
AcDbLine
 10
218.293106
 20
179.2716015422475
 30
0.0
 11
218.293716
 21
177.2719065422475
 31
0.0
  0
LINE
  5
86A
330
1F
100
AcDbEntity
  8
0
 62
     7
 48
0.008028
370
    60
100
AcDbLine
 10
218.06665
 20
177.0448555422475
 30
0.0
 11
218.293716
 21
177.2719065422475
 31
0.0
  0
LINE
  5
86B
330
1F
100
AcDbEntity
  8
0
 62
     7
 48
0.049992
370
    60
100
AcDbLine
 10
218.293106
 20
153.8356875422475
 30
0.0
 11
218.293716
 21
155.8353825422475
 31
0.0
  0
LINE
  5
86C
330
1F
100
AcDbEntity
  8
0
 62
     7
 48
0.008028
370
    60
100
AcDbLine
 10
218.06665
 20
156.0624645422475
 30
0.0
 11
218.293716
 21
155.8353825422475
 31
0.0
  0
LINE
  5
86D
330
1F
100
AcDbEntity
  8
0
 62
     7
370
    60
100
AcDbLine
 10
37.60257
 20
144.4510745422475
 30
0.0
 11
112.065033
 21
144.4510745422475
 31
0.0
  0
ARC
  5
86E
330
1F
100
AcDbEntity
  8
0
 62
     7
370
    60
100
AcDbCircle
 10
37.463654
 20
138.2932385422475
 30
0.0
 40
6.054276
100
AcDbArc
 50
163.818686
 51
180.447628
  0
LWPOLYLINE
  5
86F
330
1F
100
AcDbEntity
  8
0
 62
     7
370
    60
100
AcDbPolyline
 90
       24
 70
     0
 43
0.0
 10
37.60257
 20
144.4510745422475
 10
37.250305
 20
144.4410655422475
 10
36.8992
 20
144.4110515422475
 10
36.550385
 20
144.3611395422475
 10
36.204956
 20
144.2914985422475
 10
35.864044
 20
144.2023565422475
 10
35.528778
 20
144.0939885422475
 10
35.200195
 20
143.9667455422475
 10
34.879395
 20
143.8210395422475
 10
34.567413
 20
143.6573435422475
 10
34.265198
 20
143.4761905422475
 10
33.973785
 20
143.2781625422475
 10
33.694122
 20
143.0638985422475
 10
33.427063
 20
142.8341015422475
 10
33.173492
 20
142.5894875422475
 10
32.934235
 20
142.3308665422475
 10
32.710052
 20
142.0590615422475
 10
32.501678
 20
141.7749575422475
 10
32.309784
 20
141.4794865422475
 10
32.13501
 20
141.1735635422475
 10
31.977875
 20
140.8582095422475
 10
31.838898
 20
140.5344335422475
 10
31.718536
 20
140.2032875422475
 10
31.649292
 20
139.9804175422475
  0
LINE
  5
889
330
1F
100
AcDbEntity
  8
0
 62
     7
370
    60
100
AcDbLine
 10
46.852936
 20
61.20832254224749
 30
0.0
 11
46.852936
 21
116.5568035422475
 31
0.0
  0
ARC
  5
88A
330
1F
100
AcDbEntity
  8
0
 62
     7
370
    60
100
AcDbCircle
 10
44.602936
 20
116.5567115422475
 30
0.0
 40
2.250087
100
AcDbArc
 50
0.002414
 51
90.28854399999999
  0
ARC
  5
88B
330
1F
100
AcDbEntity
  8
0
 62
     7
370
    60
100
AcDbCircle
 10
44.602936
 20
116.5567115422475
 30
0.0
 40
2.250079
100
AcDbArc
 50
90.28852299999998
 51
179.997669
  0
LINE
  5
88C
330
1F
100
AcDbEntity
  8
0
 62
     7
370
    60
100
AcDbLine
 10
42.352936
 20
61.20832254224749
 30
0.0
 11
42.352936
 21
116.5568035422475
 31
0.0
  0
ARC
  5
88D
330
1F
100
AcDbEntity
  8
0
 62
     7
370
    60
100
AcDbCircle
 10
44.602936
 20
61.20841454224748
 30
0.0
 40
2.250078
100
AcDbArc
 50
180.002327
 51
270.224741
  0
ARC
  5
88E
330
1F
100
AcDbEntity
  8
0
 62
     7
370
    60
100
AcDbCircle
 10
44.602936
 20
61.20841454224748
 30
0.0
 40
2.250087
100
AcDbArc
 50
270.224714
 51
359.997578
  0
LINE
  5
88F
330
1F
100
AcDbEntity
  8
0
 62
     7
370
    60
100
AcDbLine
 10
65.852936
 20
61.20832254224749
 30
0.0
 11
65.852936
 21
116.5568035422475
 31
0.0
  0
ARC
  5
890
330
1F
100
AcDbEntity
  8
0
 62
     7
370
    60
100
AcDbCircle
 10
63.602936
 20
116.5567265422475
 30
0.0
 40
2.250076
100
AcDbArc
 50
0.001874
 51
89.999859
  0
ARC
  5
891
330
1F
100
AcDbEntity
  8
0
 62
     7
370
    60
100
AcDbCircle
 10
63.602936
 20
116.5567265422475
 30
0.0
 40
2.25007
100
AcDbArc
 50
90.00002999999998
 51
179.998175
  0
ARC
  5
892
330
1F
100
AcDbEntity
  8
0
 62
     7
370
    60
100
AcDbCircle
 10
63.602936
 20
61.20839154224748
 30
0.0
 40
2.250069
100
AcDbArc
 50
180.001822
 51
269.999973
  0
ARC
  5
893
330
1F
100
AcDbEntity
  8
0
 62
     7
370
    60
100
AcDbCircle
 10
63.602936
 20
61.20839154224748
 30
0.0
 40
2.250076
100
AcDbArc
 50
270.000137
 51
359.998125
  0
LINE
  5
894
330
1F
100
AcDbEntity
  8
0
 62
     7
370
    60
100
AcDbLine
 10
145.852936
 20
-0.1491824577525165
 30
0.0
 11
145.852936
 21
31.43809754224748
 31
0.0
  0
ARC
  5
895
330
1F
100
AcDbEntity
  8
0
 62
     7
370
    60
100
AcDbCircle
 10
143.602905
 20
31.43806654224748
 30
0.0
 40
2.250062
100
AcDbArc
 50
0.000783
 51
89.999279
  0
ARC
  5
896
330
1F
100
AcDbEntity
  8
0
 62
     7
370
    60
100
AcDbCircle
 10
143.602951
 20
31.43806654224748
 30
0.0
 40
2.250061
100
AcDbArc
 50
90.00069199999999
 51
179.999226
  0
LINE
  5
897
330
1F
100
AcDbEntity
  8
0
 62
     7
370
    60
100
AcDbLine
 10
141.352936
 20
-0.1491824577525165
 30
0.0
 11
141.352936
 21
31.43809754224748
 31
0.0
  0
ARC
  5
898
330
1F
100
AcDbEntity
  8
0
 62
     7
370
    60
100
AcDbCircle
 10
143.602951
 20
-0.1491524577525141
 30
0.0
 40
2.250061
100
AcDbArc
 50
180.00077
 51
269.999318
  0
ARC
  5
899
330
1F
100
AcDbEntity
  8
0
 62
     7
370
    60
100
AcDbCircle
 10
143.602905
 20
-0.1491524577525141
 30
0.0
 40
2.250062
100
AcDbArc
 50
270.000711
 51
359.999218
  0
LINE
  5
89A
330
1F
100
AcDbEntity
  8
0
 62
     7
370
    60
100
AcDbLine
 10
131.852936
 20
-0.1447044577525176
 30
0.0
 11
131.852936
 21
31.46853854224749
 31
0.0
  0
ARC
  5
89B
330
1F
100
AcDbEntity
  8
0
 62
     7
370
    60
100
AcDbCircle
 10
129.602905
 20
31.46850054224748
 30
0.0
 40
2.250063
100
AcDbArc
 50
0.000834
 51
89.999313
  0
ARC
  5
89C
330
1F
100
AcDbEntity
  8
0
 62
     7
370
    60
100
AcDbCircle
 10
129.602951
 20
31.46850054224748
 30
0.0
 40
2.250061
100
AcDbArc
 50
90.00065099999999
 51
179.999172
  0
LINE
  5
89D
330
1F
100
AcDbEntity
  8
0
 62
     7
370
    60
100
AcDbLine
 10
127.352936
 20
-0.1447044577525176
 30
0.0
 11
127.352936
 21
31.46853854224749
 31
0.0
  0
ARC
  5
89E
330
1F
100
AcDbEntity
  8
0
 62
     7
370
    60
100
AcDbCircle
 10
129.602951
 20
-0.1446734577525177
 30
0.0
 40
2.250061
100
AcDbArc
 50
180.000825
 51
269.999345
  0
ARC
  5
89F
330
1F
100
AcDbEntity
  8
0
 62
     7
370
    60
100
AcDbCircle
 10
129.602905
 20
-0.1446734577525177
 30
0.0
 40
2.250063
100
AcDbArc
 50
270.000684
 51
359.999163
  0
ARC
  5
8A0
330
1F
100
AcDbEntity
  8
0
 62
     7
370
    60
100
AcDbCircle
 10
168.603668
 20
31.41439254224748
 30
0.0
 40
2.248118
100
AcDbArc
 50
48.463306
 51
90.01884699999998
  0
ARC
  5
8A1
330
1F
100
AcDbEntity
  8
0
 62
     7
370
    60
100
AcDbCircle
 10
168.602966
 20
31.41240954224749
 30
0.0
 40
2.250062
100
AcDbArc
 50
90.00074
 51
179.999254
  0
LINE
  5
8A2
330
1F
100
AcDbEntity
  8
0
 62
     7
370
    60
100
AcDbLine
 10
166.352936
 20
-0.1888934577525205
 30
0.0
 11
166.352936
 21
31.41243954224748
 31
0.0
  0
ARC
  5
8A3
330
1F
100
AcDbEntity
  8
0
 62
     7
370
    60
100
AcDbCircle
 10
168.602966
 20
-0.1888634577525181
 30
0.0
 40
2.250062
100
AcDbArc
 50
180.000743
 51
269.999263
  0
ARC
  5
8A4
330
1F
100
AcDbEntity
  8
0
 62
     7
370
    60
100
AcDbCircle
 10
168.603668
 20
-0.1908474577525183
 30
0.0
 40
2.248118
100
AcDbArc
 50
269.981149
 51
311.533943
  0
LINE
  5
8A5
330
1F
100
AcDbEntity
  8
0
 62
     7
370
    60
100
AcDbLine
 10
116.852936
 20
-0.1529744577525207
 30
0.0
 11
116.852936
 21
31.51423854224748
 31
0.0
  0
ARC
  5
8A6
330
1F
100
AcDbEntity
  8
0
 62
     7
370
    60
100
AcDbCircle
 10
114.602905
 20
31.51420054224748
 30
0.0
 40
2.250064
100
AcDbArc
 50
0.000917
 51
89.99936
  0
ARC
  5
8A7
330
1F
100
AcDbEntity
  8
0
 62
     7
370
    60
100
AcDbCircle
 10
114.602966
 20
31.51420054224748
 30
0.0
 40
2.250062
100
AcDbArc
 50
90.00058999999999
 51
179.99909
  0
LINE
  5
8A8
330
1F
100
AcDbEntity
  8
0
 62
     7
370
    60
100
AcDbLine
 10
112.352936
 20
-0.1529744577525207
 30
0.0
 11
112.352936
 21
31.51423854224748
 31
0.0
  0
ARC
  5
8A9
330
1F
100
AcDbEntity
  8
0
 62
     7
370
    60
100
AcDbCircle
 10
114.602966
 20
-0.1529364577525172
 30
0.0
 40
2.250062
100
AcDbArc
 50
180.000907
 51
269.9994
  0
ARC
  5
8AA
330
1F
100
AcDbEntity
  8
0
 62
     7
370
    60
100
AcDbCircle
 10
114.602905
 20
-0.1529364577525172
 30
0.0
 40
2.250064
100
AcDbArc
 50
270.000629
 51
359.999081
  0
LINE
  5
8AB
330
1F
100
AcDbEntity
  8
0
 62
     7
370
    60
100
AcDbLine
 10
158.852936
 20
-0.1645564577525178
 30
0.0
 11
158.852936
 21
31.42019154224748
 31
0.0
  0
ARC
  5
8AC
330
1F
100
AcDbEntity
  8
0
 62
     7
370
    60
100
AcDbCircle
 10
156.602905
 20
31.42016054224749
 30
0.0
 40
2.250062
100
AcDbArc
 50
0.000755
 51
89.999265
  0
ARC
  5
8AD
330
1F
100
AcDbEntity
  8
0
 62
     7
370
    60
100
AcDbCircle
 10
156.602966
 20
31.42016054224749
 30
0.0
 40
2.250061
100
AcDbArc
 50
90.00071999999999
 51
179.99924
  0
LINE
  5
8AE
330
1F
100
AcDbEntity
  8
0
 62
     7
370
    60
100
AcDbLine
 10
154.352936
 20
-0.1645564577525178
 30
0.0
 11
154.352936
 21
31.42019154224748
 31
0.0
  0
ARC
  5
8AF
330
1F
100
AcDbEntity
  8
0
 62
     7
370
    60
100
AcDbCircle
 10
156.602966
 20
-0.1645254577525179
 30
0.0
 40
2.250061
100
AcDbArc
 50
180.000756
 51
269.99929
  0
ARC
  5
8B0
330
1F
100
AcDbEntity
  8
0
 62
     7
370
    60
100
AcDbCircle
 10
156.602905
 20
-0.1645254577525179
 30
0.0
 40
2.250062
100
AcDbArc
 50
270.000738
 51
359.999245
  0
LINE
  5
8B1
330
1F
100
AcDbEntity
  8
0
 62
     7
370
    60
100
AcDbLine
 10
100.852936
 20
-0.1529744577525207
 30
0.0
 11
100.852936
 21
31.57832554224748
 31
0.0
  0
ARC
  5
8B2
330
1F
100
AcDbEntity
  8
0
 62
     7
370
    60
100
AcDbCircle
 10
98.602905
 20
31.57828754224748
 30
0.0
 40
2.250066
100
AcDbArc
 50
0.001048
 51
89.999415
  0
ARC
  5
8B3
330
1F
100
AcDbEntity
  8
0
 62
     7
370
    60
100
AcDbCircle
 10
98.602966
 20
31.57828754224748
 30
0.0
 40
2.250063
100
AcDbArc
 50
90.00053499999999
 51
179.998967
  0
LINE
  5
8B4
330
1F
100
AcDbEntity
  8
0
 62
     7
370
    60
100
AcDbLine
 10
96.352936
 20
-0.1529744577525207
 30
0.0
 11
96.352936
 21
31.57832554224748
 31
0.0
  0
ARC
  5
8B5
330
1F
100
AcDbEntity
  8
0
 62
     7
370
    60
100
AcDbCircle
 10
98.602966
 20
-0.1529284577525161
 30
0.0
 40
2.250063
100
AcDbArc
 50
180.00103
 51
269.999482
  0
ARC
  5
8B6
330
1F
100
AcDbEntity
  8
0
 62
     7
370
    60
100
AcDbCircle
 10
98.602905
 20
-0.1529284577525161
 30
0.0
 40
2.250066
100
AcDbArc
 50
270.000602
 51
359.998945
  0
LINE
  5
8B7
330
1F
100
AcDbEntity
  8
0
 62
     7
370
    60
100
AcDbLine
 10
83.852936
 20
-0.2203574577525202
 30
0.0
 11
83.852936
 21
32.78140454224749
 31
0.0
  0
ARC
  5
8B8
330
1F
100
AcDbEntity
  8
0
 62
     7
370
    60
100
AcDbCircle
 10
81.602905
 20
32.78134354224748
 30
0.0
 40
2.25007
100
AcDbArc
 50
0.00149
 51
89.999716
  0
ARC
  5
8B9
330
1F
100
AcDbEntity
  8
0
 62
     7
370
    60
100
AcDbCircle
 10
81.602936
 20
32.78135154224748
 30
0.0
 40
2.250065
100
AcDbArc
 50
90.00018699999998
 51
179.99853
  0
LINE
  5
8BA
330
1F
100
AcDbEntity
  8
0
 62
     7
370
    60
100
AcDbLine
 10
79.352936
 20
-0.2203574577525202
 30
0.0
 11
79.352936
 21
32.78140454224749
 31
0.0
  0
ARC
  5
8BB
330
1F
100
AcDbEntity
  8
0
 62
     7
370
    60
100
AcDbCircle
 10
81.602936
 20
-0.2203044577525191
 30
0.0
 40
2.250065
100
AcDbArc
 50
180.001453
 51
269.999809
  0
ARC
  5
8BC
330
1F
100
AcDbEntity
  8
0
 62
     7
370
    60
100
AcDbCircle
 10
81.602905
 20
-0.2203044577525191
 30
0.0
 40
2.25007
100
AcDbArc
 50
270.000301
 51
359.998507
  0
LINE
  5
8BD
330
1F
100
AcDbEntity
  8
0
 62
     7
370
    60
100
AcDbLine
 10
65.852936
 20
-0.2946294577525208
 30
0.0
 11
65.852936
 21
36.70762054224748
 31
0.0
  0
ARC
  5
8BE
330
1F
100
AcDbEntity
  8
0
 62
     7
370
    60
100
AcDbCircle
 10
63.602936
 20
36.70755254224748
 30
0.0
 40
2.250076
100
AcDbArc
 50
0.001874
 51
89.999866
  0
ARC
  5
8BF
330
1F
100
AcDbEntity
  8
0
 62
     7
370
    60
100
AcDbCircle
 10
63.602936
 20
36.70755254224748
 30
0.0
 40
2.25007
100
AcDbArc
 50
90.00002999999998
 51
179.998175
  0
LINE
  5
8C0
330
1F
100
AcDbEntity
  8
0
 62
     7
370
    60
100
AcDbLine
 10
61.352936
 20
-0.2946294577525208
 30
0.0
 11
61.352936
 21
36.70762054224748
 31
0.0
  0
ARC
  5
8C1
330
1F
100
AcDbEntity
  8
0
 62
     7
370
    60
100
AcDbCircle
 10
63.602936
 20
-0.2945534577525137
 30
0.0
 40
2.250069
100
AcDbArc
 50
180.001822
 51
269.999973
  0
ARC
  5
8C2
330
1F
100
AcDbEntity
  8
0
 62
     7
370
    60
100
AcDbCircle
 10
63.602936
 20
-0.2945534577525137
 30
0.0
 40
2.250076
100
AcDbArc
 50
270.000137
 51
359.998125
  0
LINE
  5
8C3
330
1F
100
AcDbEntity
  8
0
 62
     7
370
    60
100
AcDbLine
 10
46.852936
 20
-0.4196064577525149
 30
0.0
 11
46.852936
 21
36.85529554224749
 31
0.0
  0
ARC
  5
8C4
330
1F
100
AcDbEntity
  8
0
 62
     7
370
    60
100
AcDbCircle
 10
44.602936
 20
36.85519654224748
 30
0.0
 40
2.250087
100
AcDbArc
 50
0.002414
 51
90.28555899999999
  0
ARC
  5
8C5
330
1F
100
AcDbEntity
  8
0
 62
     7
370
    60
100
AcDbCircle
 10
44.602936
 20
36.85520354224748
 30
0.0
 40
2.250079
100
AcDbArc
 50
90.28552499999999
 51
179.997655
  0
LINE
  5
8C6
330
1F
100
AcDbEntity
  8
0
 62
     7
370
    60
100
AcDbLine
 10
42.352936
 20
-0.4196064577525149
 30
0.0
 11
42.352936
 21
36.85529554224749
 31
0.0
  0
ARC
  5
8C7
330
1F
100
AcDbEntity
  8
0
 62
     7
370
    60
100
AcDbCircle
 10
44.602936
 20
-0.4195154577525173
 30
0.0
 40
2.250078
100
AcDbArc
 50
180.002327
 51
270.2219
  0
ARC
  5
8C8
330
1F
100
AcDbEntity
  8
0
 62
     7
370
    60
100
AcDbCircle
 10
44.602936
 20
-0.4195074577525162
 30
0.0
 40
2.250087
100
AcDbArc
 50
270.221873
 51
359.997578
  0
LINE
  5
8C9
330
1F
100
AcDbEntity
  8
0
 62
     7
 48
0.009682
370
    60
100
AcDbLine
 10
31.409576
 20
138.2459515422475
 30
0.0
 11
31.413391
 21
137.8586985422475
 31
0.0
  0
LINE
  5
8CA
330
1F
100
AcDbEntity
  8
0
 62
     7
 48
0.040344
370
    60
100
AcDbLine
 10
31.413391
 20
137.8586985422475
 30
0.0
 11
31.439178
 21
136.2451275422475
 31
0.0
  0
LINE
  5
8CB
330
1F
100
AcDbEntity
  8
0
 62
     7
 48
0.018711
370
    60
100
AcDbLine
 10
31.439178
 20
136.2451275422475
 30
0.0
 11
31.47522
 21
135.4975535422475
 31
0.0
  0
LWPOLYLINE
  5
8CC
330
1F
100
AcDbEntity
  8
0
 62
     7
370
    60
100
AcDbPolyline
 90
        4
 70
     0
 43
0.0
 10
31.822205
 20
129.0823005422475
 10
31.795013
 20
132.5656835422475
 10
31.767456
 20
133.6898745422475
 10
31.734802
 20
134.1964515422475
  0
LINE
  5
8D2
330
1F
100
AcDbEntity
  8
0
 62
     7
370
    60
100
AcDbLine
 10
31.822418
 20
1.205766542247481
 30
0.0
 11
31.822418
 21
124.0923105422475
 31
0.0
  0
LINE
  5
8D3
330
1F
100
AcDbEntity
  8
0
 62
     7
 48
0.033169
370
    60
100
AcDbLine
 10
31.47522
 20
135.4975535422475
 30
0.0
 11
31.734802
 21
134.1964515422475
 31
0.0
  0
LINE
  5
8ED
330
1F
100
AcDbEntity
  8
0
 62
     7
 48
0.019556
370
    60
100
AcDbLine
 10
48.184265
 20
-29.65329545775252
 30
0.0
 11
48.966492
 21
-29.64780945775252
 31
0.0
  0
LINE
  5
8EE
330
1F
100
AcDbEntity
  8
0
 62
     7
370
    60
100
AcDbLine
 10
48.966492
 20
-29.64780945775252
 30
0.0
 11
213.822296
 21
-28.70890545775252
 31
0.0
  0
LINE
  5
8EF
330
1F
100
AcDbEntity
  8
0
 62
     7
370
    60
100
AcDbLine
 10
218.773727
 20
23.98200454224748
 30
0.0
 11
218.773727
 21
45.76798454224749
 31
0.0
  0
LINE
  5
8F0
330
1F
100
AcDbEntity
  8
0
 62
     7
 48
0.008486
370
    60
100
AcDbLine
 10
218.293106
 20
-1.693921457752516
 30
0.0
 11
218.533112
 21
-1.933934457752514
 31
0.0
  0
LINE
  5
8F1
330
1F
100
AcDbEntity
  8
0
 62
     7
 48
0.008485
370
    60
100
AcDbLine
 10
218.293106
 20
23.74199854224748
 30
0.0
 11
218.533112
 21
23.98200454224748
 31
0.0
  0
LINE
  5
8F2
330
1F
100
AcDbEntity
  8
0
 62
     7
 48
0.499564
370
    60
100
AcDbLine
 10
218.058075
 20
1.032762542247482
 30
0.0
 11
218.058075
 21
21.01530654224748
 31
0.0
  0
LINE
  5
8F3
330
1F
100
AcDbEntity
  8
0
 62
     7
 48
0.0125
370
    60
100
AcDbLine
 10
218.058075
 20
21.01530654224748
 30
0.0
 11
218.06665
 21
21.51523054224748
 31
0.0
  0
LINE
  5
8F4
330
1F
100
AcDbEntity
  8
0
 62
     7
 48
0.0125
370
    60
100
AcDbLine
 10
218.058075
 20
1.032762542247482
 30
0.0
 11
218.06665
 21
0.5328395422474799
 31
0.0
  0
LINE
  5
8F5
330
1F
100
AcDbEntity
  8
0
 62
     7
 48
0.049992
370
    60
100
AcDbLine
 10
218.293106
 20
23.74199854224748
 30
0.0
 11
218.293716
 21
21.74230454224748
 31
0.0
  0
LINE
  5
8F6
330
1F
100
AcDbEntity
  8
0
 62
     7
 48
0.008028
370
    60
100
AcDbLine
 10
218.06665
 20
21.51523054224748
 30
0.0
 11
218.293716
 21
21.74230454224748
 31
0.0
  0
LINE
  5
8F7
330
1F
100
AcDbEntity
  8
0
 62
     7
 48
0.049992
370
    60
100
AcDbLine
 10
218.293106
 20
-1.693921457752516
 30
0.0
 11
218.293716
 21
0.3057735422474792
 31
0.0
  0
LINE
  5
8F8
330
1F
100
AcDbEntity
  8
0
 62
     7
 48
0.008028
370
    60
100
AcDbLine
 10
218.06665
 20
0.5328395422474799
 30
0.0
 11
218.293716
 21
0.3057735422474792
 31
0.0
  0
ARC
  5
8F9
330
1F
100
AcDbEntity
  8
0
 62
     7
370
    60
100
AcDbCircle
 10
214.00383
 20
200.5450995422475
 30
0.0
 40
5.760367
100
AcDbArc
 50
94.55337599999999
 51
96.75080499999999
  0
ARC
  5
8FA
330
1F
100
AcDbEntity
  8
0
 62
     7
370
    60
100
AcDbCircle
 10
331.269592
 20
-791.1233574577525
 30
0.0
 40
1004.338135
100
AcDbArc
 50
96.74400199999998
 51
97.50243199999998
  0
LWPOLYLINE
  5
8FB
330
1F
100
AcDbEntity
  8
0
 62
     7
370
    60
100
AcDbPolyline
 90
       22
 70
     0
 43
0.0
 10
215.246964
 20
-28.49466445775252
 10
215.54631
 20
-28.39194245775252
 10
215.838547
 20
-28.27048245775252
 10
216.122498
 20
-28.13077345775252
 10
216.397049
 20
-27.97338645775252
 10
216.661087
 20
-27.79894745775252
 10
216.913544
 20
-27.60815245775252
 10
217.153427
 20
-27.40176145775252
 10
217.379776
 20
-27.18060845775252
 10
217.59166
 20
-26.94557745775252
 10
217.788269
 20
-26.69761445775251
 10
217.968781
 20
-26.43770345775252
 10
218.132492
 20
-26.16689045775252
 10
218.278732
 20
-25.88625145775251
 10
218.406937
 20
-25.59692145775252
 10
218.516571
 20
-25.30006145775252
 10
218.607208
 20
-24.99684645775252
 10
218.678482
 20
-24.68849745775252
 10
218.730103
 20
-24.37624845775252
 10
218.761871
 20
-24.06135345775252
 10
218.773651
 20
-23.74506945775252
 10
218.773727
 20
-23.71713745775252
  0
ARC
  5
913
330
1F
100
AcDbEntity
  8
0
 62
     7
370
    60
100
AcDbCircle
 10
213.774261
 20
201.2968695422475
 30
0.0
 40
4.999341
100
AcDbArc
 50
359.996786
 51
87.073458
  0
LINE
  5
914
330
1F
100
AcDbEntity
  8
0
 62
     7
370
    60
100
AcDbLine
 10
218.773727
 20
179.5116215422475
 30
0.0
 11
218.773727
 21
201.2965795422475
 31
0.0
  0
LINE
  5
915
330
1F
100
AcDbEntity
  8
0
 62
     7
370
    60
100
AcDbLine
 10
218.773727
 20
-23.71713745775252
 30
0.0
 11
218.773727
 21
-1.933934457752514
 31
0.0
  0
LINE
  5
916
330
1F
100
AcDbEntity
  8
0
 62
     7
370
    60
100
AcDbLine
 10
225.555542
 20
55.54903654224748
 30
0.0
 11
225.555542
 21
122.0490365422475
 31
0.0
  0
LINE
  5
917
330
1F
100
AcDbEntity
  8
0
 62
     7
 48
0.0625
370
    60
100
AcDbLine
 10
223.055542
 20
55.54903654224748
 30
0.0
 11
225.555542
 21
55.54903654224748
 31
0.0
  0
LINE
  5
918
330
1F
100
AcDbEntity
  8
0
 62
     7
 48
0.254697
370
    60
100
AcDbLine
 10
212.867661
 20
55.54903654224748
 30
0.0
 11
223.055542
 21
55.54903654224748
 31
0.0
  0
LINE
  5
919
330
1F
100
AcDbEntity
  8
0
 62
     7
370
    60
100
AcDbLine
 10
270.555542
 20
62.29903654224748
 30
0.0
 11
270.555542
 21
88.79903654224748
 31
0.0
  0
LINE
  5
91A
330
1F
100
AcDbEntity
  8
0
 62
     7
370
    60
100
AcDbLine
 10
270.555542
 20
88.79903654224748
 30
0.0
 11
270.555542
 21
115.2990365422475
 31
0.0
  0
LINE
  5
91B
330
1F
100
AcDbEntity
  8
0
 62
     7
370
    60
100
AcDbLine
 10
288.555542
 20
88.79903654224748
 30
0.0
 11
288.555542
 21
123.7990365422475
 31
0.0
  0
LINE
  5
91C
330
1F
100
AcDbEntity
  8
0
 62
     7
370
    60
100
AcDbLine
 10
288.555542
 20
53.79903654224748
 30
0.0
 11
288.555542
 21
88.79903654224748
 31
0.0
  0
LINE
  5
91D
330
1F
100
AcDbEntity
  8
0
 62
     7
 48
0.019689
370
    60
100
AcDbLine
 10
302.262695
 20
123.5001625422475
 30
0.0
 11
302.555542
 21
122.7690685422475
 31
0.0
  0
LINE
  5
91E
330
1F
100
AcDbEntity
  8
0
 62
     7
 48
0.019193
370
    60
100
AcDbLine
 10
301.555542
 20
123.7990365422475
 30
0.0
 11
302.262695
 21
123.5001625422475
 31
0.0
  0
LINE
  5
91F
330
1F
100
AcDbEntity
  8
0
 62
     7
370
    60
100
AcDbLine
 10
302.555542
 20
88.79902854224748
 30
0.0
 11
302.555542
 21
122.7690685422475
 31
0.0
  0
LINE
  5
920
330
1F
100
AcDbEntity
  8
0
 62
     7
 48
0.019689
370
    60
100
AcDbLine
 10
302.262695
 20
54.09791054224748
 30
0.0
 11
302.555542
 21
54.82900454224749
 31
0.0
  0
LINE
  5
921
330
1F
100
AcDbEntity
  8
0
 62
     7
 48
0.019193
370
    60
100
AcDbLine
 10
301.555542
 20
53.79903654224748
 30
0.0
 11
302.262695
 21
54.09791054224748
 31
0.0
  0
LINE
  5
922
330
1F
100
AcDbEntity
  8
0
 62
     7
370
    60
100
AcDbLine
 10
302.555542
 20
54.82900454224749
 30
0.0
 11
302.555542
 21
88.79902854224748
 31
0.0
  0
LINE
  5
923
330
1F
100
AcDbEntity
  8
0
 62
     7
 48
0.150021
370
    60
100
AcDbLine
 10
46.46933
 20
348.914673
 30
0.0
 11
46.568756
 21
342.914673
 31
0.0
  0
LINE
  5
924
330
1F
100
AcDbEntity
  8
0
 62
     7
 48
0.03815
370
    60
100
AcDbLine
 10
53.002563
 20
345.84787
 30
0.0
 11
53.435272
 21
344.384521
 31
0.0
  0
LINE
  5
925
330
1F
100
AcDbEntity
  8
0
 62
     7
 48
0.076685
370
    60
100
AcDbLine
 10
52.942139
 20
348.914673
 30
0.0
 11
53.002563
 21
345.84787
 31
0.0
  0
LINE
  5
926
330
1F
100
AcDbEntity
  8
0
 62
     7
 48
0.010366
370
    60
100
AcDbLine
 10
34.603333
 20
464.153687
 30
0.0
 11
34.968781
 21
464.349579
 31
0.0
  0
LINE
  5
929
330
1F
100
AcDbEntity
  8
0
 62
     7
 48
0.062504
370
    60
100
AcDbLine
 10
223.055542
 20
441.164673
 30
0.0
 11
225.555542
 21
441.135101
 31
0.0
  0
LINE
  5
92A
330
1F
100
AcDbEntity
  8
0
 62
     7
 48
0.136606
370
    60
100
AcDbLine
 10
217.591293
 20
441.156311
 30
0.0
 11
223.055542
 21
441.164673
 31
0.0
  0
LWPOLYLINE
  5
92B
330
1F
100
AcDbEntity
  8
0
 62
     7
370
    60
100
AcDbPolyline
 90
       14
 70
     0
 43
0.0
 10
53.436188
 20
344.385071
 10
53.567139
 20
344.17688
 10
53.714325
 20
343.980591
 10
53.876282
 20
343.798004
 10
54.052277
 20
343.629822
 10
54.24057
 20
343.4776
 10
54.440338
 20
343.341919
 10
54.649689
 20
343.223938
 10
54.867706
 20
343.124115
 10
55.092438
 20
343.043274
 10
55.322815
 20
342.981689
 10
55.556946
 20
342.93988
 10
55.79361
 20
342.917969
 10
55.933044
 20
342.91449
  0
ARC
  5
93B
330
1F
100
AcDbEntity
  8
0
 62
     7
370
    60
100
AcDbCircle
 10
76.909119
 20
345.914642
 30
0.0
 40
3.0
100
AcDbArc
 50
269.999427
 51
285.702468
  0
LINE
  5
93C
330
1F
100
AcDbEntity
  8
0
 62
     7
370
    60
100
AcDbLine
 10
55.933044
 20
342.914673
 30
0.0
 11
76.909088
 21
342.914673
 31
0.0
  0
LINE
  5
93D
330
1F
100
AcDbEntity
  8
0
 62
     7
 48
0.175027
370
    60
100
AcDbLine
 10
97.305542
 20
348.914673
 30
0.0
 11
97.427734
 21
355.914673
 31
0.0
  0
LINE
  5
93E
330
1F
100
AcDbEntity
  8
0
 62
     7
370
    60
100
AcDbLine
 10
109.659058
 20
355.914673
 30
0.0
 11
110.551178
 21
407.023346
 31
0.0
  0
LINE
  5
93F
330
1F
100
AcDbEntity
  8
0
 62
     7
 48
0.05
370
    60
100
AcDbLine
 10
73.305542
 20
348.914673
 30
0.0
 11
75.305542
 21
348.914673
 31
0.0
  0
LINE
  5
940
330
1F
100
AcDbEntity
  8
0
 62
     7
 48
0.05
370
    60
100
AcDbLine
 10
95.305542
 20
348.914673
 30
0.0
 11
97.305542
 21
348.914673
 31
0.0
  0
LINE
  5
941
330
1F
100
AcDbEntity
  8
0
 62
     7
 48
0.175027
370
    60
100
AcDbLine
 10
73.18335
 20
355.914673
 30
0.0
 11
73.305542
 21
348.914673
 31
0.0
  0
LINE
  5
942
330
1F
100
AcDbEntity
  8
0
 62
     7
370
    60
100
AcDbLine
 10
59.770691
 20
423.592194
 30
0.0
 11
60.952026
 21
355.914673
 31
0.0
  0
LINE
  5
943
330
1F
100
AcDbEntity
  8
0
 62
     7
 48
0.175027
370
    60
100
AcDbLine
 10
188.305542
 20
348.914673
 30
0.0
 11
188.427734
 21
355.914673
 31
0.0
  0
LINE
  5
944
330
1F
100
AcDbEntity
  8
0
 62
     7
370
    60
100
AcDbLine
 10
200.659073
 20
355.914673
 30
0.0
 11
201.035843
 21
377.499634
 31
0.0
  0
LINE
  5
945
330
1F
100
AcDbEntity
  8
0
 62
     7
 48
0.05
370
    60
100
AcDbLine
 10
186.305542
 20
348.914673
 30
0.0
 11
188.305542
 21
348.914673
 31
0.0
  0
LINE
  5
946
330
1F
100
AcDbEntity
  8
0
 62
     7
 48
0.05
370
    60
100
AcDbLine
 10
164.305542
 20
348.914673
 30
0.0
 11
166.305542
 21
348.914673
 31
0.0
  0
LINE
  5
947
330
1F
100
AcDbEntity
  8
0
 62
     7
370
    60
100
AcDbLine
 10
151.291946
 20
393.730286
 30
0.0
 11
151.952011
 21
355.914673
 31
0.0
  0
LINE
  5
948
330
1F
100
AcDbEntity
  8
0
 62
     7
 48
0.175027
370
    60
100
AcDbLine
 10
164.18335
 20
355.914673
 30
0.0
 11
164.305542
 21
348.914673
 31
0.0
  0
ARC
  5
949
330
1F
100
AcDbEntity
  8
0
 62
     7
370
    60
100
AcDbCircle
 10
109.903992
 20
345.914673
 30
0.0
 40
3.0
100
AcDbArc
 50
180.999999
 51
270.000001
  0
ARC
  5
94A
330
1F
100
AcDbEntity
  8
0
 62
     7
370
    60
100
AcDbCircle
 10
131.223099
 20
345.914673
 30
0.0
 40
3.0
100
AcDbArc
 50
270.000001
 51
358.999988
  0
LINE
  5
94B
330
1F
100
AcDbEntity
  8
0
 62
     7
370
    60
100
AcDbLine
 10
109.903992
 20
342.914673
 30
0.0
 11
131.223099
 21
342.914673
 31
0.0
  0
LINE
  5
94C
330
1F
100
AcDbEntity
  8
0
 62
     7
 48
0.076321
370
    60
100
AcDbLine
 10
134.222641
 20
345.862305
 30
0.0
 11
134.275909
 21
348.914673
 31
0.0
  0
LINE
  5
94D
330
1F
100
AcDbEntity
  8
0
 62
     7
 48
0.076321
370
    60
100
AcDbLine
 10
106.851166
 20
348.914673
 30
0.0
 11
106.904449
 21
345.862305
 31
0.0
  0
ARC
  5
94E
330
1F
100
AcDbEntity
  8
0
 62
     7
370
    60
100
AcDbCircle
 10
154.395996
 20
345.914673
 30
0.0
 40
3.0
100
AcDbArc
 50
180.999999
 51
270.000001
  0
LINE
  5
94F
330
1F
100
AcDbEntity
  8
0
 62
     7
 48
0.35745
370
    60
100
AcDbLine
 10
154.395996
 20
342.914673
 30
0.0
 11
168.694
 21
342.914673
 31
0.0
  0
LINE
  5
950
330
1F
100
AcDbEntity
  8
0
 62
     7
 48
0.076321
370
    60
100
AcDbLine
 10
151.34317
 20
348.914673
 30
0.0
 11
151.396454
 21
345.862305
 31
0.0
  0
ARC
  5
951
330
1F
100
AcDbEntity
  8
0
 62
     7
370
    60
100
AcDbCircle
 10
190.013092
 20
345.914673
 30
0.0
 40
3.0
100
AcDbArc
 50
270.000001
 51
358.999988
  0
LINE
  5
953
330
1F
100
AcDbEntity
  8
0
 62
     7
 48
0.173937
370
    60
100
AcDbLine
 10
183.055603
 20
342.914673
 30
0.0
 11
190.013092
 21
342.914673
 31
0.0
  0
LINE
  5
954
330
1F
100
AcDbEntity
  8
0
 62
     7
 48
0.021537
370
    60
100
AcDbLine
 10
168.694
 20
342.914673
 30
0.0
 11
169.815109
 21
342.914673
 31
0.0
  0
LINE
  5
955
330
1F
100
AcDbEntity
  8
0
 62
     7
 48
0.076321
370
    60
100
AcDbLine
 10
193.012634
 20
345.862305
 30
0.0
 11
193.065918
 21
348.914673
 31
0.0
  0
ARC
  5
956
330
1F
100
AcDbEntity
  8
0
 62
     7
370
    60
100
AcDbCircle
 10
249.754852
 20
364.914673
 30
0.0
 40
4.5
100
AcDbArc
 50
1.0
 51
82.014535
  0
LINE
  5
957
330
1F
100
AcDbEntity
  8
0
 62
     7
 48
0.001964
370
    60
100
AcDbLine
 10
254.254166
 20
364.993225
 30
0.0
 11
254.255539
 21
364.914673
 31
0.0
  0
LINE
  5
958
330
1F
100
AcDbEntity
  8
0
 62
     7
 48
0.068872
370
    60
100
AcDbLine
 10
92.423584
 20
347.914673
 30
0.0
 11
95.178467
 21
347.914673
 31
0.0
  0
LINE
  5
959
330
1F
100
AcDbEntity
  8
0
 62
     7
 48
0.068874
370
    60
100
AcDbLine
 10
92.305542
 20
345.041687
 30
0.0
 11
92.305542
 21
347.796631
 31
0.0
  0
LINE
  5
95A
330
1F
100
AcDbEntity
  8
0
 62
     7
 48
0.068872
370
    60
100
AcDbLine
 10
90.305542
 20
345.041748
 30
0.0
 11
90.305542
 21
347.796631
 31
0.0
  0
LINE
  5
95B
330
1F
100
AcDbEntity
  8
0
 62
     7
 48
0.068872
370
    60
100
AcDbLine
 10
90.305542
 20
350.032715
 30
0.0
 11
90.305542
 21
352.787598
 31
0.0
  0
LINE
  5
95C
330
1F
100
AcDbEntity
  8
0
 62
     7
 48
0.068872
370
    60
100
AcDbLine
 10
92.305542
 20
350.032715
 30
0.0
 11
92.305542
 21
352.787598
 31
0.0
  0
LINE
  5
95D
330
1F
100
AcDbEntity
  8
0
 62
     7
 48
0.068874
370
    60
100
AcDbLine
 10
92.423584
 20
349.914673
 30
0.0
 11
95.178528
 21
349.914673
 31
0.0
  0
ARC
  5
95E
330
1F
100
AcDbEntity
  8
0
 62
     7
370
    60
100
AcDbCircle
 10
91.305542
 20
348.914673
 30
0.0
 40
4.0
100
AcDbArc
 50
75.522248
 51
90.000003
  0
ARC
  5
95F
330
1F
100
AcDbEntity
  8
0
 62
     7
370
    60
100
AcDbCircle
 10
91.305542
 20
348.914673
 30
0.0
 40
4.0
100
AcDbArc
 50
345.52225
 51
14.477514
  0
ARC
  5
960
330
1F
100
AcDbEntity
  8
0
 62
     7
370
    60
100
AcDbCircle
 10
91.305542
 20
348.914673
 30
0.0
 40
4.0
100
AcDbArc
 50
255.522239
 51
270.000001
  0
ARC
  5
961
330
1F
100
AcDbEntity
  8
0
 62
     7
370
    60
100
AcDbCircle
 10
91.305542
 20
348.914673
 30
0.0
 40
4.0
100
AcDbArc
 50
270.000001
 51
284.477516
  0
ARC
  5
962
330
1F
100
AcDbEntity
  8
0
 62
     7
370
    60
100
AcDbCircle
 10
91.305542
 20
348.914673
 30
0.0
 40
4.0
100
AcDbArc
 50
90.000003
 51
104.47775
  0
LINE
  5
963
330
1F
100
AcDbEntity
  8
0
 62
     7
 48
0.068872
370
    60
100
AcDbLine
 10
183.305542
 20
350.032715
 30
0.0
 11
183.305542
 21
352.787598
 31
0.0
  0
LINE
  5
964
330
1F
100
AcDbEntity
  8
0
 62
     7
 48
0.068874
370
    60
100
AcDbLine
 10
183.423584
 20
349.914673
 30
0.0
 11
186.178528
 21
349.914673
 31
0.0
  0
LINE
  5
965
330
1F
100
AcDbEntity
  8
0
 62
     7
 48
0.068872
370
    60
100
AcDbLine
 10
183.423584
 20
347.914673
 30
0.0
 11
186.178452
 21
347.914673
 31
0.0
  0
LINE
  5
966
330
1F
100
AcDbEntity
  8
0
 62
     7
 48
0.068874
370
    60
100
AcDbLine
 10
183.305542
 20
345.041687
 30
0.0
 11
183.305542
 21
347.796631
 31
0.0
  0
LINE
  5
967
330
1F
100
AcDbEntity
  8
0
 62
     7
 48
0.068872
370
    60
100
AcDbLine
 10
181.305542
 20
350.032715
 30
0.0
 11
181.305542
 21
352.787598
 31
0.0
  0
LINE
  5
968
330
1F
100
AcDbEntity
  8
0
 62
     7
 48
0.068872
370
    60
100
AcDbLine
 10
181.305542
 20
345.041748
 30
0.0
 11
181.305542
 21
347.796631
 31
0.0
  0
ARC
  5
969
330
1F
100
AcDbEntity
  8
0
 62
     7
370
    60
100
AcDbCircle
 10
182.305542
 20
348.914673
 30
0.0
 40
4.0
100
AcDbArc
 50
255.522239
 51
270.000001
  0
ARC
  5
96A
330
1F
100
AcDbEntity
  8
0
 62
     7
370
    60
100
AcDbCircle
 10
182.305542
 20
348.914673
 30
0.0
 40
4.0
100
AcDbArc
 50
90.000003
 51
104.47775
  0
ARC
  5
96B
330
1F
100
AcDbEntity
  8
0
 62
     7
370
    60
100
AcDbCircle
 10
182.305542
 20
348.914673
 30
0.0
 40
4.0
100
AcDbArc
 50
75.522248
 51
90.000003
  0
ARC
  5
96C
330
1F
100
AcDbEntity
  8
0
 62
     7
370
    60
100
AcDbCircle
 10
182.305542
 20
348.914673
 30
0.0
 40
4.0
100
AcDbArc
 50
345.52225
 51
14.477514
  0
ARC
  5
96D
330
1F
100
AcDbEntity
  8
0
 62
     7
370
    60
100
AcDbCircle
 10
182.305542
 20
348.914673
 30
0.0
 40
4.0
100
AcDbArc
 50
270.000001
 51
284.477516
  0
LINE
  5
96E
330
1F
100
AcDbEntity
  8
0
 62
     7
 48
0.068874
370
    60
100
AcDbLine
 10
171.305542
 20
345.041687
 30
0.0
 11
171.305542
 21
347.796631
 31
0.0
  0
LINE
  5
96F
330
1F
100
AcDbEntity
  8
0
 62
     7
 48
0.068872
370
    60
100
AcDbLine
 10
171.305542
 20
350.032715
 30
0.0
 11
171.305542
 21
352.787598
 31
0.0
  0
LINE
  5
970
330
1F
100
AcDbEntity
  8
0
 62
     7
 48
0.068872
370
    60
100
AcDbLine
 10
169.305542
 20
350.032715
 30
0.0
 11
169.305542
 21
352.787598
 31
0.0
  0
LINE
  5
971
330
1F
100
AcDbEntity
  8
0
 62
     7
 48
0.068872
370
    60
100
AcDbLine
 10
166.432632
 20
349.914673
 30
0.0
 11
169.1875
 21
349.914673
 31
0.0
  0
LINE
  5
972
330
1F
100
AcDbEntity
  8
0
 62
     7
 48
0.068872
370
    60
100
AcDbLine
 10
166.432632
 20
347.914673
 30
0.0
 11
169.1875
 21
347.914673
 31
0.0
  0
LINE
  5
973
330
1F
100
AcDbEntity
  8
0
 62
     7
 48
0.068872
370
    60
100
AcDbLine
 10
169.305542
 20
345.041748
 30
0.0
 11
169.305542
 21
347.796631
 31
0.0
  0
ARC
  5
974
330
1F
100
AcDbEntity
  8
0
 62
     7
370
    60
100
AcDbCircle
 10
170.305542
 20
348.914673
 30
0.0
 40
4.0
100
AcDbArc
 50
75.522248
 51
90.000003
  0
ARC
  5
975
330
1F
100
AcDbEntity
  8
0
 62
     7
370
    60
100
AcDbCircle
 10
170.305542
 20
348.914673
 30
0.0
 40
4.0
100
AcDbArc
 50
165.522245
 51
194.477752
  0
ARC
  5
976
330
1F
100
AcDbEntity
  8
0
 62
     7
370
    60
100
AcDbCircle
 10
170.305542
 20
348.914673
 30
0.0
 40
4.0
100
AcDbArc
 50
90.000003
 51
104.47775
  0
ARC
  5
977
330
1F
100
AcDbEntity
  8
0
 62
     7
370
    60
100
AcDbCircle
 10
170.305542
 20
348.914673
 30
0.0
 40
4.0
100
AcDbArc
 50
270.000001
 51
284.477516
  0
ARC
  5
978
330
1F
100
AcDbEntity
  8
0
 62
     7
370
    60
100
AcDbCircle
 10
170.305542
 20
348.914673
 30
0.0
 40
4.0
100
AcDbArc
 50
255.522239
 51
270.000001
  0
LINE
  5
979
330
1F
100
AcDbEntity
  8
0
 62
     7
 48
0.002951
370
    60
100
AcDbLine
 10
171.305542
 20
347.796631
 30
0.0
 11
171.305542
 21
347.914673
 31
0.0
  0
LINE
  5
97A
330
1F
100
AcDbEntity
  8
0
 62
     7
 48
0.002951
370
    60
100
AcDbLine
 10
171.305542
 20
349.914673
 30
0.0
 11
171.305542
 21
350.032715
 31
0.0
  0
LINE
  5
97B
330
1F
100
AcDbEntity
  8
0
 62
     7
 48
0.002951
370
    60
100
AcDbLine
 10
183.305542
 20
349.914673
 30
0.0
 11
183.305542
 21
350.032715
 31
0.0
  0
LINE
  5
97C
330
1F
100
AcDbEntity
  8
0
 62
     7
 48
0.002951
370
    60
100
AcDbLine
 10
183.305542
 20
349.914673
 30
0.0
 11
183.423584
 21
349.914673
 31
0.0
  0
LINE
  5
97D
330
1F
100
AcDbEntity
  8
0
 62
     7
 48
0.002951
370
    60
100
AcDbLine
 10
183.305542
 20
347.914673
 30
0.0
 11
183.423584
 21
347.914673
 31
0.0
  0
LINE
  5
97E
330
1F
100
AcDbEntity
  8
0
 62
     7
 48
0.002951
370
    60
100
AcDbLine
 10
183.305542
 20
347.796631
 30
0.0
 11
183.305542
 21
347.914673
 31
0.0
  0
LINE
  5
97F
330
1F
100
AcDbEntity
  8
0
 62
     7
 48
0.002951
370
    60
100
AcDbLine
 10
181.305542
 20
349.914673
 30
0.0
 11
181.305542
 21
350.032715
 31
0.0
  0
LINE
  5
980
330
1F
100
AcDbEntity
  8
0
 62
     7
 48
0.002951
370
    60
100
AcDbLine
 10
181.305542
 20
347.796631
 30
0.0
 11
181.305542
 21
347.914673
 31
0.0
  0
LINE
  5
981
330
1F
100
AcDbEntity
  8
0
 62
     7
 48
0.25
370
    60
100
AcDbLine
 10
171.305542
 20
347.914673
 30
0.0
 11
181.305542
 21
347.914673
 31
0.0
  0
LINE
  5
982
330
1F
100
AcDbEntity
  8
0
 62
     7
 48
0.25
370
    60
100
AcDbLine
 10
171.305542
 20
349.914673
 30
0.0
 11
181.305542
 21
349.914673
 31
0.0
  0
LINE
  5
983
330
1F
100
AcDbEntity
  8
0
 62
     7
 48
0.002951
370
    60
100
AcDbLine
 10
169.305542
 20
349.914673
 30
0.0
 11
169.305542
 21
350.032715
 31
0.0
  0
LINE
  5
984
330
1F
100
AcDbEntity
  8
0
 62
     7
 48
0.002951
370
    60
100
AcDbLine
 10
169.1875
 20
349.914673
 30
0.0
 11
169.305542
 21
349.914673
 31
0.0
  0
LINE
  5
985
330
1F
100
AcDbEntity
  8
0
 62
     7
 48
0.002951
370
    60
100
AcDbLine
 10
169.1875
 20
347.914673
 30
0.0
 11
169.305542
 21
347.914673
 31
0.0
  0
LINE
  5
986
330
1F
100
AcDbEntity
  8
0
 62
     7
 48
0.002951
370
    60
100
AcDbLine
 10
169.305542
 20
347.796631
 30
0.0
 11
169.305542
 21
347.914673
 31
0.0
  0
LINE
  5
987
330
1F
100
AcDbEntity
  8
0
 62
     7
 48
0.068872
370
    60
100
AcDbLine
 10
78.305542
 20
350.032715
 30
0.0
 11
78.305542
 21
352.787598
 31
0.0
  0
LINE
  5
988
330
1F
100
AcDbEntity
  8
0
 62
     7
 48
0.068872
370
    60
100
AcDbLine
 10
75.432617
 20
349.914673
 30
0.0
 11
78.1875
 21
349.914673
 31
0.0
  0
LINE
  5
989
330
1F
100
AcDbEntity
  8
0
 62
     7
 48
0.068872
370
    60
100
AcDbLine
 10
75.432617
 20
347.914673
 30
0.0
 11
78.1875
 21
347.914673
 31
0.0
  0
LINE
  5
98A
330
1F
100
AcDbEntity
  8
0
 62
     7
 48
0.068872
370
    60
100
AcDbLine
 10
78.305542
 20
345.041748
 30
0.0
 11
78.305542
 21
347.796631
 31
0.0
  0
LINE
  5
98B
330
1F
100
AcDbEntity
  8
0
 62
     7
 48
0.068872
370
    60
100
AcDbLine
 10
80.305542
 20
350.032715
 30
0.0
 11
80.305542
 21
352.787598
 31
0.0
  0
LINE
  5
98C
330
1F
100
AcDbEntity
  8
0
 62
     7
 48
0.068874
370
    60
100
AcDbLine
 10
80.305542
 20
345.041687
 30
0.0
 11
80.305542
 21
347.796631
 31
0.0
  0
ARC
  5
98D
330
1F
100
AcDbEntity
  8
0
 62
     7
370
    60
100
AcDbCircle
 10
79.305542
 20
348.914673
 30
0.0
 40
4.0
100
AcDbArc
 50
90.000003
 51
104.47775
  0
ARC
  5
98E
330
1F
100
AcDbEntity
  8
0
 62
     7
370
    60
100
AcDbCircle
 10
79.305542
 20
348.914673
 30
0.0
 40
4.0
100
AcDbArc
 50
165.522245
 51
194.477752
  0
ARC
  5
98F
330
1F
100
AcDbEntity
  8
0
 62
     7
370
    60
100
AcDbCircle
 10
79.305542
 20
348.914673
 30
0.0
 40
4.0
100
AcDbArc
 50
255.522239
 51
270.000001
  0
ARC
  5
990
330
1F
100
AcDbEntity
  8
0
 62
     7
370
    60
100
AcDbCircle
 10
79.305542
 20
348.914673
 30
0.0
 40
4.0
100
AcDbArc
 50
75.522248
 51
90.000003
  0
ARC
  5
991
330
1F
100
AcDbEntity
  8
0
 62
     7
370
    60
100
AcDbCircle
 10
79.305542
 20
348.914673
 30
0.0
 40
4.0
100
AcDbArc
 50
270.000001
 51
284.477516
  0
LINE
  5
992
330
1F
100
AcDbEntity
  8
0
 62
     7
 48
0.002951
370
    60
100
AcDbLine
 10
92.305542
 20
347.914673
 30
0.0
 11
92.423584
 21
347.914673
 31
0.0
  0
LINE
  5
993
330
1F
100
AcDbEntity
  8
0
 62
     7
 48
0.002951
370
    60
100
AcDbLine
 10
92.305542
 20
347.796631
 30
0.0
 11
92.305542
 21
347.914673
 31
0.0
  0
LINE
  5
994
330
1F
100
AcDbEntity
  8
0
 62
     7
 48
0.002951
370
    60
100
AcDbLine
 10
90.305542
 20
347.796631
 30
0.0
 11
90.305542
 21
347.914673
 31
0.0
  0
LINE
  5
995
330
1F
100
AcDbEntity
  8
0
 62
     7
 48
0.002951
370
    60
100
AcDbLine
 10
90.305542
 20
349.914673
 30
0.0
 11
90.305542
 21
350.032715
 31
0.0
  0
LINE
  5
996
330
1F
100
AcDbEntity
  8
0
 62
     7
 48
0.002951
370
    60
100
AcDbLine
 10
92.305542
 20
349.914673
 30
0.0
 11
92.305542
 21
350.032715
 31
0.0
  0
LINE
  5
997
330
1F
100
AcDbEntity
  8
0
 62
     7
 48
0.002951
370
    60
100
AcDbLine
 10
92.305542
 20
349.914673
 30
0.0
 11
92.423584
 21
349.914673
 31
0.0
  0
LINE
  5
998
330
1F
100
AcDbEntity
  8
0
 62
     7
 48
0.002951
370
    60
100
AcDbLine
 10
78.305542
 20
349.914673
 30
0.0
 11
78.305542
 21
350.032715
 31
0.0
  0
LINE
  5
999
330
1F
100
AcDbEntity
  8
0
 62
     7
 48
0.002951
370
    60
100
AcDbLine
 10
78.1875
 20
349.914673
 30
0.0
 11
78.305542
 21
349.914673
 31
0.0
  0
LINE
  5
99A
330
1F
100
AcDbEntity
  8
0
 62
     7
 48
0.002951
370
    60
100
AcDbLine
 10
78.1875
 20
347.914673
 30
0.0
 11
78.305542
 21
347.914673
 31
0.0
  0
LINE
  5
99B
330
1F
100
AcDbEntity
  8
0
 62
     7
 48
0.002951
370
    60
100
AcDbLine
 10
78.305542
 20
347.796631
 30
0.0
 11
78.305542
 21
347.914673
 31
0.0
  0
LINE
  5
99C
330
1F
100
AcDbEntity
  8
0
 62
     7
 48
0.002951
370
    60
100
AcDbLine
 10
80.305542
 20
349.914673
 30
0.0
 11
80.305542
 21
350.032715
 31
0.0
  0
LINE
  5
99D
330
1F
100
AcDbEntity
  8
0
 62
     7
 48
0.002951
370
    60
100
AcDbLine
 10
80.305542
 20
347.796631
 30
0.0
 11
80.305542
 21
347.914673
 31
0.0
  0
LINE
  5
99E
330
1F
100
AcDbEntity
  8
0
 62
     7
 48
0.25
370
    60
100
AcDbLine
 10
80.305542
 20
347.914673
 30
0.0
 11
90.305542
 21
347.914673
 31
0.0
  0
LINE
  5
99F
330
1F
100
AcDbEntity
  8
0
 62
     7
 48
0.25
370
    60
100
AcDbLine
 10
80.305542
 20
349.914673
 30
0.0
 11
90.305542
 21
349.914673
 31
0.0
  0
LINE
  5
9A0
330
1F
100
AcDbEntity
  8
0
 62
     7
 48
0.025
370
    60
100
AcDbLine
 10
29.975861
 20
451.414673
 30
0.0
 11
30.975861
 21
451.414673
 31
0.0
  0
LINE
  5
9A1
330
1F
100
AcDbEntity
  8
0
 62
     7
 48
0.209972
370
    60
100
AcDbLine
 10
25.352701303331
 20
443.1916110492742
 30
0.0
 11
31.221832
 21
437.32251
 31
0.0
  0
LINE
  5
9A2
330
1F
100
AcDbEntity
  8
0
 62
     7
 48
0.075121
370
    60
100
AcDbLine
 10
219.258118
 20
401.164856
 30
0.0
 11
222.262939
 21
401.164856
 31
0.0
  0
LINE
  5
9A3
330
1F
100
AcDbEntity
  8
0
 62
     7
 48
0.05625
370
    60
100
AcDbLine
 10
222.262939
 20
401.164856
 30
0.0
 11
222.262939
 21
403.414856
 31
0.0
  0
LINE
  5
9A4
330
1F
100
AcDbEntity
  8
0
 62
     7
 48
0.259552
370
    60
100
AcDbLine
 10
219.472321
 20
413.414856
 30
0.0
 11
222.262939
 21
403.414856
 31
0.0
  0
LINE
  5
9A5
330
1F
100
AcDbEntity
  8
0
 62
     7
 48
0.03492
370
    60
100
AcDbLine
 10
218.075531
 20
413.414856
 30
0.0
 11
219.472321
 21
413.414856
 31
0.0
  0
LINE
  5
9A6
330
1F
100
AcDbEntity
  8
0
 62
     7
 48
0.005378
370
    60
100
AcDbLine
 10
219.254364
 20
400.949768
 30
0.0
 11
219.258118
 21
401.164856
 31
0.0
  0
LINE
  5
9A7
330
1F
100
AcDbEntity
  8
0
 62
     7
 48
0.344678
370
    60
100
AcDbLine
 10
218.773727
 20
373.414673
 30
0.0
 11
219.014343
 21
387.199677
 31
0.0
  0
LINE
  5
9A8
330
1F
100
AcDbEntity
  8
0
 62
     7
 48
0.062651
370
    60
100
AcDbLine
 10
102.408905
 20
364.892334
 30
0.0
 11
104.914917
 21
364.907043
 31
0.0
  0
LINE
  5
9A9
330
1F
100
AcDbEntity
  8
0
 62
     7
 48
0.174809
370
    60
100
AcDbLine
 10
104.914917
 20
357.914673
 30
0.0
 11
104.914917
 21
364.907043
 31
0.0
  0
LINE
  5
9AA
330
1F
100
AcDbEntity
  8
0
 62
     7
 48
0.174442
370
    60
100
AcDbLine
 10
102.408905
 20
357.914673
 30
0.0
 11
102.408905
 21
364.892334
 31
0.0
  0
LINE
  5
9AB
330
1F
100
AcDbEntity
  8
0
 62
     7
 48
0.062654
370
    60
100
AcDbLine
 10
193.40892
 20
365.192444
 30
0.0
 11
195.914917
 21
365.220459
 31
0.0
  0
LINE
  5
9AC
330
1F
100
AcDbEntity
  8
0
 62
     7
 48
0.182645
370
    60
100
AcDbLine
 10
195.914917
 20
357.914673
 30
0.0
 11
195.914917
 21
365.220459
 31
0.0
  0
LINE
  5
9AD
330
1F
100
AcDbEntity
  8
0
 62
     7
 48
0.181944
370
    60
100
AcDbLine
 10
193.40892
 20
357.914673
 30
0.0
 11
193.40892
 21
365.192444
 31
0.0
  0
LINE
  5
9AE
330
1F
100
AcDbEntity
  8
0
 62
     7
 48
0.181944
370
    60
100
AcDbLine
 10
193.40892
 20
357.914673
 30
0.0
 11
193.40892
 21
365.192444
 31
0.0
  0
LINE
  5
9AF
330
1F
100
AcDbEntity
  8
0
 62
     7
 48
0.062654
370
    60
100
AcDbLine
 10
156.696167
 20
364.781738
 30
0.0
 11
159.202164
 21
364.809753
 31
0.0
  0
LINE
  5
9B0
330
1F
100
AcDbEntity
  8
0
 62
     7
 48
0.171677
370
    60
100
AcDbLine
 10
156.696167
 20
357.914673
 30
0.0
 11
156.696167
 21
364.781738
 31
0.0
  0
LINE
  5
9B1
330
1F
100
AcDbEntity
  8
0
 62
     7
 48
0.172377
370
    60
100
AcDbLine
 10
159.202164
 20
357.914673
 30
0.0
 11
159.202164
 21
364.809753
 31
0.0
  0
LINE
  5
9B2
330
1F
100
AcDbEntity
  8
0
 62
     7
 48
0.025
370
    60
100
AcDbLine
 10
107.658905
 20
357.914673
 30
0.0
 11
108.658905
 21
357.914673
 31
0.0
  0
LINE
  5
9B3
330
1F
100
AcDbEntity
  8
0
 62
     7
 48
0.025
370
    60
100
AcDbLine
 10
98.658905
 20
357.914673
 30
0.0
 11
99.658905
 21
357.914673
 31
0.0
  0
LINE
  5
9B4
330
1F
100
AcDbEntity
  8
0
 62
     7
 48
0.030779
370
    60
100
AcDbLine
 10
97.427734
 20
355.914673
 30
0.0
 11
98.658905
 21
355.914673
 31
0.0
  0
LINE
  5
9B5
330
1F
100
AcDbEntity
  8
0
 62
     7
 48
0.025004
370
    60
100
AcDbLine
 10
108.658905
 20
355.914673
 30
0.0
 11
109.659058
 21
355.914673
 31
0.0
  0
LINE
  5
9B6
330
1F
100
AcDbEntity
  8
0
 62
     7
 48
0.025
370
    60
100
AcDbLine
 10
107.658905
 20
355.914673
 30
0.0
 11
108.658905
 21
355.914673
 31
0.0
  0
LINE
  5
9B7
330
1F
100
AcDbEntity
  8
0
 62
     7
 48
0.025
370
    60
100
AcDbLine
 10
98.658905
 20
355.914673
 30
0.0
 11
99.658905
 21
355.914673
 31
0.0
  0
LINE
  5
9B8
330
1F
100
AcDbEntity
  8
0
 62
     7
 48
0.025
370
    60
100
AcDbLine
 10
189.65892
 20
357.914673
 30
0.0
 11
190.65892
 21
357.914673
 31
0.0
  0
LINE
  5
9B9
330
1F
100
AcDbEntity
  8
0
 62
     7
 48
0.025
370
    60
100
AcDbLine
 10
198.65892
 20
357.914673
 30
0.0
 11
199.65892
 21
357.914673
 31
0.0
  0
LINE
  5
9BA
330
1F
100
AcDbEntity
  8
0
 62
     7
 48
0.03078
370
    60
100
AcDbLine
 10
188.427734
 20
355.914673
 30
0.0
 11
189.65892
 21
355.914673
 31
0.0
  0
LINE
  5
9BB
330
1F
100
AcDbEntity
  8
0
 62
     7
 48
0.025004
370
    60
100
AcDbLine
 10
199.65892
 20
355.914673
 30
0.0
 11
200.659073
 21
355.914673
 31
0.0
  0
LINE
  5
9BC
330
1F
100
AcDbEntity
  8
0
 62
     7
 48
0.025
370
    60
100
AcDbLine
 10
189.65892
 20
355.914673
 30
0.0
 11
190.65892
 21
355.914673
 31
0.0
  0
LINE
  5
9BD
330
1F
100
AcDbEntity
  8
0
 62
     7
 48
0.025
370
    60
100
AcDbLine
 10
198.65892
 20
355.914673
 30
0.0
 11
199.65892
 21
355.914673
 31
0.0
  0
LINE
  5
9BE
330
1F
100
AcDbEntity
  8
0
 62
     7
 48
0.0686
370
    60
100
AcDbLine
 10
195.914917
 20
357.914673
 30
0.0
 11
198.65892
 21
357.914673
 31
0.0
  0
LINE
  5
9BF
330
1F
100
AcDbEntity
  8
0
 62
     7
 48
0.06875
370
    60
100
AcDbLine
 10
190.65892
 20
357.914673
 30
0.0
 11
193.40892
 21
357.914673
 31
0.0
  0
LINE
  5
9C0
330
1F
100
AcDbEntity
  8
0
 62
     7
 48
0.06265
370
    60
100
AcDbLine
 10
193.40892
 20
357.914673
 30
0.0
 11
195.914917
 21
357.914673
 31
0.0
  0
LINE
  5
9C1
330
1F
100
AcDbEntity
  8
0
 62
     7
 48
0.2
370
    60
100
AcDbLine
 10
190.65892
 20
355.914673
 30
0.0
 11
198.65892
 21
355.914673
 31
0.0
  0
LINE
  5
9C2
330
1F
100
AcDbEntity
  8
0
 62
     7
 48
0.025
370
    60
100
AcDbLine
 10
152.952164
 20
357.914673
 30
0.0
 11
153.952164
 21
357.914673
 31
0.0
  0
LINE
  5
9C3
330
1F
100
AcDbEntity
  8
0
 62
     7
 48
0.025
370
    60
100
AcDbLine
 10
161.952164
 20
357.914673
 30
0.0
 11
162.952164
 21
357.914673
 31
0.0
  0
LINE
  5
9C4
330
1F
100
AcDbEntity
  8
0
 62
     7
 48
0.025004
370
    60
100
AcDbLine
 10
151.952011
 20
355.914673
 30
0.0
 11
152.952164
 21
355.914673
 31
0.0
  0
LINE
  5
9C5
330
1F
100
AcDbEntity
  8
0
 62
     7
 48
0.03078
370
    60
100
AcDbLine
 10
162.952164
 20
355.914673
 30
0.0
 11
164.18335
 21
355.914673
 31
0.0
  0
LINE
  5
9C6
330
1F
100
AcDbEntity
  8
0
 62
     7
 48
0.025
370
    60
100
AcDbLine
 10
152.952164
 20
355.914673
 30
0.0
 11
153.952164
 21
355.914673
 31
0.0
  0
LINE
  5
9C7
330
1F
100
AcDbEntity
  8
0
 62
     7
 48
0.025
370
    60
100
AcDbLine
 10
161.952164
 20
355.914673
 30
0.0
 11
162.952164
 21
355.914673
 31
0.0
  0
LINE
  5
9C8
330
1F
100
AcDbEntity
  8
0
 62
     7
 48
0.025
370
    60
100
AcDbLine
 10
70.952179
 20
357.914673
 30
0.0
 11
71.952179
 21
357.914673
 31
0.0
  0
LINE
  5
9C9
330
1F
100
AcDbEntity
  8
0
 62
     7
 48
0.025
370
    60
100
AcDbLine
 10
61.952179
 20
357.914673
 30
0.0
 11
62.952179
 21
357.914673
 31
0.0
  0
LINE
  5
9CA
330
1F
100
AcDbEntity
  8
0
 62
     7
 48
0.025004
370
    60
100
AcDbLine
 10
60.952026
 20
355.914673
 30
0.0
 11
61.952179
 21
355.914673
 31
0.0
  0
LINE
  5
9CB
330
1F
100
AcDbEntity
  8
0
 62
     7
 48
0.030779
370
    60
100
AcDbLine
 10
71.952179
 20
355.914673
 30
0.0
 11
73.18335
 21
355.914673
 31
0.0
  0
LINE
  5
9CC
330
1F
100
AcDbEntity
  8
0
 62
     7
 48
0.025
370
    60
100
AcDbLine
 10
70.952179
 20
355.914673
 30
0.0
 11
71.952179
 21
355.914673
 31
0.0
  0
LINE
  5
9CD
330
1F
100
AcDbEntity
  8
0
 62
     7
 48
0.025
370
    60
100
AcDbLine
 10
61.952179
 20
355.914673
 30
0.0
 11
62.952179
 21
355.914673
 31
0.0
  0
LINE
  5
9CE
330
1F
100
AcDbEntity
  8
0
 62
     7
 48
0.062651
370
    60
100
AcDbLine
 10
65.696167
 20
364.677063
 30
0.0
 11
68.202179
 21
364.691772
 31
0.0
  0
LINE
  5
9CF
330
1F
100
AcDbEntity
  8
0
 62
     7
 48
0.169427
370
    60
100
AcDbLine
 10
68.202179
 20
357.914673
 30
0.0
 11
68.202179
 21
364.691772
 31
0.0
  0
LINE
  5
9D0
330
1F
100
AcDbEntity
  8
0
 62
     7
 48
0.06875
370
    60
100
AcDbLine
 10
68.202179
 20
357.914673
 30
0.0
 11
70.952179
 21
357.914673
 31
0.0
  0
LINE
  5
9D1
330
1F
100
AcDbEntity
  8
0
 62
     7
 48
0.0686
370
    60
100
AcDbLine
 10
62.952179
 20
357.914673
 30
0.0
 11
65.696167
 21
357.914673
 31
0.0
  0
LINE
  5
9D2
330
1F
100
AcDbEntity
  8
0
 62
     7
 48
0.2
370
    60
100
AcDbLine
 10
62.952179
 20
355.914673
 30
0.0
 11
70.952179
 21
355.914673
 31
0.0
  0
LINE
  5
9D3
330
1F
100
AcDbEntity
  8
0
 62
     7
 48
0.06265
370
    60
100
AcDbLine
 10
65.696167
 20
357.914673
 30
0.0
 11
68.202179
 21
357.914673
 31
0.0
  0
LINE
  5
9D4
330
1F
100
AcDbEntity
  8
0
 62
     7
 48
0.16906
370
    60
100
AcDbLine
 10
65.696167
 20
357.914673
 30
0.0
 11
65.696167
 21
364.677063
 31
0.0
  0
LINE
  5
9D5
330
1F
100
AcDbEntity
  8
0
 62
     7
 48
0.109438
370
    60
100
AcDbLine
 10
51.555542
 20
342.914673
 30
0.0
 11
55.933044
 21
342.914673
 31
0.0
  0
LINE
  5
9D6
330
1F
100
AcDbEntity
  8
0
 62
     7
 48
0.12467
370
    60
100
AcDbLine
 10
46.568756
 20
342.914673
 30
0.0
 11
51.555542
 21
342.914673
 31
0.0
  0
LINE
  5
9D7
330
1F
100
AcDbEntity
  8
0
 62
     7
370
    60
100
AcDbLine
 10
218.450806
 20
354.914673
 30
0.0
 11
254.080994
 21
354.914673
 31
0.0
  0
LINE
  5
9D8
330
1F
100
AcDbEntity
  8
0
 62
     7
 48
0.187529
370
    60
100
AcDbLine
 10
254.080994
 20
354.914673
 30
0.0
 11
254.211899
 21
362.414673
 31
0.0
  0
LINE
  5
9D9
330
1F
100
AcDbEntity
  8
0
 62
     7
 48
0.06251
370
    60
100
AcDbLine
 10
254.211899
 20
362.414673
 30
0.0
 11
254.255539
 21
364.914673
 31
0.0
  0
LINE
  5
9DA
330
1F
100
AcDbEntity
  8
0
 62
     7
 48
0.212532
370
    60
100
AcDbLine
 10
250.289627
 20
373.414673
 30
0.0
 11
250.437988
 21
364.914673
 31
0.0
  0
LINE
  5
9DB
330
1F
100
AcDbEntity
  8
0
 62
     7
 48
0.300046
370
    60
100
AcDbLine
 10
218.346085
 20
348.914673
 30
0.0
 11
218.555542
 21
360.914673
 31
0.0
  0
LINE
  5
9DC
330
1F
100
AcDbEntity
  8
0
 62
     7
 48
0.023802
370
    60
100
AcDbLine
 10
30.975861
 20
451.414673
 30
0.0
 11
31.927948
 21
451.414673
 31
0.0
  0
ARC
  5
9DD
330
1F
100
AcDbEntity
  8
0
 62
     7
370
    60
100
AcDbCircle
 10
47.260406
 20
422.414215
 30
0.0
 40
5.000447
100
AcDbArc
 50
80.850356
 51
89.99934
  0
LWPOLYLINE
  5
9DE
330
1F
100
AcDbEntity
  8
0
 62
     7
370
    60
100
AcDbPolyline
 90
        7
 70
     0
 43
0.0
 10
31.378845
 20
428.3284
 10
31.393707
 20
427.986694
 10
31.429413
 20
427.722076
 10
31.46933
 20
427.5802
 10
31.514038
 20
427.491943
 10
31.561462
 20
427.441559
 10
31.645844
 20
427.414673
  0
LINE
  5
9E7
330
1F
100
AcDbEntity
  8
0
 62
     7
 48
0.324522
370
    60
100
AcDbLine
 10
78.815094
 20
342.914673
 30
0.0
 11
91.79599
 21
342.914673
 31
0.0
  0
ARC
  5
9E8
330
1F
100
AcDbEntity
  8
0
 62
     7
370
    60
100
AcDbCircle
 10
91.79599
 20
348.414673
 30
0.0
 40
5.5
100
AcDbArc
 50
270.000001
 51
358.999988
  0
ARC
  5
9E9
330
1F
100
AcDbEntity
  8
0
 62
     7
370
    60
100
AcDbCircle
 10
182.795975
 20
348.414673
 30
0.0
 40
5.5
100
AcDbArc
 50
270.000001
 51
358.999988
  0
ARC
  5
9EA
330
1F
100
AcDbEntity
  8
0
 62
     7
370
    60
100
AcDbCircle
 10
169.815109
 20
348.414673
 30
0.0
 40
5.5
100
AcDbArc
 50
180.999999
 51
270.000001
  0
LINE
  5
9EB
330
1F
100
AcDbEntity
  8
0
 62
     7
370
    60
100
AcDbLine
 10
97.305542
 20
348.914673
 30
0.0
 11
164.305542
 21
348.914673
 31
0.0
  0
LINE
  5
9EC
330
1F
100
AcDbEntity
  8
0
 62
     7
 48
0.324522
370
    60
100
AcDbLine
 10
169.815109
 20
342.914673
 30
0.0
 11
182.795975
 21
342.914673
 31
0.0
  0
ARC
  5
9ED
330
1F
100
AcDbEntity
  8
0
 62
     7
370
    60
100
AcDbCircle
 10
78.815094
 20
348.414673
 30
0.0
 40
5.5
100
AcDbArc
 50
180.999999
 51
270.000001
  0
ARC
  5
9EE
330
1F
100
AcDbEntity
  8
0
 62
     7
370
    60
100
AcDbCircle
 10
213.714554
 20
374.414673
 30
0.0
 40
1.0
100
AcDbArc
 50
251.929314
 51
260.85017
  0
ARC
  5
9EF
330
1F
100
AcDbEntity
  8
0
 62
     7
370
    60
100
AcDbCircle
 10
47.260468
 20
422.414673
 30
0.0
 40
5.0
100
AcDbArc
 50
71.929323
 51
80.850193
  0
LINE
  5
9F0
330
1F
100
AcDbEntity
  8
0
 62
     7
 48
0.300046
370
    60
100
AcDbLine
 10
32.555542
 20
360.914673
 30
0.0
 11
32.765015
 21
348.914673
 31
0.0
  0
LINE
  5
9F1
330
1F
100
AcDbEntity
  8
0
 62
     7
 48
0.091276
370
    60
100
AcDbLine
 10
31.315125
 20
431.978882
 30
0.0
 11
31.378845
 21
428.3284
 31
0.0
  0
LINE
  5
9F2
330
1F
100
AcDbEntity
  8
0
 62
     7
 48
0.114123
370
    60
100
AcDbLine
 10
30.975861
 20
451.414673
 30
0.0
 11
31.055542
 21
446.850464
 31
0.0
  0
LINE
  5
9F3
330
1F
100
AcDbEntity
  8
0
 62
     7
370
    60
100
AcDbLine
 10
31.378845
 20
428.3284
 30
0.0
 11
32.555542
 21
360.914673
 31
0.0
  0
LINE
  5
A03
330
1F
100
AcDbEntity
  8
0
 62
     7
 48
0.312548
370
    60
100
AcDbLine
 10
218.555542
 20
360.914673
 30
0.0
 11
218.773727
 21
373.414673
 31
0.0
  0
LINE
  5
A05
330
1F
100
AcDbEntity
  8
0
 62
     7
 48
0.382263
370
    60
100
AcDbLine
 10
32.765015
 20
348.914673
 30
0.0
 11
48.055542
 21
348.914673
 31
0.0
  0
LINE
  5
A06
330
1F
100
AcDbEntity
  8
0
 62
     7
 48
0.119764
370
    60
100
AcDbLine
 10
213.555542
 20
348.914673
 30
0.0
 11
218.346085
 21
348.914673
 31
0.0
  0
LINE
  5
A07
330
1F
100
AcDbEntity
  8
0
 62
     7
370
    60
100
AcDbLine
 10
188.305542
 20
348.914673
 30
0.0
 11
213.555542
 21
348.914673
 31
0.0
  0
LINE
  5
A08
330
1F
100
AcDbEntity
  8
0
 62
     7
370
    60
100
AcDbLine
 10
48.055542
 20
348.914673
 30
0.0
 11
73.305542
 21
348.914673
 31
0.0
  0
CIRCLE
  5
A09
330
1F
100
AcDbEntity
  8
0
 62
     7
370
    60
100
AcDbCircle
 10
24.975861
 20
448.164673
 30
0.0
 40
1.75
  0
LINE
  5
A0B
330
1F
100
AcDbEntity
  8
0
 62
     7
370
    60
100
AcDbLine
 10
218.773727
 20
373.414673
 30
0.0
 11
250.289627
 21
373.414673
 31
0.0
  0
LINE
  5
A0C
330
1F
100
AcDbEntity
  8
0
 62
     7
 48
0.03831
370
    60
100
AcDbLine
 10
213.4043639193972
 20
373.463998442701
 30
0.0
 11
215.246964
 21
373.414673
 31
0.0
  0
LINE
  5
A0D
330
1F
100
AcDbEntity
  8
0
 62
     7
 48
0.011736
370
    60
100
AcDbLine
 10
216.959885
 20
373.414673
 30
0.0
 11
217.429337
 21
373.414673
 31
0.0
  0
LINE
  5
A0E
330
1F
100
AcDbEntity
  8
0
 62
     7
 48
0.008629
370
    60
100
AcDbLine
 10
218.232544
 20
373.414673
 30
0.0
 11
218.577698
 21
373.414673
 31
0.0
  0
LINE
  5
A0F
330
1F
100
AcDbEntity
  8
0
 62
     7
 48
0.371846
370
    60
100
AcDbLine
 10
31.055542
 20
446.850464
 30
0.0
 11
31.315125
 21
431.978882
 31
0.0
  0
LINE
  5
A10
330
1F
100
AcDbEntity
  8
0
 62
     7
370
    60
100
AcDbLine
 10
59.770691
 20
423.592194
 30
0.0
 11
110.551178
 21
407.023346
 31
0.0
  0
LINE
  5
A11
330
1F
100
AcDbEntity
  8
0
 62
     7
370
    60
100
AcDbLine
 10
151.291946
 20
393.730286
 30
0.0
 11
201.035843
 21
377.499634
 31
0.0
  0
LINE
  5
A12
330
1F
100
AcDbEntity
  8
0
 62
     7
370
    60
100
AcDbLine
 10
110.551178
 20
407.023346
 30
0.0
 11
151.291946
 21
393.730286
 31
0.0
  0
LINE
  5
A13
330
1F
100
AcDbEntity
  8
0
 62
     7
 48
0.325257
370
    60
100
AcDbLine
 10
201.035843
 20
377.499634
 30
0.0
 11
213.404373
 21
373.463989
 31
0.0
  0
LINE
  5
A14
330
1F
100
AcDbEntity
  8
0
 62
     7
 48
0.288198
370
    60
100
AcDbLine
 10
48.811401
 20
427.16806
 30
0.0
 11
59.770691
 21
423.592194
 31
0.0
  0
LINE
  5
A15
330
1F
100
AcDbEntity
  8
0
 62
     7
 48
0.390366
370
    60
100
AcDbLine
 10
31.645844
 20
427.414673
 30
0.0
 11
47.260468
 21
427.414673
 31
0.0
  0
LINE
  5
A16
330
1F
100
AcDbEntity
  8
0
 62
     7
 48
0.014902
370
    60
100
AcDbLine
 10
164.305542
 20
348.914673
 30
0.0
 11
164.315948
 21
348.318665
 31
0.0
  0
LINE
  5
A17
330
1F
100
AcDbEntity
  8
0
 62
     7
 48
0.014902
370
    60
100
AcDbLine
 10
188.295135
 20
348.318665
 30
0.0
 11
188.305542
 21
348.914673
 31
0.0
  0
LINE
  5
A18
330
1F
100
AcDbEntity
  8
0
 62
     7
 48
0.014902
370
    60
100
AcDbLine
 10
97.295135
 20
348.318665
 30
0.0
 11
97.305542
 21
348.914673
 31
0.0
  0
LINE
  5
A19
330
1F
100
AcDbEntity
  8
0
 62
     7
 48
0.014902
370
    60
100
AcDbLine
 10
73.305542
 20
348.914673
 30
0.0
 11
73.315948
 21
348.318665
 31
0.0
  0
LINE
  5
A1A
330
1F
100
AcDbEntity
  8
0
 62
     7
 48
0.05
370
    60
100
AcDbLine
 10
189.65892
 20
355.914673
 30
0.0
 11
189.65892
 21
357.914673
 31
0.0
  0
LINE
  5
A1B
330
1F
100
AcDbEntity
  8
0
 62
     7
 48
0.05
370
    60
100
AcDbLine
 10
199.65892
 20
355.914673
 30
0.0
 11
199.65892
 21
357.914673
 31
0.0
  0
LINE
  5
A1C
330
1F
100
AcDbEntity
  8
0
 62
     7
 48
0.05
370
    60
100
AcDbLine
 10
152.952164
 20
355.914673
 30
0.0
 11
152.952164
 21
357.914673
 31
0.0
  0
LINE
  5
A1D
330
1F
100
AcDbEntity
  8
0
 62
     7
 48
0.05
370
    60
100
AcDbLine
 10
162.952164
 20
355.914673
 30
0.0
 11
162.952164
 21
357.914673
 31
0.0
  0
LINE
  5
A1E
330
1F
100
AcDbEntity
  8
0
 62
     7
 48
0.06265
370
    60
100
AcDbLine
 10
156.696167
 20
357.914673
 30
0.0
 11
159.202164
 21
357.914673
 31
0.0
  0
LINE
  5
A1F
330
1F
100
AcDbEntity
  8
0
 62
     7
 48
0.0686
370
    60
100
AcDbLine
 10
153.952164
 20
357.914673
 30
0.0
 11
156.696167
 21
357.914673
 31
0.0
  0
LINE
  5
A20
330
1F
100
AcDbEntity
  8
0
 62
     7
 48
0.06875
370
    60
100
AcDbLine
 10
159.202164
 20
357.914673
 30
0.0
 11
161.952164
 21
357.914673
 31
0.0
  0
LINE
  5
A21
330
1F
100
AcDbEntity
  8
0
 62
     7
 48
0.2
370
    60
100
AcDbLine
 10
153.952164
 20
355.914673
 30
0.0
 11
161.952164
 21
355.914673
 31
0.0
  0
LINE
  5
A22
330
1F
100
AcDbEntity
  8
0
 62
     7
 48
0.095439
370
    60
100
AcDbLine
 10
250.437988
 20
364.914673
 30
0.0
 11
254.255539
 21
364.914673
 31
0.0
  0
LINE
  5
A23
330
1F
100
AcDbEntity
  8
0
 62
     7
 48
0.06265
370
    60
100
AcDbLine
 10
102.408905
 20
357.914673
 30
0.0
 11
104.914917
 21
357.914673
 31
0.0
  0
LINE
  5
A24
330
1F
100
AcDbEntity
  8
0
 62
     7
 48
0.0686
370
    60
100
AcDbLine
 10
104.914917
 20
357.914673
 30
0.0
 11
107.658905
 21
357.914673
 31
0.0
  0
LINE
  5
A25
330
1F
100
AcDbEntity
  8
0
 62
     7
 48
0.06875
370
    60
100
AcDbLine
 10
99.658905
 20
357.914673
 30
0.0
 11
102.408905
 21
357.914673
 31
0.0
  0
LINE
  5
A26
330
1F
100
AcDbEntity
  8
0
 62
     7
 48
0.2
370
    60
100
AcDbLine
 10
99.658905
 20
355.914673
 30
0.0
 11
107.658905
 21
355.914673
 31
0.0
  0
LINE
  5
A27
330
1F
100
AcDbEntity
  8
0
 62
     7
 48
0.05
370
    60
100
AcDbLine
 10
98.658905
 20
355.914673
 30
0.0
 11
98.658905
 21
357.914673
 31
0.0
  0
LINE
  5
A28
330
1F
100
AcDbEntity
  8
0
 62
     7
 48
0.05
370
    60
100
AcDbLine
 10
108.658905
 20
355.914673
 30
0.0
 11
108.658905
 21
357.914673
 31
0.0
  0
LINE
  5
A29
330
1F
100
AcDbEntity
  8
0
 62
     7
 48
0.05
370
    60
100
AcDbLine
 10
61.952179
 20
355.914673
 30
0.0
 11
61.952179
 21
357.914673
 31
0.0
  0
LINE
  5
A2A
330
1F
100
AcDbEntity
  8
0
 62
     7
 48
0.05
370
    60
100
AcDbLine
 10
71.952179
 20
355.914673
 30
0.0
 11
71.952179
 21
357.914673
 31
0.0
  0
LINE
  5
A2C
330
1F
100
AcDbEntity
  8
0
 62
     7
 48
0.000191
370
    60
100
AcDbLine
 10
177.352936
 20
498.375641
 30
0.0
 11
177.352936
 21
498.38327
 31
0.0
  0
LINE
  5
A2D
330
1F
100
AcDbEntity
  8
0
 62
     7
 48
0.000053
370
    60
100
AcDbLine
 10
46.852936
 20
470.338165
 30
0.0
 11
46.852936
 21
470.340271
 31
0.0
  0
LWPOLYLINE
  5
A2E
330
1F
100
AcDbEntity
  8
0
 62
     7
370
    60
100
AcDbPolyline
 90
        7
 70
     0
 43
0.0
 10
31.822205
 20
451.902557
 10
31.82193
 20
451.904053
 10
31.821106
 20
451.905426
 10
31.819763
 20
451.906738
 10
31.815399
 20
451.909027
 10
31.800201
 20
451.912445
 10
31.752716
 20
451.914673
  0
LINE
  5
A37
330
1F
100
AcDbEntity
  8
0
 62
     7
 48
0.025004
370
    60
100
AcDbLine
 10
30.822266
 20
451.914673
 30
0.0
 11
31.822418
 21
451.914673
 31
0.0
  0
ARC
  5
A3E
330
1F
100
AcDbEntity
  8
0
 62
     7
370
    60
100
AcDbCircle
 10
36.9599
 20
459.74472
 30
0.0
 40
5.000033
100
AcDbArc
 50
118.124488
 51
118.177668
  0
LINE
  5
A3F
330
1F
100
AcDbEntity
  8
0
 62
     7
 48
0.00866
370
    60
100
AcDbLine
 10
30.475861
 20
451.914673
 30
0.0
 11
30.822266
 21
451.914673
 31
0.0
  0
ARC
  5
A40
330
1F
100
AcDbEntity
  8
0
 62
     7
370
    60
100
AcDbCircle
 10
24.975861
 20
448.164673
 30
0.0
 40
5.0
100
AcDbArc
 50
180.000005
 51
0.0
  0
ARC
  5
A41
330
1F
100
AcDbEntity
  8
0
 62
     7
370
    60
100
AcDbCircle
 10
30.475861
 20
451.414673
 30
0.0
 40
0.5
100
AcDbArc
 50
90.000003
 51
180.000005
  0
LINE
  5
A42
330
1F
100
AcDbEntity
  8
0
 62
     7
 48
0.08125
370
    60
100
AcDbLine
 10
29.975861
 20
448.164673
 30
0.0
 11
29.975861
 21
451.414673
 31
0.0
  0
LINE
  5
A43
330
1F
100
AcDbEntity
  8
0
 62
     7
 48
0.12012
370
    60
100
AcDbLine
 10
19.975861
 20
448.164673
 30
0.0
 11
19.975861
 21
452.969482
 31
0.0
  0
ARC
  5
A44
330
1F
100
AcDbEntity
  8
0
 62
     7
370
    60
100
AcDbCircle
 10
24.975861
 20
452.969482
 30
0.0
 40
5.0
100
AcDbArc
 50
134.112867
 51
180.000005
  0
ARC
  5
A45
330
1F
100
AcDbEntity
  8
0
 62
     7
370
    60
100
AcDbCircle
 10
152.963531
 20
242.077942
 30
0.0
 40
251.647873
100
AcDbArc
 50
118.056378
 51
118.798806
  0
ARC
  5
A46
330
1F
100
AcDbEntity
  8
0
 62
     7
370
    60
100
AcDbCircle
 10
173.892929
 20
203.556213
 30
0.0
 40
295.487915
100
AcDbArc
 50
118.756826
 51
119.468191
  0
ARC
  5
A47
330
1F
100
AcDbEntity
  8
0
 62
     7
370
    60
100
AcDbCircle
 10
24.975861
 20
452.969482
 30
0.0
 40
5.0
100
AcDbArc
 50
120.838547
 51
134.112867
  0
ARC
  5
A48
330
1F
100
AcDbEntity
  8
0
 62
     7
370
    60
100
AcDbCircle
 10
174.044754
 20
203.287216
 30
0.0
 40
295.796783
100
AcDbArc
 50
119.468163
 51
120.838654
  0
ARC
  5
A49
330
1F
100
AcDbEntity
  8
0
 62
     7
370
    60
100
AcDbCircle
 10
24.975861
 20
448.164673
 30
0.0
 40
2.5
100
AcDbArc
 50
90.000003
 51
180.000005
  0
ARC
  5
A4A
330
1F
100
AcDbEntity
  8
0
 62
     7
370
    60
100
AcDbCircle
 10
24.975861
 20
448.164673
 30
0.0
 40
2.5
100
AcDbArc
 50
0.0
 51
90.000003
  0
ARC
  5
A4B
330
1F
100
AcDbEntity
  8
0
 62
     7
370
    60
100
AcDbCircle
 10
21.917786
 20
451.465912
 30
0.0
 40
0.5
100
AcDbArc
 50
1.0
 51
132.810309
  0
LINE
  5
A4C
330
1F
100
AcDbEntity
  8
0
 62
     7
 48
0.083853
370
    60
100
AcDbLine
 10
22.417694
 20
451.47464
 30
0.0
 11
22.476227
 21
448.121033
 31
0.0
  0
ARC
  5
A4D
330
1F
100
AcDbEntity
  8
0
 62
     7
370
    60
100
AcDbCircle
 10
24.975861
 20
448.164673
 30
0.0
 40
2.5
100
AcDbArc
 50
181.000013
 51
270.000001
  0
ARC
  5
A4E
330
1F
100
AcDbEntity
  8
0
 62
     7
370
    60
100
AcDbCircle
 10
24.975861
 20
448.164673
 30
0.0
 40
2.5
100
AcDbArc
 50
270.000001
 51
358.999988
  0
LINE
  5
A4F
330
1F
100
AcDbEntity
  8
0
 62
     7
 48
0.083853
370
    60
100
AcDbLine
 10
27.475464
 20
448.121033
 30
0.0
 11
27.534027
 21
451.47464
 31
0.0
  0
ARC
  5
A50
330
1F
100
AcDbEntity
  8
0
 62
     7
370
    60
100
AcDbCircle
 10
28.033936
 20
451.465912
 30
0.0
 40
0.5
100
AcDbArc
 50
47.189684
 51
178.999997
  0
LINE
  5
A51
330
1F
100
AcDbEntity
  8
0
 62
     7
 48
0.224631
370
    60
100
AcDbLine
 10
28.373718
 20
451.832703
 30
0.0
 11
28.530548
 21
460.816559
 31
0.0
  0
LINE
  5
A52
330
1F
100
AcDbEntity
  8
0
 62
     7
 48
0.118184
370
    60
100
AcDbLine
 10
21.495483
 20
456.559326
 30
0.0
 11
21.578003
 21
451.832703
 31
0.0
  0
ARC
  5
A55
330
1F
100
AcDbEntity
  8
0
 62
     7
370
    60
100
AcDbCircle
 10
172.503067
 20
206.140167
 30
0.0
 40
292.553894
100
AcDbArc
 50
118.766484
 51
118.778164
  0
ARC
  5
A58
330
1F
100
AcDbEntity
  8
0
 62
     7
370
    60
100
AcDbCircle
 10
212.18483
 20
464.398682
 30
0.0
 40
5.0
100
AcDbArc
 50
0.9999990000000001
 51
12.597578
  0
LINE
  5
A59
330
1F
100
AcDbEntity
  8
0
 62
     7
 48
0.343805
370
    60
100
AcDbLine
 10
222.271652
 20
400.914856
 30
0.0
 11
222.511673
 21
387.164764
 31
0.0
  0
LINE
  5
A5D
330
1F
100
AcDbEntity
  8
0
 62
     7
 48
0.012498
370
    60
100
AcDbLine
 10
222.0119895614123
 20
387.182216257697
 30
0.0
 11
222.511673
 21
387.164764
 31
0.0
  0
LINE
  5
A5E
330
1F
100
AcDbEntity
  8
0
 62
     7
 48
0.001258
370
    60
100
AcDbLine
 10
222.221313
 20
400.914856
 30
0.0
 11
222.271652
 21
400.914856
 31
0.0
  0
LINE
  5
A5F
330
1F
100
AcDbEntity
  8
0
 62
     7
 48
0.036958
370
    60
100
AcDbLine
 10
218.293106
 20
400.949768
 30
0.0
 11
219.771423
 21
400.949768
 31
0.0
  0
LINE
  5
A60
330
1F
100
AcDbEntity
  8
0
 62
     7
 48
0.023513
370
    60
100
AcDbLine
 10
221.007935
 20
400.943542
 30
0.0
 11
221.948318
 21
400.927612
 31
0.0
  0
LINE
  5
A61
330
1F
100
AcDbEntity
  8
0
 62
     7
 48
0.030913
370
    60
100
AcDbLine
 10
219.771423
 20
400.949768
 30
0.0
 11
221.007935
 21
400.943542
 31
0.0
  0
LINE
  5
A62
330
1F
100
AcDbEntity
  8
0
 62
     7
 48
0.006832
370
    60
100
AcDbLine
 10
221.948318
 20
400.927612
 30
0.0
 11
222.221313
 21
400.914856
 31
0.0
  0
LINE
  5
A65
330
1F
100
AcDbEntity
  8
0
 62
     7
 48
0.036958
370
    60
100
AcDbLine
 10
218.533112
 20
387.199677
 30
0.0
 11
220.011444
 21
387.199677
 31
0.0
  0
LINE
  5
A66
330
1F
100
AcDbEntity
  8
0
 62
     7
 48
0.030678
370
    60
100
AcDbLine
 10
220.011444
 20
387.199677
 30
0.0
 11
221.238556
 21
387.193542
 31
0.0
  0
LINE
  5
A67
330
1F
100
AcDbEntity
  8
0
 62
     7
 48
0.019332
370
    60
100
AcDbLine
 10
221.238556
 20
387.193542
 30
0.0
 11
222.011734
 21
387.18222
 31
0.0
  0
LINE
  5
A6E
330
1F
100
AcDbEntity
  8
0
 62
     7
 48
0.000055
370
    60
100
AcDbLine
 10
145.193924
 20
497.613892
 30
0.0
 11
145.196106
 21
497.614075
 31
0.0
  0
ARC
  5
A71
330
1F
100
AcDbEntity
  8
0
 62
     7
370
    60
100
AcDbCircle
 10
173.882126
 20
202.75473
 30
0.0
 40
296.254883
100
AcDbArc
 50
98.64845
 51
98.666918
  0
LINE
  5
A73
330
1F
100
AcDbEntity
  8
0
 62
     7
 48
0.039566
370
    60
100
AcDbLine
 10
187.352936
 20
495.596344
 30
0.0
 11
188.814087
 21
494.988281
 31
0.0
  0
LINE
  5
A74
330
1F
100
AcDbEntity
  8
0
 62
     7
 48
0.054501
370
    60
100
AcDbLine
 10
188.011948
 20
495.327271
 30
0.0
 11
190.021973
 21
494.483215
 31
0.0
  0
LINE
  5
A75
330
1F
100
AcDbEntity
  8
0
 62
     7
 48
0.080065
370
    60
100
AcDbLine
 10
184.328766
 20
496.650452
 30
0.0
 11
187.352936
 21
495.596344
 31
0.0
  0
LINE
  5
A76
330
1F
100
AcDbEntity
  8
0
 62
     7
 48
0.034663
370
    60
100
AcDbLine
 10
176.645355
 20
498.496887
 30
0.0
 11
178.011948
 21
498.262695
 31
0.0
  0
LINE
  5
A77
330
1F
100
AcDbEntity
  8
0
 62
     7
 48
0.039387
370
    60
100
AcDbLine
 10
181.852936
 20
497.398529
 30
0.0
 11
183.36824
 21
496.967316
 31
0.0
  0
LINE
  5
A78
330
1F
100
AcDbEntity
  8
0
 62
     7
 48
0.033727
370
    60
100
AcDbLine
 10
206.602936
 20
483.23761
 30
0.0
 11
207.547409
 21
482.274292
 31
0.0
  0
LINE
  5
A79
330
1F
100
AcDbEntity
  8
0
 62
     7
 48
0.066418
370
    60
100
AcDbLine
 10
202.313629
 20
487.039673
 30
0.0
 11
204.352936
 21
485.336945
 31
0.0
  0
LINE
  5
A7A
330
1F
100
AcDbEntity
  8
0
 62
     7
 48
0.046021
370
    60
100
AcDbLine
 10
200.852936
 20
488.159943
 30
0.0
 11
202.313629
 21
487.039673
 31
0.0
  0
LINE
  5
A7B
330
1F
100
AcDbEntity
  8
0
 62
     7
 48
0.065136
370
    60
100
AcDbLine
 10
196.404465
 20
491.141663
 30
0.0
 11
198.602936
 21
489.743408
 31
0.0
  0
ARC
  5
A7D
330
1F
100
AcDbEntity
  8
0
 62
     7
370
    60
100
AcDbCircle
 10
168.905075
 20
449.166168
 30
0.0
 40
49.940033
100
AcDbArc
 50
75.756101
 51
77.630557
  0
ARC
  5
A7E
330
1F
100
AcDbEntity
  8
0
 62
     7
370
    60
100
AcDbCircle
 10
169.482697
 20
451.789581
 30
0.0
 40
47.253738
100
AcDbArc
 50
79.600213
 51
80.412548
  0
ARC
  5
A7F
330
1F
100
AcDbEntity
  8
0
 62
     7
370
    60
100
AcDbCircle
 10
169.482422
 20
451.788269
 30
0.0
 40
47.255066
100
AcDbArc
 50
77.633289
 51
79.600166
  0
ARC
  5
A80
330
1F
100
AcDbEntity
  8
0
 62
     7
370
    60
100
AcDbCircle
 10
168.904617
 20
449.164185
 30
0.0
 40
49.942055
100
AcDbArc
 50
74.973457
 51
75.75606600000002
  0
ARC
  5
A81
330
1F
100
AcDbEntity
  8
0
 62
     7
370
    60
100
AcDbCircle
 10
166.814255
 20
442.594543
 30
0.0
 40
56.842136
100
AcDbArc
 50
66.364795
 51
68.100866
  0
ARC
  5
A82
330
1F
100
AcDbEntity
  8
0
 62
     7
370
    60
100
AcDbCircle
 10
166.809418
 20
442.583191
 30
0.0
 40
56.854492
100
AcDbArc
 50
68.100435
 51
68.81779
  0
ARC
  5
A83
330
1F
100
AcDbEntity
  8
0
 62
     7
370
    60
100
AcDbCircle
 10
167.173645
 20
442.709137
 30
0.0
 40
56.569031
100
AcDbArc
 50
53.46136600000001
 51
56.248327
  0
ARC
  5
A84
330
1F
100
AcDbEntity
  8
0
 62
     7
370
    60
100
AcDbCircle
 10
166.483749
 20
441.674225
 30
0.0
 40
57.812473
100
AcDbArc
 50
56.249688
 51
58.82085900000002
  0
ARC
  5
A85
330
1F
100
AcDbEntity
  8
0
 62
     7
370
    60
100
AcDbCircle
 10
170.952316
 20
447.280975
 30
0.0
 40
50.634476
100
AcDbArc
 50
45.244843
 51
48.727509
  0
LWPOLYLINE
  5
A86
330
1F
100
AcDbEntity
  8
0
 62
     7
370
    60
100
AcDbPolyline
 90
       24
 70
     0
 43
0.0
 10
207.547546
 20
482.274445
 10
208.213623
 20
481.561371
 10
208.863892
 20
480.835388
 10
209.484497
 20
480.112213
 10
210.088715
 20
479.37674
 10
210.66304
 20
478.645813
 10
211.220459
 20
477.90329
 10
211.748291
 20
477.166504
 10
212.258743
 20
476.418854
 10
212.740128
 20
475.677887
 10
213.20369
 20
474.926849
 10
213.638824
 20
474.18335
 10
214.055725
 20
473.430511
 10
214.444901
 20
472.685974
 10
214.81546
 20
471.932922
 10
215.159058
 20
471.188843
 10
215.483688
 20
470.437042
 10
215.782135
 20
469.694885
 10
216.061295
 20
468.945862
 10
216.315048
 20
468.207092
 10
216.549255
 20
467.46228
 10
216.758835
 20
466.728363
 10
216.948639
 20
465.989258
 10
217.064529
 20
465.490997
  0
LWPOLYLINE
  5
AA0
330
1F
100
AcDbEntity
  8
0
 62
     7
370
    60
100
AcDbPolyline
 90
        5
 70
     0
 43
0.0
 10
188.820663
 20
495.003937
 10
190.773132
 20
494.140961
 10
192.707687
 20
493.198822
 10
194.614441
 20
492.181488
 10
196.404465
 20
491.141663
  0
LWPOLYLINE
  5
AA7
330
1F
100
AcDbEntity
  8
0
 62
     7
370
    60
100
AcDbPolyline
 90
        3
 70
     0
 43
0.0
 10
183.36824
 20
496.967285
 10
183.851852
 20
496.819244
 10
184.333969
 20
496.666595
  0
LWPOLYLINE
  5
AAC
330
1F
100
AcDbEntity
  8
0
 62
     7
370
    60
100
AcDbPolyline
 90
        5
 70
     0
 43
0.0
 10
170.094177
 20
498.975403
 10
171.795746
 20
498.955536
 10
173.547058
 20
498.856323
 10
175.344925
 20
498.675537
 10
176.645355
 20
498.496887
  0
LWPOLYLINE
  5
AB3
330
1F
100
AcDbEntity
  8
0
 62
     7
370
    60
100
AcDbPolyline
 90
        3
 70
     0
 43
0.0
 10
185.054199
 20
496.429443
 10
184.69693
 20
496.548615
 10
184.33876
 20
496.665344
  0
LINE
  5
AB9
330
1F
100
AcDbEntity
  8
0
 62
     7
 48
0.000718
370
    60
100
AcDbLine
 10
34.602936
 20
464.154358
 30
0.0
 11
34.628601
 21
464.167206
 31
0.0
  0
ARC
  5
AC3
330
1F
100
AcDbEntity
  8
0
 62
     7
370
    60
100
AcDbCircle
 10
173.697998
 20
203.914215
 30
0.0
 40
295.080505
100
AcDbArc
 50
103.014081
 51
103.11445
  0
ARC
  5
AC4
330
1F
100
AcDbEntity
  8
0
 62
     7
370
    60
100
AcDbCircle
 10
173.698013
 20
203.914185
 30
0.0
 40
295.080536
100
AcDbArc
 50
117.847333
 51
117.853056
  0
ARC
  5
AC7
330
1F
100
AcDbEntity
  8
0
 62
     7
370
    60
100
AcDbCircle
 10
173.725449
 20
203.805298
 30
0.0
 40
295.192688
100
AcDbArc
 50
98.667581
 51
98.675169
  0
LINE
  5
AD3
330
1F
100
AcDbEntity
  8
0
 62
     7
 48
0.25912
370
    60
100
AcDbLine
 10
51.847809
 20
472.638794
 30
0.0
 11
61.352936
 21
476.771759
 31
0.0
  0
LINE
  5
ADB
330
1F
100
AcDbEntity
  8
0
 62
     7
 48
0.195525
370
    60
100
AcDbLine
 10
66.048981
 20
478.658264
 30
0.0
 11
73.368164
 21
481.414673
 31
0.0
  0
LINE
  5
ADD
330
1F
100
AcDbEntity
  8
0
 62
     7
 48
0.119072
370
    60
100
AcDbLine
 10
100.852936
 20
489.861694
 30
0.0
 11
105.477753
 21
491.000214
 31
0.0
  0
LINE
  5
ADE
330
1F
100
AcDbEntity
  8
0
 62
     7
 48
0.14782
370
    60
100
AcDbLine
 10
85.487305
 20
485.501404
 30
0.0
 11
91.147461
 21
487.211395
 31
0.0
  0
LINE
  5
ADF
330
1F
100
AcDbEntity
  8
0
 62
     7
 48
0.176179
370
    60
100
AcDbLine
 10
105.477753
 20
491.000214
 30
0.0
 11
112.352936
 21
492.547546
 31
0.0
  0
LINE
  5
AE0
330
1F
100
AcDbEntity
  8
0
 62
     7
 48
0.070297
370
    60
100
AcDbLine
 10
143.602936
 20
497.457123
 30
0.0
 11
146.401474
 21
497.730743
 31
0.0
  0
LINE
  5
AE1
330
1F
100
AcDbEntity
  8
0
 62
     7
 48
0.001995
370
    60
100
AcDbLine
 10
138.879227
 20
496.90686
 30
0.0
 11
138.958359
 21
496.917084
 31
0.0
  0
LINE
  5
AE4
330
1F
100
AcDbEntity
  8
0
 62
     7
 48
0.001287
370
    60
100
AcDbLine
 10
34.602936
 20
464.154419
 30
0.0
 11
34.648712
 21
464.178009
 31
0.0
  0
LINE
  5
AE5
330
1F
100
AcDbEntity
  8
0
 62
     7
 48
0.001311
370
    60
100
AcDbLine
 10
34.602936
 20
464.154419
 30
0.0
 11
34.649536
 21
464.178436
 31
0.0
  0
LINE
  5
AE6
330
1F
100
AcDbEntity
  8
0
 62
     7
 48
0.052631
370
    60
100
AcDbLine
 10
43.011932
 20
468.487427
 30
0.0
 11
44.906738
 21
469.404938
 31
0.0
  0
LINE
  5
AE7
330
1F
100
AcDbEntity
  8
0
 62
     7
 48
0.158491
370
    60
100
AcDbLine
 10
73.368164
 20
481.414673
 30
0.0
 11
79.352936
 21
483.50592
 31
0.0
  0
LINE
  5
AEB
330
1F
100
AcDbEntity
  8
0
 62
     7
 48
0.020906
370
    60
100
AcDbLine
 10
42.267029
 20
468.107422
 30
0.0
 11
43.011932
 21
468.487427
 31
0.0
  0
LINE
  5
AEC
330
1F
100
AcDbEntity
  8
0
 62
     7
 48
0.259119
370
    60
100
AcDbLine
 10
51.847809
 20
472.638794
 30
0.0
 11
61.352936
 21
476.771698
 31
0.0
  0
LINE
  5
AED
330
1F
100
AcDbEntity
  8
0
 62
     7
 48
0.065793
370
    60
100
AcDbLine
 10
63.602936
 20
477.687286
 30
0.0
 11
66.048981
 21
478.658264
 31
0.0
  0
LINE
  5
AEE
330
1F
100
AcDbEntity
  8
0
 62
     7
 48
0.109396
370
    60
100
AcDbLine
 10
47.86726743581086
 20
470.8211742796935
 30
0.0
 11
51.847809
 21
472.638794
 31
0.0
  0
LINE
  5
AEF
330
1F
100
AcDbEntity
  8
0
 62
     7
 48
0.009683
370
    60
100
AcDbLine
 10
81.602936
 20
484.255066
 30
0.0
 11
81.971741
 21
484.373413
 31
0.0
  0
LINE
  5
AF0
330
1F
100
AcDbEntity
  8
0
 62
     7
 48
0.092302
370
    60
100
AcDbLine
 10
81.971741
 20
484.373413
 30
0.0
 11
85.487305
 21
485.501404
 31
0.0
  0
LINE
  5
AF1
330
1F
100
AcDbEntity
  8
0
 62
     7
 48
0.13207
370
    60
100
AcDbLine
 10
91.147461
 20
487.211395
 30
0.0
 11
96.35292636654624
 21
488.677484882039
 31
0.0
  0
LINE
  5
AF2
330
1F
100
AcDbEntity
  8
0
 62
     7
 48
0.114999
370
    60
100
AcDbLine
 10
134.313583
 20
496.346008
 30
0.0
 11
138.879227
 21
496.90686
 31
0.0
  0
LINE
  5
AF3
330
1F
100
AcDbEntity
  8
0
 62
     7
 48
0.058148
370
    60
100
AcDbLine
 10
139.703369
 20
497.008118
 30
0.0
 11
143.602936
 21
497.457123
 31
0.0
  0
LINE
  5
AF4
330
1F
100
AcDbEntity
  8
0
 62
     7
 48
0.002193
370
    60
100
AcDbLine
 10
139.616302
 20
496.997437
 30
0.0
 11
139.703323
 21
497.008453
 31
0.0
  0
LINE
  5
AF6
330
1F
100
AcDbEntity
  8
0
 62
     7
 48
0.018566
370
    60
100
AcDbLine
 10
138.879227
 20
496.90686
 30
0.0
 11
139.616302
 21
496.997437
 31
0.0
  0
LINE
  5
AF7
330
1F
100
AcDbEntity
  8
0
 62
     7
 48
0.002193
370
    60
100
AcDbLine
 10
139.616302
 20
496.997437
 30
0.0
 11
139.703369
 21
497.008118
 31
0.0
  0
LINE
  5
AF8
330
1F
100
AcDbEntity
  8
0
 62
     7
 48
0.032467
370
    60
100
AcDbLine
 10
131.193924
 20
495.914917
 30
0.0
 11
132.480362
 21
496.092682
 31
0.0
  0
LINE
  5
AF9
330
1F
100
AcDbEntity
  8
0
 62
     7
 48
0.046266
370
    60
100
AcDbLine
 10
132.480362
 20
496.092682
 30
0.0
 11
134.313583
 21
496.346008
 31
0.0
  0
LWPOLYLINE
  5
AFA
330
1F
100
AcDbEntity
  8
0
 62
     7
370
    60
100
AcDbPolyline
 90
        3
 70
     0
 43
0.0
 10
114.602936
 20
493.016632
 10
116.045593
 20
493.301666
 10
116.657043
 20
493.424988
  0
LWPOLYLINE
  5
AFF
330
1F
100
AcDbEntity
  8
0
 62
     7
370
    60
100
AcDbPolyline
 90
        3
 70
     0
 43
0.0
 10
116.657043
 20
493.424988
 10
117.927826
 20
493.659546
 10
121.348389
 20
494.278137
  0
LWPOLYLINE
  5
B04
330
1F
100
AcDbEntity
  8
0
 62
     7
370
    60
100
AcDbPolyline
 90
        3
 70
     0
 43
0.0
 10
121.348389
 20
494.278137
 10
125.262024
 20
494.973907
 10
128.0124394690014
 20
495.4369738966447
  0
ARC
  5
B0B
330
1F
100
AcDbEntity
  8
0
 62
     7
370
    60
100
AcDbCircle
 10
165.3026972794566
 20
258.0379176724804
 30
0.0
 40
240.3099565637972
100
AcDbArc
 50
98.15992329294345
 51
98.92698450489206
  0
ARC
  5
B0F
330
1F
100
AcDbEntity
  8
0
 62
     7
370
    60
100
AcDbCircle
 10
173.78093
 20
203.549072
 30
0.0
 40
295.454773
100
AcDbArc
 50
101.554189
 51
101.9999
  0
ARC
  5
B10
330
1F
100
AcDbEntity
  8
0
 62
     7
370
    60
100
AcDbCircle
 10
173.767746
 20
203.657028
 30
0.0
 40
295.346771
100
AcDbArc
 50
104.743771
 51
105.195596
  0
ARC
  5
B11
330
1F
100
AcDbEntity
  8
0
 62
     7
370
    60
100
AcDbCircle
 10
173.693405
 20
203.924393
 30
0.0
 40
295.069275
100
AcDbArc
 50
104.291716
 51
104.743028
  0
ARC
  5
B12
330
1F
100
AcDbEntity
  8
0
 62
     7
370
    60
100
AcDbCircle
 10
173.694534
 20
203.926605
 30
0.0
 40
295.067688
100
AcDbArc
 50
108.186036
 51
108.646515
  0
ARC
  5
B14
330
1F
100
AcDbEntity
  8
0
 62
     7
370
    60
100
AcDbCircle
 10
173.586395
 20
204.204224
 30
0.0
 40
294.769958
100
AcDbArc
 50
111.437322
 51
111.457403
  0
ARC
  5
B15
330
1F
100
AcDbEntity
  8
0
 62
     7
370
    60
100
AcDbCircle
 10
173.496246
 20
204.433105
 30
0.0
 40
294.524048
100
AcDbArc
 50
111.908278
 51
112.380838
  0
ARC
  5
B16
330
1F
100
AcDbEntity
  8
0
 62
     7
370
    60
100
AcDbCircle
 10
173.31723
 20
204.740082
 30
0.0
 40
294.171204
100
AcDbArc
 50
115.461234
 51
115.495752
  0
ARC
  5
B17
330
1F
100
AcDbEntity
  8
0
 62
     7
370
    60
100
AcDbCircle
 10
173.718018
 20
203.851105
 30
0.0
 40
295.146454
100
AcDbArc
 50
115.239376
 51
115.876468
  0
ARC
  5
B18
330
1F
100
AcDbEntity
  8
0
 62
     7
370
    60
100
AcDbCircle
 10
173.718018
 20
203.851105
 30
0.0
 40
295.146454
100
AcDbArc
 50
90.703498
 51
95.310468
  0
ARC
  5
B19
330
1F
100
AcDbEntity
  8
0
 62
     7
370
    60
100
AcDbCircle
 10
173.642075
 20
204.033844
 30
0.0
 40
294.948456
100
AcDbArc
 50
116.450081
 51
118.044767
  0
LWPOLYLINE
  5
B23
330
1F
100
AcDbEntity
  8
0
 62
     7
370
    60
100
AcDbPolyline
 90
        7
 70
     0
 43
0.0
 10
32.135132
 20
446.894043
 10
32.175873
 20
447.659058
 10
32.191559
 20
448.400665
 10
32.157654
 20
449.592896
 10
32.058868
 20
450.625336
 10
31.919006
 20
451.474396
 10
31.822418
 20
451.914246
  0
LWPOLYLINE
  5
B2C
330
1F
100
AcDbEntity
  8
0
 62
     7
370
    60
100
AcDbPolyline
 90
        7
 70
     0
 43
0.0
 10
32.135468
 20
446.894012
 10
31.96582
 20
444.26593
 10
31.817444
 20
441.636597
 10
31.698029
 20
439.155548
 10
31.599609
 20
436.673615
 10
31.5271
 20
434.339081
 10
31.474884
 20
432.003937
  0
LINE
  5
B36
330
1F
100
AcDbEntity
  8
0
 62
     7
 48
0.054197
370
    60
100
AcDbLine
 10
31.36331401436833
 20
429.2181611972794
 30
0.0
 11
31.474884
 21
432.003937
 31
0.0
  0
LINE
  5
B39
330
1F
100
AcDbEntity
  8
0
 62
     7
370
    60
100
AcDbLine
 10
217.207764
 20
463.128784
 30
0.0
 11
218.773727
 21
373.414673
 31
0.0
  0
LINE
  5
B3A
330
1F
100
AcDbEntity
  8
0
 62
     7
 48
0.007836
370
    60
100
AcDbLine
 10
218.061172
 20
414.236969
 30
0.0
 11
218.06665
 21
413.923584
 31
0.0
  0
LINE
  5
B3B
330
1F
100
AcDbEntity
  8
0
 62
     7
 48
0.033935
370
    60
100
AcDbLine
 10
217.184082
 20
464.485962
 30
0.0
 11
217.207764
 21
463.128784
 31
0.0
  0
LINE
  5
B3C
330
1F
100
AcDbEntity
  8
0
 62
     7
 48
0.042823
370
    60
100
AcDbLine
 10
215.246964
 20
373.414673
 30
0.0
 11
216.959885
 21
373.414673
 31
0.0
  0
LINE
  5
B3D
330
1F
100
AcDbEntity
  8
0
 62
     7
 48
0.004901
370
    60
100
AcDbLine
 10
218.577698
 20
373.414673
 30
0.0
 11
218.773727
 21
373.414673
 31
0.0
  0
LINE
  5
B3E
330
1F
100
AcDbEntity
  8
0
 62
     7
 48
0.02008
370
    60
100
AcDbLine
 10
217.429337
 20
373.414673
 30
0.0
 11
218.232544
 21
373.414673
 31
0.0
  0
LINE
  5
B3F
330
1F
100
AcDbEntity
  8
0
 62
     7
 48
0.044853
370
    60
100
AcDbLine
 10
225.555542
 20
389.914673
 30
0.0
 11
225.555542
 21
391.708801
 31
0.0
  0
LINE
  5
B40
330
1F
100
AcDbEntity
  8
0
 62
     7
 48
0.0625
370
    60
100
AcDbLine
 10
223.055542
 20
389.914673
 30
0.0
 11
225.555542
 21
389.914673
 31
0.0
  0
LINE
  5
B41
330
1F
100
AcDbEntity
  8
0
 62
     7
 48
0.202241
370
    60
100
AcDbLine
 10
225.555542
 20
381.825043
 30
0.0
 11
225.555542
 21
389.914673
 31
0.0
  0
LINE
  5
B42
330
1F
100
AcDbEntity
  8
0
 62
     7
 48
0.172759
370
    60
100
AcDbLine
 10
225.555542
 20
374.914673
 30
0.0
 11
225.555542
 21
381.825043
 31
0.0
  0
LINE
  5
B43
330
1F
100
AcDbEntity
  8
0
 62
     7
370
    60
100
AcDbLine
 10
225.555542
 20
407.914673
 30
0.0
 11
225.555542
 21
441.135101
 31
0.0
  0
LINE
  5
B44
330
1F
100
AcDbEntity
  8
0
 62
     7
 48
0.405147
370
    60
100
AcDbLine
 10
225.555542
 20
391.708801
 30
0.0
 11
225.555542
 21
407.914673
 31
0.0
  0
LINE
  5
B45
330
1F
100
AcDbEntity
  8
0
 62
     7
 48
0.014797
370
    60
100
AcDbLine
 10
222.463669
 20
389.914673
 30
0.0
 11
223.055542
 21
389.914673
 31
0.0
  0
LINE
  5
B46
330
1F
100
AcDbEntity
  8
0
 62
     7
 48
0.25
370
    60
100
AcDbLine
 10
225.555542
 20
374.914673
 30
0.0
 11
235.555542
 21
374.914673
 31
0.0
  0
LINE
  5
B47
330
1F
100
AcDbEntity
  8
0
 62
     7
 48
0.0375
370
    60
100
AcDbLine
 10
235.555542
 20
373.414673
 30
0.0
 11
235.555542
 21
374.914673
 31
0.0
  0
LINE
  5
B48
330
1F
100
AcDbEntity
  8
0
 62
     7
370
    60
100
AcDbLine
 10
225.555542
 20
434.414673
 30
0.0
 11
270.555542
 21
434.414673
 31
0.0
  0
LINE
  5
B49
330
1F
100
AcDbEntity
  8
0
 62
     7
370
    60
100
AcDbLine
 10
225.555542
 20
381.414673
 30
0.0
 11
270.555542
 21
381.414673
 31
0.0
  0
LINE
  5
B4A
330
1F
100
AcDbEntity
  8
0
 62
     7
 48
0.497651
370
    60
100
AcDbLine
 10
270.555542
 20
381.414673
 30
0.0
 11
288.555542
 21
372.914673
 31
0.0
  0
LINE
  5
B4B
330
1F
100
AcDbEntity
  8
0
 62
     7
 48
0.497651
370
    60
100
AcDbLine
 10
270.555542
 20
434.414673
 30
0.0
 11
288.555542
 21
442.914673
 31
0.0
  0
LINE
  5
B4C
330
1F
100
AcDbEntity
  8
0
 62
     7
370
    60
100
AcDbLine
 10
270.555542
 20
381.414673
 30
0.0
 11
270.555542
 21
434.414673
 31
0.0
  0
LINE
  5
B4D
330
1F
100
AcDbEntity
  8
0
 62
     7
 48
0.325
370
    60
100
AcDbLine
 10
288.555542
 20
442.914673
 30
0.0
 11
301.555542
 21
442.914673
 31
0.0
  0
LINE
  5
B4E
330
1F
100
AcDbEntity
  8
0
 62
     7
 48
0.325
370
    60
100
AcDbLine
 10
288.555542
 20
372.914673
 30
0.0
 11
301.555542
 21
372.914673
 31
0.0
  0
LINE
  5
B4F
330
1F
100
AcDbEntity
  8
0
 62
     7
370
    60
100
AcDbLine
 10
288.555542
 20
372.914673
 30
0.0
 11
288.555542
 21
442.914673
 31
0.0
  0
LINE
  5
B50
330
1F
100
AcDbEntity
  8
0
 62
     7
370
    60
100
AcDbLine
 10
302.555542
 20
373.914673
 30
0.0
 11
302.555542
 21
441.914673
 31
0.0
  0
ARC
  5
B51
330
1F
100
AcDbEntity
  8
0
 62
     7
370
    60
100
AcDbCircle
 10
301.555542
 20
441.914673
 30
0.0
 40
1.0
100
AcDbArc
 50
359.999436
 51
90.000563
  0
ARC
  5
B52
330
1F
100
AcDbEntity
  8
0
 62
     7
370
    60
100
AcDbCircle
 10
301.555542
 20
373.914673
 30
0.0
 40
1.0
100
AcDbArc
 50
269.999427
 51
0.000561
  0
LINE
  5
B53
330
1F
100
AcDbEntity
  8
0
 62
     7
370
    60
100
AcDbLine
 10
61.352875
 20
61.20832254224749
 30
0.0
 11
61.352875
 21
116.5568035422475
 31
0.0
  0
LINE
  5
B54
330
1F
100
AcDbEntity
  8
0
 62
     7
 48
0.153495
370
    60
100
AcDbLine
 10
122.528107
 20
110.7988835422475
 30
0.0
 11
128.667908
 21
110.7988835422475
 31
0.0
  0
LINE
  5
B55
330
1F
100
AcDbEntity
  8
0
 62
     7
370
    60
100
AcDbLine
 10
154.89801
 20
75.09903954224748
 30
0.0
 11
154.89801
 21
102.4990335422475
 31
0.0
  0
LINE
  5
B56
330
1F
100
AcDbEntity
  8
0
 62
     7
370
    60
100
AcDbLine
 10
96.298004
 20
75.09903954224748
 30
0.0
 11
96.298004
 21
102.4990335422475
 31
0.0
  0
LINE
  5
B57
330
1F
100
AcDbEntity
  8
0
 62
     7
370
    60
100
AcDbLine
 10
106.298004
 20
112.4990335422475
 30
0.0
 11
144.89801
 21
112.4990335422475
 31
0.0
  0
LINE
  5
B58
330
1F
100
AcDbEntity
  8
0
 62
     7
370
    60
100
AcDbLine
 10
106.298004
 20
65.09903954224748
 30
0.0
 11
144.89801
 21
65.09903954224748
 31
0.0
  0
ARC
  5
B59
330
1F
100
AcDbEntity
  8
0
 62
     7
370
    60
100
AcDbCircle
 10
106.298004
 20
102.4990335422475
 30
0.0
 40
10.0
100
AcDbArc
 50
90.00000299999999
 51
180.000005
  0
ARC
  5
B5A
330
1F
100
AcDbEntity
  8
0
 62
     7
370
    60
100
AcDbCircle
 10
144.89801
 20
102.4990335422475
 30
0.0
 40
10.0
100
AcDbArc
 50
0.0
 51
90.00000299999999
  0
ARC
  5
B5B
330
1F
100
AcDbEntity
  8
0
 62
     7
370
    60
100
AcDbCircle
 10
144.89801
 20
75.09903954224748
 30
0.0
 40
10.0
100
AcDbArc
 50
270.000001
 51
0.00001
  0
ARC
  5
B5C
330
1F
100
AcDbEntity
  8
0
 62
     7
370
    60
100
AcDbCircle
 10
106.298004
 20
75.09903954224748
 30
0.0
 40
10.0
100
AcDbArc
 50
179.999991
 51
270.000001
  0
POINT
  5
B5D
330
1F
100
AcDbEntity
  8
0
 62
     7
370
    60
100
AcDbPoint
 10
185.822296
 20
233.0979565422475
 30
0.0
  0
POINT
  5
B60
330
1F
100
AcDbEntity
  8
0
 62
     7
370
    60
100
AcDbPoint
 10
170.298965
 20
342.914673
 30
0.0
  0
POINT
  5
B61
330
1F
100
AcDbEntity
  8
0
 62
     7
370
    60
100
AcDbPoint
 10
302.555542
 20
88.79903654224748
 30
0.0
  0
LINE
  5
B62
330
1F
100
AcDbEntity
  8
0
 62
     7
 48
0.075
370
    60
100
AcDbLine
 10
19.975861
 20
125.0923105422475
 30
0.0
 11
19.975861
 21
128.0923105422475
 31
0.0
  0
DIMENSION
  5
B9B
330
1F
100
AcDbEntity
  8
0
370
    25
100
AcDbDimension
  2
*D18
 10
2.288715442112704
 20
342.914673
 30
0.0
 11
-25.7112845578873
 21
420.9351045
 31
0.0
 70
    32
  1
156
 71
     5
 41
2.5
 42
156.040863
  3
Standard
100
AcDbAlignedDimension
 13
171.795746
 23
498.955536
 33
0.0
 14
66.421066
 24
342.914673
 34
0.0
 50
90.0
100
AcDbRotatedDimension
1001
ACAD
1000
DSTYLE
1002
{
1070
     3
1000
<>
1070
    41
1040
10.0
1070
    42
1040
0.625
1070
    43
1040
3.75
1070
    44
1040
1.25
1070
    73
1070
     0
1070
    74
1070
     0
1070
    77
1070
     1
1070
    78
1070
     8
1070
   140
1040
36.0
1070
   141
1040
2.5
1070
   143
1040
0.03937
1070
   147
1040
10.0
1070
   171
1070
     3
1070
   172
1070
     1
1070
   176
1070
     7
1070
   177
1070
     7
1070
   271
1070
     2
1070
   272
1070
     2
1070
   274
1070
     3
1070
   283
1070
     0
1070
   284
1070
     8
1070
   289
1070
     0
1002
}
  0
DIMENSION
  5
BF6
330
1F
100
AcDbEntity
  8
0
370
    25
100
AcDbDimension
  2
*D21
 10
302.555542
 20
249.3981606004139
 30
0.0
 11
161.2657015
 21
277.3981606004139
 31
0.0
 70
    32
  1
283
 71
     5
 41
2.5
 42
282.579681
  3
Standard
100
AcDbAlignedDimension
 13
19.975861
 23
126.5923105422475
 33
0.0
 14
302.555542
 24
88.79902854224748
 34
0.0
100
AcDbRotatedDimension
1001
ACAD
1000
DSTYLE
1002
{
1070
     3
1000
<>
1070
    41
1040
10.0
1070
    42
1040
0.625
1070
    43
1040
3.75
1070
    44
1040
1.25
1070
    73
1070
     0
1070
    74
1070
     0
1070
    77
1070
     1
1070
    78
1070
     8
1070
   140
1040
36.0
1070
   141
1040
2.5
1070
   143
1040
0.03937
1070
   147
1040
10.0
1070
   171
1070
     3
1070
   172
1070
     1
1070
   176
1070
     7
1070
   177
1070
     7
1070
   271
1070
     2
1070
   272
1070
     2
1070
   274
1070
     3
1070
   283
1070
     0
1070
   284
1070
     8
1070
   289
1070
     0
1002
}
  0
DIMENSION
  5
C56
330
1F
100
AcDbEntity
  8
0
370
    25
100
AcDbDimension
  2
*D22
 10
2.288715442112704
 20
-36.35259045775251
 30
0.0
 11
-25.7112845578873
 21
98.35305611571678
 31
0.0
 70
    32
  1
270
 71
     5
 41
2.5
 42
269.4112931469386
  3
Standard
100
AcDbAlignedDimension
 13
184.9826362533617
 23
233.0587026891861
 33
0.0
 14
65.696167
 24
-36.35259045775252
 34
0.0
 50
90.0
100
AcDbRotatedDimension
1001
ACAD
1000
DSTYLE
1002
{
1070
    41
1040
10.0
1070
    42
1040
0.625
1070
    43
1040
3.75
1070
    44
1040
1.25
1070
    73
1070
     0
1070
    74
1070
     0
1070
    77
1070
     1
1070
    78
1070
     8
1070
   140
1040
36.0
1070
   141
1040
2.5
1070
   143
1040
0.03937
1070
   147
1040
10.0
1070
   171
1070
     3
1070
   172
1070
     1
1070
   176
1070
     7
1070
   177
1070
     7
1070
   271
1070
     2
1070
   272
1070
     2
1070
   274
1070
     3
1070
   283
1070
     0
1070
   284
1070
     8
1070
   289
1070
     0
1002
}
  0
VIEWPORT
  5
B64
330
73
100
AcDbEntity
 67
     1
  8
0
 62
     0
100
AcDbViewport
 10
0.0
 20
0.0
 30
0.0
 40
1000.0
 41
1000.0
 68
     1
 69
     1
 12
0.0
 22
0.0
 13
0.0
 23
0.0
 14
1.0
 24
1.0
 15
1.0
 25
1.0
 16
0.0
 26
0.0
 36
1.0
 17
0.0
 27
0.0
 37
0.0
 42
50.0
 43
0.0
 44
0.0
 45
1000.0
 50
0.0
 51
0.0
 72
   100
 90
   557216
  1

281
     0
 71
     1
 74
     0
110
0.0
120
0.0
130
0.0
111
1.0
121
0.0
131
0.0
112
0.0
122
1.0
132
0.0
 79
     0
146
0.0
170
     0
  0
ENDSEC
  0
SECTION
  2
OBJECTS
  0
DICTIONARY
  5
C
330
0
100
AcDbDictionary
281
     1
  3
ACAD_COLOR
350
6C
  3
ACAD_GROUP
350
D
  3
ACAD_LAYOUT
350
1A
  3
ACAD_MATERIAL
350
6B
  3
ACAD_MLEADERSTYLE
350
BED
  3
ACAD_MLINESTYLE
350
17
  3
ACAD_PLOTSETTINGS
350
19
  3
ACAD_PLOTSTYLENAME
350
E
  3
ACAD_SCALELIST
350
99
  3
ACAD_TABLESTYLE
350
92
  3
AcDbVariableDictionary
350
59
  0
DICTIONARY
  5
6C
102
{ACAD_REACTORS
330
C
102
}
330
C
100
AcDbDictionary
281
     1
  0
DICTIONARY
  5
D
102
{ACAD_REACTORS
330
C
102
}
330
C
100
AcDbDictionary
281
     1
  0
DICTIONARY
  5
1A
102
{ACAD_REACTORS
330
C
102
}
330
C
100
AcDbDictionary
281
     1
  3
Layout1
350
74
  3
Model
350
22
  0
DICTIONARY
  5
6B
102
{ACAD_REACTORS
330
C
102
}
330
C
100
AcDbDictionary
281
     1
  0
DICTIONARY
  5
BED
102
{ACAD_REACTORS
330
C
102
}
330
C
100
AcDbDictionary
281
     1
  0
DICTIONARY
  5
17
102
{ACAD_REACTORS
330
C
102
}
330
C
100
AcDbDictionary
281
     1
  3
Standard
350
18
  0
DICTIONARY
  5
19
102
{ACAD_REACTORS
330
C
102
}
330
C
100
AcDbDictionary
281
     1
  0
ACDBDICTIONARYWDFLT
  5
E
102
{ACAD_REACTORS
330
C
102
}
330
C
100
AcDbDictionary
281
     1
  3
Normal
350
F
100
AcDbDictionaryWithDefault
340
F
  0
DICTIONARY
  5
99
102
{ACAD_REACTORS
330
C
102
}
330
C
100
AcDbDictionary
281
     1
  3
A0
350
B69
  3
A1
350
B6A
  3
A2
350
B6B
  3
A3
350
B6C
  3
A4
350
B6D
  3
A5
350
B6E
  3
A6
350
B6F
  3
A7
350
B70
  3
A8
350
B71
  3
A9
350
B72
  3
B0
350
B73
  3
B1
350
B74
  3
B2
350
B75
  3
B3
350
B76
  3
B4
350
B77
  3
B5
350
B78
  3
B6
350
B79
  3
B7
350
B7A
  3
B8
350
B7B
  3
B9
350
B7C
  3
C0
350
B7D
  3
C1
350
B7E
  3
C2
350
B7F
  3
C3
350
B80
  3
C4
350
B81
  3
C5
350
B82
  3
C6
350
B83
  3
C7
350
B84
  3
C8
350
B85
  3
C9
350
B86
  3
D0
350
B87
  3
D1
350
B88
  3
D2
350
B89
  0
DICTIONARY
  5
92
102
{ACAD_REACTORS
330
C
102
}
330
C
100
AcDbDictionary
281
     1
  3
Standard
350
D33
  0
DICTIONARY
  5
59
102
{ACAD_REACTORS
330
C
102
}
330
C
100
AcDbDictionary
281
     1
  3
CTABLESTYLE
350
D34
  3
DIMASSOC
350
5A
  3
HIDETEXT
350
5E
  0
LAYOUT
  5
74
102
{ACAD_REACTORS
330
1A
102
}
330
1A
100
AcDbPlotSettings
  1

  2
none_device
  4
Letter_(8.50_x_11.00_Inches)
  6

 40
6.35
 41
6.35
 42
6.35000508
 43
6.35000508
 44
215.9
 45
279.4
 46
0.0
 47
0.0
 48
0.0
 49
0.0
140
0.0
141
0.0
142
1.0
143
1.0
 70
   688
 72
     0
 73
     0
 74
     5
  7

 75
    16
 76
     0
 77
     2
 78
   300
147
1.0
148
0.0
149
0.0
100
AcDbLayout
  1
Layout1
 70
     1
 71
     1
 10
0.0
 20
0.0
 11
420.0
 21
297.0
 12
0.0
 22
0.0
 32
0.0
 14
0.0
 24
0.0
 34
0.0
 15
302.555542
 25
498.990326
 35
2.0
146
0.0
 13
0.0
 23
0.0
 33
0.0
 16
1.0
 26
0.0
 36
0.0
 17
0.0
 27
1.0
 37
0.0
 76
     0
330
73
331
B64
  0
LAYOUT
  5
22
102
{ACAD_REACTORS
330
1A
102
}
330
1A
100
AcDbPlotSettings
  1

  2
none_device
  4
Letter_(8.50_x_11.00_Inches)
  6

 40
6.35
 41
6.35
 42
6.35000508
 43
6.35000508
 44
215.9
 45
279.4
 46
0.0
 47
0.0
 48
0.0
 49
0.0
140
0.0
141
0.0
142
1.0
143
1.0
 70
 11952
 72
     0
 73
     0
 74
     0
  7

 75
    16
 76
     0
 77
     2
 78
   300
147
1.0
148
0.0
149
0.0
100
AcDbLayout
  1
Model
 70
     1
 71
     0
 10
0.0
 20
0.0
 11
420.0
 21
297.0
 12
0.0
 22
0.0
 32
0.0
 14
-43.7112845578873
 24
-36.35259045775252
 34
0.0
 15
302.555542
 25
498.975403
 35
0.0
146
0.0
 13
0.0
 23
0.0
 33
0.0
 16
1.0
 26
0.0
 36
0.0
 17
0.0
 27
1.0
 37
0.0
 76
     0
330
1F
331
97
  0
MLINESTYLE
  5
18
102
{ACAD_REACTORS
330
17
102
}
330
17
100
AcDbMlineStyle
  2
STANDARD
 70
     0
  3

 62
     0
 51
90.0
 52
90.0
 71
     2
 49
0.5
 62
   256
  6
BYLAYER
 49
-0.5
 62
   256
  6
BYLAYER
  0
ACDBPLACEHOLDER
  5
F
102
{ACAD_REACTORS
330
E
102
}
330
E
  0
SCALE
  5
B69
102
{ACAD_REACTORS
330
99
102
}
330
99
100
AcDbScale
 70
     0
300
1:1
140
1.0
141
1.0
290
     1
  0
SCALE
  5
B6A
102
{ACAD_REACTORS
330
99
102
}
330
99
100
AcDbScale
 70
     0
300
1:2
140
1.0
141
2.0
290
     0
  0
SCALE
  5
B6B
102
{ACAD_REACTORS
330
99
102
}
330
99
100
AcDbScale
 70
     0
300
1:4
140
1.0
141
4.0
290
     0
  0
SCALE
  5
B6C
102
{ACAD_REACTORS
330
99
102
}
330
99
100
AcDbScale
 70
     0
300
1:5
140
1.0
141
5.0
290
     0
  0
SCALE
  5
B6D
102
{ACAD_REACTORS
330
99
102
}
330
99
100
AcDbScale
 70
     0
300
1:8
140
1.0
141
8.0
290
     0
  0
SCALE
  5
B6E
102
{ACAD_REACTORS
330
99
102
}
330
99
100
AcDbScale
 70
     0
300
1:10
140
1.0
141
10.0
290
     0
  0
SCALE
  5
B6F
102
{ACAD_REACTORS
330
99
102
}
330
99
100
AcDbScale
 70
     0
300
1:16
140
1.0
141
16.0
290
     0
  0
SCALE
  5
B70
102
{ACAD_REACTORS
330
99
102
}
330
99
100
AcDbScale
 70
     0
300
1:20
140
1.0
141
20.0
290
     0
  0
SCALE
  5
B71
102
{ACAD_REACTORS
330
99
102
}
330
99
100
AcDbScale
 70
     0
300
1:30
140
1.0
141
30.0
290
     0
  0
SCALE
  5
B72
102
{ACAD_REACTORS
330
99
102
}
330
99
100
AcDbScale
 70
     0
300
1:40
140
1.0
141
40.0
290
     0
  0
SCALE
  5
B73
102
{ACAD_REACTORS
330
99
102
}
330
99
100
AcDbScale
 70
     0
300
1:50
140
1.0
141
50.0
290
     0
  0
SCALE
  5
B74
102
{ACAD_REACTORS
330
99
102
}
330
99
100
AcDbScale
 70
     0
300
1:100
140
1.0
141
100.0
290
     0
  0
SCALE
  5
B75
102
{ACAD_REACTORS
330
99
102
}
330
99
100
AcDbScale
 70
     0
300
2:1
140
2.0
141
1.0
290
     0
  0
SCALE
  5
B76
102
{ACAD_REACTORS
330
99
102
}
330
99
100
AcDbScale
 70
     0
300
4:1
140
4.0
141
1.0
290
     0
  0
SCALE
  5
B77
102
{ACAD_REACTORS
330
99
102
}
330
99
100
AcDbScale
 70
     0
300
8:1
140
8.0
141
1.0
290
     0
  0
SCALE
  5
B78
102
{ACAD_REACTORS
330
99
102
}
330
99
100
AcDbScale
 70
     0
300
10:1
140
10.0
141
1.0
290
     0
  0
SCALE
  5
B79
102
{ACAD_REACTORS
330
99
102
}
330
99
100
AcDbScale
 70
     0
300
100:1
140
100.0
141
1.0
290
     0
  0
SCALE
  5
B7A
102
{ACAD_REACTORS
330
99
102
}
330
99
100
AcDbScale
 70
     0
300
1/128" = 1'-0"
140
0.0078125
141
12.0
290
     0
  0
SCALE
  5
B7B
102
{ACAD_REACTORS
330
99
102
}
330
99
100
AcDbScale
 70
     0
300
1/64" = 1'-0"
140
0.015625
141
12.0
290
     0
  0
SCALE
  5
B7C
102
{ACAD_REACTORS
330
99
102
}
330
99
100
AcDbScale
 70
     0
300
1/32" = 1'-0"
140
0.03125
141
12.0
290
     0
  0
SCALE
  5
B7D
102
{ACAD_REACTORS
330
99
102
}
330
99
100
AcDbScale
 70
     0
300
1/16" = 1'-0"
140
0.0625
141
12.0
290
     0
  0
SCALE
  5
B7E
102
{ACAD_REACTORS
330
99
102
}
330
99
100
AcDbScale
 70
     0
300
3/32" = 1'-0"
140
0.09375
141
12.0
290
     0
  0
SCALE
  5
B7F
102
{ACAD_REACTORS
330
99
102
}
330
99
100
AcDbScale
 70
     0
300
1/8" = 1'-0"
140
0.125
141
12.0
290
     0
  0
SCALE
  5
B80
102
{ACAD_REACTORS
330
99
102
}
330
99
100
AcDbScale
 70
     0
300
3/16" = 1'-0"
140
0.1875
141
12.0
290
     0
  0
SCALE
  5
B81
102
{ACAD_REACTORS
330
99
102
}
330
99
100
AcDbScale
 70
     0
300
1/4" = 1'-0"
140
0.25
141
12.0
290
     0
  0
SCALE
  5
B82
102
{ACAD_REACTORS
330
99
102
}
330
99
100
AcDbScale
 70
     0
300
3/8" = 1'-0"
140
0.375
141
12.0
290
     0
  0
SCALE
  5
B83
102
{ACAD_REACTORS
330
99
102
}
330
99
100
AcDbScale
 70
     0
300
1/2" = 1'-0"
140
0.5
141
12.0
290
     0
  0
SCALE
  5
B84
102
{ACAD_REACTORS
330
99
102
}
330
99
100
AcDbScale
 70
     0
300
3/4" = 1'-0"
140
0.75
141
12.0
290
     0
  0
SCALE
  5
B85
102
{ACAD_REACTORS
330
99
102
}
330
99
100
AcDbScale
 70
     0
300
1" = 1'-0"
140
1.0
141
12.0
290
     0
  0
SCALE
  5
B86
102
{ACAD_REACTORS
330
99
102
}
330
99
100
AcDbScale
 70
     0
300
1-1/2" = 1'-0"
140
1.5
141
12.0
290
     0
  0
SCALE
  5
B87
102
{ACAD_REACTORS
330
99
102
}
330
99
100
AcDbScale
 70
     0
300
3" = 1'-0"
140
3.0
141
12.0
290
     0
  0
SCALE
  5
B88
102
{ACAD_REACTORS
330
99
102
}
330
99
100
AcDbScale
 70
     0
300
6" = 1'-0"
140
6.0
141
12.0
290
     0
  0
SCALE
  5
B89
102
{ACAD_REACTORS
330
99
102
}
330
99
100
AcDbScale
 70
     0
300
1'-0" = 1'-0"
140
12.0
141
12.0
290
     0
  0
TABLESTYLE
  5
D33
102
{ACAD_REACTORS
330
92
102
}
102
{ACAD_XDICTIONARY
360
D63
102
}
330
92
100
AcDbTableStyle
  3
Standard
 70
     0
 71
     0
 40
0.06
 41
0.06
280
     0
281
     0
  7
Standard
140
0.18
170
     2
 62
     0
 63
     7
283
     0
274
    -2
284
     1
 64
     0
275
    -2
285
     1
 65
     0
276
    -2
286
     1
 66
     0
277
    -2
287
     1
 67
     0
278
    -2
288
     1
 68
     0
279
    -2
289
     1
 69
     0
  7
Standard
140
0.25
170
     5
 62
     0
 63
     7
283
     0
274
    -2
284
     1
 64
     0
275
    -2
285
     1
 65
     0
276
    -2
286
     1
 66
     0
277
    -2
287
     1
 67
     0
278
    -2
288
     1
 68
     0
279
    -2
289
     1
 69
     0
  7
Standard
140
0.18
170
     5
 62
     0
 63
     7
283
     0
274
    -2
284
     1
 64
     0
275
    -2
285
     1
 65
     0
276
    -2
286
     1
 66
     0
277
    -2
287
     1
 67
     0
278
    -2
288
     1
 68
     0
279
    -2
289
     1
 69
     0
  0
DICTIONARYVAR
  5
D34
102
{ACAD_REACTORS
330
59
102
}
330
59
100
DictionaryVariables
280
     0
  1
Standard
  0
DICTIONARYVAR
  5
5A
102
{ACAD_REACTORS
330
59
102
}
330
59
100
DictionaryVariables
280
     0
  1
2
  0
DICTIONARYVAR
  5
5E
102
{ACAD_REACTORS
330
59
102
}
330
59
100
DictionaryVariables
280
     0
  1
1
  0
DICTIONARY
  5
D63
330
D33
100
AcDbDictionary
280
     1
281
     1
  3
ACAD_XREC_ROUNDTRIP
360
D64
  0
XRECORD
  5
D64
102
{ACAD_REACTORS
330
D63
102
}
330
D63
100
AcDbXrecord
280
     1
102
ACAD_ROUNDTRIP_PRE2007_TABLESTYLE
 90
      512
 91
        0
  1

 92
      512
 93
        0
  2

 94
      512
 95
        0
  3

  0
ENDSEC
  0
EOF
