  0
SECTION
  2
HEADER
  9
$ACADVER
  1
AC1015
  9
$ACADMAINTVER
 70
     6
  9
$DWGCODEPAGE
  3
ANSI_1252
  9
$INSBASE
 10
0.0
 20
0.0
 30
0.0
  9
$EXTMIN
 10
0.0
 20
0.0
 30
0.0
  9
$EXTMAX
 10
1651.206869077697
 20
482.7511676956355
 30
0.0
  9
$LIMMIN
 10
0.0
 20
0.0
  9
$LIMMAX
 10
0.0
 20
0.0
  9
$ORTHOMODE
 70
     0
  9
$REGENMODE
 70
     1
  9
$FILLMODE
 70
     1
  9
$QTEXTMODE
 70
     0
  9
$MIRRTEXT
 70
     0
  9
$LTSCALE
 40
1.0
  9
$ATTMODE
 70
     1
  9
$TEXTSIZE
 40
2.5
  9
$TRACEWID
 40
1.0
  9
$TEXTSTYLE
  7
Standard
  9
$CLAYER
  8
0
  9
$CELTYPE
  6
ByLayer
  9
$CECOLOR
 62
   256
  9
$CELTSCALE
 40
1.0
  9
$DISPSILH
 70
     0
  9
$DIMSCALE
 40
1.0
  9
$DIMASZ
 40
2.5
  9
$DIMEXO
 40
0.625
  9
$DIMDLI
 40
3.75
  9
$DIMRND
 40
0.0
  9
$DIMDLE
 40
0.0
  9
$DIMEXE
 40
1.25
  9
$DIMTP
 40
0.0
  9
$DIMTM
 40
0.0
  9
$DIMTXT
 40
2.5
  9
$DIMCEN
 40
2.5
  9
$DIMTSZ
 40
0.0
  9
$DIMTOL
 70
     0
  9
$DIMLIM
 70
     0
  9
$DIMTIH
 70
     0
  9
$DIMTOH
 70
     0
  9
$DIMSE1
 70
     0
  9
$DIMSE2
 70
     0
  9
$DIMTAD
 70
     1
  9
$DIMZIN
 70
     8
  9
$DIMBLK
  1

  9
$DIMASO
 70
     1
  9
$DIMSHO
 70
     1
  9
$DIMPOST
  1

  9
$DIMAPOST
  1

  9
$DIMALT
 70
     0
  9
$DIMALTD
 70
     3
  9
$DIMALTF
 40
0.03937007874016
  9
$DIMLFAC
 40
1.0
  9
$DIMTOFL
 70
     1
  9
$DIMTVP
 40
0.0
  9
$DIMTIX
 70
     0
  9
$DIMSOXD
 70
     0
  9
$DIMSAH
 70
     0
  9
$DIMBLK1
  1

  9
$DIMBLK2
  1

  9
$DIMSTYLE
  2
ISO-25
  9
$DIMCLRD
 70
     0
  9
$DIMCLRE
 70
     0
  9
$DIMCLRT
 70
     0
  9
$DIMTFAC
 40
1.0
  9
$DIMGAP
 40
0.625
  9
$DIMJUST
 70
     0
  9
$DIMSD1
 70
     0
  9
$DIMSD2
 70
     0
  9
$DIMTOLJ
 70
     0
  9
$DIMTZIN
 70
     8
  9
$DIMALTZ
 70
     0
  9
$DIMALTTZ
 70
     0
  9
$DIMUPT
 70
     0
  9
$DIMDEC
 70
     2
  9
$DIMTDEC
 70
     2
  9
$DIMALTU
 70
     2
  9
$DIMALTTD
 70
     3
  9
$DIMTXSTY
  7
Standard
  9
$DIMAUNIT
 70
     0
  9
$DIMADEC
 70
     0
  9
$DIMALTRND
 40
0.0
  9
$DIMAZIN
 70
     0
  9
$DIMDSEP
 70
    44
  9
$DIMATFIT
 70
     3
  9
$DIMFRAC
 70
     0
  9
$DIMLDRBLK
  1

  9
$DIMLUNIT
 70
     2
  9
$DIMLWD
 70
    -2
  9
$DIMLWE
 70
    -2
  9
$DIMTMOVE
 70
     0
  9
$LUNITS
 70
     2
  9
$LUPREC
 70
     4
  9
$SKETCHINC
 40
1.0
  9
$FILLETRAD
 40
0.0
  9
$AUNITS
 70
     0
  9
$AUPREC
 70
     0
  9
$MENU
  1
.
  9
$ELEVATION
 40
0.0
  9
$PELEVATION
 40
0.0
  9
$THICKNESS
 40
0.0
  9
$LIMCHECK
 70
     0
  9
$CHAMFERA
 40
0.0
  9
$CHAMFERB
 40
0.0
  9
$CHAMFERC
 40
0.0
  9
$CHAMFERD
 40
0.0
  9
$SKPOLY
 70
     0
  9
$TDCREATE
 40
2455106.380144838
  9
$TDUCREATE
 40
2455106.296811505
  9
$TDUPDATE
 40
2455106.421811528
  9
$TDUUPDATE
 40
2455106.338478195
  9
$TDINDWG
 40
0.037481713
  9
$TDUSRTIMER
 40
0.0374793519
  9
$USRTIMER
 70
     1
  9
$ANGBASE
 50
0.0
  9
$ANGDIR
 70
     0
  9
$PDMODE
 70
     0
  9
$PDSIZE
 40
0.0
  9
$PLINEWID
 40
0.0
  9
$SPLFRAME
 70
     0
  9
$SPLINETYPE
 70
     6
  9
$SPLINESEGS
 70
     8
  9
$HANDSEED
  5
4DA
  9
$SURFTAB1
 70
     6
  9
$SURFTAB2
 70
     6
  9
$SURFTYPE
 70
     6
  9
$SURFU
 70
     6
  9
$SURFV
 70
     6
  9
$UCSBASE
  2

  9
$UCSNAME
  2

  9
$UCSORG
 10
0.0
 20
0.0
 30
0.0
  9
$UCSXDIR
 10
1.0
 20
0.0
 30
0.0
  9
$UCSYDIR
 10
0.0
 20
1.0
 30
0.0
  9
$UCSORTHOREF
  2

  9
$UCSORTHOVIEW
 70
     0
  9
$UCSORGTOP
 10
0.0
 20
0.0
 30
0.0
  9
$UCSORGBOTTOM
 10
0.0
 20
0.0
 30
0.0
  9
$UCSORGLEFT
 10
0.0
 20
0.0
 30
0.0
  9
$UCSORGRIGHT
 10
0.0
 20
0.0
 30
0.0
  9
$UCSORGFRONT
 10
0.0
 20
0.0
 30
0.0
  9
$UCSORGBACK
 10
0.0
 20
0.0
 30
0.0
  9
$PUCSBASE
  2

  9
$PUCSNAME
  2

  9
$PUCSORG
 10
0.0
 20
0.0
 30
0.0
  9
$PUCSXDIR
 10
1.0
 20
0.0
 30
0.0
  9
$PUCSYDIR
 10
0.0
 20
1.0
 30
0.0
  9
$PUCSORTHOREF
  2

  9
$PUCSORTHOVIEW
 70
     0
  9
$PUCSORGTOP
 10
0.0
 20
0.0
 30
0.0
  9
$PUCSORGBOTTOM
 10
0.0
 20
0.0
 30
0.0
  9
$PUCSORGLEFT
 10
0.0
 20
0.0
 30
0.0
  9
$PUCSORGRIGHT
 10
0.0
 20
0.0
 30
0.0
  9
$PUCSORGFRONT
 10
0.0
 20
0.0
 30
0.0
  9
$PUCSORGBACK
 10
0.0
 20
0.0
 30
0.0
  9
$USERI1
 70
     0
  9
$USERI2
 70
     0
  9
$USERI3
 70
     0
  9
$USERI4
 70
     0
  9
$USERI5
 70
     0
  9
$USERR1
 40
0.0
  9
$USERR2
 40
0.0
  9
$USERR3
 40
0.0
  9
$USERR4
 40
0.0
  9
$USERR5
 40
0.0
  9
$WORLDVIEW
 70
     1
  9
$SHADEDGE
 70
     3
  9
$SHADEDIF
 70
    70
  9
$TILEMODE
 70
     1
  9
$MAXACTVP
 70
    64
  9
$PINSBASE
 10
0.0
 20
0.0
 30
0.0
  9
$PLIMCHECK
 70
     0
  9
$PEXTMIN
 10
0.0
 20
0.0
 30
0.0
  9
$PEXTMAX
 10
12.0
 20
9.0
 30
0.0
  9
$PLIMMIN
 10
0.0
 20
0.0
  9
$PLIMMAX
 10
12.0
 20
9.0
  9
$UNITMODE
 70
     0
  9
$VISRETAIN
 70
     1
  9
$PLINEGEN
 70
     0
  9
$PSLTSCALE
 70
     1
  9
$TREEDEPTH
 70
  3020
  9
$CMLSTYLE
  2
Standard
  9
$CMLJUST
 70
     0
  9
$CMLSCALE
 40
20.0
  9
$PROXYGRAPHICS
 70
     1
  9
$MEASUREMENT
 70
     1
  9
$CELWEIGHT
370
    -1
  9
$ENDCAPS
280
     0
  9
$JOINSTYLE
280
     0
  9
$LWDISPLAY
290
     0
  9
$INSUNITS
 70
     4
  9
$HYPERLINKBASE
  1

  9
$STYLESHEET
  1

  9
$XEDIT
290
     1
  9
$CEPSNTYPE
380
     0
  9
$PSTYLEMODE
290
     1
  9
$FINGERPRINTGUID
  2
{5559452E-1E62-4159-8551-BF76FFF3E7E8}
  9
$VERSIONGUID
  2
{3CEB9EF8-4431-4551-B596-6734A9F966A9}
  9
$EXTNAMES
290
     1
  9
$PSVPSCALE
 40
0.0
  9
$OLESTARTUP
290
     0
  0
ENDSEC
  0
SECTION
  2
CLASSES
  0
CLASS
  1
ACDBDICTIONARYWDFLT
  2
AcDbDictionaryWithDefault
  3
ObjectDBX Classes
 90
        0
280
     0
281
     0
  0
CLASS
  1
ACDBPLACEHOLDER
  2
AcDbPlaceHolder
  3
ObjectDBX Classes
 90
        0
280
     0
281
     0
  0
CLASS
  1
LAYOUT
  2
AcDbLayout
  3
ObjectDBX Classes
 90
        0
280
     0
281
     0
  0
CLASS
  1
DICTIONARYVAR
  2
AcDbDictionaryVar
  3
ObjectDBX Classes
 90
        0
280
     0
281
     0
  0
CLASS
  1
TABLESTYLE
  2
AcDbTableStyle
  3
ObjectDBX Classes
 90
     4095
280
     0
281
     0
  0
CLASS
  1
SCALE
  2
AcDbScale
  3
ObjectDBX Classes
 90
     1153
280
     0
281
     0
  0
ENDSEC
  0
SECTION
  2
TABLES
  0
TABLE
  2
VPORT
  5
8
330
0
100
AcDbSymbolTable
 70
     2
  0
VPORT
  5
97
330
8
100
AcDbSymbolTableRecord
100
AcDbViewportTableRecord
  2
*Active
 70
     0
 10
0.0
 20
0.0
 11
1.0
 21
1.0
 12
527.42905484626
 22
263.9182436053695
 13
0.0
 23
0.0
 14
10.0
 24
10.0
 15
10.0
 25
10.0
 16
0.0
 26
0.0
 36
1.0
 17
0.0
 27
0.0
 37
0.0
 40
280.9666405129454
 41
1.664827586206897
 42
50.0
 43
0.0
 44
0.0
 50
0.0
 51
0.0
 71
     0
 72
  1000
 73
     1
 74
     3
 75
     0
 76
     0
 77
     0
 78
     0
281
     0
 65
     1
110
0.0
120
0.0
130
0.0
111
1.0
121
0.0
131
0.0
112
0.0
122
1.0
132
0.0
 79
     0
146
0.0
  0
ENDTAB
  0
TABLE
  2
LTYPE
  5
5
330
0
100
AcDbSymbolTable
 70
     2
  0
LTYPE
  5
14
330
5
100
AcDbSymbolTableRecord
100
AcDbLinetypeTableRecord
  2
ByBlock
 70
     0
  3

 72
    65
 73
     0
 40
0.0
  0
LTYPE
  5
15
330
5
100
AcDbSymbolTableRecord
100
AcDbLinetypeTableRecord
  2
ByLayer
 70
     0
  3

 72
    65
 73
     0
 40
0.0
  0
LTYPE
  5
16
330
5
100
AcDbSymbolTableRecord
100
AcDbLinetypeTableRecord
  2
Continuous
 70
     0
  3
Solid line
 72
    65
 73
     0
 40
0.0
  0
LTYPE
  5
4A7
330
5
100
AcDbSymbolTableRecord
100
AcDbLinetypeTableRecord
  2
DASHDOT
 70
     0
  3
 __ . __ . __ . __ . __ . __ . __ . 
 72
    65
 73
     4
 40
18.5
 49
12.0
 74
     0
 49
-3.0
 74
     0
 49
0.5
 74
     0
 49
-3.0
 74
     0
  0
ENDTAB
  0
TABLE
  2
LAYER
  5
2
330
0
100
AcDbSymbolTable
 70
     2
  0
LAYER
  5
10
330
2
100
AcDbSymbolTableRecord
100
AcDbLayerTableRecord
  2
0
 70
     0
 62
     7
  6
Continuous
370
    -3
390
F
  0
LAYER
  5
2E3
330
2
100
AcDbSymbolTableRecord
100
AcDbLayerTableRecord
  2
DEFPOINTS
 70
     0
 62
     7
  6
Continuous
290
     0
370
    -3
390
F
  0
ENDTAB
  0
TABLE
  2
STYLE
  5
3
330
0
100
AcDbSymbolTable
 70
     1
  0
STYLE
  5
11
330
3
100
AcDbSymbolTableRecord
100
AcDbTextStyleTableRecord
  2
Standard
 70
     0
 40
0.0
 41
1.0
 50
0.0
 71
     0
 42
2.5
  3
txt
  4

  0
ENDTAB
  0
TABLE
  2
VIEW
  5
6
330
0
100
AcDbSymbolTable
 70
     0
  0
ENDTAB
  0
TABLE
  2
UCS
  5
7
330
0
100
AcDbSymbolTable
 70
     0
  0
ENDTAB
  0
TABLE
  2
APPID
  5
9
330
0
100
AcDbSymbolTable
 70
     2
  0
APPID
  5
12
330
9
100
AcDbSymbolTableRecord
100
AcDbRegAppTableRecord
  2
ACAD
 70
     0
  0
APPID
  5
4A6
330
9
100
AcDbSymbolTableRecord
100
AcDbRegAppTableRecord
  2
PROGE_PRINT_SETTINGS
 70
     0
  0
ENDTAB
  0
TABLE
  2
DIMSTYLE
  5
A
330
0
100
AcDbSymbolTable
 70
     2
100
AcDbDimStyleTable
  0
DIMSTYLE
105
27
330
A
100
AcDbSymbolTableRecord
100
AcDbDimStyleTableRecord
  2
Standard
 70
     0
278
     0
340
11
  0
DIMSTYLE
105
29
102
{ACAD_REACTORS
330
2E4
330
412
330
440
330
462
102
}
330
A
100
AcDbSymbolTableRecord
100
AcDbDimStyleTableRecord
  2
ISO-25
 70
     0
 41
2.5
 42
0.625
 43
3.75
 44
1.25
 73
     0
 74
     0
 77
     1
 78
     8
140
2.5
141
2.5
143
0.03937007874016
147
0.625
171
     3
172
     1
271
     2
272
     2
274
     3
278
    44
283
     0
284
     8
340
11
  0
ENDTAB
  0
TABLE
  2
BLOCK_RECORD
  5
1
330
0
100
AcDbSymbolTable
 70
    21
  0
BLOCK_RECORD
  5
1F
330
1
100
AcDbSymbolTableRecord
100
AcDbBlockTableRecord
  2
*Model_Space
340
22
  0
BLOCK_RECORD
  5
73
330
1
100
AcDbSymbolTableRecord
100
AcDbBlockTableRecord
  2
*Paper_Space
340
4A9
  0
BLOCK_RECORD
  5
D1
330
1
100
AcDbSymbolTableRecord
100
AcDbBlockTableRecord
  2
*Paper_Space0
340
74
  0
BLOCK_RECORD
  5
FD
330
1
100
AcDbSymbolTableRecord
100
AcDbBlockTableRecord
  2
BLOCK1
340
0
  0
BLOCK_RECORD
  5
102
330
1
100
AcDbSymbolTableRecord
100
AcDbBlockTableRecord
  2
BLOCK2
340
0
  0
BLOCK_RECORD
  5
107
330
1
100
AcDbSymbolTableRecord
100
AcDbBlockTableRecord
  2
BLOCK3
340
0
  0
BLOCK_RECORD
  5
20F
330
1
100
AcDbSymbolTableRecord
100
AcDbBlockTableRecord
  2
BLOCK4
340
0
  0
BLOCK_RECORD
  5
2EF
330
1
100
AcDbSymbolTableRecord
100
AcDbBlockTableRecord
  2
*D5
340
0
  0
BLOCK_RECORD
  5
2FA
330
1
100
AcDbSymbolTableRecord
100
AcDbBlockTableRecord
  2
*D6
340
0
  0
BLOCK_RECORD
  5
305
330
1
100
AcDbSymbolTableRecord
100
AcDbBlockTableRecord
  2
*D7
340
0
  0
BLOCK_RECORD
  5
41D
330
1
100
AcDbSymbolTableRecord
100
AcDbBlockTableRecord
  2
*D8
340
0
  0
BLOCK_RECORD
  5
429
330
1
100
AcDbSymbolTableRecord
100
AcDbBlockTableRecord
  2
*D9
340
0
  0
BLOCK_RECORD
  5
434
330
1
100
AcDbSymbolTableRecord
100
AcDbBlockTableRecord
  2
*D10
340
0
  0
BLOCK_RECORD
  5
43F
330
1
100
AcDbSymbolTableRecord
100
AcDbBlockTableRecord
  2
*D11
340
0
  0
BLOCK_RECORD
  5
44B
330
1
100
AcDbSymbolTableRecord
100
AcDbBlockTableRecord
  2
*D12
340
0
  0
BLOCK_RECORD
  5
456
330
1
100
AcDbSymbolTableRecord
100
AcDbBlockTableRecord
  2
*D13
340
0
  0
BLOCK_RECORD
  5
461
330
1
100
AcDbSymbolTableRecord
100
AcDbBlockTableRecord
  2
*D14
340
0
  0
BLOCK_RECORD
  5
46D
330
1
100
AcDbSymbolTableRecord
100
AcDbBlockTableRecord
  2
*D15
340
0
  0
BLOCK_RECORD
  5
478
330
1
100
AcDbSymbolTableRecord
100
AcDbBlockTableRecord
  2
*D16
340
0
  0
BLOCK_RECORD
  5
483
330
1
100
AcDbSymbolTableRecord
100
AcDbBlockTableRecord
  2
*D17
340
0
  0
BLOCK_RECORD
  5
48E
330
1
100
AcDbSymbolTableRecord
100
AcDbBlockTableRecord
  2
*D18
340
0
  0
BLOCK_RECORD
  5
499
330
1
100
AcDbSymbolTableRecord
100
AcDbBlockTableRecord
  2
*D19
340
0
  0
BLOCK_RECORD
  5
4A4
330
1
100
AcDbSymbolTableRecord
100
AcDbBlockTableRecord
  2
*D20
340
0
  0
ENDTAB
  0
ENDSEC
  0
SECTION
  2
BLOCKS
  0
BLOCK
  5
20
330
1F
100
AcDbEntity
  8
0
100
AcDbBlockBegin
  2
*Model_Space
 70
     0
 10
0.0
 20
0.0
 30
0.0
  3
*Model_Space
  1

  0
ENDBLK
  5
21
330
1F
100
AcDbEntity
  8
0
100
AcDbBlockEnd
  0
BLOCK
  5
75
330
73
100
AcDbEntity
 67
     1
  8
0
100
AcDbBlockBegin
  2
*Paper_Space
 70
     0
 10
0.0
 20
0.0
 30
0.0
  3
*Paper_Space
  1

  0
ENDBLK
  5
76
330
73
100
AcDbEntity
 67
     1
  8
0
100
AcDbBlockEnd
  0
BLOCK
  5
4AA
330
D1
100
AcDbEntity
  8
0
100
AcDbBlockBegin
  2
*Paper_Space0
 70
     0
 10
0.0
 20
0.0
 30
0.0
  3
*Paper_Space0
  1

  0
VIEWPORT
  5
4D4
330
D1
100
AcDbEntity
  8
0
100
AcDbViewport
 10
7.8
 20
4.5
 30
0.0
 40
15.64
 41
9.0
 68
     1
 69
     1
 12
6.0
 22
4.5
 13
0.0
 23
0.0
 14
0.5
 24
0.5
 15
0.5
 25
0.5
 16
0.0
 26
0.0
 36
1.0
 17
0.0
 27
0.0
 37
0.0
 42
50.0
 43
0.0
 44
0.0
 45
12.0
 50
0.0
 51
0.0
 72
   100
 90
   557152
  1

281
     0
 71
     1
 74
     0
110
0.0
120
0.0
130
0.0
111
1.0
121
0.0
131
0.0
112
0.0
122
1.0
132
0.0
 79
     0
146
0.0
  0
ENDBLK
  5
4AB
330
D1
100
AcDbEntity
  8
0
100
AcDbBlockEnd
  0
BLOCK
  5
4AC
330
FD
100
AcDbEntity
  8
0
100
AcDbBlockBegin
  2
BLOCK1
 70
     0
 10
0.0
 20
0.0
 30
0.0
  3
BLOCK1
  1

  0
LINE
  5
FA
330
FD
100
AcDbEntity
  8
0
  6
DASHDOT
 62
     7
370
    13
100
AcDbLine
 10
19.5
 20
-90.0
 30
0.0
 11
-19.5
 21
-90.0
 31
0.0
  0
LINE
  5
FB
330
FD
100
AcDbEntity
  8
0
  6
DASHDOT
 62
     7
370
    13
100
AcDbLine
 10
0.0
 20
-70.5
 30
0.0
 11
0.0
 21
-109.5
 31
0.0
  0
ENDBLK
  5
4AD
330
FD
100
AcDbEntity
  8
0
100
AcDbBlockEnd
  0
BLOCK
  5
4AE
330
102
100
AcDbEntity
  8
0
100
AcDbBlockBegin
  2
BLOCK2
 70
     0
 10
0.0
 20
0.0
 30
0.0
  3
BLOCK2
  1

  0
LINE
  5
FF
330
102
100
AcDbEntity
  8
0
  6
DASHDOT
 62
     7
 48
0.2015
370
    13
100
AcDbLine
 10
38.029999
 20
-120.0
 30
0.0
 11
29.969999
 21
-120.0
 31
0.0
  0
LINE
  5
100
330
102
100
AcDbEntity
  8
0
  6
DASHDOT
 62
     7
 48
0.2015
370
    13
100
AcDbLine
 10
34.0
 20
-115.970001
 30
0.0
 11
34.0
 21
-124.029999
 31
0.0
  0
ENDBLK
  5
4AF
330
102
100
AcDbEntity
  8
0
100
AcDbBlockEnd
  0
BLOCK
  5
4B0
330
107
100
AcDbEntity
  8
0
100
AcDbBlockBegin
  2
BLOCK3
 70
     0
 10
0.0
 20
0.0
 30
0.0
  3
BLOCK3
  1

  0
LINE
  5
104
330
107
100
AcDbEntity
  8
0
  6
DASHDOT
 62
     7
 48
0.2015
370
    13
100
AcDbLine
 10
-29.969999
 20
-120.0
 30
0.0
 11
-38.029999
 21
-120.0
 31
0.0
  0
LINE
  5
105
330
107
100
AcDbEntity
  8
0
  6
DASHDOT
 62
     7
 48
0.2015
370
    13
100
AcDbLine
 10
-34.0
 20
-115.970001
 30
0.0
 11
-34.0
 21
-124.029999
 31
0.0
  0
ENDBLK
  5
4B1
330
107
100
AcDbEntity
  8
0
100
AcDbBlockEnd
  0
BLOCK
  5
4B2
330
20F
100
AcDbEntity
  8
0
100
AcDbBlockBegin
  2
BLOCK4
 70
     0
 10
0.0
 20
0.0
 30
0.0
  3
BLOCK4
  1

  0
CIRCLE
  5
109
330
20F
100
AcDbEntity
  8
0
 62
     7
370
    35
100
AcDbCircle
 10
0.0
 20
-90.0
 30
0.0
 40
12.5
  0
CIRCLE
  5
10A
330
20F
100
AcDbEntity
  8
0
 62
     7
370
    35
100
AcDbCircle
 10
0.0
 20
-90.0
 30
0.0
 40
9.5
  0
LINE
  5
10B
330
20F
100
AcDbEntity
  8
0
 62
     7
 48
0.25
370
    35
100
AcDbLine
 10
14.999998
 20
-95.0
 30
0.0
 11
14.999998
 21
-85.0
 31
0.0
  0
LINE
  5
10C
330
20F
100
AcDbEntity
  8
0
 62
     7
 48
0.25
370
    35
100
AcDbLine
 10
20.999998
 20
-95.0
 30
0.0
 11
20.999998
 21
-85.0
 31
0.0
  0
LINE
  5
10D
330
20F
100
AcDbEntity
  8
0
 62
     7
 48
0.15
370
    35
100
AcDbLine
 10
14.999998
 20
-95.0
 30
0.0
 11
20.999998
 21
-95.0
 31
0.0
  0
LINE
  5
10E
330
20F
100
AcDbEntity
  8
0
 62
     7
 48
0.15
370
    35
100
AcDbLine
 10
14.999998
 20
-85.0
 30
0.0
 11
20.999998
 21
-85.0
 31
0.0
  0
LINE
  5
10F
330
20F
100
AcDbEntity
  8
0
 62
     7
370
    35
100
AcDbLine
 10
-48.0
 20
-102.499901
 30
0.0
 11
-48.0
 21
-70.0
 31
0.0
  0
LINE
  5
110
330
20F
100
AcDbEntity
  8
0
 62
     7
 48
0.112507
370
    35
100
AcDbLine
 10
-48.0
 20
-110.0
 30
0.0
 11
-48.0
 21
-105.499725
 31
0.0
  0
LINE
  5
111
330
20F
100
AcDbEntity
  8
0
 62
     7
370
    35
100
AcDbLine
 10
-48.0
 20
-70.0
 30
0.0
 11
40.5
 21
-70.0
 31
0.0
  0
LINE
  5
112
330
20F
100
AcDbEntity
  8
0
 62
     7
370
    35
100
AcDbLine
 10
-48.0
 20
-110.0
 30
0.0
 11
40.5
 21
-110.0
 31
0.0
  0
SPLINE
  5
113
330
20F
100
AcDbEntity
  8
0
 62
     7
370
    35
100
AcDbSpline
210
0.0
220
0.0
230
1.0
 70
     8
 71
     5
 72
    12
 73
     6
 74
     0
 42
0.0
 43
0.0
 40
0.0
 40
0.0
 40
0.0
 40
0.0
 40
0.0
 40
0.0
 40
3.445696778529878
 40
3.445696778529878
 40
3.445696778529878
 40
3.445696778529878
 40
3.445696778529878
 40
3.445696778529878
 10
42.7
 20
-89.99999999999972
 30
0.0
 10
42.26248046676594
 20
-89.78546335336947
 30
0.0
 10
41.82128999380824
 20
-89.57845183994738
 30
0.0
 10
41.37879325012202
 20
-89.3744371443423
 30
0.0
 10
40.9375778414972
 20
-89.16754901471363
 30
0.0
 10
40.5
 20
-88.95327786606879
 30
0.0
  0
SPLINE
  5
114
330
20F
100
AcDbEntity
  8
0
 62
     7
370
    35
100
AcDbSpline
210
0.0
220
0.0
230
1.0
 70
     8
 71
     5
 72
    12
 73
     6
 74
     0
 42
0.0
 43
0.0
 40
0.0
 40
0.0
 40
0.0
 40
0.0
 40
0.0
 40
0.0
 40
3.445696778529845
 40
3.445696778529845
 40
3.445696778529845
 40
3.445696778529845
 40
3.445696778529845
 40
3.445696778529845
 10
42.70000000000003
 20
-89.99999999999943
 30
0.0
 10
42.26248046676236
 20
-90.21453664662235
 30
0.0
 10
41.82128999380436
 20
-90.42154816004202
 30
0.0
 10
41.37879325011732
 20
-90.62556285564817
 30
0.0
 10
40.9375778414942
 20
-90.83245098527938
 30
0.0
 10
40.50000000000003
 20
-91.04672213393036
 30
0.0
  0
SPLINE
  5
115
330
20F
100
AcDbEntity
  8
0
 62
     7
370
    35
100
AcDbSpline
210
0.0
220
0.0
230
1.0
 70
     8
 71
     5
 72
    12
 73
     6
 74
     0
 42
0.0
 43
0.0
 40
0.0
 40
0.0
 40
0.0
 40
0.0
 40
0.0
 40
0.0
 40
3.115543419298263
 40
3.115543419298263
 40
3.115543419298263
 40
3.115543419298263
 40
3.115543419298263
 40
3.115543419298263
 10
42.49161425902167
 20
-92.19137989968927
 30
0.0
 10
42.09464556769666
 20
-92.3819543255994
 30
0.0
 10
41.69519670832739
 20
-92.56726112196006
 30
0.0
 10
41.29504248072718
 20
-92.75082902724667
 30
0.0
 10
40.89606834368492
 20
-92.93687716771842
 30
0.0
 10
40.49999999999998
 20
-93.12869699807281
 30
0.0
  0
SPLINE
  5
116
330
20F
100
AcDbEntity
  8
0
 62
     7
370
    35
100
AcDbSpline
210
0.0
220
0.0
230
1.0
 70
     8
 71
     5
 72
    12
 73
     6
 74
     0
 42
0.0
 43
0.0
 40
0.0
 40
0.0
 40
0.0
 40
0.0
 40
0.0
 40
0.0
 40
2.77677747073676
 40
2.77677747073676
 40
2.77677747073676
 40
2.77677747073676
 40
2.77677747073676
 40
2.77677747073676
 10
42.27866615732194
 20
-94.35715050217678
 30
0.0
 10
41.92345778250591
 20
-94.52252521171475
 30
0.0
 10
41.56671834265473
 20
-94.68449788171303
 30
0.0
 10
41.20970725649374
 20
-94.8456468169659
 30
0.0
 10
40.85373356005285
 20
-95.00884829077634
 30
0.0
 10
40.50000000000004
 20
-95.17638988485632
 30
0.0
  0
ARC
  5
117
330
20F
100
AcDbEntity
  8
0
 62
     7
370
    35
100
AcDbCircle
 10
94.868027
 20
-217.23584
 30
0.0
 40
131.804163
100
AcDbArc
 50
113.621536
 51
114.361423
  0
ARC
  5
118
330
20F
100
AcDbEntity
  8
0
 62
     7
370
    35
100
AcDbCircle
 10
88.396454
 20
-209.713531
 30
0.0
 40
120.556723
100
AcDbArc
 50
112.729964
 51
113.409144
  0
ARC
  5
119
330
20F
100
AcDbEntity
  8
0
 62
     7
370
    35
100
AcDbCircle
 10
80.243553
 20
-198.143585
 30
0.0
 40
105.058517
100
AcDbArc
 50
111.611561
 51
112.228396
  0
LINE
  5
11A
330
20F
100
AcDbEntity
  8
0
 62
     7
 48
0.013882
370
    35
100
AcDbLine
 10
41.249451
 20
-102.305389
 30
0.0
 11
40.729248
 21
-102.499588
 31
0.0
  0
LINE
  5
11B
330
20F
100
AcDbEntity
  8
0
 62
     7
 48
0.010602
370
    35
100
AcDbLine
 10
40.901062
 20
-75.995644
 30
0.0
 11
40.5
 21
-75.857872
 31
0.0
  0
LINE
  5
11C
330
20F
100
AcDbEntity
  8
0
 62
     7
 48
0.02001
370
    35
100
AcDbLine
 10
41.249454
 20
-77.694611
 30
0.0
 11
40.5
 21
-77.413605
 31
0.0
  0
ARC
  5
11D
330
20F
100
AcDbEntity
  8
0
 62
     7
370
    35
100
AcDbCircle
 10
80.243668
 20
18.143871
 30
0.0
 40
105.058817
100
AcDbArc
 50
247.771604
 51
248.388439
  0
ARC
  5
11E
330
20F
100
AcDbEntity
  8
0
 62
     7
370
    35
100
AcDbCircle
 10
88.396454
 20
29.713531
 30
0.0
 40
120.556726
100
AcDbArc
 50
246.590856
 51
247.270036
  0
ARC
  5
11F
330
20F
100
AcDbEntity
  8
0
 62
     7
370
    35
100
AcDbCircle
 10
94.868027
 20
37.235836
 30
0.0
 40
131.804163
100
AcDbArc
 50
245.638577
 51
246.378464
  0
SPLINE
  5
120
330
20F
100
AcDbEntity
  8
0
 62
     7
370
    35
100
AcDbSpline
210
0.0
220
0.0
230
1.0
 70
     8
 71
     5
 72
    12
 73
     6
 74
     0
 42
0.0
 43
0.0
 40
0.0
 40
0.0
 40
0.0
 40
0.0
 40
0.0
 40
0.0
 40
2.776777471229548
 40
2.776777471229548
 40
2.776777471229548
 40
2.776777471229548
 40
2.776777471229548
 40
2.776777471229548
 10
42.27866615763959
 20
-85.64284949794539
 30
0.0
 10
41.92345778276302
 20
-85.47747478837279
 30
0.0
 10
41.56671834284858
 20
-85.31550211834451
 30
0.0
 10
41.20970725662355
 20
-85.15435318306561
 30
0.0
 10
40.85373356011799
 20
-84.99115170922927
 30
0.0
 10
40.50000000000001
 20
-84.82361011512442
 30
0.0
  0
SPLINE
  5
121
330
20F
100
AcDbEntity
  8
0
 62
     7
370
    35
100
AcDbSpline
210
0.0
220
0.0
230
1.0
 70
     8
 71
     5
 72
    12
 73
     6
 74
     0
 42
0.0
 43
0.0
 40
0.0
 40
0.0
 40
0.0
 40
0.0
 40
0.0
 40
0.0
 40
3.115545081627175
 40
3.115545081627175
 40
3.115545081627175
 40
3.115545081627175
 40
3.115545081627175
 40
3.115545081627175
 10
42.49161531807165
 20
-87.80862060870979
 30
0.0
 10
42.09464642023596
 20
-87.61804606986905
 30
0.0
 10
41.69519734885198
 20
-87.43273917184452
 30
0.0
 10
41.29504290648418
 20
-87.2491711712611
 30
0.0
 10
40.89606855501383
 20
-87.0631229346037
 30
0.0
 10
40.5
 20
-86.87130300190752
 30
0.0
  0
ARC
  5
122
330
20F
100
AcDbEntity
  8
0
 62
     7
370
    35
100
AcDbCircle
 10
0.0
 20
-90.0
 30
0.0
 40
15.0
100
AcDbArc
 50
303.555791
 51
236.444214
  0
ARC
  5
123
330
20F
100
AcDbEntity
  8
0
 62
     7
370
    35
100
AcDbCircle
 10
0.0
 20
-90.0
 30
0.0
 40
13.0
100
AcDbArc
 50
285.938845
 51
254.061157
  0
LINE
  5
124
330
20F
100
AcDbEntity
  8
0
 62
     7
 48
0.062041
370
    35
100
AcDbLine
 10
42.700001
 20
-87.700371
 30
0.0
 11
40.5
 21
-88.84861
 31
0.0
  0
LINE
  5
125
330
20F
100
AcDbEntity
  8
0
 62
     7
 48
0.002617
370
    35
100
AcDbLine
 10
40.5
 20
-88.84861
 30
0.0
 11
40.5
 21
-88.953278
 31
0.0
  0
LINE
  5
126
330
20F
100
AcDbEntity
  8
0
 62
     7
 48
0.062077
370
    35
100
AcDbLine
 10
42.700001
 20
-90.0
 30
0.0
 11
40.5
 21
-88.84861
 31
0.0
  0
LINE
  5
127
330
20F
100
AcDbEntity
  8
0
 62
     7
 48
0.05749
370
    35
100
AcDbLine
 10
42.700001
 20
-87.70047
 30
0.0
 11
42.700001
 21
-90.000084
 31
0.0
  0
LINE
  5
128
330
20F
100
AcDbEntity
  8
0
 62
     7
 48
0.062077
370
    35
100
AcDbLine
 10
42.700001
 20
-90.0
 30
0.0
 11
40.5
 21
-91.15139
 31
0.0
  0
LINE
  5
129
330
20F
100
AcDbEntity
  8
0
 62
     7
 48
0.002617
370
    35
100
AcDbLine
 10
40.5
 20
-91.15139
 30
0.0
 11
40.5
 21
-91.046722
 31
0.0
  0
LINE
  5
12A
330
20F
100
AcDbEntity
  8
0
 62
     7
 48
0.062041
370
    35
100
AcDbLine
 10
42.700001
 20
-92.299629
 30
0.0
 11
40.5
 21
-91.15139
 31
0.0
  0
LINE
  5
12B
330
20F
100
AcDbEntity
  8
0
 62
     7
 48
0.057491
370
    35
100
AcDbLine
 10
42.700001
 20
-90.000084
 30
0.0
 11
42.700001
 21
-92.299721
 31
0.0
  0
LINE
  5
12C
330
20F
100
AcDbEntity
  8
0
 62
     7
 48
0.061968
370
    35
100
AcDbLine
 10
42.700001
 20
-92.299629
 30
0.0
 11
40.5
 21
-93.441559
 31
0.0
  0
LINE
  5
12D
330
20F
100
AcDbEntity
  8
0
 62
     7
 48
0.007822
370
    35
100
AcDbLine
 10
40.5
 20
-93.441559
 30
0.0
 11
40.5
 21
-93.128693
 31
0.0
  0
LINE
  5
12E
330
20F
100
AcDbEntity
  8
0
 62
     7
 48
0.06186
370
    35
100
AcDbLine
 10
42.700001
 20
-94.574059
 30
0.0
 11
40.5
 21
-93.441559
 31
0.0
  0
LINE
  5
12F
330
20F
100
AcDbEntity
  8
0
 62
     7
 48
0.056862
370
    35
100
AcDbLine
 10
42.700001
 20
-92.299721
 30
0.0
 11
42.700001
 21
-94.574188
 31
0.0
  0
LINE
  5
130
330
20F
100
AcDbEntity
  8
0
 62
     7
 48
0.061717
370
    35
100
AcDbLine
 10
42.700001
 20
-94.574059
 30
0.0
 11
40.5
 21
-95.694016
 31
0.0
  0
LINE
  5
131
330
20F
100
AcDbEntity
  8
0
 62
     7
 48
0.012941
370
    35
100
AcDbLine
 10
40.5
 20
-95.694016
 30
0.0
 11
40.5
 21
-95.176384
 31
0.0
  0
LINE
  5
132
330
20F
100
AcDbEntity
  8
0
 62
     7
 48
0.061541
370
    35
100
AcDbLine
 10
42.700001
 20
-96.79837
 30
0.0
 11
40.5
 21
-95.694016
 31
0.0
  0
LINE
  5
133
330
20F
100
AcDbEntity
  8
0
 62
     7
 48
0.055608
370
    35
100
AcDbLine
 10
42.700001
 20
-94.574188
 30
0.0
 11
42.700001
 21
-96.798508
 31
0.0
  0
LINE
  5
134
330
20F
100
AcDbEntity
  8
0
 62
     7
 48
0.061333
370
    35
100
AcDbLine
 10
42.700001
 20
-96.79837
 30
0.0
 11
40.5
 21
-97.884094
 31
0.0
  0
LINE
  5
135
330
20F
100
AcDbEntity
  8
0
 62
     7
 48
0.017918
370
    35
100
AcDbLine
 10
40.5
 20
-97.884094
 30
0.0
 11
40.5
 21
-97.167358
 31
0.0
  0
LINE
  5
136
330
20F
100
AcDbEntity
  8
0
 62
     7
 48
0.061096
370
    35
100
AcDbLine
 10
42.700001
 20
-98.948204
 30
0.0
 11
40.5
 21
-97.884094
 31
0.0
  0
LINE
  5
137
330
20F
100
AcDbEntity
  8
0
 62
     7
 48
0.053744
370
    35
100
AcDbLine
 10
42.700001
 20
-96.798508
 30
0.0
 11
42.700001
 21
-98.94828
 31
0.0
  0
LINE
  5
138
330
20F
100
AcDbEntity
  8
0
 62
     7
 48
0.060831
370
    35
100
AcDbLine
 10
42.700001
 20
-98.948204
 30
0.0
 11
40.5
 21
-99.987793
 31
0.0
  0
LINE
  5
139
330
20F
100
AcDbEntity
  8
0
 62
     7
 48
0.0227
370
    35
100
AcDbLine
 10
40.5
 20
-99.987793
 30
0.0
 11
40.5
 21
-99.079811
 31
0.0
  0
LINE
  5
13A
330
20F
100
AcDbEntity
  8
0
 62
     7
 48
0.060542
370
    35
100
AcDbLine
 10
42.700001
 20
-101.0
 30
0.0
 11
40.5
 21
-99.987793
 31
0.0
  0
LINE
  5
13B
330
20F
100
AcDbEntity
  8
0
 62
     7
 48
0.051293
370
    35
100
AcDbLine
 10
42.700001
 20
-98.94828
 30
0.0
 11
42.700001
 21
-101.0
 31
0.0
  0
LINE
  5
13C
330
20F
100
AcDbEntity
  8
0
 62
     7
 48
0.060231
370
    35
100
AcDbLine
 10
42.700001
 20
-101.0
 30
0.0
 11
40.5
 21
-101.982056
 31
0.0
  0
LINE
  5
13D
330
20F
100
AcDbEntity
  8
0
 62
     7
 48
0.027232
370
    35
100
AcDbLine
 10
40.5
 20
-101.982056
 30
0.0
 11
40.5
 21
-100.892784
 31
0.0
  0
LINE
  5
13E
330
20F
100
AcDbEntity
  8
0
 62
     7
 48
0.032721
370
    35
100
AcDbLine
 10
41.701759
 20
-102.500572
 30
0.0
 11
40.5
 21
-101.982056
 31
0.0
  0
LINE
  5
13F
330
20F
100
AcDbEntity
  8
0
 62
     7
 48
0.0375
370
    35
100
AcDbLine
 10
42.700001
 20
-101.0
 30
0.0
 11
42.700001
 21
-102.5
 31
0.0
  0
LINE
  5
140
330
20F
100
AcDbEntity
  8
0
 62
     7
 48
0.003928
370
    35
100
AcDbLine
 10
40.646866
 20
-105.500572
 30
0.0
 11
40.5
 21
-105.556351
 31
0.0
  0
LINE
  5
141
330
20F
100
AcDbEntity
  8
0
 62
     7
 48
0.001394
370
    35
100
AcDbLine
 10
40.5
 20
-105.556351
 30
0.0
 11
40.5
 21
-105.500572
 31
0.0
  0
LINE
  5
142
330
20F
100
AcDbEntity
  8
0
 62
     7
 48
0.058463
370
    35
100
AcDbLine
 10
42.700001
 20
-106.34919
 30
0.0
 11
40.5
 21
-105.556351
 31
0.0
  0
LINE
  5
143
330
20F
100
AcDbEntity
  8
0
 62
     7
 48
0.02123
370
    35
100
AcDbLine
 10
42.700001
 20
-105.499985
 30
0.0
 11
42.700001
 21
-106.34919
 31
0.0
  0
LINE
  5
144
330
20F
100
AcDbEntity
  8
0
 62
     7
 48
0.058092
370
    35
100
AcDbLine
 10
42.700001
 20
-106.34919
 30
0.0
 11
40.5
 21
-107.097214
 31
0.0
  0
LINE
  5
145
330
20F
100
AcDbEntity
  8
0
 62
     7
 48
0.038521
370
    35
100
AcDbLine
 10
40.5
 20
-107.097214
 30
0.0
 11
40.5
 21
-105.556358
 31
0.0
  0
LINE
  5
146
330
20F
100
AcDbEntity
  8
0
 62
     7
 48
0.057726
370
    35
100
AcDbLine
 10
42.700001
 20
-107.79837
 30
0.0
 11
40.5
 21
-107.097214
 31
0.0
  0
LINE
  5
147
330
20F
100
AcDbEntity
  8
0
 62
     7
 48
0.03623
370
    35
100
AcDbLine
 10
42.700001
 20
-106.34919
 30
0.0
 11
42.700001
 21
-107.79837
 31
0.0
  0
LINE
  5
148
330
20F
100
AcDbEntity
  8
0
 62
     7
 48
0.057367
370
    35
100
AcDbLine
 10
42.700001
 20
-107.79837
 30
0.0
 11
40.5
 21
-108.450752
 31
0.0
  0
LINE
  5
149
330
20F
100
AcDbEntity
  8
0
 62
     7
 48
0.033838
370
    35
100
AcDbLine
 10
40.5
 20
-108.450752
 30
0.0
 11
40.5
 21
-107.097214
 31
0.0
  0
LINE
  5
14A
330
20F
100
AcDbEntity
  8
0
 62
     7
 48
0.057021
370
    35
100
AcDbLine
 10
42.700001
 20
-109.052559
 30
0.0
 11
40.5
 21
-108.450752
 31
0.0
  0
LINE
  5
14B
330
20F
100
AcDbEntity
  8
0
 62
     7
 48
0.031355
370
    35
100
AcDbLine
 10
42.700001
 20
-107.79837
 30
0.0
 11
42.700001
 21
-109.052559
 31
0.0
  0
LINE
  5
14C
330
20F
100
AcDbEntity
  8
0
 62
     7
 48
0.05669
370
    35
100
AcDbLine
 10
42.700001
 20
-109.052559
 30
0.0
 11
40.5
 21
-109.602142
 31
0.0
  0
LINE
  5
14D
330
20F
100
AcDbEntity
  8
0
 62
     7
 48
0.028785
370
    35
100
AcDbLine
 10
40.5
 20
-109.602142
 30
0.0
 11
40.5
 21
-108.450752
 31
0.0
  0
LINE
  5
14E
330
20F
100
AcDbEntity
  8
0
 62
     7
 48
0.05638
370
    35
100
AcDbLine
 10
42.700001
 20
-110.098
 30
0.0
 11
40.5
 21
-109.602142
 31
0.0
  0
LINE
  5
14F
330
20F
100
AcDbEntity
  8
0
 62
     7
 48
0.026137
370
    35
100
AcDbLine
 10
42.700001
 20
-109.052559
 30
0.0
 11
42.700001
 21
-110.098038
 31
0.0
  0
LINE
  5
150
330
20F
100
AcDbEntity
  8
0
 62
     7
 48
0.056093
370
    35
100
AcDbLine
 10
42.700001
 20
-110.098
 30
0.0
 11
40.5
 21
-110.538773
 31
0.0
  0
LINE
  5
151
330
20F
100
AcDbEntity
  8
0
 62
     7
 48
0.023416
370
    35
100
AcDbLine
 10
40.5
 20
-110.538773
 30
0.0
 11
40.5
 21
-109.602142
 31
0.0
  0
LINE
  5
152
330
20F
100
AcDbEntity
  8
0
 62
     7
 48
0.055834
370
    35
100
AcDbLine
 10
42.700001
 20
-110.923241
 30
0.0
 11
40.5
 21
-110.538773
 31
0.0
  0
LINE
  5
153
330
20F
100
AcDbEntity
  8
0
 62
     7
 48
0.02063
370
    35
100
AcDbLine
 10
42.700001
 20
-110.098038
 30
0.0
 11
42.700001
 21
-110.923241
 31
0.0
  0
LINE
  5
154
330
20F
100
AcDbEntity
  8
0
 62
     7
 48
0.055605
370
    35
100
AcDbLine
 10
42.700001
 20
-110.923241
 30
0.0
 11
40.5
 21
-111.250366
 31
0.0
  0
LINE
  5
155
330
20F
100
AcDbEntity
  8
0
 62
     7
 48
0.01779
370
    35
100
AcDbLine
 10
40.5
 20
-111.250366
 30
0.0
 11
40.5
 21
-110.538773
 31
0.0
  0
LINE
  5
156
330
20F
100
AcDbEntity
  8
0
 62
     7
 48
0.055409
370
    35
100
AcDbLine
 10
42.700001
 20
-111.519249
 30
0.0
 11
40.5
 21
-111.250366
 31
0.0
  0
LINE
  5
157
330
20F
100
AcDbEntity
  8
0
 62
     7
 48
0.0149
370
    35
100
AcDbLine
 10
42.700001
 20
-110.923241
 30
0.0
 11
42.700001
 21
-111.519249
 31
0.0
  0
LINE
  5
158
330
20F
100
AcDbEntity
  8
0
 62
     7
 48
0.05525
370
    35
100
AcDbLine
 10
42.700001
 20
-111.519249
 30
0.0
 11
40.5
 21
-111.729141
 31
0.0
  0
LINE
  5
159
330
20F
100
AcDbEntity
  8
0
 62
     7
 48
0.011969
370
    35
100
AcDbLine
 10
40.5
 20
-111.729141
 30
0.0
 11
40.5
 21
-111.250374
 31
0.0
  0
LINE
  5
15A
330
20F
100
AcDbEntity
  8
0
 62
     7
 48
0.055128
370
    35
100
AcDbLine
 10
42.700001
 20
-111.879478
 30
0.0
 11
40.5
 21
-111.729141
 31
0.0
  0
LINE
  5
15B
330
20F
100
AcDbEntity
  8
0
 62
     7
 48
0.009006
370
    35
100
AcDbLine
 10
42.700001
 20
-111.519249
 30
0.0
 11
42.700001
 21
-111.879478
 31
0.0
  0
LINE
  5
15C
330
20F
100
AcDbEntity
  8
0
 62
     7
 48
0.055046
370
    35
100
AcDbLine
 10
42.700001
 20
-111.879478
 30
0.0
 11
40.5
 21
-111.969849
 31
0.0
  0
LINE
  5
15D
330
20F
100
AcDbEntity
  8
0
 62
     7
 48
0.006017
370
    35
100
AcDbLine
 10
40.5
 20
-111.969849
 30
0.0
 11
40.5
 21
-111.729149
 31
0.0
  0
LINE
  5
15E
330
20F
100
AcDbEntity
  8
0
 62
     7
 48
0.055005
370
    35
100
AcDbLine
 10
42.700001
 20
-112.0
 30
0.0
 11
40.5
 21
-111.969849
 31
0.0
  0
LINE
  5
15F
330
20F
100
AcDbEntity
  8
0
 62
     7
 48
0.003013
370
    35
100
AcDbLine
 10
42.700001
 20
-111.879478
 30
0.0
 11
42.700001
 21
-112.0
 31
0.0
  0
LINE
  5
160
330
20F
100
AcDbEntity
  8
0
 62
     7
 48
0.055005
370
    35
100
AcDbLine
 10
42.700001
 20
-68.0
 30
0.0
 11
40.5
 21
-68.030151
 31
0.0
  0
LINE
  5
161
330
20F
100
AcDbEntity
  8
0
 62
     7
 48
0.055005
370
    35
100
AcDbLine
 10
42.700001
 20
-68.0
 30
0.0
 11
40.5
 21
-68.030151
 31
0.0
  0
LINE
  5
162
330
20F
100
AcDbEntity
  8
0
 62
     7
 48
0.006018
370
    35
100
AcDbLine
 10
40.5
 20
-68.030151
 30
0.0
 11
40.5
 21
-68.270859
 31
0.0
  0
LINE
  5
163
330
20F
100
AcDbEntity
  8
0
 62
     7
 48
0.055046
370
    35
100
AcDbLine
 10
42.700001
 20
-68.120522
 30
0.0
 11
40.5
 21
-68.030151
 31
0.0
  0
LINE
  5
164
330
20F
100
AcDbEntity
  8
0
 62
     7
 48
0.003013
370
    35
100
AcDbLine
 10
42.700001
 20
-68.0
 30
0.0
 11
42.700001
 21
-68.120522
 31
0.0
  0
LINE
  5
165
330
20F
100
AcDbEntity
  8
0
 62
     7
 48
0.055128
370
    35
100
AcDbLine
 10
42.700001
 20
-68.120522
 30
0.0
 11
40.5
 21
-68.270859
 31
0.0
  0
LINE
  5
166
330
20F
100
AcDbEntity
  8
0
 62
     7
 48
0.011969
370
    35
100
AcDbLine
 10
40.5
 20
-68.270859
 30
0.0
 11
40.5
 21
-68.749634
 31
0.0
  0
LINE
  5
167
330
20F
100
AcDbEntity
  8
0
 62
     7
 48
0.05525
370
    35
100
AcDbLine
 10
42.700001
 20
-68.480751
 30
0.0
 11
40.5
 21
-68.270859
 31
0.0
  0
LINE
  5
168
330
20F
100
AcDbEntity
  8
0
 62
     7
 48
0.009006
370
    35
100
AcDbLine
 10
42.700001
 20
-68.120522
 30
0.0
 11
42.700001
 21
-68.480751
 31
0.0
  0
LINE
  5
169
330
20F
100
AcDbEntity
  8
0
 62
     7
 48
0.055409
370
    35
100
AcDbLine
 10
42.700001
 20
-68.480751
 30
0.0
 11
40.5
 21
-68.749634
 31
0.0
  0
LINE
  5
16A
330
20F
100
AcDbEntity
  8
0
 62
     7
 48
0.01779
370
    35
100
AcDbLine
 10
40.5
 20
-68.749634
 30
0.0
 11
40.5
 21
-69.461235
 31
0.0
  0
LINE
  5
16B
330
20F
100
AcDbEntity
  8
0
 62
     7
 48
0.055605
370
    35
100
AcDbLine
 10
42.700001
 20
-69.076759
 30
0.0
 11
40.5
 21
-68.749634
 31
0.0
  0
LINE
  5
16C
330
20F
100
AcDbEntity
  8
0
 62
     7
 48
0.0149
370
    35
100
AcDbLine
 10
42.700001
 20
-68.480751
 30
0.0
 11
42.700001
 21
-69.076767
 31
0.0
  0
LINE
  5
16D
330
20F
100
AcDbEntity
  8
0
 62
     7
 48
0.055834
370
    35
100
AcDbLine
 10
42.700001
 20
-69.076759
 30
0.0
 11
40.5
 21
-69.461227
 31
0.0
  0
LINE
  5
16E
330
20F
100
AcDbEntity
  8
0
 62
     7
 48
0.023416
370
    35
100
AcDbLine
 10
40.5
 20
-69.461227
 30
0.0
 11
40.5
 21
-70.397858
 31
0.0
  0
LINE
  5
16F
330
20F
100
AcDbEntity
  8
0
 62
     7
 48
0.056093
370
    35
100
AcDbLine
 10
42.700001
 20
-69.902
 30
0.0
 11
40.5
 21
-69.461227
 31
0.0
  0
LINE
  5
170
330
20F
100
AcDbEntity
  8
0
 62
     7
 48
0.020632
370
    35
100
AcDbLine
 10
42.700001
 20
-69.076767
 30
0.0
 11
42.700001
 21
-69.902039
 31
0.0
  0
LINE
  5
171
330
20F
100
AcDbEntity
  8
0
 62
     7
 48
0.05638
370
    35
100
AcDbLine
 10
42.700001
 20
-69.902
 30
0.0
 11
40.5
 21
-70.397858
 31
0.0
  0
LINE
  5
172
330
20F
100
AcDbEntity
  8
0
 62
     7
 48
0.028785
370
    35
100
AcDbLine
 10
40.5
 20
-70.397858
 30
0.0
 11
40.5
 21
-71.549248
 31
0.0
  0
LINE
  5
173
330
20F
100
AcDbEntity
  8
0
 62
     7
 48
0.05669
370
    35
100
AcDbLine
 10
42.700001
 20
-70.947441
 30
0.0
 11
40.5
 21
-70.397858
 31
0.0
  0
LINE
  5
174
330
20F
100
AcDbEntity
  8
0
 62
     7
 48
0.026135
370
    35
100
AcDbLine
 10
42.700001
 20
-69.902039
 30
0.0
 11
42.700001
 21
-70.947441
 31
0.0
  0
LINE
  5
175
330
20F
100
AcDbEntity
  8
0
 62
     7
 48
0.057021
370
    35
100
AcDbLine
 10
42.700001
 20
-70.947441
 30
0.0
 11
40.5
 21
-71.549248
 31
0.0
  0
LINE
  5
176
330
20F
100
AcDbEntity
  8
0
 62
     7
 48
0.033838
370
    35
100
AcDbLine
 10
40.5
 20
-71.549248
 30
0.0
 11
40.5
 21
-72.902786
 31
0.0
  0
LINE
  5
177
330
20F
100
AcDbEntity
  8
0
 62
     7
 48
0.057367
370
    35
100
AcDbLine
 10
42.700001
 20
-72.20163
 30
0.0
 11
40.5
 21
-71.549248
 31
0.0
  0
LINE
  5
178
330
20F
100
AcDbEntity
  8
0
 62
     7
 48
0.031355
370
    35
100
AcDbLine
 10
42.700001
 20
-70.947441
 30
0.0
 11
42.700001
 21
-72.20163
 31
0.0
  0
LINE
  5
179
330
20F
100
AcDbEntity
  8
0
 62
     7
 48
0.057726
370
    35
100
AcDbLine
 10
42.700001
 20
-72.20163
 30
0.0
 11
40.5
 21
-72.902786
 31
0.0
  0
LINE
  5
17A
330
20F
100
AcDbEntity
  8
0
 62
     7
 48
0.038521
370
    35
100
AcDbLine
 10
40.5
 20
-72.902786
 30
0.0
 11
40.5
 21
-74.443642
 31
0.0
  0
LINE
  5
17B
330
20F
100
AcDbEntity
  8
0
 62
     7
 48
0.058092
370
    35
100
AcDbLine
 10
42.700001
 20
-73.65081
 30
0.0
 11
40.5
 21
-72.902786
 31
0.0
  0
LINE
  5
17C
330
20F
100
AcDbEntity
  8
0
 62
     7
 48
0.03623
370
    35
100
AcDbLine
 10
42.700001
 20
-72.20163
 30
0.0
 11
42.700001
 21
-73.65081
 31
0.0
  0
LINE
  5
17D
330
20F
100
AcDbEntity
  8
0
 62
     7
 48
0.058463
370
    35
100
AcDbLine
 10
42.700001
 20
-73.65081
 30
0.0
 11
40.5
 21
-74.443649
 31
0.0
  0
LINE
  5
17E
330
20F
100
AcDbEntity
  8
0
 62
     7
 48
0.035355
370
    35
100
AcDbLine
 10
40.5
 20
-74.443649
 30
0.0
 11
40.5
 21
-75.857864
 31
0.0
  0
LINE
  5
17F
330
20F
100
AcDbEntity
  8
0
 62
     7
 48
0.058833
370
    35
100
AcDbLine
 10
42.700001
 20
-75.279129
 30
0.0
 11
40.5
 21
-74.443649
 31
0.0
  0
LINE
  5
180
330
20F
100
AcDbEntity
  8
0
 62
     7
 48
0.040708
370
    35
100
AcDbLine
 10
42.700001
 20
-73.65081
 30
0.0
 11
42.700001
 21
-75.279129
 31
0.0
  0
LINE
  5
181
330
20F
100
AcDbEntity
  8
0
 62
     7
 48
0.059198
370
    35
100
AcDbLine
 10
42.700001
 20
-75.279129
 30
0.0
 11
40.5
 21
-76.154953
 31
0.0
  0
LINE
  5
182
330
20F
100
AcDbEntity
  8
0
 62
     7
 48
0.031466
370
    35
100
AcDbLine
 10
40.5
 20
-76.154953
 30
0.0
 11
40.5
 21
-77.413589
 31
0.0
  0
LINE
  5
183
330
20F
100
AcDbEntity
  8
0
 62
     7
 48
0.059556
370
    35
100
AcDbLine
 10
42.700001
 20
-77.068726
 30
0.0
 11
40.5
 21
-76.154953
 31
0.0
  0
LINE
  5
184
330
20F
100
AcDbEntity
  8
0
 62
     7
 48
0.04474
370
    35
100
AcDbLine
 10
42.700001
 20
-75.279129
 30
0.0
 11
42.700001
 21
-77.068726
 31
0.0
  0
LINE
  5
185
330
20F
100
AcDbEntity
  8
0
 62
     7
 48
0.059901
370
    35
100
AcDbLine
 10
42.700001
 20
-77.068726
 30
0.0
 11
40.5
 21
-78.017944
 31
0.0
  0
LINE
  5
186
330
20F
100
AcDbEntity
  8
0
 62
     7
 48
0.027232
370
    35
100
AcDbLine
 10
40.5
 20
-78.017944
 30
0.0
 11
40.5
 21
-79.107216
 31
0.0
  0
LINE
  5
187
330
20F
100
AcDbEntity
  8
0
 62
     7
 48
0.060231
370
    35
100
AcDbLine
 10
42.700001
 20
-79.0
 30
0.0
 11
40.5
 21
-78.017944
 31
0.0
  0
LINE
  5
188
330
20F
100
AcDbEntity
  8
0
 62
     7
 48
0.048282
370
    35
100
AcDbLine
 10
42.700001
 20
-77.068726
 30
0.0
 11
42.700001
 21
-79.0
 31
0.0
  0
LINE
  5
189
330
20F
100
AcDbEntity
  8
0
 62
     7
 48
0.060542
370
    35
100
AcDbLine
 10
42.700001
 20
-79.0
 30
0.0
 11
40.5
 21
-80.012207
 31
0.0
  0
LINE
  5
18A
330
20F
100
AcDbEntity
  8
0
 62
     7
 48
0.0227
370
    35
100
AcDbLine
 10
40.5
 20
-80.012207
 30
0.0
 11
40.5
 21
-80.920189
 31
0.0
  0
LINE
  5
18B
330
20F
100
AcDbEntity
  8
0
 62
     7
 48
0.060831
370
    35
100
AcDbLine
 10
42.700001
 20
-81.051796
 30
0.0
 11
40.5
 21
-80.012207
 31
0.0
  0
LINE
  5
18C
330
20F
100
AcDbEntity
  8
0
 62
     7
 48
0.051297
370
    35
100
AcDbLine
 10
42.700001
 20
-79.0
 30
0.0
 11
42.700001
 21
-81.051872
 31
0.0
  0
LINE
  5
18D
330
20F
100
AcDbEntity
  8
0
 62
     7
 48
0.061096
370
    35
100
AcDbLine
 10
42.700001
 20
-81.051796
 30
0.0
 11
40.5
 21
-82.115906
 31
0.0
  0
LINE
  5
18E
330
20F
100
AcDbEntity
  8
0
 62
     7
 48
0.017918
370
    35
100
AcDbLine
 10
40.5
 20
-82.115906
 30
0.0
 11
40.5
 21
-82.832642
 31
0.0
  0
LINE
  5
18F
330
20F
100
AcDbEntity
  8
0
 62
     7
 48
0.061333
370
    35
100
AcDbLine
 10
42.700001
 20
-83.20163
 30
0.0
 11
40.5
 21
-82.115906
 31
0.0
  0
LINE
  5
190
330
20F
100
AcDbEntity
  8
0
 62
     7
 48
0.053747
370
    35
100
AcDbLine
 10
42.700001
 20
-81.051872
 30
0.0
 11
42.700001
 21
-83.201759
 31
0.0
  0
LINE
  5
191
330
20F
100
AcDbEntity
  8
0
 62
     7
 48
0.061541
370
    35
100
AcDbLine
 10
42.700001
 20
-83.20163
 30
0.0
 11
40.5
 21
-84.305984
 31
0.0
  0
LINE
  5
192
330
20F
100
AcDbEntity
  8
0
 62
     7
 48
0.012941
370
    35
100
AcDbLine
 10
40.5
 20
-84.305984
 30
0.0
 11
40.5
 21
-84.823616
 31
0.0
  0
LINE
  5
193
330
20F
100
AcDbEntity
  8
0
 62
     7
 48
0.061717
370
    35
100
AcDbLine
 10
42.700001
 20
-85.425941
 30
0.0
 11
40.5
 21
-84.305984
 31
0.0
  0
LINE
  5
194
330
20F
100
AcDbEntity
  8
0
 62
     7
 48
0.055608
370
    35
100
AcDbLine
 10
42.700001
 20
-83.201759
 30
0.0
 11
42.700001
 21
-85.426071
 31
0.0
  0
LINE
  5
195
330
20F
100
AcDbEntity
  8
0
 62
     7
 48
0.06186
370
    35
100
AcDbLine
 10
42.700001
 20
-85.425941
 30
0.0
 11
40.5
 21
-86.558441
 31
0.0
  0
LINE
  5
196
330
20F
100
AcDbEntity
  8
0
 62
     7
 48
0.007822
370
    35
100
AcDbLine
 10
40.5
 20
-86.558441
 30
0.0
 11
40.5
 21
-86.871307
 31
0.0
  0
LINE
  5
197
330
20F
100
AcDbEntity
  8
0
 62
     7
 48
0.061968
370
    35
100
AcDbLine
 10
42.700001
 20
-87.700371
 30
0.0
 11
40.5
 21
-86.558441
 31
0.0
  0
LINE
  5
198
330
20F
100
AcDbEntity
  8
0
 62
     7
 48
0.05686
370
    35
100
AcDbLine
 10
42.700001
 20
-85.426071
 30
0.0
 11
42.700001
 21
-87.70047
 31
0.0
  0
LINE
  5
199
330
20F
100
AcDbEntity
  8
0
 62
     7
 48
0.1325
370
    35
100
AcDbLine
 10
42.700001
 20
-68.0
 30
0.0
 11
48.0
 21
-68.0
 31
0.0
  0
LINE
  5
19A
330
20F
100
AcDbEntity
  8
0
 62
     7
 48
0.1325
370
    35
100
AcDbLine
 10
42.700001
 20
-112.0
 30
0.0
 11
48.0
 21
-112.0
 31
0.0
  0
LINE
  5
19B
330
20F
100
AcDbEntity
  8
0
 62
     7
370
    35
100
AcDbLine
 10
-42.0
 20
-130.0
 30
0.0
 11
42.0
 21
-130.0
 31
0.0
  0
LINE
  5
19C
330
20F
100
AcDbEntity
  8
0
 62
     7
 48
0.350239
370
    13
100
AcDbLine
 10
42.0
 20
-54.000034
 30
0.0
 11
42.0
 21
-68.009613
 31
0.0
  0
LINE
  5
19D
330
20F
100
AcDbEntity
  8
0
 62
     7
 48
0.450239
370
    13
100
AcDbLine
 10
42.0
 20
-111.990425
 30
0.0
 11
42.0
 21
-130.0
 31
0.0
  0
LINE
  5
19E
330
20F
100
AcDbEntity
  8
0
 62
     7
 48
0.5
370
    13
100
AcDbLine
 10
-42.0
 20
-130.0
 30
0.0
 11
-42.0
 21
-110.000015
 31
0.0
  0
LINE
  5
19F
330
20F
100
AcDbEntity
  8
0
 62
     7
 48
0.4
370
    13
100
AcDbLine
 10
-42.0
 20
-70.000015
 30
0.0
 11
-42.0
 21
-54.000034
 31
0.0
  0
CIRCLE
  5
1A0
330
20F
100
AcDbEntity
  8
0
 62
     7
370
    35
100
AcDbCircle
 10
34.0
 20
-120.0
 30
0.0
 40
3.1
  0
CIRCLE
  5
1A1
330
20F
100
AcDbEntity
  8
0
 62
     7
370
    35
100
AcDbCircle
 10
-34.0
 20
-120.0
 30
0.0
 40
3.1
  0
LINE
  5
1A2
330
20F
100
AcDbEntity
  8
0
 62
     7
 48
0.27806
370
    35
100
AcDbLine
 10
48.0
 20
-63.514717
 30
0.0
 11
48.0
 21
-52.392307
 31
0.0
  0
LINE
  5
1A3
330
20F
100
AcDbEntity
  8
0
 62
     7
 48
0.212132
370
    35
100
AcDbLine
 10
48.0
 20
-72.0
 30
0.0
 11
48.0
 21
-63.514717
 31
0.0
  0
LINE
  5
1A4
330
20F
100
AcDbEntity
  8
0
 62
     7
370
    35
100
AcDbLine
 10
48.0
 20
-72.0
 30
0.0
 11
48.0
 21
-102.500565
 31
0.0
  0
LINE
  5
1A5
330
20F
100
AcDbEntity
  8
0
 62
     7
 48
0.312486
370
    35
100
AcDbLine
 10
48.0
 20
-105.500565
 30
0.0
 11
48.0
 21
-118.0
 31
0.0
  0
LINE
  5
1A6
330
20F
100
AcDbEntity
  8
0
 62
     7
 48
0.3
370
    35
100
AcDbLine
 10
48.0
 20
-130.0
 30
0.0
 11
48.0
 21
-118.0
 31
0.0
  0
LINE
  5
1A7
330
20F
100
AcDbEntity
  8
0
 62
     7
 48
0.3
370
    35
100
AcDbLine
 10
50.0
 20
-118.0
 30
0.0
 11
50.0
 21
-130.0
 31
0.0
  0
LINE
  5
1A8
330
20F
100
AcDbEntity
  8
0
 62
     7
370
    35
100
AcDbLine
 10
50.0
 20
-72.0
 30
0.0
 11
50.0
 21
-102.500565
 31
0.0
  0
LINE
  5
1A9
330
20F
100
AcDbEntity
  8
0
 62
     7
 48
0.312486
370
    35
100
AcDbLine
 10
50.0
 20
-105.500565
 30
0.0
 11
50.0
 21
-118.0
 31
0.0
  0
LINE
  5
1AA
330
20F
100
AcDbEntity
  8
0
 62
     7
 48
0.212116
370
    35
100
AcDbLine
 10
50.0
 20
-63.515343
 30
0.0
 11
50.0
 21
-72.0
 31
0.0
  0
LINE
  5
1AB
330
20F
100
AcDbEntity
  8
0
 62
     7
 48
0.314272
370
    35
100
AcDbLine
 10
50.0
 20
-63.514717
 30
0.0
 11
50.0
 21
-50.943844
 31
0.0
  0
LINE
  5
1AC
330
20F
100
AcDbEntity
  8
0
 62
     7
 48
0.05
370
    13
100
AcDbLine
 10
48.0
 20
-63.514717
 30
0.0
 11
50.0
 21
-63.514717
 31
0.0
  0
LINE
  5
1AD
330
20F
100
AcDbEntity
  8
0
 62
     7
 48
0.27806
370
    35
100
AcDbLine
 10
-48.0
 20
-63.514717
 30
0.0
 11
-48.0
 21
-52.392315
 31
0.0
  0
LINE
  5
1AE
330
20F
100
AcDbEntity
  8
0
 62
     7
 48
0.212132
370
    35
100
AcDbLine
 10
-48.0
 20
-72.0
 30
0.0
 11
-48.0
 21
-63.514717
 31
0.0
  0
LINE
  5
1AF
330
20F
100
AcDbEntity
  8
0
 62
     7
 48
0.312486
370
    35
100
AcDbLine
 10
-48.0
 20
-118.0
 30
0.0
 11
-48.0
 21
-105.500565
 31
0.0
  0
LINE
  5
1B0
330
20F
100
AcDbEntity
  8
0
 62
     7
370
    35
100
AcDbLine
 10
-48.0
 20
-102.500565
 30
0.0
 11
-48.0
 21
-72.0
 31
0.0
  0
LINE
  5
1B1
330
20F
100
AcDbEntity
  8
0
 62
     7
 48
0.3
370
    35
100
AcDbLine
 10
-48.0
 20
-130.0
 30
0.0
 11
-48.0
 21
-118.0
 31
0.0
  0
LINE
  5
1B2
330
20F
100
AcDbEntity
  8
0
 62
     7
 48
0.314261
370
    35
100
AcDbLine
 10
-50.0
 20
-63.514717
 30
0.0
 11
-50.0
 21
-50.944286
 31
0.0
  0
LINE
  5
1B3
330
20F
100
AcDbEntity
  8
0
 62
     7
 48
0.212132
370
    35
100
AcDbLine
 10
-50.0
 20
-72.0
 30
0.0
 11
-50.0
 21
-63.514717
 31
0.0
  0
LINE
  5
1B4
330
20F
100
AcDbEntity
  8
0
 62
     7
370
    35
100
AcDbLine
 10
-50.0
 20
-72.0
 30
0.0
 11
-50.0
 21
-102.500565
 31
0.0
  0
LINE
  5
1B5
330
20F
100
AcDbEntity
  8
0
 62
     7
 48
0.312486
370
    35
100
AcDbLine
 10
-50.0
 20
-105.500565
 30
0.0
 11
-50.0
 21
-118.0
 31
0.0
  0
LINE
  5
1B6
330
20F
100
AcDbEntity
  8
0
 62
     7
 48
0.3
370
    35
100
AcDbLine
 10
-50.0
 20
-130.0
 30
0.0
 11
-50.0
 21
-118.0
 31
0.0
  0
LINE
  5
1B7
330
20F
100
AcDbEntity
  8
0
 62
     7
 48
0.05
370
    13
100
AcDbLine
 10
-48.0
 20
-63.514717
 30
0.0
 11
-50.0
 21
-63.514717
 31
0.0
  0
LINE
  5
1B8
330
20F
100
AcDbEntity
  8
0
 62
     7
 48
0.05
370
    13
100
AcDbLine
 10
48.0
 20
-72.0
 30
0.0
 11
50.0
 21
-72.0
 31
0.0
  0
LINE
  5
1B9
330
20F
100
AcDbEntity
  8
0
 62
     7
 48
0.05
370
    13
100
AcDbLine
 10
50.0
 20
-118.0
 30
0.0
 11
48.0
 21
-118.0
 31
0.0
  0
LINE
  5
1BA
330
20F
100
AcDbEntity
  8
0
 62
     7
 48
0.05
370
    13
100
AcDbLine
 10
-50.0
 20
-72.0
 30
0.0
 11
-48.0
 21
-72.0
 31
0.0
  0
LINE
  5
1BB
330
20F
100
AcDbEntity
  8
0
 62
     7
 48
0.05
370
    13
100
AcDbLine
 10
-48.0
 20
-118.0
 30
0.0
 11
-50.0
 21
-118.0
 31
0.0
  0
LINE
  5
1BC
330
20F
100
AcDbEntity
  8
0
 62
     7
 48
0.15
370
    35
100
AcDbLine
 10
-42.0
 20
-130.0
 30
0.0
 11
-48.0
 21
-130.0
 31
0.0
  0
LINE
  5
1BD
330
20F
100
AcDbEntity
  8
0
 62
     7
 48
0.15
370
    35
100
AcDbLine
 10
48.0
 20
-130.0
 30
0.0
 11
42.0
 21
-130.0
 31
0.0
  0
LINE
  5
1BE
330
20F
100
AcDbEntity
  8
0
 62
     7
 48
0.05
370
    35
100
AcDbLine
 10
48.0
 20
-130.0
 30
0.0
 11
50.0
 21
-130.0
 31
0.0
  0
LINE
  5
1BF
330
20F
100
AcDbEntity
  8
0
 62
     7
 48
0.05
370
    35
100
AcDbLine
 10
-50.0
 20
-130.0
 30
0.0
 11
-48.0
 21
-130.0
 31
0.0
  0
LINE
  5
1C0
330
20F
100
AcDbEntity
  8
0
 62
     7
 48
0.4
370
    35
100
AcDbLine
 10
50.0
 20
-98.0
 30
0.0
 11
50.0
 21
-82.0
 31
0.0
  0
LINE
  5
1C1
330
20F
100
AcDbEntity
  8
0
 62
     7
 48
0.4
370
    35
100
AcDbLine
 10
60.0
 20
-98.0
 30
0.0
 11
60.0
 21
-82.0
 31
0.0
  0
LINE
  5
1C2
330
20F
100
AcDbEntity
  8
0
 62
     7
 48
0.25
370
    35
100
AcDbLine
 10
50.0
 20
-98.0
 30
0.0
 11
60.0
 21
-98.0
 31
0.0
  0
LINE
  5
1C3
330
20F
100
AcDbEntity
  8
0
 62
     7
 48
0.25
370
    35
100
AcDbLine
 10
50.0
 20
-82.0
 30
0.0
 11
60.0
 21
-82.0
 31
0.0
  0
LINE
  5
1C4
330
20F
100
AcDbEntity
  8
0
 62
     7
370
    35
100
AcDbLine
 10
-78.0
 20
-102.5
 30
0.0
 11
78.0
 21
-102.5
 31
0.0
  0
LINE
  5
1C5
330
20F
100
AcDbEntity
  8
0
 62
     7
 48
0.05
370
    35
100
AcDbLine
 10
80.0
 20
-102.5
 30
0.0
 11
78.0
 21
-102.5
 31
0.0
  0
LINE
  5
1C6
330
20F
100
AcDbEntity
  8
0
 62
     7
 48
0.05
370
    35
100
AcDbLine
 10
-78.0
 20
-102.5
 30
0.0
 11
-80.0
 21
-102.5
 31
0.0
  0
LINE
  5
1C7
330
20F
100
AcDbEntity
  8
0
 62
     7
 48
0.05
370
    35
100
AcDbLine
 10
80.0
 20
-105.5
 30
0.0
 11
78.0
 21
-105.5
 31
0.0
  0
LINE
  5
1C8
330
20F
100
AcDbEntity
  8
0
 62
     7
 48
0.05
370
    35
100
AcDbLine
 10
-78.0
 20
-105.5
 30
0.0
 11
-80.0
 21
-105.5
 31
0.0
  0
LINE
  5
1C9
330
20F
100
AcDbEntity
  8
0
 62
     7
370
    35
100
AcDbLine
 10
-78.0
 20
-105.5
 30
0.0
 11
78.0
 21
-105.5
 31
0.0
  0
LINE
  5
1CA
330
20F
100
AcDbEntity
  8
0
 62
     7
 48
0.075
370
    13
100
AcDbLine
 10
78.0
 20
-102.5
 30
0.0
 11
78.0
 21
-105.5
 31
0.0
  0
LINE
  5
1CB
330
20F
100
AcDbEntity
  8
0
 62
     7
 48
0.075
370
    13
100
AcDbLine
 10
-78.0
 20
-102.5
 30
0.0
 11
-78.0
 21
-105.5
 31
0.0
  0
LINE
  5
1CC
330
20F
100
AcDbEntity
  8
0
 62
     7
 48
0.075
370
    35
100
AcDbLine
 10
80.0
 20
-102.5
 30
0.0
 11
80.0
 21
-105.5
 31
0.0
  0
LINE
  5
1CD
330
20F
100
AcDbEntity
  8
0
 62
     7
 48
0.075
370
    35
100
AcDbLine
 10
-80.0
 20
-102.5
 30
0.0
 11
-80.0
 21
-105.5
 31
0.0
  0
LINE
  5
1CE
330
20F
100
AcDbEntity
  8
0
 62
     7
370
    13
100
AcDbLine
 10
-53.0
 20
42.0
 30
0.0
 11
-53.0
 21
-42.0
 31
0.0
  0
ARC
  5
1CF
330
20F
100
AcDbEntity
  8
0
 62
     7
370
    13
100
AcDbCircle
 10
-42.000168
 20
-42.000168
 30
0.0
 40
10.999777
100
AcDbArc
 50
179.999131
 51
270.000872
  0
LINE
  5
1D0
330
20F
100
AcDbEntity
  8
0
 62
     7
370
    13
100
AcDbLine
 10
-42.0
 20
-53.0
 30
0.0
 11
42.0
 21
-53.0
 31
0.0
  0
ARC
  5
1D1
330
20F
100
AcDbEntity
  8
0
 62
     7
370
    13
100
AcDbCircle
 10
42.000168
 20
-42.000168
 30
0.0
 40
10.999777
100
AcDbArc
 50
269.99913
 51
0.000873
  0
LINE
  5
1D2
330
20F
100
AcDbEntity
  8
0
 62
     7
370
    13
100
AcDbLine
 10
53.0
 20
-42.0
 30
0.0
 11
53.0
 21
42.0
 31
0.0
  0
ARC
  5
1D3
330
20F
100
AcDbEntity
  8
0
 62
     7
370
    13
100
AcDbCircle
 10
42.000168
 20
42.000168
 30
0.0
 40
10.999777
100
AcDbArc
 50
359.999127
 51
90.00087
  0
LINE
  5
1D4
330
20F
100
AcDbEntity
  8
0
 62
     7
370
    13
100
AcDbLine
 10
42.0
 20
53.0
 30
0.0
 11
-42.0
 21
53.0
 31
0.0
  0
ARC
  5
1D5
330
20F
100
AcDbEntity
  8
0
 62
     7
370
    13
100
AcDbCircle
 10
-42.000168
 20
42.000168
 30
0.0
 40
10.999777
100
AcDbArc
 50
89.999128
 51
180.000869
  0
LINE
  5
1D6
330
20F
100
AcDbEntity
  8
0
 62
     7
370
    13
100
AcDbLine
 10
-51.0
 20
-42.0
 30
0.0
 11
-51.0
 21
42.0
 31
0.0
  0
ARC
  5
1D7
330
20F
100
AcDbEntity
  8
0
 62
     7
370
    13
100
AcDbCircle
 10
-42.000137
 20
42.000137
 30
0.0
 40
8.999816
100
AcDbArc
 50
89.99912100000002
 51
180.000869
  0
LINE
  5
1D8
330
20F
100
AcDbEntity
  8
0
 62
     7
370
    13
100
AcDbLine
 10
-42.0
 20
51.0
 30
0.0
 11
42.0
 21
51.0
 31
0.0
  0
ARC
  5
1D9
330
20F
100
AcDbEntity
  8
0
 62
     7
370
    13
100
AcDbCircle
 10
42.000137
 20
42.000137
 30
0.0
 40
8.999816
100
AcDbArc
 50
359.99912
 51
90.000877
  0
LINE
  5
1DA
330
20F
100
AcDbEntity
  8
0
 62
     7
370
    13
100
AcDbLine
 10
51.0
 20
42.0
 30
0.0
 11
51.0
 21
-42.0
 31
0.0
  0
ARC
  5
1DB
330
20F
100
AcDbEntity
  8
0
 62
     7
370
    13
100
AcDbCircle
 10
42.000137
 20
-42.000137
 30
0.0
 40
8.999816
100
AcDbArc
 50
269.999123
 51
0.000875
  0
LINE
  5
1DC
330
20F
100
AcDbEntity
  8
0
 62
     7
370
    13
100
AcDbLine
 10
42.0
 20
-51.0
 30
0.0
 11
-42.0
 21
-51.0
 31
0.0
  0
ARC
  5
1DD
330
20F
100
AcDbEntity
  8
0
 62
     7
370
    13
100
AcDbCircle
 10
-42.000137
 20
-42.000137
 30
0.0
 40
8.999816
100
AcDbArc
 50
179.999117
 51
270.000879
  0
LINE
  5
1DE
330
20F
100
AcDbEntity
  8
0
 62
     7
370
    35
100
AcDbLine
 10
-54.0
 20
42.0
 30
0.0
 11
-54.0
 21
-42.0
 31
0.0
  0
ARC
  5
1DF
330
20F
100
AcDbEntity
  8
0
 62
     7
370
    35
100
AcDbCircle
 10
-42.0
 20
42.0
 30
0.0
 40
12.0
100
AcDbArc
 50
90.000003
 51
180.000005
  0
LINE
  5
1E0
330
20F
100
AcDbEntity
  8
0
 62
     7
370
    35
100
AcDbLine
 10
42.0
 20
54.0
 30
0.0
 11
-42.0
 21
54.0
 31
0.0
  0
ARC
  5
1E1
330
20F
100
AcDbEntity
  8
0
 62
     7
370
    35
100
AcDbCircle
 10
42.0
 20
42.0
 30
0.0
 40
12.0
100
AcDbArc
 50
0.0
 51
90.000003
  0
LINE
  5
1E2
330
20F
100
AcDbEntity
  8
0
 62
     7
370
    35
100
AcDbLine
 10
54.0
 20
-42.0
 30
0.0
 11
54.0
 21
42.0
 31
0.0
  0
ARC
  5
1E3
330
20F
100
AcDbEntity
  8
0
 62
     7
370
    35
100
AcDbCircle
 10
42.0
 20
-42.0
 30
0.0
 40
12.0
100
AcDbArc
 50
269.999997
 51
0.0
  0
LINE
  5
1E4
330
20F
100
AcDbEntity
  8
0
 62
     7
370
    35
100
AcDbLine
 10
-42.0
 20
-54.0
 30
0.0
 11
42.0
 21
-54.0
 31
0.0
  0
ARC
  5
1E5
330
20F
100
AcDbEntity
  8
0
 62
     7
370
    35
100
AcDbCircle
 10
-42.0
 20
-42.0
 30
0.0
 40
12.0
100
AcDbArc
 50
180.000005
 51
269.999997
  0
LINE
  5
1E6
330
20F
100
AcDbEntity
  8
0
 62
     7
370
    13
100
AcDbLine
 10
-49.0
 20
42.0
 30
0.0
 11
-49.0
 21
-42.0
 31
0.0
  0
ARC
  5
1E7
330
20F
100
AcDbEntity
  8
0
 62
     7
370
    13
100
AcDbCircle
 10
-42.000107
 20
-42.000107
 30
0.0
 40
6.999857
100
AcDbArc
 50
179.999117
 51
270.000879
  0
LINE
  5
1E8
330
20F
100
AcDbEntity
  8
0
 62
     7
370
    13
100
AcDbLine
 10
-42.0
 20
-49.0
 30
0.0
 11
42.0
 21
-49.0
 31
0.0
  0
ARC
  5
1E9
330
20F
100
AcDbEntity
  8
0
 62
     7
370
    13
100
AcDbCircle
 10
42.000107
 20
-42.000107
 30
0.0
 40
6.999857
100
AcDbArc
 50
269.999116
 51
0.000875
  0
LINE
  5
1EA
330
20F
100
AcDbEntity
  8
0
 62
     7
370
    13
100
AcDbLine
 10
49.0
 20
-42.0
 30
0.0
 11
49.0
 21
42.0
 31
0.0
  0
ARC
  5
1EB
330
20F
100
AcDbEntity
  8
0
 62
     7
370
    13
100
AcDbCircle
 10
42.000107
 20
42.000107
 30
0.0
 40
6.999857
100
AcDbArc
 50
359.999119
 51
90.000877
  0
LINE
  5
1EC
330
20F
100
AcDbEntity
  8
0
 62
     7
370
    13
100
AcDbLine
 10
42.0
 20
49.0
 30
0.0
 11
-42.0
 21
49.0
 31
0.0
  0
ARC
  5
1ED
330
20F
100
AcDbEntity
  8
0
 62
     7
370
    13
100
AcDbCircle
 10
-42.000107
 20
42.000107
 30
0.0
 40
6.999857
100
AcDbArc
 50
89.99912100000002
 51
180.000869
  0
LINE
  5
1EE
330
20F
100
AcDbEntity
  8
0
 62
     7
370
    35
100
AcDbLine
 10
-50.0
 20
42.0
 30
0.0
 11
-50.0
 21
-42.0
 31
0.0
  0
ARC
  5
1EF
330
20F
100
AcDbEntity
  8
0
 62
     7
370
    35
100
AcDbCircle
 10
-42.0
 20
-42.0
 30
0.0
 40
7.999999
100
AcDbArc
 50
179.999991
 51
270.000004
  0
LINE
  5
1F0
330
20F
100
AcDbEntity
  8
0
 62
     7
370
    35
100
AcDbLine
 10
-42.0
 20
-50.0
 30
0.0
 11
42.0
 21
-50.0
 31
0.0
  0
ARC
  5
1F1
330
20F
100
AcDbEntity
  8
0
 62
     7
370
    35
100
AcDbCircle
 10
42.0
 20
-42.0
 30
0.0
 40
7.999999
100
AcDbArc
 50
269.999997
 51
0.000001
  0
LINE
  5
1F2
330
20F
100
AcDbEntity
  8
0
 62
     7
370
    35
100
AcDbLine
 10
50.0
 20
-42.0
 30
0.0
 11
50.0
 21
42.0
 31
0.0
  0
ARC
  5
1F3
330
20F
100
AcDbEntity
  8
0
 62
     7
370
    35
100
AcDbCircle
 10
42.0
 20
42.0
 30
0.0
 40
7.999999
100
AcDbArc
 50
359.999994
 51
90.000003
  0
LINE
  5
1F4
330
20F
100
AcDbEntity
  8
0
 62
     7
370
    35
100
AcDbLine
 10
42.0
 20
50.0
 30
0.0
 11
-42.0
 21
50.0
 31
0.0
  0
ARC
  5
1F5
330
20F
100
AcDbEntity
  8
0
 62
     7
370
    35
100
AcDbCircle
 10
-42.0
 20
42.0
 30
0.0
 40
7.999999
100
AcDbArc
 50
89.999996
 51
179.999995
  0
LINE
  5
1F6
330
20F
100
AcDbEntity
  8
0
 62
     7
 48
0.025
370
    13
100
AcDbLine
 10
49.0
 20
-42.0
 30
0.0
 11
50.0
 21
-42.0
 31
0.0
  0
LINE
  5
1F7
330
20F
100
AcDbEntity
  8
0
 62
     7
 48
0.025
370
    13
100
AcDbLine
 10
49.0
 20
42.0
 30
0.0
 11
50.0
 21
42.0
 31
0.0
  0
LINE
  5
1F8
330
20F
100
AcDbEntity
  8
0
 62
     7
 48
0.025
370
    13
100
AcDbLine
 10
42.0
 20
-49.0
 30
0.0
 11
42.0
 21
-50.0
 31
0.0
  0
LINE
  5
1F9
330
20F
100
AcDbEntity
  8
0
 62
     7
 48
0.025
370
    13
100
AcDbLine
 10
-42.0
 20
-49.0
 30
0.0
 11
-42.0
 21
-50.0
 31
0.0
  0
LINE
  5
1FA
330
20F
100
AcDbEntity
  8
0
 62
     7
 48
0.025
370
    13
100
AcDbLine
 10
-49.0
 20
-42.0
 30
0.0
 11
-50.0
 21
-42.0
 31
0.0
  0
LINE
  5
1FB
330
20F
100
AcDbEntity
  8
0
 62
     7
 48
0.025
370
    13
100
AcDbLine
 10
-49.0
 20
42.0
 30
0.0
 11
-50.0
 21
42.0
 31
0.0
  0
LINE
  5
1FC
330
20F
100
AcDbEntity
  8
0
 62
     7
 48
0.025
370
    13
100
AcDbLine
 10
-42.0
 20
49.0
 30
0.0
 11
-42.0
 21
50.0
 31
0.0
  0
LINE
  5
1FD
330
20F
100
AcDbEntity
  8
0
 62
     7
 48
0.025
370
    13
100
AcDbLine
 10
42.0
 20
49.0
 30
0.0
 11
42.0
 21
50.0
 31
0.0
  0
LINE
  5
1FE
330
20F
100
AcDbEntity
  8
0
 62
     7
 48
0.025
370
    13
100
AcDbLine
 10
51.0
 20
42.0
 30
0.0
 11
50.0
 21
42.0
 31
0.0
  0
LINE
  5
1FF
330
20F
100
AcDbEntity
  8
0
 62
     7
 48
0.025
370
    13
100
AcDbLine
 10
51.0
 20
-42.0
 30
0.0
 11
50.0
 21
-42.0
 31
0.0
  0
LINE
  5
200
330
20F
100
AcDbEntity
  8
0
 62
     7
 48
0.025
370
    13
100
AcDbLine
 10
42.0
 20
-51.0
 30
0.0
 11
42.0
 21
-50.0
 31
0.0
  0
LINE
  5
201
330
20F
100
AcDbEntity
  8
0
 62
     7
 48
0.025
370
    13
100
AcDbLine
 10
-42.0
 20
-51.0
 30
0.0
 11
-42.0
 21
-50.0
 31
0.0
  0
LINE
  5
202
330
20F
100
AcDbEntity
  8
0
 62
     7
 48
0.025
370
    13
100
AcDbLine
 10
-51.0
 20
-42.0
 30
0.0
 11
-50.0
 21
-42.0
 31
0.0
  0
LINE
  5
203
330
20F
100
AcDbEntity
  8
0
 62
     7
 48
0.025
370
    13
100
AcDbLine
 10
-51.0
 20
42.0
 30
0.0
 11
-50.0
 21
42.0
 31
0.0
  0
LINE
  5
204
330
20F
100
AcDbEntity
  8
0
 62
     7
 48
0.025
370
    13
100
AcDbLine
 10
-42.0
 20
51.0
 30
0.0
 11
-42.0
 21
50.0
 31
0.0
  0
LINE
  5
205
330
20F
100
AcDbEntity
  8
0
 62
     7
 48
0.025
370
    13
100
AcDbLine
 10
42.0
 20
51.0
 30
0.0
 11
42.0
 21
50.0
 31
0.0
  0
LINE
  5
206
330
20F
100
AcDbEntity
  8
0
 62
     7
 48
0.025
370
    13
100
AcDbLine
 10
53.0
 20
-42.0
 30
0.0
 11
54.0
 21
-42.0
 31
0.0
  0
LINE
  5
207
330
20F
100
AcDbEntity
  8
0
 62
     7
 48
0.025
370
    13
100
AcDbLine
 10
53.0
 20
42.0
 30
0.0
 11
54.0
 21
42.0
 31
0.0
  0
LINE
  5
208
330
20F
100
AcDbEntity
  8
0
 62
     7
 48
0.025
370
    13
100
AcDbLine
 10
42.0
 20
-53.0
 30
0.0
 11
42.0
 21
-54.0
 31
0.0
  0
LINE
  5
209
330
20F
100
AcDbEntity
  8
0
 62
     7
 48
0.025
370
    13
100
AcDbLine
 10
-42.0
 20
-53.0
 30
0.0
 11
-42.0
 21
-54.0
 31
0.0
  0
LINE
  5
20A
330
20F
100
AcDbEntity
  8
0
 62
     7
 48
0.025
370
    13
100
AcDbLine
 10
-53.0
 20
-42.0
 30
0.0
 11
-54.0
 21
-42.0
 31
0.0
  0
LINE
  5
20B
330
20F
100
AcDbEntity
  8
0
 62
     7
 48
0.025
370
    13
100
AcDbLine
 10
-53.0
 20
42.0
 30
0.0
 11
-54.0
 21
42.0
 31
0.0
  0
LINE
  5
20C
330
20F
100
AcDbEntity
  8
0
 62
     7
 48
0.025
370
    13
100
AcDbLine
 10
-42.0
 20
53.0
 30
0.0
 11
-42.0
 21
54.0
 31
0.0
  0
LINE
  5
20D
330
20F
100
AcDbEntity
  8
0
 62
     7
 48
0.025
370
    13
100
AcDbLine
 10
42.0
 20
53.0
 30
0.0
 11
42.0
 21
54.0
 31
0.0
  0
ENDBLK
  5
4B3
330
20F
100
AcDbEntity
  8
0
100
AcDbBlockEnd
  0
BLOCK
  5
4B4
330
2EF
100
AcDbEntity
  8
0
100
AcDbBlockBegin
  2
*D5
 70
     1
 10
0.0
 20
0.0
 30
0.0
  3
*D5
  1

  0
POINT
  5
2E6
330
2EF
100
AcDbEntity
  8
DEFPOINTS
  6
ByBlock
 62
     0
380
     1
100
AcDbPoint
 10
746.7068690776972
 20
299.2059689095667
 30
0.0
  0
POINT
  5
2E7
330
2EF
100
AcDbEntity
  8
DEFPOINTS
  6
ByBlock
 62
     0
380
     1
100
AcDbPoint
 10
1573.706869077697
 20
299.2059689095667
 30
0.0
  0
LINE
  5
2E8
330
2EF
100
AcDbEntity
  8
0
  6
ByBlock
 62
     0
370
    -2
380
     1
100
AcDbLine
 10
746.7068690776972
 20
299.8309689095667
 30
0.0
 11
746.7068690776972
 21
480.8761676956355
 31
0.0
  0
LINE
  5
2E9
330
2EF
100
AcDbEntity
  8
0
  6
ByBlock
 62
     0
370
    -2
380
     1
100
AcDbLine
 10
1573.706869077697
 20
299.8309689095667
 30
0.0
 11
1573.706869077697
 21
480.8761676956355
 31
0.0
  0
LINE
  5
2EA
330
2EF
100
AcDbEntity
  8
0
  6
ByBlock
 62
     0
370
    -2
380
     1
100
AcDbLine
 10
749.2068690776972
 20
479.6261676956355
 30
0.0
 11
1571.206869077697
 21
479.6261676956355
 31
0.0
  0
SOLID
  5
2EB
330
2EF
100
AcDbEntity
  8
0
  6
ByBlock
 62
     0
380
     1
100
AcDbTrace
 10
746.7068690776972
 20
479.6261676956355
 30
0.0
 11
749.2068690776972
 21
479.2095010289688
 31
0.0
 12
749.2068690776972
 22
480.0428343623022
 32
0.0
 13
749.2068690776972
 23
480.0428343623022
 33
0.0
  0
SOLID
  5
2EC
330
2EF
100
AcDbEntity
  8
0
  6
ByBlock
 62
     0
380
     1
100
AcDbTrace
 10
1573.706869077697
 20
479.6261676956355
 30
0.0
 11
1571.206869077697
 21
479.2095010289688
 31
0.0
 12
1571.206869077697
 22
480.0428343623022
 32
0.0
 13
1571.206869077697
 23
480.0428343623022
 33
0.0
  0
MTEXT
  5
2ED
330
2EF
100
AcDbEntity
  8
0
  6
ByBlock
 62
     0
370
    -2
380
     1
100
AcDbMText
 10
1160.206869077697
 20
481.5011676956355
 30
0.0
 40
2.5
 41
0.0
 71
     5
 72
     1
  1
\A1;827
 73
     1
 44
1.0
  0
ENDBLK
  5
4B5
330
2EF
100
AcDbEntity
  8
0
100
AcDbBlockEnd
  0
BLOCK
  5
4B6
330
2FA
100
AcDbEntity
  8
0
100
AcDbBlockBegin
  2
*D6
 70
     1
 10
0.0
 20
0.0
 30
0.0
  3
*D6
  1

  0
POINT
  5
2F1
330
2FA
100
AcDbEntity
  8
DEFPOINTS
  6
ByBlock
 62
     0
380
     1
100
AcDbPoint
 10
746.7068690776972
 20
299.2059689095667
 30
0.0
  0
POINT
  5
2F2
330
2FA
100
AcDbEntity
  8
DEFPOINTS
  6
ByBlock
 62
     0
380
     1
100
AcDbPoint
 10
1573.706869077697
 20
299.2059689095667
 30
0.0
  0
LINE
  5
2F3
330
2FA
100
AcDbEntity
  8
0
  6
ByBlock
 62
     0
370
    -2
380
     1
100
AcDbLine
 10
746.7068690776972
 20
299.8309689095667
 30
0.0
 11
746.7068690776972
 21
480.8761676956355
 31
0.0
  0
LINE
  5
2F4
330
2FA
100
AcDbEntity
  8
0
  6
ByBlock
 62
     0
370
    -2
380
     1
100
AcDbLine
 10
1573.706869077697
 20
299.8309689095667
 30
0.0
 11
1573.706869077697
 21
480.8761676956355
 31
0.0
  0
LINE
  5
2F5
330
2FA
100
AcDbEntity
  8
0
  6
ByBlock
 62
     0
370
    -2
380
     1
100
AcDbLine
 10
749.2068690776972
 20
479.6261676956355
 30
0.0
 11
1571.206869077697
 21
479.6261676956355
 31
0.0
  0
SOLID
  5
2F6
330
2FA
100
AcDbEntity
  8
0
  6
ByBlock
 62
     0
380
     1
100
AcDbTrace
 10
746.7068690776972
 20
479.6261676956355
 30
0.0
 11
749.2068690776972
 21
479.2095010289688
 31
0.0
 12
749.2068690776972
 22
480.0428343623022
 32
0.0
 13
749.2068690776972
 23
480.0428343623022
 33
0.0
  0
SOLID
  5
2F7
330
2FA
100
AcDbEntity
  8
0
  6
ByBlock
 62
     0
380
     1
100
AcDbTrace
 10
1573.706869077697
 20
479.6261676956355
 30
0.0
 11
1571.206869077697
 21
479.2095010289688
 31
0.0
 12
1571.206869077697
 22
480.0428343623022
 32
0.0
 13
1571.206869077697
 23
480.0428343623022
 33
0.0
  0
MTEXT
  5
2F8
330
2FA
100
AcDbEntity
  8
0
  6
ByBlock
 62
     0
370
    -2
380
     1
100
AcDbMText
 10
1160.206869077697
 20
481.5011676956355
 30
0.0
 40
2.5
 41
0.0
 71
     5
 72
     1
  1
\A1;827
 73
     1
 44
1.0
  0
ENDBLK
  5
4B7
330
2FA
100
AcDbEntity
  8
0
100
AcDbBlockEnd
  0
BLOCK
  5
4B8
330
305
100
AcDbEntity
  8
0
100
AcDbBlockBegin
  2
*D7
 70
     1
 10
0.0
 20
0.0
 30
0.0
  3
*D7
  1

  0
POINT
  5
2FC
330
305
100
AcDbEntity
  8
DEFPOINTS
  6
ByBlock
 62
     7
380
     1
100
AcDbPoint
 10
746.7068690776972
 20
299.2059689095667
 30
0.0
  0
POINT
  5
2FD
330
305
100
AcDbEntity
  8
DEFPOINTS
  6
ByBlock
 62
     7
380
     1
100
AcDbPoint
 10
1573.706869077697
 20
299.2059689095667
 30
0.0
  0
LINE
  5
2FE
330
305
100
AcDbEntity
  8
0
  6
ByBlock
 62
     7
370
    -2
380
     1
100
AcDbLine
 10
746.7068690776972
 20
299.8309689095667
 30
0.0
 11
746.7068690776972
 21
480.8761676956355
 31
0.0
  0
LINE
  5
2FF
330
305
100
AcDbEntity
  8
0
  6
ByBlock
 62
     7
370
    -2
380
     1
100
AcDbLine
 10
1573.706869077697
 20
299.8309689095667
 30
0.0
 11
1573.706869077697
 21
480.8761676956355
 31
0.0
  0
LINE
  5
300
330
305
100
AcDbEntity
  8
0
  6
ByBlock
 62
     7
370
    -2
380
     1
100
AcDbLine
 10
756.7068690776972
 20
479.6261676956355
 30
0.0
 11
1563.706869077697
 21
479.6261676956355
 31
0.0
  0
SOLID
  5
301
330
305
100
AcDbEntity
  8
0
  6
ByBlock
 62
     7
380
     1
100
AcDbTrace
 10
746.7068690776972
 20
479.6261676956355
 30
0.0
 11
756.7068690776972
 21
477.9595010289688
 31
0.0
 12
756.7068690776972
 22
481.2928343623022
 32
0.0
 13
756.7068690776972
 23
481.2928343623022
 33
0.0
  0
SOLID
  5
302
330
305
100
AcDbEntity
  8
0
  6
ByBlock
 62
     7
380
     1
100
AcDbTrace
 10
1573.706869077697
 20
479.6261676956355
 30
0.0
 11
1563.706869077697
 21
477.9595010289688
 31
0.0
 12
1563.706869077697
 22
481.2928343623022
 32
0.0
 13
1563.706869077697
 23
481.2928343623022
 33
0.0
  0
MTEXT
  5
303
330
305
100
AcDbEntity
  8
0
  6
ByBlock
 62
     0
370
    -2
380
     1
100
AcDbMText
 10
1160.206869077697
 20
491.6261676956355
 30
0.0
 40
14.0
 41
0.0
 71
     5
 72
     1
  1
\A1;827
 73
     1
 44
1.0
  0
ENDBLK
  5
4B9
330
305
100
AcDbEntity
  8
0
100
AcDbBlockEnd
  0
BLOCK
  5
4BA
330
41D
100
AcDbEntity
  8
0
100
AcDbBlockBegin
  2
*D8
 70
     1
 10
0.0
 20
0.0
 30
0.0
  3
*D8
  1

  0
POINT
  5
414
330
41D
100
AcDbEntity
  8
DEFPOINTS
  6
ByBlock
 62
     0
380
     1
100
AcDbPoint
 10
494.1905264996205
 20
396.390241844222
 30
0.0
  0
POINT
  5
415
330
41D
100
AcDbEntity
  8
DEFPOINTS
  6
ByBlock
 62
     0
380
     1
100
AcDbPoint
 10
602.1905264996205
 20
391.5022624395805
 30
0.0
  0
LINE
  5
416
330
41D
100
AcDbEntity
  8
0
  6
ByBlock
 62
     0
370
    -2
380
     1
100
AcDbLine
 10
494.1905264996205
 20
397.015241844222
 30
0.0
 11
494.1905264996205
 21
464.5679598462367
 31
0.0
  0
LINE
  5
417
330
41D
100
AcDbEntity
  8
0
  6
ByBlock
 62
     0
370
    -2
380
     1
100
AcDbLine
 10
602.1905264996205
 20
392.1272624395805
 30
0.0
 11
602.1905264996205
 21
464.5679598462367
 31
0.0
  0
LINE
  5
418
330
41D
100
AcDbEntity
  8
0
  6
ByBlock
 62
     0
370
    -2
380
     1
100
AcDbLine
 10
496.6905264996205
 20
463.3179598462367
 30
0.0
 11
599.6905264996205
 21
463.3179598462367
 31
0.0
  0
SOLID
  5
419
330
41D
100
AcDbEntity
  8
0
  6
ByBlock
 62
     0
380
     1
100
AcDbTrace
 10
494.1905264996205
 20
463.3179598462367
 30
0.0
 11
496.6905264996205
 21
462.90129317957
 31
0.0
 12
496.6905264996205
 22
463.7346265129034
 32
0.0
 13
496.6905264996205
 23
463.7346265129034
 33
0.0
  0
SOLID
  5
41A
330
41D
100
AcDbEntity
  8
0
  6
ByBlock
 62
     0
380
     1
100
AcDbTrace
 10
602.1905264996205
 20
463.3179598462367
 30
0.0
 11
599.6905264996205
 21
462.90129317957
 31
0.0
 12
599.6905264996205
 22
463.7346265129034
 32
0.0
 13
599.6905264996205
 23
463.7346265129034
 33
0.0
  0
MTEXT
  5
41B
330
41D
100
AcDbEntity
  8
0
  6
ByBlock
 62
     0
370
    -2
380
     1
100
AcDbMText
 10
548.1905264996205
 20
465.1929598462367
 30
0.0
 40
2.5
 41
0.0
 71
     5
 72
     1
  1
\A1;108
 73
     1
 44
1.0
  0
ENDBLK
  5
4BB
330
41D
100
AcDbEntity
  8
0
100
AcDbBlockEnd
  0
BLOCK
  5
4BC
330
429
100
AcDbEntity
  8
0
100
AcDbBlockBegin
  2
*D9
 70
     1
 10
0.0
 20
0.0
 30
0.0
  3
*D9
  1

  0
POINT
  5
420
330
429
100
AcDbEntity
  8
DEFPOINTS
  6
ByBlock
 62
     0
380
     1
100
AcDbPoint
 10
494.1905264996205
 20
396.390241844222
 30
0.0
  0
POINT
  5
421
330
429
100
AcDbEntity
  8
DEFPOINTS
  6
ByBlock
 62
     0
380
     1
100
AcDbPoint
 10
602.1905264996205
 20
391.5022624395805
 30
0.0
  0
LINE
  5
422
330
429
100
AcDbEntity
  8
0
  6
ByBlock
 62
     0
370
    -2
380
     1
100
AcDbLine
 10
494.1905264996205
 20
397.015241844222
 30
0.0
 11
494.1905264996205
 21
480.8761676956355
 31
0.0
  0
LINE
  5
423
330
429
100
AcDbEntity
  8
0
  6
ByBlock
 62
     0
370
    -2
380
     1
100
AcDbLine
 10
602.1905264996205
 20
392.1272624395805
 30
0.0
 11
602.1905264996205
 21
480.8761676956355
 31
0.0
  0
LINE
  5
424
330
429
100
AcDbEntity
  8
0
  6
ByBlock
 62
     0
370
    -2
380
     1
100
AcDbLine
 10
496.6905264996205
 20
479.6261676956355
 30
0.0
 11
599.6905264996205
 21
479.6261676956355
 31
0.0
  0
SOLID
  5
425
330
429
100
AcDbEntity
  8
0
  6
ByBlock
 62
     0
380
     1
100
AcDbTrace
 10
494.1905264996205
 20
479.6261676956355
 30
0.0
 11
496.6905264996205
 21
479.2095010289688
 31
0.0
 12
496.6905264996205
 22
480.0428343623022
 32
0.0
 13
496.6905264996205
 23
480.0428343623022
 33
0.0
  0
SOLID
  5
426
330
429
100
AcDbEntity
  8
0
  6
ByBlock
 62
     0
380
     1
100
AcDbTrace
 10
602.1905264996205
 20
479.6261676956355
 30
0.0
 11
599.6905264996205
 21
479.2095010289688
 31
0.0
 12
599.6905264996205
 22
480.0428343623022
 32
0.0
 13
599.6905264996205
 23
480.0428343623022
 33
0.0
  0
MTEXT
  5
427
330
429
100
AcDbEntity
  8
0
  6
ByBlock
 62
     0
370
    -2
380
     1
100
AcDbMText
 10
548.6699143821037
 20
481.5011676956355
 30
0.0
 40
2.5
 41
0.0
 71
     5
 72
     1
  1
\A1;108
 73
     1
 44
1.0
  0
ENDBLK
  5
4BD
330
429
100
AcDbEntity
  8
0
100
AcDbBlockEnd
  0
BLOCK
  5
4BE
330
434
100
AcDbEntity
  8
0
100
AcDbBlockBegin
  2
*D10
 70
     1
 10
0.0
 20
0.0
 30
0.0
  3
*D10
  1

  0
POINT
  5
42B
330
434
100
AcDbEntity
  8
DEFPOINTS
  6
ByBlock
 62
     0
380
     1
100
AcDbPoint
 10
494.1905264996205
 20
396.390241844222
 30
0.0
  0
POINT
  5
42C
330
434
100
AcDbEntity
  8
DEFPOINTS
  6
ByBlock
 62
     0
380
     1
100
AcDbPoint
 10
602.1905264996205
 20
391.5022624395805
 30
0.0
  0
LINE
  5
42D
330
434
100
AcDbEntity
  8
0
  6
ByBlock
 62
     0
370
    -2
380
     1
100
AcDbLine
 10
494.1905264996205
 20
397.015241844222
 30
0.0
 11
494.1905264996205
 21
480.8761676956355
 31
0.0
  0
LINE
  5
42E
330
434
100
AcDbEntity
  8
0
  6
ByBlock
 62
     0
370
    -2
380
     1
100
AcDbLine
 10
602.1905264996205
 20
392.1272624395805
 30
0.0
 11
602.1905264996205
 21
480.8761676956355
 31
0.0
  0
LINE
  5
42F
330
434
100
AcDbEntity
  8
0
  6
ByBlock
 62
     0
370
    -2
380
     1
100
AcDbLine
 10
496.6905264996205
 20
479.6261676956355
 30
0.0
 11
599.6905264996205
 21
479.6261676956355
 31
0.0
  0
SOLID
  5
430
330
434
100
AcDbEntity
  8
0
  6
ByBlock
 62
     0
380
     1
100
AcDbTrace
 10
494.1905264996205
 20
479.6261676956355
 30
0.0
 11
496.6905264996205
 21
479.2095010289688
 31
0.0
 12
496.6905264996205
 22
480.0428343623022
 32
0.0
 13
496.6905264996205
 23
480.0428343623022
 33
0.0
  0
SOLID
  5
431
330
434
100
AcDbEntity
  8
0
  6
ByBlock
 62
     0
380
     1
100
AcDbTrace
 10
602.1905264996205
 20
479.6261676956355
 30
0.0
 11
599.6905264996205
 21
479.2095010289688
 31
0.0
 12
599.6905264996205
 22
480.0428343623022
 32
0.0
 13
599.6905264996205
 23
480.0428343623022
 33
0.0
  0
MTEXT
  5
432
330
434
100
AcDbEntity
  8
0
  6
ByBlock
 62
     0
370
    -2
380
     1
100
AcDbMText
 10
548.6699143821037
 20
481.5011676956355
 30
0.0
 40
2.5
 41
0.0
 71
     5
 72
     1
  1
\A1;108
 73
     1
 44
1.0
  0
ENDBLK
  5
4BF
330
434
100
AcDbEntity
  8
0
100
AcDbBlockEnd
  0
BLOCK
  5
4C0
330
43F
100
AcDbEntity
  8
0
100
AcDbBlockBegin
  2
*D11
 70
     1
 10
0.0
 20
0.0
 30
0.0
  3
*D11
  1

  0
POINT
  5
436
330
43F
100
AcDbEntity
  8
DEFPOINTS
  6
ByBlock
 62
     7
380
     1
100
AcDbPoint
 10
494.1905264996205
 20
396.390241844222
 30
0.0
  0
POINT
  5
437
330
43F
100
AcDbEntity
  8
DEFPOINTS
  6
ByBlock
 62
     7
380
     1
100
AcDbPoint
 10
602.1905264996205
 20
391.5022624395805
 30
0.0
  0
LINE
  5
438
330
43F
100
AcDbEntity
  8
0
  6
ByBlock
 62
     7
370
    -2
380
     1
100
AcDbLine
 10
494.1905264996205
 20
397.015241844222
 30
0.0
 11
494.1905264996205
 21
480.8761676956355
 31
0.0
  0
LINE
  5
439
330
43F
100
AcDbEntity
  8
0
  6
ByBlock
 62
     7
370
    -2
380
     1
100
AcDbLine
 10
602.1905264996205
 20
392.1272624395805
 30
0.0
 11
602.1905264996205
 21
480.8761676956355
 31
0.0
  0
LINE
  5
43A
330
43F
100
AcDbEntity
  8
0
  6
ByBlock
 62
     7
370
    -2
380
     1
100
AcDbLine
 10
504.1905264996205
 20
479.6261676956355
 30
0.0
 11
592.1905264996205
 21
479.6261676956355
 31
0.0
  0
SOLID
  5
43B
330
43F
100
AcDbEntity
  8
0
  6
ByBlock
 62
     7
380
     1
100
AcDbTrace
 10
494.1905264996205
 20
479.6261676956355
 30
0.0
 11
504.1905264996205
 21
477.9595010289688
 31
0.0
 12
504.1905264996205
 22
481.2928343623022
 32
0.0
 13
504.1905264996205
 23
481.2928343623022
 33
0.0
  0
SOLID
  5
43C
330
43F
100
AcDbEntity
  8
0
  6
ByBlock
 62
     7
380
     1
100
AcDbTrace
 10
602.1905264996205
 20
479.6261676956355
 30
0.0
 11
592.1905264996205
 21
477.9595010289688
 31
0.0
 12
592.1905264996205
 22
481.2928343623022
 32
0.0
 13
592.1905264996205
 23
481.2928343623022
 33
0.0
  0
MTEXT
  5
43D
330
43F
100
AcDbEntity
  8
0
  6
ByBlock
 62
     0
370
    -2
380
     1
100
AcDbMText
 10
548.6699143821037
 20
491.6261676956355
 30
0.0
 40
14.0
 41
0.0
 71
     5
 72
     1
  1
\A1;108
 73
     1
 44
1.0
  0
ENDBLK
  5
4C1
330
43F
100
AcDbEntity
  8
0
100
AcDbBlockEnd
  0
BLOCK
  5
4C2
330
44B
100
AcDbEntity
  8
0
100
AcDbBlockBegin
  2
*D12
 70
     1
 10
0.0
 20
0.0
 30
0.0
  3
*D12
  1

  0
POINT
  5
442
330
44B
100
AcDbEntity
  8
DEFPOINTS
  6
ByBlock
 62
     0
380
     1
100
AcDbPoint
 10
520.0719247164657
 20
441.560262944206
 30
0.0
  0
POINT
  5
443
330
44B
100
AcDbEntity
  8
DEFPOINTS
  6
ByBlock
 62
     0
380
     1
100
AcDbPoint
 10
530.0124024077303
 20
257.560262944206
 30
0.0
  0
LINE
  5
444
330
44B
100
AcDbEntity
  8
0
  6
ByBlock
 62
     0
370
    -2
380
     1
100
AcDbLine
 10
519.4469247164657
 20
441.560262944206
 30
0.0
 11
443.8860159669329
 21
441.560262944206
 31
0.0
  0
LINE
  5
445
330
44B
100
AcDbEntity
  8
0
  6
ByBlock
 62
     0
370
    -2
380
     1
100
AcDbLine
 10
529.3874024077303
 20
257.560262944206
 30
0.0
 11
443.8860159669329
 21
257.560262944206
 31
0.0
  0
LINE
  5
446
330
44B
100
AcDbEntity
  8
0
  6
ByBlock
 62
     0
370
    -2
380
     1
100
AcDbLine
 10
445.1360159669329
 20
439.060262944206
 30
0.0
 11
445.1360159669329
 21
260.060262944206
 31
0.0
  0
SOLID
  5
447
330
44B
100
AcDbEntity
  8
0
  6
ByBlock
 62
     0
380
     1
100
AcDbTrace
 10
445.1360159669329
 20
441.560262944206
 30
0.0
 11
444.7193493002662
 21
439.060262944206
 31
0.0
 12
445.5526826335996
 22
439.060262944206
 32
0.0
 13
445.5526826335996
 23
439.060262944206
 33
0.0
  0
SOLID
  5
448
330
44B
100
AcDbEntity
  8
0
  6
ByBlock
 62
     0
380
     1
100
AcDbTrace
 10
445.1360159669329
 20
257.560262944206
 30
0.0
 11
444.7193493002662
 21
260.060262944206
 31
0.0
 12
445.5526826335996
 22
260.060262944206
 32
0.0
 13
445.5526826335996
 23
260.060262944206
 33
0.0
  0
MTEXT
  5
449
330
44B
100
AcDbEntity
  8
0
  6
ByBlock
 62
     0
370
    -2
380
     1
100
AcDbMText
 10
443.2610159669329
 20
349.560262944206
 30
0.0
 40
2.5
 41
0.0
 71
     5
 72
     1
  1
\A1;184
 11
6.123031769111886E-17
 21
1.0
 31
0.0
 73
     1
 44
1.0
  0
ENDBLK
  5
4C3
330
44B
100
AcDbEntity
  8
0
100
AcDbBlockEnd
  0
BLOCK
  5
4C4
330
456
100
AcDbEntity
  8
0
100
AcDbBlockBegin
  2
*D13
 70
     1
 10
0.0
 20
0.0
 30
0.0
  3
*D13
  1

  0
POINT
  5
44D
330
456
100
AcDbEntity
  8
DEFPOINTS
  6
ByBlock
 62
     0
380
     1
100
AcDbPoint
 10
520.0719247164657
 20
441.560262944206
 30
0.0
  0
POINT
  5
44E
330
456
100
AcDbEntity
  8
DEFPOINTS
  6
ByBlock
 62
     0
380
     1
100
AcDbPoint
 10
530.0124024077303
 20
257.560262944206
 30
0.0
  0
LINE
  5
44F
330
456
100
AcDbEntity
  8
0
  6
ByBlock
 62
     0
370
    -2
380
     1
100
AcDbLine
 10
519.4469247164657
 20
441.560262944206
 30
0.0
 11
443.8860159669329
 21
441.560262944206
 31
0.0
  0
LINE
  5
450
330
456
100
AcDbEntity
  8
0
  6
ByBlock
 62
     0
370
    -2
380
     1
100
AcDbLine
 10
529.3874024077303
 20
257.560262944206
 30
0.0
 11
443.8860159669329
 21
257.560262944206
 31
0.0
  0
LINE
  5
451
330
456
100
AcDbEntity
  8
0
  6
ByBlock
 62
     0
370
    -2
380
     1
100
AcDbLine
 10
445.1360159669329
 20
439.060262944206
 30
0.0
 11
445.1360159669329
 21
260.060262944206
 31
0.0
  0
SOLID
  5
452
330
456
100
AcDbEntity
  8
0
  6
ByBlock
 62
     0
380
     1
100
AcDbTrace
 10
445.1360159669329
 20
441.560262944206
 30
0.0
 11
444.7193493002662
 21
439.060262944206
 31
0.0
 12
445.5526826335996
 22
439.060262944206
 32
0.0
 13
445.5526826335996
 23
439.060262944206
 33
0.0
  0
SOLID
  5
453
330
456
100
AcDbEntity
  8
0
  6
ByBlock
 62
     0
380
     1
100
AcDbTrace
 10
445.1360159669329
 20
257.560262944206
 30
0.0
 11
444.7193493002662
 21
260.060262944206
 31
0.0
 12
445.5526826335996
 22
260.060262944206
 32
0.0
 13
445.5526826335996
 23
260.060262944206
 33
0.0
  0
MTEXT
  5
454
330
456
100
AcDbEntity
  8
0
  6
ByBlock
 62
     0
370
    -2
380
     1
100
AcDbMText
 10
443.2610159669329
 20
349.560262944206
 30
0.0
 40
2.5
 41
0.0
 71
     5
 72
     1
  1
\A1;184
 11
6.123031769111886E-17
 21
1.0
 31
0.0
 73
     1
 44
1.0
  0
ENDBLK
  5
4C5
330
456
100
AcDbEntity
  8
0
100
AcDbBlockEnd
  0
BLOCK
  5
4C6
330
461
100
AcDbEntity
  8
0
100
AcDbBlockBegin
  2
*D14
 70
     1
 10
0.0
 20
0.0
 30
0.0
  3
*D14
  1

  0
POINT
  5
458
330
461
100
AcDbEntity
  8
DEFPOINTS
  6
ByBlock
 62
     7
380
     1
100
AcDbPoint
 10
520.0719247164657
 20
441.560262944206
 30
0.0
  0
POINT
  5
459
330
461
100
AcDbEntity
  8
DEFPOINTS
  6
ByBlock
 62
     7
380
     1
100
AcDbPoint
 10
530.0124024077303
 20
257.560262944206
 30
0.0
  0
LINE
  5
45A
330
461
100
AcDbEntity
  8
0
  6
ByBlock
 62
     7
370
    -2
380
     1
100
AcDbLine
 10
519.4469247164657
 20
441.560262944206
 30
0.0
 11
443.8860159669329
 21
441.560262944206
 31
0.0
  0
LINE
  5
45B
330
461
100
AcDbEntity
  8
0
  6
ByBlock
 62
     7
370
    -2
380
     1
100
AcDbLine
 10
529.3874024077303
 20
257.560262944206
 30
0.0
 11
443.8860159669329
 21
257.560262944206
 31
0.0
  0
LINE
  5
45C
330
461
100
AcDbEntity
  8
0
  6
ByBlock
 62
     7
370
    -2
380
     1
100
AcDbLine
 10
445.1360159669329
 20
431.560262944206
 30
0.0
 11
445.1360159669329
 21
267.560262944206
 31
0.0
  0
SOLID
  5
45D
330
461
100
AcDbEntity
  8
0
  6
ByBlock
 62
     7
380
     1
100
AcDbTrace
 10
445.1360159669329
 20
441.560262944206
 30
0.0
 11
443.4693493002662
 21
431.560262944206
 31
0.0
 12
446.8026826335996
 22
431.560262944206
 32
0.0
 13
446.8026826335996
 23
431.560262944206
 33
0.0
  0
SOLID
  5
45E
330
461
100
AcDbEntity
  8
0
  6
ByBlock
 62
     7
380
     1
100
AcDbTrace
 10
445.1360159669329
 20
257.560262944206
 30
0.0
 11
443.4693493002662
 21
267.560262944206
 31
0.0
 12
446.8026826335996
 22
267.560262944206
 32
0.0
 13
446.8026826335996
 23
267.560262944206
 33
0.0
  0
MTEXT
  5
45F
330
461
100
AcDbEntity
  8
0
  6
ByBlock
 62
     0
370
    -2
380
     1
100
AcDbMText
 10
433.1360159669329
 20
349.560262944206
 30
0.0
 40
14.0
 41
0.0
 71
     5
 72
     1
  1
\A1;184
 11
6.123031769111886E-17
 21
1.0
 31
0.0
 73
     1
 44
1.0
  0
ENDBLK
  5
4C7
330
461
100
AcDbEntity
  8
0
100
AcDbBlockEnd
  0
BLOCK
  5
4C8
330
46D
100
AcDbEntity
  8
0
100
AcDbBlockBegin
  2
*D15
 70
     1
 10
0.0
 20
0.0
 30
0.0
  3
*D15
  1

  0
POINT
  5
464
330
46D
100
AcDbEntity
  8
DEFPOINTS
  6
ByBlock
 62
     0
380
     1
100
AcDbPoint
 10
468.1905264996205
 20
283.560262944206
 30
0.0
  0
POINT
  5
465
330
46D
100
AcDbEntity
  8
DEFPOINTS
  6
ByBlock
 62
     0
380
     1
100
AcDbPoint
 10
628.1905264996205
 20
283.560262944206
 30
0.0
  0
LINE
  5
466
330
46D
100
AcDbEntity
  8
0
  6
ByBlock
 62
     0
370
    -2
380
     1
100
AcDbLine
 10
468.1905264996205
 20
282.935262944206
 30
0.0
 11
468.1905264996205
 21
237.855765252754
 31
0.0
  0
LINE
  5
467
330
46D
100
AcDbEntity
  8
0
  6
ByBlock
 62
     0
370
    -2
380
     1
100
AcDbLine
 10
628.1905264996205
 20
282.935262944206
 30
0.0
 11
628.1905264996205
 21
237.855765252754
 31
0.0
  0
LINE
  5
468
330
46D
100
AcDbEntity
  8
0
  6
ByBlock
 62
     0
370
    -2
380
     1
100
AcDbLine
 10
470.6905264996205
 20
239.105765252754
 30
0.0
 11
625.6905264996205
 21
239.105765252754
 31
0.0
  0
SOLID
  5
469
330
46D
100
AcDbEntity
  8
0
  6
ByBlock
 62
     0
380
     1
100
AcDbTrace
 10
468.1905264996205
 20
239.105765252754
 30
0.0
 11
470.6905264996205
 21
238.6890985860873
 31
0.0
 12
470.6905264996205
 22
239.5224319194206
 32
0.0
 13
470.6905264996205
 23
239.5224319194206
 33
0.0
  0
SOLID
  5
46A
330
46D
100
AcDbEntity
  8
0
  6
ByBlock
 62
     0
380
     1
100
AcDbTrace
 10
628.1905264996205
 20
239.105765252754
 30
0.0
 11
625.6905264996205
 21
238.6890985860873
 31
0.0
 12
625.6905264996205
 22
239.5224319194206
 32
0.0
 13
625.6905264996205
 23
239.5224319194206
 33
0.0
  0
MTEXT
  5
46B
330
46D
100
AcDbEntity
  8
0
  6
ByBlock
 62
     0
370
    -2
380
     1
100
AcDbMText
 10
548.1905264996205
 20
240.980765252754
 30
0.0
 40
2.5
 41
0.0
 71
     5
 72
     1
  1
\A1;160
 73
     1
 44
1.0
  0
ENDBLK
  5
4C9
330
46D
100
AcDbEntity
  8
0
100
AcDbBlockEnd
  0
BLOCK
  5
4CA
330
478
100
AcDbEntity
  8
0
100
AcDbBlockBegin
  2
*D16
 70
     1
 10
0.0
 20
0.0
 30
0.0
  3
*D16
  1

  0
POINT
  5
46F
330
478
100
AcDbEntity
  8
DEFPOINTS
  6
ByBlock
 62
     0
380
     1
100
AcDbPoint
 10
468.1905264996205
 20
283.560262944206
 30
0.0
  0
POINT
  5
470
330
478
100
AcDbEntity
  8
DEFPOINTS
  6
ByBlock
 62
     0
380
     1
100
AcDbPoint
 10
628.1905264996205
 20
283.560262944206
 30
0.0
  0
LINE
  5
471
330
478
100
AcDbEntity
  8
0
  6
ByBlock
 62
     0
370
    -2
380
     1
100
AcDbLine
 10
468.1905264996205
 20
282.935262944206
 30
0.0
 11
468.1905264996205
 21
237.855765252754
 31
0.0
  0
LINE
  5
472
330
478
100
AcDbEntity
  8
0
  6
ByBlock
 62
     0
370
    -2
380
     1
100
AcDbLine
 10
628.1905264996205
 20
282.935262944206
 30
0.0
 11
628.1905264996205
 21
237.855765252754
 31
0.0
  0
LINE
  5
473
330
478
100
AcDbEntity
  8
0
  6
ByBlock
 62
     0
370
    -2
380
     1
100
AcDbLine
 10
470.6905264996205
 20
239.105765252754
 30
0.0
 11
625.6905264996205
 21
239.105765252754
 31
0.0
  0
SOLID
  5
474
330
478
100
AcDbEntity
  8
0
  6
ByBlock
 62
     0
380
     1
100
AcDbTrace
 10
468.1905264996205
 20
239.105765252754
 30
0.0
 11
470.6905264996205
 21
238.6890985860873
 31
0.0
 12
470.6905264996205
 22
239.5224319194206
 32
0.0
 13
470.6905264996205
 23
239.5224319194206
 33
0.0
  0
SOLID
  5
475
330
478
100
AcDbEntity
  8
0
  6
ByBlock
 62
     0
380
     1
100
AcDbTrace
 10
628.1905264996205
 20
239.105765252754
 30
0.0
 11
625.6905264996205
 21
238.6890985860873
 31
0.0
 12
625.6905264996205
 22
239.5224319194206
 32
0.0
 13
625.6905264996205
 23
239.5224319194206
 33
0.0
  0
MTEXT
  5
476
330
478
100
AcDbEntity
  8
0
  6
ByBlock
 62
     0
370
    -2
380
     1
100
AcDbMText
 10
548.1905264996205
 20
240.980765252754
 30
0.0
 40
2.5
 41
0.0
 71
     5
 72
     1
  1
\A1;160
 73
     1
 44
1.0
  0
ENDBLK
  5
4CB
330
478
100
AcDbEntity
  8
0
100
AcDbBlockEnd
  0
BLOCK
  5
4CC
330
483
100
AcDbEntity
  8
0
100
AcDbBlockBegin
  2
*D17
 70
     1
 10
0.0
 20
0.0
 30
0.0
  3
*D17
  1

  0
POINT
  5
47A
330
483
100
AcDbEntity
  8
DEFPOINTS
  6
ByBlock
 62
     0
380
     1
100
AcDbPoint
 10
468.1905264996205
 20
283.560262944206
 30
0.0
  0
POINT
  5
47B
330
483
100
AcDbEntity
  8
DEFPOINTS
  6
ByBlock
 62
     0
380
     1
100
AcDbPoint
 10
628.1905264996205
 20
283.560262944206
 30
0.0
  0
LINE
  5
47C
330
483
100
AcDbEntity
  8
0
  6
ByBlock
 62
     0
370
    -2
380
     1
100
AcDbLine
 10
468.1905264996205
 20
282.935262944206
 30
0.0
 11
468.1905264996205
 21
237.855765252754
 31
0.0
  0
LINE
  5
47D
330
483
100
AcDbEntity
  8
0
  6
ByBlock
 62
     0
370
    -2
380
     1
100
AcDbLine
 10
628.1905264996205
 20
282.935262944206
 30
0.0
 11
628.1905264996205
 21
237.855765252754
 31
0.0
  0
LINE
  5
47E
330
483
100
AcDbEntity
  8
0
  6
ByBlock
 62
     0
370
    -2
380
     1
100
AcDbLine
 10
470.6905264996205
 20
239.105765252754
 30
0.0
 11
625.6905264996205
 21
239.105765252754
 31
0.0
  0
SOLID
  5
47F
330
483
100
AcDbEntity
  8
0
  6
ByBlock
 62
     0
380
     1
100
AcDbTrace
 10
468.1905264996205
 20
239.105765252754
 30
0.0
 11
470.6905264996205
 21
238.6890985860873
 31
0.0
 12
470.6905264996205
 22
239.5224319194206
 32
0.0
 13
470.6905264996205
 23
239.5224319194206
 33
0.0
  0
SOLID
  5
480
330
483
100
AcDbEntity
  8
0
  6
ByBlock
 62
     0
380
     1
100
AcDbTrace
 10
628.1905264996205
 20
239.105765252754
 30
0.0
 11
625.6905264996205
 21
238.6890985860873
 31
0.0
 12
625.6905264996205
 22
239.5224319194206
 32
0.0
 13
625.6905264996205
 23
239.5224319194206
 33
0.0
  0
MTEXT
  5
481
330
483
100
AcDbEntity
  8
0
  6
ByBlock
 62
     0
370
    -2
380
     1
100
AcDbMText
 10
548.1905264996205
 20
240.980765252754
 30
0.0
 40
2.5
 41
0.0
 71
     5
 72
     1
  1
\A1;160
 73
     1
 44
1.0
  0
ENDBLK
  5
4CD
330
483
100
AcDbEntity
  8
0
100
AcDbBlockEnd
  0
BLOCK
  5
4CE
330
48E
100
AcDbEntity
  8
0
100
AcDbBlockBegin
  2
*D18
 70
     1
 10
0.0
 20
0.0
 30
0.0
  3
*D18
  1

  0
POINT
  5
485
330
48E
100
AcDbEntity
  8
DEFPOINTS
  6
ByBlock
 62
     7
380
     1
100
AcDbPoint
 10
468.1905264996205
 20
283.560262944206
 30
0.0
  0
POINT
  5
486
330
48E
100
AcDbEntity
  8
DEFPOINTS
  6
ByBlock
 62
     7
380
     1
100
AcDbPoint
 10
628.1905264996205
 20
283.560262944206
 30
0.0
  0
LINE
  5
487
330
48E
100
AcDbEntity
  8
0
  6
ByBlock
 62
     7
370
    -2
380
     1
100
AcDbLine
 10
468.1905264996205
 20
282.935262944206
 30
0.0
 11
468.1905264996205
 21
237.855765252754
 31
0.0
  0
LINE
  5
488
330
48E
100
AcDbEntity
  8
0
  6
ByBlock
 62
     7
370
    -2
380
     1
100
AcDbLine
 10
628.1905264996205
 20
282.935262944206
 30
0.0
 11
628.1905264996205
 21
237.855765252754
 31
0.0
  0
LINE
  5
489
330
48E
100
AcDbEntity
  8
0
  6
ByBlock
 62
     7
370
    -2
380
     1
100
AcDbLine
 10
478.1905264996205
 20
239.105765252754
 30
0.0
 11
618.1905264996205
 21
239.105765252754
 31
0.0
  0
SOLID
  5
48A
330
48E
100
AcDbEntity
  8
0
  6
ByBlock
 62
     7
380
     1
100
AcDbTrace
 10
468.1905264996205
 20
239.105765252754
 30
0.0
 11
478.1905264996205
 21
237.4390985860873
 31
0.0
 12
478.1905264996205
 22
240.7724319194206
 32
0.0
 13
478.1905264996205
 23
240.7724319194206
 33
0.0
  0
SOLID
  5
48B
330
48E
100
AcDbEntity
  8
0
  6
ByBlock
 62
     7
380
     1
100
AcDbTrace
 10
628.1905264996205
 20
239.105765252754
 30
0.0
 11
618.1905264996205
 21
237.4390985860873
 31
0.0
 12
618.1905264996205
 22
240.7724319194206
 32
0.0
 13
618.1905264996205
 23
240.7724319194206
 33
0.0
  0
MTEXT
  5
48C
330
48E
100
AcDbEntity
  8
0
  6
ByBlock
 62
     0
370
    -2
380
     1
100
AcDbMText
 10
548.1905264996205
 20
251.105765252754
 30
0.0
 40
14.0
 41
0.0
 71
     5
 72
     1
  1
\A1;160
 73
     1
 44
1.0
  0
ENDBLK
  5
4CF
330
48E
100
AcDbEntity
  8
0
100
AcDbBlockEnd
  0
BLOCK
  5
4D0
330
499
100
AcDbEntity
  8
0
100
AcDbBlockBegin
  2
*D19
 70
     1
 10
0.0
 20
0.0
 30
0.0
  3
*D19
  1

  0
POINT
  5
490
330
499
100
AcDbEntity
  8
DEFPOINTS
  6
ByBlock
 62
     7
380
     1
100
AcDbPoint
 10
468.1905264996205
 20
283.560262944206
 30
0.0
  0
POINT
  5
491
330
499
100
AcDbEntity
  8
DEFPOINTS
  6
ByBlock
 62
     7
380
     1
100
AcDbPoint
 10
628.1905264996205
 20
283.560262944206
 30
0.0
  0
LINE
  5
492
330
499
100
AcDbEntity
  8
0
  6
ByBlock
 62
     7
370
    -2
380
     1
100
AcDbLine
 10
468.1905264996205
 20
282.935262944206
 30
0.0
 11
468.1905264996205
 21
237.855765252754
 31
0.0
  0
LINE
  5
493
330
499
100
AcDbEntity
  8
0
  6
ByBlock
 62
     7
370
    -2
380
     1
100
AcDbLine
 10
628.1905264996205
 20
282.935262944206
 30
0.0
 11
628.1905264996205
 21
237.855765252754
 31
0.0
  0
LINE
  5
494
330
499
100
AcDbEntity
  8
0
  6
ByBlock
 62
     7
370
    -2
380
     1
100
AcDbLine
 10
478.1905264996205
 20
239.105765252754
 30
0.0
 11
618.1905264996205
 21
239.105765252754
 31
0.0
  0
SOLID
  5
495
330
499
100
AcDbEntity
  8
0
  6
ByBlock
 62
     7
380
     1
100
AcDbTrace
 10
468.1905264996205
 20
239.105765252754
 30
0.0
 11
478.1905264996205
 21
237.4390985860873
 31
0.0
 12
478.1905264996205
 22
240.7724319194206
 32
0.0
 13
478.1905264996205
 23
240.7724319194206
 33
0.0
  0
SOLID
  5
496
330
499
100
AcDbEntity
  8
0
  6
ByBlock
 62
     7
380
     1
100
AcDbTrace
 10
628.1905264996205
 20
239.105765252754
 30
0.0
 11
618.1905264996205
 21
237.4390985860873
 31
0.0
 12
618.1905264996205
 22
240.7724319194206
 32
0.0
 13
618.1905264996205
 23
240.7724319194206
 33
0.0
  0
MTEXT
  5
497
330
499
100
AcDbEntity
  8
0
  6
ByBlock
 62
     0
370
    -2
380
     1
100
AcDbMText
 10
548.1905264996205
 20
251.1057652527539
 30
0.0
 40
14.0
 41
0.0
 71
     5
 72
     1
  1
\A1;160
 73
     1
 44
1.0
  0
ENDBLK
  5
4D1
330
499
100
AcDbEntity
  8
0
100
AcDbBlockEnd
  0
BLOCK
  5
4D2
330
4A4
100
AcDbEntity
  8
0
100
AcDbBlockBegin
  2
*D20
 70
     1
 10
0.0
 20
0.0
 30
0.0
  3
*D20
  1

  0
POINT
  5
49B
330
4A4
100
AcDbEntity
  8
DEFPOINTS
  6
ByBlock
 62
     7
380
     1
100
AcDbPoint
 10
468.1905264996205
 20
283.560262944206
 30
0.0
  0
POINT
  5
49C
330
4A4
100
AcDbEntity
  8
DEFPOINTS
  6
ByBlock
 62
     7
380
     1
100
AcDbPoint
 10
628.1905264996205
 20
283.560262944206
 30
0.0
  0
LINE
  5
49D
330
4A4
100
AcDbEntity
  8
0
  6
ByBlock
 62
     7
370
    -2
380
     1
100
AcDbLine
 10
468.1905264996205
 20
282.935262944206
 30
0.0
 11
468.1905264996205
 21
224.0805504877117
 31
0.0
  0
LINE
  5
49E
330
4A4
100
AcDbEntity
  8
0
  6
ByBlock
 62
     7
370
    -2
380
     1
100
AcDbLine
 10
628.1905264996205
 20
282.935262944206
 30
0.0
 11
628.1905264996205
 21
224.0805504877117
 31
0.0
  0
LINE
  5
49F
330
4A4
100
AcDbEntity
  8
0
  6
ByBlock
 62
     7
370
    -2
380
     1
100
AcDbLine
 10
478.1905264996205
 20
225.3305504877117
 30
0.0
 11
618.1905264996205
 21
225.3305504877117
 31
0.0
  0
SOLID
  5
4A0
330
4A4
100
AcDbEntity
  8
0
  6
ByBlock
 62
     7
380
     1
100
AcDbTrace
 10
468.1905264996205
 20
225.3305504877117
 30
0.0
 11
478.1905264996205
 21
223.6638838210451
 31
0.0
 12
478.1905264996205
 22
226.9972171543784
 32
0.0
 13
478.1905264996205
 23
226.9972171543784
 33
0.0
  0
SOLID
  5
4A1
330
4A4
100
AcDbEntity
  8
0
  6
ByBlock
 62
     7
380
     1
100
AcDbTrace
 10
628.1905264996205
 20
225.3305504877117
 30
0.0
 11
618.1905264996205
 21
223.6638838210451
 31
0.0
 12
618.1905264996205
 22
226.9972171543784
 32
0.0
 13
618.1905264996205
 23
226.9972171543784
 33
0.0
  0
MTEXT
  5
4A2
330
4A4
100
AcDbEntity
  8
0
  6
ByBlock
 62
     0
370
    -2
380
     1
100
AcDbMText
 10
554.7620041379342
 20
237.3305504877117
 30
0.0
 40
14.0
 41
0.0
 71
     5
 72
     1
  1
\A1;160
 73
     1
 44
1.0
  0
ENDBLK
  5
4D3
330
4A4
100
AcDbEntity
  8
0
100
AcDbBlockEnd
  0
ENDSEC
  0
SECTION
  2
ENTITIES
  0
LINE
  5
27B
330
1F
100
AcDbEntity
  8
0
  6
DASHDOT
 62
     7
370
    25
100
AcDbLine
 10
490.5905284996206
 20
297.560262944206
 30
0.0
 11
605.7905264996206
 21
297.560262944206
 31
0.0
  0
LINE
  5
27C
330
1F
100
AcDbEntity
  8
0
  6
DASHDOT
 62
     7
 48
0.030008
370
    25
100
AcDbLine
 10
500.3905764996206
 20
315.560262944206
 30
0.0
 11
497.9899764996206
 21
315.560262944206
 31
0.0
  0
LINE
  5
27D
330
1F
100
AcDbEntity
  8
0
  6
DASHDOT
 62
     7
 48
0.03
370
    25
100
AcDbLine
 10
497.9905264996206
 20
269.560262944206
 30
0.0
 11
500.3905284996206
 21
269.560262944206
 31
0.0
  0
LINE
  5
280
330
1F
100
AcDbEntity
  8
0
  6
DASHDOT
 62
     7
 48
0.030008
370
    25
100
AcDbLine
 10
598.3905764996206
 20
315.560262944206
 30
0.0
 11
595.9899764996205
 21
315.560262944206
 31
0.0
  0
LINE
  5
281
330
1F
100
AcDbEntity
  8
0
  6
DASHDOT
 62
     7
 48
0.03
370
    25
100
AcDbLine
 10
595.9905264996206
 20
269.560262944206
 30
0.0
 11
598.3905284996206
 21
269.560262944206
 31
0.0
  0
LINE
  5
282
330
1F
100
AcDbEntity
  8
0
  6
DASHDOT
 62
     7
 48
0.15
370
    60
100
AcDbLine
 10
597.1905264996205
 20
297.560262944206
 30
0.0
 11
609.1905264996205
 21
297.560262944206
 31
0.0
  0
LINE
  5
283
330
1F
100
AcDbEntity
  8
0
  6
DASHDOT
 62
     7
 48
0.045
370
    25
100
AcDbLine
 10
626.1905264996205
 20
281.760258944206
 30
0.0
 11
626.1905264996205
 21
285.360264944206
 31
0.0
  0
LINE
  5
284
330
1F
100
AcDbEntity
  8
0
  6
DASHDOT
 62
     7
 48
0.045
370
    25
100
AcDbLine
 10
470.1905264996205
 20
281.760258944206
 30
0.0
 11
470.1905264996205
 21
285.360264944206
 31
0.0
  0
LINE
  5
291
330
1F
100
AcDbEntity
  8
0
  6
DASHDOT
 62
     7
370
    25
100
AcDbLine
 10
1651.206869077697
 20
297.560262944206
 30
0.0
 11
721.2068310776972
 21
297.560262944206
 31
0.0
  0
LINE
  5
292
330
1F
100
AcDbEntity
  8
0
  6
DASHDOT
 62
     7
370
    25
100
AcDbLine
 10
754.7068690776972
 20
375.227930944206
 30
0.0
 11
754.7068690776972
 21
246.862660944206
 31
0.0
  0
LINE
  5
293
330
1F
100
AcDbEntity
  8
0
  6
DASHDOT
 62
     7
 48
0.045
370
    60
100
AcDbLine
 10
1571.706869077697
 20
281.760258944206
 30
0.0
 11
1571.706869077697
 21
285.360264944206
 31
0.0
  0
LINE
  5
294
330
1F
100
AcDbEntity
  8
0
  6
DASHDOT
 62
     7
 48
0.045
370
    60
100
AcDbLine
 10
1545.706869077697
 20
281.760258944206
 30
0.0
 11
1545.706869077697
 21
285.360264944206
 31
0.0
  0
LINE
  5
295
330
1F
100
AcDbEntity
  8
0
  6
DASHDOT
 62
     7
370
    25
100
AcDbLine
 10
798.4069190776972
 20
429.560262944206
 30
0.0
 11
742.0063190776972
 21
429.560262944206
 31
0.0
  0
LINE
  5
296
330
1F
100
AcDbEntity
  8
0
  6
DASHDOT
 62
     7
370
    25
100
AcDbLine
 10
798.4069190776972
 20
345.560262944206
 30
0.0
 11
742.0063190776972
 21
345.560262944206
 31
0.0
  0
LINE
  5
297
330
1F
100
AcDbEntity
  8
0
  6
DASHDOT
 62
     7
370
    60
100
AcDbLine
 10
802.7068690776972
 20
337.560262944206
 30
0.0
 11
802.7068690776972
 21
437.560262944206
 31
0.0
  0
LINE
  5
298
330
1F
100
AcDbEntity
  8
0
  6
DASHDOT
 62
     7
370
    60
100
AcDbLine
 10
795.7068690253374
 20
437.560262944206
 30
0.0
 11
795.7068690776972
 21
337.560262944206
 31
0.0
  0
LINE
  5
299
330
1F
100
AcDbEntity
  8
0
  6
DASHDOT
 62
     7
370
    60
100
AcDbLine
 10
793.7068690776972
 20
337.160260944206
 30
0.0
 11
793.7068690776972
 21
437.960262944206
 31
0.0
  0
LINE
  5
29E
330
1F
100
AcDbEntity
  8
0
  6
DASHDOT
 62
     7
 48
0.338
370
    60
100
AcDbLine
 10
780.4668670776972
 20
297.560262944206
 30
0.0
 11
766.9468690776972
 21
297.560262944206
 31
0.0
  0
LINE
  5
29F
330
1F
100
AcDbEntity
  8
0
  6
DASHDOT
 62
     7
 48
0.338
370
    25
100
AcDbLine
 10
773.7068690776972
 20
304.320264944206
 30
0.0
 11
773.7068690776972
 21
290.800260944206
 31
0.0
  0
LINE
  5
2A0
330
1F
100
AcDbEntity
  8
0
 62
     7
370
    60
100
AcDbLine
 10
1573.706869077697
 20
310.060262944206
 30
0.0
 11
1573.706869077697
 21
285.060262944206
 31
0.0
  0
LINE
  5
2A1
330
1F
100
AcDbEntity
  8
0
 62
     7
370
    60
100
AcDbLine
 10
1543.706808077697
 20
285.060262944206
 30
0.0
 11
1273.706869077697
 21
285.060262944206
 31
0.0
  0
LINE
  5
2A2
330
1F
100
AcDbEntity
  8
0
 62
     7
370
    60
100
AcDbLine
 10
1573.706869077697
 20
310.060262944206
 30
0.0
 11
1273.706869077697
 21
310.060262944206
 31
0.0
  0
LINE
  5
2A3
330
1F
100
AcDbEntity
  8
0
 62
     7
370
    60
100
AcDbLine
 10
1273.706869077697
 20
282.560262944206
 30
0.0
 11
1273.706869077697
 21
312.560262944206
 31
0.0
  0
LINE
  5
2A4
330
1F
100
AcDbEntity
  8
0
 62
     7
 48
0.400001
370
    60
100
AcDbLine
 10
798.7068350776972
 20
312.560262944206
 30
0.0
 11
848.9003326259005
 21
312.560262944206
 31
0.0
  0
LINE
  5
2A5
330
1F
100
AcDbEntity
  8
0
 62
     7
370
    60
100
AcDbLine
 10
844.706869077697
 20
312.560262944206
 30
0.0
 11
1273.706869077697
 21
312.560262944206
 31
0.0
  0
LINE
  5
2A6
330
1F
100
AcDbEntity
  8
0
 62
     7
370
    60
100
AcDbLine
 10
798.7068730776972
 20
282.560262944206
 30
0.0
 11
1273.706869077697
 21
282.560262944206
 31
0.0
  0
LINE
  5
2A7
330
1F
100
AcDbEntity
  8
0
 62
     7
370
    60
100
AcDbLine
 10
746.7068690776972
 20
257.560262944206
 30
0.0
 11
746.7068690776972
 21
335.560262944206
 31
0.0
  0
ARC
  5
2A8
330
1F
100
AcDbEntity
  8
0
 62
     7
370
    60
100
AcDbCircle
 10
774.7091800904516
 20
313.173774170248
 30
0.0
 40
24.11606115012953
100
AcDbArc
 50
5.679198335668329
 51
68.16846779415931
  0
LINE
  5
2A9
330
1F
100
AcDbEntity
  8
0
 62
     7
370
    60
100
AcDbLine
 10
798.7068690776972
 20
315.560262944206
 30
0.0
 11
798.7068690776972
 21
269.560262944206
 31
0.0
  0
ARC
  5
2AA
330
1F
100
AcDbEntity
  8
0
 62
     7
370
    60
100
AcDbCircle
 10
786.7068690776972
 20
269.560262944206
 30
0.0
 40
12.00000000000002
100
AcDbArc
 50
269.9999970000001
 51
0.0000000000000877
  0
LINE
  5
2AB
330
1F
100
AcDbEntity
  8
0
 62
     7
370
    60
100
AcDbLine
 10
786.7068690776972
 20
257.560262944206
 30
0.0
 11
754.7068690776972
 21
257.560262944206
 31
0.0
  0
CIRCLE
  5
2AC
330
1F
100
AcDbEntity
  8
0
 62
     7
370
    60
100
AcDbCircle
 10
773.7068690776972
 20
297.560262944206
 30
0.0
 40
5.200000000000045
  0
LINE
  5
2AD
330
1F
100
AcDbEntity
  8
0
 62
     7
 48
0.2
370
    60
100
AcDbLine
 10
754.7068690776972
 20
257.560262944206
 30
0.0
 11
746.7068690776972
 21
257.560262944206
 31
0.0
  0
LINE
  5
2AE
330
1F
100
AcDbEntity
  8
0
 62
     7
 48
0.05
370
    60
100
AcDbLine
 10
1545.706869077697
 20
285.060262944206
 30
0.0
 11
1543.706869077697
 21
285.060262944206
 31
0.0
  0
LINE
  5
2AF
330
1F
100
AcDbEntity
  8
0
 62
     7
370
    60
100
AcDbLine
 10
1571.706869077697
 20
285.060262944206
 30
0.0
 11
1545.706869077697
 21
285.060262944206
 31
0.0
  0
LINE
  5
2B0
330
1F
100
AcDbEntity
  8
0
 62
     7
 48
0.05
370
    60
100
AcDbLine
 10
1573.706869077697
 20
285.060262944206
 30
0.0
 11
1571.706869077697
 21
285.060262944206
 31
0.0
  0
LINE
  5
2B1
330
1F
100
AcDbEntity
  8
0
 62
     7
 48
0.05
370
    60
100
AcDbLine
 10
1545.706869077697
 20
282.060262944206
 30
0.0
 11
1543.706869077697
 21
282.060262944206
 31
0.0
  0
LINE
  5
2B2
330
1F
100
AcDbEntity
  8
0
 62
     7
370
    60
100
AcDbLine
 10
1571.706869077697
 20
282.060262944206
 30
0.0
 11
1545.706869077697
 21
282.060262944206
 31
0.0
  0
LINE
  5
2B3
330
1F
100
AcDbEntity
  8
0
 62
     7
 48
0.05
370
    60
100
AcDbLine
 10
1573.706869077697
 20
282.060262944206
 30
0.0
 11
1571.706869077697
 21
282.060262944206
 31
0.0
  0
LINE
  5
2B4
330
1F
100
AcDbEntity
  8
0
 62
     7
 48
0.075
370
    60
100
AcDbLine
 10
1573.706869077697
 20
285.060262944206
 30
0.0
 11
1573.706869077697
 21
282.060262944206
 31
0.0
  0
LINE
  5
2B5
330
1F
100
AcDbEntity
  8
0
 62
     7
 48
0.075
370
    60
100
AcDbLine
 10
1543.706869077697
 20
285.060262944206
 30
0.0
 11
1543.706869077697
 21
282.060262944206
 31
0.0
  0
LINE
  5
2B6
330
1F
100
AcDbEntity
  8
0
 62
     7
 48
0.075
370
    60
100
AcDbLine
 10
1571.706869077697
 20
285.060262944206
 30
0.0
 11
1571.706869077697
 21
282.060262944206
 31
0.0
  0
LINE
  5
2B7
330
1F
100
AcDbEntity
  8
0
 62
     7
 48
0.075
370
    60
100
AcDbLine
 10
1545.706869077697
 20
285.060262944206
 30
0.0
 11
1545.706869077697
 21
282.060262944206
 31
0.0
  0
LINE
  5
2B8
330
1F
100
AcDbEntity
  8
0
 62
     7
 48
0.25
370
    60
100
AcDbLine
 10
746.7068690776972
 20
335.560262944206
 30
0.0
 11
746.7068690776972
 21
345.560262944206
 31
0.0
  0
LINE
  5
2B9
330
1F
100
AcDbEntity
  8
0
 62
     7
 48
0.25
370
    60
100
AcDbLine
 10
746.7068690776972
 20
429.560262944206
 30
0.0
 11
746.7068690776972
 21
439.560262944206
 31
0.0
  0
LINE
  5
2BA
330
1F
100
AcDbEntity
  8
0
 62
     7
370
    60
100
AcDbLine
 10
746.7068690776972
 20
345.560262944206
 30
0.0
 11
746.7068690776972
 21
429.560262944206
 31
0.0
  0
LINE
  5
2BB
330
1F
100
AcDbEntity
  8
0
 62
     7
370
    60
100
AcDbLine
 10
788.7068690776972
 20
439.560262944206
 30
0.0
 11
746.7068690776972
 21
439.560262944206
 31
0.0
  0
LINE
  5
2BC
330
1F
100
AcDbEntity
  8
0
 62
     7
 48
0.125736
370
    60
100
AcDbLine
 10
788.7068690776972
 20
335.560262944206
 30
0.0
 11
783.6774310776972
 21
335.560262944206
 31
0.0
  0
LINE
  5
2BD
330
1F
100
AcDbEntity
  8
0
 62
     7
 48
0.3
370
    60
100
AcDbLine
 10
788.7068690776972
 20
333.560262944206
 30
0.0
 11
788.7068690776972
 21
345.560262944206
 31
0.0
  0
LINE
  5
2BE
330
1F
100
AcDbEntity
  8
0
 62
     7
 48
0.3
370
    60
100
AcDbLine
 10
788.7068690776972
 20
429.560262944206
 30
0.0
 11
788.7068690776972
 21
441.560262944206
 31
0.0
  0
LINE
  5
2BF
330
1F
100
AcDbEntity
  8
0
 62
     7
370
    60
100
AcDbLine
 10
788.7068690776972
 20
345.560262944206
 30
0.0
 11
788.7068690776972
 21
429.560262944206
 31
0.0
  0
LINE
  5
2C0
330
1F
100
AcDbEntity
  8
0
 62
     7
370
    60
100
AcDbLine
 10
794.7068690776972
 20
429.560262944206
 30
0.0
 11
794.7068690776972
 21
345.560262944206
 31
0.0
  0
LINE
  5
2C1
330
1F
100
AcDbEntity
  8
0
 62
     7
 48
0.275
370
    60
100
AcDbLine
 10
794.7068690776972
 20
345.560262944206
 30
0.0
 11
794.7068690776972
 21
334.560262944206
 31
0.0
  0
LINE
  5
2C2
330
1F
100
AcDbEntity
  8
0
 62
     7
 48
0.275
370
    60
100
AcDbLine
 10
794.7068690776972
 20
440.560262944206
 30
0.0
 11
794.7068690776972
 21
429.560262944206
 31
0.0
  0
LINE
  5
2C3
330
1F
100
AcDbEntity
  8
0
 62
     7
 48
0.125
370
    60
100
AcDbLine
 10
793.7068690776972
 20
345.560262944206
 30
0.0
 11
788.7068690776972
 21
345.560262944206
 31
0.0
  0
LINE
  5
2C4
330
1F
100
AcDbEntity
  8
0
 62
     7
 48
0.125
370
    60
100
AcDbLine
 10
793.7068690776972
 20
429.560262944206
 30
0.0
 11
788.7068690776972
 21
429.560262944206
 31
0.0
  0
LINE
  5
2C5
330
1F
100
AcDbEntity
  8
0
 62
     7
370
    60
100
AcDbLine
 10
793.7068690776972
 20
429.560262944206
 30
0.0
 11
793.7068690776972
 21
345.560262944206
 31
0.0
  0
LINE
  5
2C6
330
1F
100
AcDbEntity
  8
0
 62
     7
 48
0.125
370
    60
100
AcDbLine
 10
793.7068690776972
 20
441.560262944206
 30
0.0
 11
788.7068690776972
 21
441.560262944206
 31
0.0
  0
LINE
  5
2C7
330
1F
100
AcDbEntity
  8
0
 62
     7
 48
0.3
370
    60
100
AcDbLine
 10
793.7068690776972
 20
429.560262944206
 30
0.0
 11
793.7068690776972
 21
441.560262944206
 31
0.0
  0
LINE
  5
2C8
330
1F
100
AcDbEntity
  8
0
 62
     7
 48
0.125
370
    60
100
AcDbLine
 10
793.7068690776972
 20
333.560262944206
 30
0.0
 11
788.7068690776972
 21
333.560262944206
 31
0.0
  0
LINE
  5
2C9
330
1F
100
AcDbEntity
  8
0
 62
     7
 48
0.3
370
    60
100
AcDbLine
 10
793.7068690776972
 20
333.560262944206
 30
0.0
 11
793.7068690776972
 21
345.560262944206
 31
0.0
  0
LINE
  5
2CA
330
1F
100
AcDbEntity
  8
0
 62
     7
370
    60
100
AcDbLine
 10
803.7068690776972
 20
429.560262944206
 30
0.0
 11
803.7068690776972
 21
345.560262944206
 31
0.0
  0
LINE
  5
2CB
330
1F
100
AcDbEntity
  8
0
 62
     7
 48
0.175
370
    60
100
AcDbLine
 10
803.7068690776972
 20
345.560262944206
 30
0.0
 11
803.7068690776972
 21
338.560262944206
 31
0.0
  0
LINE
  5
2CC
330
1F
100
AcDbEntity
  8
0
 62
     7
 48
0.175
370
    60
100
AcDbLine
 10
803.7068690776972
 20
436.560262944206
 30
0.0
 11
803.7068690776972
 21
429.560262944206
 31
0.0
  0
LINE
  5
2CD
330
1F
100
AcDbEntity
  8
0
 62
     7
 48
0.175
370
    60
100
AcDbLine
 10
802.7068690776972
 20
345.560262944206
 30
0.0
 11
795.7068690776972
 21
345.560262944206
 31
0.0
  0
LINE
  5
2CE
330
1F
100
AcDbEntity
  8
0
 62
     7
370
    60
100
AcDbLine
 10
795.7068690776972
 20
345.560262944206
 30
0.0
 11
795.7068690776972
 21
429.560262944206
 31
0.0
  0
LINE
  5
2CF
330
1F
100
AcDbEntity
  8
0
 62
     7
 48
0.175
370
    60
100
AcDbLine
 10
802.7068690776972
 20
429.560262944206
 30
0.0
 11
795.7068690776972
 21
429.560262944206
 31
0.0
  0
LINE
  5
2D0
330
1F
100
AcDbEntity
  8
0
 62
     7
370
    60
100
AcDbLine
 10
802.7068690776972
 20
429.560262944206
 30
0.0
 11
802.7068690776972
 21
345.560262944206
 31
0.0
  0
LINE
  5
2D1
330
1F
100
AcDbEntity
  8
0
 62
     7
 48
0.175
370
    60
100
AcDbLine
 10
802.7068690776972
 20
337.560262944206
 30
0.0
 11
795.7068690776972
 21
337.560262944206
 31
0.0
  0
LINE
  5
2D2
330
1F
100
AcDbEntity
  8
0
 62
     7
 48
0.2
370
    60
100
AcDbLine
 10
795.7068690776972
 20
337.560262944206
 30
0.0
 11
795.7068690776972
 21
345.560262944206
 31
0.0
  0
LINE
  5
2D3
330
1F
100
AcDbEntity
  8
0
 62
     7
 48
0.2
370
    60
100
AcDbLine
 10
802.7068690776972
 20
345.560262944206
 30
0.0
 11
802.7068690776972
 21
337.560262944206
 31
0.0
  0
LINE
  5
2D4
330
1F
100
AcDbEntity
  8
0
 62
     7
 48
0.175
370
    60
100
AcDbLine
 10
802.7068690776972
 20
437.560262944206
 30
0.0
 11
795.7068690776972
 21
437.560262944206
 31
0.0
  0
LINE
  5
2D5
330
1F
100
AcDbEntity
  8
0
 62
     7
 48
0.2
370
    60
100
AcDbLine
 10
802.7068690776972
 20
437.560262944206
 30
0.0
 11
802.7068690776972
 21
429.560262944206
 31
0.0
  0
LINE
  5
2D6
330
1F
100
AcDbEntity
  8
0
 62
     7
 48
0.2
370
    60
100
AcDbLine
 10
795.7068690776972
 20
429.560262944206
 30
0.0
 11
795.7068690776972
 21
437.560262944206
 31
0.0
  0
ARC
  5
2D7
330
1F
100
AcDbEntity
  8
0
 62
     7
370
    60
100
AcDbCircle
 10
802.7068690776972
 20
338.560262944206
 30
0.0
 40
1.000000000000001
100
AcDbArc
 50
269.9999970000023
 51
0.000000000002276
  0
LINE
  5
2D8
330
1F
100
AcDbEntity
  8
0
 62
     7
 48
0.025
370
    60
100
AcDbLine
 10
803.7068690776972
 20
345.560262944206
 30
0.0
 11
802.7068690776972
 21
345.560262944206
 31
0.0
  0
LINE
  5
2D9
330
1F
100
AcDbEntity
  8
0
 62
     7
 48
0.025
370
    60
100
AcDbLine
 10
803.7068690776972
 20
429.560262944206
 30
0.0
 11
802.7068690776972
 21
429.560262944206
 31
0.0
  0
ARC
  5
2DA
330
1F
100
AcDbEntity
  8
0
 62
     7
370
    60
100
AcDbCircle
 10
802.7068690776972
 20
436.560262944206
 30
0.0
 40
1.0
100
AcDbArc
 50
0.0
 51
90.00000300000002
  0
ARC
  5
2DB
330
1F
100
AcDbEntity
  8
0
 62
     7
370
    60
100
AcDbCircle
 10
795.7068690776972
 20
336.560262944206
 30
0.0
 40
1.000000000000001
100
AcDbArc
 50
90.00000299999769
 51
180.0000049999977
  0
LINE
  5
2DC
330
1F
100
AcDbEntity
  8
0
 62
     7
 48
0.025
370
    60
100
AcDbLine
 10
794.7068690776972
 20
345.560262944206
 30
0.0
 11
795.7068690776972
 21
345.560262944206
 31
0.0
  0
LINE
  5
2DD
330
1F
100
AcDbEntity
  8
0
 62
     7
 48
0.025
370
    60
100
AcDbLine
 10
794.7068690776972
 20
429.560262944206
 30
0.0
 11
795.7068690776972
 21
429.560262944206
 31
0.0
  0
ARC
  5
2DE
330
1F
100
AcDbEntity
  8
0
 62
     7
370
    60
100
AcDbCircle
 10
795.7068690776972
 20
438.560262944206
 30
0.0
 40
1.000000000000004
100
AcDbArc
 50
180.0000050000005
 51
269.9999970000006
  0
ARC
  5
2DF
330
1F
100
AcDbEntity
  8
0
 62
     7
370
    60
100
AcDbCircle
 10
793.7068690776972
 20
334.560262944206
 30
0.0
 40
1.000000000000001
100
AcDbArc
 50
269.9999970000023
 51
0.000000000002276
  0
LINE
  5
2E0
330
1F
100
AcDbEntity
  8
0
 62
     7
 48
0.025
370
    60
100
AcDbLine
 10
794.7068690776972
 20
345.560262944206
 30
0.0
 11
793.7068690776972
 21
345.560262944206
 31
0.0
  0
LINE
  5
2E1
330
1F
100
AcDbEntity
  8
0
 62
     7
 48
0.025
370
    60
100
AcDbLine
 10
794.7068690776972
 20
429.560262944206
 30
0.0
 11
793.7068690776972
 21
429.560262944206
 31
0.0
  0
ARC
  5
2E2
330
1F
100
AcDbEntity
  8
0
 62
     7
370
    60
100
AcDbCircle
 10
793.7068690776972
 20
440.560262944206
 30
0.0
 40
1.0
100
AcDbArc
 50
0.0
 51
90.00000300000002
  0
DIMENSION
  5
2E4
330
1F
100
AcDbEntity
  8
0
370
    25
100
AcDbDimension
  2
*D7
 10
1573.706869077697
 20
479.6261676956355
 30
0.0
 11
1160.206869077697
 21
491.6261676956355
 31
0.0
 70
    32
 71
     5
 41
2.5
 42
826.9999999999999
  3
ISO-25
100
AcDbAlignedDimension
 13
746.7068690776972
 23
299.2059689095667
 33
0.0
 14
1573.706869077697
 24
299.2059689095667
 34
0.0
100
AcDbRotatedDimension
1001
ACAD
1000
DSTYLE
1002
{
1070
    41
1040
10.0
1070
   140
1040
14.0
1070
   147
1040
5.0
1070
   176
1070
     7
1070
   177
1070
     7
1002
}
  0
LINE
  5
307
330
1F
100
AcDbEntity
  8
0
  6
DASHDOT
 62
     7
370
    60
100
AcDbLine
 10
567.6905264996205
 20
297.560262944206
 30
0.0
 11
528.6905264996205
 21
297.560262944206
 31
0.0
  0
LINE
  5
308
330
1F
100
AcDbEntity
  8
0
  6
DASHDOT
 62
     7
370
    25
100
AcDbLine
 10
548.1905264996205
 20
317.060262944206
 30
0.0
 11
548.1905264996205
 21
278.060262944206
 31
0.0
  0
LINE
  5
309
330
1F
100
AcDbEntity
  8
0
  6
DASHDOT
 62
     7
 48
0.2015
370
    25
100
AcDbLine
 10
586.2205254996205
 20
267.560262944206
 30
0.0
 11
578.1605254996206
 21
267.560262944206
 31
0.0
  0
LINE
  5
30A
330
1F
100
AcDbEntity
  8
0
  6
DASHDOT
 62
     7
 48
0.2015
370
    25
100
AcDbLine
 10
582.1905264996205
 20
271.590261944206
 30
0.0
 11
582.1905264996205
 21
263.530263944206
 31
0.0
  0
LINE
  5
30B
330
1F
100
AcDbEntity
  8
0
  6
DASHDOT
 62
     7
 48
0.2015
370
    25
100
AcDbLine
 10
518.2205274996205
 20
267.560262944206
 30
0.0
 11
510.1605274996206
 21
267.560262944206
 31
0.0
  0
LINE
  5
30C
330
1F
100
AcDbEntity
  8
0
  6
DASHDOT
 62
     7
 48
0.2015
370
    25
100
AcDbLine
 10
514.1905264996205
 20
271.590261944206
 30
0.0
 11
514.1905264996205
 21
263.530263944206
 31
0.0
  0
CIRCLE
  5
30E
330
1F
100
AcDbEntity
  8
0
 62
     7
370
    60
100
AcDbCircle
 10
548.1905264996205
 20
297.560262944206
 30
0.0
 40
9.5
  0
LINE
  5
30F
330
1F
100
AcDbEntity
  8
0
 62
     7
 48
0.25
370
    60
100
AcDbLine
 10
563.1905244996206
 20
292.560262944206
 30
0.0
 11
563.1905244996206
 21
302.560262944206
 31
0.0
  0
LINE
  5
310
330
1F
100
AcDbEntity
  8
0
 62
     7
 48
0.25
370
    60
100
AcDbLine
 10
569.1905244996206
 20
292.560262944206
 30
0.0
 11
569.1905244996206
 21
302.560262944206
 31
0.0
  0
LINE
  5
311
330
1F
100
AcDbEntity
  8
0
 62
     7
 48
0.15
370
    60
100
AcDbLine
 10
563.1905244996206
 20
292.560262944206
 30
0.0
 11
569.1905244996206
 21
292.560262944206
 31
0.0
  0
LINE
  5
312
330
1F
100
AcDbEntity
  8
0
 62
     7
 48
0.15
370
    60
100
AcDbLine
 10
563.1905244996206
 20
302.560262944206
 30
0.0
 11
569.1905244996206
 21
302.560262944206
 31
0.0
  0
LINE
  5
313
330
1F
100
AcDbEntity
  8
0
 62
     7
370
    60
100
AcDbLine
 10
500.1905264996205
 20
285.060361944206
 30
0.0
 11
500.1905264996205
 21
317.560262944206
 31
0.0
  0
LINE
  5
314
330
1F
100
AcDbEntity
  8
0
 62
     7
 48
0.112507
370
    60
100
AcDbLine
 10
500.1905264996205
 20
277.560262944206
 30
0.0
 11
500.1905264996205
 21
282.060537944206
 31
0.0
  0
LINE
  5
315
330
1F
100
AcDbEntity
  8
0
 62
     7
370
    60
100
AcDbLine
 10
500.1905264996205
 20
317.560262944206
 30
0.0
 11
588.6905264996205
 21
317.560262944206
 31
0.0
  0
LINE
  5
316
330
1F
100
AcDbEntity
  8
0
 62
     7
370
    60
100
AcDbLine
 10
500.1905264996205
 20
277.560262944206
 30
0.0
 11
588.6905264996205
 21
277.560262944206
 31
0.0
  0
SPLINE
  5
317
330
1F
100
AcDbEntity
  8
0
 62
     7
370
    60
100
AcDbSpline
210
0.0
220
0.0
230
1.0
 70
     8
 71
     5
 72
    12
 73
     6
 74
     0
 42
0.0
 43
0.0
 40
0.0
 40
0.0
 40
0.0
 40
0.0
 40
0.0
 40
0.0
 40
3.445696778529878
 40
3.445696778529878
 40
3.445696778529878
 40
3.445696778529878
 40
3.445696778529878
 40
3.445696778529878
 10
590.8905264996206
 20
297.5602629442063
 30
0.0
 10
590.4530069663865
 20
297.7747995908366
 30
0.0
 10
590.0118164934288
 20
297.9818111042586
 30
0.0
 10
589.5693197497426
 20
298.1858257998637
 30
0.0
 10
589.1281043411177
 20
298.3927139294923
 30
0.0
 10
588.6905264996205
 20
298.6069850781372
 30
0.0
  0
SPLINE
  5
318
330
1F
100
AcDbEntity
  8
0
 62
     7
370
    60
100
AcDbSpline
210
0.0
220
0.0
230
1.0
 70
     8
 71
     5
 72
    12
 73
     6
 74
     0
 42
0.0
 43
0.0
 40
0.0
 40
0.0
 40
0.0
 40
0.0
 40
0.0
 40
0.0
 40
3.445696778529845
 40
3.445696778529845
 40
3.445696778529845
 40
3.445696778529845
 40
3.445696778529845
 40
3.445696778529845
 10
590.8905264996206
 20
297.5602629442066
 30
0.0
 10
590.4530069663829
 20
297.3457262975836
 30
0.0
 10
590.0118164934249
 20
297.138714784164
 30
0.0
 10
589.5693197497378
 20
296.9347000885578
 30
0.0
 10
589.1281043411147
 20
296.7278119589266
 30
0.0
 10
588.6905264996205
 20
296.5135408102756
 30
0.0
  0
SPLINE
  5
319
330
1F
100
AcDbEntity
  8
0
 62
     7
370
    60
100
AcDbSpline
210
0.0
220
0.0
230
1.0
 70
     8
 71
     5
 72
    12
 73
     6
 74
     0
 42
0.0
 43
0.0
 40
0.0
 40
0.0
 40
0.0
 40
0.0
 40
0.0
 40
0.0
 40
3.115543419298263
 40
3.115543419298263
 40
3.115543419298263
 40
3.115543419298263
 40
3.115543419298263
 40
3.115543419298263
 10
590.6821407586422
 20
295.3688830445167
 30
0.0
 10
590.2851720673173
 20
295.1783086186066
 30
0.0
 10
589.8857232079479
 20
294.9930018222459
 30
0.0
 10
589.4855689803477
 20
294.8094339169593
 30
0.0
 10
589.0865948433054
 20
294.6233857764876
 30
0.0
 10
588.6905264996205
 20
294.4315659461332
 30
0.0
  0
SPLINE
  5
31A
330
1F
100
AcDbEntity
  8
0
 62
     7
370
    60
100
AcDbSpline
210
0.0
220
0.0
230
1.0
 70
     8
 71
     5
 72
    12
 73
     6
 74
     0
 42
0.0
 43
0.0
 40
0.0
 40
0.0
 40
0.0
 40
0.0
 40
0.0
 40
0.0
 40
2.77677747073676
 40
2.77677747073676
 40
2.77677747073676
 40
2.77677747073676
 40
2.77677747073676
 40
2.77677747073676
 10
590.4691926569425
 20
293.2031124420292
 30
0.0
 10
590.1139842821265
 20
293.0377377324912
 30
0.0
 10
589.7572448422753
 20
292.875765062493
 30
0.0
 10
589.4002337561143
 20
292.7146161272401
 30
0.0
 10
589.0442600596734
 20
292.5514146534297
 30
0.0
 10
588.6905264996205
 20
292.3838730593496
 30
0.0
  0
ARC
  5
31B
330
1F
100
AcDbEntity
  8
0
 62
     7
370
    60
100
AcDbCircle
 10
643.0585534996205
 20
170.324422944206
 30
0.0
 40
131.804163
100
AcDbArc
 50
113.621536
 51
114.361423
  0
ARC
  5
31C
330
1F
100
AcDbEntity
  8
0
 62
     7
370
    60
100
AcDbCircle
 10
636.5869804996205
 20
177.846731944206
 30
0.0
 40
120.556723
100
AcDbArc
 50
112.729964
 51
113.409144
  0
ARC
  5
31D
330
1F
100
AcDbEntity
  8
0
 62
     7
370
    60
100
AcDbCircle
 10
628.4340794996206
 20
189.416677944206
 30
0.0
 40
105.058517
100
AcDbArc
 50
111.611561
 51
112.228396
  0
LINE
  5
31E
330
1F
100
AcDbEntity
  8
0
 62
     7
 48
0.013882
370
    60
100
AcDbLine
 10
589.4399774996206
 20
285.254873944206
 30
0.0
 11
588.9197744996205
 21
285.060674944206
 31
0.0
  0
LINE
  5
31F
330
1F
100
AcDbEntity
  8
0
 62
     7
 48
0.010602
370
    60
100
AcDbLine
 10
589.0915884996206
 20
311.564618944206
 30
0.0
 11
588.6905264996205
 21
311.702390944206
 31
0.0
  0
LINE
  5
320
330
1F
100
AcDbEntity
  8
0
 62
     7
 48
0.02001
370
    60
100
AcDbLine
 10
589.4399804996206
 20
309.865651944206
 30
0.0
 11
588.6905264996205
 21
310.146657944206
 31
0.0
  0
ARC
  5
321
330
1F
100
AcDbEntity
  8
0
 62
     7
370
    60
100
AcDbCircle
 10
628.4341944996205
 20
405.704133944206
 30
0.0
 40
105.058817
100
AcDbArc
 50
247.771604
 51
248.388439
  0
ARC
  5
322
330
1F
100
AcDbEntity
  8
0
 62
     7
370
    60
100
AcDbCircle
 10
636.5869804996205
 20
417.273793944206
 30
0.0
 40
120.556726
100
AcDbArc
 50
246.590856
 51
247.270036
  0
ARC
  5
323
330
1F
100
AcDbEntity
  8
0
 62
     7
370
    60
100
AcDbCircle
 10
643.0585534996205
 20
424.796098944206
 30
0.0
 40
131.804163
100
AcDbArc
 50
245.638577
 51
246.378464
  0
SPLINE
  5
324
330
1F
100
AcDbEntity
  8
0
 62
     7
370
    60
100
AcDbSpline
210
0.0
220
0.0
230
1.0
 70
     8
 71
     5
 72
    12
 73
     6
 74
     0
 42
0.0
 43
0.0
 40
0.0
 40
0.0
 40
0.0
 40
0.0
 40
0.0
 40
0.0
 40
2.776777471229548
 40
2.776777471229548
 40
2.776777471229548
 40
2.776777471229548
 40
2.776777471229548
 40
2.776777471229548
 10
590.4691926572601
 20
301.9174134462606
 30
0.0
 10
590.1139842823836
 20
302.0827881558332
 30
0.0
 10
589.7572448424692
 20
302.2447608258615
 30
0.0
 10
589.4002337562441
 20
302.4059097611404
 30
0.0
 10
589.0442600597386
 20
302.5691112349767
 30
0.0
 10
588.6905264996205
 20
302.7366528290815
 30
0.0
  0
SPLINE
  5
325
330
1F
100
AcDbEntity
  8
0
 62
     7
370
    60
100
AcDbSpline
210
0.0
220
0.0
230
1.0
 70
     8
 71
     5
 72
    12
 73
     6
 74
     0
 42
0.0
 43
0.0
 40
0.0
 40
0.0
 40
0.0
 40
0.0
 40
0.0
 40
0.0
 40
3.115545081627175
 40
3.115545081627175
 40
3.115545081627175
 40
3.115545081627175
 40
3.115545081627175
 40
3.115545081627175
 10
590.6821418176922
 20
299.7516423354962
 30
0.0
 10
590.2851729198564
 20
299.942216874337
 30
0.0
 10
589.8857238484725
 20
300.1275237723615
 30
0.0
 10
589.4855694061047
 20
300.3110917729449
 30
0.0
 10
589.0865950546344
 20
300.4971400096023
 30
0.0
 10
588.6905264996205
 20
300.6889599422985
 30
0.0
  0
ARC
  5
326
330
1F
100
AcDbEntity
  8
0
 62
     7
370
    60
100
AcDbCircle
 10
548.1905264996205
 20
297.560262944206
 30
0.0
 40
15.0
100
AcDbArc
 50
303.555791
 51
236.444214
  0
ARC
  5
327
330
1F
100
AcDbEntity
  8
0
 62
     7
370
    60
100
AcDbCircle
 10
548.1905264996205
 20
297.560262944206
 30
0.0
 40
13.0
100
AcDbArc
 50
285.938845
 51
254.061157
  0
LINE
  5
328
330
1F
100
AcDbEntity
  8
0
 62
     7
 48
0.062041
370
    60
100
AcDbLine
 10
590.8905274996206
 20
299.859891944206
 30
0.0
 11
588.6905264996205
 21
298.711652944206
 31
0.0
  0
LINE
  5
329
330
1F
100
AcDbEntity
  8
0
 62
     7
 48
0.002617
370
    60
100
AcDbLine
 10
588.6905264996205
 20
298.711652944206
 30
0.0
 11
588.6905264996205
 21
298.606984944206
 31
0.0
  0
LINE
  5
32A
330
1F
100
AcDbEntity
  8
0
 62
     7
 48
0.062077
370
    60
100
AcDbLine
 10
590.8905274996206
 20
297.560262944206
 30
0.0
 11
588.6905264996205
 21
298.711652944206
 31
0.0
  0
LINE
  5
32B
330
1F
100
AcDbEntity
  8
0
 62
     7
 48
0.05749
370
    60
100
AcDbLine
 10
590.8905274996206
 20
299.859792944206
 30
0.0
 11
590.8905274996206
 21
297.560178944206
 31
0.0
  0
LINE
  5
32C
330
1F
100
AcDbEntity
  8
0
 62
     7
 48
0.062077
370
    60
100
AcDbLine
 10
590.8905274996206
 20
297.560262944206
 30
0.0
 11
588.6905264996205
 21
296.408872944206
 31
0.0
  0
LINE
  5
32D
330
1F
100
AcDbEntity
  8
0
 62
     7
 48
0.002617
370
    60
100
AcDbLine
 10
588.6905264996205
 20
296.408872944206
 30
0.0
 11
588.6905264996205
 21
296.513540944206
 31
0.0
  0
LINE
  5
32E
330
1F
100
AcDbEntity
  8
0
 62
     7
 48
0.062041
370
    60
100
AcDbLine
 10
590.8905274996206
 20
295.260633944206
 30
0.0
 11
588.6905264996205
 21
296.408872944206
 31
0.0
  0
LINE
  5
32F
330
1F
100
AcDbEntity
  8
0
 62
     7
 48
0.057491
370
    60
100
AcDbLine
 10
590.8905274996206
 20
297.560178944206
 30
0.0
 11
590.8905274996206
 21
295.260541944206
 31
0.0
  0
LINE
  5
330
330
1F
100
AcDbEntity
  8
0
 62
     7
 48
0.061968
370
    60
100
AcDbLine
 10
590.8905274996206
 20
295.260633944206
 30
0.0
 11
588.6905264996205
 21
294.118703944206
 31
0.0
  0
LINE
  5
331
330
1F
100
AcDbEntity
  8
0
 62
     7
 48
0.007822
370
    60
100
AcDbLine
 10
588.6905264996205
 20
294.118703944206
 30
0.0
 11
588.6905264996205
 21
294.431569944206
 31
0.0
  0
LINE
  5
332
330
1F
100
AcDbEntity
  8
0
 62
     7
 48
0.06186
370
    60
100
AcDbLine
 10
590.8905274996206
 20
292.986203944206
 30
0.0
 11
588.6905264996205
 21
294.118703944206
 31
0.0
  0
LINE
  5
333
330
1F
100
AcDbEntity
  8
0
 62
     7
 48
0.056862
370
    60
100
AcDbLine
 10
590.8905274996206
 20
295.260541944206
 30
0.0
 11
590.8905274996206
 21
292.986074944206
 31
0.0
  0
LINE
  5
334
330
1F
100
AcDbEntity
  8
0
 62
     7
 48
0.061717
370
    60
100
AcDbLine
 10
590.8905274996206
 20
292.986203944206
 30
0.0
 11
588.6905264996205
 21
291.866246944206
 31
0.0
  0
LINE
  5
335
330
1F
100
AcDbEntity
  8
0
 62
     7
 48
0.012941
370
    60
100
AcDbLine
 10
588.6905264996205
 20
291.866246944206
 30
0.0
 11
588.6905264996205
 21
292.383878944206
 31
0.0
  0
LINE
  5
336
330
1F
100
AcDbEntity
  8
0
 62
     7
 48
0.061541
370
    60
100
AcDbLine
 10
590.8905274996206
 20
290.761892944206
 30
0.0
 11
588.6905264996205
 21
291.866246944206
 31
0.0
  0
LINE
  5
337
330
1F
100
AcDbEntity
  8
0
 62
     7
 48
0.055608
370
    60
100
AcDbLine
 10
590.8905274996206
 20
292.986074944206
 30
0.0
 11
590.8905274996206
 21
290.761754944206
 31
0.0
  0
LINE
  5
338
330
1F
100
AcDbEntity
  8
0
 62
     7
 48
0.061333
370
    60
100
AcDbLine
 10
590.8905274996206
 20
290.761892944206
 30
0.0
 11
588.6905264996205
 21
289.676168944206
 31
0.0
  0
LINE
  5
339
330
1F
100
AcDbEntity
  8
0
 62
     7
 48
0.017918
370
    60
100
AcDbLine
 10
588.6905264996205
 20
289.676168944206
 30
0.0
 11
588.6905264996205
 21
290.392904944206
 31
0.0
  0
LINE
  5
33A
330
1F
100
AcDbEntity
  8
0
 62
     7
 48
0.061096
370
    60
100
AcDbLine
 10
590.8905274996206
 20
288.612058944206
 30
0.0
 11
588.6905264996205
 21
289.676168944206
 31
0.0
  0
LINE
  5
33B
330
1F
100
AcDbEntity
  8
0
 62
     7
 48
0.053744
370
    60
100
AcDbLine
 10
590.8905274996206
 20
290.761754944206
 30
0.0
 11
590.8905274996206
 21
288.611982944206
 31
0.0
  0
LINE
  5
33C
330
1F
100
AcDbEntity
  8
0
 62
     7
 48
0.060831
370
    60
100
AcDbLine
 10
590.8905274996206
 20
288.612058944206
 30
0.0
 11
588.6905264996205
 21
287.572469944206
 31
0.0
  0
LINE
  5
33D
330
1F
100
AcDbEntity
  8
0
 62
     7
 48
0.0227
370
    60
100
AcDbLine
 10
588.6905264996205
 20
287.572469944206
 30
0.0
 11
588.6905264996205
 21
288.480451944206
 31
0.0
  0
LINE
  5
33E
330
1F
100
AcDbEntity
  8
0
 62
     7
 48
0.060542
370
    60
100
AcDbLine
 10
590.8905274996206
 20
286.560262944206
 30
0.0
 11
588.6905264996205
 21
287.572469944206
 31
0.0
  0
LINE
  5
33F
330
1F
100
AcDbEntity
  8
0
 62
     7
 48
0.051293
370
    60
100
AcDbLine
 10
590.8905274996206
 20
288.611982944206
 30
0.0
 11
590.8905274996206
 21
286.560262944206
 31
0.0
  0
LINE
  5
340
330
1F
100
AcDbEntity
  8
0
 62
     7
 48
0.060231
370
    60
100
AcDbLine
 10
590.8905274996206
 20
286.560262944206
 30
0.0
 11
588.6905264996205
 21
285.578206944206
 31
0.0
  0
LINE
  5
341
330
1F
100
AcDbEntity
  8
0
 62
     7
 48
0.027232
370
    60
100
AcDbLine
 10
588.6905264996205
 20
285.578206944206
 30
0.0
 11
588.6905264996205
 21
286.667478944206
 31
0.0
  0
LINE
  5
342
330
1F
100
AcDbEntity
  8
0
 62
     7
 48
0.032721
370
    60
100
AcDbLine
 10
589.8922854996206
 20
285.059690944206
 30
0.0
 11
588.6905264996205
 21
285.578206944206
 31
0.0
  0
LINE
  5
343
330
1F
100
AcDbEntity
  8
0
 62
     7
 48
0.0375
370
    60
100
AcDbLine
 10
590.8905274996206
 20
286.560262944206
 30
0.0
 11
590.8905274996206
 21
285.060262944206
 31
0.0
  0
LINE
  5
344
330
1F
100
AcDbEntity
  8
0
 62
     7
 48
0.003928
370
    60
100
AcDbLine
 10
588.8373924996206
 20
282.059690944206
 30
0.0
 11
588.6905264996205
 21
282.003911944206
 31
0.0
  0
LINE
  5
345
330
1F
100
AcDbEntity
  8
0
 62
     7
 48
0.001394
370
    60
100
AcDbLine
 10
588.6905264996205
 20
282.003911944206
 30
0.0
 11
588.6905264996205
 21
282.059690944206
 31
0.0
  0
LINE
  5
346
330
1F
100
AcDbEntity
  8
0
 62
     7
 48
0.058463
370
    60
100
AcDbLine
 10
590.8905274996206
 20
281.211072944206
 30
0.0
 11
588.6905264996205
 21
282.003911944206
 31
0.0
  0
LINE
  5
347
330
1F
100
AcDbEntity
  8
0
 62
     7
 48
0.02123
370
    60
100
AcDbLine
 10
590.8905274996206
 20
282.060277944206
 30
0.0
 11
590.8905274996206
 21
281.211072944206
 31
0.0
  0
LINE
  5
348
330
1F
100
AcDbEntity
  8
0
 62
     7
 48
0.058092
370
    60
100
AcDbLine
 10
590.8905274996206
 20
281.211072944206
 30
0.0
 11
588.6905264996205
 21
280.463048944206
 31
0.0
  0
LINE
  5
349
330
1F
100
AcDbEntity
  8
0
 62
     7
 48
0.038521
370
    60
100
AcDbLine
 10
588.6905264996205
 20
280.463048944206
 30
0.0
 11
588.6905264996205
 21
282.003904944206
 31
0.0
  0
LINE
  5
34A
330
1F
100
AcDbEntity
  8
0
 62
     7
 48
0.057726
370
    60
100
AcDbLine
 10
590.8905274996206
 20
279.761892944206
 30
0.0
 11
588.6905264996205
 21
280.463048944206
 31
0.0
  0
LINE
  5
34B
330
1F
100
AcDbEntity
  8
0
 62
     7
 48
0.03623
370
    60
100
AcDbLine
 10
590.8905274996206
 20
281.211072944206
 30
0.0
 11
590.8905274996206
 21
279.761892944206
 31
0.0
  0
LINE
  5
34C
330
1F
100
AcDbEntity
  8
0
 62
     7
 48
0.057367
370
    60
100
AcDbLine
 10
590.8905274996206
 20
279.761892944206
 30
0.0
 11
588.6905264996205
 21
279.109510944206
 31
0.0
  0
LINE
  5
34D
330
1F
100
AcDbEntity
  8
0
 62
     7
 48
0.033838
370
    60
100
AcDbLine
 10
588.6905264996205
 20
279.109510944206
 30
0.0
 11
588.6905264996205
 21
280.463048944206
 31
0.0
  0
LINE
  5
34E
330
1F
100
AcDbEntity
  8
0
 62
     7
 48
0.057021
370
    60
100
AcDbLine
 10
590.8905274996206
 20
278.507703944206
 30
0.0
 11
588.6905264996205
 21
279.109510944206
 31
0.0
  0
LINE
  5
34F
330
1F
100
AcDbEntity
  8
0
 62
     7
 48
0.031355
370
    60
100
AcDbLine
 10
590.8905274996206
 20
279.761892944206
 30
0.0
 11
590.8905274996206
 21
278.507703944206
 31
0.0
  0
LINE
  5
350
330
1F
100
AcDbEntity
  8
0
 62
     7
 48
0.05669
370
    60
100
AcDbLine
 10
590.8905274996206
 20
278.507703944206
 30
0.0
 11
588.6905264996205
 21
277.958120944206
 31
0.0
  0
LINE
  5
351
330
1F
100
AcDbEntity
  8
0
 62
     7
 48
0.028785
370
    60
100
AcDbLine
 10
588.6905264996205
 20
277.958120944206
 30
0.0
 11
588.6905264996205
 21
279.109510944206
 31
0.0
  0
LINE
  5
352
330
1F
100
AcDbEntity
  8
0
 62
     7
 48
0.05638
370
    60
100
AcDbLine
 10
590.8905274996206
 20
277.462262944206
 30
0.0
 11
588.6905264996205
 21
277.958120944206
 31
0.0
  0
LINE
  5
353
330
1F
100
AcDbEntity
  8
0
 62
     7
 48
0.026137
370
    60
100
AcDbLine
 10
590.8905274996206
 20
278.507703944206
 30
0.0
 11
590.8905274996206
 21
277.462224944206
 31
0.0
  0
LINE
  5
354
330
1F
100
AcDbEntity
  8
0
 62
     7
 48
0.056093
370
    60
100
AcDbLine
 10
590.8905274996206
 20
277.462262944206
 30
0.0
 11
588.6905264996205
 21
277.021489944206
 31
0.0
  0
LINE
  5
355
330
1F
100
AcDbEntity
  8
0
 62
     7
 48
0.023416
370
    60
100
AcDbLine
 10
588.6905264996205
 20
277.021489944206
 30
0.0
 11
588.6905264996205
 21
277.958120944206
 31
0.0
  0
LINE
  5
356
330
1F
100
AcDbEntity
  8
0
 62
     7
 48
0.055834
370
    60
100
AcDbLine
 10
590.8905274996206
 20
276.637021944206
 30
0.0
 11
588.6905264996205
 21
277.021489944206
 31
0.0
  0
LINE
  5
357
330
1F
100
AcDbEntity
  8
0
 62
     7
 48
0.02063
370
    60
100
AcDbLine
 10
590.8905274996206
 20
277.462224944206
 30
0.0
 11
590.8905274996206
 21
276.637021944206
 31
0.0
  0
LINE
  5
358
330
1F
100
AcDbEntity
  8
0
 62
     7
 48
0.055605
370
    60
100
AcDbLine
 10
590.8905274996206
 20
276.637021944206
 30
0.0
 11
588.6905264996205
 21
276.309896944206
 31
0.0
  0
LINE
  5
359
330
1F
100
AcDbEntity
  8
0
 62
     7
 48
0.01779
370
    60
100
AcDbLine
 10
588.6905264996205
 20
276.309896944206
 30
0.0
 11
588.6905264996205
 21
277.021489944206
 31
0.0
  0
LINE
  5
35A
330
1F
100
AcDbEntity
  8
0
 62
     7
 48
0.055409
370
    60
100
AcDbLine
 10
590.8905274996206
 20
276.041013944206
 30
0.0
 11
588.6905264996205
 21
276.309896944206
 31
0.0
  0
LINE
  5
35B
330
1F
100
AcDbEntity
  8
0
 62
     7
 48
0.0149
370
    60
100
AcDbLine
 10
590.8905274996206
 20
276.637021944206
 30
0.0
 11
590.8905274996206
 21
276.041013944206
 31
0.0
  0
LINE
  5
35C
330
1F
100
AcDbEntity
  8
0
 62
     7
 48
0.05525
370
    60
100
AcDbLine
 10
590.8905274996206
 20
276.041013944206
 30
0.0
 11
588.6905264996205
 21
275.831121944206
 31
0.0
  0
LINE
  5
35D
330
1F
100
AcDbEntity
  8
0
 62
     7
 48
0.011969
370
    60
100
AcDbLine
 10
588.6905264996205
 20
275.831121944206
 30
0.0
 11
588.6905264996205
 21
276.309888944206
 31
0.0
  0
LINE
  5
35E
330
1F
100
AcDbEntity
  8
0
 62
     7
 48
0.055128
370
    60
100
AcDbLine
 10
590.8905274996206
 20
275.680784944206
 30
0.0
 11
588.6905264996205
 21
275.831121944206
 31
0.0
  0
LINE
  5
35F
330
1F
100
AcDbEntity
  8
0
 62
     7
 48
0.009006
370
    60
100
AcDbLine
 10
590.8905274996206
 20
276.041013944206
 30
0.0
 11
590.8905274996206
 21
275.680784944206
 31
0.0
  0
LINE
  5
360
330
1F
100
AcDbEntity
  8
0
 62
     7
 48
0.055046
370
    60
100
AcDbLine
 10
590.8905274996206
 20
275.680784944206
 30
0.0
 11
588.6905264996205
 21
275.590413944206
 31
0.0
  0
LINE
  5
361
330
1F
100
AcDbEntity
  8
0
 62
     7
 48
0.006017
370
    60
100
AcDbLine
 10
588.6905264996205
 20
275.590413944206
 30
0.0
 11
588.6905264996205
 21
275.831113944206
 31
0.0
  0
LINE
  5
362
330
1F
100
AcDbEntity
  8
0
 62
     7
 48
0.055005
370
    60
100
AcDbLine
 10
590.8905274996206
 20
275.560262944206
 30
0.0
 11
588.6905264996205
 21
275.590413944206
 31
0.0
  0
LINE
  5
363
330
1F
100
AcDbEntity
  8
0
 62
     7
 48
0.003013
370
    60
100
AcDbLine
 10
590.8905274996206
 20
275.680784944206
 30
0.0
 11
590.8905274996206
 21
275.560262944206
 31
0.0
  0
LINE
  5
364
330
1F
100
AcDbEntity
  8
0
 62
     7
 48
0.055005
370
    60
100
AcDbLine
 10
590.8905274996206
 20
319.560262944206
 30
0.0
 11
588.6905264996205
 21
319.530111944206
 31
0.0
  0
LINE
  5
365
330
1F
100
AcDbEntity
  8
0
 62
     7
 48
0.055005
370
    60
100
AcDbLine
 10
590.8905274996206
 20
319.560262944206
 30
0.0
 11
588.6905264996205
 21
319.530111944206
 31
0.0
  0
LINE
  5
366
330
1F
100
AcDbEntity
  8
0
 62
     7
 48
0.006018
370
    60
100
AcDbLine
 10
588.6905264996205
 20
319.530111944206
 30
0.0
 11
588.6905264996205
 21
319.289403944206
 31
0.0
  0
LINE
  5
367
330
1F
100
AcDbEntity
  8
0
 62
     7
 48
0.055046
370
    60
100
AcDbLine
 10
590.8905274996206
 20
319.439740944206
 30
0.0
 11
588.6905264996205
 21
319.530111944206
 31
0.0
  0
LINE
  5
368
330
1F
100
AcDbEntity
  8
0
 62
     7
 48
0.003013
370
    60
100
AcDbLine
 10
590.8905274996206
 20
319.560262944206
 30
0.0
 11
590.8905274996206
 21
319.439740944206
 31
0.0
  0
LINE
  5
369
330
1F
100
AcDbEntity
  8
0
 62
     7
 48
0.055128
370
    60
100
AcDbLine
 10
590.8905274996206
 20
319.439740944206
 30
0.0
 11
588.6905264996205
 21
319.289403944206
 31
0.0
  0
LINE
  5
36A
330
1F
100
AcDbEntity
  8
0
 62
     7
 48
0.011969
370
    60
100
AcDbLine
 10
588.6905264996205
 20
319.289403944206
 30
0.0
 11
588.6905264996205
 21
318.810628944206
 31
0.0
  0
LINE
  5
36C
330
1F
100
AcDbEntity
  8
0
 62
     7
 48
0.009006
370
    60
100
AcDbLine
 10
590.8905274996206
 20
319.439740944206
 30
0.0
 11
590.8905274996206
 21
319.079511944206
 31
0.0
  0
LINE
  5
36D
330
1F
100
AcDbEntity
  8
0
 62
     7
 48
0.055409
370
    60
100
AcDbLine
 10
590.8905274996206
 20
319.079511944206
 30
0.0
 11
588.6905264996205
 21
318.810628944206
 31
0.0
  0
LINE
  5
36E
330
1F
100
AcDbEntity
  8
0
 62
     7
 48
0.01779
370
    60
100
AcDbLine
 10
588.6905264996205
 20
318.810628944206
 30
0.0
 11
588.6905264996205
 21
318.099027944206
 31
0.0
  0
LINE
  5
36F
330
1F
100
AcDbEntity
  8
0
 62
     7
 48
0.055605
370
    60
100
AcDbLine
 10
590.8905274996206
 20
318.483503944206
 30
0.0
 11
588.6905264996205
 21
318.810628944206
 31
0.0
  0
LINE
  5
370
330
1F
100
AcDbEntity
  8
0
 62
     7
 48
0.0149
370
    60
100
AcDbLine
 10
590.8905274996206
 20
319.079511944206
 30
0.0
 11
590.8905274996206
 21
318.483495944206
 31
0.0
  0
LINE
  5
371
330
1F
100
AcDbEntity
  8
0
 62
     7
 48
0.055834
370
    60
100
AcDbLine
 10
590.8905274996206
 20
318.483503944206
 30
0.0
 11
588.6905264996205
 21
318.099035944206
 31
0.0
  0
LINE
  5
372
330
1F
100
AcDbEntity
  8
0
 62
     7
 48
0.023416
370
    60
100
AcDbLine
 10
588.6905264996205
 20
318.099035944206
 30
0.0
 11
588.6905264996205
 21
317.162404944206
 31
0.0
  0
LINE
  5
373
330
1F
100
AcDbEntity
  8
0
 62
     7
 48
0.056093
370
    60
100
AcDbLine
 10
590.8905274996206
 20
317.658262944206
 30
0.0
 11
588.6905264996205
 21
318.099035944206
 31
0.0
  0
LINE
  5
374
330
1F
100
AcDbEntity
  8
0
 62
     7
 48
0.020632
370
    60
100
AcDbLine
 10
590.8905274996206
 20
318.483495944206
 30
0.0
 11
590.8905274996206
 21
317.658223944206
 31
0.0
  0
LINE
  5
375
330
1F
100
AcDbEntity
  8
0
 62
     7
 48
0.05638
370
    60
100
AcDbLine
 10
590.8905274996206
 20
317.658262944206
 30
0.0
 11
588.6905264996205
 21
317.162404944206
 31
0.0
  0
LINE
  5
376
330
1F
100
AcDbEntity
  8
0
 62
     7
 48
0.028785
370
    60
100
AcDbLine
 10
588.6905264996205
 20
317.162404944206
 30
0.0
 11
588.6905264996205
 21
316.011014944206
 31
0.0
  0
LINE
  5
377
330
1F
100
AcDbEntity
  8
0
 62
     7
 48
0.05669
370
    60
100
AcDbLine
 10
590.8905274996206
 20
316.612821944206
 30
0.0
 11
588.6905264996205
 21
317.162404944206
 31
0.0
  0
LINE
  5
378
330
1F
100
AcDbEntity
  8
0
 62
     7
 48
0.026135
370
    60
100
AcDbLine
 10
590.8905274996206
 20
317.658223944206
 30
0.0
 11
590.8905274996206
 21
316.612821944206
 31
0.0
  0
LINE
  5
379
330
1F
100
AcDbEntity
  8
0
 62
     7
 48
0.057021
370
    60
100
AcDbLine
 10
590.8905274996206
 20
316.612821944206
 30
0.0
 11
588.6905264996205
 21
316.011014944206
 31
0.0
  0
LINE
  5
37A
330
1F
100
AcDbEntity
  8
0
 62
     7
 48
0.033838
370
    60
100
AcDbLine
 10
588.6905264996205
 20
316.011014944206
 30
0.0
 11
588.6905264996205
 21
314.657476944206
 31
0.0
  0
LINE
  5
37B
330
1F
100
AcDbEntity
  8
0
 62
     7
 48
0.057367
370
    60
100
AcDbLine
 10
590.8905274996206
 20
315.358632944206
 30
0.0
 11
588.6905264996205
 21
316.011014944206
 31
0.0
  0
LINE
  5
37C
330
1F
100
AcDbEntity
  8
0
 62
     7
 48
0.031355
370
    60
100
AcDbLine
 10
590.8905274996206
 20
316.612821944206
 30
0.0
 11
590.8905274996206
 21
315.358632944206
 31
0.0
  0
LINE
  5
37D
330
1F
100
AcDbEntity
  8
0
 62
     7
 48
0.057726
370
    60
100
AcDbLine
 10
590.8905274996206
 20
315.358632944206
 30
0.0
 11
588.6905264996205
 21
314.657476944206
 31
0.0
  0
LINE
  5
37E
330
1F
100
AcDbEntity
  8
0
 62
     7
 48
0.038521
370
    60
100
AcDbLine
 10
588.6905264996205
 20
314.657476944206
 30
0.0
 11
588.6905264996205
 21
313.116620944206
 31
0.0
  0
LINE
  5
37F
330
1F
100
AcDbEntity
  8
0
 62
     7
 48
0.058092
370
    60
100
AcDbLine
 10
590.8905274996206
 20
313.909452944206
 30
0.0
 11
588.6905264996205
 21
314.657476944206
 31
0.0
  0
LINE
  5
380
330
1F
100
AcDbEntity
  8
0
 62
     7
 48
0.03623
370
    60
100
AcDbLine
 10
590.8905274996206
 20
315.358632944206
 30
0.0
 11
590.8905274996206
 21
313.909452944206
 31
0.0
  0
LINE
  5
381
330
1F
100
AcDbEntity
  8
0
 62
     7
 48
0.058463
370
    60
100
AcDbLine
 10
590.8905274996206
 20
313.909452944206
 30
0.0
 11
588.6905264996205
 21
313.116613944206
 31
0.0
  0
LINE
  5
382
330
1F
100
AcDbEntity
  8
0
 62
     7
 48
0.035355
370
    60
100
AcDbLine
 10
588.6905264996205
 20
313.116613944206
 30
0.0
 11
588.6905264996205
 21
311.702398944206
 31
0.0
  0
LINE
  5
383
330
1F
100
AcDbEntity
  8
0
 62
     7
 48
0.058833
370
    60
100
AcDbLine
 10
590.8905274996206
 20
312.281133944206
 30
0.0
 11
588.6905264996205
 21
313.116613944206
 31
0.0
  0
LINE
  5
384
330
1F
100
AcDbEntity
  8
0
 62
     7
 48
0.040708
370
    60
100
AcDbLine
 10
590.8905274996206
 20
313.909452944206
 30
0.0
 11
590.8905274996206
 21
312.281133944206
 31
0.0
  0
LINE
  5
385
330
1F
100
AcDbEntity
  8
0
 62
     7
 48
0.059198
370
    60
100
AcDbLine
 10
590.8905274996206
 20
312.281133944206
 30
0.0
 11
588.6905264996205
 21
311.405309944206
 31
0.0
  0
LINE
  5
386
330
1F
100
AcDbEntity
  8
0
 62
     7
 48
0.031466
370
    60
100
AcDbLine
 10
588.6905264996205
 20
311.405309944206
 30
0.0
 11
588.6905264996205
 21
310.146673944206
 31
0.0
  0
LINE
  5
387
330
1F
100
AcDbEntity
  8
0
 62
     7
 48
0.059556
370
    60
100
AcDbLine
 10
590.8905274996206
 20
310.491536944206
 30
0.0
 11
588.6905264996205
 21
311.405309944206
 31
0.0
  0
LINE
  5
388
330
1F
100
AcDbEntity
  8
0
 62
     7
 48
0.04474
370
    60
100
AcDbLine
 10
590.8905274996206
 20
312.281133944206
 30
0.0
 11
590.8905274996206
 21
310.491536944206
 31
0.0
  0
LINE
  5
389
330
1F
100
AcDbEntity
  8
0
 62
     7
 48
0.059901
370
    60
100
AcDbLine
 10
590.8905274996206
 20
310.491536944206
 30
0.0
 11
588.6905264996205
 21
309.542318944206
 31
0.0
  0
LINE
  5
38A
330
1F
100
AcDbEntity
  8
0
 62
     7
 48
0.027232
370
    60
100
AcDbLine
 10
588.6905264996205
 20
309.542318944206
 30
0.0
 11
588.6905264996205
 21
308.453046944206
 31
0.0
  0
LINE
  5
38B
330
1F
100
AcDbEntity
  8
0
 62
     7
 48
0.060231
370
    60
100
AcDbLine
 10
590.8905274996206
 20
308.560262944206
 30
0.0
 11
588.6905264996205
 21
309.542318944206
 31
0.0
  0
LINE
  5
38C
330
1F
100
AcDbEntity
  8
0
 62
     7
 48
0.048282
370
    60
100
AcDbLine
 10
590.8905274996206
 20
310.491536944206
 30
0.0
 11
590.8905274996206
 21
308.560262944206
 31
0.0
  0
LINE
  5
38D
330
1F
100
AcDbEntity
  8
0
 62
     7
 48
0.060542
370
    60
100
AcDbLine
 10
590.8905274996206
 20
308.560262944206
 30
0.0
 11
588.6905264996205
 21
307.548055944206
 31
0.0
  0
LINE
  5
38E
330
1F
100
AcDbEntity
  8
0
 62
     7
 48
0.0227
370
    60
100
AcDbLine
 10
588.6905264996205
 20
307.548055944206
 30
0.0
 11
588.6905264996205
 21
306.640073944206
 31
0.0
  0
LINE
  5
38F
330
1F
100
AcDbEntity
  8
0
 62
     7
 48
0.060831
370
    60
100
AcDbLine
 10
590.8905274996206
 20
306.508466944206
 30
0.0
 11
588.6905264996205
 21
307.548055944206
 31
0.0
  0
LINE
  5
390
330
1F
100
AcDbEntity
  8
0
 62
     7
 48
0.051297
370
    60
100
AcDbLine
 10
590.8905274996206
 20
308.560262944206
 30
0.0
 11
590.8905274996206
 21
306.508390944206
 31
0.0
  0
LINE
  5
391
330
1F
100
AcDbEntity
  8
0
 62
     7
 48
0.061096
370
    60
100
AcDbLine
 10
590.8905274996206
 20
306.508466944206
 30
0.0
 11
588.6905264996205
 21
305.444356944206
 31
0.0
  0
LINE
  5
392
330
1F
100
AcDbEntity
  8
0
 62
     7
 48
0.017918
370
    60
100
AcDbLine
 10
588.6905264996205
 20
305.444356944206
 30
0.0
 11
588.6905264996205
 21
304.727620944206
 31
0.0
  0
LINE
  5
393
330
1F
100
AcDbEntity
  8
0
 62
     7
 48
0.061333
370
    60
100
AcDbLine
 10
590.8905274996206
 20
304.358632944206
 30
0.0
 11
588.6905264996205
 21
305.444356944206
 31
0.0
  0
LINE
  5
394
330
1F
100
AcDbEntity
  8
0
 62
     7
 48
0.053747
370
    60
100
AcDbLine
 10
590.8905274996206
 20
306.508390944206
 30
0.0
 11
590.8905274996206
 21
304.358503944206
 31
0.0
  0
LINE
  5
395
330
1F
100
AcDbEntity
  8
0
 62
     7
 48
0.061541
370
    60
100
AcDbLine
 10
590.8905274996206
 20
304.358632944206
 30
0.0
 11
588.6905264996205
 21
303.254278944206
 31
0.0
  0
LINE
  5
396
330
1F
100
AcDbEntity
  8
0
 62
     7
 48
0.012941
370
    60
100
AcDbLine
 10
588.6905264996205
 20
303.254278944206
 30
0.0
 11
588.6905264996205
 21
302.736646944206
 31
0.0
  0
LINE
  5
397
330
1F
100
AcDbEntity
  8
0
 62
     7
 48
0.061717
370
    60
100
AcDbLine
 10
590.8905274996206
 20
302.134321944206
 30
0.0
 11
588.6905264996205
 21
303.254278944206
 31
0.0
  0
LINE
  5
398
330
1F
100
AcDbEntity
  8
0
 62
     7
 48
0.055608
370
    60
100
AcDbLine
 10
590.8905274996206
 20
304.358503944206
 30
0.0
 11
590.8905274996206
 21
302.134191944206
 31
0.0
  0
LINE
  5
399
330
1F
100
AcDbEntity
  8
0
 62
     7
 48
0.06186
370
    60
100
AcDbLine
 10
590.8905274996206
 20
302.134321944206
 30
0.0
 11
588.6905264996205
 21
301.001821944206
 31
0.0
  0
LINE
  5
39A
330
1F
100
AcDbEntity
  8
0
 62
     7
 48
0.007822
370
    60
100
AcDbLine
 10
588.6905264996205
 20
301.001821944206
 30
0.0
 11
588.6905264996205
 21
300.688955944206
 31
0.0
  0
LINE
  5
39B
330
1F
100
AcDbEntity
  8
0
 62
     7
 48
0.061968
370
    60
100
AcDbLine
 10
590.8905274996206
 20
299.859891944206
 30
0.0
 11
588.6905264996205
 21
301.001821944206
 31
0.0
  0
LINE
  5
39C
330
1F
100
AcDbEntity
  8
0
 62
     7
 48
0.05686
370
    60
100
AcDbLine
 10
590.8905274996206
 20
302.134191944206
 30
0.0
 11
590.8905274996206
 21
299.859792944206
 31
0.0
  0
LINE
  5
39D
330
1F
100
AcDbEntity
  8
0
 62
     7
 48
0.1325
370
    60
100
AcDbLine
 10
590.8905274996206
 20
319.560262944206
 30
0.0
 11
596.1905264996205
 21
319.560262944206
 31
0.0
  0
LINE
  5
39E
330
1F
100
AcDbEntity
  8
0
 62
     7
 48
0.1325
370
    60
100
AcDbLine
 10
590.8905274996206
 20
275.560262944206
 30
0.0
 11
596.1905264996205
 21
275.560262944206
 31
0.0
  0
LINE
  5
39F
330
1F
100
AcDbEntity
  8
0
 62
     7
370
    60
100
AcDbLine
 10
506.1905264996205
 20
257.560262944206
 30
0.0
 11
590.1905264996205
 21
257.560262944206
 31
0.0
  0
LINE
  5
3A1
330
1F
100
AcDbEntity
  8
0
 62
     7
 48
0.450239
370
    60
100
AcDbLine
 10
590.1905264996205
 20
275.569837944206
 30
0.0
 11
590.1905264996205
 21
257.560262944206
 31
0.0
  0
LINE
  5
3A2
330
1F
100
AcDbEntity
  8
0
 62
     7
 48
0.5
370
    60
100
AcDbLine
 10
506.1905264996205
 20
257.560262944206
 30
0.0
 11
506.1905264996205
 21
277.560247944206
 31
0.0
  0
CIRCLE
  5
3A4
330
1F
100
AcDbEntity
  8
0
 62
     7
370
    60
100
AcDbCircle
 10
582.1905264996205
 20
267.560262944206
 30
0.0
 40
3.1
  0
CIRCLE
  5
3A5
330
1F
100
AcDbEntity
  8
0
 62
     7
370
    60
100
AcDbCircle
 10
514.1905264996205
 20
267.560262944206
 30
0.0
 40
3.1
  0
LINE
  5
3A6
330
1F
100
AcDbEntity
  8
0
 62
     7
 48
0.27806
370
    60
100
AcDbLine
 10
596.1905264996205
 20
324.045545944206
 30
0.0
 11
596.1905264996205
 21
335.167955944206
 31
0.0
  0
LINE
  5
3A7
330
1F
100
AcDbEntity
  8
0
 62
     7
 48
0.212132
370
    60
100
AcDbLine
 10
596.1905264996205
 20
315.560262944206
 30
0.0
 11
596.1905264996205
 21
324.045545944206
 31
0.0
  0
LINE
  5
3A8
330
1F
100
AcDbEntity
  8
0
 62
     7
370
    60
100
AcDbLine
 10
596.1905264996205
 20
315.560262944206
 30
0.0
 11
596.1905264996205
 21
285.059697944206
 31
0.0
  0
LINE
  5
3A9
330
1F
100
AcDbEntity
  8
0
 62
     7
 48
0.312486
370
    60
100
AcDbLine
 10
596.1905264996205
 20
282.059697944206
 30
0.0
 11
596.1905264996205
 21
269.560262944206
 31
0.0
  0
LINE
  5
3AA
330
1F
100
AcDbEntity
  8
0
 62
     7
 48
0.3
370
    60
100
AcDbLine
 10
596.1905264996205
 20
257.560262944206
 30
0.0
 11
596.1905264996205
 21
269.560262944206
 31
0.0
  0
LINE
  5
3AB
330
1F
100
AcDbEntity
  8
0
 62
     7
 48
0.3
370
    60
100
AcDbLine
 10
598.1905264996205
 20
269.560262944206
 30
0.0
 11
598.1905264996205
 21
257.560262944206
 31
0.0
  0
LINE
  5
3AC
330
1F
100
AcDbEntity
  8
0
 62
     7
370
    60
100
AcDbLine
 10
598.1905264996205
 20
315.560262944206
 30
0.0
 11
598.1905264996205
 21
285.059697944206
 31
0.0
  0
LINE
  5
3AD
330
1F
100
AcDbEntity
  8
0
 62
     7
 48
0.312486
370
    60
100
AcDbLine
 10
598.1905264996205
 20
282.059697944206
 30
0.0
 11
598.1905264996205
 21
269.560262944206
 31
0.0
  0
LINE
  5
3AE
330
1F
100
AcDbEntity
  8
0
 62
     7
 48
0.212116
370
    60
100
AcDbLine
 10
598.1905264996205
 20
324.044919944206
 30
0.0
 11
598.1905264996205
 21
315.560262944206
 31
0.0
  0
LINE
  5
3AF
330
1F
100
AcDbEntity
  8
0
 62
     7
 48
0.314272
370
    60
100
AcDbLine
 10
598.1905264996205
 20
324.045545944206
 30
0.0
 11
598.1905264996205
 21
336.616418944206
 31
0.0
  0
LINE
  5
3B0
330
1F
100
AcDbEntity
  8
0
 62
     7
 48
0.05
370
    60
100
AcDbLine
 10
596.1905264996205
 20
324.045545944206
 30
0.0
 11
598.1905264996205
 21
324.045545944206
 31
0.0
  0
LINE
  5
3B1
330
1F
100
AcDbEntity
  8
0
 62
     7
 48
0.27806
370
    60
100
AcDbLine
 10
500.1905264996205
 20
324.045545944206
 30
0.0
 11
500.1905264996205
 21
335.167947944206
 31
0.0
  0
LINE
  5
3B2
330
1F
100
AcDbEntity
  8
0
 62
     7
 48
0.212132
370
    60
100
AcDbLine
 10
500.1905264996205
 20
315.560262944206
 30
0.0
 11
500.1905264996205
 21
324.045545944206
 31
0.0
  0
LINE
  5
3B3
330
1F
100
AcDbEntity
  8
0
 62
     7
 48
0.312486
370
    60
100
AcDbLine
 10
500.1905264996205
 20
269.560262944206
 30
0.0
 11
500.1905264996205
 21
282.059697944206
 31
0.0
  0
LINE
  5
3B4
330
1F
100
AcDbEntity
  8
0
 62
     7
370
    60
100
AcDbLine
 10
500.1905264996205
 20
285.059697944206
 30
0.0
 11
500.1905264996205
 21
315.560262944206
 31
0.0
  0
LINE
  5
3B5
330
1F
100
AcDbEntity
  8
0
 62
     7
 48
0.3
370
    60
100
AcDbLine
 10
500.1905264996205
 20
257.560262944206
 30
0.0
 11
500.1905264996205
 21
269.560262944206
 31
0.0
  0
LINE
  5
3B6
330
1F
100
AcDbEntity
  8
0
 62
     7
 48
0.314261
370
    60
100
AcDbLine
 10
498.1905264996205
 20
324.045545944206
 30
0.0
 11
498.1905264996205
 21
336.615976944206
 31
0.0
  0
LINE
  5
3B7
330
1F
100
AcDbEntity
  8
0
 62
     7
 48
0.212132
370
    60
100
AcDbLine
 10
498.1905264996205
 20
315.560262944206
 30
0.0
 11
498.1905264996205
 21
324.045545944206
 31
0.0
  0
LINE
  5
3B8
330
1F
100
AcDbEntity
  8
0
 62
     7
370
    60
100
AcDbLine
 10
498.1905264996205
 20
315.560262944206
 30
0.0
 11
498.1905264996205
 21
285.059697944206
 31
0.0
  0
LINE
  5
3B9
330
1F
100
AcDbEntity
  8
0
 62
     7
 48
0.312486
370
    60
100
AcDbLine
 10
498.1905264996205
 20
282.059697944206
 30
0.0
 11
498.1905264996205
 21
269.560262944206
 31
0.0
  0
LINE
  5
3BA
330
1F
100
AcDbEntity
  8
0
 62
     7
 48
0.3
370
    60
100
AcDbLine
 10
498.1905264996205
 20
257.560262944206
 30
0.0
 11
498.1905264996205
 21
269.560262944206
 31
0.0
  0
LINE
  5
3BB
330
1F
100
AcDbEntity
  8
0
 62
     7
 48
0.05
370
    60
100
AcDbLine
 10
500.1905264996205
 20
324.045545944206
 30
0.0
 11
498.1905264996205
 21
324.045545944206
 31
0.0
  0
LINE
  5
3C0
330
1F
100
AcDbEntity
  8
0
 62
     7
 48
0.15
370
    60
100
AcDbLine
 10
506.1905264996205
 20
257.560262944206
 30
0.0
 11
500.1905264996205
 21
257.560262944206
 31
0.0
  0
LINE
  5
3C1
330
1F
100
AcDbEntity
  8
0
 62
     7
 48
0.15
370
    60
100
AcDbLine
 10
596.1905264996205
 20
257.560262944206
 30
0.0
 11
590.1905264996205
 21
257.560262944206
 31
0.0
  0
LINE
  5
3C2
330
1F
100
AcDbEntity
  8
0
 62
     7
 48
0.05
370
    60
100
AcDbLine
 10
596.1905264996205
 20
257.560262944206
 30
0.0
 11
598.1905264996205
 21
257.560262944206
 31
0.0
  0
LINE
  5
3C3
330
1F
100
AcDbEntity
  8
0
 62
     7
 48
0.05
370
    60
100
AcDbLine
 10
498.1905264996205
 20
257.560262944206
 30
0.0
 11
500.1905264996205
 21
257.560262944206
 31
0.0
  0
LINE
  5
3C4
330
1F
100
AcDbEntity
  8
0
 62
     7
 48
0.4
370
    60
100
AcDbLine
 10
598.1905264996205
 20
289.560262944206
 30
0.0
 11
598.1905264996205
 21
305.560262944206
 31
0.0
  0
LINE
  5
3C5
330
1F
100
AcDbEntity
  8
0
 62
     7
 48
0.4
370
    60
100
AcDbLine
 10
608.1905264996205
 20
289.560262944206
 30
0.0
 11
608.1905264996205
 21
305.560262944206
 31
0.0
  0
LINE
  5
3C6
330
1F
100
AcDbEntity
  8
0
 62
     7
 48
0.25
370
    60
100
AcDbLine
 10
598.1905264996205
 20
289.560262944206
 30
0.0
 11
608.1905264996205
 21
289.560262944206
 31
0.0
  0
LINE
  5
3C7
330
1F
100
AcDbEntity
  8
0
 62
     7
 48
0.25
370
    60
100
AcDbLine
 10
598.1905264996205
 20
305.560262944206
 30
0.0
 11
608.1905264996205
 21
305.560262944206
 31
0.0
  0
LINE
  5
3C8
330
1F
100
AcDbEntity
  8
0
 62
     7
370
    60
100
AcDbLine
 10
470.1905264996205
 20
285.060262944206
 30
0.0
 11
626.1905264996205
 21
285.060262944206
 31
0.0
  0
LINE
  5
3C9
330
1F
100
AcDbEntity
  8
0
 62
     7
 48
0.05
370
    60
100
AcDbLine
 10
628.1905264996205
 20
285.060262944206
 30
0.0
 11
626.1905264996205
 21
285.060262944206
 31
0.0
  0
LINE
  5
3CA
330
1F
100
AcDbEntity
  8
0
 62
     7
 48
0.05
370
    60
100
AcDbLine
 10
470.1905264996205
 20
285.060262944206
 30
0.0
 11
468.1905264996205
 21
285.060262944206
 31
0.0
  0
LINE
  5
3CB
330
1F
100
AcDbEntity
  8
0
 62
     7
 48
0.05
370
    60
100
AcDbLine
 10
628.1905264996205
 20
282.060262944206
 30
0.0
 11
626.1905264996205
 21
282.060262944206
 31
0.0
  0
LINE
  5
3CC
330
1F
100
AcDbEntity
  8
0
 62
     7
 48
0.05
370
    60
100
AcDbLine
 10
470.1905264996205
 20
282.060262944206
 30
0.0
 11
468.1905264996205
 21
282.060262944206
 31
0.0
  0
LINE
  5
3CD
330
1F
100
AcDbEntity
  8
0
 62
     7
370
    60
100
AcDbLine
 10
470.1905264996205
 20
282.060262944206
 30
0.0
 11
626.1905264996205
 21
282.060262944206
 31
0.0
  0
LINE
  5
3D0
330
1F
100
AcDbEntity
  8
0
 62
     7
 48
0.075
370
    60
100
AcDbLine
 10
628.1905264996205
 20
285.060262944206
 30
0.0
 11
628.1905264996205
 21
282.060262944206
 31
0.0
  0
LINE
  5
3D1
330
1F
100
AcDbEntity
  8
0
 62
     7
 48
0.075
370
    60
100
AcDbLine
 10
468.1905264996205
 20
285.060262944206
 30
0.0
 11
468.1905264996205
 21
282.060262944206
 31
0.0
  0
LINE
  5
3DA
330
1F
100
AcDbEntity
  8
0
 62
     7
370
    60
100
AcDbLine
 10
497.1905264996205
 20
345.560262944206
 30
0.0
 11
497.1905264996205
 21
429.560262944206
 31
0.0
  0
ARC
  5
3DB
330
1F
100
AcDbEntity
  8
0
 62
     7
370
    60
100
AcDbCircle
 10
506.1903894996206
 20
429.560399944206
 30
0.0
 40
8.999816
100
AcDbArc
 50
89.99912100000002
 51
180.000869
  0
LINE
  5
3DC
330
1F
100
AcDbEntity
  8
0
 62
     7
370
    60
100
AcDbLine
 10
506.1905264996205
 20
438.560262944206
 30
0.0
 11
590.1905264996205
 21
438.560262944206
 31
0.0
  0
ARC
  5
3DD
330
1F
100
AcDbEntity
  8
0
 62
     7
370
    60
100
AcDbCircle
 10
590.1906634996205
 20
429.560399944206
 30
0.0
 40
8.999816
100
AcDbArc
 50
359.99912
 51
90.000877
  0
LINE
  5
3DE
330
1F
100
AcDbEntity
  8
0
 62
     7
370
    60
100
AcDbLine
 10
599.1905264996205
 20
429.560262944206
 30
0.0
 11
599.1905264996205
 21
345.560262944206
 31
0.0
  0
ARC
  5
3DF
330
1F
100
AcDbEntity
  8
0
 62
     7
370
    60
100
AcDbCircle
 10
590.1906634996205
 20
345.560125944206
 30
0.0
 40
8.999816
100
AcDbArc
 50
269.999123
 51
0.000875
  0
LINE
  5
3E0
330
1F
100
AcDbEntity
  8
0
 62
     7
370
    60
100
AcDbLine
 10
590.1905264996205
 20
336.560262944206
 30
0.0
 11
506.1905264996205
 21
336.560262944206
 31
0.0
  0
ARC
  5
3E1
330
1F
100
AcDbEntity
  8
0
 62
     7
370
    60
100
AcDbCircle
 10
506.1903894996206
 20
345.560125944206
 30
0.0
 40
8.999816
100
AcDbArc
 50
179.999117
 51
270.000879
  0
LINE
  5
3E2
330
1F
100
AcDbEntity
  8
0
 62
     7
370
    60
100
AcDbLine
 10
494.1905264996205
 20
429.560262944206
 30
0.0
 11
494.1905264996205
 21
345.560262944206
 31
0.0
  0
ARC
  5
3E3
330
1F
100
AcDbEntity
  8
0
 62
     7
370
    60
100
AcDbCircle
 10
506.1905264996205
 20
429.560262944206
 30
0.0
 40
12.0
100
AcDbArc
 50
90.000003
 51
180.000005
  0
LINE
  5
3E4
330
1F
100
AcDbEntity
  8
0
 62
     7
370
    60
100
AcDbLine
 10
590.1905264996205
 20
441.560262944206
 30
0.0
 11
506.1905264996205
 21
441.560262944206
 31
0.0
  0
ARC
  5
3E5
330
1F
100
AcDbEntity
  8
0
 62
     7
370
    60
100
AcDbCircle
 10
590.1905264996205
 20
429.560262944206
 30
0.0
 40
12.0
100
AcDbArc
 50
0.0
 51
90.000003
  0
LINE
  5
3E6
330
1F
100
AcDbEntity
  8
0
 62
     7
370
    60
100
AcDbLine
 10
602.1905264996205
 20
345.560262944206
 30
0.0
 11
602.1905264996205
 21
429.560262944206
 31
0.0
  0
ARC
  5
3E7
330
1F
100
AcDbEntity
  8
0
 62
     7
370
    60
100
AcDbCircle
 10
590.1905264996205
 20
345.560262944206
 30
0.0
 40
12.0
100
AcDbArc
 50
269.999997
 51
0.0
  0
LINE
  5
3E8
330
1F
100
AcDbEntity
  8
0
 62
     7
370
    60
100
AcDbLine
 10
506.1905264996205
 20
333.560262944206
 30
0.0
 11
590.1905264996205
 21
333.560262944206
 31
0.0
  0
ARC
  5
3E9
330
1F
100
AcDbEntity
  8
0
 62
     7
370
    60
100
AcDbCircle
 10
506.1905264996205
 20
345.560262944206
 30
0.0
 40
12.0
100
AcDbArc
 50
180.000005
 51
269.999997
  0
LINE
  5
3EA
330
1F
100
AcDbEntity
  8
0
 62
     7
370
    60
100
AcDbLine
 10
499.1905264996205
 20
429.560262944206
 30
0.0
 11
499.1905264996205
 21
345.560262944206
 31
0.0
  0
ARC
  5
3EB
330
1F
100
AcDbEntity
  8
0
 62
     7
370
    60
100
AcDbCircle
 10
506.1904194996205
 20
345.560155944206
 30
0.0
 40
6.999857
100
AcDbArc
 50
179.999117
 51
270.000879
  0
LINE
  5
3EC
330
1F
100
AcDbEntity
  8
0
 62
     7
370
    60
100
AcDbLine
 10
506.1905264996205
 20
338.560262944206
 30
0.0
 11
590.1905264996205
 21
338.560262944206
 31
0.0
  0
ARC
  5
3ED
330
1F
100
AcDbEntity
  8
0
 62
     7
370
    60
100
AcDbCircle
 10
590.1906334996205
 20
345.560155944206
 30
0.0
 40
6.999857
100
AcDbArc
 50
269.999116
 51
0.000875
  0
LINE
  5
3EE
330
1F
100
AcDbEntity
  8
0
 62
     7
370
    60
100
AcDbLine
 10
597.1905264996205
 20
345.560262944206
 30
0.0
 11
597.1905264996205
 21
429.560262944206
 31
0.0
  0
ARC
  5
3EF
330
1F
100
AcDbEntity
  8
0
 62
     7
370
    60
100
AcDbCircle
 10
590.1906334996205
 20
429.560369944206
 30
0.0
 40
6.999857
100
AcDbArc
 50
359.999119
 51
90.000877
  0
LINE
  5
3F0
330
1F
100
AcDbEntity
  8
0
 62
     7
370
    60
100
AcDbLine
 10
590.1905264996205
 20
436.560262944206
 30
0.0
 11
506.1905264996205
 21
436.560262944206
 31
0.0
  0
ARC
  5
3F1
330
1F
100
AcDbEntity
  8
0
 62
     7
370
    60
100
AcDbCircle
 10
506.1904194996205
 20
429.560369944206
 30
0.0
 40
6.999857
100
AcDbArc
 50
89.99912100000002
 51
180.000869
  0
DIMENSION
  5
412
330
1F
100
AcDbEntity
  8
0
370
    25
100
AcDbDimension
  2
*D11
 10
602.1905264996205
 20
479.6261676956355
 30
0.0
 11
548.6699143821037
 21
491.6261676956355
 31
0.0
 70
   160
 71
     5
 41
2.5
 42
108.0
  3
ISO-25
100
AcDbAlignedDimension
 13
494.1905264996205
 23
396.390241844222
 33
0.0
 14
602.1905264996205
 24
391.5022624395805
 34
0.0
100
AcDbRotatedDimension
1001
ACAD
1000
DSTYLE
1002
{
1070
    41
1040
10.0
1070
   140
1040
14.0
1070
   147
1040
5.0
1070
   176
1070
     7
1070
   177
1070
     7
1002
}
  0
DIMENSION
  5
440
330
1F
100
AcDbEntity
  8
0
370
    25
100
AcDbDimension
  2
*D14
 10
445.1360159669329
 20
257.560262944206
 30
0.0
 11
433.1360159669329
 21
349.560262944206
 31
0.0
 70
    32
 71
     5
 41
2.5
 42
184.0
  3
ISO-25
100
AcDbAlignedDimension
 13
520.0719247164657
 23
441.560262944206
 33
0.0
 14
530.0124024077303
 24
257.560262944206
 34
0.0
 50
90.0
100
AcDbRotatedDimension
1001
ACAD
1000
DSTYLE
1002
{
1070
    41
1040
10.0
1070
   140
1040
14.0
1070
   147
1040
5.0
1070
   176
1070
     7
1070
   177
1070
     7
1002
}
  0
DIMENSION
  5
462
330
1F
100
AcDbEntity
  8
0
370
    25
100
AcDbDimension
  2
*D20
 10
628.1905264996205
 20
225.3305504877117
 30
0.0
 11
554.7620041379342
 21
237.3305504877117
 31
0.0
 70
   160
 71
     5
 41
2.5
 42
160.0
  3
ISO-25
100
AcDbAlignedDimension
 13
468.1905264996205
 23
283.560262944206
 33
0.0
 14
628.1905264996205
 24
283.560262944206
 34
0.0
100
AcDbRotatedDimension
1001
ACAD
1000
DSTYLE
1002
{
1070
    41
1040
10.0
1070
   140
1040
14.0
1070
   147
1040
5.0
1070
   176
1070
     7
1070
   177
1070
     7
1002
}
  0
VIEWPORT
  5
BB
330
73
100
AcDbEntity
 67
     1
  8
0
100
AcDbViewport
 10
7.8
 20
4.5
 30
0.0
 40
15.64
 41
9.0
 68
     1
 69
     1
 12
6.0
 22
4.5
 13
0.0
 23
0.0
 14
0.5
 24
0.5
 15
0.5
 25
0.5
 16
0.0
 26
0.0
 36
1.0
 17
0.0
 27
0.0
 37
0.0
 42
50.0
 43
0.0
 44
0.0
 45
12.0
 50
0.0
 51
0.0
 72
   100
 90
   557152
  1

281
     0
 71
     1
 74
     0
110
0.0
120
0.0
130
0.0
111
1.0
121
0.0
131
0.0
112
0.0
122
1.0
132
0.0
 79
     0
146
0.0
  0
ENDSEC
  0
SECTION
  2
OBJECTS
  0
DICTIONARY
  5
C
330
0
100
AcDbDictionary
281
     1
  3
ACAD_COLOR
350
6C
  3
ACAD_GROUP
350
D
  3
ACAD_LAYOUT
350
1A
  3
ACAD_MATERIAL
350
6B
  3
ACAD_MLEADERSTYLE
350
4D5
  3
ACAD_MLINESTYLE
350
17
  3
ACAD_PLOTSETTINGS
350
19
  3
ACAD_PLOTSTYLENAME
350
E
  3
ACAD_SCALELIST
350
99
  3
ACAD_TABLESTYLE
350
92
  3
ACDBHEADERROUNDTRIPXREC
350
4D6
  3
AcDbVariableDictionary
350
59
  3
DWGPROPS
350
4D9
  0
DICTIONARY
  5
6C
102
{ACAD_REACTORS
330
C
102
}
330
C
100
AcDbDictionary
281
     1
  0
DICTIONARY
  5
D
102
{ACAD_REACTORS
330
C
102
}
330
C
100
AcDbDictionary
281
     1
  0
DICTIONARY
  5
1A
102
{ACAD_REACTORS
330
C
102
}
330
C
100
AcDbDictionary
281
     1
  3
Layout1
350
74
  3
Layout2
350
4A9
  3
Model
350
22
  0
DICTIONARY
  5
6B
102
{ACAD_REACTORS
330
C
102
}
330
C
100
AcDbDictionary
281
     1
  0
DICTIONARY
  5
4D5
102
{ACAD_REACTORS
330
C
102
}
330
C
100
AcDbDictionary
281
     1
  0
DICTIONARY
  5
17
102
{ACAD_REACTORS
330
C
102
}
330
C
100
AcDbDictionary
281
     1
  3
Standard
350
18
  0
DICTIONARY
  5
19
102
{ACAD_REACTORS
330
C
102
}
330
C
100
AcDbDictionary
281
     1
  0
ACDBDICTIONARYWDFLT
  5
E
102
{ACAD_REACTORS
330
C
102
}
330
C
100
AcDbDictionary
281
     1
  3
Normal
350
F
100
AcDbDictionaryWithDefault
340
F
  0
DICTIONARY
  5
99
102
{ACAD_REACTORS
330
C
102
}
330
C
100
AcDbDictionary
281
     1
  3
A0
350
D5
  3
A1
350
D6
  3
A2
350
D7
  3
A3
350
D8
  3
A4
350
D9
  3
A5
350
DA
  3
A6
350
DB
  3
A7
350
DC
  3
A8
350
DD
  3
A9
350
DE
  3
B0
350
DF
  3
B1
350
E0
  3
B2
350
E1
  3
B3
350
E2
  3
B4
350
E3
  3
B5
350
E4
  3
B6
350
E5
  3
B7
350
E6
  3
B8
350
E7
  3
B9
350
E8
  3
C0
350
E9
  3
C1
350
EA
  3
C2
350
EB
  3
C3
350
EC
  3
C4
350
ED
  3
C5
350
EE
  3
C6
350
EF
  3
C7
350
F0
  3
C8
350
F1
  3
C9
350
F2
  3
D0
350
F3
  3
D1
350
F4
  3
D2
350
F5
  0
DICTIONARY
  5
92
102
{ACAD_REACTORS
330
C
102
}
330
C
100
AcDbDictionary
281
     1
  0
DICTIONARY
  5
4D6
102
{ACAD_REACTORS
330
C
102
}
330
C
100
AcDbDictionary
281
     1
  3
COLORDICT
350
4D7
  3
MATERIALDICT
350
4D8
  0
DICTIONARY
  5
59
102
{ACAD_REACTORS
330
C
102
}
330
C
100
AcDbDictionary
281
     1
  3
CTABLESTYLE
350
98
  3
DIMASSOC
350
5A
  3
HIDETEXT
350
5E
  0
XRECORD
  5
4D9
102
{ACAD_REACTORS
330
C
102
}
330
C
100
AcDbXrecord
280
     1
  1
DWGPROPS COOKIE
  2

  3

  4

  6

  7

  8
BelottiMc
  9

300
=
301
=
302
=
303
=
304
=
305
=
306
=
307
=
308
=
309
=
 40
0.0
 41
2455106.296811505
 42
2455106.338478195
  1

 90
        0
  0
LAYOUT
  5
74
102
{ACAD_REACTORS
330
1A
102
}
330
1A
100
AcDbPlotSettings
  1

  2
ProgeSOFT PDF Wizard
  4
A4
  6

 40
5.926666666666667
 41
6.011333333333317
 42
6.095999999999985
 43
5.926666666666667
 44
210.0
 45
297.0
 46
88.56200000000001
 47
136.531
 48
0.0
 49
0.0
140
0.0
141
0.0
142
1.0
143
1.0
 70
   692
 72
     1
 73
     0
 74
     0
  7

 75
    16
147
1.0
148
4.426666666666668
149
1.5
100
AcDbLayout
  1
Layout1
 70
     1
 71
     1
 10
0.0
 20
0.0
 11
0.0
 21
0.0
 12
0.0
 22
0.0
 32
0.0
 14
0.0
 24
0.0
 34
0.0
 15
0.0
 25
0.0
 35
0.0
146
0.0
 13
0.0
 23
0.0
 33
0.0
 16
1.0
 26
0.0
 36
0.0
 17
0.0
 27
1.0
 37
0.0
 76
     0
330
D1
331
4D4
1001
PROGE_PRINT_SETTINGS
1070
    73
1070
     1
  0
LAYOUT
  5
4A9
102
{ACAD_REACTORS
330
1A
102
}
330
1A
100
AcDbPlotSettings
  1

  2
ProgeSOFT PDF Wizard
  4
A4
  6

 40
5.926666666666667
 41
6.011333333333317
 42
6.095999999999985
 43
5.926666666666667
 44
210.0
 45
297.0
 46
88.562
 47
136.531
 48
0.0
 49
0.0
140
0.0
141
0.0
142
1.0
143
1.0
 70
   692
 72
     1
 73
     0
 74
     0
  7

 75
    16
147
1.0
148
0.0
149
0.0
100
AcDbLayout
  1
Layout2
 70
     1
 71
     2
 10
0.0
 20
0.0
 11
12.0
 21
9.0
 12
0.0
 22
0.0
 32
0.0
 14
0.0
 24
0.0
 34
0.0
 15
12.0
 25
9.0
 35
0.0
146
0.0
 13
0.0
 23
0.0
 33
0.0
 16
1.0
 26
0.0
 36
0.0
 17
0.0
 27
1.0
 37
0.0
 76
     0
330
73
331
BB
1001
PROGE_PRINT_SETTINGS
1070
    73
1070
     1
  0
LAYOUT
  5
22
102
{ACAD_REACTORS
330
1A
102
}
330
1A
100
AcDbPlotSettings
  1

  2
ProgeSOFT PDF Wizard
  4
A4
  6

 40
5.926666666666667
 41
6.011333333333317
 42
6.095999999999985
 43
5.926666666666667
 44
210.0
 45
297.0
 46
-0.0000000000000101
 47
83.07219027892847
 48
0.0
 49
0.0
140
0.0
141
0.0
142
1.0
143
2.3626998407048
 70
 11956
 72
     1
 73
     0
 74
     0
  7

 75
     0
147
0.4232446215858284
148
-293.5485478813461
149
-123.4349233488968
100
AcDbLayout
  1
Model
 70
     1
 71
     0
 10
0.0
 20
0.0
 11
0.0
 21
0.0
 12
0.0
 22
0.0
 32
0.0
 14
0.0
 24
0.0
 34
0.0
 15
1651.206869077697
 25
482.7511676956355
 35
0.0
146
0.0
 13
0.0
 23
0.0
 33
0.0
 16
1.0
 26
0.0
 36
0.0
 17
0.0
 27
1.0
 37
0.0
 76
     0
330
1F
331
97
1001
PROGE_PRINT_SETTINGS
1070
    73
1070
     1
  0
MLINESTYLE
  5
18
102
{ACAD_REACTORS
330
17
102
}
330
17
100
AcDbMlineStyle
  2
STANDARD
 70
     0
  3

 62
   256
 51
90.0
 52
90.0
 71
     2
 49
0.5
 62
   256
  6
BYLAYER
 49
-0.5
 62
   256
  6
BYLAYER
  0
ACDBPLACEHOLDER
  5
F
102
{ACAD_REACTORS
330
E
102
}
330
E
  0
SCALE
  5
D5
102
{ACAD_REACTORS
330
99
102
}
330
99
100
AcDbScale
 70
     0
300
1:1
140
1.0
141
1.0
290
     1
  0
SCALE
  5
D6
102
{ACAD_REACTORS
330
99
102
}
330
99
100
AcDbScale
 70
     0
300
1:2
140
1.0
141
2.0
290
     0
  0
SCALE
  5
D7
102
{ACAD_REACTORS
330
99
102
}
330
99
100
AcDbScale
 70
     0
300
1:4
140
1.0
141
4.0
290
     0
  0
SCALE
  5
D8
102
{ACAD_REACTORS
330
99
102
}
330
99
100
AcDbScale
 70
     0
300
1:5
140
1.0
141
5.0
290
     0
  0
SCALE
  5
D9
102
{ACAD_REACTORS
330
99
102
}
330
99
100
AcDbScale
 70
     0
300
1:8
140
1.0
141
8.0
290
     0
  0
SCALE
  5
DA
102
{ACAD_REACTORS
330
99
102
}
330
99
100
AcDbScale
 70
     0
300
1:10
140
1.0
141
10.0
290
     0
  0
SCALE
  5
DB
102
{ACAD_REACTORS
330
99
102
}
330
99
100
AcDbScale
 70
     0
300
1:16
140
1.0
141
16.0
290
     0
  0
SCALE
  5
DC
102
{ACAD_REACTORS
330
99
102
}
330
99
100
AcDbScale
 70
     0
300
1:20
140
1.0
141
20.0
290
     0
  0
SCALE
  5
DD
102
{ACAD_REACTORS
330
99
102
}
330
99
100
AcDbScale
 70
     0
300
1:30
140
1.0
141
30.0
290
     0
  0
SCALE
  5
DE
102
{ACAD_REACTORS
330
99
102
}
330
99
100
AcDbScale
 70
     0
300
1:40
140
1.0
141
40.0
290
     0
  0
SCALE
  5
DF
102
{ACAD_REACTORS
330
99
102
}
330
99
100
AcDbScale
 70
     0
300
1:50
140
1.0
141
50.0
290
     0
  0
SCALE
  5
E0
102
{ACAD_REACTORS
330
99
102
}
330
99
100
AcDbScale
 70
     0
300
1:100
140
1.0
141
100.0
290
     0
  0
SCALE
  5
E1
102
{ACAD_REACTORS
330
99
102
}
330
99
100
AcDbScale
 70
     0
300
2:1
140
2.0
141
1.0
290
     0
  0
SCALE
  5
E2
102
{ACAD_REACTORS
330
99
102
}
330
99
100
AcDbScale
 70
     0
300
4:1
140
4.0
141
1.0
290
     0
  0
SCALE
  5
E3
102
{ACAD_REACTORS
330
99
102
}
330
99
100
AcDbScale
 70
     0
300
8:1
140
8.0
141
1.0
290
     0
  0
SCALE
  5
E4
102
{ACAD_REACTORS
330
99
102
}
330
99
100
AcDbScale
 70
     0
300
10:1
140
10.0
141
1.0
290
     0
  0
SCALE
  5
E5
102
{ACAD_REACTORS
330
99
102
}
330
99
100
AcDbScale
 70
     0
300
100:1
140
100.0
141
1.0
290
     0
  0
SCALE
  5
E6
102
{ACAD_REACTORS
330
99
102
}
330
99
100
AcDbScale
 70
     0
300
1/128" = 1'-0"
140
0.0078125
141
12.0
290
     0
  0
SCALE
  5
E7
102
{ACAD_REACTORS
330
99
102
}
330
99
100
AcDbScale
 70
     0
300
1/64" = 1'-0"
140
0.015625
141
12.0
290
     0
  0
SCALE
  5
E8
102
{ACAD_REACTORS
330
99
102
}
330
99
100
AcDbScale
 70
     0
300
1/32" = 1'-0"
140
0.03125
141
12.0
290
     0
  0
SCALE
  5
E9
102
{ACAD_REACTORS
330
99
102
}
330
99
100
AcDbScale
 70
     0
300
1/16" = 1'-0"
140
0.0625
141
12.0
290
     0
  0
SCALE
  5
EA
102
{ACAD_REACTORS
330
99
102
}
330
99
100
AcDbScale
 70
     0
300
3/32" = 1'-0"
140
0.09375
141
12.0
290
     0
  0
SCALE
  5
EB
102
{ACAD_REACTORS
330
99
102
}
330
99
100
AcDbScale
 70
     0
300
1/8" = 1'-0"
140
0.125
141
12.0
290
     0
  0
SCALE
  5
EC
102
{ACAD_REACTORS
330
99
102
}
330
99
100
AcDbScale
 70
     0
300
3/16" = 1'-0"
140
0.1875
141
12.0
290
     0
  0
SCALE
  5
ED
102
{ACAD_REACTORS
330
99
102
}
330
99
100
AcDbScale
 70
     0
300
1/4" = 1'-0"
140
0.25
141
12.0
290
     0
  0
SCALE
  5
EE
102
{ACAD_REACTORS
330
99
102
}
330
99
100
AcDbScale
 70
     0
300
3/8" = 1'-0"
140
0.375
141
12.0
290
     0
  0
SCALE
  5
EF
102
{ACAD_REACTORS
330
99
102
}
330
99
100
AcDbScale
 70
     0
300
1/2" = 1'-0"
140
0.5
141
12.0
290
     0
  0
SCALE
  5
F0
102
{ACAD_REACTORS
330
99
102
}
330
99
100
AcDbScale
 70
     0
300
3/4" = 1'-0"
140
0.75
141
12.0
290
     0
  0
SCALE
  5
F1
102
{ACAD_REACTORS
330
99
102
}
330
99
100
AcDbScale
 70
     0
300
1" = 1'-0"
140
1.0
141
12.0
290
     0
  0
SCALE
  5
F2
102
{ACAD_REACTORS
330
99
102
}
330
99
100
AcDbScale
 70
     0
300
1-1/2" = 1'-0"
140
1.5
141
12.0
290
     0
  0
SCALE
  5
F3
102
{ACAD_REACTORS
330
99
102
}
330
99
100
AcDbScale
 70
     0
300
3" = 1'-0"
140
3.0
141
12.0
290
     0
  0
SCALE
  5
F4
102
{ACAD_REACTORS
330
99
102
}
330
99
100
AcDbScale
 70
     0
300
6" = 1'-0"
140
6.0
141
12.0
290
     0
  0
SCALE
  5
F5
102
{ACAD_REACTORS
330
99
102
}
330
99
100
AcDbScale
 70
     0
300
1'-0" = 1'-0"
140
12.0
141
12.0
290
     0
  0
XRECORD
  5
4D7
102
{ACAD_REACTORS
330
4D6
102
}
330
4D6
100
AcDbXrecord
280
     1
340
6C
  0
XRECORD
  5
4D8
102
{ACAD_REACTORS
330
4D6
102
}
330
4D6
100
AcDbXrecord
280
     1
340
6B
  0
DICTIONARYVAR
  5
98
102
{ACAD_REACTORS
330
59
102
}
330
59
100
DictionaryVariables
280
     0
  1
Standard
  0
DICTIONARYVAR
  5
5A
102
{ACAD_REACTORS
330
59
102
}
330
59
100
DictionaryVariables
280
     0
  1
2
  0
DICTIONARYVAR
  5
5E
102
{ACAD_REACTORS
330
59
102
}
330
59
100
DictionaryVariables
280
     0
  1
1
  0
ENDSEC
  0
EOF
