  0
SECTION
  2
HEADER
  9
$ACADVER
  1
AC1015
  9
$ACADMAINTVER
 70
     6
  9
$DWGCODEPAGE
  3
ANSI_1252
  9
$INSBASE
 10
0.0
 20
0.0
 30
0.0
  9
$EXTMIN
 10
26.910591
 20
158.677271
 30
0.0
  9
$EXTMAX
 10
559.4720121080331
 20
357.0705555069474
 30
0.0
  9
$LIMMIN
 10
0.0
 20
0.0
  9
$LIMMAX
 10
420.0
 20
297.0
  9
$ORTHOMODE
 70
     0
  9
$REGENMODE
 70
     1
  9
$FILLMODE
 70
     1
  9
$QTEXTMODE
 70
     0
  9
$MIRRTEXT
 70
     1
  9
$LTSCALE
 40
1.0
  9
$ATTMODE
 70
     1
  9
$TEXTSIZE
 40
2.5
  9
$TRACEWID
 40
1.0
  9
$TEXTSTYLE
  7
Standard
  9
$CLAYER
  8
0
  9
$CELTYPE
  6
ByLayer
  9
$CECOLOR
 62
   256
  9
$CELTSCALE
 40
1.0
  9
$DISPSILH
 70
     0
  9
$DIMSCALE
 40
1.0
  9
$DIMASZ
 40
2.5
  9
$DIMEXO
 40
0.625
  9
$DIMDLI
 40
3.75
  9
$DIMRND
 40
0.0
  9
$DIMDLE
 40
0.0
  9
$DIMEXE
 40
1.25
  9
$DIMTP
 40
0.0
  9
$DIMTM
 40
0.0
  9
$DIMTXT
 40
2.5
  9
$DIMCEN
 40
2.5
  9
$DIMTSZ
 40
0.0
  9
$DIMTOL
 70
     0
  9
$DIMLIM
 70
     0
  9
$DIMTIH
 70
     0
  9
$DIMTOH
 70
     0
  9
$DIMSE1
 70
     0
  9
$DIMSE2
 70
     0
  9
$DIMTAD
 70
     1
  9
$DIMZIN
 70
     8
  9
$DIMBLK
  1

  9
$DIMASO
 70
     1
  9
$DIMSHO
 70
     1
  9
$DIMPOST
  1

  9
$DIMAPOST
  1

  9
$DIMALT
 70
     0
  9
$DIMALTD
 70
     3
  9
$DIMALTF
 40
0.03937
  9
$DIMLFAC
 40
1.0
  9
$DIMTOFL
 70
     1
  9
$DIMTVP
 40
0.0
  9
$DIMTIX
 70
     0
  9
$DIMSOXD
 70
     0
  9
$DIMSAH
 70
     0
  9
$DIMBLK1
  1

  9
$DIMBLK2
  1

  9
$DIMSTYLE
  2
Standard
  9
$DIMCLRD
 70
     0
  9
$DIMCLRE
 70
     0
  9
$DIMCLRT
 70
     0
  9
$DIMTFAC
 40
1.0
  9
$DIMGAP
 40
0.625
  9
$DIMJUST
 70
     0
  9
$DIMSD1
 70
     0
  9
$DIMSD2
 70
     0
  9
$DIMTOLJ
 70
     0
  9
$DIMTZIN
 70
     8
  9
$DIMALTZ
 70
     0
  9
$DIMALTTZ
 70
     0
  9
$DIMUPT
 70
     0
  9
$DIMDEC
 70
     2
  9
$DIMTDEC
 70
     2
  9
$DIMALTU
 70
     2
  9
$DIMALTTD
 70
     3
  9
$DIMTXSTY
  7
Standard
  9
$DIMAUNIT
 70
     0
  9
$DIMADEC
 70
     0
  9
$DIMALTRND
 40
0.0
  9
$DIMAZIN
 70
     0
  9
$DIMDSEP
 70
    44
  9
$DIMATFIT
 70
     0
  9
$DIMFRAC
 70
     0
  9
$DIMLDRBLK
  1

  9
$DIMLUNIT
 70
     2
  9
$DIMLWD
 70
    -2
  9
$DIMLWE
 70
    -2
  9
$DIMTMOVE
 70
     0
  9
$LUNITS
 70
     2
  9
$LUPREC
 70
     4
  9
$SKETCHINC
 40
1.0
  9
$FILLETRAD
 40
2.5
  9
$AUNITS
 70
     0
  9
$AUPREC
 70
     0
  9
$MENU
  1
.
  9
$ELEVATION
 40
0.0
  9
$PELEVATION
 40
0.0
  9
$THICKNESS
 40
0.0
  9
$LIMCHECK
 70
     0
  9
$CHAMFERA
 40
2.5
  9
$CHAMFERB
 40
2.5
  9
$CHAMFERC
 40
0.0
  9
$CHAMFERD
 40
0.0
  9
$SKPOLY
 70
     0
  9
$TDCREATE
 40
2447893.083333333
  9
$TDUCREATE
 40
2447893.0
  9
$TDUPDATE
 40
2447893.083333333
  9
$TDUUPDATE
 40
2447893.0
  9
$TDINDWG
 40
0.0197337616
  9
$TDUSRTIMER
 40
0.0197337616
  9
$USRTIMER
 70
     1
  9
$ANGBASE
 50
0.0
  9
$ANGDIR
 70
     0
  9
$PDMODE
 70
     0
  9
$PDSIZE
 40
0.0
  9
$PLINEWID
 40
0.0
  9
$SPLFRAME
 70
     0
  9
$SPLINETYPE
 70
     6
  9
$SPLINESEGS
 70
     8
  9
$HANDSEED
  5
884
  9
$SURFTAB1
 70
     6
  9
$SURFTAB2
 70
     6
  9
$SURFTYPE
 70
     6
  9
$SURFU
 70
     6
  9
$SURFV
 70
     6
  9
$UCSBASE
  2

  9
$UCSNAME
  2

  9
$UCSORG
 10
0.0
 20
0.0
 30
0.0
  9
$UCSXDIR
 10
1.0
 20
0.0
 30
0.0
  9
$UCSYDIR
 10
0.0
 20
1.0
 30
0.0
  9
$UCSORTHOREF
  2

  9
$UCSORTHOVIEW
 70
     0
  9
$UCSORGTOP
 10
0.0
 20
0.0
 30
0.0
  9
$UCSORGBOTTOM
 10
0.0
 20
0.0
 30
0.0
  9
$UCSORGLEFT
 10
0.0
 20
0.0
 30
0.0
  9
$UCSORGRIGHT
 10
0.0
 20
0.0
 30
0.0
  9
$UCSORGFRONT
 10
0.0
 20
0.0
 30
0.0
  9
$UCSORGBACK
 10
0.0
 20
0.0
 30
0.0
  9
$PUCSBASE
  2

  9
$PUCSNAME
  2

  9
$PUCSORG
 10
0.0
 20
0.0
 30
0.0
  9
$PUCSXDIR
 10
1.0
 20
0.0
 30
0.0
  9
$PUCSYDIR
 10
0.0
 20
1.0
 30
0.0
  9
$PUCSORTHOREF
  2

  9
$PUCSORTHOVIEW
 70
     0
  9
$PUCSORGTOP
 10
0.0
 20
0.0
 30
0.0
  9
$PUCSORGBOTTOM
 10
0.0
 20
0.0
 30
0.0
  9
$PUCSORGLEFT
 10
0.0
 20
0.0
 30
0.0
  9
$PUCSORGRIGHT
 10
0.0
 20
0.0
 30
0.0
  9
$PUCSORGFRONT
 10
0.0
 20
0.0
 30
0.0
  9
$PUCSORGBACK
 10
0.0
 20
0.0
 30
0.0
  9
$USERI1
 70
     0
  9
$USERI2
 70
     0
  9
$USERI3
 70
     0
  9
$USERI4
 70
     0
  9
$USERI5
 70
     0
  9
$USERR1
 40
0.0
  9
$USERR2
 40
0.0
  9
$USERR3
 40
0.0
  9
$USERR4
 40
0.0
  9
$USERR5
 40
0.0
  9
$WORLDVIEW
 70
     1
  9
$SHADEDGE
 70
     3
  9
$SHADEDIF
 70
    70
  9
$TILEMODE
 70
     1
  9
$MAXACTVP
 70
    48
  9
$PINSBASE
 10
0.0
 20
0.0
 30
0.0
  9
$PLIMCHECK
 70
     0
  9
$PEXTMIN
 10
0.0
 20
0.0
 30
0.0
  9
$PEXTMAX
 10
787.310059
 20
464.17395
 30
2.0
  9
$PLIMMIN
 10
0.0
 20
0.0
  9
$PLIMMAX
 10
420.0
 20
297.0
  9
$UNITMODE
 70
     0
  9
$VISRETAIN
 70
     0
  9
$PLINEGEN
 70
     0
  9
$PSLTSCALE
 70
     1
  9
$TREEDEPTH
 70
  3020
  9
$CMLSTYLE
  2
Standard
  9
$CMLJUST
 70
     0
  9
$CMLSCALE
 40
20.0
  9
$PROXYGRAPHICS
 70
     1
  9
$MEASUREMENT
 70
     1
  9
$CELWEIGHT
370
    -1
  9
$ENDCAPS
280
     0
  9
$JOINSTYLE
280
     0
  9
$LWDISPLAY
290
     0
  9
$INSUNITS
 70
     0
  9
$HYPERLINKBASE
  1

  9
$STYLESHEET
  1

  9
$XEDIT
290
     1
  9
$CEPSNTYPE
380
     0
  9
$PSTYLEMODE
290
     0
  9
$FINGERPRINTGUID
  2

  9
$VERSIONGUID
  2

  9
$EXTNAMES
290
     0
  9
$PSVPSCALE
 40
0.0
  9
$OLESTARTUP
290
     0
  0
ENDSEC
  0
SECTION
  2
CLASSES
  0
CLASS
  1
ACDBDICTIONARYWDFLT
  2
AcDbDictionaryWithDefault
  3
ObjectDBX Classes
 90
        0
280
     0
281
     0
  0
CLASS
  1
ACDBPLACEHOLDER
  2
AcDbPlaceHolder
  3
ObjectDBX Classes
 90
        0
280
     0
281
     0
  0
CLASS
  1
LAYOUT
  2
AcDbLayout
  3
ObjectDBX Classes
 90
        0
280
     0
281
     0
  0
CLASS
  1
DICTIONARYVAR
  2
AcDbDictionaryVar
  3
ObjectDBX Classes
 90
        0
280
     0
281
     0
  0
CLASS
  1
TABLESTYLE
  2
AcDbTableStyle
  3
ObjectDBX Classes
 90
     4095
280
     0
281
     0
  0
CLASS
  1
SCALE
  2
AcDbScale
  3
ObjectDBX Classes
 90
     1153
280
     0
281
     0
  0
CLASS
  1
WIPEOUTVARIABLES
  2
AcDbWipeoutVariables
  3
WipeOut|AutoCAD Express Tool|expresstools@autodesk.com
 90
        0
280
     0
281
     0
  0
ENDSEC
  0
SECTION
  2
TABLES
  0
TABLE
  2
VPORT
  5
8
330
0
100
AcDbSymbolTable
 70
     2
  0
VPORT
  5
97
330
8
100
AcDbSymbolTableRecord
100
AcDbViewportTableRecord
  2
*ACTIVE
 70
     0
 10
0.0
 20
0.0
 11
1.0
 21
1.0
 12
286.2129962004237
 22
211.8244404389046
 13
0.0
 23
0.0
 14
1.0
 24
1.0
 15
0.5
 25
0.5
 16
0.0
 26
0.0
 36
1.0
 17
0.0
 27
0.0
 37
0.0
 40
625.4378076480306
 41
0.688564
 42
50.0
 43
0.0
 44
0.0
 50
0.0
 51
0.0
 71
     0
 72
   100
 73
     1
 74
     1
 75
     0
 76
     0
 77
     0
 78
     0
281
     0
 65
     1
110
0.0
120
0.0
130
0.0
111
1.0
121
0.0
131
0.0
112
0.0
122
1.0
132
0.0
 79
     0
146
0.0
  0
ENDTAB
  0
TABLE
  2
LTYPE
  5
5
330
0
100
AcDbSymbolTable
 70
     8
  0
LTYPE
  5
14
330
5
100
AcDbSymbolTableRecord
100
AcDbLinetypeTableRecord
  2
ByBlock
 70
     0
  3

 72
    65
 73
     0
 40
0.0
  0
LTYPE
  5
15
330
5
100
AcDbSymbolTableRecord
100
AcDbLinetypeTableRecord
  2
ByLayer
 70
     0
  3

 72
    65
 73
     0
 40
0.0
  0
LTYPE
  5
16
330
5
100
AcDbSymbolTableRecord
100
AcDbLinetypeTableRecord
  2
Continuous
 70
     0
  3
Solid line
 72
    65
 73
     0
 40
0.0
  0
LTYPE
  5
868
330
5
100
AcDbSymbolTableRecord
100
AcDbLinetypeTableRecord
  2
DASHED
 70
     0
  3
__ __ __ __ __ __ __ __ __ __ __ __ __ __ __ __
 72
    65
 73
     2
 40
15.0
 49
12.0
 74
     0
 49
-3.0
 74
     0
  0
LTYPE
  5
869
330
5
100
AcDbSymbolTableRecord
100
AcDbLinetypeTableRecord
  2
DASHDOT
 70
     0
  3
 __ . __ . __ . __ . __ . __ . __ . 
 72
    65
 73
     4
 40
18.5
 49
12.0
 74
     0
 49
-3.0
 74
     0
 49
0.5
 74
     0
 49
-3.0
 74
     0
  0
LTYPE
  5
86A
330
5
100
AcDbSymbolTableRecord
100
AcDbLinetypeTableRecord
  2
DOT
 70
     0
  3
 . . . . . . . . . . . . . . . .
 72
    65
 73
     2
 40
3.5
 49
0.5
 74
     0
 49
-3.0
 74
     0
  0
LTYPE
  5
86B
330
5
100
AcDbSymbolTableRecord
100
AcDbLinetypeTableRecord
  2
DASHSPACE
 70
     0
  3
__    __    __    __    __   
 72
    65
 73
     2
 40
30.0
 49
12.0
 74
     0
 49
-18.0
 74
     0
  0
LTYPE
  5
86C
330
5
100
AcDbSymbolTableRecord
100
AcDbLinetypeTableRecord
  2
DASHDOT2
 70
     0
  3
__ . . __ . . __ . . __ 
 72
    65
 73
     6
 40
22.0
 49
12.0
 74
     0
 49
-3.0
 74
     0
 49
0.5
 74
     0
 49
-3.0
 74
     0
 49
0.5
 74
     0
 49
-3.0
 74
     0
  0
LTYPE
  5
86D
330
5
100
AcDbSymbolTableRecord
100
AcDbLinetypeTableRecord
  2
PHANTOM
 70
     0
  3
____________    ____    ____   _
 72
    65
 73
     6
 40
20.0
 49
10.0
 74
     0
 49
-2.0
 74
     0
 49
2.0
 74
     0
 49
-2.0
 74
     0
 49
2.0
 74
     0
 49
-2.0
 74
     0
  0
LTYPE
  5
86E
330
5
100
AcDbSymbolTableRecord
100
AcDbLinetypeTableRecord
  2
AXES
 70
     0
  3
________  __  ________  __  _____
 72
    65
 73
     4
 40
24.0
 49
15.0
 74
     0
 49
-3.0
 74
     0
 49
3.0
 74
     0
 49
-3.0
 74
     0
  0
ENDTAB
  0
TABLE
  2
LAYER
  5
2
330
0
100
AcDbSymbolTable
 70
     3
  0
LAYER
  5
10
330
2
100
AcDbSymbolTableRecord
100
AcDbLayerTableRecord
  2
0
 70
     0
 62
     7
  6
Continuous
370
    13
390
F
  0
LAYER
  5
2B
330
2
100
AcDbSymbolTableRecord
100
AcDbLayerTableRecord
  2
2
 70
     0
 62
     7
  6
Continuous
370
    13
390
F
  0
LAYER
  5
4EB
330
2
100
AcDbSymbolTableRecord
100
AcDbLayerTableRecord
  2
DEFPOINTS
 70
     0
 62
     7
  6
Continuous
290
     0
370
    -3
390
F
  0
ENDTAB
  0
TABLE
  2
STYLE
  5
3
330
0
100
AcDbSymbolTable
 70
     2
  0
STYLE
  5
11
330
3
100
AcDbSymbolTableRecord
100
AcDbTextStyleTableRecord
  2
Standard
 70
     0
 40
0.0
 41
1.0
 50
0.0
 71
     0
 42
0.2
  3
isocp.shx
  4

  0
STYLE
  5
2C
330
3
100
AcDbSymbolTableRecord
100
AcDbTextStyleTableRecord
  2
GDT
 70
     0
 40
0.0
 41
1.0
 50
0.0
 71
     0
 42
0.2
  3
amgdt.shx
  4

  0
ENDTAB
  0
TABLE
  2
VIEW
  5
6
330
0
100
AcDbSymbolTable
 70
     0
  0
ENDTAB
  0
TABLE
  2
UCS
  5
7
330
0
100
AcDbSymbolTable
 70
     0
  0
ENDTAB
  0
TABLE
  2
APPID
  5
9
330
0
100
AcDbSymbolTable
 70
     3
  0
APPID
  5
12
330
9
100
AcDbSymbolTableRecord
100
AcDbRegAppTableRecord
  2
ACAD
 70
     0
  0
APPID
  5
866
330
9
100
AcDbSymbolTableRecord
100
AcDbRegAppTableRecord
  2
Conv5506CA
 70
     0
  0
APPID
  5
867
330
9
100
AcDbSymbolTableRecord
100
AcDbRegAppTableRecord
  2
PROGE_PRINT_SETTINGS
 70
     0
  0
ENDTAB
  0
TABLE
  2
DIMSTYLE
  5
A
330
0
100
AcDbSymbolTable
 70
     1
100
AcDbDimStyleTable
  0
DIMSTYLE
105
27
102
{ACAD_REACTORS
330
6DE
330
70B
330
739
330
75B
330
78B
102
}
330
A
100
AcDbSymbolTableRecord
100
AcDbDimStyleTableRecord
  2
Standard
 70
     0
 41
2.5
 42
0.625
 43
3.75
 44
1.25
 73
     0
 74
     0
 77
     1
 78
     8
140
2.5
141
2.5
143
0.03937
147
0.625
171
     3
172
     1
271
     2
272
     2
274
     3
278
    44
283
     0
284
     8
289
     0
340
11
  0
ENDTAB
  0
TABLE
  2
BLOCK_RECORD
  5
1
330
0
100
AcDbSymbolTable
 70
     7
  0
BLOCK_RECORD
  5
1F
330
1
100
AcDbSymbolTableRecord
100
AcDbBlockTableRecord
  2
*Model_Space
340
22
  0
BLOCK_RECORD
  5
73
330
1
100
AcDbSymbolTableRecord
100
AcDbBlockTableRecord
  2
*Paper_Space
340
74
  0
BLOCK_RECORD
  5
377
330
1
100
AcDbSymbolTableRecord
100
AcDbBlockTableRecord
  2
Block0
340
0
  0
BLOCK_RECORD
  5
70A
330
1
100
AcDbSymbolTableRecord
100
AcDbBlockTableRecord
  2
*D1
340
0
  0
BLOCK_RECORD
  5
738
330
1
100
AcDbSymbolTableRecord
100
AcDbBlockTableRecord
  2
*D2
340
0
  0
BLOCK_RECORD
  5
75A
330
1
100
AcDbSymbolTableRecord
100
AcDbBlockTableRecord
  2
*D3
340
0
  0
BLOCK_RECORD
  5
78A
330
1
100
AcDbSymbolTableRecord
100
AcDbBlockTableRecord
  2
*D4
340
0
  0
BLOCK_RECORD
  5
7AC
330
1
100
AcDbSymbolTableRecord
100
AcDbBlockTableRecord
  2
*D5
340
0
  0
BLOCK_RECORD
  5
864
330
1
100
AcDbSymbolTableRecord
100
AcDbBlockTableRecord
  2
*D6
340
0
  0
ENDTAB
  0
ENDSEC
  0
SECTION
  2
BLOCKS
  0
BLOCK
  5
20
330
1F
100
AcDbEntity
  8
0
100
AcDbBlockBegin
  2
*Model_Space
 70
     0
 10
0.0
 20
0.0
 30
0.0
  3
*Model_Space
  1

  0
ENDBLK
  5
21
330
1F
100
AcDbEntity
  8
0
100
AcDbBlockEnd
  0
BLOCK
  5
75
330
73
100
AcDbEntity
 67
     1
  8
0
100
AcDbBlockBegin
  2
*Paper_Space
 70
     0
 10
0.0
 20
0.0
 30
0.0
  3
*Paper_Space
  1

  0
ENDBLK
  5
76
330
73
100
AcDbEntity
 67
     1
  8
0
100
AcDbBlockEnd
  0
BLOCK
  5
872
102
{ACAD_REACTORS
330
6DE
330
70B
330
739
330
75B
330
78B
102
}
330
377
100
AcDbEntity
  8
0
100
AcDbBlockBegin
  2
Block0
 70
     0
 10
0.0
 20
0.0
 30
0.0
  3
Block0
  1

  0
TEXT
  5
379
330
377
100
AcDbEntity
  8
0
 62
     7
370
    13
390
F
100
AcDbText
 10
291.051178
 20
444.747437
 30
0.0
 40
14.0
  1
GW85086 STAFFA ANGOLARE
 41
1.156613467057016
 72
     5
 11
570.365234
 21
444.747437
 31
0.0
100
AcDbText
  0
ENDBLK
  5
873
330
377
100
AcDbEntity
  8
0
100
AcDbBlockEnd
  0
BLOCK
  5
874
330
70A
100
AcDbEntity
  8
0
100
AcDbBlockBegin
  2
*D1
 70
     1
 10
0.0
 20
0.0
 30
0.0
  3
*D1
  1

  0
POINT
  5
701
330
70A
100
AcDbEntity
  8
DEFPOINTS
  6
ByBlock
 62
     7
380
     1
100
AcDbPoint
 10
26.910591
 20
203.677271
 30
0.0
  0
POINT
  5
702
330
70A
100
AcDbEntity
  8
DEFPOINTS
  6
ByBlock
 62
     7
380
     1
100
AcDbPoint
 10
308.910576
 20
208.1911308793025
 30
0.0
  0
LINE
  5
703
330
70A
100
AcDbEntity
  8
0
  6
ByBlock
 62
     7
370
    -2
380
     1
100
AcDbLine
 10
26.910591
 20
204.302271
 30
0.0
 11
26.910591
 21
341.0595318849002
 31
0.0
  0
LINE
  5
704
330
70A
100
AcDbEntity
  8
0
  6
ByBlock
 62
     7
370
    -2
380
     1
100
AcDbLine
 10
308.910576
 20
208.8161308793025
 30
0.0
 11
308.910576
 21
341.0595318849002
 31
0.0
  0
LINE
  5
705
330
70A
100
AcDbEntity
  8
0
  6
ByBlock
 62
     7
370
    -2
380
     1
100
AcDbLine
 10
36.910591
 20
339.8095318849002
 30
0.0
 11
298.910576
 21
339.8095318849002
 31
0.0
  0
SOLID
  5
706
330
70A
100
AcDbEntity
  8
0
  6
ByBlock
 62
     7
380
     1
100
AcDbTrace
 10
26.910591
 20
339.8095318849002
 30
0.0
 11
36.910591
 21
338.1428652182335
 31
0.0
 12
36.910591
 22
341.4761985515669
 32
0.0
 13
36.910591
 23
341.4761985515669
 33
0.0
  0
SOLID
  5
707
330
70A
100
AcDbEntity
  8
0
  6
ByBlock
 62
     7
380
     1
100
AcDbTrace
 10
308.910576
 20
339.8095318849002
 30
0.0
 11
298.910576
 21
338.1428652182335
 31
0.0
 12
298.910576
 22
341.4761985515669
 32
0.0
 13
298.910576
 23
341.4761985515669
 33
0.0
  0
MTEXT
  5
708
330
70A
100
AcDbEntity
  8
0
  6
ByBlock
 62
     0
370
    -2
380
     1
100
AcDbMText
 10
167.9105835
 20
351.1095318849002
 30
0.0
 40
14.0
 41
0.0
 71
     5
 72
     1
  1
\A1;282
 73
     1
 44
1.0
  0
ENDBLK
  5
875
330
70A
100
AcDbEntity
  8
0
100
AcDbBlockEnd
  0
BLOCK
  5
876
330
738
100
AcDbEntity
  8
0
100
AcDbBlockBegin
  2
*D2
 70
     1
 10
0.0
 20
0.0
 30
0.0
  3
*D2
  1

  0
POINT
  5
72F
330
738
100
AcDbEntity
  8
DEFPOINTS
  6
ByBlock
 62
     7
380
     1
100
AcDbPoint
 10
370.234612
 20
276.6957282421142
 30
0.0
  0
POINT
  5
730
330
738
100
AcDbEntity
  8
DEFPOINTS
  6
ByBlock
 62
     7
380
     1
100
AcDbPoint
 10
530.234612
 20
276.6957282421142
 30
0.0
  0
LINE
  5
731
330
738
100
AcDbEntity
  8
0
  6
ByBlock
 62
     7
370
    -2
380
     1
100
AcDbLine
 10
370.234612
 20
277.3207282421142
 30
0.0
 11
370.234612
 21
341.0595318849002
 31
0.0
  0
LINE
  5
732
330
738
100
AcDbEntity
  8
0
  6
ByBlock
 62
     7
370
    -2
380
     1
100
AcDbLine
 10
530.234612
 20
277.3207282421142
 30
0.0
 11
530.234612
 21
341.0595318849002
 31
0.0
  0
LINE
  5
733
330
738
100
AcDbEntity
  8
0
  6
ByBlock
 62
     7
370
    -2
380
     1
100
AcDbLine
 10
380.234612
 20
339.8095318849002
 30
0.0
 11
520.234612
 21
339.8095318849002
 31
0.0
  0
SOLID
  5
734
330
738
100
AcDbEntity
  8
0
  6
ByBlock
 62
     7
380
     1
100
AcDbTrace
 10
370.234612
 20
339.8095318849002
 30
0.0
 11
380.234612
 21
338.1428652182335
 31
0.0
 12
380.234612
 22
341.4761985515669
 32
0.0
 13
380.234612
 23
341.4761985515669
 33
0.0
  0
SOLID
  5
735
330
738
100
AcDbEntity
  8
0
  6
ByBlock
 62
     7
380
     1
100
AcDbTrace
 10
530.234612
 20
339.8095318849002
 30
0.0
 11
520.234612
 21
338.1428652182335
 31
0.0
 12
520.234612
 22
341.4761985515669
 32
0.0
 13
520.234612
 23
341.4761985515669
 33
0.0
  0
MTEXT
  5
736
330
738
100
AcDbEntity
  8
0
  6
ByBlock
 62
     0
370
    -2
380
     1
100
AcDbMText
 10
445.5875064825814
 20
351.1150436959238
 30
0.0
 40
14.0
 41
0.0
 71
     5
 72
     1
  1
\A1;160
 73
     1
 44
1.0
  0
ENDBLK
  5
877
330
738
100
AcDbEntity
  8
0
100
AcDbBlockEnd
  0
BLOCK
  5
878
330
75A
100
AcDbEntity
  8
0
100
AcDbBlockBegin
  2
*D3
 70
     1
 10
0.0
 20
0.0
 30
0.0
  3
*D3
  1

  0
POINT
  5
751
330
75A
100
AcDbEntity
  8
DEFPOINTS
  6
ByBlock
 62
     7
380
     1
100
AcDbPoint
 10
375.234612
 20
209.0996113973538
 30
0.0
  0
POINT
  5
752
330
75A
100
AcDbEntity
  8
DEFPOINTS
  6
ByBlock
 62
     7
380
     1
100
AcDbPoint
 10
525.234612
 20
209.0996113973538
 30
0.0
  0
LINE
  5
753
330
75A
100
AcDbEntity
  8
0
  6
ByBlock
 62
     7
370
    -2
380
     1
100
AcDbLine
 10
375.234612
 20
209.7246113973538
 30
0.0
 11
375.234612
 21
239.1165131651307
 31
0.0
  0
LINE
  5
754
330
75A
100
AcDbEntity
  8
0
  6
ByBlock
 62
     7
370
    -2
380
     1
100
AcDbLine
 10
525.234612
 20
209.7246113973538
 30
0.0
 11
525.234612
 21
239.1165131651307
 31
0.0
  0
LINE
  5
755
330
75A
100
AcDbEntity
  8
0
  6
ByBlock
 62
     7
370
    -2
380
     1
100
AcDbLine
 10
385.234612
 20
237.8665131651307
 30
0.0
 11
515.234612
 21
237.8665131651307
 31
0.0
  0
SOLID
  5
756
330
75A
100
AcDbEntity
  8
0
  6
ByBlock
 62
     7
380
     1
100
AcDbTrace
 10
375.234612
 20
237.8665131651307
 30
0.0
 11
385.234612
 21
236.199846498464
 31
0.0
 12
385.234612
 22
239.5331798317974
 32
0.0
 13
385.234612
 23
239.5331798317974
 33
0.0
  0
SOLID
  5
757
330
75A
100
AcDbEntity
  8
0
  6
ByBlock
 62
     7
380
     1
100
AcDbTrace
 10
525.234612
 20
237.8665131651307
 30
0.0
 11
515.234612
 21
236.199846498464
 31
0.0
 12
515.234612
 22
239.5331798317974
 32
0.0
 13
515.234612
 23
239.5331798317974
 33
0.0
  0
MTEXT
  5
758
330
75A
100
AcDbEntity
  8
0
  6
ByBlock
 62
     0
370
    -2
380
     1
100
AcDbMText
 10
450.234612
 20
249.1720249761543
 30
0.0
 40
14.0
 41
0.0
 71
     5
 72
     1
  1
\A1;150
 73
     1
 44
1.0
  0
ENDBLK
  5
879
330
75A
100
AcDbEntity
  8
0
100
AcDbBlockEnd
  0
BLOCK
  5
87A
330
78A
100
AcDbEntity
  8
0
100
AcDbBlockBegin
  2
*D4
 70
     1
 10
0.0
 20
0.0
 30
0.0
  3
*D4
  1

  0
POINT
  5
77F
330
78A
100
AcDbEntity
  8
DEFPOINTS
  6
ByBlock
 62
     7
380
     1
100
AcDbPoint
 10
409.234612
 20
218.5981166980349
 30
0.0
  0
POINT
  5
780
330
78A
100
AcDbEntity
  8
DEFPOINTS
  6
ByBlock
 62
     7
380
     1
100
AcDbPoint
 10
409.234612
 20
188.677286
 30
0.0
  0
LINE
  5
781
330
78A
100
AcDbEntity
  8
0
  6
ByBlock
 62
     7
370
    -2
380
     1
100
AcDbLine
 10
408.609612
 20
218.5981166980349
 30
0.0
 11
354.1402590133837
 21
218.5981166980349
 31
0.0
  0
LINE
  5
782
330
78A
100
AcDbEntity
  8
0
  6
ByBlock
 62
     7
370
    -2
380
     1
100
AcDbLine
 10
408.609612
 20
188.677286
 30
0.0
 11
354.1402590133837
 21
188.677286
 31
0.0
  0
LINE
  5
783
330
78A
100
AcDbEntity
  8
0
  6
ByBlock
 62
     7
370
    -2
380
     1
100
AcDbLine
 10
355.3902590133837
 20
228.5981166980349
 30
0.0
 11
355.3902590133837
 21
238.5981166980349
 31
0.0
  0
LINE
  5
784
330
78A
100
AcDbEntity
  8
0
  6
ByBlock
 62
     7
370
    -2
380
     1
100
AcDbLine
 10
355.3902590133837
 20
178.677286
 30
0.0
 11
355.3902590133837
 21
168.677286
 31
0.0
  0
SOLID
  5
785
330
78A
100
AcDbEntity
  8
0
  6
ByBlock
 62
     7
380
     1
100
AcDbTrace
 10
355.3902590133837
 20
218.5981166980349
 30
0.0
 11
353.7235923467171
 21
228.5981166980349
 31
0.0
 12
357.0569256800504
 22
228.5981166980349
 32
0.0
 13
357.0569256800504
 23
228.5981166980349
 33
0.0
  0
SOLID
  5
786
330
78A
100
AcDbEntity
  8
0
  6
ByBlock
 62
     7
380
     1
100
AcDbTrace
 10
355.3902590133837
 20
188.677286
 30
0.0
 11
353.7235923467171
 21
178.677286
 31
0.0
 12
357.0569256800504
 22
178.677286
 32
0.0
 13
357.0569256800504
 23
178.677286
 33
0.0
  0
LINE
  5
787
330
78A
100
AcDbEntity
  8
0
  6
ByBlock
 62
     7
370
    -2
380
     1
100
AcDbLine
 10
355.3902590133837
 20
218.5981166980349
 30
0.0
 11
355.3902590133837
 21
188.677286
 31
0.0
  0
MTEXT
  5
788
330
78A
100
AcDbEntity
  8
0
  6
ByBlock
 62
     0
370
    -2
380
     1
100
AcDbMText
 10
344.0847472023601
 20
203.6377013490174
 30
0.0
 40
14.0
 41
0.0
 71
     5
 72
     1
  1
30
 11
6.123031769111886E-17
 21
1.0
 31
0.0
 73
     1
 44
1.0
  0
ENDBLK
  5
87B
330
78A
100
AcDbEntity
  8
0
100
AcDbBlockEnd
  0
BLOCK
  5
87C
330
7AC
100
AcDbEntity
  8
0
100
AcDbBlockBegin
  2
*D5
 70
     1
 10
0.0
 20
0.0
 30
0.0
  3
*D5
  1

  0
POINT
  5
7A3
330
7AC
100
AcDbEntity
  8
DEFPOINTS
  6
ByBlock
 62
     7
380
     1
100
AcDbPoint
 10
471.3495625004737
 20
308.677301
 30
0.0
  0
POINT
  5
7A4
330
7AC
100
AcDbEntity
  8
DEFPOINTS
  6
ByBlock
 62
     7
380
     1
100
AcDbPoint
 10
471.3495625004737
 20
158.677286
 30
0.0
  0
LINE
  5
7A5
330
7AC
100
AcDbEntity
  8
0
  6
ByBlock
 62
     7
370
    -2
380
     1
100
AcDbLine
 10
471.9745625004737
 20
308.677301
 30
0.0
 11
559.0553454413665
 21
308.677301
 31
0.0
  0
LINE
  5
7A6
330
7AC
100
AcDbEntity
  8
0
  6
ByBlock
 62
     7
370
    -2
380
     1
100
AcDbLine
 10
471.9745625004737
 20
158.677286
 30
0.0
 11
559.0553454413665
 21
158.677286
 31
0.0
  0
LINE
  5
7A7
330
7AC
100
AcDbEntity
  8
0
  6
ByBlock
 62
     7
370
    -2
380
     1
100
AcDbLine
 10
557.8053454413665
 20
298.677301
 30
0.0
 11
557.8053454413665
 21
168.677286
 31
0.0
  0
SOLID
  5
7A8
330
7AC
100
AcDbEntity
  8
0
  6
ByBlock
 62
     7
380
     1
100
AcDbTrace
 10
557.8053454413665
 20
308.677301
 30
0.0
 11
556.1386787746999
 21
298.677301
 31
0.0
 12
559.4720121080331
 22
298.677301
 32
0.0
 13
559.4720121080331
 23
298.677301
 33
0.0
  0
SOLID
  5
7A9
330
7AC
100
AcDbEntity
  8
0
  6
ByBlock
 62
     7
380
     1
100
AcDbTrace
 10
557.8053454413665
 20
158.677286
 30
0.0
 11
556.1386787746999
 21
168.677286
 31
0.0
 12
559.4720121080331
 22
168.677286
 32
0.0
 13
559.4720121080331
 23
168.677286
 33
0.0
  0
MTEXT
  5
7AA
330
7AC
100
AcDbEntity
  8
0
  6
ByBlock
 62
     0
370
    -2
380
     1
100
AcDbMText
 10
546.4998336303429
 20
233.6772935
 30
0.0
 40
14.0
 41
0.0
 71
     5
 72
     1
  1
\A1;150
 11
6.123031769111886E-17
 21
1.0
 31
0.0
 73
     1
 44
1.0
  0
ENDBLK
  5
87D
330
7AC
100
AcDbEntity
  8
0
100
AcDbBlockEnd
  0
BLOCK
  5
87E
330
864
100
AcDbEntity
  8
0
100
AcDbBlockBegin
  2
*D6
 70
     1
 10
0.0
 20
0.0
 30
0.0
  3
*D6
  1

  0
POINT
  5
85B
330
864
100
AcDbEntity
  8
DEFPOINTS
  6
ByBlock
 62
     7
380
     1
100
AcDbPoint
 10
26.910591
 20
203.677271
 30
0.0
  0
POINT
  5
85C
330
864
100
AcDbEntity
  8
DEFPOINTS
  6
ByBlock
 62
     7
380
     1
100
AcDbPoint
 10
308.910576
 20
208.1911308793025
 30
0.0
  0
LINE
  5
85D
330
864
100
AcDbEntity
  8
0
  6
ByBlock
 62
     7
370
    -2
380
     1
100
AcDbLine
 10
26.910591
 20
204.302271
 30
0.0
 11
26.910591
 21
341.0595318849002
 31
0.0
  0
LINE
  5
85E
330
864
100
AcDbEntity
  8
0
  6
ByBlock
 62
     7
370
    -2
380
     1
100
AcDbLine
 10
308.910576
 20
208.8161308793025
 30
0.0
 11
308.910576
 21
341.0595318849002
 31
0.0
  0
LINE
  5
85F
330
864
100
AcDbEntity
  8
0
  6
ByBlock
 62
     7
370
    -2
380
     1
100
AcDbLine
 10
36.910591
 20
339.8095318849002
 30
0.0
 11
298.910576
 21
339.8095318849002
 31
0.0
  0
SOLID
  5
860
330
864
100
AcDbEntity
  8
0
  6
ByBlock
 62
     7
380
     1
100
AcDbTrace
 10
26.910591
 20
339.8095318849002
 30
0.0
 11
36.910591
 21
338.1428652182335
 31
0.0
 12
36.910591
 22
341.4761985515669
 32
0.0
 13
36.910591
 23
341.4761985515669
 33
0.0
  0
SOLID
  5
861
330
864
100
AcDbEntity
  8
0
  6
ByBlock
 62
     7
380
     1
100
AcDbTrace
 10
308.910576
 20
339.8095318849002
 30
0.0
 11
298.910576
 21
338.1428652182335
 31
0.0
 12
298.910576
 22
341.4761985515669
 32
0.0
 13
298.910576
 23
341.4761985515669
 33
0.0
  0
MTEXT
  5
862
330
864
100
AcDbEntity
  8
0
  6
ByBlock
 62
     0
370
    -2
380
     1
100
AcDbMText
 10
167.9105835
 20
351.1095318849002
 30
0.0
 40
14.0
 41
0.0
 71
     5
 72
     1
  1
\A1;282
 73
     1
 44
1.0
  0
ENDBLK
  5
87F
330
864
100
AcDbEntity
  8
0
100
AcDbBlockEnd
  0
ENDSEC
  0
SECTION
  2
ENTITIES
  0
LINE
  5
530
330
1F
100
AcDbEntity
  8
2
370
    60
390
F
100
AcDbLine
 10
230.910591
 20
158.677271
 30
0.0
 11
230.910591
 21
308.677271
 31
0.0
  0
LWPOLYLINE
  5
5B
330
1F
100
AcDbEntity
  8
2
370
    60
390
F
100
AcDbPolyline
 90
       36
 70
     0
 43
0.0
 10
303.446129
 20
173.677271
 10
303.436119
 20
174.05324
 10
303.406151
 20
174.427088
 10
303.35656
 20
174.795649
 10
303.28756
 20
175.157915
 10
303.20034
 20
175.508951
 10
303.094933
 20
175.84984
 10
302.973656
 20
176.174364
 10
302.835838
 20
176.485437
 10
302.685143
 20
176.776232
 10
302.520042
 20
177.050913
 10
302.345299
 20
177.302767
 10
302.15844
 20
177.53657
 10
301.965172
 20
177.746363
 10
301.762108
 20
177.936823
 10
301.555382
 20
178.103243
 10
301.34124
 20
178.249628
 10
301.125572
 20
178.372766
 10
300.904655
 20
178.475565
 10
300.683647
 20
178.556284
 10
300.459404
 20
178.616663
 10
300.235802
 20
178.656076
 10
300.010857
 20
178.675257
 10
299.786797
 20
178.674204
 10
299.563225
 20
178.653086
 10
299.120232
 20
178.550745
 10
298.685875
 20
178.367701
 10
298.26519
 20
178.102793
 10
297.864616
 20
177.755007
 10
297.49221
 20
177.324587
 10
297.157341
 20
176.814035
 10
296.870171
 20
176.229074
 10
296.640831
 20
175.579187
 10
296.478477
 20
174.877764
 10
296.390343
 20
174.141741
 10
296.375053
 20
173.677271
  0
LWPOLYLINE
  5
81
330
1F
100
AcDbEntity
  8
2
370
    60
390
F
100
AcDbPolyline
 90
       36
 70
     0
 43
0.0
 10
296.375053
 20
173.677271
 10
296.385063
 20
173.301302
 10
296.415031
 20
172.927454
 10
296.464622
 20
172.558893
 10
296.533623
 20
172.196627
 10
296.620842
 20
171.845591
 10
296.72625
 20
171.504702
 10
296.847527
 20
171.18017
 10
296.985344
 20
170.869104
 10
297.13604
 20
170.57831
 10
297.30114
 20
170.303629
 10
297.475883
 20
170.051775
 10
297.662743
 20
169.817972
 10
297.85601
 20
169.608179
 10
298.059074
 20
169.417719
 10
298.2658
 20
169.251299
 10
298.479942
 20
169.104906
 10
298.69561
 20
168.981783
 10
298.916527
 20
168.878969
 10
299.137535
 20
168.798258
 10
299.361778
 20
168.737879
 10
299.585381
 20
168.698465
 10
299.810326
 20
168.679285
 10
300.034386
 20
168.680338
 10
300.257957
 20
168.701464
 10
300.700951
 20
168.803804
 10
301.135307
 20
168.986841
 10
301.555992
 20
169.251749
 10
301.956566
 20
169.599535
 10
302.328972
 20
170.029955
 10
302.663841
 20
170.540506
 10
302.951012
 20
171.125467
 10
303.180351
 20
171.775354
 10
303.342705
 20
172.476778
 10
303.43084
 20
173.212801
 10
303.446129
 20
173.677271
  0
LINE
  5
531
330
1F
100
AcDbEntity
  8
2
370
    60
390
F
100
AcDbLine
 10
306.910576
 20
158.677271
 30
0.0
 11
306.910576
 21
308.677271
 31
0.0
  0
LINE
  5
532
330
1F
100
AcDbEntity
  8
2
370
    60
390
F
100
AcDbLine
 10
308.910576
 20
158.677271
 30
0.0
 11
308.910576
 21
308.677271
 31
0.0
  0
LINE
  5
CC
330
1F
100
AcDbEntity
  8
2
 48
0.175
370
    60
390
F
100
AcDbLine
 10
230.910591
 20
158.677271
 30
0.0
 11
237.910591
 21
158.677271
 31
0.0
  0
LINE
  5
CD
330
1F
100
AcDbEntity
  8
2
370
    60
390
F
100
AcDbLine
 10
237.910591
 20
158.677271
 30
0.0
 11
290.839531
 21
158.677271
 31
0.0
  0
LINE
  5
CE
330
1F
100
AcDbEntity
  8
2
 48
0.088388
370
    60
390
F
100
AcDbLine
 10
290.839531
 20
158.677271
 30
0.0
 11
294.375053
 21
158.677271
 31
0.0
  0
LINE
  5
CF
330
1F
100
AcDbEntity
  8
2
 48
0.276777
370
    60
390
F
100
AcDbLine
 10
294.375053
 20
158.677271
 30
0.0
 11
305.446129
 21
158.677271
 31
0.0
  0
LINE
  5
D0
330
1F
100
AcDbEntity
  8
2
 48
0.036611
370
    60
390
F
100
AcDbLine
 10
305.446129
 20
158.677271
 30
0.0
 11
306.910576
 21
158.677271
 31
0.0
  0
LINE
  5
D1
330
1F
100
AcDbEntity
  8
2
 48
0.05
370
    60
390
F
100
AcDbLine
 10
306.910576
 20
158.677271
 30
0.0
 11
308.910576
 21
158.677271
 31
0.0
  0
LINE
  5
D2
330
1F
100
AcDbEntity
  8
2
 48
0.175
370
    60
390
F
100
AcDbLine
 10
230.910591
 20
308.677271
 30
0.0
 11
237.910591
 21
308.677271
 31
0.0
  0
LINE
  5
D3
330
1F
100
AcDbEntity
  8
2
370
    60
390
F
100
AcDbLine
 10
237.910591
 20
308.677271
 30
0.0
 11
290.839531
 21
308.677271
 31
0.0
  0
LINE
  5
D4
330
1F
100
AcDbEntity
  8
2
 48
0.088388
370
    60
390
F
100
AcDbLine
 10
290.839531
 20
308.677271
 30
0.0
 11
294.375053
 21
308.677271
 31
0.0
  0
LINE
  5
D5
330
1F
100
AcDbEntity
  8
2
 48
0.276777
370
    60
390
F
100
AcDbLine
 10
294.375053
 20
308.677271
 30
0.0
 11
305.446129
 21
308.677271
 31
0.0
  0
LINE
  5
D6
330
1F
100
AcDbEntity
  8
2
 48
0.036611
370
    60
390
F
100
AcDbLine
 10
305.446129
 20
308.677271
 30
0.0
 11
306.910576
 21
308.677271
 31
0.0
  0
LINE
  5
D7
330
1F
100
AcDbEntity
  8
2
 48
0.05
370
    60
390
F
100
AcDbLine
 10
306.910576
 20
308.677271
 30
0.0
 11
308.910576
 21
308.677271
 31
0.0
  0
LWPOLYLINE
  5
D8
330
1F
100
AcDbEntity
  8
2
370
    60
390
F
100
AcDbPolyline
 90
       36
 70
     0
 43
0.0
 10
303.446129
 20
293.677271
 10
303.436119
 20
294.053247
 10
303.406151
 20
294.427088
 10
303.35656
 20
294.795649
 10
303.28756
 20
295.157923
 10
303.20034
 20
295.508951
 10
303.094933
 20
295.849833
 10
302.973656
 20
296.174372
 10
302.835838
 20
296.485437
 10
302.685143
 20
296.776239
 10
302.520042
 20
297.050913
 10
302.345299
 20
297.302774
 10
302.15844
 20
297.53657
 10
301.965172
 20
297.746363
 10
301.762108
 20
297.936823
 10
301.555382
 20
298.103251
 10
301.34124
 20
298.249628
 10
301.125572
 20
298.372766
 10
300.904655
 20
298.475565
 10
300.683647
 20
298.556284
 10
300.459404
 20
298.616663
 10
300.235802
 20
298.656076
 10
300.010857
 20
298.675257
 10
299.786797
 20
298.674204
 10
299.563225
 20
298.653086
 10
299.120232
 20
298.550745
 10
298.685875
 20
298.367701
 10
298.26519
 20
298.102793
 10
297.864616
 20
297.755014
 10
297.49221
 20
297.324579
 10
297.157341
 20
296.814035
 10
296.870171
 20
296.229074
 10
296.640831
 20
295.579187
 10
296.478477
 20
294.877756
 10
296.390343
 20
294.141748
 10
296.375053
 20
293.677271
  0
LWPOLYLINE
  5
FE
330
1F
100
AcDbEntity
  8
2
370
    60
390
F
100
AcDbPolyline
 90
       36
 70
     0
 43
0.0
 10
296.375053
 20
293.677271
 10
296.385063
 20
293.301294
 10
296.415031
 20
292.927454
 10
296.464622
 20
292.558893
 10
296.533623
 20
292.196619
 10
296.620842
 20
291.845591
 10
296.72625
 20
291.504709
 10
296.847527
 20
291.18017
 10
296.985344
 20
290.869104
 10
297.13604
 20
290.578302
 10
297.30114
 20
290.303629
 10
297.475883
 20
290.051767
 10
297.662743
 20
289.817972
 10
297.85601
 20
289.608179
 10
298.059074
 20
289.417719
 10
298.2658
 20
289.251291
 10
298.479942
 20
289.104914
 10
298.69561
 20
288.981775
 10
298.916527
 20
288.878977
 10
299.137535
 20
288.798258
 10
299.361778
 20
288.737879
 10
299.585381
 20
288.698465
 10
299.810326
 20
288.679285
 10
300.034386
 20
288.680338
 10
300.257957
 20
288.701456
 10
300.700951
 20
288.803797
 10
301.135307
 20
288.986841
 10
301.555992
 20
289.251749
 10
301.956566
 20
289.599527
 10
302.328972
 20
290.029963
 10
302.663841
 20
290.540506
 10
302.951012
 20
291.125467
 10
303.180351
 20
291.775354
 10
303.342705
 20
292.476786
 10
303.43084
 20
293.212793
 10
303.446129
 20
293.677271
  0
LINE
  5
147
330
1F
100
AcDbEntity
  8
2
370
    60
390
F
100
AcDbLine
 10
30.910591
 20
188.677271
 30
0.0
 11
230.910591
 21
188.677271
 31
0.0
  0
LINE
  5
148
330
1F
100
AcDbEntity
  8
2
370
    60
390
F
100
AcDbLine
 10
30.910591
 20
218.677271
 30
0.0
 11
230.910591
 21
218.677271
 31
0.0
  0
LINE
  5
149
330
1F
100
AcDbEntity
  8
2
370
    60
390
F
100
AcDbLine
 10
26.910591
 20
188.677271
 30
0.0
 11
26.910591
 21
218.677271
 31
0.0
  0
LINE
  5
14A
330
1F
100
AcDbEntity
  8
2
 48
0.1
370
    60
390
F
100
AcDbLine
 10
26.910591
 20
218.677271
 30
0.0
 11
30.910591
 21
218.677271
 31
0.0
  0
LINE
  5
14B
330
1F
100
AcDbEntity
  8
2
370
    60
390
F
100
AcDbLine
 10
30.910591
 20
188.677271
 30
0.0
 11
30.910591
 21
218.677271
 31
0.0
  0
LINE
  5
14C
330
1F
100
AcDbEntity
  8
2
 48
0.1
370
    60
390
F
100
AcDbLine
 10
26.910591
 20
188.677271
 30
0.0
 11
30.910591
 21
188.677271
 31
0.0
  0
LINE
  5
14D
330
1F
100
AcDbEntity
  8
2
370
    60
390
F
100
AcDbLine
 10
292.910576
 20
158.677271
 30
0.0
 11
292.910576
 21
308.677271
 31
0.0
  0
LINE
  5
14E
330
1F
100
AcDbEntity
  8
2
370
    60
390
F
100
AcDbLine
 10
491.234612
 20
158.677286
 30
0.0
 11
491.234612
 21
188.677286
 31
0.0
  0
LINE
  5
14F
330
1F
100
AcDbEntity
  8
2
370
    60
390
F
100
AcDbLine
 10
491.234612
 20
218.677286
 30
0.0
 11
491.234612
 21
308.677301
 31
0.0
  0
LWPOLYLINE
  5
150
330
1F
100
AcDbEntity
  8
2
370
    60
390
F
100
AcDbPolyline
 90
       36
 70
     0
 43
0.0
 10
501.770134
 20
173.677286
 10
501.760124
 20
174.053255
 10
501.730156
 20
174.427103
 10
501.680595
 20
174.795664
 10
501.611565
 20
175.157938
 10
501.524406
 20
175.508966
 10
501.418938
 20
175.849855
 10
501.297661
 20
176.174387
 10
501.159874
 20
176.485453
 10
501.009209
 20
176.776247
 10
500.844078
 20
177.050928
 10
500.669334
 20
177.302782
 10
500.482506
 20
177.536585
 10
500.289207
 20
177.746378
 10
500.086143
 20
177.936838
 10
499.879417
 20
178.103258
 10
499.665276
 20
178.249651
 10
499.449608
 20
178.372782
 10
499.228691
 20
178.47558
 10
499.007683
 20
178.556299
 10
498.78344
 20
178.616678
 10
498.559837
 20
178.656092
 10
498.334892
 20
178.675272
 10
498.110832
 20
178.674219
 10
497.88726
 20
178.653101
 10
497.444267
 20
178.550745
 10
497.009911
 20
178.367716
 10
496.589226
 20
178.102808
 10
496.188652
 20
177.755022
 10
495.816246
 20
177.324602
 10
495.481377
 20
176.814051
 10
495.194206
 20
176.22909
 10
494.964867
 20
175.579203
 10
494.802513
 20
174.877779
 10
494.714378
 20
174.141756
 10
494.699089
 20
173.677286
  0
LWPOLYLINE
  5
176
330
1F
100
AcDbEntity
  8
2
370
    60
390
F
100
AcDbPolyline
 90
       36
 70
     0
 43
0.0
 10
494.699089
 20
173.677286
 10
494.709099
 20
173.301317
 10
494.739067
 20
172.927469
 10
494.788658
 20
172.558908
 10
494.857658
 20
172.196642
 10
494.944878
 20
171.845606
 10
495.050285
 20
171.504717
 10
495.171593
 20
171.180185
 10
495.30938
 20
170.869112
 10
495.460045
 20
170.578325
 10
495.625175
 20
170.303644
 10
495.799889
 20
170.05179
 10
495.986748
 20
169.817987
 10
496.180046
 20
169.608194
 10
496.38311
 20
169.417734
 10
496.589836
 20
169.251314
 10
496.803978
 20
169.104921
 10
497.019646
 20
168.981798
 10
497.240562
 20
168.878984
 10
497.461571
 20
168.798273
 10
497.685814
 20
168.737894
 10
497.909416
 20
168.698481
 10
498.134361
 20
168.6793
 10
498.358421
 20
168.680353
 10
498.581993
 20
168.701479
 10
499.024986
 20
168.80382
 10
499.459343
 20
168.986856
 10
499.880028
 20
169.251764
 10
500.280602
 20
169.59955
 10
500.653008
 20
170.02997
 10
500.987877
 20
170.540522
 10
501.275078
 20
171.125483
 10
501.504387
 20
171.77537
 10
501.66674
 20
172.476793
 10
501.754875
 20
173.212816
 10
501.770134
 20
173.677286
  0
CIRCLE
  5
19C
330
1F
100
AcDbEntity
  8
2
370
    60
390
F
100
AcDbCircle
 10
520.234612
 20
173.677286
 30
0.0
 40
5.0
  0
LINE
  5
19D
330
1F
100
AcDbEntity
  8
2
370
    60
390
F
100
AcDbLine
 10
530.234612
 20
158.677286
 30
0.0
 11
530.234612
 21
308.677301
 31
0.0
  0
LINE
  5
1C1
330
1F
100
AcDbEntity
  8
2
370
    60
390
F
100
AcDbLine
 10
416.234612
 20
158.677286
 30
0.0
 11
450.234612
 21
158.677286
 31
0.0
  0
LINE
  5
1C2
330
1F
100
AcDbEntity
  8
2
370
    60
390
F
100
AcDbLine
 10
450.234612
 20
158.677286
 30
0.0
 11
484.234612
 21
158.677286
 31
0.0
  0
LINE
  5
1C3
330
1F
100
AcDbEntity
  8
2
 48
0.175
370
    60
390
F
100
AcDbLine
 10
484.234612
 20
158.677286
 30
0.0
 11
491.234612
 21
158.677286
 31
0.0
  0
LINE
  5
1C4
330
1F
100
AcDbEntity
  8
2
 48
0.036612
370
    60
390
F
100
AcDbLine
 10
491.234612
 20
158.677286
 30
0.0
 11
492.699089
 21
158.677286
 31
0.0
  0
LINE
  5
1C5
330
1F
100
AcDbEntity
  8
2
 48
0.276776
370
    60
390
F
100
AcDbLine
 10
492.699089
 20
158.677286
 30
0.0
 11
503.770134
 21
158.677286
 31
0.0
  0
LINE
  5
1C6
330
1F
100
AcDbEntity
  8
2
 48
0.08839
370
    60
390
F
100
AcDbLine
 10
503.770134
 20
158.677286
 30
0.0
 11
507.305717
 21
158.677286
 31
0.0
  0
LINE
  5
1C7
330
1F
100
AcDbEntity
  8
2
370
    60
390
F
100
AcDbLine
 10
507.305717
 20
158.677286
 30
0.0
 11
530.234612
 21
158.677286
 31
0.0
  0
LINE
  5
1C8
330
1F
100
AcDbEntity
  8
2
370
    60
390
F
100
AcDbLine
 10
450.234612
 20
308.677301
 30
0.0
 11
484.234612
 21
308.677301
 31
0.0
  0
LINE
  5
1C9
330
1F
100
AcDbEntity
  8
2
370
    60
390
F
100
AcDbLine
 10
416.234612
 20
308.677301
 30
0.0
 11
450.234612
 21
308.677301
 31
0.0
  0
LINE
  5
1CA
330
1F
100
AcDbEntity
  8
2
 48
0.175
370
    60
390
F
100
AcDbLine
 10
484.234612
 20
308.677301
 30
0.0
 11
491.234612
 21
308.677301
 31
0.0
  0
LINE
  5
1CB
330
1F
100
AcDbEntity
  8
2
 48
0.036612
370
    60
390
F
100
AcDbLine
 10
491.234612
 20
308.677301
 30
0.0
 11
492.699089
 21
308.677301
 31
0.0
  0
LINE
  5
1CC
330
1F
100
AcDbEntity
  8
2
 48
0.276776
370
    60
390
F
100
AcDbLine
 10
492.699089
 20
308.677301
 30
0.0
 11
503.770134
 21
308.677301
 31
0.0
  0
LINE
  5
1CD
330
1F
100
AcDbEntity
  8
2
 48
0.08839
370
    60
390
F
100
AcDbLine
 10
503.770134
 20
308.677301
 30
0.0
 11
507.305717
 21
308.677301
 31
0.0
  0
LINE
  5
1CE
330
1F
100
AcDbEntity
  8
2
370
    60
390
F
100
AcDbLine
 10
507.305717
 20
308.677301
 30
0.0
 11
530.234612
 21
308.677301
 31
0.0
  0
CIRCLE
  5
1CF
330
1F
100
AcDbEntity
  8
2
370
    60
390
F
100
AcDbCircle
 10
520.234612
 20
293.677286
 30
0.0
 40
5.0
  0
LWPOLYLINE
  5
1D0
330
1F
100
AcDbEntity
  8
2
370
    60
390
F
100
AcDbPolyline
 90
       36
 70
     0
 43
0.0
 10
501.770134
 20
293.677286
 10
501.760124
 20
294.053263
 10
501.730156
 20
294.427103
 10
501.680595
 20
294.795664
 10
501.611565
 20
295.157938
 10
501.524406
 20
295.508966
 10
501.418938
 20
295.849848
 10
501.297661
 20
296.174387
 10
501.159874
 20
296.485453
 10
501.009209
 20
296.776255
 10
500.844078
 20
297.050928
 10
500.669334
 20
297.30279
 10
500.482506
 20
297.536585
 10
500.289207
 20
297.746378
 10
500.086143
 20
297.936838
 10
499.879417
 20
298.103266
 10
499.665276
 20
298.249643
 10
499.449608
 20
298.372782
 10
499.228691
 20
298.47558
 10
499.007683
 20
298.556299
 10
498.78344
 20
298.616678
 10
498.559837
 20
298.656092
 10
498.334892
 20
298.675272
 10
498.110832
 20
298.674219
 10
497.88726
 20
298.653101
 10
497.444267
 20
298.55076
 10
497.009911
 20
298.367716
 10
496.589226
 20
298.102808
 10
496.188652
 20
297.75503
 10
495.816246
 20
297.324594
 10
495.481377
 20
296.814051
 10
495.194206
 20
296.22909
 10
494.964867
 20
295.579203
 10
494.802513
 20
294.877771
 10
494.714378
 20
294.141764
 10
494.699089
 20
293.677286
  0
LWPOLYLINE
  5
1F6
330
1F
100
AcDbEntity
  8
2
370
    60
390
F
100
AcDbPolyline
 90
       36
 70
     0
 43
0.0
 10
494.699089
 20
293.677286
 10
494.709099
 20
293.30131
 10
494.739067
 20
292.927469
 10
494.788658
 20
292.558908
 10
494.857658
 20
292.196634
 10
494.944878
 20
291.845606
 10
495.050285
 20
291.504725
 10
495.171593
 20
291.180185
 10
495.30938
 20
290.86912
 10
495.460045
 20
290.578318
 10
495.625175
 20
290.303644
 10
495.799889
 20
290.051783
 10
495.986748
 20
289.817987
 10
496.180046
 20
289.608194
 10
496.38311
 20
289.417734
 10
496.589836
 20
289.251307
 10
496.803978
 20
289.104929
 10
497.019646
 20
288.981791
 10
497.240562
 20
288.878992
 10
497.461571
 20
288.798273
 10
497.685814
 20
288.737894
 10
497.909416
 20
288.698481
 10
498.134361
 20
288.6793
 10
498.358421
 20
288.680353
 10
498.581993
 20
288.701471
 10
499.024986
 20
288.803812
 10
499.459343
 20
288.986856
 10
499.880028
 20
289.251764
 10
500.280602
 20
289.599543
 10
500.653008
 20
290.029978
 10
500.987877
 20
290.540522
 10
501.275078
 20
291.125483
 10
501.504387
 20
291.77537
 10
501.66674
 20
292.476801
 10
501.754875
 20
293.212809
 10
501.770134
 20
293.677286
  0
LINE
  5
23F
330
1F
100
AcDbEntity
  8
2
370
    60
390
F
100
AcDbLine
 10
370.234612
 20
158.677286
 30
0.0
 11
393.163567
 21
158.677286
 31
0.0
  0
LINE
  5
240
330
1F
100
AcDbEntity
  8
2
370
    60
390
F
100
AcDbLine
 10
370.234612
 20
308.677301
 30
0.0
 11
393.163567
 21
308.677301
 31
0.0
  0
LINE
  5
241
330
1F
100
AcDbEntity
  8
2
370
    60
390
F
100
AcDbLine
 10
370.234612
 20
158.677286
 30
0.0
 11
370.234612
 21
308.677301
 31
0.0
  0
LINE
  5
242
330
1F
100
AcDbEntity
  8
2
 48
0.088388
370
    60
390
F
100
AcDbLine
 10
393.163567
 20
158.677286
 30
0.0
 11
396.699089
 21
158.677286
 31
0.0
  0
LINE
  5
243
330
1F
100
AcDbEntity
  8
2
 48
0.088388
370
    60
390
F
100
AcDbLine
 10
393.163567
 20
308.677301
 30
0.0
 11
396.699089
 21
308.677301
 31
0.0
  0
LINE
  5
244
330
1F
100
AcDbEntity
  8
2
 48
0.276777
370
    60
390
F
100
AcDbLine
 10
396.699089
 20
158.677286
 30
0.0
 11
407.770164
 21
158.677286
 31
0.0
  0
LINE
  5
245
330
1F
100
AcDbEntity
  8
2
 48
0.276777
370
    60
390
F
100
AcDbLine
 10
396.699089
 20
308.677301
 30
0.0
 11
407.770164
 21
308.677301
 31
0.0
  0
LINE
  5
246
330
1F
100
AcDbEntity
  8
2
 48
0.036611
370
    60
390
F
100
AcDbLine
 10
407.770164
 20
158.677286
 30
0.0
 11
409.234612
 21
158.677286
 31
0.0
  0
LINE
  5
247
330
1F
100
AcDbEntity
  8
2
 48
0.036611
370
    60
390
F
100
AcDbLine
 10
407.770164
 20
308.677301
 30
0.0
 11
409.234612
 21
308.677301
 31
0.0
  0
LINE
  5
248
330
1F
100
AcDbEntity
  8
2
 48
0.175
370
    60
390
F
100
AcDbLine
 10
409.234612
 20
158.677286
 30
0.0
 11
416.234612
 21
158.677286
 31
0.0
  0
LINE
  5
249
330
1F
100
AcDbEntity
  8
2
 48
0.175
370
    60
390
F
100
AcDbLine
 10
409.234612
 20
308.677301
 30
0.0
 11
416.234612
 21
308.677301
 31
0.0
  0
LINE
  5
24A
330
1F
100
AcDbEntity
  8
2
370
    60
390
F
100
AcDbLine
 10
409.234612
 20
158.677286
 30
0.0
 11
409.234612
 21
188.677286
 31
0.0
  0
LINE
  5
24B
330
1F
100
AcDbEntity
  8
2
370
    60
390
F
100
AcDbLine
 10
409.234612
 20
218.677286
 30
0.0
 11
409.234612
 21
308.677301
 31
0.0
  0
CIRCLE
  5
24C
330
1F
100
AcDbEntity
  8
2
370
    60
390
F
100
AcDbCircle
 10
380.234612
 20
293.677286
 30
0.0
 40
5.0
  0
CIRCLE
  5
24D
330
1F
100
AcDbEntity
  8
2
370
    60
390
F
100
AcDbCircle
 10
380.234612
 20
173.677286
 30
0.0
 40
5.0
  0
LWPOLYLINE
  5
271
330
1F
100
AcDbEntity
  8
2
370
    60
390
F
100
AcDbPolyline
 90
       36
 70
     0
 43
0.0
 10
398.699089
 20
293.677286
 10
398.709099
 20
293.30131
 10
398.739067
 20
292.927469
 10
398.788658
 20
292.558908
 10
398.857658
 20
292.196634
 10
398.944878
 20
291.845606
 10
399.050285
 20
291.504725
 10
399.171593
 20
291.180185
 10
399.30938
 20
290.86912
 10
399.460045
 20
290.578318
 10
399.625175
 20
290.303644
 10
399.799889
 20
290.051783
 10
399.986748
 20
289.817987
 10
400.180046
 20
289.608194
 10
400.38311
 20
289.417734
 10
400.589836
 20
289.251307
 10
400.803978
 20
289.104929
 10
401.019646
 20
288.981791
 10
401.240562
 20
288.878992
 10
401.461571
 20
288.798273
 10
401.685814
 20
288.737894
 10
401.909416
 20
288.698481
 10
402.134361
 20
288.6793
 10
402.358421
 20
288.680353
 10
402.581993
 20
288.701471
 10
403.024986
 20
288.803812
 10
403.459343
 20
288.986856
 10
403.880028
 20
289.251764
 10
404.280602
 20
289.599543
 10
404.653008
 20
290.029978
 10
404.987877
 20
290.540522
 10
405.275047
 20
291.125483
 10
405.504387
 20
291.77537
 10
405.66674
 20
292.476801
 10
405.754875
 20
293.212809
 10
405.770164
 20
293.677286
  0
LWPOLYLINE
  5
297
330
1F
100
AcDbEntity
  8
2
370
    60
390
F
100
AcDbPolyline
 90
       36
 70
     0
 43
0.0
 10
405.770164
 20
293.677286
 10
405.760155
 20
294.053263
 10
405.730186
 20
294.427103
 10
405.680595
 20
294.795664
 10
405.611595
 20
295.157938
 10
405.524376
 20
295.508966
 10
405.418968
 20
295.849848
 10
405.297661
 20
296.174387
 10
405.159874
 20
296.485453
 10
405.009209
 20
296.776255
 10
404.844078
 20
297.050928
 10
404.669334
 20
297.30279
 10
404.482506
 20
297.536585
 10
404.289207
 20
297.746378
 10
404.086143
 20
297.936838
 10
403.879417
 20
298.103266
 10
403.665276
 20
298.249643
 10
403.449608
 20
298.372782
 10
403.228691
 20
298.47558
 10
403.007683
 20
298.556299
 10
402.78344
 20
298.616678
 10
402.559837
 20
298.656092
 10
402.334892
 20
298.675272
 10
402.110832
 20
298.674219
 10
401.88726
 20
298.653101
 10
401.444267
 20
298.55076
 10
401.009911
 20
298.367716
 10
400.589226
 20
298.102808
 10
400.188652
 20
297.75503
 10
399.816246
 20
297.324594
 10
399.481377
 20
296.814051
 10
399.194206
 20
296.22909
 10
398.964867
 20
295.579203
 10
398.802513
 20
294.877771
 10
398.714378
 20
294.141764
 10
398.699089
 20
293.677286
  0
LWPOLYLINE
  5
2E0
330
1F
100
AcDbEntity
  8
2
370
    60
390
F
100
AcDbPolyline
 90
       36
 70
     0
 43
0.0
 10
405.770164
 20
173.677286
 10
405.760155
 20
174.053255
 10
405.730186
 20
174.427103
 10
405.680595
 20
174.795664
 10
405.611595
 20
175.157938
 10
405.524376
 20
175.508966
 10
405.418968
 20
175.849855
 10
405.297661
 20
176.174387
 10
405.159874
 20
176.485453
 10
405.009209
 20
176.776247
 10
404.844078
 20
177.050928
 10
404.669334
 20
177.302782
 10
404.482506
 20
177.536585
 10
404.289207
 20
177.746378
 10
404.086143
 20
177.936838
 10
403.879417
 20
178.103258
 10
403.665276
 20
178.249651
 10
403.449608
 20
178.372782
 10
403.228691
 20
178.47558
 10
403.007683
 20
178.556299
 10
402.78344
 20
178.616678
 10
402.559837
 20
178.656092
 10
402.334892
 20
178.675272
 10
402.110832
 20
178.674219
 10
401.88726
 20
178.653101
 10
401.444267
 20
178.550745
 10
401.009911
 20
178.367716
 10
400.589226
 20
178.102808
 10
400.188652
 20
177.755022
 10
399.816246
 20
177.324602
 10
399.481377
 20
176.814051
 10
399.194206
 20
176.22909
 10
398.964867
 20
175.579203
 10
398.802513
 20
174.877779
 10
398.714378
 20
174.141756
 10
398.699089
 20
173.677286
  0
LWPOLYLINE
  5
306
330
1F
100
AcDbEntity
  8
2
370
    60
390
F
100
AcDbPolyline
 90
       36
 70
     0
 43
0.0
 10
398.699089
 20
173.677286
 10
398.709099
 20
173.301317
 10
398.739067
 20
172.927469
 10
398.788658
 20
172.558908
 10
398.857658
 20
172.196642
 10
398.944878
 20
171.845606
 10
399.050285
 20
171.504717
 10
399.171593
 20
171.180185
 10
399.30938
 20
170.869112
 10
399.460045
 20
170.578325
 10
399.625175
 20
170.303644
 10
399.799889
 20
170.05179
 10
399.986748
 20
169.817987
 10
400.180046
 20
169.608194
 10
400.38311
 20
169.417734
 10
400.589836
 20
169.251314
 10
400.803978
 20
169.104921
 10
401.019646
 20
168.981798
 10
401.240562
 20
168.878984
 10
401.461571
 20
168.798273
 10
401.685814
 20
168.737894
 10
401.909416
 20
168.698481
 10
402.134361
 20
168.6793
 10
402.358421
 20
168.680353
 10
402.581993
 20
168.701479
 10
403.024986
 20
168.80382
 10
403.459343
 20
168.986856
 10
403.880028
 20
169.251764
 10
404.280602
 20
169.59955
 10
404.653008
 20
170.02997
 10
404.987877
 20
170.540522
 10
405.275047
 20
171.125483
 10
405.504387
 20
171.77537
 10
405.66674
 20
172.476793
 10
405.754875
 20
173.212816
 10
405.770164
 20
173.677286
  0
ARC
  5
32C
330
1F
100
AcDbEntity
  8
2
370
    60
390
F
100
AcDbCircle
 10
510.234612
 20
203.677286
 30
0.0
 40
6.5
100
AcDbArc
 50
270.000001
 51
90.000003
  0
LINE
  5
32D
330
1F
100
AcDbEntity
  8
2
 48
0.125
370
    60
390
F
100
AcDbLine
 10
505.234612
 20
197.177286
 30
0.0
 11
510.234612
 21
197.177286
 31
0.0
  0
ARC
  5
32E
330
1F
100
AcDbEntity
  8
2
370
    60
390
F
100
AcDbCircle
 10
505.234612
 20
203.677286
 30
0.0
 40
6.5
100
AcDbArc
 50
90.000003
 51
270.000001
  0
LINE
  5
32F
330
1F
100
AcDbEntity
  8
2
 48
0.125
370
    60
390
F
100
AcDbLine
 10
505.234612
 20
210.177286
 30
0.0
 11
510.234612
 21
210.177286
 31
0.0
  0
LINE
  5
330
330
1F
100
AcDbEntity
  8
2
370
    60
390
F
100
AcDbLine
 10
525.234612
 20
188.677286
 30
0.0
 11
525.234612
 21
218.677286
 31
0.0
  0
LINE
  5
331
330
1F
100
AcDbEntity
  8
2
370
    60
390
F
100
AcDbLine
 10
375.234612
 20
218.677286
 30
0.0
 11
525.234612
 21
218.677286
 31
0.0
  0
LINE
  5
332
330
1F
100
AcDbEntity
  8
2
370
    60
390
F
100
AcDbLine
 10
375.234612
 20
188.677286
 30
0.0
 11
525.234612
 21
188.677286
 31
0.0
  0
LINE
  5
333
330
1F
100
AcDbEntity
  8
2
370
    60
390
F
100
AcDbLine
 10
375.234612
 20
188.677286
 30
0.0
 11
375.234612
 21
218.677286
 31
0.0
  0
CIRCLE
  5
334
330
1F
100
AcDbEntity
  8
2
370
    60
390
F
100
AcDbCircle
 10
450.234612
 20
203.677286
 30
0.0
 40
10.0
  0
LINE
  5
335
330
1F
100
AcDbEntity
  8
2
 48
0.125
370
    60
390
F
100
AcDbLine
 10
390.234612
 20
210.177286
 30
0.0
 11
395.234612
 21
210.177286
 31
0.0
  0
ARC
  5
336
330
1F
100
AcDbEntity
  8
2
370
    60
390
F
100
AcDbCircle
 10
395.234612
 20
203.677286
 30
0.0
 40
6.5
100
AcDbArc
 50
270.000001
 51
90.000003
  0
LINE
  5
337
330
1F
100
AcDbEntity
  8
2
 48
0.125
370
    60
390
F
100
AcDbLine
 10
390.234612
 20
197.177286
 30
0.0
 11
395.234612
 21
197.177286
 31
0.0
  0
ARC
  5
338
330
1F
100
AcDbEntity
  8
2
370
    60
390
F
100
AcDbCircle
 10
390.234612
 20
203.677286
 30
0.0
 40
6.5
100
AcDbArc
 50
90.000003
 51
270.000001
  0
LINE
  5
339
330
1F
100
AcDbEntity
  8
2
  6
DASHDOT
370
    25
390
F
100
AcDbLine
 10
505.234612
 20
173.677286
 30
0.0
 11
535.234612
 21
173.677286
 31
0.0
  0
LINE
  5
33A
330
1F
100
AcDbEntity
  8
2
  6
DASHDOT
370
    25
390
F
100
AcDbLine
 10
520.234612
 20
158.677286
 30
0.0
 11
520.234612
 21
188.677286
 31
0.0
  0
LINE
  5
33B
330
1F
100
AcDbEntity
  8
2
  6
DASHDOT
370
    25
390
F
100
AcDbLine
 10
505.234612
 20
293.677286
 30
0.0
 11
535.234612
 21
293.677286
 31
0.0
  0
LINE
  5
33C
330
1F
100
AcDbEntity
  8
2
  6
DASHDOT
370
    25
390
F
100
AcDbLine
 10
520.234612
 20
278.677286
 30
0.0
 11
520.234612
 21
308.677301
 31
0.0
  0
LINE
  5
33D
330
1F
100
AcDbEntity
  8
2
  6
DASHDOT
370
    25
390
F
100
AcDbLine
 10
365.234612
 20
293.677286
 30
0.0
 11
395.234612
 21
293.677286
 31
0.0
  0
LINE
  5
33E
330
1F
100
AcDbEntity
  8
2
  6
DASHDOT
370
    25
390
F
100
AcDbLine
 10
380.234612
 20
278.677286
 30
0.0
 11
380.234612
 21
308.677301
 31
0.0
  0
LINE
  5
33F
330
1F
100
AcDbEntity
  8
2
  6
DASHDOT
370
    25
390
F
100
AcDbLine
 10
365.234612
 20
173.677286
 30
0.0
 11
395.234612
 21
173.677286
 31
0.0
  0
LINE
  5
340
330
1F
100
AcDbEntity
  8
2
  6
DASHDOT
370
    25
390
F
100
AcDbLine
 10
380.234612
 20
158.677286
 30
0.0
 11
380.234612
 21
188.677286
 31
0.0
  0
LINE
  5
341
330
1F
100
AcDbEntity
  8
2
  6
DASHDOT
370
    60
390
F
100
AcDbLine
 10
493.734612
 20
203.677286
 30
0.0
 11
526.734612
 21
203.677286
 31
0.0
  0
LINE
  5
342
330
1F
100
AcDbEntity
  8
2
  6
DASHDOT
370
    25
390
F
100
AcDbLine
 10
510.234612
 20
187.177286
 30
0.0
 11
510.234612
 21
220.177286
 31
0.0
  0
LINE
  5
343
330
1F
100
AcDbEntity
  8
2
  6
DASHDOT
370
    25
390
F
100
AcDbLine
 10
488.734612
 20
203.677286
 30
0.0
 11
521.734612
 21
203.677286
 31
0.0
  0
LINE
  5
344
330
1F
100
AcDbEntity
  8
2
  6
DASHDOT
370
    25
390
F
100
AcDbLine
 10
505.234612
 20
187.177286
 30
0.0
 11
505.234612
 21
220.177286
 31
0.0
  0
LINE
  5
345
330
1F
100
AcDbEntity
  8
2
  6
DASHDOT
370
    25
390
F
100
AcDbLine
 10
430.234612
 20
203.677286
 30
0.0
 11
470.234612
 21
203.677286
 31
0.0
  0
LINE
  5
346
330
1F
100
AcDbEntity
  8
2
  6
DASHDOT
370
    25
390
F
100
AcDbLine
 10
450.234612
 20
183.677286
 30
0.0
 11
450.234612
 21
223.677286
 31
0.0
  0
LINE
  5
347
330
1F
100
AcDbEntity
  8
2
  6
DASHDOT
370
    60
390
F
100
AcDbLine
 10
378.734612
 20
203.677286
 30
0.0
 11
411.734612
 21
203.677286
 31
0.0
  0
LINE
  5
348
330
1F
100
AcDbEntity
  8
2
  6
DASHDOT
370
    25
390
F
100
AcDbLine
 10
395.234612
 20
187.177286
 30
0.0
 11
395.234612
 21
220.177286
 31
0.0
  0
LINE
  5
349
330
1F
100
AcDbEntity
  8
2
  6
DASHDOT
370
    25
390
F
100
AcDbLine
 10
373.734612
 20
203.677286
 30
0.0
 11
406.734612
 21
203.677286
 31
0.0
  0
LINE
  5
34A
330
1F
100
AcDbEntity
  8
2
  6
DASHDOT
370
    25
390
F
100
AcDbLine
 10
390.234612
 20
187.177286
 30
0.0
 11
390.234612
 21
220.177286
 31
0.0
  0
DIMENSION
  5
6DE
330
1F
100
AcDbEntity
  8
0
370
    25
100
AcDbDimension
  2
*D6
 10
308.910576
 20
339.8095318849002
 30
0.0
 11
167.9105835
 21
351.1095318849002
 31
0.0
 70
   160
 71
     5
 41
2.5
 42
281.999985
  3
Standard
100
AcDbAlignedDimension
 13
26.910591
 23
203.677271
 33
0.0
 14
308.910576
 24
208.1911308793025
 34
0.0
100
AcDbRotatedDimension
1001
ACAD
1000
DSTYLE
1002
{
1070
    41
1040
10.0
1070
   140
1040
14.0
1070
   147
1040
5.0
1070
   176
1070
     7
1070
   177
1070
     7
1002
}
  0
DIMENSION
  5
70B
330
1F
100
AcDbEntity
  8
0
370
    25
100
AcDbDimension
  2
*D2
 10
530.234612
 20
339.8095318849002
 30
0.0
 11
445.5875064825814
 21
351.1150436959238
 31
0.0
 70
   160
 71
     5
 41
2.5
 42
159.9999999999999
  3
Standard
100
AcDbAlignedDimension
 13
370.234612
 23
276.6957282421142
 33
0.0
 14
530.234612
 24
276.6957282421142
 34
0.0
100
AcDbRotatedDimension
1001
ACAD
1000
DSTYLE
1002
{
1070
    41
1040
10.0
1070
   140
1040
14.0
1070
   147
1040
5.0
1070
   176
1070
     7
1070
   177
1070
     7
1002
}
  0
DIMENSION
  5
739
330
1F
100
AcDbEntity
  8
0
370
    25
100
AcDbDimension
  2
*D3
 10
525.234612
 20
237.8665131651307
 30
0.0
 11
450.234612
 21
249.1720249761543
 31
0.0
 70
    32
 71
     5
 41
2.5
 42
149.9999999999999
  3
Standard
100
AcDbAlignedDimension
 13
375.234612
 23
209.0996113973538
 33
0.0
 14
525.234612
 24
209.0996113973538
 34
0.0
100
AcDbRotatedDimension
1001
ACAD
1000
DSTYLE
1002
{
1070
    41
1040
10.0
1070
   140
1040
14.0
1070
   147
1040
5.0
1070
   176
1070
     7
1070
   177
1070
     7
1002
}
  0
DIMENSION
  5
75B
330
1F
100
AcDbEntity
  8
0
370
    25
100
AcDbDimension
  2
*D4
 10
355.3902590133837
 20
188.677286
 30
0.0
 11
344.0847472023601
 21
203.6377013490174
 31
0.0
 70
    32
  1
30
 71
     5
 41
2.5
 42
29.92083069803485
  3
Standard
100
AcDbAlignedDimension
 13
409.234612
 23
218.5981166980349
 33
0.0
 14
409.234612
 24
188.677286
 34
0.0
 50
90.0
100
AcDbRotatedDimension
1001
ACAD
1000
DSTYLE
1002
{
1070
    41
1040
10.0
1070
   140
1040
14.0
1070
   147
1040
5.0
1070
   176
1070
     7
1070
   177
1070
     7
1002
}
  0
DIMENSION
  5
78B
330
1F
100
AcDbEntity
  8
0
370
    25
100
AcDbDimension
  2
*D5
 10
557.8053454413665
 20
158.677286
 30
0.0
 11
546.4998336303429
 21
233.6772935
 31
0.0
 70
    32
 71
     5
 41
2.5
 42
150.000015
  3
Standard
100
AcDbAlignedDimension
 13
471.3495625004737
 23
308.677301
 33
0.0
 14
471.3495625004737
 24
158.677286
 34
0.0
 50
90.0
100
AcDbRotatedDimension
1001
ACAD
1000
DSTYLE
1002
{
1070
    41
1040
10.0
1070
   140
1040
14.0
1070
   147
1040
5.0
1070
   176
1070
     7
1070
   177
1070
     7
1002
}
  0
VIEWPORT
  5
376
330
73
100
AcDbEntity
 67
     1
  8
0
 62
     0
370
     0
390
F
100
AcDbViewport
 10
0.0
 20
0.0
 30
0.0
 40
1000.0
 41
1000.0
 68
     1
 69
     1
 12
0.0
 22
0.0
 13
0.0
 23
0.0
 14
1.0
 24
1.0
 15
1.0
 25
1.0
 16
0.0
 26
0.0
 36
1.0
 17
0.0
 27
0.0
 37
0.0
 42
50.0
 43
0.0
 44
0.0
 45
1000.0
 50
0.0
 51
0.0
 72
   100
 90
   557056
  1

281
     0
 71
     0
 74
     0
110
0.0
120
0.0
130
0.0
111
1.0
121
0.0
131
0.0
112
0.0
122
1.0
132
0.0
 79
     0
146
0.0
  0
ENDSEC
  0
SECTION
  2
OBJECTS
  0
DICTIONARY
  5
C
330
0
100
AcDbDictionary
281
     1
  3
ACAD_COLOR
350
6C
  3
ACAD_GROUP
350
D
  3
ACAD_LAYOUT
350
1A
  3
ACAD_MATERIAL
350
6B
  3
ACAD_MLEADERSTYLE
350
535
  3
ACAD_MLINESTYLE
350
17
  3
ACAD_PLOTSETTINGS
350
19
  3
ACAD_PLOTSTYLENAME
350
E
  3
ACAD_SCALELIST
350
99
  3
ACAD_TABLESTYLE
350
92
  3
ACAD_WIPEOUT_VARS
350
871
  3
ACDBHEADERROUNDTRIPXREC
350
880
  3
AcDbVariableDictionary
350
59
  3
DWGPROPS
350
883
  0
DICTIONARY
  5
6C
102
{ACAD_REACTORS
330
C
102
}
330
C
100
AcDbDictionary
281
     1
  0
DICTIONARY
  5
D
102
{ACAD_REACTORS
330
C
102
}
330
C
100
AcDbDictionary
281
     1
  0
DICTIONARY
  5
1A
102
{ACAD_REACTORS
330
C
102
}
330
C
100
AcDbDictionary
281
     1
  3
Layout1
350
74
  3
Model
350
22
  0
DICTIONARY
  5
6B
102
{ACAD_REACTORS
330
C
102
}
330
C
100
AcDbDictionary
281
     1
  0
DICTIONARY
  5
535
102
{ACAD_REACTORS
330
C
102
}
330
C
100
AcDbDictionary
281
     1
  0
DICTIONARY
  5
17
102
{ACAD_REACTORS
330
C
102
}
330
C
100
AcDbDictionary
281
     1
  3
Standard
350
18
  0
DICTIONARY
  5
19
102
{ACAD_REACTORS
330
C
102
}
330
C
100
AcDbDictionary
281
     1
  0
ACDBDICTIONARYWDFLT
  5
E
102
{ACAD_REACTORS
330
C
102
}
330
C
100
AcDbDictionary
281
     1
  3
Normal
350
F
100
AcDbDictionaryWithDefault
340
F
  0
DICTIONARY
  5
99
102
{ACAD_REACTORS
330
C
102
}
330
C
100
AcDbDictionary
281
     1
  3
A0
350
4C7
  3
A1
350
4C8
  3
A2
350
4C9
  3
A3
350
4CA
  3
A4
350
4CB
  3
A5
350
4CC
  3
A6
350
4CD
  3
A7
350
4CE
  3
A8
350
4CF
  3
A9
350
4D0
  3
B0
350
4D1
  3
B1
350
4D2
  3
B2
350
4D3
  3
B3
350
4D4
  3
B4
350
4D5
  3
B5
350
4D6
  3
B6
350
4D7
  3
B7
350
4D8
  3
B8
350
4D9
  3
B9
350
4DA
  3
C0
350
4DB
  3
C1
350
4DC
  3
C2
350
4DD
  3
C3
350
4DE
  3
C4
350
4DF
  3
C5
350
4E0
  3
C6
350
4E1
  3
C7
350
4E2
  3
C8
350
4E3
  3
C9
350
4E4
  3
D0
350
4E5
  3
D1
350
4E6
  3
D2
350
4E7
  0
DICTIONARY
  5
92
102
{ACAD_REACTORS
330
C
102
}
330
C
100
AcDbDictionary
281
     1
  0
WIPEOUTVARIABLES
  5
871
102
{ACAD_REACTORS
330
C
102
}
330
C
100
AcDbWipeoutVariables
 70
     1
  0
DICTIONARY
  5
880
102
{ACAD_REACTORS
330
C
102
}
330
C
100
AcDbDictionary
281
     1
  3
COLORDICT
350
881
  3
MATERIALDICT
350
882
  0
DICTIONARY
  5
59
102
{ACAD_REACTORS
330
C
102
}
330
C
100
AcDbDictionary
281
     1
  3
CTABLESTYLE
350
870
  3
DIMASSOC
350
5A
  3
HIDETEXT
350
5E
  0
XRECORD
  5
883
102
{ACAD_REACTORS
330
C
102
}
330
C
100
AcDbXrecord
280
     1
  1
DWGPROPS COOKIE
  2

  3

  4

  6

  7

  8
BelottiMc
  9

300
=
301
=
302
=
303
=
304
=
305
=
306
=
307
=
308
=
309
=
 40
0.0
 41
2447893.0
 42
2447893.0
  1

 90
        0
  0
LAYOUT
  5
74
102
{ACAD_REACTORS
330
1A
102
}
330
1A
100
AcDbPlotSettings
  1

  2
none_device
  4
none_user_media
  6

 40
0.0
 41
0.0
 42
0.0
 43
0.0
 44
0.0
 45
0.0
 46
0.0
 47
0.0
 48
0.0
 49
0.0
140
0.0
141
0.0
142
1.0
143
1.0
 70
   544
 72
     0
 73
     0
 74
     0
  7

 75
    16
147
1.0
148
0.0
149
0.0
100
AcDbLayout
  1
Layout1
 70
     1
 71
     0
 10
0.0
 20
0.0
 11
420.0
 21
297.0
 12
0.0
 22
0.0
 32
0.0
 14
0.0
 24
0.0
 34
0.0
 15
787.310059
 25
464.17395
 35
2.0
146
0.0
 13
0.0
 23
0.0
 33
0.0
 16
1.0
 26
0.0
 36
0.0
 17
0.0
 27
1.0
 37
0.0
 76
     0
330
73
331
376
  0
LAYOUT
  5
22
102
{ACAD_REACTORS
330
1A
102
}
330
1A
100
AcDbPlotSettings
  1

  2
none_device
  4
none_user_media
  6

 40
6.349999904632568
 41
6.349999904632568
 42
6.350006103515625
 43
6.350006103515625
 44
215.8999938964844
 45
279.3999938964844
 46
0.0
 47
0.0
 48
0.0
 49
0.0
140
0.0
141
0.0
142
1.0
143
1.0
 70
 11936
 72
     0
 73
     0
 74
     0
  7

 75
     0
147
0.4264212758279932
148
0.0
149
0.0
100
AcDbLayout
  1
Model
 70
     1
 71
     0
 10
0.0
 20
0.0
 11
420.0
 21
297.0
 12
0.0
 22
0.0
 32
0.0
 14
26.910591
 24
158.677271
 34
0.0
 15
559.4720121080331
 25
357.0705555069474
 35
0.0
146
0.0
 13
0.0
 23
0.0
 33
0.0
 16
1.0
 26
0.0
 36
0.0
 17
0.0
 27
1.0
 37
0.0
 76
     0
330
1F
331
97
1001
PROGE_PRINT_SETTINGS
1070
    73
1070
     2
1070
   311
1000
\\DCC100B\W366@Tec
1004
303030303030303035323030343930303433303034463030343830303230303034313030363630303639303036333030363930303646303032303030343130303530303033363030333130303330303034453030323030303530303034333030344330303230303033363030303030303030303030303030303030303030
1004
303030303030303030303443303035303030353430303331303033413030303030303030303030303030303030303030303030303030303030303030303030303030303030303030303030303030303030303030303030303030303030303030303030303030303030303030303030303030303030303030303030303030
1004
303030303030303030303030303030303030303030303030303030303030303030303030303030303030303030303030303030303030303030303030303030303030303030303030303030303030303030303030303030303030303030303030303030303030303030303030303030303030303030303030303030303030
1004
303030303030303030303030303030303030303030303030303030303030303030303030303030303030303030303030303030303030303030303030303030303030303030303030303030303030303030303030303030303030303030303030303030303030303030303030303030303030303030303030303030303030
1004
303030303030303030303030303030303030303030303030303030303030303030303030303030303030303030303030303030303030303030303030303030303030303030303030303030303030303030303030303030303030303030303030303030303030303030303030303030303030303030303030373430413030
1004
303030303030303030303030303030303030303130303030303037343041303030303531304430303030303030303030303030363030303030304230303930303030423330443030303030313030303030303030303030303030303030303030303030303030303030303030303030303030303030303030303030303030
1004
303030303030303030303030303030303030303030303030303030303030303030303030303030303030303036343030303030303035303030303030303030303030303030303030303030303030303030303030303030303030303030303030303030303030303030303030303630303030303030303030303030303030
1004
303030303030303030303030303030303030303030303030303030303030313830303030303030303030313032373130323731303237303030303130323730303030303030303030303030303030303130303030303030303030303030303030303030303030303030303030303030303030303030303030303030303030
1004
303030303030303030303030303030303030303030303030303030303030303030303030303030303030303030303030303030303030303030303030303030303030303030303030303030303030303030303030303030303030303030303030303030303030303030303030303030303030303030303030303030303030
1004
303030303030303030303030303030303030303030303030303030303030303030303030303030303030303030303030303030303030303030303030303030303030303030303030303030303030303030303030303030303030303030303030303030303030303030303030303030303030303030303030303030303030
1004
303030303030303030303030303030303030303030303030303030303030303030303030303030303030303030303030303030303030303030303030303030303030303030303030303030303030303030303030303030303030303030303030303030303030303030303030303030303030303030303030303030303030
1004
303030303030303030303030303030303030303030303030303030303030303030303030303030303030303030303030303030303030303030303030303030303030303030303030303030303030303030303030303030303030303030303030303030303030303030303030303030303030303030303030303030303030
1004
303030303030303030303030303030303030303030303030303030303030303030303030303030303030303030303030303030303030303030303030303030303030303030303030303030303030303030303030303030303030303030303030303030303030303030303030303030303030303030303030303030303030
1004
303030303030303030303030303030303030303030303030303030303030303030303030303030303030303030303030303030303030303030303030303030303030303030303030303030303030303030303030303030303030303030303030303030303030303030303030303030303030303030303030303030303030
1004
303030303030303030303030303030303030303030303030303030303030303030303030303030303030303030303030303030303030303030303030303030303030303030303030303030303030303030303030303030303030303030303030303030303030303030303030303030303030303030303030303030303030
1004
303030303030303030303030303030303030303030303030303030303030303030303030303030303030303030303030303030303030303030303030303030303030303030303030303030303030303030303030303030303030303030303030303030303030303030303030303030303030303030303030303030303030
1004
303030303030303030303030303030303030303030303030303030303030303030303030303030303030303030303030303030303030303030303030303030303030303030303030303030303030303030303030303030303030303030303030303030303030303030303030303030303030303030303030303030303030
1004
303030303030303030303030303030303030303030303030303030303030303030303030303030303030303030303030303030303030303030303030303030303030303030303030303030303030303030303030303030303030303030303030303030303030303030303030303030303030303030303030303030303030
1004
303030303030303030303030303030303030303030303030303030303030303030303030303030303030303030303030303030303030303030303030303030303030303030303030303030303030303030303030303030303030303030303030303030303030303030303030303030303030303030303030303030303030
1004
303030303030303030303030303030303030303030303030303030303030303030303030303030303030303030303030303030303030303030303030303030303030303030303030303030303030303030303030303030303030303030303030303030303030303030303030303030303030303030303030303030303030
1004
303030303030303030303030303030303030303030303030303030303030303030303030303030303030303030303030303030303030303030303030303030303030303030303030303030303030303030303030303030303030303030303030303030303030303030303030303030303030303030303030303030303030
1004
303030303030303030303030303030303030303030303030303030303030303030303030303030303030303030303030303030303030303030303030303030303030303030303030303030303030303030303030303030303030303030303030303030303030303030303030303030303030303030303030303030303030
1004
303030303030303030303030303030303030303030303030303030303030303030303030303030303030303030303030303030303030303030303030303030303030303030303030303030303030303030303030303030303030303030303030303030303030303030303030303030303030303030303030303030303030
1004
303030303030303030303030303030303030303030303030303030303030303030303030303030303030303030303030303030303030303030303030303030303030303030303030303030303030303030303030303030303030303030303030303030303030303030303030303030303030303030303030303030303030
1004
303030303030303030303030303030303030303030303030303030303030303030303030303030303030303030303030303130303030303030313030303030303030303030303030303030303030303030303030303030303030303030303030303130303030303030303030303030303031303030303030303030303030
1004
303030303030303030303030303030303030303030303030303030303030303030303030303030303030303030303030303030303030303030303030303030303030303030303030303036343030303030303030303030303030303030303030303030303030303030303034303030303030303630303030303030303030
1004
303030303031303030303030303030303030303030303030303030303030303030303030303030303030303030303030303030303031303030303030303130303030303030303030303030303030303030303030303130303030303030303030303030303030303030303030303030303030303030303030303030303030
1004
303030303030363430303030303030303030303030303030303030303030303030303030303030313030303030303030303030303030303130303030303030303030303030303030303030303030303030303030303030303030303030303030303030303030303030303030303030303030303030303030303030303030
1004
303030303030303030303030303030303030303030303030303030303030303030303030303030303030303030303030303030303030303030303030303030303030303030303030303030303030303030303030303030303030303030303030303030303030303045373033303030304537303330303030453730333030
1004
303045373033303030303030303030303030303030303030303030303030303030303030303030303030303030303030303030363030303030303030303030303030303030303030303030303030303030303434303036353030363630303631303037353030364330303734303030303030303030303030303030303030
1004
303030303030303030303030303030303030303030343030303030303030303030303030303030303030303030303030303030303030303030303030303030303030303030303030303030303030303030303030303030303030303030303030303030303030303030303030303030303030303030303030303030303030
1004
303030303030303030303030303030303030303030303030303030303030303030303030303030303030303030303030303030303030303030303030303030303030303030303030303030303030303030303030303030303030303030303030303030303030303030303030303030303030303030303030303030303030
1004
303030303030303030303030303030303030303030303030303030303030303030303030303030303030303030303030303030303030303030303030303030303030303030303030303030303030303030303030303030303030303030303030303030303030303030303030303030303030303030303030303030303030
1004
303030303030303030303030303030303030303030303030303030303030303030303030303030303030303030303030303030303030303030303030303030303030303030303030303030303030303030303030303030303030303030303030303030303030303030303030303030303030303030303030303030303030
1004
303030303030303030303030303030303030303030303030303030303030303030303030303030303030303030303030303030303030303030303030303030303030303030303030303030303030303030303030303030303030303030303030303030303030303030303030303030303030303030303030303030303030
1004
303030303030303030303030303030303030303030303030303030303030303030303030303030303030303030303030303030303030303030303030303030303030303030303030303030303030303030303030303030303030303030303030303030303030303030303030303030303030303030303030303030303030
1004
303030303030303030303030303030303030303030303030303030303030303030303030303030303030303030303030303030303030303030303030303030303030303030303030303030303030303030303030303030303030303030303030303030303030303030303030303030303030303030303030303030303030
1004
303030303030303030303030303030303030303030303030303030303030303030303030303030303030303030303030303030303030303030303030303030303030303030303030303030303030303030303030303030303030303030303030303030303030303030303030303030303030303030303030303030303030
1004
30303030303030303030303030303030303030303030303030303030303030303030303030303030303030303030303030303030303030303030303030303030303030303030303030303030303030303030303030313030303030303030303030303030303030303030303030303030303030303030303030303030
  0
MLINESTYLE
  5
18
102
{ACAD_REACTORS
330
17
102
}
330
17
100
AcDbMlineStyle
  2
Standard
 70
     0
  3

 62
     0
 51
90.0
 52
90.0
 71
     2
 49
0.5
 62
   256
  6
BYLAYER
 49
-0.5
 62
   256
  6
BYLAYER
  0
ACDBPLACEHOLDER
  5
F
102
{ACAD_REACTORS
330
E
102
}
330
E
  0
SCALE
  5
4C7
102
{ACAD_REACTORS
330
99
102
}
330
99
100
AcDbScale
 70
     0
300
1:1
140
1.0
141
1.0
290
     1
  0
SCALE
  5
4C8
102
{ACAD_REACTORS
330
99
102
}
330
99
100
AcDbScale
 70
     0
300
1:2
140
1.0
141
2.0
290
     0
  0
SCALE
  5
4C9
102
{ACAD_REACTORS
330
99
102
}
330
99
100
AcDbScale
 70
     0
300
1:4
140
1.0
141
4.0
290
     0
  0
SCALE
  5
4CA
102
{ACAD_REACTORS
330
99
102
}
330
99
100
AcDbScale
 70
     0
300
1:5
140
1.0
141
5.0
290
     0
  0
SCALE
  5
4CB
102
{ACAD_REACTORS
330
99
102
}
330
99
100
AcDbScale
 70
     0
300
1:8
140
1.0
141
8.0
290
     0
  0
SCALE
  5
4CC
102
{ACAD_REACTORS
330
99
102
}
330
99
100
AcDbScale
 70
     0
300
1:10
140
1.0
141
10.0
290
     0
  0
SCALE
  5
4CD
102
{ACAD_REACTORS
330
99
102
}
330
99
100
AcDbScale
 70
     0
300
1:16
140
1.0
141
16.0
290
     0
  0
SCALE
  5
4CE
102
{ACAD_REACTORS
330
99
102
}
330
99
100
AcDbScale
 70
     0
300
1:20
140
1.0
141
20.0
290
     0
  0
SCALE
  5
4CF
102
{ACAD_REACTORS
330
99
102
}
330
99
100
AcDbScale
 70
     0
300
1:30
140
1.0
141
30.0
290
     0
  0
SCALE
  5
4D0
102
{ACAD_REACTORS
330
99
102
}
330
99
100
AcDbScale
 70
     0
300
1:40
140
1.0
141
40.0
290
     0
  0
SCALE
  5
4D1
102
{ACAD_REACTORS
330
99
102
}
330
99
100
AcDbScale
 70
     0
300
1:50
140
1.0
141
50.0
290
     0
  0
SCALE
  5
4D2
102
{ACAD_REACTORS
330
99
102
}
330
99
100
AcDbScale
 70
     0
300
1:100
140
1.0
141
100.0
290
     0
  0
SCALE
  5
4D3
102
{ACAD_REACTORS
330
99
102
}
330
99
100
AcDbScale
 70
     0
300
2:1
140
2.0
141
1.0
290
     0
  0
SCALE
  5
4D4
102
{ACAD_REACTORS
330
99
102
}
330
99
100
AcDbScale
 70
     0
300
4:1
140
4.0
141
1.0
290
     0
  0
SCALE
  5
4D5
102
{ACAD_REACTORS
330
99
102
}
330
99
100
AcDbScale
 70
     0
300
8:1
140
8.0
141
1.0
290
     0
  0
SCALE
  5
4D6
102
{ACAD_REACTORS
330
99
102
}
330
99
100
AcDbScale
 70
     0
300
10:1
140
10.0
141
1.0
290
     0
  0
SCALE
  5
4D7
102
{ACAD_REACTORS
330
99
102
}
330
99
100
AcDbScale
 70
     0
300
100:1
140
100.0
141
1.0
290
     0
  0
SCALE
  5
4D8
102
{ACAD_REACTORS
330
99
102
}
330
99
100
AcDbScale
 70
     0
300
1/128" = 1'-0"
140
0.0078125
141
12.0
290
     0
  0
SCALE
  5
4D9
102
{ACAD_REACTORS
330
99
102
}
330
99
100
AcDbScale
 70
     0
300
1/64" = 1'-0"
140
0.015625
141
12.0
290
     0
  0
SCALE
  5
4DA
102
{ACAD_REACTORS
330
99
102
}
330
99
100
AcDbScale
 70
     0
300
1/32" = 1'-0"
140
0.03125
141
12.0
290
     0
  0
SCALE
  5
4DB
102
{ACAD_REACTORS
330
99
102
}
330
99
100
AcDbScale
 70
     0
300
1/16" = 1'-0"
140
0.0625
141
12.0
290
     0
  0
SCALE
  5
4DC
102
{ACAD_REACTORS
330
99
102
}
330
99
100
AcDbScale
 70
     0
300
3/32" = 1'-0"
140
0.09375
141
12.0
290
     0
  0
SCALE
  5
4DD
102
{ACAD_REACTORS
330
99
102
}
330
99
100
AcDbScale
 70
     0
300
1/8" = 1'-0"
140
0.125
141
12.0
290
     0
  0
SCALE
  5
4DE
102
{ACAD_REACTORS
330
99
102
}
330
99
100
AcDbScale
 70
     0
300
3/16" = 1'-0"
140
0.1875
141
12.0
290
     0
  0
SCALE
  5
4DF
102
{ACAD_REACTORS
330
99
102
}
330
99
100
AcDbScale
 70
     0
300
1/4" = 1'-0"
140
0.25
141
12.0
290
     0
  0
SCALE
  5
4E0
102
{ACAD_REACTORS
330
99
102
}
330
99
100
AcDbScale
 70
     0
300
3/8" = 1'-0"
140
0.375
141
12.0
290
     0
  0
SCALE
  5
4E1
102
{ACAD_REACTORS
330
99
102
}
330
99
100
AcDbScale
 70
     0
300
1/2" = 1'-0"
140
0.5
141
12.0
290
     0
  0
SCALE
  5
4E2
102
{ACAD_REACTORS
330
99
102
}
330
99
100
AcDbScale
 70
     0
300
3/4" = 1'-0"
140
0.75
141
12.0
290
     0
  0
SCALE
  5
4E3
102
{ACAD_REACTORS
330
99
102
}
330
99
100
AcDbScale
 70
     0
300
1" = 1'-0"
140
1.0
141
12.0
290
     0
  0
SCALE
  5
4E4
102
{ACAD_REACTORS
330
99
102
}
330
99
100
AcDbScale
 70
     0
300
1-1/2" = 1'-0"
140
1.5
141
12.0
290
     0
  0
SCALE
  5
4E5
102
{ACAD_REACTORS
330
99
102
}
330
99
100
AcDbScale
 70
     0
300
3" = 1'-0"
140
3.0
141
12.0
290
     0
  0
SCALE
  5
4E6
102
{ACAD_REACTORS
330
99
102
}
330
99
100
AcDbScale
 70
     0
300
6" = 1'-0"
140
6.0
141
12.0
290
     0
  0
SCALE
  5
4E7
102
{ACAD_REACTORS
330
99
102
}
330
99
100
AcDbScale
 70
     0
300
1'-0" = 1'-0"
140
12.0
141
12.0
290
     0
  0
XRECORD
  5
881
102
{ACAD_REACTORS
330
880
102
}
330
880
100
AcDbXrecord
280
     1
340
6C
  0
XRECORD
  5
882
102
{ACAD_REACTORS
330
880
102
}
330
880
100
AcDbXrecord
280
     1
340
6B
  0
DICTIONARYVAR
  5
870
102
{ACAD_REACTORS
330
59
102
}
330
59
100
DictionaryVariables
280
     0
  1
Standard
  0
DICTIONARYVAR
  5
5A
102
{ACAD_REACTORS
330
59
102
}
330
59
100
DictionaryVariables
280
     0
  1
2
  0
DICTIONARYVAR
  5
5E
102
{ACAD_REACTORS
330
59
102
}
330
59
100
DictionaryVariables
280
     0
  1
1
  0
ENDSEC
  0
EOF
