  0
SECTION
  2
HEADER
  9
$ACADVER
  1
AC1015
  9
$ACADMAINTVER
 70
     6
  9
$DWGCODEPAGE
  3
ANSI_1252
  9
$INSBASE
 10
0.0
 20
0.0
 30
0.0
  9
$EXTMIN
 10
108.2475768261319
 20
79.24248927038629
 30
0.0
  9
$EXTMAX
 10
904.2817896693384
 20
293.869265275404
 30
0.0
  9
$LIMMIN
 10
0.0
 20
0.0
  9
$LIMMAX
 10
0.0
 20
0.0
  9
$ORTHOMODE
 70
     0
  9
$REGENMODE
 70
     1
  9
$FILLMODE
 70
     1
  9
$QTEXTMODE
 70
     0
  9
$MIRRTEXT
 70
     0
  9
$LTSCALE
 40
1.0
  9
$ATTMODE
 70
     1
  9
$TEXTSIZE
 40
2.5
  9
$TRACEWID
 40
1.0
  9
$TEXTSTYLE
  7
Standard
  9
$CLAYER
  8
0
  9
$CELTYPE
  6
ByLayer
  9
$CECOLOR
 62
   256
  9
$CELTSCALE
 40
1.0
  9
$DISPSILH
 70
     0
  9
$DIMSCALE
 40
1.0
  9
$DIMASZ
 40
2.5
  9
$DIMEXO
 40
0.625
  9
$DIMDLI
 40
3.75
  9
$DIMRND
 40
0.0
  9
$DIMDLE
 40
0.0
  9
$DIMEXE
 40
1.25
  9
$DIMTP
 40
0.0
  9
$DIMTM
 40
0.0
  9
$DIMTXT
 40
2.5
  9
$DIMCEN
 40
2.5
  9
$DIMTSZ
 40
0.0
  9
$DIMTOL
 70
     0
  9
$DIMLIM
 70
     0
  9
$DIMTIH
 70
     0
  9
$DIMTOH
 70
     0
  9
$DIMSE1
 70
     0
  9
$DIMSE2
 70
     0
  9
$DIMTAD
 70
     1
  9
$DIMZIN
 70
     8
  9
$DIMBLK
  1

  9
$DIMASO
 70
     1
  9
$DIMSHO
 70
     1
  9
$DIMPOST
  1

  9
$DIMAPOST
  1

  9
$DIMALT
 70
     0
  9
$DIMALTD
 70
     3
  9
$DIMALTF
 40
0.03937007874016
  9
$DIMLFAC
 40
1.0
  9
$DIMTOFL
 70
     1
  9
$DIMTVP
 40
0.0
  9
$DIMTIX
 70
     0
  9
$DIMSOXD
 70
     0
  9
$DIMSAH
 70
     0
  9
$DIMBLK1
  1

  9
$DIMBLK2
  1

  9
$DIMSTYLE
  2
ISO-25
  9
$DIMCLRD
 70
     0
  9
$DIMCLRE
 70
     0
  9
$DIMCLRT
 70
     0
  9
$DIMTFAC
 40
1.0
  9
$DIMGAP
 40
0.625
  9
$DIMJUST
 70
     0
  9
$DIMSD1
 70
     0
  9
$DIMSD2
 70
     0
  9
$DIMTOLJ
 70
     0
  9
$DIMTZIN
 70
     8
  9
$DIMALTZ
 70
     0
  9
$DIMALTTZ
 70
     0
  9
$DIMUPT
 70
     0
  9
$DIMDEC
 70
     2
  9
$DIMTDEC
 70
     2
  9
$DIMALTU
 70
     2
  9
$DIMALTTD
 70
     3
  9
$DIMTXSTY
  7
Standard
  9
$DIMAUNIT
 70
     0
  9
$DIMADEC
 70
     0
  9
$DIMALTRND
 40
0.0
  9
$DIMAZIN
 70
     0
  9
$DIMDSEP
 70
    44
  9
$DIMATFIT
 70
     3
  9
$DIMFRAC
 70
     0
  9
$DIMLDRBLK
  1

  9
$DIMLUNIT
 70
     2
  9
$DIMLWD
 70
    -2
  9
$DIMLWE
 70
    -2
  9
$DIMTMOVE
 70
     0
  9
$LUNITS
 70
     2
  9
$LUPREC
 70
     4
  9
$SKETCHINC
 40
1.0
  9
$FILLETRAD
 40
0.0
  9
$AUNITS
 70
     0
  9
$AUPREC
 70
     0
  9
$MENU
  1
.
  9
$ELEVATION
 40
0.0
  9
$PELEVATION
 40
0.0
  9
$THICKNESS
 40
0.0
  9
$LIMCHECK
 70
     0
  9
$CHAMFERA
 40
0.0
  9
$CHAMFERB
 40
0.0
  9
$CHAMFERC
 40
0.0
  9
$CHAMFERD
 40
0.0
  9
$SKPOLY
 70
     0
  9
$TDCREATE
 40
2455103.726764421
  9
$TDUCREATE
 40
2455103.643431088
  9
$TDUPDATE
 40
2455103.768431076
  9
$TDUUPDATE
 40
2455103.685097743
  9
$TDINDWG
 40
0.0306298611
  9
$TDUSRTIMER
 40
0.0306275
  9
$USRTIMER
 70
     1
  9
$ANGBASE
 50
0.0
  9
$ANGDIR
 70
     0
  9
$PDMODE
 70
     0
  9
$PDSIZE
 40
0.0
  9
$PLINEWID
 40
0.0
  9
$SPLFRAME
 70
     0
  9
$SPLINETYPE
 70
     6
  9
$SPLINESEGS
 70
     8
  9
$HANDSEED
  5
1F2
  9
$SURFTAB1
 70
     6
  9
$SURFTAB2
 70
     6
  9
$SURFTYPE
 70
     6
  9
$SURFU
 70
     6
  9
$SURFV
 70
     6
  9
$UCSBASE
  2

  9
$UCSNAME
  2

  9
$UCSORG
 10
0.0
 20
0.0
 30
0.0
  9
$UCSXDIR
 10
1.0
 20
0.0
 30
0.0
  9
$UCSYDIR
 10
0.0
 20
1.0
 30
0.0
  9
$UCSORTHOREF
  2

  9
$UCSORTHOVIEW
 70
     0
  9
$UCSORGTOP
 10
0.0
 20
0.0
 30
0.0
  9
$UCSORGBOTTOM
 10
0.0
 20
0.0
 30
0.0
  9
$UCSORGLEFT
 10
0.0
 20
0.0
 30
0.0
  9
$UCSORGRIGHT
 10
0.0
 20
0.0
 30
0.0
  9
$UCSORGFRONT
 10
0.0
 20
0.0
 30
0.0
  9
$UCSORGBACK
 10
0.0
 20
0.0
 30
0.0
  9
$PUCSBASE
  2

  9
$PUCSNAME
  2

  9
$PUCSORG
 10
0.0
 20
0.0
 30
0.0
  9
$PUCSXDIR
 10
1.0
 20
0.0
 30
0.0
  9
$PUCSYDIR
 10
0.0
 20
1.0
 30
0.0
  9
$PUCSORTHOREF
  2

  9
$PUCSORTHOVIEW
 70
     0
  9
$PUCSORGTOP
 10
0.0
 20
0.0
 30
0.0
  9
$PUCSORGBOTTOM
 10
0.0
 20
0.0
 30
0.0
  9
$PUCSORGLEFT
 10
0.0
 20
0.0
 30
0.0
  9
$PUCSORGRIGHT
 10
0.0
 20
0.0
 30
0.0
  9
$PUCSORGFRONT
 10
0.0
 20
0.0
 30
0.0
  9
$PUCSORGBACK
 10
0.0
 20
0.0
 30
0.0
  9
$USERI1
 70
     0
  9
$USERI2
 70
     0
  9
$USERI3
 70
     0
  9
$USERI4
 70
     0
  9
$USERI5
 70
     0
  9
$USERR1
 40
0.0
  9
$USERR2
 40
0.0
  9
$USERR3
 40
0.0
  9
$USERR4
 40
0.0
  9
$USERR5
 40
0.0
  9
$WORLDVIEW
 70
     1
  9
$SHADEDGE
 70
     3
  9
$SHADEDIF
 70
    70
  9
$TILEMODE
 70
     1
  9
$MAXACTVP
 70
    64
  9
$PINSBASE
 10
0.0
 20
0.0
 30
0.0
  9
$PLIMCHECK
 70
     0
  9
$PEXTMIN
 10
0.0
 20
0.0
 30
0.0
  9
$PEXTMAX
 10
12.0
 20
9.0
 30
0.0
  9
$PLIMMIN
 10
0.0
 20
0.0
  9
$PLIMMAX
 10
12.0
 20
9.0
  9
$UNITMODE
 70
     0
  9
$VISRETAIN
 70
     1
  9
$PLINEGEN
 70
     0
  9
$PSLTSCALE
 70
     1
  9
$TREEDEPTH
 70
  3020
  9
$CMLSTYLE
  2
Standard
  9
$CMLJUST
 70
     0
  9
$CMLSCALE
 40
20.0
  9
$PROXYGRAPHICS
 70
     1
  9
$MEASUREMENT
 70
     1
  9
$CELWEIGHT
370
    -1
  9
$ENDCAPS
280
     0
  9
$JOINSTYLE
280
     0
  9
$LWDISPLAY
290
     0
  9
$INSUNITS
 70
     4
  9
$HYPERLINKBASE
  1

  9
$STYLESHEET
  1

  9
$XEDIT
290
     1
  9
$CEPSNTYPE
380
     0
  9
$PSTYLEMODE
290
     1
  9
$FINGERPRINTGUID
  2
{5559452E-1E62-4159-8551-BF76FFF3E7E8}
  9
$VERSIONGUID
  2
{3CEB9EF8-4431-4551-B596-6734A9F966A9}
  9
$EXTNAMES
290
     1
  9
$PSVPSCALE
 40
0.0
  9
$OLESTARTUP
290
     0
  0
ENDSEC
  0
SECTION
  2
CLASSES
  0
CLASS
  1
ACDBDICTIONARYWDFLT
  2
AcDbDictionaryWithDefault
  3
ObjectDBX Classes
 90
        0
280
     0
281
     0
  0
CLASS
  1
ACDBPLACEHOLDER
  2
AcDbPlaceHolder
  3
ObjectDBX Classes
 90
        0
280
     0
281
     0
  0
CLASS
  1
LAYOUT
  2
AcDbLayout
  3
ObjectDBX Classes
 90
        0
280
     0
281
     0
  0
CLASS
  1
DICTIONARYVAR
  2
AcDbDictionaryVar
  3
ObjectDBX Classes
 90
        0
280
     0
281
     0
  0
CLASS
  1
TABLESTYLE
  2
AcDbTableStyle
  3
ObjectDBX Classes
 90
     4095
280
     0
281
     0
  0
CLASS
  1
SCALE
  2
AcDbScale
  3
ObjectDBX Classes
 90
     1153
280
     0
281
     0
  0
ENDSEC
  0
SECTION
  2
TABLES
  0
TABLE
  2
VPORT
  5
8
330
0
100
AcDbSymbolTable
 70
     2
  0
VPORT
  5
97
330
8
100
AcDbSymbolTableRecord
100
AcDbViewportTableRecord
  2
*Active
 70
     0
 10
0.0
 20
0.0
 11
1.0
 21
1.0
 12
418.9330990817859
 22
69.17017855578774
 13
0.0
 23
0.0
 14
10.0
 24
10.0
 15
10.0
 25
10.0
 16
0.0
 26
0.0
 36
1.0
 17
0.0
 27
0.0
 37
0.0
 40
1236.984589754269
 41
1.664827586206897
 42
50.0
 43
0.0
 44
0.0
 50
0.0
 51
0.0
 71
     0
 72
  1000
 73
     1
 74
     3
 75
     0
 76
     0
 77
     0
 78
     0
281
     0
 65
     1
110
0.0
120
0.0
130
0.0
111
1.0
121
0.0
131
0.0
112
0.0
122
1.0
132
0.0
 79
     0
146
0.0
  0
ENDTAB
  0
TABLE
  2
LTYPE
  5
5
330
0
100
AcDbSymbolTable
 70
     3
  0
LTYPE
  5
14
330
5
100
AcDbSymbolTableRecord
100
AcDbLinetypeTableRecord
  2
ByBlock
 70
     0
  3

 72
    65
 73
     0
 40
0.0
  0
LTYPE
  5
15
330
5
100
AcDbSymbolTableRecord
100
AcDbLinetypeTableRecord
  2
ByLayer
 70
     0
  3

 72
    65
 73
     0
 40
0.0
  0
LTYPE
  5
16
330
5
100
AcDbSymbolTableRecord
100
AcDbLinetypeTableRecord
  2
Continuous
 70
     0
  3
Solid line
 72
    65
 73
     0
 40
0.0
  0
LTYPE
  5
1D8
330
5
100
AcDbSymbolTableRecord
100
AcDbLinetypeTableRecord
  2
DASHDOT
 70
     0
  3
 __ . __ . __ . __ . __ . __ . __ . 
 72
    65
 73
     4
 40
18.5
 49
12.0
 74
     0
 49
-3.0
 74
     0
 49
0.5
 74
     0
 49
-3.0
 74
     0
  0
LTYPE
  5
1D9
330
5
100
AcDbSymbolTableRecord
100
AcDbLinetypeTableRecord
  2
DASHSPACE
 70
     0
  3
__    __    __    __    __   
 72
    65
 73
     2
 40
30.0
 49
12.0
 74
     0
 49
-18.0
 74
     0
  0
ENDTAB
  0
TABLE
  2
LAYER
  5
2
330
0
100
AcDbSymbolTable
 70
     3
  0
LAYER
  5
10
330
2
100
AcDbSymbolTableRecord
100
AcDbLayerTableRecord
  2
0
 70
     0
 62
     7
  6
Continuous
370
    -3
390
F
  0
LAYER
  5
F8
330
2
100
AcDbSymbolTableRecord
100
AcDbLayerTableRecord
  2
2
 70
     0
 62
     7
  6
Continuous
370
    13
390
F
  0
LAYER
  5
188
330
2
100
AcDbSymbolTableRecord
100
AcDbLayerTableRecord
  2
DEFPOINTS
 70
     0
 62
     7
  6
Continuous
290
     0
370
    -3
390
F
  0
ENDTAB
  0
TABLE
  2
STYLE
  5
3
330
0
100
AcDbSymbolTable
 70
     1
  0
STYLE
  5
11
330
3
100
AcDbSymbolTableRecord
100
AcDbTextStyleTableRecord
  2
Standard
 70
     0
 40
0.0
 41
1.0
 50
0.0
 71
     0
 42
2.5
  3
txt
  4

  0
ENDTAB
  0
TABLE
  2
VIEW
  5
6
330
0
100
AcDbSymbolTable
 70
     0
  0
ENDTAB
  0
TABLE
  2
UCS
  5
7
330
0
100
AcDbSymbolTable
 70
     0
  0
ENDTAB
  0
TABLE
  2
APPID
  5
9
330
0
100
AcDbSymbolTable
 70
     2
  0
APPID
  5
12
330
9
100
AcDbSymbolTableRecord
100
AcDbRegAppTableRecord
  2
ACAD
 70
     0
  0
APPID
  5
1D7
330
9
100
AcDbSymbolTableRecord
100
AcDbRegAppTableRecord
  2
PROGE_PRINT_SETTINGS
 70
     0
  0
ENDTAB
  0
TABLE
  2
DIMSTYLE
  5
A
330
0
100
AcDbSymbolTable
 70
     2
100
AcDbDimStyleTable
  0
DIMSTYLE
105
27
102
{ACAD_REACTORS
330
17B
330
17C
330
17D
102
}
330
A
100
AcDbSymbolTableRecord
100
AcDbDimStyleTableRecord
  2
Standard
 70
     0
278
     0
340
11
  0
DIMSTYLE
105
29
330
A
100
AcDbSymbolTableRecord
100
AcDbDimStyleTableRecord
  2
ISO-25
 70
     0
 41
2.5
 42
0.625
 43
3.75
 44
1.25
 73
     0
 74
     0
 77
     1
 78
     8
140
2.5
141
2.5
143
0.03937007874016
147
0.625
171
     3
172
     1
271
     2
272
     2
274
     3
278
    44
283
     0
284
     8
340
11
  0
ENDTAB
  0
TABLE
  2
BLOCK_RECORD
  5
1
330
0
100
AcDbSymbolTable
 70
     8
  0
BLOCK_RECORD
  5
1F
330
1
100
AcDbSymbolTableRecord
100
AcDbBlockTableRecord
  2
*Model_Space
340
22
  0
BLOCK_RECORD
  5
73
330
1
100
AcDbSymbolTableRecord
100
AcDbBlockTableRecord
  2
*Paper_Space
340
1DB
  0
BLOCK_RECORD
  5
D1
330
1
100
AcDbSymbolTableRecord
100
AcDbBlockTableRecord
  2
*Paper_Space0
340
74
  0
BLOCK_RECORD
  5
193
330
1
100
AcDbSymbolTableRecord
100
AcDbBlockTableRecord
  2
*D1
340
0
  0
BLOCK_RECORD
  5
19E
330
1
100
AcDbSymbolTableRecord
100
AcDbBlockTableRecord
  2
*D2
340
0
  0
BLOCK_RECORD
  5
1A9
330
1
100
AcDbSymbolTableRecord
100
AcDbBlockTableRecord
  2
*D3
340
0
  0
BLOCK_RECORD
  5
1B4
330
1
100
AcDbSymbolTableRecord
100
AcDbBlockTableRecord
  2
*D4
340
0
  0
BLOCK_RECORD
  5
1BF
330
1
100
AcDbSymbolTableRecord
100
AcDbBlockTableRecord
  2
*D5
340
0
  0
BLOCK_RECORD
  5
1CA
330
1
100
AcDbSymbolTableRecord
100
AcDbBlockTableRecord
  2
*D6
340
0
  0
BLOCK_RECORD
  5
1D5
330
1
100
AcDbSymbolTableRecord
100
AcDbBlockTableRecord
  2
*D7
340
0
  0
ENDTAB
  0
ENDSEC
  0
SECTION
  2
BLOCKS
  0
BLOCK
  5
20
330
1F
100
AcDbEntity
  8
0
100
AcDbBlockBegin
  2
*Model_Space
 70
     0
 10
0.0
 20
0.0
 30
0.0
  3
*Model_Space
  1

  0
ENDBLK
  5
21
330
1F
100
AcDbEntity
  8
0
100
AcDbBlockEnd
  0
BLOCK
  5
75
330
73
100
AcDbEntity
 67
     1
  8
0
100
AcDbBlockBegin
  2
*Paper_Space
 70
     0
 10
0.0
 20
0.0
 30
0.0
  3
*Paper_Space
  1

  0
ENDBLK
  5
76
330
73
100
AcDbEntity
 67
     1
  8
0
100
AcDbBlockEnd
  0
BLOCK
  5
1DC
330
D1
100
AcDbEntity
  8
0
100
AcDbBlockBegin
  2
*Paper_Space0
 70
     0
 10
0.0
 20
0.0
 30
0.0
  3
*Paper_Space0
  1

  0
VIEWPORT
  5
1EC
330
D1
100
AcDbEntity
  8
0
100
AcDbViewport
 10
7.8
 20
4.5
 30
0.0
 40
15.64
 41
9.0
 68
     1
 69
     1
 12
6.0
 22
4.5
 13
0.0
 23
0.0
 14
0.5
 24
0.5
 15
0.5
 25
0.5
 16
0.0
 26
0.0
 36
1.0
 17
0.0
 27
0.0
 37
0.0
 42
50.0
 43
0.0
 44
0.0
 45
12.0
 50
0.0
 51
0.0
 72
   100
 90
   557152
  1

281
     0
 71
     1
 74
     0
110
0.0
120
0.0
130
0.0
111
1.0
121
0.0
131
0.0
112
0.0
122
1.0
132
0.0
 79
     0
146
0.0
  0
ENDBLK
  5
1DD
330
D1
100
AcDbEntity
  8
0
100
AcDbBlockEnd
  0
BLOCK
  5
1DE
330
193
100
AcDbEntity
  8
0
100
AcDbBlockBegin
  2
*D1
 70
     1
 10
0.0
 20
0.0
 30
0.0
  3
*D1
  1

  0
POINT
  5
18A
330
193
100
AcDbEntity
  8
DEFPOINTS
  6
ByBlock
 62
     7
380
     1
100
AcDbPoint
 10
252.05508
 20
274.1126732316982
 30
0.0
  0
POINT
  5
18B
330
193
100
AcDbEntity
  8
DEFPOINTS
  6
ByBlock
 62
     7
380
     1
100
AcDbPoint
 10
782.05508
 20
278.565853269504
 30
0.0
  0
LINE
  5
18C
330
193
100
AcDbEntity
  8
0
  6
ByBlock
 62
     7
370
    -2
380
     1
100
AcDbLine
 10
252.05508
 20
273.4876732316982
 30
0.0
 11
252.05508
 21
229.9046292827375
 31
0.0
  0
LINE
  5
18D
330
193
100
AcDbEntity
  8
0
  6
ByBlock
 62
     7
370
    -2
380
     1
100
AcDbLine
 10
782.05508
 20
277.940853269504
 30
0.0
 11
782.05508
 21
229.9046292827375
 31
0.0
  0
LINE
  5
18E
330
193
100
AcDbEntity
  8
0
  6
ByBlock
 62
     7
370
    -2
380
     1
100
AcDbLine
 10
262.05508
 20
231.1546292827375
 30
0.0
 11
772.05508
 21
231.1546292827375
 31
0.0
  0
SOLID
  5
18F
330
193
100
AcDbEntity
  8
0
  6
ByBlock
 62
     7
380
     1
100
AcDbTrace
 10
252.05508
 20
231.1546292827375
 30
0.0
 11
262.05508
 21
229.4879626160708
 31
0.0
 12
262.05508
 22
232.8212959494041
 32
0.0
 13
262.05508
 23
232.8212959494041
 33
0.0
  0
SOLID
  5
190
330
193
100
AcDbEntity
  8
0
  6
ByBlock
 62
     7
380
     1
100
AcDbTrace
 10
782.05508
 20
231.1546292827375
 30
0.0
 11
772.05508
 21
229.4879626160708
 31
0.0
 12
772.05508
 22
232.8212959494041
 32
0.0
 13
772.05508
 23
232.8212959494041
 33
0.0
  0
MTEXT
  5
191
330
193
100
AcDbEntity
  8
0
  6
ByBlock
 62
     0
370
    -2
380
     1
100
AcDbMText
 10
517.05508
 20
243.1546292827375
 30
0.0
 40
14.0
 41
0.0
 71
     5
 72
     1
  1
500
 73
     1
 44
1.0
  0
ENDBLK
  5
1DF
330
193
100
AcDbEntity
  8
0
100
AcDbBlockEnd
  0
BLOCK
  5
1E0
330
19E
100
AcDbEntity
  8
0
100
AcDbBlockBegin
  2
*D2
 70
     1
 10
0.0
 20
0.0
 30
0.0
  3
*D2
  1

  0
POINT
  5
195
330
19E
100
AcDbEntity
  8
DEFPOINTS
  6
ByBlock
 62
     7
380
     1
100
AcDbPoint
 10
112.5839280292443
 20
407.887287
 30
0.0
  0
POINT
  5
196
330
19E
100
AcDbEntity
  8
DEFPOINTS
  6
ByBlock
 62
     7
380
     1
100
AcDbPoint
 10
112.5839280292443
 20
257.887287
 30
0.0
  0
LINE
  5
197
330
19E
100
AcDbEntity
  8
0
  6
ByBlock
 62
     7
370
    -2
380
     1
100
AcDbLine
 10
111.9589280292443
 20
407.887287
 30
0.0
 11
39.89165615679352
 21
407.887287
 31
0.0
  0
LINE
  5
198
330
19E
100
AcDbEntity
  8
0
  6
ByBlock
 62
     7
370
    -2
380
     1
100
AcDbLine
 10
111.9589280292443
 20
257.887287
 30
0.0
 11
39.89165615679352
 21
257.887287
 31
0.0
  0
LINE
  5
199
330
19E
100
AcDbEntity
  8
0
  6
ByBlock
 62
     7
370
    -2
380
     1
100
AcDbLine
 10
41.14165615679352
 20
397.887287
 30
0.0
 11
41.14165615679352
 21
267.887287
 31
0.0
  0
SOLID
  5
19A
330
19E
100
AcDbEntity
  8
0
  6
ByBlock
 62
     7
380
     1
100
AcDbTrace
 10
41.14165615679352
 20
407.887287
 30
0.0
 11
39.47498949012684
 21
397.887287
 31
0.0
 12
42.80832282346019
 22
397.887287
 32
0.0
 13
42.80832282346019
 23
397.887287
 33
0.0
  0
SOLID
  5
19B
330
19E
100
AcDbEntity
  8
0
  6
ByBlock
 62
     7
380
     1
100
AcDbTrace
 10
41.14165615679352
 20
257.887287
 30
0.0
 11
39.47498949012684
 21
267.887287
 31
0.0
 12
42.80832282346019
 22
267.887287
 32
0.0
 13
42.80832282346019
 23
267.887287
 33
0.0
  0
MTEXT
  5
19C
330
19E
100
AcDbEntity
  8
0
  6
ByBlock
 62
     0
370
    -2
380
     1
100
AcDbMText
 10
29.14165615679352
 20
332.887287
 30
0.0
 40
14.0
 41
0.0
 71
     5
 72
     1
  1
\A1;150
 11
6.123031769111886E-17
 21
1.0
 31
0.0
 73
     1
 44
1.0
  0
ENDBLK
  5
1E1
330
19E
100
AcDbEntity
  8
0
100
AcDbBlockEnd
  0
BLOCK
  5
1E2
330
1A9
100
AcDbEntity
  8
0
100
AcDbBlockBegin
  2
*D3
 70
     1
 10
0.0
 20
0.0
 30
0.0
  3
*D3
  1

  0
POINT
  5
1A0
330
1A9
100
AcDbEntity
  8
DEFPOINTS
  6
ByBlock
 62
     7
380
     1
100
AcDbPoint
 10
59.981663
 20
341.8719969651468
 30
0.0
  0
POINT
  5
1A1
330
1A9
100
AcDbEntity
  8
DEFPOINTS
  6
ByBlock
 62
     7
380
     1
100
AcDbPoint
 10
209.98167
 20
341.8719969651468
 30
0.0
  0
LINE
  5
1A2
330
1A9
100
AcDbEntity
  8
0
  6
ByBlock
 62
     7
370
    -2
380
     1
100
AcDbLine
 10
59.981663
 20
342.4969969651468
 30
0.0
 11
59.981663
 21
426.3647386210886
 31
0.0
  0
LINE
  5
1A3
330
1A9
100
AcDbEntity
  8
0
  6
ByBlock
 62
     7
370
    -2
380
     1
100
AcDbLine
 10
209.98167
 20
342.4969969651468
 30
0.0
 11
209.98167
 21
426.3647386210886
 31
0.0
  0
LINE
  5
1A4
330
1A9
100
AcDbEntity
  8
0
  6
ByBlock
 62
     7
370
    -2
380
     1
100
AcDbLine
 10
69.981663
 20
425.1147386210886
 30
0.0
 11
199.98167
 21
425.1147386210886
 31
0.0
  0
SOLID
  5
1A5
330
1A9
100
AcDbEntity
  8
0
  6
ByBlock
 62
     7
380
     1
100
AcDbTrace
 10
59.981663
 20
425.1147386210886
 30
0.0
 11
69.981663
 21
423.4480719544219
 31
0.0
 12
69.981663
 22
426.7814052877553
 32
0.0
 13
69.981663
 23
426.7814052877553
 33
0.0
  0
SOLID
  5
1A6
330
1A9
100
AcDbEntity
  8
0
  6
ByBlock
 62
     7
380
     1
100
AcDbTrace
 10
209.98167
 20
425.1147386210886
 30
0.0
 11
199.98167
 21
423.4480719544219
 31
0.0
 12
199.98167
 22
426.7814052877553
 32
0.0
 13
199.98167
 23
426.7814052877553
 33
0.0
  0
MTEXT
  5
1A7
330
1A9
100
AcDbEntity
  8
0
  6
ByBlock
 62
     0
370
    -2
380
     1
100
AcDbMText
 10
134.9816665
 20
437.1147386210886
 30
0.0
 40
14.0
 41
0.0
 71
     5
 72
     1
  1
\A1;150
 73
     1
 44
1.0
  0
ENDBLK
  5
1E3
330
1A9
100
AcDbEntity
  8
0
100
AcDbBlockEnd
  0
BLOCK
  5
1E4
330
1B4
100
AcDbEntity
  8
0
100
AcDbBlockBegin
  2
*D4
 70
     1
 10
0.0
 20
0.0
 30
0.0
  3
*D4
  1

  0
POINT
  5
1AB
330
1B4
100
AcDbEntity
  8
DEFPOINTS
  6
ByBlock
 62
     7
380
     1
100
AcDbPoint
 10
146.0875836693384
 20
191.6265236194623
 30
0.0
  0
POINT
  5
1AC
330
1B4
100
AcDbEntity
  8
DEFPOINTS
  6
ByBlock
 62
     7
380
     1
100
AcDbPoint
 10
296.0875906693384
 20
191.6265236194623
 30
0.0
  0
LINE
  5
1AD
330
1B4
100
AcDbEntity
  8
0
  6
ByBlock
 62
     7
370
    -2
380
     1
100
AcDbLine
 10
146.0875836693384
 20
192.2515236194623
 30
0.0
 11
146.0875836693384
 21
276.119265275404
 31
0.0
  0
LINE
  5
1AE
330
1B4
100
AcDbEntity
  8
0
  6
ByBlock
 62
     7
370
    -2
380
     1
100
AcDbLine
 10
296.0875906693384
 20
192.2515236194623
 30
0.0
 11
296.0875906693384
 21
276.119265275404
 31
0.0
  0
LINE
  5
1AF
330
1B4
100
AcDbEntity
  8
0
  6
ByBlock
 62
     7
370
    -2
380
     1
100
AcDbLine
 10
156.0875836693384
 20
274.869265275404
 30
0.0
 11
286.0875906693384
 21
274.869265275404
 31
0.0
  0
SOLID
  5
1B0
330
1B4
100
AcDbEntity
  8
0
  6
ByBlock
 62
     7
380
     1
100
AcDbTrace
 10
146.0875836693384
 20
274.869265275404
 30
0.0
 11
156.0875836693384
 21
273.2025986087373
 31
0.0
 12
156.0875836693384
 22
276.5359319420707
 32
0.0
 13
156.0875836693384
 23
276.5359319420707
 33
0.0
  0
SOLID
  5
1B1
330
1B4
100
AcDbEntity
  8
0
  6
ByBlock
 62
     7
380
     1
100
AcDbTrace
 10
296.0875906693384
 20
274.869265275404
 30
0.0
 11
286.0875906693384
 21
273.2025986087373
 31
0.0
 12
286.0875906693384
 22
276.5359319420707
 32
0.0
 13
286.0875906693384
 23
276.5359319420707
 33
0.0
  0
MTEXT
  5
1B2
330
1B4
100
AcDbEntity
  8
0
  6
ByBlock
 62
     0
370
    -2
380
     1
100
AcDbMText
 10
221.0875871693384
 20
286.869265275404
 30
0.0
 40
14.0
 41
0.0
 71
     5
 72
     1
  1
\A1;150
 73
     1
 44
1.0
  0
ENDBLK
  5
1E5
330
1B4
100
AcDbEntity
  8
0
100
AcDbBlockEnd
  0
BLOCK
  5
1E6
330
1BF
100
AcDbEntity
  8
0
100
AcDbBlockBegin
  2
*D5
 70
     1
 10
0.0
 20
0.0
 30
0.0
  3
*D5
  1

  0
POINT
  5
1B6
330
1BF
100
AcDbEntity
  8
DEFPOINTS
  6
ByBlock
 62
     7
380
     1
100
AcDbPoint
 10
198.6898486985827
 20
257.6418136543155
 30
0.0
  0
POINT
  5
1B7
330
1BF
100
AcDbEntity
  8
DEFPOINTS
  6
ByBlock
 62
     7
380
     1
100
AcDbPoint
 10
198.6898486985827
 20
107.6418136543155
 30
0.0
  0
LINE
  5
1B8
330
1BF
100
AcDbEntity
  8
0
  6
ByBlock
 62
     7
370
    -2
380
     1
100
AcDbLine
 10
198.0648486985827
 20
257.6418136543155
 30
0.0
 11
125.9975768261319
 21
257.6418136543155
 31
0.0
  0
LINE
  5
1B9
330
1BF
100
AcDbEntity
  8
0
  6
ByBlock
 62
     7
370
    -2
380
     1
100
AcDbLine
 10
198.0648486985827
 20
107.6418136543155
 30
0.0
 11
125.9975768261319
 21
107.6418136543155
 31
0.0
  0
LINE
  5
1BA
330
1BF
100
AcDbEntity
  8
0
  6
ByBlock
 62
     7
370
    -2
380
     1
100
AcDbLine
 10
127.2475768261319
 20
247.6418136543155
 30
0.0
 11
127.2475768261319
 21
117.6418136543155
 31
0.0
  0
SOLID
  5
1BB
330
1BF
100
AcDbEntity
  8
0
  6
ByBlock
 62
     7
380
     1
100
AcDbTrace
 10
127.2475768261319
 20
257.6418136543155
 30
0.0
 11
125.5809101594652
 21
247.6418136543155
 31
0.0
 12
128.9142434927986
 22
247.6418136543155
 32
0.0
 13
128.9142434927986
 23
247.6418136543155
 33
0.0
  0
SOLID
  5
1BC
330
1BF
100
AcDbEntity
  8
0
  6
ByBlock
 62
     7
380
     1
100
AcDbTrace
 10
127.2475768261319
 20
107.6418136543155
 30
0.0
 11
125.5809101594652
 21
117.6418136543155
 31
0.0
 12
128.9142434927986
 22
117.6418136543155
 32
0.0
 13
128.9142434927986
 23
117.6418136543155
 33
0.0
  0
MTEXT
  5
1BD
330
1BF
100
AcDbEntity
  8
0
  6
ByBlock
 62
     0
370
    -2
380
     1
100
AcDbMText
 10
115.2475768261319
 20
182.6418136543155
 30
0.0
 40
14.0
 41
0.0
 71
     5
 72
     1
  1
\A1;150
 11
6.123031769111886E-17
 21
1.0
 31
0.0
 73
     1
 44
1.0
  0
ENDBLK
  5
1E7
330
1BF
100
AcDbEntity
  8
0
100
AcDbBlockEnd
  0
BLOCK
  5
1E8
330
1CA
100
AcDbEntity
  8
0
100
AcDbBlockBegin
  2
*D6
 70
     1
 10
0.0
 20
0.0
 30
0.0
  3
*D6
  1

  0
POINT
  5
1C1
330
1CA
100
AcDbEntity
  8
DEFPOINTS
  6
ByBlock
 62
     7
380
     1
100
AcDbPoint
 10
338.1610006693384
 20
123.8671998860137
 30
0.0
  0
POINT
  5
1C2
330
1CA
100
AcDbEntity
  8
DEFPOINTS
  6
ByBlock
 62
     7
380
     1
100
AcDbPoint
 10
868.1610006693384
 20
128.3203799238194
 30
0.0
  0
LINE
  5
1C3
330
1CA
100
AcDbEntity
  8
0
  6
ByBlock
 62
     7
370
    -2
380
     1
100
AcDbLine
 10
338.1610006693384
 20
123.2421998860137
 30
0.0
 11
338.1610006693384
 21
79.65915593705296
 31
0.0
  0
LINE
  5
1C4
330
1CA
100
AcDbEntity
  8
0
  6
ByBlock
 62
     7
370
    -2
380
     1
100
AcDbLine
 10
868.1610006693384
 20
127.6953799238194
 30
0.0
 11
868.1610006693384
 21
79.65915593705296
 31
0.0
  0
LINE
  5
1C5
330
1CA
100
AcDbEntity
  8
0
  6
ByBlock
 62
     7
370
    -2
380
     1
100
AcDbLine
 10
348.1610006693384
 20
80.90915593705296
 30
0.0
 11
858.1610006693384
 21
80.90915593705296
 31
0.0
  0
SOLID
  5
1C6
330
1CA
100
AcDbEntity
  8
0
  6
ByBlock
 62
     7
380
     1
100
AcDbTrace
 10
338.1610006693384
 20
80.90915593705296
 30
0.0
 11
348.1610006693384
 21
79.24248927038629
 31
0.0
 12
348.1610006693384
 22
82.57582260371963
 32
0.0
 13
348.1610006693384
 23
82.57582260371963
 33
0.0
  0
SOLID
  5
1C7
330
1CA
100
AcDbEntity
  8
0
  6
ByBlock
 62
     7
380
     1
100
AcDbTrace
 10
868.1610006693384
 20
80.90915593705296
 30
0.0
 11
858.1610006693384
 21
79.24248927038629
 31
0.0
 12
858.1610006693384
 22
82.57582260371963
 32
0.0
 13
858.1610006693384
 23
82.57582260371963
 33
0.0
  0
MTEXT
  5
1C8
330
1CA
100
AcDbEntity
  8
0
  6
ByBlock
 62
     0
370
    -2
380
     1
100
AcDbMText
 10
603.1610006693384
 20
92.90915593705296
 30
0.0
 40
14.0
 41
0.0
 71
     5
 72
     1
  1
500
 73
     1
 44
1.0
  0
ENDBLK
  5
1E9
330
1CA
100
AcDbEntity
  8
0
100
AcDbBlockEnd
  0
BLOCK
  5
1EA
330
1D5
100
AcDbEntity
  8
0
100
AcDbBlockBegin
  2
*D7
 70
     1
 10
0.0
 20
0.0
 30
0.0
  3
*D7
  1

  0
POINT
  5
1CC
330
1D5
100
AcDbEntity
  8
DEFPOINTS
  6
ByBlock
 62
     7
380
     1
100
AcDbPoint
 10
338.1610006693384
 20
123.8671998860137
 30
0.0
  0
POINT
  5
1CD
330
1D5
100
AcDbEntity
  8
DEFPOINTS
  6
ByBlock
 62
     7
380
     1
100
AcDbPoint
 10
868.1610006693384
 20
128.3203799238194
 30
0.0
  0
LINE
  5
1CE
330
1D5
100
AcDbEntity
  8
0
  6
ByBlock
 62
     7
370
    -2
380
     1
100
AcDbLine
 10
338.1610006693384
 20
123.2421998860137
 30
0.0
 11
338.1610006693384
 21
79.65915593705296
 31
0.0
  0
LINE
  5
1CF
330
1D5
100
AcDbEntity
  8
0
  6
ByBlock
 62
     7
370
    -2
380
     1
100
AcDbLine
 10
868.1610006693384
 20
127.6953799238194
 30
0.0
 11
868.1610006693384
 21
79.65915593705296
 31
0.0
  0
LINE
  5
1D0
330
1D5
100
AcDbEntity
  8
0
  6
ByBlock
 62
     7
370
    -2
380
     1
100
AcDbLine
 10
348.1610006693384
 20
80.90915593705296
 30
0.0
 11
858.1610006693384
 21
80.90915593705296
 31
0.0
  0
SOLID
  5
1D1
330
1D5
100
AcDbEntity
  8
0
  6
ByBlock
 62
     7
380
     1
100
AcDbTrace
 10
338.1610006693384
 20
80.90915593705296
 30
0.0
 11
348.1610006693384
 21
79.24248927038629
 31
0.0
 12
348.1610006693384
 22
82.57582260371963
 32
0.0
 13
348.1610006693384
 23
82.57582260371963
 33
0.0
  0
SOLID
  5
1D2
330
1D5
100
AcDbEntity
  8
0
  6
ByBlock
 62
     7
380
     1
100
AcDbTrace
 10
868.1610006693384
 20
80.90915593705296
 30
0.0
 11
858.1610006693384
 21
79.24248927038629
 31
0.0
 12
858.1610006693384
 22
82.57582260371963
 32
0.0
 13
858.1610006693384
 23
82.57582260371963
 33
0.0
  0
MTEXT
  5
1D3
330
1D5
100
AcDbEntity
  8
0
  6
ByBlock
 62
     0
370
    -2
380
     1
100
AcDbMText
 10
603.1610006693384
 20
92.90915593705296
 30
0.0
 40
14.0
 41
0.0
 71
     5
 72
     1
  1
1000
 73
     1
 44
1.0
  0
ENDBLK
  5
1EB
330
1D5
100
AcDbEntity
  8
0
100
AcDbBlockEnd
  0
ENDSEC
  0
SECTION
  2
ENTITIES
  0
POINT
  5
FB
330
1F
100
AcDbEntity
  8
2
370
    60
100
AcDbPoint
 10
368.1610006693384
 20
182.6418136543155
 30
0.0
  0
POINT
  5
FC
330
1F
100
AcDbEntity
  8
2
370
    60
100
AcDbPoint
 10
361.7137356693384
 20
182.6418136543155
 30
0.0
  0
POINT
  5
FD
330
1F
100
AcDbEntity
  8
2
370
    60
100
AcDbPoint
 10
368.1610006693384
 20
201.6418136543155
 30
0.0
  0
POINT
  5
FE
330
1F
100
AcDbEntity
  8
2
370
    60
100
AcDbPoint
 10
372.1610006693384
 20
167.6418136543155
 30
0.0
  0
POINT
  5
FF
330
1F
100
AcDbEntity
  8
2
370
    60
100
AcDbPoint
 10
368.1610006693384
 20
163.6418136543155
 30
0.0
  0
POINT
  5
100
330
1F
100
AcDbEntity
  8
2
370
    60
100
AcDbPoint
 10
860.1610006693384
 20
167.6418136543155
 30
0.0
  0
POINT
  5
101
330
1F
100
AcDbEntity
  8
2
370
    60
100
AcDbPoint
 10
221.0875906693384
 20
182.6418136543155
 30
0.0
  0
POINT
  5
102
330
1F
100
AcDbEntity
  8
2
370
    60
100
AcDbPoint
 10
231.4187826693384
 20
182.6418136543155
 30
0.0
  0
POINT
  5
103
330
1F
100
AcDbEntity
  8
2
370
    60
100
AcDbPoint
 10
221.0875906693384
 20
182.6418136543155
 30
0.0
  0
POINT
  5
104
330
1F
100
AcDbEntity
  8
2
370
    60
100
AcDbPoint
 10
221.0875906693384
 20
180.0146776543155
 30
0.0
  0
LINE
  5
105
330
1F
100
AcDbEntity
  8
2
370
    60
100
AcDbLine
 10
364.1610006693384
 20
201.6418136543155
 30
0.0
 11
364.1610006693384
 21
163.6418136543155
 31
0.0
  0
LINE
  5
106
330
1F
100
AcDbEntity
  8
2
370
    60
100
AcDbLine
 10
368.1610006693384
 20
201.6418136543155
 30
0.0
 11
368.1610006693384
 21
163.6418136543155
 31
0.0
  0
LINE
  5
107
330
1F
100
AcDbEntity
  8
2
370
    60
100
AcDbLine
 10
864.1610006693384
 20
257.6418136543155
 30
0.0
 11
864.1610006693384
 21
107.6418136543155
 31
0.0
  0
LINE
  5
108
330
1F
100
AcDbEntity
  8
2
370
    60
100
AcDbLine
 10
868.1610006693384
 20
257.6418136543155
 30
0.0
 11
868.1610006693384
 21
107.6418136543155
 31
0.0
  0
LINE
  5
109
330
1F
100
AcDbEntity
  8
2
  6
DASHDOT
370
    25
100
AcDbLine
 10
904.2817896693384
 20
182.6418136543155
 30
0.0
 11
331.1017506693384
 21
182.6418136543155
 31
0.0
  0
LINE
  5
10A
330
1F
100
AcDbEntity
  8
2
 48
0.1
370
    60
100
AcDbLine
 10
342.1610006693384
 20
257.6418136543155
 30
0.0
 11
338.1610006693384
 21
257.6418136543155
 31
0.0
  0
LINE
  5
10B
330
1F
100
AcDbEntity
  8
2
 48
0.1
370
    60
100
AcDbLine
 10
342.1610006693384
 20
107.6418136543155
 30
0.0
 11
338.1610006693384
 21
107.6418136543155
 31
0.0
  0
LINE
  5
10C
330
1F
100
AcDbEntity
  8
2
 48
0.1
370
    60
100
AcDbLine
 10
868.1610006693384
 20
257.6418136543155
 30
0.0
 11
864.1610006693384
 21
257.6418136543155
 31
0.0
  0
LINE
  5
10D
330
1F
100
AcDbEntity
  8
2
 48
0.1
370
    60
100
AcDbLine
 10
868.1610006693384
 20
107.6418136543155
 30
0.0
 11
864.1610006693384
 21
107.6418136543155
 31
0.0
  0
LINE
  5
10E
330
1F
100
AcDbEntity
  8
2
 48
0.141421
370
    60
100
AcDbLine
 10
864.1610006693384
 20
163.6418136543155
 30
0.0
 11
860.1610006693384
 21
167.6418136543155
 31
0.0
  0
LINE
  5
10F
330
1F
100
AcDbEntity
  8
2
 48
0.141421
370
    60
100
AcDbLine
 10
864.1610006693384
 20
201.6418136543155
 30
0.0
 11
860.1610006693384
 21
197.6418136543155
 31
0.0
  0
LINE
  5
110
330
1F
100
AcDbEntity
  8
2
 48
0.45
370
    60
100
AcDbLine
 10
362.1610006693384
 20
207.6418136543155
 30
0.0
 11
344.1610006693384
 21
207.6418136543155
 31
0.0
  0
LINE
  5
111
330
1F
100
AcDbEntity
  8
2
 48
0.45
370
    60
100
AcDbLine
 10
362.1610006693384
 20
157.6418136543155
 30
0.0
 11
344.1610006693384
 21
157.6418136543155
 31
0.0
  0
LINE
  5
112
330
1F
100
AcDbEntity
  8
2
370
    60
100
AcDbLine
 10
338.1610006693384
 20
257.6418136543155
 30
0.0
 11
338.1610006693384
 21
209.6418136543155
 31
0.0
  0
LINE
  5
113
330
1F
100
AcDbEntity
  8
2
370
    60
100
AcDbLine
 10
338.1610006693384
 20
155.6418136543155
 30
0.0
 11
338.1610006693384
 21
107.6418136543155
 31
0.0
  0
LINE
  5
114
330
1F
100
AcDbEntity
  8
2
 48
0.45
370
    60
100
AcDbLine
 10
362.1610006693384
 20
203.6418136543155
 30
0.0
 11
344.1610006693384
 21
203.6418136543155
 31
0.0
  0
LINE
  5
115
330
1F
100
AcDbEntity
  8
2
 48
0.45
370
    60
100
AcDbLine
 10
362.1610006693384
 20
161.6418136543155
 30
0.0
 11
344.1610006693384
 21
161.6418136543155
 31
0.0
  0
LINE
  5
116
330
1F
100
AcDbEntity
  8
2
370
    60
100
AcDbLine
 10
342.1610006693384
 20
257.6418136543155
 30
0.0
 11
342.1610006693384
 21
209.6418136543155
 31
0.0
  0
LINE
  5
117
330
1F
100
AcDbEntity
  8
2
370
    60
100
AcDbLine
 10
342.1610006693384
 20
155.6418136543155
 30
0.0
 11
342.1610006693384
 21
107.6418136543155
 31
0.0
  0
ARC
  5
118
330
1F
100
AcDbEntity
  8
2
370
    60
100
AcDbCircle
 10
344.1610006693384
 20
209.6418136543155
 30
0.0
 40
6.000000000000023
100
AcDbArc
 50
180.0000049999999
 51
270.0000009999999
  0
ARC
  5
119
330
1F
100
AcDbEntity
  8
2
370
    60
100
AcDbCircle
 10
344.1610006693384
 20
155.6418136543155
 30
0.0
 40
6.000000000000008
100
AcDbArc
 50
90.00000299999986
 51
180.0000049999998
  0
ARC
  5
11A
330
1F
100
AcDbEntity
  8
2
370
    60
100
AcDbCircle
 10
362.1610006693384
 20
201.6418136543155
 30
0.0
 40
6.000000000000023
100
AcDbArc
 50
0.0000049999999604
 51
90.00000299999998
  0
LINE
  5
11B
330
1F
100
AcDbEntity
  8
2
370
    60
100
AcDbLine
 10
574.0188806693384
 20
167.6418136543155
 30
0.0
 11
368.1610006693384
 21
167.6418136543155
 31
0.0
  0
LINE
  5
11C
330
1F
100
AcDbEntity
  8
2
 48
0.141421
370
    60
100
AcDbLine
 10
372.1610006693384
 20
197.6418136543155
 30
0.0
 11
368.1610006693384
 21
201.6418136543155
 31
0.0
  0
LINE
  5
11D
330
1F
100
AcDbEntity
  8
2
 48
0.141421
370
    60
100
AcDbLine
 10
372.1610006693384
 20
167.6418136543155
 30
0.0
 11
368.1610006693384
 21
163.6418136543155
 31
0.0
  0
LINE
  5
11E
330
1F
100
AcDbEntity
  8
2
  6
DASHSPACE
 48
0.1
370
    60
100
AcDbLine
 10
868.1610006693384
 20
192.6418136543155
 30
0.0
 11
864.1610006693384
 21
192.6418136543155
 31
0.0
  0
LINE
  5
11F
330
1F
100
AcDbEntity
  8
2
  6
DASHSPACE
 48
0.1
370
    60
100
AcDbLine
 10
868.1610006693384
 20
172.6418136543155
 30
0.0
 11
864.1610006693384
 21
172.6418136543155
 31
0.0
  0
LINE
  5
120
330
1F
100
AcDbEntity
  8
2
370
    60
100
AcDbLine
 10
864.1610006693384
 20
197.6418136543155
 30
0.0
 11
632.3031516693384
 21
197.6418136543155
 31
0.0
  0
LINE
  5
121
330
1F
100
AcDbEntity
  8
2
370
    60
100
AcDbLine
 10
864.1610006693384
 20
167.6418136543155
 30
0.0
 11
602.3031516693384
 21
167.6418136543155
 31
0.0
  0
LINE
  5
122
330
1F
100
AcDbEntity
  8
2
  6
DASHSPACE
 48
0.1
370
    60
100
AcDbLine
 10
368.1610006693384
 20
192.6418136543155
 30
0.0
 11
364.1610006693384
 21
192.6418136543155
 31
0.0
  0
LINE
  5
123
330
1F
100
AcDbEntity
  8
2
  6
DASHSPACE
 48
0.1
370
    60
100
AcDbLine
 10
368.1610006693384
 20
172.6418136543155
 30
0.0
 11
364.1610006693384
 21
172.6418136543155
 31
0.0
  0
LINE
  5
124
330
1F
100
AcDbEntity
  8
2
370
    60
100
AcDbLine
 10
294.0875906693384
 20
257.6418136543155
 30
0.0
 11
148.0875836693384
 21
257.6418136543155
 31
0.0
  0
LINE
  5
125
330
1F
100
AcDbEntity
  8
2
370
    60
100
AcDbLine
 10
294.0875906693384
 20
107.6418136543155
 30
0.0
 11
148.0875836693384
 21
107.6418136543155
 31
0.0
  0
LINE
  5
126
330
1F
100
AcDbEntity
  8
2
370
    60
100
AcDbLine
 10
206.0875836693384
 20
109.6418136543155
 30
0.0
 11
206.0875836693384
 21
255.6418136543155
 31
0.0
  0
LINE
  5
127
330
1F
100
AcDbEntity
  8
2
370
    60
100
AcDbLine
 10
236.0875906693384
 20
109.6418136543155
 30
0.0
 11
236.0875906693384
 21
255.6418136543155
 31
0.0
  0
LINE
  5
128
330
1F
100
AcDbEntity
  8
2
370
    60
100
AcDbLine
 10
296.0875906693384
 20
109.6418136543155
 30
0.0
 11
296.0875906693384
 21
255.6418136543155
 31
0.0
  0
LINE
  5
129
330
1F
100
AcDbEntity
  8
2
370
    60
100
AcDbLine
 10
146.0875836693384
 20
109.6418136543155
 30
0.0
 11
146.0875836693384
 21
255.6418136543155
 31
0.0
  0
ARC
  5
12A
330
1F
100
AcDbEntity
  8
2
370
    60
100
AcDbCircle
 10
221.0875906693384
 20
122.6418136543155
 30
0.0
 40
6.499999999999996
100
AcDbArc
 50
180.000005
 51
0.0000009999999785
  0
ARC
  5
12B
330
1F
100
AcDbEntity
  8
2
370
    60
100
AcDbCircle
 10
221.0875906693384
 20
242.6418136543155
 30
0.0
 40
6.500000000000001
100
AcDbArc
 50
0.0000009999999002
 51
180.0000049999999
  0
ARC
  5
12C
330
1F
100
AcDbEntity
  8
2
370
    60
100
AcDbCircle
 10
221.0875906693384
 20
127.6418136543155
 30
0.0
 40
6.500000000000001
100
AcDbArc
 50
0.0000009999999002
 51
180.0000049999999
  0
ARC
  5
12D
330
1F
100
AcDbEntity
  8
2
370
    60
100
AcDbCircle
 10
221.0875906693384
 20
237.6418136543155
 30
0.0
 40
6.499999999999996
100
AcDbArc
 50
180.000005
 51
0.0000009999999785
  0
LINE
  5
12E
330
1F
100
AcDbEntity
  8
2
 48
0.125
370
    60
100
AcDbLine
 10
214.5875906693384
 20
237.6418136543155
 30
0.0
 11
214.5875906693384
 21
242.6418136543155
 31
0.0
  0
LINE
  5
12F
330
1F
100
AcDbEntity
  8
2
 48
0.125
370
    60
100
AcDbLine
 10
227.5875906693384
 20
237.6418136543155
 30
0.0
 11
227.5875906693384
 21
242.6418136543155
 31
0.0
  0
LINE
  5
130
330
1F
100
AcDbEntity
  8
2
 48
0.125
370
    60
100
AcDbLine
 10
214.5875906693384
 20
122.6418136543155
 30
0.0
 11
214.5875906693384
 21
127.6418136543155
 31
0.0
  0
LINE
  5
131
330
1F
100
AcDbEntity
  8
2
 48
0.125
370
    60
100
AcDbLine
 10
227.5875906693384
 20
122.6418136543155
 30
0.0
 11
227.5875906693384
 21
127.6418136543155
 31
0.0
  0
ARC
  5
132
330
1F
100
AcDbEntity
  8
2
370
    60
100
AcDbCircle
 10
234.0875906693384
 20
109.6418136543155
 30
0.0
 40
2.0
100
AcDbArc
 50
270.0000009999998
 51
0.000000999999775
  0
ARC
  5
133
330
1F
100
AcDbEntity
  8
2
370
    60
100
AcDbCircle
 10
208.0875836693384
 20
109.6418136543155
 30
0.0
 40
1.999999999999979
100
AcDbArc
 50
180.0000050000005
 51
270.0000010000005
  0
ARC
  5
134
330
1F
100
AcDbEntity
  8
2
370
    60
100
AcDbCircle
 10
208.0875836693384
 20
255.6418136543155
 30
0.0
 40
1.999999999999974
100
AcDbArc
 50
90.00000300000013
 51
180.0000050000001
  0
ARC
  5
135
330
1F
100
AcDbEntity
  8
2
370
    60
100
AcDbCircle
 10
234.0875906693384
 20
255.6418136543155
 30
0.0
 40
2.0
100
AcDbArc
 50
0.000000999999775
 51
90.00000299999978
  0
LINE
  5
136
330
1F
100
AcDbEntity
  8
2
  6
DASHSPACE
370
    60
100
AcDbLine
 10
233.4875846693384
 20
170.2418046543155
 30
0.0
 11
208.6875816693384
 21
170.2418046543155
 31
0.0
  0
LINE
  5
137
330
1F
100
AcDbEntity
  8
2
  6
DASHSPACE
370
    60
100
AcDbLine
 10
236.0875906693384
 20
167.6418136543155
 30
0.0
 11
206.0875836693384
 21
167.6418136543155
 31
0.0
  0
LINE
  5
138
330
1F
100
AcDbEntity
  8
2
370
    60
100
AcDbLine
 10
206.0875836693384
 20
167.6418136543155
 30
0.0
 11
206.0875836693384
 21
197.6418136543155
 31
0.0
  0
LINE
  5
139
330
1F
100
AcDbEntity
  8
2
  6
DASHSPACE
370
    60
100
AcDbLine
 10
208.6875816693384
 20
170.2418046543155
 30
0.0
 11
208.6875816693384
 21
195.0418076543155
 31
0.0
  0
LINE
  5
13A
330
1F
100
AcDbEntity
  8
2
  6
DASHSPACE
370
    60
100
AcDbLine
 10
233.4875846693384
 20
195.0418076543155
 30
0.0
 11
208.6875816693384
 21
195.0418076543155
 31
0.0
  0
LINE
  5
13B
330
1F
100
AcDbEntity
  8
2
  6
DASHSPACE
370
    60
100
AcDbLine
 10
236.0875906693384
 20
197.6418136543155
 30
0.0
 11
206.0875836693384
 21
197.6418136543155
 31
0.0
  0
LINE
  5
13C
330
1F
100
AcDbEntity
  8
2
  6
DASHSPACE
370
    60
100
AcDbLine
 10
233.4875846693384
 20
170.2418046543155
 30
0.0
 11
233.4875846693384
 21
195.0418076543155
 31
0.0
  0
LINE
  5
13D
330
1F
100
AcDbEntity
  8
2
370
    60
100
AcDbLine
 10
236.0875906693384
 20
167.6418136543155
 30
0.0
 11
236.0875906693384
 21
197.6418136543155
 31
0.0
  0
LINE
  5
13E
330
1F
100
AcDbEntity
  8
2
  6
DASHDOT
370
    25
100
AcDbLine
 10
291.0875906693384
 20
242.6418136543155
 30
0.0
 11
271.0875906693384
 21
242.6418136543155
 31
0.0
  0
LINE
  5
13F
330
1F
100
AcDbEntity
  8
2
  6
DASHDOT
370
    25
100
AcDbLine
 10
281.0875906693384
 20
232.6418136543155
 30
0.0
 11
281.0875906693384
 21
252.6418136543155
 31
0.0
  0
LINE
  5
140
330
1F
100
AcDbEntity
  8
2
  6
DASHDOT
370
    25
100
AcDbLine
 10
291.0875906693384
 20
122.6418136543155
 30
0.0
 11
271.0875906693384
 21
122.6418136543155
 31
0.0
  0
LINE
  5
141
330
1F
100
AcDbEntity
  8
2
  6
DASHDOT
370
    25
100
AcDbLine
 10
281.0875906693384
 20
112.6418136543155
 30
0.0
 11
281.0875906693384
 21
132.6418136543155
 31
0.0
  0
LINE
  5
142
330
1F
100
AcDbEntity
  8
2
  6
DASHDOT
370
    25
100
AcDbLine
 10
171.0875836693384
 20
122.6418136543155
 30
0.0
 11
151.0875836693384
 21
122.6418136543155
 31
0.0
  0
LINE
  5
143
330
1F
100
AcDbEntity
  8
2
  6
DASHDOT
370
    25
100
AcDbLine
 10
161.0875836693384
 20
112.6418136543155
 30
0.0
 11
161.0875836693384
 21
132.6418136543155
 31
0.0
  0
LINE
  5
144
330
1F
100
AcDbEntity
  8
2
  6
DASHDOT
370
    25
100
AcDbLine
 10
171.0875836693384
 20
242.6418136543155
 30
0.0
 11
151.0875836693384
 21
242.6418136543155
 31
0.0
  0
LINE
  5
145
330
1F
100
AcDbEntity
  8
2
  6
DASHDOT
370
    25
100
AcDbLine
 10
161.0875836693384
 20
232.6418136543155
 30
0.0
 11
161.0875836693384
 21
252.6418136543155
 31
0.0
  0
CIRCLE
  5
146
330
1F
100
AcDbEntity
  8
2
370
    60
100
AcDbCircle
 10
221.0875906693384
 20
182.6418136543155
 30
0.0
 40
10.0
  0
LINE
  5
147
330
1F
100
AcDbEntity
  8
2
  6
DASHSPACE
370
    60
100
AcDbLine
 10
236.0875906693384
 20
207.6418136543155
 30
0.0
 11
206.0875836693384
 21
207.6418136543155
 31
0.0
  0
LINE
  5
148
330
1F
100
AcDbEntity
  8
2
  6
DASHSPACE
370
    60
100
AcDbLine
 10
236.0875906693384
 20
157.6418136543155
 30
0.0
 11
206.0875836693384
 21
157.6418136543155
 31
0.0
  0
ARC
  5
149
330
1F
100
AcDbEntity
  8
2
370
    60
100
AcDbCircle
 10
294.0875906693384
 20
255.6418136543155
 30
0.0
 40
2.0
100
AcDbArc
 50
0.000000999999775
 51
90.00000299999978
  0
ARC
  5
14A
330
1F
100
AcDbEntity
  8
2
370
    60
100
AcDbCircle
 10
148.0875836693384
 20
255.6418136543155
 30
0.0
 40
1.999999999999974
100
AcDbArc
 50
90.00000300000013
 51
180.0000050000001
  0
ARC
  5
14B
330
1F
100
AcDbEntity
  8
2
370
    60
100
AcDbCircle
 10
148.0875836693384
 20
109.6418136543155
 30
0.0
 40
2.000000000000008
100
AcDbArc
 50
180.0000050000005
 51
270.0000010000005
  0
ARC
  5
14C
330
1F
100
AcDbEntity
  8
2
370
    60
100
AcDbCircle
 10
294.0875906693384
 20
109.6418136543155
 30
0.0
 40
2.0
100
AcDbArc
 50
270.0000009999998
 51
0.000000999999775
  0
LINE
  5
14D
330
1F
100
AcDbEntity
  8
2
370
    60
100
AcDbLine
 10
296.0875906693384
 20
207.6418136543155
 30
0.0
 11
236.0875906693384
 21
207.6418136543155
 31
0.0
  0
LINE
  5
14E
330
1F
100
AcDbEntity
  8
2
370
    60
100
AcDbLine
 10
296.0875906693384
 20
157.6418136543155
 30
0.0
 11
236.0875906693384
 21
157.6418136543155
 31
0.0
  0
LINE
  5
14F
330
1F
100
AcDbEntity
  8
2
370
    60
100
AcDbLine
 10
206.0875836693384
 20
207.6418136543155
 30
0.0
 11
146.0875836693384
 21
207.6418136543155
 31
0.0
  0
LINE
  5
150
330
1F
100
AcDbEntity
  8
2
370
    60
100
AcDbLine
 10
206.0875836693384
 20
157.6418136543155
 30
0.0
 11
146.0875836693384
 21
157.6418136543155
 31
0.0
  0
LINE
  5
151
330
1F
100
AcDbEntity
  8
2
  6
DASHDOT
370
    25
100
AcDbLine
 10
303.6011406693384
 20
182.6418136543155
 30
0.0
 11
137.2651196693384
 21
182.6418136543155
 31
0.0
  0
LINE
  5
152
330
1F
100
AcDbEntity
  8
2
  6
DASHDOT
370
    25
100
AcDbLine
 10
221.0875906693384
 20
172.6418136543155
 30
0.0
 11
221.0875906693384
 21
192.6418136543155
 31
0.0
  0
LINE
  5
153
330
1F
100
AcDbEntity
  8
2
  6
DASHDOT
370
    25
100
AcDbLine
 10
231.0875906693384
 20
127.6418136543155
 30
0.0
 11
211.0875906693384
 21
127.6418136543155
 31
0.0
  0
LINE
  5
154
330
1F
100
AcDbEntity
  8
2
  6
DASHDOT
370
    25
100
AcDbLine
 10
221.0875906693384
 20
112.3631257683617
 30
0.0
 11
221.0875906693384
 21
138.5566584496515
 31
0.0
  0
LINE
  5
155
330
1F
100
AcDbEntity
  8
2
  6
DASHDOT
370
    25
100
AcDbLine
 10
231.0875906693384
 20
122.6418136543155
 30
0.0
 11
211.0875906693384
 21
122.6418136543155
 31
0.0
  0
LINE
  5
156
330
1F
100
AcDbEntity
  8
2
  6
DASHDOT
370
    25
100
AcDbLine
 10
231.0875906693384
 20
242.6418136543155
 30
0.0
 11
211.0875906693384
 21
242.6418136543155
 31
0.0
  0
LINE
  5
157
330
1F
100
AcDbEntity
  8
2
  6
DASHDOT
370
    25
100
AcDbLine
 10
231.0875906693384
 20
237.6418136543155
 30
0.0
 11
211.0875906693384
 21
237.6418136543155
 31
0.0
  0
LINE
  5
158
330
1F
100
AcDbEntity
  8
2
  6
DASHDOT
370
    25
100
AcDbLine
 10
221.0875906693384
 20
226.2348143888884
 30
0.0
 11
221.0875906693384
 21
255.1151211365152
 31
0.0
  0
CIRCLE
  5
159
330
1F
100
AcDbEntity
  8
2
370
    60
100
AcDbCircle
 10
161.0875836693384
 20
242.6418136543155
 30
0.0
 40
3.25
  0
CIRCLE
  5
15A
330
1F
100
AcDbEntity
  8
2
370
    60
100
AcDbCircle
 10
281.0875906693384
 20
242.6418136543155
 30
0.0
 40
3.25
  0
CIRCLE
  5
15B
330
1F
100
AcDbEntity
  8
2
370
    60
100
AcDbCircle
 10
281.0875906693384
 20
122.6418136543155
 30
0.0
 40
3.25
  0
CIRCLE
  5
15C
330
1F
100
AcDbEntity
  8
2
370
    60
100
AcDbCircle
 10
161.0875836693384
 20
122.6418136543155
 30
0.0
 40
3.25
  0
LINE
  5
15D
330
1F
100
AcDbEntity
  8
2
 48
0.178058
370
    60
100
AcDbLine
 10
864.1610006693384
 20
255.6418136543155
 30
0.0
 11
864.1610006693384
 21
248.5194996543155
 31
0.0
  0
LINE
  5
15E
330
1F
100
AcDbEntity
  8
2
 48
0.178058
370
    60
100
AcDbLine
 10
868.1610006693384
 20
255.6418136543155
 30
0.0
 11
868.1610006693384
 21
248.5194996543155
 31
0.0
  0
LINE
  5
15F
330
1F
100
AcDbEntity
  8
2
 48
0.07397
370
    60
100
AcDbLine
 10
305.6011406693384
 20
182.6418136543155
 30
0.0
 11
308.5599416693384
 21
182.6418136543155
 31
0.0
  0
LINE
  5
160
330
1F
100
AcDbEntity
  8
2
 48
0.07397
370
    60
100
AcDbLine
 10
305.6011406693384
 20
182.6418136543155
 30
0.0
 11
308.5599416693384
 21
182.6418136543155
 31
0.0
  0
LINE
  5
161
330
1F
100
AcDbEntity
  8
2
370
    60
100
AcDbLine
 10
614.0188496693384
 20
207.6418136543155
 30
0.0
 11
602.7051906693384
 21
196.3280936543155
 31
0.0
  0
LINE
  5
162
330
1F
100
AcDbEntity
  8
2
370
    60
100
AcDbLine
 10
602.7051906693384
 20
196.3280936543155
 30
0.0
 11
603.4122826693384
 21
194.2067856543155
 31
0.0
  0
LINE
  5
163
330
1F
100
AcDbEntity
  8
2
370
    60
100
AcDbLine
 10
603.4122826693384
 20
194.2067856543155
 30
0.0
 11
599.8767606693384
 21
196.3280936543155
 31
0.0
  0
LINE
  5
164
330
1F
100
AcDbEntity
  8
2
370
    60
100
AcDbLine
 10
599.8767606693384
 20
196.3280936543155
 30
0.0
 11
600.5838526693384
 21
194.2067856543155
 31
0.0
  0
LINE
  5
165
330
1F
100
AcDbEntity
  8
2
370
    60
100
AcDbLine
 10
600.5838526693384
 20
194.2067856543155
 30
0.0
 11
589.2701316693384
 21
182.8930656543154
 31
0.0
  0
LINE
  5
166
330
1F
100
AcDbEntity
  8
2
370
    60
100
AcDbLine
 10
589.2701316693384
 20
182.8930656543154
 30
0.0
 11
589.9772546693384
 21
180.7717426543155
 31
0.0
  0
LINE
  5
167
330
1F
100
AcDbEntity
  8
2
370
    60
100
AcDbLine
 10
589.9772546693384
 20
180.7717426543155
 30
0.0
 11
586.4417016693384
 21
182.8930656543154
 31
0.0
  0
LINE
  5
168
330
1F
100
AcDbEntity
  8
2
370
    60
100
AcDbLine
 10
586.4417016693384
 20
182.8930656543154
 30
0.0
 11
587.1488246693384
 21
180.7717426543155
 31
0.0
  0
LINE
  5
169
330
1F
100
AcDbEntity
  8
2
370
    60
100
AcDbLine
 10
587.1488246693384
 20
180.7717426543155
 30
0.0
 11
575.8351036693384
 21
169.4580376543155
 31
0.0
  0
LINE
  5
16A
330
1F
100
AcDbEntity
  8
2
370
    60
100
AcDbLine
 10
575.8351036693384
 20
169.4580376543155
 30
0.0
 11
576.5422266693383
 21
167.3367296543155
 31
0.0
  0
LINE
  5
16B
330
1F
100
AcDbEntity
  8
2
370
    60
100
AcDbLine
 10
576.5422266693383
 20
167.3367296543155
 30
0.0
 11
573.0066736693384
 21
169.4580376543155
 31
0.0
  0
LINE
  5
16C
330
1F
100
AcDbEntity
  8
2
370
    60
100
AcDbLine
 10
573.0066736693384
 20
169.4580376543155
 30
0.0
 11
573.7137966693383
 21
167.3367296543155
 31
0.0
  0
LINE
  5
16D
330
1F
100
AcDbEntity
  8
2
370
    60
100
AcDbLine
 10
573.7137966693383
 20
167.3367296543155
 30
0.0
 11
564.0188806693384
 21
157.6418136543155
 31
0.0
  0
LINE
  5
16E
330
1F
100
AcDbEntity
  8
2
370
    60
100
AcDbLine
 10
642.3031516693384
 20
207.6418136543155
 30
0.0
 11
630.9894306693384
 21
196.3280936543155
 31
0.0
  0
LINE
  5
16F
330
1F
100
AcDbEntity
  8
2
370
    60
100
AcDbLine
 10
630.9894306693384
 20
196.3280936543155
 30
0.0
 11
631.6965846693383
 21
194.2067856543155
 31
0.0
  0
LINE
  5
170
330
1F
100
AcDbEntity
  8
2
370
    60
100
AcDbLine
 10
631.6965846693383
 20
194.2067856543155
 30
0.0
 11
628.1610616693384
 21
196.3280936543155
 31
0.0
  0
LINE
  5
171
330
1F
100
AcDbEntity
  8
2
370
    60
100
AcDbLine
 10
628.1610616693384
 20
196.3280936543155
 30
0.0
 11
628.8681546693384
 21
194.2067856543155
 31
0.0
  0
LINE
  5
172
330
1F
100
AcDbEntity
  8
2
370
    60
100
AcDbLine
 10
628.8681546693384
 20
194.2067856543155
 30
0.0
 11
617.5544336693384
 21
182.8930656543154
 31
0.0
  0
LINE
  5
173
330
1F
100
AcDbEntity
  8
2
370
    60
100
AcDbLine
 10
617.5544336693384
 20
182.8930656543154
 30
0.0
 11
618.2615256693384
 21
180.7717426543155
 31
0.0
  0
LINE
  5
174
330
1F
100
AcDbEntity
  8
2
370
    60
100
AcDbLine
 10
618.2615256693384
 20
180.7717426543155
 30
0.0
 11
614.7260036693384
 21
182.8930656543154
 31
0.0
  0
LINE
  5
175
330
1F
100
AcDbEntity
  8
2
370
    60
100
AcDbLine
 10
614.7260036693384
 20
182.8930656543154
 30
0.0
 11
615.4330956693384
 21
180.7717426543155
 31
0.0
  0
LINE
  5
176
330
1F
100
AcDbEntity
  8
2
370
    60
100
AcDbLine
 10
615.4330956693384
 20
180.7717426543155
 30
0.0
 11
604.1193746693384
 21
169.4580376543155
 31
0.0
  0
LINE
  5
177
330
1F
100
AcDbEntity
  8
2
370
    60
100
AcDbLine
 10
604.1193746693384
 20
169.4580376543155
 30
0.0
 11
604.8265286693384
 21
167.3367296543155
 31
0.0
  0
LINE
  5
178
330
1F
100
AcDbEntity
  8
2
370
    60
100
AcDbLine
 10
604.8265286693384
 20
167.3367296543155
 30
0.0
 11
601.2909446693384
 21
169.4580376543155
 31
0.0
  0
LINE
  5
179
330
1F
100
AcDbEntity
  8
2
370
    60
100
AcDbLine
 10
601.2909446693384
 20
169.4580376543155
 30
0.0
 11
601.9980976693383
 21
167.3367296543155
 31
0.0
  0
LINE
  5
17A
330
1F
100
AcDbEntity
  8
2
370
    60
100
AcDbLine
 10
601.9980976693383
 20
167.3367296543155
 30
0.0
 11
592.3031516693384
 21
157.6418136543155
 31
0.0
  0
DIMENSION
  5
17B
330
1F
100
AcDbEntity
  8
0
370
    25
100
AcDbDimension
  2
*D4
 10
296.0875906693384
 20
274.869265275404
 30
0.0
 11
221.0875871693384
 21
286.869265275404
 31
0.0
 70
    32
 71
     5
 41
2.5
 42
150.000007
  3
Standard
100
AcDbAlignedDimension
 13
146.0875836693384
 23
191.6265236194623
 33
0.0
 14
296.0875906693384
 24
191.6265236194623
 34
0.0
100
AcDbRotatedDimension
1001
ACAD
1000
DSTYLE
1002
{
1070
   171
1070
     3
1070
   143
1040
0.03937
1070
   274
1070
     3
1070
    41
1040
10.0
1070
   289
1070
     0
1070
   141
1040
2.5
1070
   176
1070
     7
1070
   177
1070
     7
1070
   271
1070
     2
1070
    43
1040
3.75
1070
   278
1070
    44
1070
    44
1040
1.25
1070
    42
1040
0.625
1070
   147
1040
5.0
1070
    77
1070
     1
1070
   272
1070
     2
1070
    73
1070
     0
1070
   172
1070
     1
1070
    74
1070
     0
1070
   283
1070
     0
1070
   140
1040
14.0
1070
   284
1070
     8
1070
    78
1070
     8
1002
}
  0
DIMENSION
  5
17C
330
1F
100
AcDbEntity
  8
0
370
    25
100
AcDbDimension
  2
*D5
 10
127.2475768261319
 20
107.6418136543155
 30
0.0
 11
115.2475768261319
 21
182.6418136543155
 31
0.0
 70
    32
 71
     5
 41
2.5
 42
150.0
  3
Standard
100
AcDbAlignedDimension
 13
198.6898486985827
 23
257.6418136543155
 33
0.0
 14
198.6898486985827
 24
107.6418136543155
 34
0.0
 50
90.0
100
AcDbRotatedDimension
1001
ACAD
1000
DSTYLE
1002
{
1070
   171
1070
     3
1070
   143
1040
0.03937
1070
   274
1070
     3
1070
    41
1040
10.0
1070
   289
1070
     0
1070
   141
1040
2.5
1070
   176
1070
     7
1070
   177
1070
     7
1070
   271
1070
     2
1070
    43
1040
3.75
1070
   278
1070
    44
1070
    44
1040
1.25
1070
    42
1040
0.625
1070
   147
1040
5.0
1070
    77
1070
     1
1070
   272
1070
     2
1070
    73
1070
     0
1070
   172
1070
     1
1070
    74
1070
     0
1070
   283
1070
     0
1070
   140
1040
14.0
1070
   284
1070
     8
1070
    78
1070
     8
1002
}
  0
DIMENSION
  5
17D
330
1F
100
AcDbEntity
  8
0
370
    25
100
AcDbDimension
  2
*D7
 10
868.1610006693384
 20
80.90915593705296
 30
0.0
 11
603.1610006693384
 21
92.90915593705296
 31
0.0
 70
    32
  1
1000
 71
     5
 41
2.5
 42
530.0000000000001
  3
Standard
100
AcDbAlignedDimension
 13
338.1610006693384
 23
123.8671998860137
 33
0.0
 14
868.1610006693384
 24
128.3203799238194
 34
0.0
100
AcDbRotatedDimension
1001
ACAD
1000
DSTYLE
1002
{
1070
   171
1070
     3
1070
   143
1040
0.03937
1070
   274
1070
     3
1070
    41
1040
10.0
1070
   289
1070
     0
1070
   141
1040
2.5
1070
   176
1070
     7
1070
   177
1070
     7
1070
   271
1070
     2
1070
    43
1040
3.75
1070
   278
1070
    44
1070
    44
1040
1.25
1070
    42
1040
0.625
1070
   147
1040
5.0
1070
    77
1070
     1
1070
   272
1070
     2
1070
    73
1070
     0
1070
   172
1070
     1
1070
    74
1070
     0
1070
   283
1070
     0
1070
   140
1040
14.0
1070
   284
1070
     8
1070
    78
1070
     8
1002
}
  0
POINT
  5
17E
330
1F
100
AcDbEntity
  8
2
370
    60
100
AcDbPoint
 10
603.1610006693384
 20
182.6418136543155
 30
0.0
  0
POINT
  5
17F
330
1F
100
AcDbEntity
  8
2
370
    60
100
AcDbPoint
 10
864.1610006693384
 20
201.6418136543155
 30
0.0
  0
POINT
  5
180
330
1F
100
AcDbEntity
  8
2
370
    60
100
AcDbPoint
 10
860.1610006693384
 20
197.6418136543155
 30
0.0
  0
POINT
  5
181
330
1F
100
AcDbEntity
  8
2
370
    60
100
AcDbPoint
 10
372.1610006693384
 20
197.6418136543155
 30
0.0
  0
ARC
  5
182
330
1F
100
AcDbEntity
  8
2
370
    60
100
AcDbCircle
 10
344.1610006693384
 20
209.6418136543155
 30
0.0
 40
2.000000000000008
100
AcDbArc
 50
180.0000050000005
 51
270.0000010000005
  0
ARC
  5
183
330
1F
100
AcDbEntity
  8
2
370
    60
100
AcDbCircle
 10
344.1610006693384
 20
155.6418136543155
 30
0.0
 40
2.000000000000003
100
AcDbArc
 50
90.00000299999932
 51
180.0000049999993
  0
ARC
  5
184
330
1F
100
AcDbEntity
  8
2
370
    60
100
AcDbCircle
 10
362.1610006693384
 20
163.6418136543155
 30
0.0
 40
6.000000000000001
100
AcDbArc
 50
270.0000009999998
 51
0.0000049999997908
  0
ARC
  5
185
330
1F
100
AcDbEntity
  8
2
370
    60
100
AcDbCircle
 10
362.1610006693384
 20
201.6418136543155
 30
0.0
 40
2.000000000000008
100
AcDbArc
 50
0.0000050000005032
 51
90.00000300000052
  0
ARC
  5
186
330
1F
100
AcDbEntity
  8
2
370
    60
100
AcDbCircle
 10
362.1610006693384
 20
163.6418136543155
 30
0.0
 40
2.0
100
AcDbArc
 50
270.0000009999998
 51
0.0000049999997908
  0
LINE
  5
187
330
1F
100
AcDbEntity
  8
2
370
    60
100
AcDbLine
 10
604.0188496693384
 20
197.6418136543155
 30
0.0
 11
368.1610006693384
 21
197.6418136543155
 31
0.0
  0
VIEWPORT
  5
BB
330
73
100
AcDbEntity
 67
     1
  8
0
100
AcDbViewport
 10
7.8
 20
4.5
 30
0.0
 40
15.64
 41
9.0
 68
     1
 69
     1
 12
6.0
 22
4.5
 13
0.0
 23
0.0
 14
0.5
 24
0.5
 15
0.5
 25
0.5
 16
0.0
 26
0.0
 36
1.0
 17
0.0
 27
0.0
 37
0.0
 42
50.0
 43
0.0
 44
0.0
 45
12.0
 50
0.0
 51
0.0
 72
   100
 90
   557152
  1

281
     0
 71
     1
 74
     0
110
0.0
120
0.0
130
0.0
111
1.0
121
0.0
131
0.0
112
0.0
122
1.0
132
0.0
 79
     0
146
0.0
  0
ENDSEC
  0
SECTION
  2
OBJECTS
  0
DICTIONARY
  5
C
330
0
100
AcDbDictionary
281
     1
  3
ACAD_COLOR
350
6C
  3
ACAD_GROUP
350
D
  3
ACAD_LAYOUT
350
1A
  3
ACAD_MATERIAL
350
6B
  3
ACAD_MLEADERSTYLE
350
1ED
  3
ACAD_MLINESTYLE
350
17
  3
ACAD_PLOTSETTINGS
350
19
  3
ACAD_PLOTSTYLENAME
350
E
  3
ACAD_SCALELIST
350
99
  3
ACAD_TABLESTYLE
350
92
  3
ACDBHEADERROUNDTRIPXREC
350
1EE
  3
AcDbVariableDictionary
350
59
  3
DWGPROPS
350
1F1
  0
DICTIONARY
  5
6C
102
{ACAD_REACTORS
330
C
102
}
330
C
100
AcDbDictionary
281
     1
  0
DICTIONARY
  5
D
102
{ACAD_REACTORS
330
C
102
}
330
C
100
AcDbDictionary
281
     1
  0
DICTIONARY
  5
1A
102
{ACAD_REACTORS
330
C
102
}
330
C
100
AcDbDictionary
281
     1
  3
Layout1
350
74
  3
Layout2
350
1DB
  3
Model
350
22
  0
DICTIONARY
  5
6B
102
{ACAD_REACTORS
330
C
102
}
330
C
100
AcDbDictionary
281
     1
  0
DICTIONARY
  5
1ED
102
{ACAD_REACTORS
330
C
102
}
330
C
100
AcDbDictionary
281
     1
  0
DICTIONARY
  5
17
102
{ACAD_REACTORS
330
C
102
}
330
C
100
AcDbDictionary
281
     1
  3
Standard
350
18
  0
DICTIONARY
  5
19
102
{ACAD_REACTORS
330
C
102
}
330
C
100
AcDbDictionary
281
     1
  0
ACDBDICTIONARYWDFLT
  5
E
102
{ACAD_REACTORS
330
C
102
}
330
C
100
AcDbDictionary
281
     1
  3
Normal
350
F
100
AcDbDictionaryWithDefault
340
F
  0
DICTIONARY
  5
99
102
{ACAD_REACTORS
330
C
102
}
330
C
100
AcDbDictionary
281
     1
  3
A0
350
D5
  3
A1
350
D6
  3
A2
350
D7
  3
A3
350
D8
  3
A4
350
D9
  3
A5
350
DA
  3
A6
350
DB
  3
A7
350
DC
  3
A8
350
DD
  3
A9
350
DE
  3
B0
350
DF
  3
B1
350
E0
  3
B2
350
E1
  3
B3
350
E2
  3
B4
350
E3
  3
B5
350
E4
  3
B6
350
E5
  3
B7
350
E6
  3
B8
350
E7
  3
B9
350
E8
  3
C0
350
E9
  3
C1
350
EA
  3
C2
350
EB
  3
C3
350
EC
  3
C4
350
ED
  3
C5
350
EE
  3
C6
350
EF
  3
C7
350
F0
  3
C8
350
F1
  3
C9
350
F2
  3
D0
350
F3
  3
D1
350
F4
  3
D2
350
F5
  0
DICTIONARY
  5
92
102
{ACAD_REACTORS
330
C
102
}
330
C
100
AcDbDictionary
281
     1
  0
DICTIONARY
  5
1EE
102
{ACAD_REACTORS
330
C
102
}
330
C
100
AcDbDictionary
281
     1
  3
COLORDICT
350
1EF
  3
MATERIALDICT
350
1F0
  0
DICTIONARY
  5
59
102
{ACAD_REACTORS
330
C
102
}
330
C
100
AcDbDictionary
281
     1
  3
CTABLESTYLE
350
98
  3
DIMASSOC
350
5A
  3
HIDETEXT
350
5E
  0
XRECORD
  5
1F1
102
{ACAD_REACTORS
330
C
102
}
330
C
100
AcDbXrecord
280
     1
  1
DWGPROPS COOKIE
  2

  3

  4

  6

  7

  8
BelottiMc
  9

300
=
301
=
302
=
303
=
304
=
305
=
306
=
307
=
308
=
309
=
 40
0.0
 41
2455103.643431088
 42
2455103.685097743
  1

 90
        0
  0
LAYOUT
  5
74
102
{ACAD_REACTORS
330
1A
102
}
330
1A
100
AcDbPlotSettings
  1

  2
ProgeSOFT PDF Wizard
  4
A4
  6

 40
5.926666666666667
 41
6.011333333333321
 42
6.095999999999985
 43
5.926666666666667
 44
210.0
 45
297.0
 46
88.56200000000001
 47
136.531
 48
0.0
 49
0.0
140
0.0
141
0.0
142
1.0
143
1.0
 70
   692
 72
     1
 73
     0
 74
     0
  7

 75
    16
147
1.0
148
4.426666666666668
149
1.5
100
AcDbLayout
  1
Layout1
 70
     1
 71
     1
 10
0.0
 20
0.0
 11
0.0
 21
0.0
 12
0.0
 22
0.0
 32
0.0
 14
0.0
 24
0.0
 34
0.0
 15
0.0
 25
0.0
 35
0.0
146
0.0
 13
0.0
 23
0.0
 33
0.0
 16
1.0
 26
0.0
 36
0.0
 17
0.0
 27
1.0
 37
0.0
 76
     0
330
D1
331
1EC
1001
PROGE_PRINT_SETTINGS
1070
    73
1070
     1
  0
LAYOUT
  5
1DB
102
{ACAD_REACTORS
330
1A
102
}
330
1A
100
AcDbPlotSettings
  1

  2
ProgeSOFT PDF Wizard
  4
A4
  6

 40
5.926666666666667
 41
6.011333333333321
 42
6.095999999999985
 43
5.926666666666667
 44
210.0
 45
297.0
 46
88.562
 47
136.531
 48
0.0
 49
0.0
140
0.0
141
0.0
142
1.0
143
1.0
 70
   692
 72
     1
 73
     0
 74
     0
  7

 75
    16
147
1.0
148
0.0
149
0.0
100
AcDbLayout
  1
Layout2
 70
     1
 71
     2
 10
0.0
 20
0.0
 11
12.0
 21
9.0
 12
0.0
 22
0.0
 32
0.0
 14
0.0
 24
0.0
 34
0.0
 15
12.0
 25
9.0
 35
0.0
146
0.0
 13
0.0
 23
0.0
 33
0.0
 16
1.0
 26
0.0
 36
0.0
 17
0.0
 27
1.0
 37
0.0
 76
     0
330
73
331
BB
1001
PROGE_PRINT_SETTINGS
1070
    73
1070
     1
  0
LAYOUT
  5
22
102
{ACAD_REACTORS
330
1A
102
}
330
1A
100
AcDbPlotSettings
  1

  2
none_device
  4
Letter_(8.50_x_11.00_Inches)
  6

 40
6.349999904632568
 41
6.349999904632568
 42
6.350006103515625
 43
6.350006103515625
 44
215.8999938964844
 45
279.3999938964844
 46
0.0
 47
0.0
 48
0.0
 49
0.0
140
0.0
141
0.0
142
1.0
143
7.721657901229294
 70
 11952
 72
     1
 73
     1
 74
     0
  7

 75
     0
147
0.1295058668476881
148
0.1311165230791651
149
0.096403374003771
100
AcDbLayout
  1
Model
 70
     1
 71
     0
 10
0.0
 20
0.0
 11
0.0
 21
0.0
 12
0.0
 22
0.0
 32
0.0
 14
108.2475768261319
 24
79.24248927038629
 34
0.0
 15
904.2817896693384
 25
293.869265275404
 35
0.0
146
0.0
 13
0.0
 23
0.0
 33
0.0
 16
1.0
 26
0.0
 36
0.0
 17
0.0
 27
1.0
 37
0.0
 76
     0
330
1F
331
97
  0
MLINESTYLE
  5
18
102
{ACAD_REACTORS
330
17
102
}
330
17
100
AcDbMlineStyle
  2
STANDARD
 70
     0
  3

 62
   256
 51
90.0
 52
90.0
 71
     2
 49
0.5
 62
   256
  6
BYLAYER
 49
-0.5
 62
   256
  6
BYLAYER
  0
ACDBPLACEHOLDER
  5
F
102
{ACAD_REACTORS
330
E
102
}
330
E
  0
SCALE
  5
D5
102
{ACAD_REACTORS
330
99
102
}
330
99
100
AcDbScale
 70
     0
300
1:1
140
1.0
141
1.0
290
     1
  0
SCALE
  5
D6
102
{ACAD_REACTORS
330
99
102
}
330
99
100
AcDbScale
 70
     0
300
1:2
140
1.0
141
2.0
290
     0
  0
SCALE
  5
D7
102
{ACAD_REACTORS
330
99
102
}
330
99
100
AcDbScale
 70
     0
300
1:4
140
1.0
141
4.0
290
     0
  0
SCALE
  5
D8
102
{ACAD_REACTORS
330
99
102
}
330
99
100
AcDbScale
 70
     0
300
1:5
140
1.0
141
5.0
290
     0
  0
SCALE
  5
D9
102
{ACAD_REACTORS
330
99
102
}
330
99
100
AcDbScale
 70
     0
300
1:8
140
1.0
141
8.0
290
     0
  0
SCALE
  5
DA
102
{ACAD_REACTORS
330
99
102
}
330
99
100
AcDbScale
 70
     0
300
1:10
140
1.0
141
10.0
290
     0
  0
SCALE
  5
DB
102
{ACAD_REACTORS
330
99
102
}
330
99
100
AcDbScale
 70
     0
300
1:16
140
1.0
141
16.0
290
     0
  0
SCALE
  5
DC
102
{ACAD_REACTORS
330
99
102
}
330
99
100
AcDbScale
 70
     0
300
1:20
140
1.0
141
20.0
290
     0
  0
SCALE
  5
DD
102
{ACAD_REACTORS
330
99
102
}
330
99
100
AcDbScale
 70
     0
300
1:30
140
1.0
141
30.0
290
     0
  0
SCALE
  5
DE
102
{ACAD_REACTORS
330
99
102
}
330
99
100
AcDbScale
 70
     0
300
1:40
140
1.0
141
40.0
290
     0
  0
SCALE
  5
DF
102
{ACAD_REACTORS
330
99
102
}
330
99
100
AcDbScale
 70
     0
300
1:50
140
1.0
141
50.0
290
     0
  0
SCALE
  5
E0
102
{ACAD_REACTORS
330
99
102
}
330
99
100
AcDbScale
 70
     0
300
1:100
140
1.0
141
100.0
290
     0
  0
SCALE
  5
E1
102
{ACAD_REACTORS
330
99
102
}
330
99
100
AcDbScale
 70
     0
300
2:1
140
2.0
141
1.0
290
     0
  0
SCALE
  5
E2
102
{ACAD_REACTORS
330
99
102
}
330
99
100
AcDbScale
 70
     0
300
4:1
140
4.0
141
1.0
290
     0
  0
SCALE
  5
E3
102
{ACAD_REACTORS
330
99
102
}
330
99
100
AcDbScale
 70
     0
300
8:1
140
8.0
141
1.0
290
     0
  0
SCALE
  5
E4
102
{ACAD_REACTORS
330
99
102
}
330
99
100
AcDbScale
 70
     0
300
10:1
140
10.0
141
1.0
290
     0
  0
SCALE
  5
E5
102
{ACAD_REACTORS
330
99
102
}
330
99
100
AcDbScale
 70
     0
300
100:1
140
100.0
141
1.0
290
     0
  0
SCALE
  5
E6
102
{ACAD_REACTORS
330
99
102
}
330
99
100
AcDbScale
 70
     0
300
1/128" = 1'-0"
140
0.0078125
141
12.0
290
     0
  0
SCALE
  5
E7
102
{ACAD_REACTORS
330
99
102
}
330
99
100
AcDbScale
 70
     0
300
1/64" = 1'-0"
140
0.015625
141
12.0
290
     0
  0
SCALE
  5
E8
102
{ACAD_REACTORS
330
99
102
}
330
99
100
AcDbScale
 70
     0
300
1/32" = 1'-0"
140
0.03125
141
12.0
290
     0
  0
SCALE
  5
E9
102
{ACAD_REACTORS
330
99
102
}
330
99
100
AcDbScale
 70
     0
300
1/16" = 1'-0"
140
0.0625
141
12.0
290
     0
  0
SCALE
  5
EA
102
{ACAD_REACTORS
330
99
102
}
330
99
100
AcDbScale
 70
     0
300
3/32" = 1'-0"
140
0.09375
141
12.0
290
     0
  0
SCALE
  5
EB
102
{ACAD_REACTORS
330
99
102
}
330
99
100
AcDbScale
 70
     0
300
1/8" = 1'-0"
140
0.125
141
12.0
290
     0
  0
SCALE
  5
EC
102
{ACAD_REACTORS
330
99
102
}
330
99
100
AcDbScale
 70
     0
300
3/16" = 1'-0"
140
0.1875
141
12.0
290
     0
  0
SCALE
  5
ED
102
{ACAD_REACTORS
330
99
102
}
330
99
100
AcDbScale
 70
     0
300
1/4" = 1'-0"
140
0.25
141
12.0
290
     0
  0
SCALE
  5
EE
102
{ACAD_REACTORS
330
99
102
}
330
99
100
AcDbScale
 70
     0
300
3/8" = 1'-0"
140
0.375
141
12.0
290
     0
  0
SCALE
  5
EF
102
{ACAD_REACTORS
330
99
102
}
330
99
100
AcDbScale
 70
     0
300
1/2" = 1'-0"
140
0.5
141
12.0
290
     0
  0
SCALE
  5
F0
102
{ACAD_REACTORS
330
99
102
}
330
99
100
AcDbScale
 70
     0
300
3/4" = 1'-0"
140
0.75
141
12.0
290
     0
  0
SCALE
  5
F1
102
{ACAD_REACTORS
330
99
102
}
330
99
100
AcDbScale
 70
     0
300
1" = 1'-0"
140
1.0
141
12.0
290
     0
  0
SCALE
  5
F2
102
{ACAD_REACTORS
330
99
102
}
330
99
100
AcDbScale
 70
     0
300
1-1/2" = 1'-0"
140
1.5
141
12.0
290
     0
  0
SCALE
  5
F3
102
{ACAD_REACTORS
330
99
102
}
330
99
100
AcDbScale
 70
     0
300
3" = 1'-0"
140
3.0
141
12.0
290
     0
  0
SCALE
  5
F4
102
{ACAD_REACTORS
330
99
102
}
330
99
100
AcDbScale
 70
     0
300
6" = 1'-0"
140
6.0
141
12.0
290
     0
  0
SCALE
  5
F5
102
{ACAD_REACTORS
330
99
102
}
330
99
100
AcDbScale
 70
     0
300
1'-0" = 1'-0"
140
12.0
141
12.0
290
     0
  0
XRECORD
  5
1EF
102
{ACAD_REACTORS
330
1EE
102
}
330
1EE
100
AcDbXrecord
280
     1
340
6C
  0
XRECORD
  5
1F0
102
{ACAD_REACTORS
330
1EE
102
}
330
1EE
100
AcDbXrecord
280
     1
340
6B
  0
DICTIONARYVAR
  5
98
102
{ACAD_REACTORS
330
59
102
}
330
59
100
DictionaryVariables
280
     0
  1
Standard
  0
DICTIONARYVAR
  5
5A
102
{ACAD_REACTORS
330
59
102
}
330
59
100
DictionaryVariables
280
     0
  1
2
  0
DICTIONARYVAR
  5
5E
102
{ACAD_REACTORS
330
59
102
}
330
59
100
DictionaryVariables
280
     0
  1
1
  0
ENDSEC
  0
EOF
