  0
SECTION
  2
HEADER
  9
$ACADVER
  1
AC1015
  9
$ACADMAINTVER
 70
     6
  9
$DWGCODEPAGE
  3
ANSI_1252
  9
$INSBASE
 10
0.0
 20
0.0
 30
0.0
  9
$EXTMIN
 10
244.353006
 20
119.740998
 30
0.0
  9
$EXTMAX
 10
1435.119490271592
 20
932.5023963178267
 30
0.0
  9
$LIMMIN
 10
0.0
 20
0.0
  9
$LIMMAX
 10
0.0
 20
0.0
  9
$ORTHOMODE
 70
     0
  9
$REGENMODE
 70
     1
  9
$FILLMODE
 70
     1
  9
$QTEXTMODE
 70
     0
  9
$MIRRTEXT
 70
     0
  9
$LTSCALE
 40
1.0
  9
$ATTMODE
 70
     1
  9
$TEXTSIZE
 40
2.5
  9
$TRACEWID
 40
1.0
  9
$TEXTSTYLE
  7
Standard
  9
$CLAYER
  8
0
  9
$CELTYPE
  6
ByLayer
  9
$CECOLOR
 62
   256
  9
$CELTSCALE
 40
1.0
  9
$DISPSILH
 70
     0
  9
$DIMSCALE
 40
1.0
  9
$DIMASZ
 40
2.5
  9
$DIMEXO
 40
0.625
  9
$DIMDLI
 40
3.75
  9
$DIMRND
 40
0.0
  9
$DIMDLE
 40
0.0
  9
$DIMEXE
 40
1.25
  9
$DIMTP
 40
0.0
  9
$DIMTM
 40
0.0
  9
$DIMTXT
 40
2.5
  9
$DIMCEN
 40
2.5
  9
$DIMTSZ
 40
0.0
  9
$DIMTOL
 70
     0
  9
$DIMLIM
 70
     0
  9
$DIMTIH
 70
     0
  9
$DIMTOH
 70
     0
  9
$DIMSE1
 70
     0
  9
$DIMSE2
 70
     0
  9
$DIMTAD
 70
     1
  9
$DIMZIN
 70
     8
  9
$DIMBLK
  1

  9
$DIMASO
 70
     1
  9
$DIMSHO
 70
     1
  9
$DIMPOST
  1

  9
$DIMAPOST
  1

  9
$DIMALT
 70
     0
  9
$DIMALTD
 70
     3
  9
$DIMALTF
 40
0.03937007874016
  9
$DIMLFAC
 40
1.0
  9
$DIMTOFL
 70
     1
  9
$DIMTVP
 40
0.0
  9
$DIMTIX
 70
     0
  9
$DIMSOXD
 70
     0
  9
$DIMSAH
 70
     0
  9
$DIMBLK1
  1

  9
$DIMBLK2
  1

  9
$DIMSTYLE
  2
ISO-25
  9
$DIMCLRD
 70
     0
  9
$DIMCLRE
 70
     0
  9
$DIMCLRT
 70
     0
  9
$DIMTFAC
 40
1.0
  9
$DIMGAP
 40
0.625
  9
$DIMJUST
 70
     0
  9
$DIMSD1
 70
     0
  9
$DIMSD2
 70
     0
  9
$DIMTOLJ
 70
     0
  9
$DIMTZIN
 70
     8
  9
$DIMALTZ
 70
     0
  9
$DIMALTTZ
 70
     0
  9
$DIMUPT
 70
     0
  9
$DIMDEC
 70
     2
  9
$DIMTDEC
 70
     2
  9
$DIMALTU
 70
     2
  9
$DIMALTTD
 70
     3
  9
$DIMTXSTY
  7
Standard
  9
$DIMAUNIT
 70
     0
  9
$DIMADEC
 70
     0
  9
$DIMALTRND
 40
0.0
  9
$DIMAZIN
 70
     0
  9
$DIMDSEP
 70
    44
  9
$DIMATFIT
 70
     3
  9
$DIMFRAC
 70
     0
  9
$DIMLDRBLK
  1

  9
$DIMLUNIT
 70
     2
  9
$DIMLWD
 70
    -2
  9
$DIMLWE
 70
    -2
  9
$DIMTMOVE
 70
     0
  9
$LUNITS
 70
     2
  9
$LUPREC
 70
     4
  9
$SKETCHINC
 40
1.0
  9
$FILLETRAD
 40
0.0
  9
$AUNITS
 70
     0
  9
$AUPREC
 70
     0
  9
$MENU
  1
.
  9
$ELEVATION
 40
0.0
  9
$PELEVATION
 40
0.0
  9
$THICKNESS
 40
0.0
  9
$LIMCHECK
 70
     0
  9
$CHAMFERA
 40
0.0
  9
$CHAMFERB
 40
0.0
  9
$CHAMFERC
 40
0.0
  9
$CHAMFERD
 40
0.0
  9
$SKPOLY
 70
     0
  9
$TDCREATE
 40
2455103.693684444
  9
$TDUCREATE
 40
2455103.610351111
  9
$TDUPDATE
 40
2455103.746364398
  9
$TDUUPDATE
 40
2455103.663031065
  9
$TDINDWG
 40
0.0475974537
  9
$TDUSRTIMER
 40
0.0475950926
  9
$USRTIMER
 70
     1
  9
$ANGBASE
 50
0.0
  9
$ANGDIR
 70
     0
  9
$PDMODE
 70
     0
  9
$PDSIZE
 40
0.0
  9
$PLINEWID
 40
0.0
  9
$SPLFRAME
 70
     0
  9
$SPLINETYPE
 70
     6
  9
$SPLINESEGS
 70
     8
  9
$HANDSEED
  5
73C
  9
$SURFTAB1
 70
     6
  9
$SURFTAB2
 70
     6
  9
$SURFTYPE
 70
     6
  9
$SURFU
 70
     6
  9
$SURFV
 70
     6
  9
$UCSBASE
  2

  9
$UCSNAME
  2

  9
$UCSORG
 10
0.0
 20
0.0
 30
0.0
  9
$UCSXDIR
 10
1.0
 20
0.0
 30
0.0
  9
$UCSYDIR
 10
0.0
 20
1.0
 30
0.0
  9
$UCSORTHOREF
  2

  9
$UCSORTHOVIEW
 70
     0
  9
$UCSORGTOP
 10
0.0
 20
0.0
 30
0.0
  9
$UCSORGBOTTOM
 10
0.0
 20
0.0
 30
0.0
  9
$UCSORGLEFT
 10
0.0
 20
0.0
 30
0.0
  9
$UCSORGRIGHT
 10
0.0
 20
0.0
 30
0.0
  9
$UCSORGFRONT
 10
0.0
 20
0.0
 30
0.0
  9
$UCSORGBACK
 10
0.0
 20
0.0
 30
0.0
  9
$PUCSBASE
  2

  9
$PUCSNAME
  2

  9
$PUCSORG
 10
0.0
 20
0.0
 30
0.0
  9
$PUCSXDIR
 10
1.0
 20
0.0
 30
0.0
  9
$PUCSYDIR
 10
0.0
 20
1.0
 30
0.0
  9
$PUCSORTHOREF
  2

  9
$PUCSORTHOVIEW
 70
     0
  9
$PUCSORGTOP
 10
0.0
 20
0.0
 30
0.0
  9
$PUCSORGBOTTOM
 10
0.0
 20
0.0
 30
0.0
  9
$PUCSORGLEFT
 10
0.0
 20
0.0
 30
0.0
  9
$PUCSORGRIGHT
 10
0.0
 20
0.0
 30
0.0
  9
$PUCSORGFRONT
 10
0.0
 20
0.0
 30
0.0
  9
$PUCSORGBACK
 10
0.0
 20
0.0
 30
0.0
  9
$USERI1
 70
     0
  9
$USERI2
 70
     0
  9
$USERI3
 70
     0
  9
$USERI4
 70
     0
  9
$USERI5
 70
     0
  9
$USERR1
 40
0.0
  9
$USERR2
 40
0.0
  9
$USERR3
 40
0.0
  9
$USERR4
 40
0.0
  9
$USERR5
 40
0.0
  9
$WORLDVIEW
 70
     1
  9
$SHADEDGE
 70
     3
  9
$SHADEDIF
 70
    70
  9
$TILEMODE
 70
     1
  9
$MAXACTVP
 70
    64
  9
$PINSBASE
 10
0.0
 20
0.0
 30
0.0
  9
$PLIMCHECK
 70
     0
  9
$PEXTMIN
 10
0.0
 20
0.0
 30
0.0
  9
$PEXTMAX
 10
12.0
 20
9.0
 30
0.0
  9
$PLIMMIN
 10
0.0
 20
0.0
  9
$PLIMMAX
 10
12.0
 20
9.0
  9
$UNITMODE
 70
     0
  9
$VISRETAIN
 70
     1
  9
$PLINEGEN
 70
     0
  9
$PSLTSCALE
 70
     1
  9
$TREEDEPTH
 70
  3020
  9
$CMLSTYLE
  2
Standard
  9
$CMLJUST
 70
     0
  9
$CMLSCALE
 40
20.0
  9
$PROXYGRAPHICS
 70
     1
  9
$MEASUREMENT
 70
     1
  9
$CELWEIGHT
370
    -1
  9
$ENDCAPS
280
     0
  9
$JOINSTYLE
280
     0
  9
$LWDISPLAY
290
     0
  9
$INSUNITS
 70
     4
  9
$HYPERLINKBASE
  1

  9
$STYLESHEET
  1

  9
$XEDIT
290
     1
  9
$CEPSNTYPE
380
     0
  9
$PSTYLEMODE
290
     1
  9
$FINGERPRINTGUID
  2
{5559452E-1E62-4159-8551-BF76FFF3E7E8}
  9
$VERSIONGUID
  2
{3CEB9EF8-4431-4551-B596-6734A9F966A9}
  9
$EXTNAMES
290
     1
  9
$PSVPSCALE
 40
0.0
  9
$OLESTARTUP
290
     0
  0
ENDSEC
  0
SECTION
  2
CLASSES
  0
CLASS
  1
ACDBDICTIONARYWDFLT
  2
AcDbDictionaryWithDefault
  3
ObjectDBX Classes
 90
        0
280
     0
281
     0
  0
CLASS
  1
ACDBPLACEHOLDER
  2
AcDbPlaceHolder
  3
ObjectDBX Classes
 90
        0
280
     0
281
     0
  0
CLASS
  1
LAYOUT
  2
AcDbLayout
  3
ObjectDBX Classes
 90
        0
280
     0
281
     0
  0
CLASS
  1
DICTIONARYVAR
  2
AcDbDictionaryVar
  3
ObjectDBX Classes
 90
        0
280
     0
281
     0
  0
CLASS
  1
TABLESTYLE
  2
AcDbTableStyle
  3
ObjectDBX Classes
 90
     4095
280
     0
281
     0
  0
CLASS
  1
SCALE
  2
AcDbScale
  3
ObjectDBX Classes
 90
     1153
280
     0
281
     0
  0
ENDSEC
  0
SECTION
  2
TABLES
  0
TABLE
  2
VPORT
  5
8
330
0
100
AcDbSymbolTable
 70
     2
  0
VPORT
  5
97
330
8
100
AcDbSymbolTableRecord
100
AcDbViewportTableRecord
  2
*Active
 70
     0
 10
0.0
 20
0.0
 11
1.0
 21
1.0
 12
329.8661654734888
 22
461.2465999504586
 13
0.0
 23
0.0
 14
10.0
 24
10.0
 15
10.0
 25
10.0
 16
0.0
 26
0.0
 36
1.0
 17
0.0
 27
0.0
 37
0.0
 40
2247.596318982875
 41
1.664827586206897
 42
50.0
 43
0.0
 44
0.0
 50
0.0
 51
0.0
 71
     0
 72
  1000
 73
     1
 74
     3
 75
     0
 76
     0
 77
     0
 78
     0
281
     0
 65
     1
110
0.0
120
0.0
130
0.0
111
1.0
121
0.0
131
0.0
112
0.0
122
1.0
132
0.0
 79
     0
146
0.0
  0
ENDTAB
  0
TABLE
  2
LTYPE
  5
5
330
0
100
AcDbSymbolTable
 70
     8
  0
LTYPE
  5
14
330
5
100
AcDbSymbolTableRecord
100
AcDbLinetypeTableRecord
  2
ByBlock
 70
     0
  3

 72
    65
 73
     0
 40
0.0
  0
LTYPE
  5
15
330
5
100
AcDbSymbolTableRecord
100
AcDbLinetypeTableRecord
  2
ByLayer
 70
     0
  3

 72
    65
 73
     0
 40
0.0
  0
LTYPE
  5
16
330
5
100
AcDbSymbolTableRecord
100
AcDbLinetypeTableRecord
  2
Continuous
 70
     0
  3
Solid line
 72
    65
 73
     0
 40
0.0
  0
LTYPE
  5
67F
330
5
100
AcDbSymbolTableRecord
100
AcDbLinetypeTableRecord
  2
DASHED
 70
     0
  3
__ __ __ __ __ __ __ __ __ __ __ __ __ __ __ __
 72
    65
 73
     2
 40
15.0
 49
12.0
 74
     0
 49
-3.0
 74
     0
  0
LTYPE
  5
680
330
5
100
AcDbSymbolTableRecord
100
AcDbLinetypeTableRecord
  2
DASHDOT
 70
     0
  3
 __ . __ . __ . __ . __ . __ . __ . 
 72
    65
 73
     4
 40
18.5
 49
12.0
 74
     0
 49
-3.0
 74
     0
 49
0.5
 74
     0
 49
-3.0
 74
     0
  0
LTYPE
  5
681
330
5
100
AcDbSymbolTableRecord
100
AcDbLinetypeTableRecord
  2
DOT
 70
     0
  3
 . . . . . . . . . . . . . . . .
 72
    65
 73
     2
 40
3.5
 49
0.5
 74
     0
 49
-3.0
 74
     0
  0
LTYPE
  5
682
330
5
100
AcDbSymbolTableRecord
100
AcDbLinetypeTableRecord
  2
DASHSPACE
 70
     0
  3
__    __    __    __    __   
 72
    65
 73
     2
 40
30.0
 49
12.0
 74
     0
 49
-18.0
 74
     0
  0
LTYPE
  5
683
330
5
100
AcDbSymbolTableRecord
100
AcDbLinetypeTableRecord
  2
DASHDOT2
 70
     0
  3
__ . . __ . . __ . . __ 
 72
    65
 73
     6
 40
22.0
 49
12.0
 74
     0
 49
-3.0
 74
     0
 49
0.5
 74
     0
 49
-3.0
 74
     0
 49
0.5
 74
     0
 49
-3.0
 74
     0
  0
LTYPE
  5
684
330
5
100
AcDbSymbolTableRecord
100
AcDbLinetypeTableRecord
  2
PHANTOM
 70
     0
  3
____________    ____    ____   _
 72
    65
 73
     6
 40
20.0
 49
10.0
 74
     0
 49
-2.0
 74
     0
 49
2.0
 74
     0
 49
-2.0
 74
     0
 49
2.0
 74
     0
 49
-2.0
 74
     0
  0
LTYPE
  5
685
330
5
100
AcDbSymbolTableRecord
100
AcDbLinetypeTableRecord
  2
AXES
 70
     0
  3
________  __  ________  __  _____
 72
    65
 73
     4
 40
24.0
 49
15.0
 74
     0
 49
-3.0
 74
     0
 49
3.0
 74
     0
 49
-3.0
 74
     0
  0
ENDTAB
  0
TABLE
  2
LAYER
  5
2
330
0
100
AcDbSymbolTable
 70
     3
  0
LAYER
  5
10
330
2
100
AcDbSymbolTableRecord
100
AcDbLayerTableRecord
  2
0
 70
     0
 62
     7
  6
Continuous
370
    -3
390
F
  0
LAYER
  5
100
330
2
100
AcDbSymbolTableRecord
100
AcDbLayerTableRecord
  2
2
 70
     0
 62
     7
  6
Continuous
370
    13
390
F
  0
LAYER
  5
2F4
330
2
100
AcDbSymbolTableRecord
100
AcDbLayerTableRecord
  2
DEFPOINTS
 70
     0
 62
     7
  6
Continuous
290
     0
370
    -3
390
F
  0
ENDTAB
  0
TABLE
  2
STYLE
  5
3
330
0
100
AcDbSymbolTable
 70
     2
  0
STYLE
  5
11
330
3
100
AcDbSymbolTableRecord
100
AcDbTextStyleTableRecord
  2
Standard
 70
     0
 40
0.0
 41
1.0
 50
0.0
 71
     0
 42
2.5
  3
txt
  4

  0
STYLE
  5
F8
330
3
100
AcDbSymbolTableRecord
100
AcDbTextStyleTableRecord
  2
GDT
 70
     0
 40
0.0
 41
1.0
 50
0.0
 71
     0
 42
0.2
  3
amgdt.shx
  4

  0
ENDTAB
  0
TABLE
  2
VIEW
  5
6
330
0
100
AcDbSymbolTable
 70
     0
  0
ENDTAB
  0
TABLE
  2
UCS
  5
7
330
0
100
AcDbSymbolTable
 70
     0
  0
ENDTAB
  0
TABLE
  2
APPID
  5
9
330
0
100
AcDbSymbolTable
 70
     2
  0
APPID
  5
12
330
9
100
AcDbSymbolTableRecord
100
AcDbRegAppTableRecord
  2
ACAD
 70
     0
  0
APPID
  5
67E
330
9
100
AcDbSymbolTableRecord
100
AcDbRegAppTableRecord
  2
PROGE_PRINT_SETTINGS
 70
     0
  0
ENDTAB
  0
TABLE
  2
DIMSTYLE
  5
A
330
0
100
AcDbSymbolTable
 70
     2
100
AcDbDimStyleTable
  0
DIMSTYLE
105
27
330
A
100
AcDbSymbolTableRecord
100
AcDbDimStyleTableRecord
  2
Standard
 70
     0
278
     0
340
11
  0
DIMSTYLE
105
29
102
{ACAD_REACTORS
330
5C7
330
5E9
330
617
330
65B
102
}
330
A
100
AcDbSymbolTableRecord
100
AcDbDimStyleTableRecord
  2
ISO-25
 70
     0
 41
2.5
 42
0.625
 43
3.75
 44
1.25
 73
     0
 74
     0
 77
     1
 78
     8
140
2.5
141
2.5
143
0.03937007874016
147
0.625
171
     3
172
     1
271
     2
272
     2
274
     3
278
    44
283
     0
284
     8
340
11
  0
ENDTAB
  0
TABLE
  2
BLOCK_RECORD
  5
1
330
0
100
AcDbSymbolTable
 70
    87
  0
BLOCK_RECORD
  5
1F
330
1
100
AcDbSymbolTableRecord
100
AcDbBlockTableRecord
  2
*Model_Space
340
22
  0
BLOCK_RECORD
  5
73
330
1
100
AcDbSymbolTableRecord
100
AcDbBlockTableRecord
  2
*Paper_Space
340
687
  0
BLOCK_RECORD
  5
D1
330
1
100
AcDbSymbolTableRecord
100
AcDbBlockTableRecord
  2
*Paper_Space0
340
74
  0
BLOCK_RECORD
  5
105
330
1
100
AcDbSymbolTableRecord
100
AcDbBlockTableRecord
  2
Block0
340
0
  0
BLOCK_RECORD
  5
10A
330
1
100
AcDbSymbolTableRecord
100
AcDbBlockTableRecord
  2
Block1
340
0
  0
BLOCK_RECORD
  5
10F
330
1
100
AcDbSymbolTableRecord
100
AcDbBlockTableRecord
  2
Block2
340
0
  0
BLOCK_RECORD
  5
114
330
1
100
AcDbSymbolTableRecord
100
AcDbBlockTableRecord
  2
Block3
340
0
  0
BLOCK_RECORD
  5
119
330
1
100
AcDbSymbolTableRecord
100
AcDbBlockTableRecord
  2
Block4
340
0
  0
BLOCK_RECORD
  5
11E
330
1
100
AcDbSymbolTableRecord
100
AcDbBlockTableRecord
  2
Block5
340
0
  0
BLOCK_RECORD
  5
123
330
1
100
AcDbSymbolTableRecord
100
AcDbBlockTableRecord
  2
Block6
340
0
  0
BLOCK_RECORD
  5
128
330
1
100
AcDbSymbolTableRecord
100
AcDbBlockTableRecord
  2
Block7
340
0
  0
BLOCK_RECORD
  5
12D
330
1
100
AcDbSymbolTableRecord
100
AcDbBlockTableRecord
  2
Block8
340
0
  0
BLOCK_RECORD
  5
182
330
1
100
AcDbSymbolTableRecord
100
AcDbBlockTableRecord
  2
Block9
340
0
  0
BLOCK_RECORD
  5
187
330
1
100
AcDbSymbolTableRecord
100
AcDbBlockTableRecord
  2
Block10
340
0
  0
BLOCK_RECORD
  5
18C
330
1
100
AcDbSymbolTableRecord
100
AcDbBlockTableRecord
  2
Block11
340
0
  0
BLOCK_RECORD
  5
191
330
1
100
AcDbSymbolTableRecord
100
AcDbBlockTableRecord
  2
Block12
340
0
  0
BLOCK_RECORD
  5
196
330
1
100
AcDbSymbolTableRecord
100
AcDbBlockTableRecord
  2
Block13
340
0
  0
BLOCK_RECORD
  5
19B
330
1
100
AcDbSymbolTableRecord
100
AcDbBlockTableRecord
  2
Block14
340
0
  0
BLOCK_RECORD
  5
1A0
330
1
100
AcDbSymbolTableRecord
100
AcDbBlockTableRecord
  2
Block15
340
0
  0
BLOCK_RECORD
  5
1A5
330
1
100
AcDbSymbolTableRecord
100
AcDbBlockTableRecord
  2
Block16
340
0
  0
BLOCK_RECORD
  5
1AA
330
1
100
AcDbSymbolTableRecord
100
AcDbBlockTableRecord
  2
Block17
340
0
  0
BLOCK_RECORD
  5
1AF
330
1
100
AcDbSymbolTableRecord
100
AcDbBlockTableRecord
  2
Block18
340
0
  0
BLOCK_RECORD
  5
1B4
330
1
100
AcDbSymbolTableRecord
100
AcDbBlockTableRecord
  2
Block19
340
0
  0
BLOCK_RECORD
  5
1DF
330
1
100
AcDbSymbolTableRecord
100
AcDbBlockTableRecord
  2
Block20
340
0
  0
BLOCK_RECORD
  5
1E3
330
1
100
AcDbSymbolTableRecord
100
AcDbBlockTableRecord
  2
Block21
340
0
  0
BLOCK_RECORD
  5
1EC
330
1
100
AcDbSymbolTableRecord
100
AcDbBlockTableRecord
  2
*D23
340
0
  0
BLOCK_RECORD
  5
1F5
330
1
100
AcDbSymbolTableRecord
100
AcDbBlockTableRecord
  2
*D24
340
0
  0
BLOCK_RECORD
  5
1FE
330
1
100
AcDbSymbolTableRecord
100
AcDbBlockTableRecord
  2
*D25
340
0
  0
BLOCK_RECORD
  5
207
330
1
100
AcDbSymbolTableRecord
100
AcDbBlockTableRecord
  2
*D26
340
0
  0
BLOCK_RECORD
  5
210
330
1
100
AcDbSymbolTableRecord
100
AcDbBlockTableRecord
  2
*D27
340
0
  0
BLOCK_RECORD
  5
219
330
1
100
AcDbSymbolTableRecord
100
AcDbBlockTableRecord
  2
*D28
340
0
  0
BLOCK_RECORD
  5
222
330
1
100
AcDbSymbolTableRecord
100
AcDbBlockTableRecord
  2
*D29
340
0
  0
BLOCK_RECORD
  5
22B
330
1
100
AcDbSymbolTableRecord
100
AcDbBlockTableRecord
  2
*D30
340
0
  0
BLOCK_RECORD
  5
234
330
1
100
AcDbSymbolTableRecord
100
AcDbBlockTableRecord
  2
*D31
340
0
  0
BLOCK_RECORD
  5
23D
330
1
100
AcDbSymbolTableRecord
100
AcDbBlockTableRecord
  2
*D32
340
0
  0
BLOCK_RECORD
  5
246
330
1
100
AcDbSymbolTableRecord
100
AcDbBlockTableRecord
  2
*D33
340
0
  0
BLOCK_RECORD
  5
24F
330
1
100
AcDbSymbolTableRecord
100
AcDbBlockTableRecord
  2
*D34
340
0
  0
BLOCK_RECORD
  5
258
330
1
100
AcDbSymbolTableRecord
100
AcDbBlockTableRecord
  2
*D35
340
0
  0
BLOCK_RECORD
  5
261
330
1
100
AcDbSymbolTableRecord
100
AcDbBlockTableRecord
  2
*D36
340
0
  0
BLOCK_RECORD
  5
26A
330
1
100
AcDbSymbolTableRecord
100
AcDbBlockTableRecord
  2
*D37
340
0
  0
BLOCK_RECORD
  5
273
330
1
100
AcDbSymbolTableRecord
100
AcDbBlockTableRecord
  2
*D38
340
0
  0
BLOCK_RECORD
  5
27C
330
1
100
AcDbSymbolTableRecord
100
AcDbBlockTableRecord
  2
*D39
340
0
  0
BLOCK_RECORD
  5
285
330
1
100
AcDbSymbolTableRecord
100
AcDbBlockTableRecord
  2
*D40
340
0
  0
BLOCK_RECORD
  5
28E
330
1
100
AcDbSymbolTableRecord
100
AcDbBlockTableRecord
  2
*D41
340
0
  0
BLOCK_RECORD
  5
297
330
1
100
AcDbSymbolTableRecord
100
AcDbBlockTableRecord
  2
*D42
340
0
  0
BLOCK_RECORD
  5
2A0
330
1
100
AcDbSymbolTableRecord
100
AcDbBlockTableRecord
  2
*D43
340
0
  0
BLOCK_RECORD
  5
2A9
330
1
100
AcDbSymbolTableRecord
100
AcDbBlockTableRecord
  2
*D44
340
0
  0
BLOCK_RECORD
  5
2B2
330
1
100
AcDbSymbolTableRecord
100
AcDbBlockTableRecord
  2
*D45
340
0
  0
BLOCK_RECORD
  5
2BC
330
1
100
AcDbSymbolTableRecord
100
AcDbBlockTableRecord
  2
*D46
340
0
  0
BLOCK_RECORD
  5
300
330
1
100
AcDbSymbolTableRecord
100
AcDbBlockTableRecord
  2
*D47
340
0
  0
BLOCK_RECORD
  5
30D
330
1
100
AcDbSymbolTableRecord
100
AcDbBlockTableRecord
  2
*D48
340
0
  0
BLOCK_RECORD
  5
31A
330
1
100
AcDbSymbolTableRecord
100
AcDbBlockTableRecord
  2
*D49
340
0
  0
BLOCK_RECORD
  5
327
330
1
100
AcDbSymbolTableRecord
100
AcDbBlockTableRecord
  2
*D50
340
0
  0
BLOCK_RECORD
  5
334
330
1
100
AcDbSymbolTableRecord
100
AcDbBlockTableRecord
  2
*D51
340
0
  0
BLOCK_RECORD
  5
341
330
1
100
AcDbSymbolTableRecord
100
AcDbBlockTableRecord
  2
*D52
340
0
  0
BLOCK_RECORD
  5
34E
330
1
100
AcDbSymbolTableRecord
100
AcDbBlockTableRecord
  2
*D53
340
0
  0
BLOCK_RECORD
  5
35B
330
1
100
AcDbSymbolTableRecord
100
AcDbBlockTableRecord
  2
*D54
340
0
  0
BLOCK_RECORD
  5
368
330
1
100
AcDbSymbolTableRecord
100
AcDbBlockTableRecord
  2
*D55
340
0
  0
BLOCK_RECORD
  5
376
330
1
100
AcDbSymbolTableRecord
100
AcDbBlockTableRecord
  2
*D56
340
0
  0
BLOCK_RECORD
  5
383
330
1
100
AcDbSymbolTableRecord
100
AcDbBlockTableRecord
  2
*D57
340
0
  0
BLOCK_RECORD
  5
390
330
1
100
AcDbSymbolTableRecord
100
AcDbBlockTableRecord
  2
*D58
340
0
  0
BLOCK_RECORD
  5
39D
330
1
100
AcDbSymbolTableRecord
100
AcDbBlockTableRecord
  2
*D59
340
0
  0
BLOCK_RECORD
  5
3AB
330
1
100
AcDbSymbolTableRecord
100
AcDbBlockTableRecord
  2
*D60
340
0
  0
BLOCK_RECORD
  5
3B8
330
1
100
AcDbSymbolTableRecord
100
AcDbBlockTableRecord
  2
*D61
340
0
  0
BLOCK_RECORD
  5
3C5
330
1
100
AcDbSymbolTableRecord
100
AcDbBlockTableRecord
  2
*D62
340
0
  0
BLOCK_RECORD
  5
3D2
330
1
100
AcDbSymbolTableRecord
100
AcDbBlockTableRecord
  2
*D63
340
0
  0
BLOCK_RECORD
  5
3DF
330
1
100
AcDbSymbolTableRecord
100
AcDbBlockTableRecord
  2
*D64
340
0
  0
BLOCK_RECORD
  5
3EC
330
1
100
AcDbSymbolTableRecord
100
AcDbBlockTableRecord
  2
*D65
340
0
  0
BLOCK_RECORD
  5
3FA
330
1
100
AcDbSymbolTableRecord
100
AcDbBlockTableRecord
  2
*D66
340
0
  0
BLOCK_RECORD
  5
408
330
1
100
AcDbSymbolTableRecord
100
AcDbBlockTableRecord
  2
*D67
340
0
  0
BLOCK_RECORD
  5
415
330
1
100
AcDbSymbolTableRecord
100
AcDbBlockTableRecord
  2
*D68
340
0
  0
BLOCK_RECORD
  5
422
330
1
100
AcDbSymbolTableRecord
100
AcDbBlockTableRecord
  2
*D69
340
0
  0
BLOCK_RECORD
  5
42F
330
1
100
AcDbSymbolTableRecord
100
AcDbBlockTableRecord
  2
*D70
340
0
  0
BLOCK_RECORD
  5
5D2
330
1
100
AcDbSymbolTableRecord
100
AcDbBlockTableRecord
  2
*D71
340
0
  0
BLOCK_RECORD
  5
5DD
330
1
100
AcDbSymbolTableRecord
100
AcDbBlockTableRecord
  2
*D72
340
0
  0
BLOCK_RECORD
  5
5E8
330
1
100
AcDbSymbolTableRecord
100
AcDbBlockTableRecord
  2
*D73
340
0
  0
BLOCK_RECORD
  5
5F4
330
1
100
AcDbSymbolTableRecord
100
AcDbBlockTableRecord
  2
*D74
340
0
  0
BLOCK_RECORD
  5
5FF
330
1
100
AcDbSymbolTableRecord
100
AcDbBlockTableRecord
  2
*D75
340
0
  0
BLOCK_RECORD
  5
60A
330
1
100
AcDbSymbolTableRecord
100
AcDbBlockTableRecord
  2
*D76
340
0
  0
BLOCK_RECORD
  5
615
330
1
100
AcDbSymbolTableRecord
100
AcDbBlockTableRecord
  2
*D77
340
0
  0
BLOCK_RECORD
  5
622
330
1
100
AcDbSymbolTableRecord
100
AcDbBlockTableRecord
  2
*D78
340
0
  0
BLOCK_RECORD
  5
62D
330
1
100
AcDbSymbolTableRecord
100
AcDbBlockTableRecord
  2
*D79
340
0
  0
BLOCK_RECORD
  5
638
330
1
100
AcDbSymbolTableRecord
100
AcDbBlockTableRecord
  2
*D80
340
0
  0
BLOCK_RECORD
  5
643
330
1
100
AcDbSymbolTableRecord
100
AcDbBlockTableRecord
  2
*D81
340
0
  0
BLOCK_RECORD
  5
64E
330
1
100
AcDbSymbolTableRecord
100
AcDbBlockTableRecord
  2
*D82
340
0
  0
BLOCK_RECORD
  5
659
330
1
100
AcDbSymbolTableRecord
100
AcDbBlockTableRecord
  2
*D83
340
0
  0
BLOCK_RECORD
  5
666
330
1
100
AcDbSymbolTableRecord
100
AcDbBlockTableRecord
  2
*D84
340
0
  0
BLOCK_RECORD
  5
671
330
1
100
AcDbSymbolTableRecord
100
AcDbBlockTableRecord
  2
*D85
340
0
  0
BLOCK_RECORD
  5
67C
330
1
100
AcDbSymbolTableRecord
100
AcDbBlockTableRecord
  2
*D86
340
0
  0
ENDTAB
  0
ENDSEC
  0
SECTION
  2
BLOCKS
  0
BLOCK
  5
20
330
1F
100
AcDbEntity
  8
0
100
AcDbBlockBegin
  2
*Model_Space
 70
     0
 10
0.0
 20
0.0
 30
0.0
  3
*Model_Space
  1

  0
ENDBLK
  5
21
330
1F
100
AcDbEntity
  8
0
100
AcDbBlockEnd
  0
BLOCK
  5
75
330
73
100
AcDbEntity
 67
     1
  8
0
100
AcDbBlockBegin
  2
*Paper_Space
 70
     0
 10
0.0
 20
0.0
 30
0.0
  3
*Paper_Space
  1

  0
ENDBLK
  5
76
330
73
100
AcDbEntity
 67
     1
  8
0
100
AcDbBlockEnd
  0
BLOCK
  5
688
330
D1
100
AcDbEntity
  8
0
100
AcDbBlockBegin
  2
*Paper_Space0
 70
     0
 10
0.0
 20
0.0
 30
0.0
  3
*Paper_Space0
  1

  0
VIEWPORT
  5
736
330
D1
100
AcDbEntity
  8
0
100
AcDbViewport
 10
7.8
 20
4.5
 30
0.0
 40
15.64
 41
9.0
 68
     1
 69
     1
 12
6.0
 22
4.5
 13
0.0
 23
0.0
 14
0.5
 24
0.5
 15
0.5
 25
0.5
 16
0.0
 26
0.0
 36
1.0
 17
0.0
 27
0.0
 37
0.0
 42
50.0
 43
0.0
 44
0.0
 45
12.0
 50
0.0
 51
0.0
 72
   100
 90
   557152
  1

281
     0
 71
     1
 74
     0
110
0.0
120
0.0
130
0.0
111
1.0
121
0.0
131
0.0
112
0.0
122
1.0
132
0.0
 79
     0
146
0.0
  0
ENDBLK
  5
689
330
D1
100
AcDbEntity
  8
0
100
AcDbBlockEnd
  0
BLOCK
  5
68A
330
105
100
AcDbEntity
  8
0
100
AcDbBlockBegin
  2
Block0
 70
     0
 10
0.0
 20
0.0
 30
0.0
  3
Block0
  1

  0
LINE
  5
102
330
105
100
AcDbEntity
  8
0
  6
DASHDOT
 62
     7
 48
0.21125
370
    13
390
F
100
AcDbLine
 10
466.462006
 20
508.30545
 30
0.0
 11
458.011993
 21
508.30545
 31
0.0
  0
LINE
  5
103
330
105
100
AcDbEntity
  8
0
  6
DASHDOT
 62
     7
 48
0.21125
370
    13
390
F
100
AcDbLine
 10
462.237
 20
512.530457
 30
0.0
 11
462.237
 21
504.080444
 31
0.0
  0
ENDBLK
  5
68B
330
105
100
AcDbEntity
  8
0
100
AcDbBlockEnd
  0
BLOCK
  5
68C
330
10A
100
AcDbEntity
  8
0
100
AcDbBlockBegin
  2
Block1
 70
     0
 10
0.0
 20
0.0
 30
0.0
  3
Block1
  1

  0
LINE
  5
107
330
10A
100
AcDbEntity
  8
0
  6
DASHDOT
 62
     7
 48
0.21125
370
    13
390
F
100
AcDbLine
 10
468.962006
 20
508.30545
 30
0.0
 11
460.511993
 21
508.30545
 31
0.0
  0
LINE
  5
108
330
10A
100
AcDbEntity
  8
0
  6
DASHDOT
 62
     7
 48
0.21125
370
    13
390
F
100
AcDbLine
 10
464.737
 20
512.530457
 30
0.0
 11
464.737
 21
504.080444
 31
0.0
  0
ENDBLK
  5
68D
330
10A
100
AcDbEntity
  8
0
100
AcDbBlockEnd
  0
BLOCK
  5
68E
330
10F
100
AcDbEntity
  8
0
100
AcDbBlockBegin
  2
Block2
 70
     0
 10
0.0
 20
0.0
 30
0.0
  3
Block2
  1

  0
LINE
  5
10C
330
10F
100
AcDbEntity
  8
0
  6
DASHDOT
 62
     7
 48
0.21125
370
    13
390
F
100
AcDbLine
 10
496.462006
 20
508.30545
 30
0.0
 11
488.011993
 21
508.30545
 31
0.0
  0
LINE
  5
10D
330
10F
100
AcDbEntity
  8
0
  6
DASHDOT
 62
     7
 48
0.21125
370
    13
390
F
100
AcDbLine
 10
492.237
 20
512.530457
 30
0.0
 11
492.237
 21
504.080444
 31
0.0
  0
ENDBLK
  5
68F
330
10F
100
AcDbEntity
  8
0
100
AcDbBlockEnd
  0
BLOCK
  5
690
330
114
100
AcDbEntity
  8
0
100
AcDbBlockBegin
  2
Block3
 70
     0
 10
0.0
 20
0.0
 30
0.0
  3
Block3
  1

  0
LINE
  5
111
330
114
100
AcDbEntity
  8
0
  6
DASHDOT
 62
     7
 48
0.21125
370
    13
390
F
100
AcDbLine
 10
498.962006
 20
508.30545
 30
0.0
 11
490.511993
 21
508.30545
 31
0.0
  0
LINE
  5
112
330
114
100
AcDbEntity
  8
0
  6
DASHDOT
 62
     7
 48
0.21125
370
    13
390
F
100
AcDbLine
 10
494.737
 20
512.530457
 30
0.0
 11
494.737
 21
504.080444
 31
0.0
  0
ENDBLK
  5
691
330
114
100
AcDbEntity
  8
0
100
AcDbBlockEnd
  0
BLOCK
  5
692
330
119
100
AcDbEntity
  8
0
100
AcDbBlockBegin
  2
Block4
 70
     0
 10
0.0
 20
0.0
 30
0.0
  3
Block4
  1

  0
LINE
  5
116
330
119
100
AcDbEntity
  8
0
  6
DASHDOT
 62
     7
 48
0.211252
370
    13
390
F
100
AcDbLine
 10
553.962036
 20
508.30545
 30
0.0
 11
545.511963
 21
508.30545
 31
0.0
  0
LINE
  5
117
330
119
100
AcDbEntity
  8
0
  6
DASHDOT
 62
     7
 48
0.21125
370
    13
390
F
100
AcDbLine
 10
549.737
 20
512.530457
 30
0.0
 11
549.737
 21
504.080444
 31
0.0
  0
ENDBLK
  5
693
330
119
100
AcDbEntity
  8
0
100
AcDbBlockEnd
  0
BLOCK
  5
694
330
11E
100
AcDbEntity
  8
0
100
AcDbBlockBegin
  2
Block5
 70
     0
 10
0.0
 20
0.0
 30
0.0
  3
Block5
  1

  0
LINE
  5
11B
330
11E
100
AcDbEntity
  8
0
  6
DASHDOT
 62
     7
 48
0.211252
370
    13
390
F
100
AcDbLine
 10
556.462036
 20
508.30545
 30
0.0
 11
548.011963
 21
508.30545
 31
0.0
  0
LINE
  5
11C
330
11E
100
AcDbEntity
  8
0
  6
DASHDOT
 62
     7
 48
0.21125
370
    13
390
F
100
AcDbLine
 10
552.237
 20
512.530457
 30
0.0
 11
552.237
 21
504.080444
 31
0.0
  0
ENDBLK
  5
695
330
11E
100
AcDbEntity
  8
0
100
AcDbBlockEnd
  0
BLOCK
  5
696
330
123
100
AcDbEntity
  8
0
100
AcDbBlockBegin
  2
Block6
 70
     0
 10
0.0
 20
0.0
 30
0.0
  3
Block6
  1

  0
LINE
  5
120
330
123
100
AcDbEntity
  8
0
  6
DASHDOT
 62
     7
 48
0.211252
370
    13
390
F
100
AcDbLine
 10
583.962036
 20
508.30545
 30
0.0
 11
575.511963
 21
508.30545
 31
0.0
  0
LINE
  5
121
330
123
100
AcDbEntity
  8
0
  6
DASHDOT
 62
     7
 48
0.21125
370
    13
390
F
100
AcDbLine
 10
579.737
 20
512.530457
 30
0.0
 11
579.737
 21
504.080444
 31
0.0
  0
ENDBLK
  5
697
330
123
100
AcDbEntity
  8
0
100
AcDbBlockEnd
  0
BLOCK
  5
698
330
128
100
AcDbEntity
  8
0
100
AcDbBlockBegin
  2
Block7
 70
     0
 10
0.0
 20
0.0
 30
0.0
  3
Block7
  1

  0
LINE
  5
125
330
128
100
AcDbEntity
  8
0
  6
DASHDOT
 62
     7
 48
0.211252
370
    13
390
F
100
AcDbLine
 10
586.462036
 20
508.30545
 30
0.0
 11
578.011963
 21
508.30545
 31
0.0
  0
LINE
  5
126
330
128
100
AcDbEntity
  8
0
  6
DASHDOT
 62
     7
 48
0.21125
370
    13
390
F
100
AcDbLine
 10
582.237
 20
512.530457
 30
0.0
 11
582.237
 21
504.080444
 31
0.0
  0
ENDBLK
  5
699
330
128
100
AcDbEntity
  8
0
100
AcDbBlockEnd
  0
BLOCK
  5
69A
330
12D
100
AcDbEntity
  8
0
100
AcDbBlockBegin
  2
Block8
 70
     0
 10
0.0
 20
0.0
 30
0.0
  3
Block8
  1

  0
LINE
  5
12A
330
12D
100
AcDbEntity
  8
0
  6
DASHDOT
 62
     7
 48
0.073125
370
    13
390
F
100
AcDbLine
 10
361.199493
 20
490.80545
 30
0.0
 11
358.274506
 21
490.80545
 31
0.0
  0
LINE
  5
12B
330
12D
100
AcDbEntity
  8
0
  6
DASHDOT
 62
     7
 48
0.073125
370
    13
390
F
100
AcDbLine
 10
359.737
 20
492.267944
 30
0.0
 11
359.737
 21
489.342957
 31
0.0
  0
ENDBLK
  5
69B
330
12D
100
AcDbEntity
  8
0
100
AcDbBlockEnd
  0
BLOCK
  5
69C
330
182
100
AcDbEntity
  8
0
100
AcDbBlockBegin
  2
Block9
 70
     0
 10
0.0
 20
0.0
 30
0.0
  3
Block9
  1

  0
LINE
  5
12F
330
182
100
AcDbEntity
  8
0
 62
     7
370
    35
390
F
100
AcDbLine
 10
382.237
 20
338.80545
 30
0.0
 11
359.737
 21
338.80545
 31
0.0
  0
LINE
  5
130
330
182
100
AcDbEntity
  8
0
 62
     7
370
    35
390
F
100
AcDbLine
 10
359.737
 20
338.80545
 30
0.0
 11
337.237
 21
338.80545
 31
0.0
  0
CIRCLE
  5
131
330
182
100
AcDbEntity
  8
0
 62
     7
370
    35
390
F
100
AcDbCircle
 10
359.737
 20
490.80545
 30
0.0
 40
1.125
  0
LWPOLYLINE
  5
132
330
182
100
AcDbEntity
  8
0
 62
     7
370
    35
390
F
100
AcDbPolyline
 90
       24
 70
     0
 43
0.0
 10
348.487
 20
361.492981
 10
348.69455
 20
361.475922
 10
348.898743
 20
361.425507
 10
349.09494
 20
361.342773
 10
349.278931
 20
361.230286
 10
349.447174
 20
361.090851
 10
349.596832
 20
360.92691
 10
349.725433
 20
360.740753
 10
349.830353
 20
360.535339
 10
349.909088
 20
360.314453
 10
349.959412
 20
360.082489
 10
349.979706
 20
359.844238
 10
349.969208
 20
359.604919
 10
349.928284
 20
359.369873
 10
349.858307
 20
359.144318
 10
349.761261
 20
358.932892
 10
349.639404
 20
358.739563
 10
349.495361
 20
358.567719
 10
349.332031
 20
358.420288
 10
349.15271
 20
358.299744
 10
348.960907
 20
358.208252
 10
348.760498
 20
358.147644
 10
348.555573
 20
358.11972
 10
348.487
 20
358.11795
  0
LWPOLYLINE
  5
133
330
182
100
AcDbEntity
  8
0
 62
     7
370
    35
390
F
100
AcDbPolyline
 90
       15
 70
     0
 43
0.0
 10
347.057251
 20
359.807465
 10
347.067108
 20
360.004639
 10
347.099121
 20
360.214539
 10
347.152008
 20
360.418396
 10
347.221954
 20
360.599396
 10
347.307678
 20
360.764618
 10
347.406189
 20
360.917603
 10
347.517181
 20
361.052277
 10
347.641022
 20
361.167908
 10
347.773376
 20
361.270447
 10
347.915253
 20
361.355988
 10
348.068451
 20
361.420593
 10
348.231323
 20
361.464996
 10
348.400726
 20
361.489441
 10
348.487
 20
361.49295
  0
LWPOLYLINE
  5
134
330
182
100
AcDbEntity
  8
0
 62
     7
370
    35
390
F
100
AcDbPolyline
 90
       13
 70
     0
 43
0.0
 10
348.487
 20
358.11795
 10
348.290588
 20
358.130981
 10
348.099213
 20
358.173218
 10
347.916931
 20
358.24649
 10
347.746948
 20
358.349762
 10
347.591187
 20
358.480316
 10
347.450348
 20
358.635193
 10
347.326172
 20
358.811676
 10
347.223846
 20
359.006104
 10
347.145752
 20
359.214294
 10
347.092163
 20
359.432129
 10
347.062927
 20
359.656097
 10
347.057251
 20
359.807465
  0
LINE
  5
135
330
182
100
AcDbEntity
  8
0
 62
     7
 48
0.001284
370
    35
390
F
100
AcDbLine
 10
382.233215
 20
361.441711
 30
0.0
 11
382.237
 21
361.49295
 31
0.0
  0
ARC
  5
136
330
182
100
AcDbEntity
  8
0
 62
     7
370
    35
390
F
100
AcDbCircle
 10
403.268921
 20
359.857788
 30
0.0
 40
21.094349
100
AcDbArc
 50
176.933428
 51
177.807419
  0
LINE
  5
137
330
182
100
AcDbEntity
  8
0
 62
     7
 48
0.001107
370
    35
390
F
100
AcDbLine
 10
382.182892
 20
360.4487
 30
0.0
 11
382.184174
 21
360.49295
 31
0.0
  0
ARC
  5
138
330
182
100
AcDbEntity
  8
0
 62
     7
370
    35
390
F
100
AcDbCircle
 10
404.454681
 20
359.811432
 30
0.0
 40
22.281092
100
AcDbArc
 50
180.010769
 51
182.148578
  0
LINE
  5
139
330
182
100
AcDbEntity
  8
0
 62
     7
 48
0.001475
370
    35
390
F
100
AcDbLine
 10
382.189972
 20
358.944214
 30
0.0
 11
382.188141
 21
359.003174
 31
0.0
  0
ARC
  5
13A
330
182
100
AcDbEntity
  8
0
 62
     7
370
    35
390
F
100
AcDbCircle
 10
403.218567
 20
359.700195
 30
0.0
 40
21.041124
100
AcDbArc
 50
182.928271
 51
184.311821
  0
LINE
  5
13B
330
182
100
AcDbEntity
  8
0
 62
     7
 48
0.001333
370
    35
390
F
100
AcDbLine
 10
382.237
 20
358.11795
 30
0.0
 11
382.233093
 21
358.171112
 31
0.0
  0
LWPOLYLINE
  5
13C
330
182
100
AcDbEntity
  8
0
 62
     7
370
    35
390
F
100
AcDbPolyline
 90
        5
 70
     0
 43
0.0
 10
382.237
 20
358.11795
 10
382.188477
 20
358.987518
 10
382.173645
 20
359.84552
 10
382.188538
 20
360.620667
 10
382.237
 20
361.49295
  0
ARC
  5
13D
330
182
100
AcDbEntity
  8
0
 62
     7
370
    35
390
F
100
AcDbCircle
 10
349.523651
 20
360.151489
 30
0.0
 40
1.349251
100
AcDbArc
 50
120.273989
 51
128.481486
  0
ARC
  5
13E
330
182
100
AcDbEntity
  8
0
 62
     7
370
    35
390
F
100
AcDbCircle
 10
349.939331
 20
359.838074
 30
0.0
 40
1.875947
100
AcDbArc
 50
156.1321
 51
163.979455
  0
ARC
  5
13F
330
182
100
AcDbEntity
  8
0
 62
     7
370
    35
390
F
100
AcDbCircle
 10
350.123993
 20
359.806763
 30
0.0
 40
2.063419
100
AcDbArc
 50
175.410664
 51
190.728497
  0
LWPOLYLINE
  5
140
330
182
100
AcDbEntity
  8
0
 62
     7
370
    35
390
F
100
AcDbPolyline
 90
        7
 70
     0
 43
0.0
 10
348.195892
 20
359.079102
 10
348.305359
 20
358.851166
 10
348.443176
 20
358.647125
 10
348.604828
 20
358.47168
 10
348.724396
 20
358.372406
 10
348.852997
 20
358.2883
 10
348.990265
 20
358.220154
  0
LWPOLYLINE
  5
141
330
182
100
AcDbEntity
  8
0
 62
     7
370
    35
390
F
100
AcDbPolyline
 90
       22
 70
     0
 43
0.0
 10
348.98053
 20
358.216309
 10
348.832001
 20
358.292999
 10
348.69342
 20
358.390747
 10
348.565491
 20
358.507507
 10
348.447662
 20
358.640747
 10
348.341583
 20
358.788818
 10
348.251648
 20
358.951111
 10
348.178894
 20
359.124512
 10
348.123138
 20
359.304749
 10
348.084686
 20
359.491364
 10
348.064087
 20
359.681793
 10
348.061554
 20
359.876404
 10
348.079803
 20
360.083954
 10
348.120728
 20
360.297485
 10
348.181732
 20
360.495758
 10
348.261292
 20
360.674988
 10
348.356049
 20
360.841431
 10
348.462616
 20
360.988464
 10
348.580078
 20
361.114349
 10
348.705811
 20
361.22522
 10
348.843964
 20
361.317169
 10
348.996063
 20
361.388855
  0
LINE
  5
142
330
182
100
AcDbEntity
  8
0
 62
     7
370
    35
390
F
100
AcDbLine
 10
337.237
 20
338.80545
 30
0.0
 11
337.237
 21
495.80542
 31
0.0
  0
LINE
  5
143
330
182
100
AcDbEntity
  8
0
 62
     7
 48
0.482813
370
    35
390
F
100
AcDbLine
 10
382.237
 20
338.80545
 30
0.0
 11
382.237
 21
358.11795
 31
0.0
  0
LINE
  5
144
330
182
100
AcDbEntity
  8
0
 62
     7
370
    35
390
F
100
AcDbLine
 10
382.237
 20
361.49295
 30
0.0
 11
382.237
 21
495.80542
 31
0.0
  0
LINE
  5
145
330
182
100
AcDbEntity
  8
0
 62
     7
 48
0.499999
370
    35
390
F
100
AcDbLine
 10
634.737
 20
500.80545
 30
0.0
 11
634.737
 21
520.80542
 31
0.0
  0
LINE
  5
146
330
182
100
AcDbEntity
  8
0
 62
     7
 48
0.499999
370
    35
390
F
100
AcDbLine
 10
84.737
 20
500.80545
 30
0.0
 11
84.737
 21
520.80542
 31
0.0
  0
LINE
  5
147
330
182
100
AcDbEntity
  8
0
 62
     7
370
    35
390
F
100
AcDbLine
 10
634.737
 20
520.80542
 30
0.0
 11
84.737
 21
520.80542
 31
0.0
  0
ARC
  5
148
330
182
100
AcDbEntity
  8
0
 62
     7
370
    35
390
F
100
AcDbCircle
 10
629.737
 20
500.80545
 30
0.0
 40
5.0
100
AcDbArc
 50
270.000001
 51
0.00001
  0
LINE
  5
149
330
182
100
AcDbEntity
  8
0
 62
     7
370
    35
390
F
100
AcDbLine
 10
629.737
 20
495.80545
 30
0.0
 11
89.737
 21
495.80545
 31
0.0
  0
ARC
  5
14A
330
182
100
AcDbEntity
  8
0
 62
     7
370
    35
390
F
100
AcDbCircle
 10
89.737
 20
500.80545
 30
0.0
 40
5.0
100
AcDbArc
 50
180.000005
 51
270.000001
  0
LINE
  5
14B
330
182
100
AcDbEntity
  8
0
 62
     7
 48
0.0625
370
    35
390
F
100
AcDbLine
 10
462.237
 20
505.05545
 30
0.0
 11
464.737
 21
505.05545
 31
0.0
  0
ARC
  5
14C
330
182
100
AcDbEntity
  8
0
 62
     7
370
    35
390
F
100
AcDbCircle
 10
464.737
 20
508.30545
 30
0.0
 40
3.25
100
AcDbArc
 50
270.000001
 51
89.99998900000001
  0
LINE
  5
14D
330
182
100
AcDbEntity
  8
0
 62
     7
 48
0.0625
370
    35
390
F
100
AcDbLine
 10
462.237
 20
511.55545
 30
0.0
 11
464.737
 21
511.55545
 31
0.0
  0
ARC
  5
14E
330
182
100
AcDbEntity
  8
0
 62
     7
370
    35
390
F
100
AcDbCircle
 10
462.237
 20
508.30545
 30
0.0
 40
3.25
100
AcDbArc
 50
90.000003
 51
270.000001
  0
LINE
  5
14F
330
182
100
AcDbEntity
  8
0
 62
     7
 48
0.0625
370
    35
390
F
100
AcDbLine
 10
492.237
 20
505.05545
 30
0.0
 11
494.737
 21
505.05545
 31
0.0
  0
ARC
  5
150
330
182
100
AcDbEntity
  8
0
 62
     7
370
    35
390
F
100
AcDbCircle
 10
494.737
 20
508.30545
 30
0.0
 40
3.25
100
AcDbArc
 50
270.000001
 51
89.99998900000001
  0
LINE
  5
151
330
182
100
AcDbEntity
  8
0
 62
     7
 48
0.0625
370
    35
390
F
100
AcDbLine
 10
492.237
 20
511.55545
 30
0.0
 11
494.737
 21
511.55545
 31
0.0
  0
ARC
  5
152
330
182
100
AcDbEntity
  8
0
 62
     7
370
    35
390
F
100
AcDbCircle
 10
492.237
 20
508.30545
 30
0.0
 40
3.25
100
AcDbArc
 50
90.000003
 51
270.000001
  0
LINE
  5
153
330
182
100
AcDbEntity
  8
0
 62
     7
 48
0.0625
370
    35
390
F
100
AcDbLine
 10
549.737
 20
505.05545
 30
0.0
 11
552.237
 21
505.05545
 31
0.0
  0
ARC
  5
154
330
182
100
AcDbEntity
  8
0
 62
     7
370
    35
390
F
100
AcDbCircle
 10
552.237
 20
508.30545
 30
0.0
 40
3.25
100
AcDbArc
 50
270.000001
 51
89.99998900000001
  0
LINE
  5
155
330
182
100
AcDbEntity
  8
0
 62
     7
 48
0.0625
370
    35
390
F
100
AcDbLine
 10
549.737
 20
511.55545
 30
0.0
 11
552.237
 21
511.55545
 31
0.0
  0
ARC
  5
156
330
182
100
AcDbEntity
  8
0
 62
     7
370
    35
390
F
100
AcDbCircle
 10
549.737
 20
508.30545
 30
0.0
 40
3.25
100
AcDbArc
 50
90.000003
 51
270.000001
  0
LINE
  5
157
330
182
100
AcDbEntity
  8
0
 62
     7
 48
0.0625
370
    35
390
F
100
AcDbLine
 10
579.737
 20
505.05545
 30
0.0
 11
582.237
 21
505.05545
 31
0.0
  0
ARC
  5
158
330
182
100
AcDbEntity
  8
0
 62
     7
370
    35
390
F
100
AcDbCircle
 10
582.237
 20
508.30545
 30
0.0
 40
3.25
100
AcDbArc
 50
270.000001
 51
89.99998900000001
  0
LINE
  5
159
330
182
100
AcDbEntity
  8
0
 62
     7
 48
0.0625
370
    35
390
F
100
AcDbLine
 10
579.737
 20
511.55545
 30
0.0
 11
582.237
 21
511.55545
 31
0.0
  0
ARC
  5
15A
330
182
100
AcDbEntity
  8
0
 62
     7
370
    35
390
F
100
AcDbCircle
 10
579.737
 20
508.30545
 30
0.0
 40
3.25
100
AcDbArc
 50
90.000003
 51
270.000001
  0
LINE
  5
15B
330
182
100
AcDbEntity
  8
0
 62
     7
 48
0.0625
370
    35
390
F
100
AcDbLine
 10
254.737
 20
511.55545
 30
0.0
 11
257.237
 21
511.55545
 31
0.0
  0
ARC
  5
15C
330
182
100
AcDbEntity
  8
0
 62
     7
370
    35
390
F
100
AcDbCircle
 10
254.737
 20
508.30545
 30
0.0
 40
3.25
100
AcDbArc
 50
90.000003
 51
270.000001
  0
LINE
  5
15D
330
182
100
AcDbEntity
  8
0
 62
     7
 48
0.0625
370
    35
390
F
100
AcDbLine
 10
254.737
 20
505.05545
 30
0.0
 11
257.237
 21
505.05545
 31
0.0
  0
ARC
  5
15E
330
182
100
AcDbEntity
  8
0
 62
     7
370
    35
390
F
100
AcDbCircle
 10
257.237
 20
508.30545
 30
0.0
 40
3.25
100
AcDbArc
 50
270.000001
 51
89.99998900000001
  0
LINE
  5
15F
330
182
100
AcDbEntity
  8
0
 62
     7
 48
0.0625
370
    35
390
F
100
AcDbLine
 10
224.737
 20
511.55545
 30
0.0
 11
227.237
 21
511.55545
 31
0.0
  0
ARC
  5
160
330
182
100
AcDbEntity
  8
0
 62
     7
370
    35
390
F
100
AcDbCircle
 10
224.737
 20
508.30545
 30
0.0
 40
3.25
100
AcDbArc
 50
90.000003
 51
270.000001
  0
LINE
  5
161
330
182
100
AcDbEntity
  8
0
 62
     7
 48
0.0625
370
    35
390
F
100
AcDbLine
 10
224.737
 20
505.05545
 30
0.0
 11
227.237
 21
505.05545
 31
0.0
  0
ARC
  5
162
330
182
100
AcDbEntity
  8
0
 62
     7
370
    35
390
F
100
AcDbCircle
 10
227.237
 20
508.30545
 30
0.0
 40
3.25
100
AcDbArc
 50
270.000001
 51
89.99998900000001
  0
LINE
  5
163
330
182
100
AcDbEntity
  8
0
 62
     7
 48
0.0625
370
    35
390
F
100
AcDbLine
 10
167.237
 20
511.55545
 30
0.0
 11
169.737
 21
511.55545
 31
0.0
  0
ARC
  5
164
330
182
100
AcDbEntity
  8
0
 62
     7
370
    35
390
F
100
AcDbCircle
 10
167.237
 20
508.30545
 30
0.0
 40
3.25
100
AcDbArc
 50
90.000003
 51
270.000001
  0
LINE
  5
165
330
182
100
AcDbEntity
  8
0
 62
     7
 48
0.0625
370
    35
390
F
100
AcDbLine
 10
167.237
 20
505.05545
 30
0.0
 11
169.737
 21
505.05545
 31
0.0
  0
ARC
  5
166
330
182
100
AcDbEntity
  8
0
 62
     7
370
    35
390
F
100
AcDbCircle
 10
169.737
 20
508.30545
 30
0.0
 40
3.25
100
AcDbArc
 50
270.000001
 51
89.99998900000001
  0
LINE
  5
167
330
182
100
AcDbEntity
  8
0
 62
     7
 48
0.0625
370
    35
390
F
100
AcDbLine
 10
137.237
 20
511.55545
 30
0.0
 11
139.737
 21
511.55545
 31
0.0
  0
ARC
  5
168
330
182
100
AcDbEntity
  8
0
 62
     7
370
    35
390
F
100
AcDbCircle
 10
137.237
 20
508.30545
 30
0.0
 40
3.25
100
AcDbArc
 50
90.000003
 51
270.000001
  0
LINE
  5
169
330
182
100
AcDbEntity
  8
0
 62
     7
 48
0.0625
370
    35
390
F
100
AcDbLine
 10
137.237
 20
505.05545
 30
0.0
 11
139.737
 21
505.05545
 31
0.0
  0
ARC
  5
16A
330
182
100
AcDbEntity
  8
0
 62
     7
370
    35
390
F
100
AcDbCircle
 10
139.737
 20
508.30545
 30
0.0
 40
3.25
100
AcDbArc
 50
270.000001
 51
89.99998900000001
  0
LINE
  5
16B
330
182
100
AcDbEntity
  8
0
 62
     7
370
    35
390
F
100
AcDbLine
 10
382.237
 20
338.80545
 30
0.0
 11
359.737
 21
338.80545
 31
0.0
  0
LINE
  5
16C
330
182
100
AcDbEntity
  8
0
 62
     7
370
    35
390
F
100
AcDbLine
 10
359.737
 20
338.80545
 30
0.0
 11
337.237
 21
338.80545
 31
0.0
  0
CIRCLE
  5
16D
330
182
100
AcDbEntity
  8
0
 62
     7
370
    35
390
F
100
AcDbCircle
 10
359.737
 20
490.80545
 30
0.0
 40
1.125
  0
LWPOLYLINE
  5
16E
330
182
100
AcDbEntity
  8
0
 62
     7
370
    35
390
F
100
AcDbPolyline
 90
       24
 70
     0
 43
0.0
 10
348.487
 20
361.492981
 10
348.69455
 20
361.475922
 10
348.898743
 20
361.425507
 10
349.09494
 20
361.342773
 10
349.278931
 20
361.230286
 10
349.447174
 20
361.090851
 10
349.596832
 20
360.92691
 10
349.725433
 20
360.740753
 10
349.830353
 20
360.535339
 10
349.909088
 20
360.314453
 10
349.959412
 20
360.082489
 10
349.979706
 20
359.844238
 10
349.969208
 20
359.604919
 10
349.928284
 20
359.369873
 10
349.858307
 20
359.144318
 10
349.761261
 20
358.932892
 10
349.639404
 20
358.739563
 10
349.495361
 20
358.567719
 10
349.332031
 20
358.420288
 10
349.15271
 20
358.299744
 10
348.960907
 20
358.208252
 10
348.760498
 20
358.147644
 10
348.555573
 20
358.11972
 10
348.487
 20
358.11795
  0
LWPOLYLINE
  5
16F
330
182
100
AcDbEntity
  8
0
 62
     7
370
    35
390
F
100
AcDbPolyline
 90
       15
 70
     0
 43
0.0
 10
347.057251
 20
359.807465
 10
347.067108
 20
360.004639
 10
347.099121
 20
360.214539
 10
347.152008
 20
360.418396
 10
347.221954
 20
360.599396
 10
347.307678
 20
360.764618
 10
347.406189
 20
360.917603
 10
347.517181
 20
361.052277
 10
347.641022
 20
361.167908
 10
347.773376
 20
361.270447
 10
347.915253
 20
361.355988
 10
348.068451
 20
361.420593
 10
348.231323
 20
361.464996
 10
348.400726
 20
361.489441
 10
348.487
 20
361.49295
  0
LWPOLYLINE
  5
170
330
182
100
AcDbEntity
  8
0
 62
     7
370
    35
390
F
100
AcDbPolyline
 90
       13
 70
     0
 43
0.0
 10
348.487
 20
358.11795
 10
348.290588
 20
358.130981
 10
348.099213
 20
358.173218
 10
347.916931
 20
358.24649
 10
347.746948
 20
358.349762
 10
347.591187
 20
358.480316
 10
347.450348
 20
358.635193
 10
347.326172
 20
358.811676
 10
347.223846
 20
359.006104
 10
347.145752
 20
359.214294
 10
347.092163
 20
359.432129
 10
347.062927
 20
359.656097
 10
347.057251
 20
359.807465
  0
LINE
  5
171
330
182
100
AcDbEntity
  8
0
 62
     7
 48
0.001284
370
    35
390
F
100
AcDbLine
 10
382.233215
 20
361.441711
 30
0.0
 11
382.237
 21
361.49295
 31
0.0
  0
ARC
  5
172
330
182
100
AcDbEntity
  8
0
 62
     7
370
    35
390
F
100
AcDbCircle
 10
403.268921
 20
359.857788
 30
0.0
 40
21.094349
100
AcDbArc
 50
176.933428
 51
177.807419
  0
LINE
  5
173
330
182
100
AcDbEntity
  8
0
 62
     7
 48
0.001107
370
    35
390
F
100
AcDbLine
 10
382.182892
 20
360.4487
 30
0.0
 11
382.184174
 21
360.49295
 31
0.0
  0
ARC
  5
174
330
182
100
AcDbEntity
  8
0
 62
     7
370
    35
390
F
100
AcDbCircle
 10
404.454681
 20
359.811432
 30
0.0
 40
22.281092
100
AcDbArc
 50
180.010769
 51
182.148578
  0
LINE
  5
175
330
182
100
AcDbEntity
  8
0
 62
     7
 48
0.001475
370
    35
390
F
100
AcDbLine
 10
382.189972
 20
358.944214
 30
0.0
 11
382.188141
 21
359.003174
 31
0.0
  0
ARC
  5
176
330
182
100
AcDbEntity
  8
0
 62
     7
370
    35
390
F
100
AcDbCircle
 10
403.218567
 20
359.700195
 30
0.0
 40
21.041124
100
AcDbArc
 50
182.928271
 51
184.311821
  0
LINE
  5
177
330
182
100
AcDbEntity
  8
0
 62
     7
 48
0.001333
370
    35
390
F
100
AcDbLine
 10
382.237
 20
358.11795
 30
0.0
 11
382.233093
 21
358.171112
 31
0.0
  0
LWPOLYLINE
  5
178
330
182
100
AcDbEntity
  8
0
 62
     7
370
    35
390
F
100
AcDbPolyline
 90
        5
 70
     0
 43
0.0
 10
382.237
 20
358.11795
 10
382.188477
 20
358.987518
 10
382.173645
 20
359.84552
 10
382.188538
 20
360.620667
 10
382.237
 20
361.49295
  0
ARC
  5
179
330
182
100
AcDbEntity
  8
0
 62
     7
370
    35
390
F
100
AcDbCircle
 10
349.523651
 20
360.151489
 30
0.0
 40
1.349251
100
AcDbArc
 50
120.273989
 51
128.481486
  0
ARC
  5
17A
330
182
100
AcDbEntity
  8
0
 62
     7
370
    35
390
F
100
AcDbCircle
 10
349.940063
 20
359.83783
 30
0.0
 40
1.876714
100
AcDbArc
 50
156.133302
 51
164.870262
  0
ARC
  5
17B
330
182
100
AcDbEntity
  8
0
 62
     7
370
    35
390
F
100
AcDbCircle
 10
350.123901
 20
359.806732
 30
0.0
 40
2.063318
100
AcDbArc
 50
175.736082
 51
190.656343
  0
LWPOLYLINE
  5
17C
330
182
100
AcDbEntity
  8
0
 62
     7
370
    35
390
F
100
AcDbPolyline
 90
        6
 70
     0
 43
0.0
 10
348.205627
 20
359.054993
 10
348.315552
 20
358.833618
 10
348.452393
 20
358.635559
 10
348.611877
 20
358.465179
 10
348.791504
 20
358.325836
 10
348.990265
 20
358.220154
  0
LWPOLYLINE
  5
17D
330
182
100
AcDbEntity
  8
0
 62
     7
370
    35
390
F
100
AcDbPolyline
 90
       22
 70
     0
 43
0.0
 10
348.941986
 20
358.233673
 10
348.797577
 20
358.314728
 10
348.663147
 20
358.415924
 10
348.539063
 20
358.535156
 10
348.424744
 20
358.669922
 10
348.322906
 20
358.819092
 10
348.237213
 20
358.981781
 10
348.168274
 20
359.154449
 10
348.0961
 20
359.425568
 10
348.069458
 20
359.61261
 10
348.060364
 20
359.802734
 10
348.070007
 20
360.002136
 10
348.101868
 20
360.213196
 10
348.15448
 20
360.417236
 10
348.225433
 20
360.600647
 10
348.313354
 20
360.771118
 10
348.413605
 20
360.925537
 10
348.525024
 20
361.058868
 10
348.645386
 20
361.174988
 10
348.775452
 20
361.27536
 10
348.919128
 20
361.355743
 10
348.99588
 20
361.388794
  0
LINE
  5
17E
330
182
100
AcDbEntity
  8
0
 62
     7
370
    35
390
F
100
AcDbLine
 10
337.237
 20
338.80545
 30
0.0
 11
337.237
 21
495.80542
 31
0.0
  0
LINE
  5
17F
330
182
100
AcDbEntity
  8
0
 62
     7
 48
0.482813
370
    35
390
F
100
AcDbLine
 10
382.237
 20
338.80545
 30
0.0
 11
382.237
 21
358.11795
 31
0.0
  0
LINE
  5
180
330
182
100
AcDbEntity
  8
0
 62
     7
370
    35
390
F
100
AcDbLine
 10
382.237
 20
361.49295
 30
0.0
 11
382.237
 21
495.80542
 31
0.0
  0
ENDBLK
  5
69D
330
182
100
AcDbEntity
  8
0
100
AcDbBlockEnd
  0
BLOCK
  5
69E
330
187
100
AcDbEntity
  8
0
100
AcDbBlockBegin
  2
Block10
 70
     0
 10
0.0
 20
0.0
 30
0.0
  3
Block10
  1

  0
LINE
  5
184
330
187
100
AcDbEntity
  8
0
  6
DASHDOT
 62
     7
 48
0.211252
370
    13
390
F
100
AcDbLine
 10
601.462036
 20
180.466141
 30
0.0
 11
593.011963
 21
180.466141
 31
0.0
  0
LINE
  5
185
330
187
100
AcDbEntity
  8
0
  6
DASHDOT
 62
     7
 48
0.21125
370
    13
390
F
100
AcDbLine
 10
597.237
 20
184.691147
 30
0.0
 11
597.237
 21
176.241135
 31
0.0
  0
ENDBLK
  5
69F
330
187
100
AcDbEntity
  8
0
100
AcDbBlockEnd
  0
BLOCK
  5
6A0
330
18C
100
AcDbEntity
  8
0
100
AcDbBlockBegin
  2
Block11
 70
     0
 10
0.0
 20
0.0
 30
0.0
  3
Block11
  1

  0
LINE
  5
189
330
18C
100
AcDbEntity
  8
0
  6
DASHDOT
 62
     7
 48
0.211252
370
    13
390
F
100
AcDbLine
 10
586.462036
 20
180.466141
 30
0.0
 11
578.011963
 21
180.466141
 31
0.0
  0
LINE
  5
18A
330
18C
100
AcDbEntity
  8
0
  6
DASHDOT
 62
     7
 48
0.21125
370
    13
390
F
100
AcDbLine
 10
582.237
 20
184.691147
 30
0.0
 11
582.237
 21
176.241135
 31
0.0
  0
ENDBLK
  5
6A1
330
18C
100
AcDbEntity
  8
0
100
AcDbBlockEnd
  0
BLOCK
  5
6A2
330
191
100
AcDbEntity
  8
0
100
AcDbBlockBegin
  2
Block12
 70
     0
 10
0.0
 20
0.0
 30
0.0
  3
Block12
  1

  0
LINE
  5
18E
330
191
100
AcDbEntity
  8
0
  6
DASHDOT
 62
     7
 48
0.211252
370
    13
390
F
100
AcDbLine
 10
583.962036
 20
180.466141
 30
0.0
 11
575.511963
 21
180.466141
 31
0.0
  0
LINE
  5
18F
330
191
100
AcDbEntity
  8
0
  6
DASHDOT
 62
     7
 48
0.21125
370
    13
390
F
100
AcDbLine
 10
579.737
 20
184.691147
 30
0.0
 11
579.737
 21
176.241135
 31
0.0
  0
ENDBLK
  5
6A3
330
191
100
AcDbEntity
  8
0
100
AcDbBlockEnd
  0
BLOCK
  5
6A4
330
196
100
AcDbEntity
  8
0
100
AcDbBlockBegin
  2
Block13
 70
     0
 10
0.0
 20
0.0
 30
0.0
  3
Block13
  1

  0
LINE
  5
193
330
196
100
AcDbEntity
  8
0
  6
DASHDOT
 62
     7
 48
0.211252
370
    13
390
F
100
AcDbLine
 10
556.462036
 20
180.466141
 30
0.0
 11
548.011963
 21
180.466141
 31
0.0
  0
LINE
  5
194
330
196
100
AcDbEntity
  8
0
  6
DASHDOT
 62
     7
 48
0.21125
370
    13
390
F
100
AcDbLine
 10
552.237
 20
184.691147
 30
0.0
 11
552.237
 21
176.241135
 31
0.0
  0
ENDBLK
  5
6A5
330
196
100
AcDbEntity
  8
0
100
AcDbBlockEnd
  0
BLOCK
  5
6A6
330
19B
100
AcDbEntity
  8
0
100
AcDbBlockBegin
  2
Block14
 70
     0
 10
0.0
 20
0.0
 30
0.0
  3
Block14
  1

  0
LINE
  5
198
330
19B
100
AcDbEntity
  8
0
  6
DASHDOT
 62
     7
 48
0.211252
370
    13
390
F
100
AcDbLine
 10
553.962036
 20
180.466141
 30
0.0
 11
545.511963
 21
180.466141
 31
0.0
  0
LINE
  5
199
330
19B
100
AcDbEntity
  8
0
  6
DASHDOT
 62
     7
 48
0.21125
370
    13
390
F
100
AcDbLine
 10
549.737
 20
184.691147
 30
0.0
 11
549.737
 21
176.241135
 31
0.0
  0
ENDBLK
  5
6A7
330
19B
100
AcDbEntity
  8
0
100
AcDbBlockEnd
  0
BLOCK
  5
6A8
330
1A0
100
AcDbEntity
  8
0
100
AcDbBlockBegin
  2
Block15
 70
     0
 10
0.0
 20
0.0
 30
0.0
  3
Block15
  1

  0
LINE
  5
19D
330
1A0
100
AcDbEntity
  8
0
  6
DASHDOT
 62
     7
 48
0.21125
370
    13
390
F
100
AcDbLine
 10
498.962006
 20
180.466141
 30
0.0
 11
490.511993
 21
180.466141
 31
0.0
  0
LINE
  5
19E
330
1A0
100
AcDbEntity
  8
0
  6
DASHDOT
 62
     7
 48
0.21125
370
    13
390
F
100
AcDbLine
 10
494.737
 20
184.691147
 30
0.0
 11
494.737
 21
176.241135
 31
0.0
  0
ENDBLK
  5
6A9
330
1A0
100
AcDbEntity
  8
0
100
AcDbBlockEnd
  0
BLOCK
  5
6AA
330
1A5
100
AcDbEntity
  8
0
100
AcDbBlockBegin
  2
Block16
 70
     0
 10
0.0
 20
0.0
 30
0.0
  3
Block16
  1

  0
LINE
  5
1A2
330
1A5
100
AcDbEntity
  8
0
  6
DASHDOT
 62
     7
 48
0.21125
370
    13
390
F
100
AcDbLine
 10
496.462006
 20
180.466141
 30
0.0
 11
488.011993
 21
180.466141
 31
0.0
  0
LINE
  5
1A3
330
1A5
100
AcDbEntity
  8
0
  6
DASHDOT
 62
     7
 48
0.21125
370
    13
390
F
100
AcDbLine
 10
492.237
 20
184.691147
 30
0.0
 11
492.237
 21
176.241135
 31
0.0
  0
ENDBLK
  5
6AB
330
1A5
100
AcDbEntity
  8
0
100
AcDbBlockEnd
  0
BLOCK
  5
6AC
330
1AA
100
AcDbEntity
  8
0
100
AcDbBlockBegin
  2
Block17
 70
     0
 10
0.0
 20
0.0
 30
0.0
  3
Block17
  1

  0
LINE
  5
1A7
330
1AA
100
AcDbEntity
  8
0
  6
DASHDOT
 62
     7
 48
0.21125
370
    13
390
F
100
AcDbLine
 10
468.962006
 20
180.466141
 30
0.0
 11
460.511993
 21
180.466141
 31
0.0
  0
LINE
  5
1A8
330
1AA
100
AcDbEntity
  8
0
  6
DASHDOT
 62
     7
 48
0.21125
370
    13
390
F
100
AcDbLine
 10
464.737
 20
184.691147
 30
0.0
 11
464.737
 21
176.241135
 31
0.0
  0
ENDBLK
  5
6AD
330
1AA
100
AcDbEntity
  8
0
100
AcDbBlockEnd
  0
BLOCK
  5
6AE
330
1AF
100
AcDbEntity
  8
0
100
AcDbBlockBegin
  2
Block18
 70
     0
 10
0.0
 20
0.0
 30
0.0
  3
Block18
  1

  0
LINE
  5
1AC
330
1AF
100
AcDbEntity
  8
0
  6
DASHDOT
 62
     7
 48
0.21125
370
    13
390
F
100
AcDbLine
 10
466.462006
 20
180.466141
 30
0.0
 11
458.011993
 21
180.466141
 31
0.0
  0
LINE
  5
1AD
330
1AF
100
AcDbEntity
  8
0
  6
DASHDOT
 62
     7
 48
0.21125
370
    13
390
F
100
AcDbLine
 10
462.237
 20
184.691147
 30
0.0
 11
462.237
 21
176.241135
 31
0.0
  0
ENDBLK
  5
6AF
330
1AF
100
AcDbEntity
  8
0
100
AcDbBlockEnd
  0
BLOCK
  5
6B0
330
1B4
100
AcDbEntity
  8
0
100
AcDbBlockBegin
  2
Block19
 70
     0
 10
0.0
 20
0.0
 30
0.0
  3
Block19
  1

  0
LINE
  5
1B1
330
1B4
100
AcDbEntity
  8
0
  6
DASHDOT
 62
     7
 48
0.21125
370
    13
390
F
100
AcDbLine
 10
451.462006
 20
180.466141
 30
0.0
 11
443.011993
 21
180.466141
 31
0.0
  0
LINE
  5
1B2
330
1B4
100
AcDbEntity
  8
0
  6
DASHDOT
 62
     7
 48
0.21125
370
    13
390
F
100
AcDbLine
 10
447.237
 20
184.691147
 30
0.0
 11
447.237
 21
176.241135
 31
0.0
  0
ENDBLK
  5
6B1
330
1B4
100
AcDbEntity
  8
0
100
AcDbBlockEnd
  0
BLOCK
  5
6B2
330
1DF
100
AcDbEntity
  8
0
100
AcDbBlockBegin
  2
Block20
 70
     0
 10
0.0
 20
0.0
 30
0.0
  3
Block20
  1

  0
LINE
  5
1B6
330
1DF
100
AcDbEntity
  8
0
 62
     7
370
    35
390
F
100
AcDbLine
 10
634.737
 20
155.466141
 30
0.0
 11
634.737
 21
205.466141
 31
0.0
  0
LINE
  5
1B7
330
1DF
100
AcDbEntity
  8
0
 62
     7
370
    35
390
F
100
AcDbLine
 10
84.737
 20
155.466141
 30
0.0
 11
84.737
 21
205.466141
 31
0.0
  0
LINE
  5
1B8
330
1DF
100
AcDbEntity
  8
0
 62
     7
370
    35
390
F
100
AcDbLine
 10
634.737
 20
205.466141
 30
0.0
 11
84.737
 21
205.466141
 31
0.0
  0
LINE
  5
1B9
330
1DF
100
AcDbEntity
  8
0
 62
     7
370
    35
390
F
100
AcDbLine
 10
634.737
 20
155.466141
 30
0.0
 11
84.737
 21
155.466141
 31
0.0
  0
LINE
  5
1BA
330
1DF
100
AcDbEntity
  8
0
 62
     7
 48
0.0625
370
    35
390
F
100
AcDbLine
 10
464.737
 20
177.216141
 30
0.0
 11
462.237
 21
177.216141
 31
0.0
  0
ARC
  5
1BB
330
1DF
100
AcDbEntity
  8
0
 62
     7
370
    35
390
F
100
AcDbCircle
 10
464.737
 20
180.466141
 30
0.0
 40
3.25
100
AcDbArc
 50
270.000001
 51
89.99998900000001
  0
LINE
  5
1BC
330
1DF
100
AcDbEntity
  8
0
 62
     7
 48
0.0625
370
    35
390
F
100
AcDbLine
 10
464.737
 20
183.716141
 30
0.0
 11
462.237
 21
183.716141
 31
0.0
  0
ARC
  5
1BD
330
1DF
100
AcDbEntity
  8
0
 62
     7
370
    35
390
F
100
AcDbCircle
 10
462.237
 20
180.466141
 30
0.0
 40
3.25
100
AcDbArc
 50
90.000003
 51
270.000001
  0
LINE
  5
1BE
330
1DF
100
AcDbEntity
  8
0
 62
     7
 48
0.0625
370
    35
390
F
100
AcDbLine
 10
494.737
 20
177.216141
 30
0.0
 11
492.237
 21
177.216141
 31
0.0
  0
ARC
  5
1BF
330
1DF
100
AcDbEntity
  8
0
 62
     7
370
    35
390
F
100
AcDbCircle
 10
494.737
 20
180.466141
 30
0.0
 40
3.25
100
AcDbArc
 50
270.000001
 51
89.99998900000001
  0
LINE
  5
1C0
330
1DF
100
AcDbEntity
  8
0
 62
     7
 48
0.0625
370
    35
390
F
100
AcDbLine
 10
494.737
 20
183.716141
 30
0.0
 11
492.237
 21
183.716141
 31
0.0
  0
ARC
  5
1C1
330
1DF
100
AcDbEntity
  8
0
 62
     7
370
    35
390
F
100
AcDbCircle
 10
492.237
 20
180.466141
 30
0.0
 40
3.25
100
AcDbArc
 50
90.000003
 51
270.000001
  0
LINE
  5
1C2
330
1DF
100
AcDbEntity
  8
0
 62
     7
 48
0.0625
370
    35
390
F
100
AcDbLine
 10
552.237
 20
177.216141
 30
0.0
 11
549.737
 21
177.216141
 31
0.0
  0
ARC
  5
1C3
330
1DF
100
AcDbEntity
  8
0
 62
     7
370
    35
390
F
100
AcDbCircle
 10
552.237
 20
180.466141
 30
0.0
 40
3.25
100
AcDbArc
 50
270.000001
 51
89.99998900000001
  0
LINE
  5
1C4
330
1DF
100
AcDbEntity
  8
0
 62
     7
 48
0.0625
370
    35
390
F
100
AcDbLine
 10
552.237
 20
183.716141
 30
0.0
 11
549.737
 21
183.716141
 31
0.0
  0
ARC
  5
1C5
330
1DF
100
AcDbEntity
  8
0
 62
     7
370
    35
390
F
100
AcDbCircle
 10
549.737
 20
180.466141
 30
0.0
 40
3.25
100
AcDbArc
 50
90.000003
 51
270.000001
  0
LINE
  5
1C6
330
1DF
100
AcDbEntity
  8
0
 62
     7
 48
0.0625
370
    35
390
F
100
AcDbLine
 10
582.237
 20
177.216141
 30
0.0
 11
579.737
 21
177.216141
 31
0.0
  0
ARC
  5
1C7
330
1DF
100
AcDbEntity
  8
0
 62
     7
370
    35
390
F
100
AcDbCircle
 10
582.237
 20
180.466141
 30
0.0
 40
3.25
100
AcDbArc
 50
270.000001
 51
89.99998900000001
  0
LINE
  5
1C8
330
1DF
100
AcDbEntity
  8
0
 62
     7
 48
0.0625
370
    35
390
F
100
AcDbLine
 10
582.237
 20
183.716141
 30
0.0
 11
579.737
 21
183.716141
 31
0.0
  0
ARC
  5
1C9
330
1DF
100
AcDbEntity
  8
0
 62
     7
370
    35
390
F
100
AcDbCircle
 10
579.737
 20
180.466141
 30
0.0
 40
3.25
100
AcDbArc
 50
90.000003
 51
270.000001
  0
CIRCLE
  5
1CA
330
1DF
100
AcDbEntity
  8
0
 62
     7
370
    35
390
F
100
AcDbCircle
 10
597.237
 20
180.466141
 30
0.0
 40
3.25
  0
CIRCLE
  5
1CB
330
1DF
100
AcDbEntity
  8
0
 62
     7
370
    35
390
F
100
AcDbCircle
 10
447.237
 20
180.466141
 30
0.0
 40
3.25
  0
LINE
  5
1CC
330
1DF
100
AcDbEntity
  8
0
 62
     7
 48
0.0625
370
    35
390
F
100
AcDbLine
 10
257.237
 20
183.716141
 30
0.0
 11
254.737
 21
183.716141
 31
0.0
  0
ARC
  5
1CD
330
1DF
100
AcDbEntity
  8
0
 62
     7
370
    35
390
F
100
AcDbCircle
 10
254.737
 20
180.466141
 30
0.0
 40
3.25
100
AcDbArc
 50
90.000003
 51
270.000001
  0
LINE
  5
1CE
330
1DF
100
AcDbEntity
  8
0
 62
     7
 48
0.0625
370
    35
390
F
100
AcDbLine
 10
257.237
 20
177.216141
 30
0.0
 11
254.737
 21
177.216141
 31
0.0
  0
ARC
  5
1CF
330
1DF
100
AcDbEntity
  8
0
 62
     7
370
    35
390
F
100
AcDbCircle
 10
257.237
 20
180.466141
 30
0.0
 40
3.25
100
AcDbArc
 50
270.000001
 51
89.99998900000001
  0
LINE
  5
1D0
330
1DF
100
AcDbEntity
  8
0
 62
     7
 48
0.0625
370
    35
390
F
100
AcDbLine
 10
227.237
 20
183.716141
 30
0.0
 11
224.737
 21
183.716141
 31
0.0
  0
ARC
  5
1D1
330
1DF
100
AcDbEntity
  8
0
 62
     7
370
    35
390
F
100
AcDbCircle
 10
224.737
 20
180.466141
 30
0.0
 40
3.25
100
AcDbArc
 50
90.000003
 51
270.000001
  0
LINE
  5
1D2
330
1DF
100
AcDbEntity
  8
0
 62
     7
 48
0.0625
370
    35
390
F
100
AcDbLine
 10
227.237
 20
177.216141
 30
0.0
 11
224.737
 21
177.216141
 31
0.0
  0
ARC
  5
1D3
330
1DF
100
AcDbEntity
  8
0
 62
     7
370
    35
390
F
100
AcDbCircle
 10
227.237
 20
180.466141
 30
0.0
 40
3.25
100
AcDbArc
 50
270.000001
 51
89.99998900000001
  0
LINE
  5
1D4
330
1DF
100
AcDbEntity
  8
0
 62
     7
 48
0.0625
370
    35
390
F
100
AcDbLine
 10
169.737
 20
183.716141
 30
0.0
 11
167.237
 21
183.716141
 31
0.0
  0
ARC
  5
1D5
330
1DF
100
AcDbEntity
  8
0
 62
     7
370
    35
390
F
100
AcDbCircle
 10
167.237
 20
180.466141
 30
0.0
 40
3.25
100
AcDbArc
 50
90.000003
 51
270.000001
  0
LINE
  5
1D6
330
1DF
100
AcDbEntity
  8
0
 62
     7
 48
0.0625
370
    35
390
F
100
AcDbLine
 10
169.737
 20
177.216141
 30
0.0
 11
167.237
 21
177.216141
 31
0.0
  0
ARC
  5
1D7
330
1DF
100
AcDbEntity
  8
0
 62
     7
370
    35
390
F
100
AcDbCircle
 10
169.737
 20
180.466141
 30
0.0
 40
3.25
100
AcDbArc
 50
270.000001
 51
89.99998900000001
  0
LINE
  5
1D8
330
1DF
100
AcDbEntity
  8
0
 62
     7
 48
0.0625
370
    35
390
F
100
AcDbLine
 10
139.737
 20
183.716141
 30
0.0
 11
137.237
 21
183.716141
 31
0.0
  0
ARC
  5
1D9
330
1DF
100
AcDbEntity
  8
0
 62
     7
370
    35
390
F
100
AcDbCircle
 10
137.237
 20
180.466141
 30
0.0
 40
3.25
100
AcDbArc
 50
90.000003
 51
270.000001
  0
LINE
  5
1DA
330
1DF
100
AcDbEntity
  8
0
 62
     7
 48
0.0625
370
    35
390
F
100
AcDbLine
 10
139.737
 20
177.216141
 30
0.0
 11
137.237
 21
177.216141
 31
0.0
  0
ARC
  5
1DB
330
1DF
100
AcDbEntity
  8
0
 62
     7
370
    35
390
F
100
AcDbCircle
 10
139.737
 20
180.466141
 30
0.0
 40
3.25
100
AcDbArc
 50
270.000001
 51
89.99998900000001
  0
CIRCLE
  5
1DC
330
1DF
100
AcDbEntity
  8
0
 62
     7
370
    35
390
F
100
AcDbCircle
 10
122.237
 20
180.466141
 30
0.0
 40
3.25
  0
CIRCLE
  5
1DD
330
1DF
100
AcDbEntity
  8
0
 62
     7
370
    35
390
F
100
AcDbCircle
 10
272.237
 20
180.466141
 30
0.0
 40
3.25
  0
ENDBLK
  5
6B3
330
1DF
100
AcDbEntity
  8
0
100
AcDbBlockEnd
  0
BLOCK
  5
6B4
330
1E3
100
AcDbEntity
  8
0
100
AcDbBlockBegin
  2
Block21
 70
     0
 10
0.0
 20
0.0
 30
0.0
  3
Block21
  1

  0
TEXT
  5
1E1
330
1E3
100
AcDbEntity
  8
0
 62
     7
370
    13
390
F
100
AcDbText
 10
195.579041
 20
618.553406
 30
0.0
 40
14.0
  1
GW85188 TESTA PALO TRIPLO Ø76
 41
0.887845487394958
 72
     5
 11
547.757751
 21
618.553406
 31
0.0
100
AcDbText
  0
ENDBLK
  5
6B5
330
1E3
100
AcDbEntity
  8
0
100
AcDbBlockEnd
  0
BLOCK
  5
6B6
330
1EC
100
AcDbEntity
  8
0
100
AcDbBlockBegin
  2
*D23
 70
     1
 10
0.0
 20
0.0
 30
0.0
  3
*D23
  1

  0
TEXT
  5
1E5
330
1EC
100
AcDbEntity
  8
2
 62
    34
370
    13
390
F
100
AcDbText
 10
444.673634
 20
455.278198
 30
0.0
 40
2.5
  1
205
 41
1.200917920000002
 72
     5
 11
452.179371
 21
455.278198
 31
0.0
100
AcDbText
  0
LINE
  5
1E6
330
1EC
100
AcDbEntity
  8
2
 62
    34
370
    13
390
F
100
AcDbLine
 10
397.176502
 20
422.90979
 30
0.0
 11
397.176502
 21
455.278198
 31
0.0
  0
LINE
  5
1E7
330
1EC
100
AcDbEntity
  8
2
 62
    34
370
    13
390
F
100
AcDbLine
 10
499.676502
 20
423.934814
 30
0.0
 11
499.676502
 21
455.278198
 31
0.0
  0
LWPOLYLINE
  5
1E8
330
1EC
100
AcDbEntity
  8
2
 62
    34
370
    13
390
F
100
AcDbPolyline
 90
        3
 70
     0
 43
0.0
 10
399.108356
 20
453.795837
 10
397.176502
 20
453.278198
 10
399.108356
 20
452.760559
  0
LWPOLYLINE
  5
1E9
330
1EC
100
AcDbEntity
  8
2
 62
    34
370
    13
390
F
100
AcDbPolyline
 90
        3
 70
     0
 43
0.0
 10
497.744648
 20
452.760559
 10
499.676502
 20
453.278198
 10
497.744648
 20
453.795837
  0
LINE
  5
1EA
330
1EC
100
AcDbEntity
  8
2
 62
    34
370
    13
390
F
100
AcDbLine
 10
397.176502
 20
453.278198
 30
0.0
 11
499.676502
 21
453.278198
 31
0.0
  0
ENDBLK
  5
6B7
330
1EC
100
AcDbEntity
  8
0
100
AcDbBlockEnd
  0
BLOCK
  5
6B8
330
1F5
100
AcDbEntity
  8
0
100
AcDbBlockBegin
  2
*D24
 70
     1
 10
0.0
 20
0.0
 30
0.0
  3
*D24
  1

  0
TEXT
  5
1EE
330
1F5
100
AcDbEntity
  8
2
 62
    34
370
    13
390
F
100
AcDbText
 10
478.722797
 20
376.568115
 30
0.0
 40
2.5
  1
5
 41
1.301147399999979
 72
     5
 11
480.891376
 21
376.568115
 31
0.0
100
AcDbText
  0
LINE
  5
1EF
330
1F5
100
AcDbEntity
  8
2
 62
    34
370
    13
390
F
100
AcDbLine
 10
499.676502
 20
411.484802
 30
0.0
 11
499.676502
 21
372.568115
 31
0.0
  0
LINE
  5
1F0
330
1F5
100
AcDbEntity
  8
2
 62
    34
370
    13
390
F
100
AcDbLine
 10
502.176502
 20
411.484802
 30
0.0
 11
502.176502
 21
372.568115
 31
0.0
  0
LWPOLYLINE
  5
1F1
330
1F5
100
AcDbEntity
  8
2
 62
    34
370
    13
390
F
100
AcDbPolyline
 90
        3
 70
     0
 43
0.0
 10
504.108356
 20
375.085754
 10
502.176502
 20
374.568115
 10
504.108356
 20
374.050476
  0
LWPOLYLINE
  5
1F2
330
1F5
100
AcDbEntity
  8
2
 62
    34
370
    13
390
F
100
AcDbPolyline
 90
        3
 70
     0
 43
0.0
 10
497.744648
 20
374.050476
 10
499.676502
 20
374.568115
 10
497.744648
 20
375.085754
  0
LINE
  5
1F3
330
1F5
100
AcDbEntity
  8
2
 62
    34
370
    13
390
F
100
AcDbLine
 10
478.722797
 20
374.568115
 30
0.0
 11
507.176502
 21
374.568115
 31
0.0
  0
ENDBLK
  5
6B9
330
1F5
100
AcDbEntity
  8
0
100
AcDbBlockEnd
  0
BLOCK
  5
6BA
330
1FE
100
AcDbEntity
  8
0
100
AcDbBlockBegin
  2
*D25
 70
     1
 10
0.0
 20
0.0
 30
0.0
  3
*D25
  1

  0
TEXT
  5
1F7
330
1FE
100
AcDbEntity
  8
2
 62
    34
370
    13
390
F
100
AcDbText
 10
518.360462
 20
376.06308
 30
0.0
 40
2.5
  1
5
 41
1.301147400000014
 72
     5
 11
520.529041
 21
376.06308
 31
0.0
100
AcDbText
  0
LINE
  5
1F8
330
1FE
100
AcDbEntity
  8
2
 62
    34
370
    13
390
F
100
AcDbLine
 10
529.676502
 20
411.484802
 30
0.0
 11
529.676502
 21
372.06308
 31
0.0
  0
LINE
  5
1F9
330
1FE
100
AcDbEntity
  8
2
 62
    34
370
    13
390
F
100
AcDbLine
 10
532.176502
 20
411.484802
 30
0.0
 11
532.176502
 21
372.06308
 31
0.0
  0
LWPOLYLINE
  5
1FA
330
1FE
100
AcDbEntity
  8
2
 62
    34
370
    13
390
F
100
AcDbPolyline
 90
        3
 70
     0
 43
0.0
 10
534.108356
 20
374.580719
 10
532.176502
 20
374.06308
 10
534.108356
 20
373.545441
  0
LWPOLYLINE
  5
1FB
330
1FE
100
AcDbEntity
  8
2
 62
    34
370
    13
390
F
100
AcDbPolyline
 90
        3
 70
     0
 43
0.0
 10
527.744648
 20
373.545441
 10
529.676502
 20
374.06308
 10
527.744648
 20
374.580719
  0
LINE
  5
1FC
330
1FE
100
AcDbEntity
  8
2
 62
    34
 48
0.470401
370
    13
390
F
100
AcDbLine
 10
518.360462
 20
374.06308
 30
0.0
 11
537.176502
 21
374.06308
 31
0.0
  0
ENDBLK
  5
6BB
330
1FE
100
AcDbEntity
  8
0
100
AcDbBlockEnd
  0
BLOCK
  5
6BC
330
207
100
AcDbEntity
  8
0
100
AcDbBlockBegin
  2
*D26
 70
     1
 10
0.0
 20
0.0
 30
0.0
  3
*D26
  1

  0
TEXT
  5
200
330
207
100
AcDbEntity
  8
2
 62
    34
370
    13
390
F
100
AcDbText
 10
568.541553
 20
375.561157
 30
0.0
 40
2.5
  1
5
 41
1.301148000000012
 72
     5
 11
570.710133
 21
375.561157
 31
0.0
100
AcDbText
  0
LINE
  5
201
330
207
100
AcDbEntity
  8
2
 62
    34
370
    13
390
F
100
AcDbLine
 10
587.176502
 20
411.484802
 30
0.0
 11
587.176502
 21
371.561157
 31
0.0
  0
LINE
  5
202
330
207
100
AcDbEntity
  8
2
 62
    34
370
    13
390
F
100
AcDbLine
 10
589.676502
 20
411.484802
 30
0.0
 11
589.676502
 21
371.561157
 31
0.0
  0
LWPOLYLINE
  5
203
330
207
100
AcDbEntity
  8
2
 62
    34
370
    13
390
F
100
AcDbPolyline
 90
        3
 70
     0
 43
0.0
 10
591.608326
 20
374.078796
 10
589.676502
 20
373.561157
 10
591.608326
 20
373.043518
  0
LWPOLYLINE
  5
204
330
207
100
AcDbEntity
  8
2
 62
    34
370
    13
390
F
100
AcDbPolyline
 90
        3
 70
     0
 43
0.0
 10
585.244678
 20
373.043518
 10
587.176502
 20
373.561157
 10
585.244678
 20
374.078796
  0
LINE
  5
205
330
207
100
AcDbEntity
  8
2
 62
    34
370
    13
390
F
100
AcDbLine
 10
568.541553
 20
373.561157
 30
0.0
 11
594.676502
 21
373.561157
 31
0.0
  0
ENDBLK
  5
6BD
330
207
100
AcDbEntity
  8
0
100
AcDbBlockEnd
  0
BLOCK
  5
6BE
330
210
100
AcDbEntity
  8
0
100
AcDbBlockBegin
  2
*D27
 70
     1
 10
0.0
 20
0.0
 30
0.0
  3
*D27
  1

  0
TEXT
  5
209
330
210
100
AcDbEntity
  8
2
 62
    34
370
    13
390
F
100
AcDbText
 10
607.22295
 20
375.432678
 30
0.0
 40
2.5
  1
5
 41
1.301147400000014
 72
     5
 11
609.391529
 21
375.432678
 31
0.0
100
AcDbText
  0
LINE
  5
20A
330
210
100
AcDbEntity
  8
2
 62
    34
370
    13
390
F
100
AcDbLine
 10
617.176502
 20
411.484802
 30
0.0
 11
617.176502
 21
371.432678
 31
0.0
  0
LINE
  5
20B
330
210
100
AcDbEntity
  8
2
 62
    34
370
    13
390
F
100
AcDbLine
 10
619.676502
 20
411.484802
 30
0.0
 11
619.676502
 21
371.432678
 31
0.0
  0
LWPOLYLINE
  5
20C
330
210
100
AcDbEntity
  8
2
 62
    34
370
    13
390
F
100
AcDbPolyline
 90
        3
 70
     0
 43
0.0
 10
621.608326
 20
373.950317
 10
619.676502
 20
373.432678
 10
621.608326
 20
372.915039
  0
LWPOLYLINE
  5
20D
330
210
100
AcDbEntity
  8
2
 62
    34
370
    13
390
F
100
AcDbPolyline
 90
        3
 70
     0
 43
0.0
 10
615.244678
 20
372.915039
 10
617.176502
 20
373.432678
 10
615.244678
 20
373.950317
  0
LINE
  5
20E
330
210
100
AcDbEntity
  8
2
 62
    34
 48
0.436339
370
    13
390
F
100
AcDbLine
 10
607.22295
 20
373.432678
 30
0.0
 11
624.676502
 21
373.432678
 31
0.0
  0
ENDBLK
  5
6BF
330
210
100
AcDbEntity
  8
0
100
AcDbBlockEnd
  0
BLOCK
  5
6C0
330
219
100
AcDbEntity
  8
0
100
AcDbBlockBegin
  2
*D28
 70
     1
 10
0.0
 20
0.0
 30
0.0
  3
*D28
  1

  0
TEXT
  5
212
330
219
100
AcDbEntity
  8
2
 62
    34
370
    13
390
F
100
AcDbText
 10
513.507923
 20
454.766724
 30
0.0
 40
2.5
  1
55
 41
1.160917920000011
 72
     5
 11
518.345081
 21
454.766724
 31
0.0
100
AcDbText
  0
LINE
  5
213
330
219
100
AcDbEntity
  8
2
 62
    34
370
    13
390
F
100
AcDbLine
 10
502.176502
 20
423.934814
 30
0.0
 11
502.176502
 21
454.766724
 31
0.0
  0
LINE
  5
214
330
219
100
AcDbEntity
  8
2
 62
    34
370
    13
390
F
100
AcDbLine
 10
529.676502
 20
423.934814
 30
0.0
 11
529.676502
 21
454.766724
 31
0.0
  0
LWPOLYLINE
  5
215
330
219
100
AcDbEntity
  8
2
 62
    34
370
    13
390
F
100
AcDbPolyline
 90
        3
 70
     0
 43
0.0
 10
504.108356
 20
453.284363
 10
502.176502
 20
452.766724
 10
504.108356
 20
452.249084
  0
LWPOLYLINE
  5
216
330
219
100
AcDbEntity
  8
2
 62
    34
370
    13
390
F
100
AcDbPolyline
 90
        3
 70
     0
 43
0.0
 10
527.744648
 20
452.249084
 10
529.676502
 20
452.766724
 10
527.744648
 20
453.284363
  0
LINE
  5
217
330
219
100
AcDbEntity
  8
2
 62
    34
370
    13
390
F
100
AcDbLine
 10
502.176502
 20
452.766724
 30
0.0
 11
529.676502
 21
452.766724
 31
0.0
  0
ENDBLK
  5
6C1
330
219
100
AcDbEntity
  8
0
100
AcDbBlockEnd
  0
BLOCK
  5
6C2
330
222
100
AcDbEntity
  8
0
100
AcDbBlockBegin
  2
*D29
 70
     1
 10
0.0
 20
0.0
 30
0.0
  3
*D29
  1

  0
TEXT
  5
21B
330
222
100
AcDbEntity
  8
2
 62
    34
370
    13
390
F
100
AcDbText
 10
555.923634
 20
454.766785
 30
0.0
 40
2.5
  1
110
 41
1.637615345454535
 72
     5
 11
563.429371
 21
454.766785
 31
0.0
100
AcDbText
  0
LINE
  5
21C
330
222
100
AcDbEntity
  8
2
 62
    34
370
    13
390
F
100
AcDbLine
 10
532.176502
 20
423.934814
 30
0.0
 11
532.176502
 21
454.766785
 31
0.0
  0
LINE
  5
21D
330
222
100
AcDbEntity
  8
2
 62
    34
370
    13
390
F
100
AcDbLine
 10
587.176502
 20
423.934814
 30
0.0
 11
587.176502
 21
454.766785
 31
0.0
  0
LWPOLYLINE
  5
21E
330
222
100
AcDbEntity
  8
2
 62
    34
370
    13
390
F
100
AcDbPolyline
 90
        3
 70
     0
 43
0.0
 10
534.108356
 20
453.284424
 10
532.176502
 20
452.766785
 10
534.108356
 20
452.249146
  0
LWPOLYLINE
  5
21F
330
222
100
AcDbEntity
  8
2
 62
    34
370
    13
390
F
100
AcDbPolyline
 90
        3
 70
     0
 43
0.0
 10
585.244678
 20
452.249146
 10
587.176502
 20
452.766785
 10
585.244678
 20
453.284424
  0
LINE
  5
220
330
222
100
AcDbEntity
  8
2
 62
    34
370
    13
390
F
100
AcDbLine
 10
532.176502
 20
452.766785
 30
0.0
 11
587.176502
 21
452.766785
 31
0.0
  0
ENDBLK
  5
6C3
330
222
100
AcDbEntity
  8
0
100
AcDbBlockEnd
  0
BLOCK
  5
6C4
330
22B
100
AcDbEntity
  8
0
100
AcDbBlockBegin
  2
*D30
 70
     1
 10
0.0
 20
0.0
 30
0.0
  3
*D30
  1

  0
TEXT
  5
224
330
22B
100
AcDbEntity
  8
2
 62
    34
370
    13
390
F
100
AcDbText
 10
601.007923
 20
454.142639
 30
0.0
 40
2.5
  1
55
 41
1.160917920000011
 72
     5
 11
605.845081
 21
454.142639
 31
0.0
100
AcDbText
  0
LINE
  5
225
330
22B
100
AcDbEntity
  8
2
 62
    34
370
    13
390
F
100
AcDbLine
 10
589.676502
 20
423.934814
 30
0.0
 11
589.676502
 21
454.142639
 31
0.0
  0
LINE
  5
226
330
22B
100
AcDbEntity
  8
2
 62
    34
370
    13
390
F
100
AcDbLine
 10
617.176502
 20
423.934814
 30
0.0
 11
617.176502
 21
454.142639
 31
0.0
  0
LWPOLYLINE
  5
227
330
22B
100
AcDbEntity
  8
2
 62
    34
370
    13
390
F
100
AcDbPolyline
 90
        3
 70
     0
 43
0.0
 10
591.608326
 20
452.660278
 10
589.676502
 20
452.142639
 10
591.608326
 20
451.625
  0
LWPOLYLINE
  5
228
330
22B
100
AcDbEntity
  8
2
 62
    34
370
    13
390
F
100
AcDbPolyline
 90
        3
 70
     0
 43
0.0
 10
615.244678
 20
451.625
 10
617.176502
 20
452.142639
 10
615.244678
 20
452.660278
  0
LINE
  5
229
330
22B
100
AcDbEntity
  8
2
 62
    34
370
    13
390
F
100
AcDbLine
 10
589.676502
 20
452.142639
 30
0.0
 11
617.176502
 21
452.142639
 31
0.0
  0
ENDBLK
  5
6C5
330
22B
100
AcDbEntity
  8
0
100
AcDbBlockEnd
  0
BLOCK
  5
6C6
330
234
100
AcDbEntity
  8
0
100
AcDbBlockBegin
  2
*D31
 70
     1
 10
0.0
 20
0.0
 30
0.0
  3
*D31
  1

  0
TEXT
  5
22D
330
234
100
AcDbEntity
  8
2
 62
    34
370
    13
390
F
100
AcDbText
 10
392.089314
 20
473.154907
 30
0.0
 40
2.5
  1
1100
 41
1.526156549999999
 72
     5
 11
402.263691
 21
473.154907
 31
0.0
100
AcDbText
  0
LINE
  5
22E
330
234
100
AcDbEntity
  8
2
 62
    34
370
    13
390
F
100
AcDbLine
 10
122.176502
 20
432.209778
 30
0.0
 11
122.176502
 21
473.154907
 31
0.0
  0
LINE
  5
22F
330
234
100
AcDbEntity
  8
2
 62
    34
370
    13
390
F
100
AcDbLine
 10
672.176502
 20
432.209778
 30
0.0
 11
672.176502
 21
473.154907
 31
0.0
  0
LWPOLYLINE
  5
230
330
234
100
AcDbEntity
  8
2
 62
    34
370
    13
390
F
100
AcDbPolyline
 90
        3
 70
     0
 43
0.0
 10
124.108356
 20
471.672546
 10
122.176502
 20
471.154907
 10
124.108356
 20
470.637268
  0
LWPOLYLINE
  5
231
330
234
100
AcDbEntity
  8
2
 62
    34
370
    13
390
F
100
AcDbPolyline
 90
        3
 70
     0
 43
0.0
 10
670.244678
 20
470.637268
 10
672.176502
 20
471.154907
 10
670.244678
 20
471.672546
  0
LINE
  5
232
330
234
100
AcDbEntity
  8
2
 62
    34
370
    13
390
F
100
AcDbLine
 10
122.176502
 20
471.154907
 30
0.0
 11
672.176502
 21
471.154907
 31
0.0
  0
ENDBLK
  5
6C7
330
234
100
AcDbEntity
  8
0
100
AcDbBlockEnd
  0
BLOCK
  5
6C8
330
23D
100
AcDbEntity
  8
0
100
AcDbBlockBegin
  2
*D32
 70
     1
 10
0.0
 20
0.0
 30
0.0
  3
*D32
  1

  0
TEXT
  5
236
330
23D
100
AcDbEntity
  8
2
 62
    34
370
    13
390
F
100
AcDbText
 10
97.120869
 20
392.952606
 30
0.0
 40
2.5
  1
50
 50
90.0
 41
1.289908799999997
 72
     5
 11
97.120869
 21
397.789764
 31
0.0
100
AcDbText
  0
LINE
  5
237
330
23D
100
AcDbEntity
  8
2
 62
    34
370
    13
390
F
100
AcDbLine
 10
125.176502
 20
405.209808
 30
0.0
 11
97.120869
 21
405.209808
 31
0.0
  0
LINE
  5
238
330
23D
100
AcDbEntity
  8
2
 62
    34
370
    13
390
F
100
AcDbLine
 10
120.176502
 20
430.209778
 30
0.0
 11
97.120869
 21
430.209778
 31
0.0
  0
LWPOLYLINE
  5
239
330
23D
100
AcDbEntity
  8
2
 62
    34
370
    13
390
F
100
AcDbPolyline
 90
        3
 70
     0
 43
0.0
 10
98.60323
 20
407.141663
 10
99.120869
 20
405.209808
 10
99.638508
 20
407.141663
  0
LWPOLYLINE
  5
23A
330
23D
100
AcDbEntity
  8
2
 62
    34
370
    13
390
F
100
AcDbPolyline
 90
        3
 70
     0
 43
0.0
 10
99.638508
 20
428.277954
 10
99.120869
 20
430.209778
 10
98.60323
 20
428.277954
  0
LINE
  5
23B
330
23D
100
AcDbEntity
  8
2
 62
    34
370
    13
390
F
100
AcDbLine
 10
99.120869
 20
392.952606
 30
0.0
 11
99.120869
 21
430.209778
 31
0.0
  0
ENDBLK
  5
6C9
330
23D
100
AcDbEntity
  8
0
100
AcDbBlockEnd
  0
BLOCK
  5
6CA
330
246
100
AcDbEntity
  8
0
100
AcDbBlockBegin
  2
*D33
 70
     1
 10
0.0
 20
0.0
 30
0.0
  3
*D33
  1

  0
TEXT
  5
23F
330
246
100
AcDbEntity
  8
2
 62
    34
370
    13
390
F
100
AcDbText
 10
684.725819
 20
421.541199
 30
0.0
 40
2.5
  1
25
 50
90.0
 41
1.160917919999997
 72
     5
 11
684.725819
 21
426.378357
 31
0.0
100
AcDbText
  0
LINE
  5
240
330
246
100
AcDbEntity
  8
2
 62
    34
370
    13
390
F
100
AcDbLine
 10
538.401508
 20
417.709808
 30
0.0
 11
688.725819
 21
417.709808
 31
0.0
  0
LINE
  5
241
330
246
100
AcDbEntity
  8
2
 62
    34
 48
0.363733
370
    13
390
F
100
AcDbLine
 10
674.176502
 20
430.209778
 30
0.0
 11
688.725819
 21
430.209778
 31
0.0
  0
LWPOLYLINE
  5
242
330
246
100
AcDbEntity
  8
2
 62
    34
370
    13
390
F
100
AcDbPolyline
 90
        3
 70
     0
 43
0.0
 10
687.243458
 20
428.277954
 10
686.725819
 20
430.209778
 10
686.208179
 20
428.277954
  0
LWPOLYLINE
  5
243
330
246
100
AcDbEntity
  8
2
 62
    34
370
    13
390
F
100
AcDbPolyline
 90
        3
 70
     0
 43
0.0
 10
686.208179
 20
419.641663
 10
686.725819
 20
417.709808
 10
687.243458
 20
419.641663
  0
LINE
  5
244
330
246
100
AcDbEntity
  8
2
 62
    34
 48
0.312499
370
    13
390
F
100
AcDbLine
 10
686.725819
 20
417.709808
 30
0.0
 11
686.725819
 21
430.209778
 31
0.0
  0
ENDBLK
  5
6CB
330
246
100
AcDbEntity
  8
0
100
AcDbBlockEnd
  0
BLOCK
  5
6CC
330
24F
100
AcDbEntity
  8
0
100
AcDbBlockBegin
  2
*D34
 70
     1
 10
0.0
 20
0.0
 30
0.0
  3
*D34
  1

  0
TEXT
  5
248
330
24F
100
AcDbEntity
  8
2
 62
    34
370
    13
390
F
100
AcDbText
 10
437.173634
 20
34.044144
 30
0.0
 40
2.5
  1
175
 41
1.286697771428573
 72
     5
 11
444.679371
 21
34.044144
 31
0.0
100
AcDbText
  0
LINE
  5
249
330
24F
100
AcDbEntity
  8
2
 62
    34
370
    13
390
F
100
AcDbLine
 10
397.176502
 20
87.870499
 30
0.0
 11
397.176502
 21
30.044144
 31
0.0
  0
LINE
  5
24A
330
24F
100
AcDbEntity
  8
2
 62
    34
370
    13
390
F
100
AcDbLine
 10
484.676502
 20
83.645508
 30
0.0
 11
484.676502
 21
30.044144
 31
0.0
  0
LWPOLYLINE
  5
24B
330
24F
100
AcDbEntity
  8
2
 62
    34
370
    13
390
F
100
AcDbPolyline
 90
        3
 70
     0
 43
0.0
 10
399.108356
 20
32.561783
 10
397.176502
 20
32.044144
 10
399.108356
 20
31.526505
  0
LWPOLYLINE
  5
24C
330
24F
100
AcDbEntity
  8
2
 62
    34
370
    13
390
F
100
AcDbPolyline
 90
        3
 70
     0
 43
0.0
 10
482.744648
 20
31.526505
 10
484.676502
 20
32.044144
 10
482.744648
 20
32.561783
  0
LINE
  5
24D
330
24F
100
AcDbEntity
  8
2
 62
    34
370
    13
390
F
100
AcDbLine
 10
397.176502
 20
32.044144
 30
0.0
 11
484.676502
 21
32.044144
 31
0.0
  0
ENDBLK
  5
6CD
330
24F
100
AcDbEntity
  8
0
100
AcDbBlockEnd
  0
BLOCK
  5
6CE
330
258
100
AcDbEntity
  8
0
100
AcDbBlockBegin
  2
*D35
 70
     1
 10
0.0
 20
0.0
 30
0.0
  3
*D35
  1

  0
TEXT
  5
251
330
258
100
AcDbEntity
  8
2
 62
    34
370
    13
390
F
100
AcDbText
 10
489.757923
 20
43.868881
 30
0.0
 40
2.5
  1
30
 41
1.289908799999997
 72
     5
 11
494.595081
 21
43.868881
 31
0.0
100
AcDbText
  0
LINE
  5
252
330
258
100
AcDbEntity
  8
2
 62
    34
370
    13
390
F
100
AcDbLine
 10
484.676502
 20
83.645508
 30
0.0
 11
484.676502
 21
39.868881
 31
0.0
  0
LINE
  5
253
330
258
100
AcDbEntity
  8
2
 62
    34
370
    13
390
F
100
AcDbLine
 10
499.676502
 20
83.645508
 30
0.0
 11
499.676502
 21
39.868881
 31
0.0
  0
LWPOLYLINE
  5
254
330
258
100
AcDbEntity
  8
2
 62
    34
370
    13
390
F
100
AcDbPolyline
 90
        3
 70
     0
 43
0.0
 10
486.608356
 20
42.38652
 10
484.676502
 20
41.868881
 10
486.608356
 20
41.351242
  0
LWPOLYLINE
  5
255
330
258
100
AcDbEntity
  8
2
 62
    34
370
    13
390
F
100
AcDbPolyline
 90
        3
 70
     0
 43
0.0
 10
497.744648
 20
41.351242
 10
499.676502
 20
41.868881
 10
497.744648
 20
42.38652
  0
LINE
  5
256
330
258
100
AcDbEntity
  8
2
 62
    34
 48
0.375
370
    13
390
F
100
AcDbLine
 10
484.676502
 20
41.868881
 30
0.0
 11
499.676502
 21
41.868881
 31
0.0
  0
ENDBLK
  5
6CF
330
258
100
AcDbEntity
  8
0
100
AcDbBlockEnd
  0
BLOCK
  5
6D0
330
261
100
AcDbEntity
  8
0
100
AcDbBlockBegin
  2
*D36
 70
     1
 10
0.0
 20
0.0
 30
0.0
  3
*D36
  1

  0
TEXT
  5
25A
330
261
100
AcDbEntity
  8
2
 62
    34
370
    13
390
F
100
AcDbText
 10
507.02776
 20
34.163483
 30
0.0
 40
2.5
  1
5
 41
1.301147400000014
 72
     5
 11
509.196339
 21
34.163483
 31
0.0
100
AcDbText
  0
LINE
  5
25B
330
261
100
AcDbEntity
  8
2
 62
    34
370
    13
390
F
100
AcDbLine
 10
499.676502
 20
83.645508
 30
0.0
 11
499.676502
 21
30.163483
 31
0.0
  0
LINE
  5
25C
330
261
100
AcDbEntity
  8
2
 62
    34
370
    13
390
F
100
AcDbLine
 10
502.176502
 20
83.645508
 30
0.0
 11
502.176502
 21
30.163483
 31
0.0
  0
LWPOLYLINE
  5
25D
330
261
100
AcDbEntity
  8
2
 62
    34
370
    13
390
F
100
AcDbPolyline
 90
        3
 70
     0
 43
0.0
 10
497.744648
 20
31.645844
 10
499.676502
 20
32.163483
 10
497.744648
 20
32.681122
  0
LWPOLYLINE
  5
25E
330
261
100
AcDbEntity
  8
2
 62
    34
370
    13
390
F
100
AcDbPolyline
 90
        3
 70
     0
 43
0.0
 10
504.108356
 20
32.681122
 10
502.176502
 20
32.163483
 10
504.108356
 20
31.645844
  0
LINE
  5
25F
330
261
100
AcDbEntity
  8
2
 62
    34
 48
0.362996
370
    13
390
F
100
AcDbLine
 10
494.676502
 20
32.163483
 30
0.0
 11
509.196339
 21
32.163483
 31
0.0
  0
ENDBLK
  5
6D1
330
261
100
AcDbEntity
  8
0
100
AcDbBlockEnd
  0
BLOCK
  5
6D2
330
26A
100
AcDbEntity
  8
0
100
AcDbBlockBegin
  2
*D37
 70
     1
 10
0.0
 20
0.0
 30
0.0
  3
*D37
  1

  0
TEXT
  5
263
330
26A
100
AcDbEntity
  8
2
 62
    34
370
    13
390
F
100
AcDbText
 10
521.022907
 20
34.900536
 30
0.0
 40
2.5
  1
5
 41
1.301147400000014
 72
     5
 11
523.191486
 21
34.900536
 31
0.0
100
AcDbText
  0
LINE
  5
264
330
26A
100
AcDbEntity
  8
2
 62
    34
370
    13
390
F
100
AcDbLine
 10
529.676502
 20
83.645508
 30
0.0
 11
529.676502
 21
30.900536
 31
0.0
  0
LINE
  5
265
330
26A
100
AcDbEntity
  8
2
 62
    34
370
    13
390
F
100
AcDbLine
 10
532.176502
 20
83.645508
 30
0.0
 11
532.176502
 21
30.900536
 31
0.0
  0
LWPOLYLINE
  5
266
330
26A
100
AcDbEntity
  8
2
 62
    34
370
    13
390
F
100
AcDbPolyline
 90
        3
 70
     0
 43
0.0
 10
534.108356
 20
33.418175
 10
532.176502
 20
32.900536
 10
534.108356
 20
32.382896
  0
LWPOLYLINE
  5
267
330
26A
100
AcDbEntity
  8
2
 62
    34
370
    13
390
F
100
AcDbPolyline
 90
        3
 70
     0
 43
0.0
 10
527.744648
 20
32.382896
 10
529.676502
 20
32.900536
 10
527.744648
 20
33.418175
  0
LINE
  5
268
330
26A
100
AcDbEntity
  8
2
 62
    34
 48
0.40384
370
    13
390
F
100
AcDbLine
 10
521.022907
 20
32.900536
 30
0.0
 11
537.176502
 21
32.900536
 31
0.0
  0
ENDBLK
  5
6D3
330
26A
100
AcDbEntity
  8
0
100
AcDbBlockEnd
  0
BLOCK
  5
6D4
330
273
100
AcDbEntity
  8
0
100
AcDbBlockBegin
  2
*D38
 70
     1
 10
0.0
 20
0.0
 30
0.0
  3
*D38
  1

  0
TEXT
  5
26C
330
273
100
AcDbEntity
  8
2
 62
    34
370
    13
390
F
100
AcDbText
 10
513.507923
 20
139.785446
 30
0.0
 40
2.5
  1
55
 41
1.160917920000011
 72
     5
 11
518.345081
 21
139.785446
 31
0.0
100
AcDbText
  0
LINE
  5
26D
330
273
100
AcDbEntity
  8
2
 62
    34
370
    13
390
F
100
AcDbLine
 10
502.176502
 20
96.095505
 30
0.0
 11
502.176502
 21
139.785446
 31
0.0
  0
LINE
  5
26E
330
273
100
AcDbEntity
  8
2
 62
    34
370
    13
390
F
100
AcDbLine
 10
529.676502
 20
96.095505
 30
0.0
 11
529.676502
 21
139.785446
 31
0.0
  0
LWPOLYLINE
  5
26F
330
273
100
AcDbEntity
  8
2
 62
    34
370
    13
390
F
100
AcDbPolyline
 90
        3
 70
     0
 43
0.0
 10
504.108356
 20
138.303085
 10
502.176502
 20
137.785446
 10
504.108356
 20
137.267807
  0
LWPOLYLINE
  5
270
330
273
100
AcDbEntity
  8
2
 62
    34
370
    13
390
F
100
AcDbPolyline
 90
        3
 70
     0
 43
0.0
 10
527.744648
 20
137.267807
 10
529.676502
 20
137.785446
 10
527.744648
 20
138.303085
  0
LINE
  5
271
330
273
100
AcDbEntity
  8
2
 62
    34
370
    13
390
F
100
AcDbLine
 10
502.176502
 20
137.785446
 30
0.0
 11
529.676502
 21
137.785446
 31
0.0
  0
ENDBLK
  5
6D5
330
273
100
AcDbEntity
  8
0
100
AcDbBlockEnd
  0
BLOCK
  5
6D6
330
27C
100
AcDbEntity
  8
0
100
AcDbBlockBegin
  2
*D39
 70
     1
 10
0.0
 20
0.0
 30
0.0
  3
*D39
  1

  0
TEXT
  5
275
330
27C
100
AcDbEntity
  8
2
 62
    34
370
    13
390
F
100
AcDbText
 10
555.923634
 20
139.970367
 30
0.0
 40
2.5
  1
110
 41
1.637615345454535
 72
     5
 11
563.429371
 21
139.970367
 31
0.0
100
AcDbText
  0
LINE
  5
276
330
27C
100
AcDbEntity
  8
2
 62
    34
370
    13
390
F
100
AcDbLine
 10
532.176502
 20
96.095505
 30
0.0
 11
532.176502
 21
139.970367
 31
0.0
  0
LINE
  5
277
330
27C
100
AcDbEntity
  8
2
 62
    34
370
    13
390
F
100
AcDbLine
 10
587.176502
 20
96.095505
 30
0.0
 11
587.176502
 21
139.970367
 31
0.0
  0
LWPOLYLINE
  5
278
330
27C
100
AcDbEntity
  8
2
 62
    34
370
    13
390
F
100
AcDbPolyline
 90
        3
 70
     0
 43
0.0
 10
534.108356
 20
138.488007
 10
532.176502
 20
137.970367
 10
534.108356
 20
137.452728
  0
LWPOLYLINE
  5
279
330
27C
100
AcDbEntity
  8
2
 62
    34
370
    13
390
F
100
AcDbPolyline
 90
        3
 70
     0
 43
0.0
 10
585.244678
 20
137.452728
 10
587.176502
 20
137.970367
 10
585.244678
 20
138.488007
  0
LINE
  5
27A
330
27C
100
AcDbEntity
  8
2
 62
    34
370
    13
390
F
100
AcDbLine
 10
532.176502
 20
137.970367
 30
0.0
 11
587.176502
 21
137.970367
 31
0.0
  0
ENDBLK
  5
6D7
330
27C
100
AcDbEntity
  8
0
100
AcDbBlockEnd
  0
BLOCK
  5
6D8
330
285
100
AcDbEntity
  8
0
100
AcDbBlockBegin
  2
*D40
 70
     1
 10
0.0
 20
0.0
 30
0.0
  3
*D40
  1

  0
TEXT
  5
27E
330
285
100
AcDbEntity
  8
2
 62
    34
370
    13
390
F
100
AcDbText
 10
601.007923
 20
139.785446
 30
0.0
 40
2.5
  1
55
 41
1.160917920000011
 72
     5
 11
605.845081
 21
139.785446
 31
0.0
100
AcDbText
  0
LINE
  5
27F
330
285
100
AcDbEntity
  8
2
 62
    34
370
    13
390
F
100
AcDbLine
 10
589.676502
 20
96.095505
 30
0.0
 11
589.676502
 21
139.785446
 31
0.0
  0
LINE
  5
280
330
285
100
AcDbEntity
  8
2
 62
    34
370
    13
390
F
100
AcDbLine
 10
617.176502
 20
96.095505
 30
0.0
 11
617.176502
 21
139.785446
 31
0.0
  0
LWPOLYLINE
  5
281
330
285
100
AcDbEntity
  8
2
 62
    34
370
    13
390
F
100
AcDbPolyline
 90
        3
 70
     0
 43
0.0
 10
591.608326
 20
138.303085
 10
589.676502
 20
137.785446
 10
591.608326
 20
137.267807
  0
LWPOLYLINE
  5
282
330
285
100
AcDbEntity
  8
2
 62
    34
370
    13
390
F
100
AcDbPolyline
 90
        3
 70
     0
 43
0.0
 10
615.244678
 20
137.267807
 10
617.176502
 20
137.785446
 10
615.244678
 20
138.303085
  0
LINE
  5
283
330
285
100
AcDbEntity
  8
2
 62
    34
370
    13
390
F
100
AcDbLine
 10
589.676502
 20
137.785446
 30
0.0
 11
617.176502
 21
137.785446
 31
0.0
  0
ENDBLK
  5
6D9
330
285
100
AcDbEntity
  8
0
100
AcDbBlockEnd
  0
BLOCK
  5
6DA
330
28E
100
AcDbEntity
  8
0
100
AcDbBlockBegin
  2
*D41
 70
     1
 10
0.0
 20
0.0
 30
0.0
  3
*D41
  1

  0
TEXT
  5
287
330
28E
100
AcDbEntity
  8
2
 62
    34
370
    13
390
F
100
AcDbText
 10
624.757923
 20
140.525131
 30
0.0
 40
2.5
  1
30
 41
1.289908800000012
 72
     5
 11
629.595081
 21
140.525131
 31
0.0
100
AcDbText
  0
LINE
  5
288
330
28E
100
AcDbEntity
  8
2
 62
    34
370
    13
390
F
100
AcDbLine
 10
619.676502
 20
96.095505
 30
0.0
 11
619.676502
 21
140.525131
 31
0.0
  0
LINE
  5
289
330
28E
100
AcDbEntity
  8
2
 62
    34
370
    13
390
F
100
AcDbLine
 10
634.676502
 20
96.095505
 30
0.0
 11
634.676502
 21
140.525131
 31
0.0
  0
LWPOLYLINE
  5
28A
330
28E
100
AcDbEntity
  8
2
 62
    34
370
    13
390
F
100
AcDbPolyline
 90
        3
 70
     0
 43
0.0
 10
621.608326
 20
139.04277
 10
619.676502
 20
138.525131
 10
621.608326
 20
138.007492
  0
LWPOLYLINE
  5
28B
330
28E
100
AcDbEntity
  8
2
 62
    34
370
    13
390
F
100
AcDbPolyline
 90
        3
 70
     0
 43
0.0
 10
632.744678
 20
138.007492
 10
634.676502
 20
138.525131
 10
632.744678
 20
139.04277
  0
LINE
  5
28C
330
28E
100
AcDbEntity
  8
2
 62
    34
 48
0.375
370
    13
390
F
100
AcDbLine
 10
619.676502
 20
138.525131
 30
0.0
 11
634.676502
 21
138.525131
 31
0.0
  0
ENDBLK
  5
6DB
330
28E
100
AcDbEntity
  8
0
100
AcDbBlockEnd
  0
BLOCK
  5
6DC
330
297
100
AcDbEntity
  8
0
100
AcDbBlockBegin
  2
*D42
 70
     1
 10
0.0
 20
0.0
 30
0.0
  3
*D42
  1

  0
TEXT
  5
290
330
297
100
AcDbEntity
  8
2
 62
    34
370
    13
390
F
100
AcDbText
 10
594.89336
 20
36.598709
 30
0.0
 40
2.5
  1
5
 41
1.301147400000014
 72
     5
 11
597.061939
 21
36.598709
 31
0.0
100
AcDbText
  0
LINE
  5
291
330
297
100
AcDbEntity
  8
2
 62
    34
370
    13
390
F
100
AcDbLine
 10
587.176502
 20
83.645508
 30
0.0
 11
587.176502
 21
32.598701
 31
0.0
  0
LINE
  5
292
330
297
100
AcDbEntity
  8
2
 62
    34
370
    13
390
F
100
AcDbLine
 10
589.676502
 20
83.645508
 30
0.0
 11
589.676502
 21
32.598701
 31
0.0
  0
LWPOLYLINE
  5
293
330
297
100
AcDbEntity
  8
2
 62
    34
370
    13
390
F
100
AcDbPolyline
 90
        3
 70
     0
 43
0.0
 10
585.244678
 20
34.081062
 10
587.176502
 20
34.598701
 10
585.244678
 20
35.116341
  0
LWPOLYLINE
  5
294
330
297
100
AcDbEntity
  8
2
 62
    34
370
    13
390
F
100
AcDbPolyline
 90
        3
 70
     0
 43
0.0
 10
591.608326
 20
35.116341
 10
589.676502
 20
34.598701
 10
591.608326
 20
34.081062
  0
LINE
  5
295
330
297
100
AcDbEntity
  8
2
 62
    34
 48
0.372136
370
    13
390
F
100
AcDbLine
 10
582.176502
 20
34.598701
 30
0.0
 11
597.061939
 21
34.598701
 31
0.0
  0
ENDBLK
  5
6DD
330
297
100
AcDbEntity
  8
0
100
AcDbBlockEnd
  0
BLOCK
  5
6DE
330
2A0
100
AcDbEntity
  8
0
100
AcDbBlockBegin
  2
*D43
 70
     1
 10
0.0
 20
0.0
 30
0.0
  3
*D43
  1

  0
TEXT
  5
299
330
2A0
100
AcDbEntity
  8
2
 62
    34
370
    13
390
F
100
AcDbText
 10
613.204762
 20
34.009789
 30
0.0
 40
2.5
  1
5
 41
1.301147400000014
 72
     5
 11
615.373341
 21
34.009789
 31
0.0
100
AcDbText
  0
LINE
  5
29A
330
2A0
100
AcDbEntity
  8
2
 62
    34
370
    13
390
F
100
AcDbLine
 10
617.176502
 20
83.645508
 30
0.0
 11
617.176502
 21
30.009789
 31
0.0
  0
LINE
  5
29B
330
2A0
100
AcDbEntity
  8
2
 62
    34
370
    13
390
F
100
AcDbLine
 10
619.676502
 20
83.645508
 30
0.0
 11
619.676502
 21
30.009789
 31
0.0
  0
LWPOLYLINE
  5
29C
330
2A0
100
AcDbEntity
  8
2
 62
    34
370
    13
390
F
100
AcDbPolyline
 90
        3
 70
     0
 43
0.0
 10
615.244678
 20
31.492149
 10
617.176502
 20
32.009789
 10
615.244678
 20
32.527428
  0
LWPOLYLINE
  5
29D
330
2A0
100
AcDbEntity
  8
2
 62
    34
370
    13
390
F
100
AcDbPolyline
 90
        3
 70
     0
 43
0.0
 10
621.608326
 20
32.527428
 10
619.676502
 20
32.009789
 10
621.608326
 20
31.492149
  0
LINE
  5
29E
330
2A0
100
AcDbEntity
  8
2
 62
    34
 48
0.3125
370
    13
390
F
100
AcDbLine
 10
612.176502
 20
32.009789
 30
0.0
 11
624.676502
 21
32.009789
 31
0.0
  0
ENDBLK
  5
6DF
330
2A0
100
AcDbEntity
  8
0
100
AcDbBlockEnd
  0
BLOCK
  5
6E0
330
2A9
100
AcDbEntity
  8
0
100
AcDbBlockBegin
  2
*D44
 70
     1
 10
0.0
 20
0.0
 30
0.0
  3
*D44
  1

  0
TEXT
  5
2A2
330
2A9
100
AcDbEntity
  8
2
 62
    34
370
    13
390
F
100
AcDbText
 10
91.652699
 20
86.117615
 30
0.0
 40
2.5
  1
100
 50
90.0
 41
1.501153600000001
 72
     5
 11
91.652699
 21
93.623383
 31
0.0
100
AcDbText
  0
LINE
  5
2A3
330
2A9
100
AcDbEntity
  8
2
 62
    34
370
    13
390
F
100
AcDbLine
 10
120.176502
 20
64.870499
 30
0.0
 11
91.652699
 21
64.870499
 31
0.0
  0
LINE
  5
2A4
330
2A9
100
AcDbEntity
  8
2
 62
    34
370
    13
390
F
100
AcDbLine
 10
120.176502
 20
114.870499
 30
0.0
 11
91.652699
 21
114.870499
 31
0.0
  0
LWPOLYLINE
  5
2A5
330
2A9
100
AcDbEntity
  8
2
 62
    34
370
    13
390
F
100
AcDbPolyline
 90
        3
 70
     0
 43
0.0
 10
93.135059
 20
66.802353
 10
93.652699
 20
64.870499
 10
94.170338
 20
66.802353
  0
LWPOLYLINE
  5
2A6
330
2A9
100
AcDbEntity
  8
2
 62
    34
370
    13
390
F
100
AcDbPolyline
 90
        3
 70
     0
 43
0.0
 10
94.170338
 20
112.93866
 10
93.652699
 20
114.870499
 10
93.135059
 20
112.93866
  0
LINE
  5
2A7
330
2A9
100
AcDbEntity
  8
2
 62
    34
370
    13
390
F
100
AcDbLine
 10
93.652699
 20
64.870499
 30
0.0
 11
93.652699
 21
114.870499
 31
0.0
  0
ENDBLK
  5
6E1
330
2A9
100
AcDbEntity
  8
0
100
AcDbBlockEnd
  0
BLOCK
  5
6E2
330
2B2
100
AcDbEntity
  8
0
100
AcDbBlockBegin
  2
*D45
 70
     1
 10
0.0
 20
0.0
 30
0.0
  3
*D45
  1

  0
TEXT
  5
2AB
330
2B2
100
AcDbEntity
  8
0
 62
    34
370
    13
390
F
100
AcDbText
 10
696.371387
 20
335.45694
 30
0.0
 40
2.5
  1
360
 50
90.0
 41
1.200917920000002
 72
     5
 11
696.371387
 21
342.962677
 31
0.0
100
AcDbText
  0
LINE
  5
2AC
330
2B2
100
AcDbEntity
  8
0
 62
    34
370
    13
390
F
100
AcDbLine
 10
421.676502
 20
248.209808
 30
0.0
 11
700.371387
 21
248.209808
 31
0.0
  0
LINE
  5
2AD
330
2B2
100
AcDbEntity
  8
0
 62
    34
370
    13
390
F
100
AcDbLine
 10
674.176502
 20
430.209778
 30
0.0
 11
700.371387
 21
430.209778
 31
0.0
  0
LWPOLYLINE
  5
2AE
330
2B2
100
AcDbEntity
  8
0
 62
    34
370
    13
390
F
100
AcDbPolyline
 90
        3
 70
     0
 43
0.0
 10
697.853748
 20
250.141663
 10
698.371387
 20
248.209808
 10
698.889027
 20
250.141663
  0
LWPOLYLINE
  5
2AF
330
2B2
100
AcDbEntity
  8
0
 62
    34
370
    13
390
F
100
AcDbPolyline
 90
        3
 70
     0
 43
0.0
 10
698.889027
 20
428.277954
 10
698.371387
 20
430.209778
 10
697.853748
 20
428.277954
  0
LINE
  5
2B0
330
2B2
100
AcDbEntity
  8
0
 62
    34
370
    13
390
F
100
AcDbLine
 10
698.371387
 20
248.209808
 30
0.0
 11
698.371387
 21
430.209778
 31
0.0
  0
ENDBLK
  5
6E3
330
2B2
100
AcDbEntity
  8
0
100
AcDbBlockEnd
  0
BLOCK
  5
6E4
330
2BC
100
AcDbEntity
  8
0
100
AcDbBlockBegin
  2
*D46
 70
     1
 10
0.0
 20
0.0
 30
0.0
  3
*D46
  1

  0
TEXT
  5
2B4
330
2BC
100
AcDbEntity
  8
0
 62
    34
370
    13
390
F
100
AcDbText
 10
393.007923
 20
213.681671
 30
0.0
 40
2.5
  1
%%c
 41
1.5
 72
     5
 11
395.507923
 21
213.681671
 31
0.0
100
AcDbText
  0
TEXT
  5
2B5
330
2BC
100
AcDbEntity
  8
0
 62
    34
370
    13
390
F
100
AcDbText
 10
396.507923
 20
213.681671
 30
0.0
 40
2.5
  1
90
 41
1.289908799999997
 72
     5
 11
401.345081
 21
213.681671
 31
0.0
100
AcDbText
  0
LINE
  5
2B6
330
2BC
100
AcDbEntity
  8
0
 62
    34
370
    13
390
F
100
AcDbLine
 10
374.676502
 20
246.209808
 30
0.0
 11
374.676502
 21
209.681671
 31
0.0
  0
LINE
  5
2B7
330
2BC
100
AcDbEntity
  8
0
 62
    34
370
    13
390
F
100
AcDbLine
 10
419.676502
 20
246.209808
 30
0.0
 11
419.676502
 21
209.681671
 31
0.0
  0
LWPOLYLINE
  5
2B8
330
2BC
100
AcDbEntity
  8
0
 62
    34
370
    13
390
F
100
AcDbPolyline
 90
        3
 70
     0
 43
0.0
 10
417.744648
 20
211.164032
 10
419.676502
 20
211.681671
 10
417.744648
 20
212.19931
  0
LWPOLYLINE
  5
2B9
330
2BC
100
AcDbEntity
  8
0
 62
    34
370
    13
390
F
100
AcDbPolyline
 90
        3
 70
     0
 43
0.0
 10
376.608356
 20
212.19931
 10
374.676502
 20
211.681671
 10
376.608356
 20
211.164032
  0
LINE
  5
2BA
330
2BC
100
AcDbEntity
  8
0
 62
    34
370
    13
390
F
100
AcDbLine
 10
374.676502
 20
211.681671
 30
0.0
 11
419.676502
 21
211.681671
 31
0.0
  0
ENDBLK
  5
6E5
330
2BC
100
AcDbEntity
  8
0
100
AcDbBlockEnd
  0
BLOCK
  5
6E6
330
300
100
AcDbEntity
  8
0
100
AcDbBlockBegin
  2
*D47
 70
     1
 10
0.0
 20
0.0
 30
0.0
  3
*D47
  1

  0
POINT
  5
2F6
330
300
100
AcDbEntity
  8
DEFPOINTS
  6
ByBlock
 62
     0
380
     1
100
AcDbPoint
 10
999.353006
 20
843.869614
 30
0.0
  0
POINT
  5
2F7
330
300
100
AcDbEntity
  8
DEFPOINTS
  6
ByBlock
 62
     0
380
     1
100
AcDbPoint
 10
794.353006
 20
841.81961
 30
0.0
  0
LINE
  5
2F8
330
300
100
AcDbEntity
  8
0
  6
ByBlock
 62
     0
370
    -2
380
     1
100
AcDbLine
 10
999.3530065203263
 20
843.932114
 30
0.0
 11
999.3535293513909
 21
906.7329806508924
 31
0.0
  0
LINE
  5
2F9
330
300
100
AcDbEntity
  8
0
  6
ByBlock
 62
     0
370
    -2
380
     1
100
AcDbLine
 10
794.3530065203263
 20
841.88211
 30
0.0
 11
794.353546446543
 21
906.7363939910263
 31
0.0
  0
LINE
  5
2FA
330
300
100
AcDbEntity
  8
0
  6
ByBlock
 62
     0
370
    -2
380
     1
100
AcDbLine
 10
999.1735278528761
 20
906.5529836479718
 30
0.0
 11
897.3630059715125
 21
906.5546788380663
 31
0.0
  0
LINE
  5
2FB
330
300
100
AcDbEntity
  8
0
  6
ByBlock
 62
     0
370
    -2
380
     1
100
AcDbLine
 10
794.5335449479784
 20
906.5563909939468
 30
0.0
 11
896.343005971654
 21
906.5546958215161
 31
0.0
  0
SOLID
  5
2FC
330
300
100
AcDbEntity
  8
0
  6
ByBlock
 62
     0
380
     1
100
AcDbTrace
 10
999.3535278528511
 20
906.5529806508924
 30
0.0
 11
999.1735283523893
 21
906.5829836479676
 31
0.0
 12
999.1735273533628
 22
906.5229836479759
 32
0.0
 13
999.1735273533628
 23
906.5229836479759
 33
0.0
  0
SOLID
  5
2FD
330
300
100
AcDbEntity
  8
0
  6
ByBlock
 62
     0
380
     1
100
AcDbTrace
 10
794.3535449480033
 20
906.5563939910262
 30
0.0
 11
794.5335454474916
 21
906.5863909939427
 31
0.0
 12
794.5335444484651
 22
906.526390993951
 32
0.0
 13
794.5335444484651
 23
906.526390993951
 33
0.0
  0
MTEXT
  5
2FE
330
300
100
AcDbEntity
  8
0
  6
ByBlock
 62
     0
370
    -2
380
     1
100
AcDbMText
 10
896.8530059715832
 20
906.5546873297911
 30
0.0
 40
0.18
 41
0.0
 71
     5
 72
     1
  1
205,00
 73
     1
 44
1.0
  0
ENDBLK
  5
6E7
330
300
100
AcDbEntity
  8
0
100
AcDbBlockEnd
  0
BLOCK
  5
6E8
330
30D
100
AcDbEntity
  8
0
100
AcDbBlockBegin
  2
*D48
 70
     1
 10
0.0
 20
0.0
 30
0.0
  3
*D48
  1

  0
POINT
  5
303
330
30D
100
AcDbEntity
  8
DEFPOINTS
  6
ByBlock
 62
     0
380
     1
100
AcDbPoint
 10
999.353006
 20
826.969614
 30
0.0
  0
POINT
  5
304
330
30D
100
AcDbEntity
  8
DEFPOINTS
  6
ByBlock
 62
     0
380
     1
100
AcDbPoint
 10
1004.353006
 20
826.969614
 30
0.0
  0
LINE
  5
305
330
30D
100
AcDbEntity
  8
0
  6
ByBlock
 62
     0
370
    -2
380
     1
100
AcDbLine
 10
999.3530065203263
 20
826.907114
 30
0.0
 11
999.353655478643
 21
748.956228
 31
0.0
  0
LINE
  5
306
330
30D
100
AcDbEntity
  8
0
  6
ByBlock
 62
     0
370
    -2
380
     1
100
AcDbLine
 10
1004.353006520326
 20
826.907114
 30
0.0
 11
1004.353655478643
 21
748.956228
 31
0.0
  0
LINE
  5
307
330
30D
100
AcDbEntity
  8
0
  6
ByBlock
 62
     0
370
    -2
380
     1
100
AcDbLine
 10
999.533655478643
 20
749.136228
 30
0.0
 11
1004.173653980103
 21
749.136228
 31
0.0
  0
LINE
  5
308
330
30D
100
AcDbEntity
  8
0
  6
ByBlock
 62
     0
370
    -2
380
     1
100
AcDbLine
 10
999.3530065203263
 20
749.136228
 30
0.0
 11
959.9591740000001
 21
749.136228
 31
0.0
  0
SOLID
  5
309
330
30D
100
AcDbEntity
  8
0
  6
ByBlock
 62
     0
380
     1
100
AcDbTrace
 10
999.3536539801033
 20
749.136228
 30
0.0
 11
999.5336539801033
 21
749.106228
 31
0.0
 12
999.5336539801033
 22
749.1662279999999
 32
0.0
 13
999.5336539801033
 23
749.1662279999999
 33
0.0
  0
SOLID
  5
30A
330
30D
100
AcDbEntity
  8
0
  6
ByBlock
 62
     0
380
     1
100
AcDbTrace
 10
1004.353653980103
 20
749.136228
 30
0.0
 11
1004.173653980103
 21
749.106228
 31
0.0
 12
1004.173653980103
 22
749.1662279999999
 32
0.0
 13
1004.173653980103
 23
749.1662279999999
 33
0.0
  0
MTEXT
  5
30B
330
30D
100
AcDbEntity
  8
0
  6
ByBlock
 62
     0
370
    -2
380
     1
100
AcDbMText
 10
959.614174
 20
749.136228
 30
0.0
 40
0.18
 41
0.0
 71
     5
 72
     1
  1
5,00
 73
     1
 44
1.0
  0
ENDBLK
  5
6E9
330
30D
100
AcDbEntity
  8
0
100
AcDbBlockEnd
  0
BLOCK
  5
6EA
330
31A
100
AcDbEntity
  8
0
100
AcDbBlockBegin
  2
*D49
 70
     1
 10
0.0
 20
0.0
 30
0.0
  3
*D49
  1

  0
POINT
  5
310
330
31A
100
AcDbEntity
  8
DEFPOINTS
  6
ByBlock
 62
     0
380
     1
100
AcDbPoint
 10
1059.353006
 20
826.969614
 30
0.0
  0
POINT
  5
311
330
31A
100
AcDbEntity
  8
DEFPOINTS
  6
ByBlock
 62
     0
380
     1
100
AcDbPoint
 10
1064.353006
 20
826.969614
 30
0.0
  0
LINE
  5
312
330
31A
100
AcDbEntity
  8
0
  6
ByBlock
 62
     0
370
    -2
380
     1
100
AcDbLine
 10
1059.353006520326
 20
826.907114
 30
0.0
 11
1059.353663887715
 21
747.946156
 31
0.0
  0
LINE
  5
313
330
31A
100
AcDbEntity
  8
0
  6
ByBlock
 62
     0
370
    -2
380
     1
100
AcDbLine
 10
1064.353006520326
 20
826.907114
 30
0.0
 11
1064.353663887715
 21
747.946156
 31
0.0
  0
LINE
  5
314
330
31A
100
AcDbEntity
  8
0
  6
ByBlock
 62
     0
370
    -2
380
     1
100
AcDbLine
 10
1059.533663887715
 20
748.126156
 30
0.0
 11
1064.173662389175
 21
748.126156
 31
0.0
  0
LINE
  5
315
330
31A
100
AcDbEntity
  8
0
  6
ByBlock
 62
     0
370
    -2
380
     1
100
AcDbLine
 10
1059.353006520326
 20
748.126156
 30
0.0
 11
1039.234502
 21
748.126156
 31
0.0
  0
SOLID
  5
316
330
31A
100
AcDbEntity
  8
0
  6
ByBlock
 62
     0
380
     1
100
AcDbTrace
 10
1059.353662389175
 20
748.126156
 30
0.0
 11
1059.533662389175
 21
748.0961560000001
 31
0.0
 12
1059.533662389175
 22
748.156156
 32
0.0
 13
1059.533662389175
 23
748.156156
 33
0.0
  0
SOLID
  5
317
330
31A
100
AcDbEntity
  8
0
  6
ByBlock
 62
     0
380
     1
100
AcDbTrace
 10
1064.353662389175
 20
748.126156
 30
0.0
 11
1064.173662389175
 21
748.0961560000001
 31
0.0
 12
1064.173662389175
 22
748.156156
 32
0.0
 13
1064.173662389175
 23
748.156156
 33
0.0
  0
MTEXT
  5
318
330
31A
100
AcDbEntity
  8
0
  6
ByBlock
 62
     0
370
    -2
380
     1
100
AcDbMText
 10
1038.889502
 20
748.126156
 30
0.0
 40
0.18
 41
0.0
 71
     5
 72
     1
  1
5,00
 73
     1
 44
1.0
  0
ENDBLK
  5
6EB
330
31A
100
AcDbEntity
  8
0
100
AcDbBlockEnd
  0
BLOCK
  5
6EC
330
327
100
AcDbEntity
  8
0
100
AcDbBlockBegin
  2
*D50
 70
     1
 10
0.0
 20
0.0
 30
0.0
  3
*D50
  1

  0
POINT
  5
31D
330
327
100
AcDbEntity
  8
DEFPOINTS
  6
ByBlock
 62
     0
380
     1
100
AcDbPoint
 10
1174.353006
 20
826.969614
 30
0.0
  0
POINT
  5
31E
330
327
100
AcDbEntity
  8
DEFPOINTS
  6
ByBlock
 62
     0
380
     1
100
AcDbPoint
 10
1179.353006
 20
826.969614
 30
0.0
  0
LINE
  5
31F
330
327
100
AcDbEntity
  8
0
  6
ByBlock
 62
     0
370
    -2
380
     1
100
AcDbLine
 10
1174.353006520326
 20
826.907114
 30
0.0
 11
1174.353672244938
 21
746.9423119999999
 31
0.0
  0
LINE
  5
320
330
327
100
AcDbEntity
  8
0
  6
ByBlock
 62
     0
370
    -2
380
     1
100
AcDbLine
 10
1179.353006520326
 20
826.907114
 30
0.0
 11
1179.353672244938
 21
746.9423119999999
 31
0.0
  0
LINE
  5
321
330
327
100
AcDbEntity
  8
0
  6
ByBlock
 62
     0
370
    -2
380
     1
100
AcDbLine
 10
1174.533672244938
 20
747.122312
 30
0.0
 11
1179.173670746398
 21
747.122312
 31
0.0
  0
LINE
  5
322
330
327
100
AcDbEntity
  8
0
  6
ByBlock
 62
     0
370
    -2
380
     1
100
AcDbLine
 10
1174.353006520326
 20
747.122312
 30
0.0
 11
1139.596688
 21
747.122312
 31
0.0
  0
SOLID
  5
323
330
327
100
AcDbEntity
  8
0
  6
ByBlock
 62
     0
380
     1
100
AcDbTrace
 10
1174.353670746398
 20
747.122312
 30
0.0
 11
1174.533670746398
 21
747.092312
 31
0.0
 12
1174.533670746398
 22
747.1523119999999
 32
0.0
 13
1174.533670746398
 23
747.1523119999999
 33
0.0
  0
SOLID
  5
324
330
327
100
AcDbEntity
  8
0
  6
ByBlock
 62
     0
380
     1
100
AcDbTrace
 10
1179.353670746398
 20
747.122312
 30
0.0
 11
1179.173670746398
 21
747.092312
 31
0.0
 12
1179.173670746398
 22
747.1523119999999
 32
0.0
 13
1179.173670746398
 23
747.1523119999999
 33
0.0
  0
MTEXT
  5
325
330
327
100
AcDbEntity
  8
0
  6
ByBlock
 62
     0
370
    -2
380
     1
100
AcDbMText
 10
1139.251688
 20
747.122312
 30
0.0
 40
0.18
 41
0.0
 71
     5
 72
     1
  1
5,00
 73
     1
 44
1.0
  0
ENDBLK
  5
6ED
330
327
100
AcDbEntity
  8
0
100
AcDbBlockEnd
  0
BLOCK
  5
6EE
330
334
100
AcDbEntity
  8
0
100
AcDbBlockBegin
  2
*D51
 70
     1
 10
0.0
 20
0.0
 30
0.0
  3
*D51
  1

  0
POINT
  5
32A
330
334
100
AcDbEntity
  8
DEFPOINTS
  6
ByBlock
 62
     0
380
     1
100
AcDbPoint
 10
1234.353006
 20
826.969614
 30
0.0
  0
POINT
  5
32B
330
334
100
AcDbEntity
  8
DEFPOINTS
  6
ByBlock
 62
     0
380
     1
100
AcDbPoint
 10
1239.353006
 20
826.969614
 30
0.0
  0
LINE
  5
32C
330
334
100
AcDbEntity
  8
0
  6
ByBlock
 62
     0
370
    -2
380
     1
100
AcDbLine
 10
1234.353006520326
 20
826.907114
 30
0.0
 11
1234.35367438417
 21
746.6853540000001
 31
0.0
  0
LINE
  5
32D
330
334
100
AcDbEntity
  8
0
  6
ByBlock
 62
     0
370
    -2
380
     1
100
AcDbLine
 10
1239.353006520326
 20
826.907114
 30
0.0
 11
1239.35367438417
 21
746.6853540000001
 31
0.0
  0
LINE
  5
32E
330
334
100
AcDbEntity
  8
0
  6
ByBlock
 62
     0
370
    -2
380
     1
100
AcDbLine
 10
1234.53367438417
 20
746.865354
 30
0.0
 11
1239.17367288563
 21
746.865354
 31
0.0
  0
LINE
  5
32F
330
334
100
AcDbEntity
  8
0
  6
ByBlock
 62
     0
370
    -2
380
     1
100
AcDbLine
 10
1234.353006520326
 20
746.865354
 30
0.0
 11
1216.95948
 21
746.865354
 31
0.0
  0
SOLID
  5
330
330
334
100
AcDbEntity
  8
0
  6
ByBlock
 62
     0
380
     1
100
AcDbTrace
 10
1234.35367288563
 20
746.865354
 30
0.0
 11
1234.53367288563
 21
746.835354
 31
0.0
 12
1234.53367288563
 22
746.895354
 32
0.0
 13
1234.53367288563
 23
746.895354
 33
0.0
  0
SOLID
  5
331
330
334
100
AcDbEntity
  8
0
  6
ByBlock
 62
     0
380
     1
100
AcDbTrace
 10
1239.35367288563
 20
746.865354
 30
0.0
 11
1239.17367288563
 21
746.835354
 31
0.0
 12
1239.17367288563
 22
746.895354
 32
0.0
 13
1239.17367288563
 23
746.895354
 33
0.0
  0
MTEXT
  5
332
330
334
100
AcDbEntity
  8
0
  6
ByBlock
 62
     0
370
    -2
380
     1
100
AcDbMText
 10
1216.61448
 20
746.865354
 30
0.0
 40
0.18
 41
0.0
 71
     5
 72
     1
  1
5,00
 73
     1
 44
1.0
  0
ENDBLK
  5
6EF
330
334
100
AcDbEntity
  8
0
100
AcDbBlockEnd
  0
BLOCK
  5
6F0
330
341
100
AcDbEntity
  8
0
100
AcDbBlockBegin
  2
*D52
 70
     1
 10
0.0
 20
0.0
 30
0.0
  3
*D52
  1

  0
POINT
  5
337
330
341
100
AcDbEntity
  8
DEFPOINTS
  6
ByBlock
 62
     0
380
     1
100
AcDbPoint
 10
1059.353006
 20
843.869614
 30
0.0
  0
POINT
  5
338
330
341
100
AcDbEntity
  8
DEFPOINTS
  6
ByBlock
 62
     0
380
     1
100
AcDbPoint
 10
1004.353006
 20
843.869614
 30
0.0
  0
LINE
  5
339
330
341
100
AcDbEntity
  8
0
  6
ByBlock
 62
     0
370
    -2
380
     1
100
AcDbLine
 10
1059.353005479674
 20
843.932114
 30
0.0
 11
1059.352491136477
 21
905.713444
 31
0.0
  0
LINE
  5
33A
330
341
100
AcDbEntity
  8
0
  6
ByBlock
 62
     0
370
    -2
380
     1
100
AcDbLine
 10
1004.353005479674
 20
843.932114
 30
0.0
 11
1004.352491136477
 21
905.713444
 31
0.0
  0
LINE
  5
33B
330
341
100
AcDbEntity
  8
0
  6
ByBlock
 62
     0
370
    -2
380
     1
100
AcDbLine
 10
1059.172492635016
 20
905.533444
 30
0.0
 11
1032.288006
 21
905.533444
 31
0.0
  0
LINE
  5
33C
330
341
100
AcDbEntity
  8
0
  6
ByBlock
 62
     0
370
    -2
380
     1
100
AcDbLine
 10
1004.532492635016
 20
905.533444
 30
0.0
 11
1031.418006
 21
905.533444
 31
0.0
  0
SOLID
  5
33D
330
341
100
AcDbEntity
  8
0
  6
ByBlock
 62
     0
380
     1
100
AcDbTrace
 10
1059.352492635016
 20
905.533444
 30
0.0
 11
1059.172492635016
 21
905.563444
 31
0.0
 12
1059.172492635016
 22
905.5034440000001
 32
0.0
 13
1059.172492635016
 23
905.5034440000001
 33
0.0
  0
SOLID
  5
33E
330
341
100
AcDbEntity
  8
0
  6
ByBlock
 62
     0
380
     1
100
AcDbTrace
 10
1004.352492635016
 20
905.533444
 30
0.0
 11
1004.532492635016
 21
905.563444
 31
0.0
 12
1004.532492635016
 22
905.5034440000001
 32
0.0
 13
1004.532492635016
 23
905.5034440000001
 33
0.0
  0
MTEXT
  5
33F
330
341
100
AcDbEntity
  8
0
  6
ByBlock
 62
     0
370
    -2
380
     1
100
AcDbMText
 10
1031.853006
 20
905.533444
 30
0.0
 40
0.18
 41
0.0
 71
     5
 72
     1
  1
55,00
 73
     1
 44
1.0
  0
ENDBLK
  5
6F1
330
341
100
AcDbEntity
  8
0
100
AcDbBlockEnd
  0
BLOCK
  5
6F2
330
34E
100
AcDbEntity
  8
0
100
AcDbBlockBegin
  2
*D53
 70
     1
 10
0.0
 20
0.0
 30
0.0
  3
*D53
  1

  0
POINT
  5
344
330
34E
100
AcDbEntity
  8
DEFPOINTS
  6
ByBlock
 62
     0
380
     1
100
AcDbPoint
 10
1174.353006
 20
843.869614
 30
0.0
  0
POINT
  5
345
330
34E
100
AcDbEntity
  8
DEFPOINTS
  6
ByBlock
 62
     0
380
     1
100
AcDbPoint
 10
1064.353006
 20
843.869614
 30
0.0
  0
LINE
  5
346
330
34E
100
AcDbEntity
  8
0
  6
ByBlock
 62
     0
370
    -2
380
     1
100
AcDbLine
 10
1174.353005479674
 20
843.932114
 30
0.0
 11
1174.352491135461
 21
905.7135659999999
 31
0.0
  0
LINE
  5
347
330
34E
100
AcDbEntity
  8
0
  6
ByBlock
 62
     0
370
    -2
380
     1
100
AcDbLine
 10
1064.353005479674
 20
843.932114
 30
0.0
 11
1064.352491135461
 21
905.7135659999999
 31
0.0
  0
LINE
  5
348
330
34E
100
AcDbEntity
  8
0
  6
ByBlock
 62
     0
370
    -2
380
     1
100
AcDbLine
 10
1174.172492634001
 20
905.533566
 30
0.0
 11
1119.803006
 21
905.533566
 31
0.0
  0
LINE
  5
349
330
34E
100
AcDbEntity
  8
0
  6
ByBlock
 62
     0
370
    -2
380
     1
100
AcDbLine
 10
1064.532492634001
 20
905.533566
 30
0.0
 11
1118.903006
 21
905.533566
 31
0.0
  0
SOLID
  5
34A
330
34E
100
AcDbEntity
  8
0
  6
ByBlock
 62
     0
380
     1
100
AcDbTrace
 10
1174.352492634001
 20
905.533566
 30
0.0
 11
1174.172492634001
 21
905.5635659999999
 31
0.0
 12
1174.172492634001
 22
905.503566
 32
0.0
 13
1174.172492634001
 23
905.503566
 33
0.0
  0
SOLID
  5
34B
330
34E
100
AcDbEntity
  8
0
  6
ByBlock
 62
     0
380
     1
100
AcDbTrace
 10
1064.352492634001
 20
905.533566
 30
0.0
 11
1064.532492634001
 21
905.5635659999999
 31
0.0
 12
1064.532492634001
 22
905.503566
 32
0.0
 13
1064.532492634001
 23
905.503566
 33
0.0
  0
MTEXT
  5
34C
330
34E
100
AcDbEntity
  8
0
  6
ByBlock
 62
     0
370
    -2
380
     1
100
AcDbMText
 10
1119.353006
 20
905.533566
 30
0.0
 40
0.18
 41
0.0
 71
     5
 72
     1
  1
110,00
 73
     1
 44
1.0
  0
ENDBLK
  5
6F3
330
34E
100
AcDbEntity
  8
0
100
AcDbBlockEnd
  0
BLOCK
  5
6F4
330
35B
100
AcDbEntity
  8
0
100
AcDbBlockBegin
  2
*D54
 70
     1
 10
0.0
 20
0.0
 30
0.0
  3
*D54
  1

  0
POINT
  5
351
330
35B
100
AcDbEntity
  8
DEFPOINTS
  6
ByBlock
 62
     0
380
     1
100
AcDbPoint
 10
1234.353006
 20
843.869614
 30
0.0
  0
POINT
  5
352
330
35B
100
AcDbEntity
  8
DEFPOINTS
  6
ByBlock
 62
     0
380
     1
100
AcDbPoint
 10
1179.353006
 20
843.869614
 30
0.0
  0
LINE
  5
353
330
35B
100
AcDbEntity
  8
0
  6
ByBlock
 62
     0
370
    -2
380
     1
100
AcDbLine
 10
1234.353005479674
 20
843.932114
 30
0.0
 11
1234.352501527751
 21
904.4652759999999
 31
0.0
  0
LINE
  5
354
330
35B
100
AcDbEntity
  8
0
  6
ByBlock
 62
     0
370
    -2
380
     1
100
AcDbLine
 10
1179.353005479674
 20
843.932114
 30
0.0
 11
1179.352501527751
 21
904.4652759999999
 31
0.0
  0
LINE
  5
355
330
35B
100
AcDbEntity
  8
0
  6
ByBlock
 62
     0
370
    -2
380
     1
100
AcDbLine
 10
1234.17250302629
 20
904.285276
 30
0.0
 11
1207.288006
 21
904.285276
 31
0.0
  0
LINE
  5
356
330
35B
100
AcDbEntity
  8
0
  6
ByBlock
 62
     0
370
    -2
380
     1
100
AcDbLine
 10
1179.53250302629
 20
904.285276
 30
0.0
 11
1206.418006
 21
904.285276
 31
0.0
  0
SOLID
  5
357
330
35B
100
AcDbEntity
  8
0
  6
ByBlock
 62
     0
380
     1
100
AcDbTrace
 10
1234.35250302629
 20
904.285276
 30
0.0
 11
1234.17250302629
 21
904.3152759999999
 31
0.0
 12
1234.17250302629
 22
904.255276
 32
0.0
 13
1234.17250302629
 23
904.255276
 33
0.0
  0
SOLID
  5
358
330
35B
100
AcDbEntity
  8
0
  6
ByBlock
 62
     0
380
     1
100
AcDbTrace
 10
1179.35250302629
 20
904.285276
 30
0.0
 11
1179.53250302629
 21
904.3152759999999
 31
0.0
 12
1179.53250302629
 22
904.255276
 32
0.0
 13
1179.53250302629
 23
904.255276
 33
0.0
  0
MTEXT
  5
359
330
35B
100
AcDbEntity
  8
0
  6
ByBlock
 62
     0
370
    -2
380
     1
100
AcDbMText
 10
1206.853006
 20
904.285276
 30
0.0
 40
0.18
 41
0.0
 71
     5
 72
     1
  1
55,00
 73
     1
 44
1.0
  0
ENDBLK
  5
6F5
330
35B
100
AcDbEntity
  8
0
100
AcDbBlockEnd
  0
BLOCK
  5
6F6
330
368
100
AcDbEntity
  8
0
100
AcDbBlockBegin
  2
*D55
 70
     1
 10
0.0
 20
0.0
 30
0.0
  3
*D55
  1

  0
POINT
  5
35E
330
368
100
AcDbEntity
  8
DEFPOINTS
  6
ByBlock
 62
     0
380
     1
100
AcDbPoint
 10
1344.353006
 20
860.419614
 30
0.0
  0
POINT
  5
35F
330
368
100
AcDbEntity
  8
DEFPOINTS
  6
ByBlock
 62
     0
380
     1
100
AcDbPoint
 10
244.353006
 20
860.419614
 30
0.0
  0
LINE
  5
360
330
368
100
AcDbEntity
  8
0
  6
ByBlock
 62
     0
370
    -2
380
     1
100
AcDbLine
 10
1344.353005479674
 20
860.482114
 30
0.0
 11
1344.352322747503
 21
942.489812
 31
0.0
  0
LINE
  5
361
330
368
100
AcDbEntity
  8
0
  6
ByBlock
 62
     0
370
    -2
380
     1
100
AcDbLine
 10
244.3530054796738
 20
860.482114
 30
0.0
 11
244.3523227475025
 21
942.489812
 31
0.0
  0
LINE
  5
362
330
368
100
AcDbEntity
  8
0
  6
ByBlock
 62
     0
370
    -2
380
     1
100
AcDbLine
 10
1344.172324246042
 20
942.309812
 30
0.0
 11
794.878006
 21
942.309812
 31
0.0
  0
LINE
  5
363
330
368
100
AcDbEntity
  8
0
  6
ByBlock
 62
     0
370
    -2
380
     1
100
AcDbLine
 10
244.5323242460424
 20
942.309812
 30
0.0
 11
793.8280060000001
 21
942.309812
 31
0.0
  0
SOLID
  5
364
330
368
100
AcDbEntity
  8
0
  6
ByBlock
 62
     0
380
     1
100
AcDbTrace
 10
1344.352324246042
 20
942.309812
 30
0.0
 11
1344.172324246042
 21
942.3398119999999
 31
0.0
 12
1344.172324246042
 22
942.279812
 32
0.0
 13
1344.172324246042
 23
942.279812
 33
0.0
  0
SOLID
  5
365
330
368
100
AcDbEntity
  8
0
  6
ByBlock
 62
     0
380
     1
100
AcDbTrace
 10
244.3523242460424
 20
942.309812
 30
0.0
 11
244.5323242460424
 21
942.3398119999999
 31
0.0
 12
244.5323242460424
 22
942.279812
 32
0.0
 13
244.5323242460424
 23
942.279812
 33
0.0
  0
MTEXT
  5
366
330
368
100
AcDbEntity
  8
0
  6
ByBlock
 62
     0
370
    -2
380
     1
100
AcDbMText
 10
794.353006
 20
942.309812
 30
0.0
 40
0.18
 41
0.0
 71
     5
 72
     1
  1
1100,00
 73
     1
 44
1.0
  0
ENDBLK
  5
6F7
330
368
100
AcDbEntity
  8
0
100
AcDbBlockEnd
  0
BLOCK
  5
6F8
330
376
100
AcDbEntity
  8
0
100
AcDbBlockBegin
  2
*D56
 70
     1
 10
0.0
 20
0.0
 30
0.0
  3
*D56
  1

  0
POINT
  5
36B
330
376
100
AcDbEntity
  8
DEFPOINTS
  6
ByBlock
 62
     0
380
     1
100
AcDbPoint
 10
244.353006
 20
860.419614
 30
0.0
  0
POINT
  5
36C
330
376
100
AcDbEntity
  8
DEFPOINTS
  6
ByBlock
 62
     0
380
     1
100
AcDbPoint
 10
254.353006
 20
810.419614
 30
0.0
  0
LINE
  5
36D
330
376
100
AcDbEntity
  8
0
  6
ByBlock
 62
     0
370
    -2
380
     1
100
AcDbLine
 10
244.2905060000065
 20
860.4196150406526
 30
0.0
 11
197.5804868026115
 21
860.4203967999933
 31
0.0
  0
LINE
  5
36E
330
376
100
AcDbEntity
  8
0
  6
ByBlock
 62
     0
370
    -2
380
     1
100
AcDbLine
 10
254.2905060000065
 20
810.4196150406526
 30
0.0
 11
197.5792380236905
 21
810.4205633251968
 31
0.0
  0
LINE
  5
36F
330
376
100
AcDbEntity
  8
0
  6
ByBlock
 62
     0
370
    -2
380
     1
100
AcDbLine
 10
197.642982306973
 20
860.2403952390706
 30
0.0
 11
197.6417425193276
 21
810.6005632627015
 31
0.0
  0
LINE
  5
370
330
376
100
AcDbEntity
  8
0
  6
ByBlock
 62
     0
370
    -2
380
     1
100
AcDbLine
 10
197.6417425193276
 20
810.6005632627015
 30
0.0
 11
197.641246547763
 21
790.7423680122744
 31
0.0
  0
SOLID
  5
371
330
376
100
AcDbEntity
  8
0
  6
ByBlock
 62
     0
380
     1
100
AcDbTrace
 10
197.6429868026295
 20
860.4203967375541
 30
0.0
 11
197.6129823070198
 21
860.2403974868802
 31
0.0
 12
197.672982307001
 22
860.2403959883405
 32
0.0
 13
197.672982307001
 23
860.2403959883405
 33
0.0
  0
SOLID
  5
372
330
376
100
AcDbEntity
  8
0
  6
ByBlock
 62
     0
380
     1
100
AcDbTrace
 10
197.6417380237085
 20
810.4205632627576
 30
0.0
 11
197.6117425193369
 21
810.6005640119713
 31
0.0
 12
197.6717425193182
 22
810.6005625134316
 32
0.0
 13
197.6717425193182
 23
810.6005625134316
 33
0.0
  0
LINE
  5
373
330
376
100
AcDbEntity
  8
0
  6
ByBlock
 62
     0
370
    -2
380
     1
100
AcDbLine
 10
197.641246547763
 20
790.7423680122744
 30
0.0
 11
197.8212465477629
 21
790.7423680122744
 31
0.0
  0
MTEXT
  5
374
330
376
100
AcDbEntity
  8
0
  6
ByBlock
 62
     0
370
    -2
380
     1
100
AcDbMText
 10
198.241246547763
 20
790.7423680122744
 30
0.0
 40
0.18
 41
0.0
 71
     5
 72
     1
  1
50,00
 73
     1
 44
1.0
  0
ENDBLK
  5
6F9
330
376
100
AcDbEntity
  8
0
100
AcDbBlockEnd
  0
BLOCK
  5
6FA
330
383
100
AcDbEntity
  8
0
100
AcDbBlockBegin
  2
*D57
 70
     1
 10
0.0
 20
0.0
 30
0.0
  3
*D57
  1

  0
POINT
  5
379
330
383
100
AcDbEntity
  8
DEFPOINTS
  6
ByBlock
 62
     0
380
     1
100
AcDbPoint
 10
1072.803006
 20
835.419614
 30
0.0
  0
POINT
  5
37A
330
383
100
AcDbEntity
  8
DEFPOINTS
  6
ByBlock
 62
     0
380
     1
100
AcDbPoint
 10
1344.353006
 20
860.419614
 30
0.0
  0
LINE
  5
37B
330
383
100
AcDbEntity
  8
0
  6
ByBlock
 62
     0
370
    -2
380
     1
100
AcDbLine
 10
1072.865506000002
 20
835.419614
 30
0.0
 11
1373.631429869493
 21
835.419614
 31
0.0
  0
LINE
  5
37C
330
383
100
AcDbEntity
  8
0
  6
ByBlock
 62
     0
370
    -2
380
     1
100
AcDbLine
 10
1344.415506000002
 20
860.419614
 30
0.0
 11
1373.631638000006
 21
860.419614
 31
0.0
  0
LINE
  5
37D
330
383
100
AcDbEntity
  8
0
  6
ByBlock
 62
     0
370
    -2
380
     1
100
AcDbLine
 10
1373.451431368026
 20
835.5996139999938
 30
0.0
 11
1373.451530313272
 21
847.4846140008815
 31
0.0
  0
LINE
  5
37E
330
383
100
AcDbEntity
  8
0
  6
ByBlock
 62
     0
370
    -2
380
     1
100
AcDbLine
 10
1373.45163650146
 20
860.2396140000062
 30
0.0
 11
1373.451537556214
 21
848.3546140008514
 31
0.0
  0
SOLID
  5
37F
330
383
100
AcDbEntity
  8
0
  6
ByBlock
 62
     0
380
     1
100
AcDbTrace
 10
1373.451429869487
 20
835.419614
 30
0.0
 11
1373.481431368025
 21
835.5996137502372
 31
0.0
 12
1373.421431368027
 22
835.5996142497504
 32
0.0
 13
1373.421431368027
 23
835.5996142497504
 33
0.0
  0
SOLID
  5
380
330
383
100
AcDbEntity
  8
0
  6
ByBlock
 62
     0
380
     1
100
AcDbTrace
 10
1373.451638
 20
860.419614
 30
0.0
 11
1373.481636501459
 21
860.2396137502496
 31
0.0
 12
1373.421636501461
 22
860.2396142497629
 32
0.0
 13
1373.421636501461
 23
860.2396142497629
 33
0.0
  0
MTEXT
  5
381
330
383
100
AcDbEntity
  8
0
  6
ByBlock
 62
     0
370
    -2
380
     1
100
AcDbMText
 10
1373.451533934743
 20
847.9196140008664
 30
0.0
 40
0.18
 41
0.0
 71
     5
 72
     1
  1
25,00
 73
     1
 44
1.0
  0
ENDBLK
  5
6FB
330
383
100
AcDbEntity
  8
0
100
AcDbBlockEnd
  0
BLOCK
  5
6FC
330
390
100
AcDbEntity
  8
0
100
AcDbBlockBegin
  2
*D58
 70
     1
 10
0.0
 20
0.0
 30
0.0
  3
*D58
  1

  0
POINT
  5
386
330
390
100
AcDbEntity
  8
DEFPOINTS
  6
ByBlock
 62
     0
380
     1
100
AcDbPoint
 10
969.353006
 20
171.291012
 30
0.0
  0
POINT
  5
387
330
390
100
AcDbEntity
  8
DEFPOINTS
  6
ByBlock
 62
     0
380
     1
100
AcDbPoint
 10
794.353006
 20
179.741012
 30
0.0
  0
LINE
  5
388
330
390
100
AcDbEntity
  8
0
  6
ByBlock
 62
     0
370
    -2
380
     1
100
AcDbLine
 10
969.3530044390212
 20
171.2285120000173
 30
0.0
 11
969.3503239726499
 21
63.90537421744546
 31
0.0
  0
LINE
  5
389
330
390
100
AcDbEntity
  8
0
  6
ByBlock
 62
     0
370
    -2
380
     1
100
AcDbLine
 10
794.3530044390212
 20
179.6785120000173
 30
0.0
 11
794.3501130010842
 21
63.90828804814474
 31
0.0
  0
LINE
  5
38A
330
390
100
AcDbEntity
  8
0
  6
ByBlock
 62
     0
370
    -2
380
     1
100
AcDbLine
 10
969.170328468294
 20
64.08537721447496
 30
0.0
 11
882.3480059756731
 21
64.08682284443881
 31
0.0
  0
LINE
  5
38B
330
390
100
AcDbEntity
  8
0
  6
ByBlock
 62
     0
370
    -2
380
     1
100
AcDbLine
 10
794.5301174966784
 20
64.08828505101546
 30
0.0
 11
881.3580059758104
 21
64.08683932837546
 31
0.0
  0
SOLID
  5
38C
330
390
100
AcDbEntity
  8
0
  6
ByBlock
 62
     0
380
     1
100
AcDbTrace
 10
969.350328468269
 20
64.08537421739557
 30
0.0
 11
969.1703289678072
 21
64.1153772144708
 31
0.0
 12
969.1703279687807
 22
64.05537721447911
 32
0.0
 13
969.1703279687807
 23
64.05537721447911
 33
0.0
  0
SOLID
  5
38D
330
390
100
AcDbEntity
  8
0
  6
ByBlock
 62
     0
380
     1
100
AcDbTrace
 10
794.3501174967033
 20
64.08828804809485
 30
0.0
 11
794.5301179961916
 21
64.1182850510113
 31
0.0
 12
794.5301169971651
 22
64.05828505101961
 32
0.0
 13
794.5301169971651
 23
64.05828505101961
 33
0.0
  0
MTEXT
  5
38E
330
390
100
AcDbEntity
  8
0
  6
ByBlock
 62
     0
370
    -2
380
     1
100
AcDbMText
 10
881.8530059757418
 20
64.08683108640714
 30
0.0
 40
0.18
 41
0.0
 71
     5
 72
     1
  1
175,00
 73
     1
 44
1.0
  0
ENDBLK
  5
6FD
330
390
100
AcDbEntity
  8
0
100
AcDbBlockEnd
  0
BLOCK
  5
6FE
330
39D
100
AcDbEntity
  8
0
100
AcDbBlockBegin
  2
*D59
 70
     1
 10
0.0
 20
0.0
 30
0.0
  3
*D59
  1

  0
POINT
  5
393
330
39D
100
AcDbEntity
  8
DEFPOINTS
  6
ByBlock
 62
     0
380
     1
100
AcDbPoint
 10
999.353006
 20
171.291012
 30
0.0
  0
POINT
  5
394
330
39D
100
AcDbEntity
  8
DEFPOINTS
  6
ByBlock
 62
     0
380
     1
100
AcDbPoint
 10
969.353006
 20
171.291012
 30
0.0
  0
LINE
  5
395
330
39D
100
AcDbEntity
  8
0
  6
ByBlock
 62
     0
370
    -2
380
     1
100
AcDbLine
 10
999.3530054796738
 20
171.228512
 30
0.0
 11
999.3522756013458
 21
83.55776200000001
 31
0.0
  0
LINE
  5
396
330
39D
100
AcDbEntity
  8
0
  6
ByBlock
 62
     0
370
    -2
380
     1
100
AcDbLine
 10
969.3530054796738
 20
171.228512
 30
0.0
 11
969.3522756013458
 21
83.55776200000001
 31
0.0
  0
LINE
  5
397
330
39D
100
AcDbEntity
  8
0
  6
ByBlock
 62
     0
370
    -2
380
     1
100
AcDbLine
 10
999.1722770998855
 20
83.73776200000002
 30
0.0
 11
984.773006
 21
83.73776200000002
 31
0.0
  0
LINE
  5
398
330
39D
100
AcDbEntity
  8
0
  6
ByBlock
 62
     0
370
    -2
380
     1
100
AcDbLine
 10
969.5322770998855
 20
83.73776200000002
 30
0.0
 11
983.9330060000001
 21
83.73776200000002
 31
0.0
  0
SOLID
  5
399
330
39D
100
AcDbEntity
  8
0
  6
ByBlock
 62
     0
380
     1
100
AcDbTrace
 10
999.3522770998854
 20
83.73776200000002
 30
0.0
 11
999.1722770998855
 21
83.76776200000002
 31
0.0
 12
999.1722770998855
 22
83.70776200000002
 32
0.0
 13
999.1722770998855
 23
83.70776200000002
 33
0.0
  0
SOLID
  5
39A
330
39D
100
AcDbEntity
  8
0
  6
ByBlock
 62
     0
380
     1
100
AcDbTrace
 10
969.3522770998854
 20
83.73776200000002
 30
0.0
 11
969.5322770998855
 21
83.76776200000002
 31
0.0
 12
969.5322770998855
 22
83.70776200000002
 32
0.0
 13
969.5322770998855
 23
83.70776200000002
 33
0.0
  0
MTEXT
  5
39B
330
39D
100
AcDbEntity
  8
0
  6
ByBlock
 62
     0
370
    -2
380
     1
100
AcDbMText
 10
984.353006
 20
83.737762
 30
0.0
 40
0.18
 41
0.0
 71
     5
 72
     1
  1
30,00
 73
     1
 44
1.0
  0
ENDBLK
  5
6FF
330
39D
100
AcDbEntity
  8
0
100
AcDbBlockEnd
  0
BLOCK
  5
700
330
3AB
100
AcDbEntity
  8
0
100
AcDbBlockBegin
  2
*D60
 70
     1
 10
0.0
 20
0.0
 30
0.0
  3
*D60
  1

  0
POINT
  5
3A0
330
3AB
100
AcDbEntity
  8
DEFPOINTS
  6
ByBlock
 62
     0
380
     1
100
AcDbPoint
 10
1004.353006
 20
171.291012
 30
0.0
  0
POINT
  5
3A1
330
3AB
100
AcDbEntity
  8
DEFPOINTS
  6
ByBlock
 62
     0
380
     1
100
AcDbPoint
 10
999.353006
 20
171.291012
 30
0.0
  0
LINE
  5
3A2
330
3AB
100
AcDbEntity
  8
0
  6
ByBlock
 62
     0
370
    -2
380
     1
100
AcDbLine
 10
1004.353005479674
 20
171.228512
 30
0.0
 11
1004.352114002188
 21
64.264466
 31
0.0
  0
LINE
  5
3A3
330
3AB
100
AcDbEntity
  8
0
  6
ByBlock
 62
     0
370
    -2
380
     1
100
AcDbLine
 10
999.3530054796738
 20
171.228512
 30
0.0
 11
999.3521140021884
 21
64.264466
 31
0.0
  0
LINE
  5
3A4
330
3AB
100
AcDbEntity
  8
0
  6
ByBlock
 62
     0
370
    -2
380
     1
100
AcDbLine
 10
1004.172114002188
 20
64.326966
 30
0.0
 11
999.5321155007281
 21
64.326966
 31
0.0
  0
LINE
  5
3A5
330
3AB
100
AcDbEntity
  8
0
  6
ByBlock
 62
     0
370
    -2
380
     1
100
AcDbLine
 10
1004.352114002188
 20
64.326966
 30
0.0
 11
1015.699098
 21
64.326966
 31
0.0
  0
SOLID
  5
3A6
330
3AB
100
AcDbEntity
  8
0
  6
ByBlock
 62
     0
380
     1
100
AcDbTrace
 10
1004.352115500728
 20
64.326966
 30
0.0
 11
1004.172115500728
 21
64.356966
 31
0.0
 12
1004.172115500728
 22
64.296966
 32
0.0
 13
1004.172115500728
 23
64.296966
 33
0.0
  0
SOLID
  5
3A7
330
3AB
100
AcDbEntity
  8
0
  6
ByBlock
 62
     0
380
     1
100
AcDbTrace
 10
999.352115500728
 20
64.326966
 30
0.0
 11
999.5321155007281
 21
64.356966
 31
0.0
 12
999.5321155007281
 22
64.296966
 32
0.0
 13
999.5321155007281
 23
64.296966
 33
0.0
  0
LINE
  5
3A8
330
3AB
100
AcDbEntity
  8
0
  6
ByBlock
 62
     0
370
    -2
380
     1
100
AcDbLine
 10
1015.699098
 20
64.326966
 30
0.0
 11
1015.879098
 21
64.326966
 31
0.0
  0
MTEXT
  5
3A9
330
3AB
100
AcDbEntity
  8
0
  6
ByBlock
 62
     0
370
    -2
380
     1
100
AcDbMText
 10
1016.224098
 20
64.326966
 30
0.0
 40
0.18
 41
0.0
 71
     5
 72
     1
  1
5,00
 73
     1
 44
1.0
  0
ENDBLK
  5
701
330
3AB
100
AcDbEntity
  8
0
100
AcDbBlockEnd
  0
BLOCK
  5
702
330
3B8
100
AcDbEntity
  8
0
100
AcDbBlockBegin
  2
*D61
 70
     1
 10
0.0
 20
0.0
 30
0.0
  3
*D61
  1

  0
POINT
  5
3AE
330
3B8
100
AcDbEntity
  8
DEFPOINTS
  6
ByBlock
 62
     0
380
     1
100
AcDbPoint
 10
1059.353006
 20
171.291012
 30
0.0
  0
POINT
  5
3AF
330
3B8
100
AcDbEntity
  8
DEFPOINTS
  6
ByBlock
 62
     0
380
     1
100
AcDbPoint
 10
1064.353006
 20
171.291012
 30
0.0
  0
LINE
  5
3B0
330
3B8
100
AcDbEntity
  8
0
  6
ByBlock
 62
     0
370
    -2
380
     1
100
AcDbLine
 10
1059.353006520326
 20
171.228512
 30
0.0
 11
1059.353885725554
 21
65.621072
 31
0.0
  0
LINE
  5
3B1
330
3B8
100
AcDbEntity
  8
0
  6
ByBlock
 62
     0
370
    -2
380
     1
100
AcDbLine
 10
1064.353006520326
 20
171.228512
 30
0.0
 11
1064.353885725554
 21
65.621072
 31
0.0
  0
LINE
  5
3B2
330
3B8
100
AcDbEntity
  8
0
  6
ByBlock
 62
     0
370
    -2
380
     1
100
AcDbLine
 10
1059.533885725554
 20
65.801072
 30
0.0
 11
1064.173884227014
 21
65.801072
 31
0.0
  0
LINE
  5
3B3
330
3B8
100
AcDbEntity
  8
0
  6
ByBlock
 62
     0
370
    -2
380
     1
100
AcDbLine
 10
1059.353006520326
 20
65.801072
 30
0.0
 11
1044.559392
 21
65.801072
 31
0.0
  0
SOLID
  5
3B4
330
3B8
100
AcDbEntity
  8
0
  6
ByBlock
 62
     0
380
     1
100
AcDbTrace
 10
1059.353884227015
 20
65.801072
 30
0.0
 11
1059.533884227015
 21
65.771072
 31
0.0
 12
1059.533884227015
 22
65.831072
 32
0.0
 13
1059.533884227015
 23
65.831072
 33
0.0
  0
SOLID
  5
3B5
330
3B8
100
AcDbEntity
  8
0
  6
ByBlock
 62
     0
380
     1
100
AcDbTrace
 10
1064.353884227015
 20
65.801072
 30
0.0
 11
1064.173884227014
 21
65.771072
 31
0.0
 12
1064.173884227014
 22
65.831072
 32
0.0
 13
1064.173884227014
 23
65.831072
 33
0.0
  0
MTEXT
  5
3B6
330
3B8
100
AcDbEntity
  8
0
  6
ByBlock
 62
     0
370
    -2
380
     1
100
AcDbMText
 10
1044.214392
 20
65.801072
 30
0.0
 40
0.18
 41
0.0
 71
     5
 72
     1
  1
5,00
 73
     1
 44
1.0
  0
ENDBLK
  5
703
330
3B8
100
AcDbEntity
  8
0
100
AcDbBlockEnd
  0
BLOCK
  5
704
330
3C5
100
AcDbEntity
  8
0
100
AcDbBlockBegin
  2
*D62
 70
     1
 10
0.0
 20
0.0
 30
0.0
  3
*D62
  1

  0
POINT
  5
3BB
330
3C5
100
AcDbEntity
  8
DEFPOINTS
  6
ByBlock
 62
     0
380
     1
100
AcDbPoint
 10
1059.353006
 20
188.191012
 30
0.0
  0
POINT
  5
3BC
330
3C5
100
AcDbEntity
  8
DEFPOINTS
  6
ByBlock
 62
     0
380
     1
100
AcDbPoint
 10
1004.353006
 20
188.191012
 30
0.0
  0
LINE
  5
3BD
330
3C5
100
AcDbEntity
  8
0
  6
ByBlock
 62
     0
370
    -2
380
     1
100
AcDbLine
 10
1059.353005479674
 20
188.253512
 30
0.0
 11
1059.352277044689
 21
275.750892
 31
0.0
  0
LINE
  5
3BE
330
3C5
100
AcDbEntity
  8
0
  6
ByBlock
 62
     0
370
    -2
380
     1
100
AcDbLine
 10
1004.353005479674
 20
188.253512
 30
0.0
 11
1004.352277044689
 21
275.750892
 31
0.0
  0
LINE
  5
3BF
330
3C5
100
AcDbEntity
  8
0
  6
ByBlock
 62
     0
370
    -2
380
     1
100
AcDbLine
 10
1059.172278543229
 20
275.570892
 30
0.0
 11
1032.288006
 21
275.570892
 31
0.0
  0
LINE
  5
3C0
330
3C5
100
AcDbEntity
  8
0
  6
ByBlock
 62
     0
370
    -2
380
     1
100
AcDbLine
 10
1004.532278543229
 20
275.570892
 30
0.0
 11
1031.418006
 21
275.570892
 31
0.0
  0
SOLID
  5
3C1
330
3C5
100
AcDbEntity
  8
0
  6
ByBlock
 62
     0
380
     1
100
AcDbTrace
 10
1059.352278543229
 20
275.570892
 30
0.0
 11
1059.172278543229
 21
275.600892
 31
0.0
 12
1059.172278543229
 22
275.540892
 32
0.0
 13
1059.172278543229
 23
275.540892
 33
0.0
  0
SOLID
  5
3C2
330
3C5
100
AcDbEntity
  8
0
  6
ByBlock
 62
     0
380
     1
100
AcDbTrace
 10
1004.352278543229
 20
275.570892
 30
0.0
 11
1004.532278543229
 21
275.600892
 31
0.0
 12
1004.532278543229
 22
275.540892
 32
0.0
 13
1004.532278543229
 23
275.540892
 33
0.0
  0
MTEXT
  5
3C3
330
3C5
100
AcDbEntity
  8
0
  6
ByBlock
 62
     0
370
    -2
380
     1
100
AcDbMText
 10
1031.853006
 20
275.570892
 30
0.0
 40
0.18
 41
0.0
 71
     5
 72
     1
  1
55,00
 73
     1
 44
1.0
  0
ENDBLK
  5
705
330
3C5
100
AcDbEntity
  8
0
100
AcDbBlockEnd
  0
BLOCK
  5
706
330
3D2
100
AcDbEntity
  8
0
100
AcDbBlockBegin
  2
*D63
 70
     1
 10
0.0
 20
0.0
 30
0.0
  3
*D63
  1

  0
POINT
  5
3C8
330
3D2
100
AcDbEntity
  8
DEFPOINTS
  6
ByBlock
 62
     0
380
     1
100
AcDbPoint
 10
1174.353006
 20
188.191012
 30
0.0
  0
POINT
  5
3C9
330
3D2
100
AcDbEntity
  8
DEFPOINTS
  6
ByBlock
 62
     0
380
     1
100
AcDbPoint
 10
1064.353006
 20
188.191012
 30
0.0
  0
LINE
  5
3CA
330
3D2
100
AcDbEntity
  8
0
  6
ByBlock
 62
     0
370
    -2
380
     1
100
AcDbLine
 10
1174.353005479674
 20
188.253512
 30
0.0
 11
1174.352273965656
 21
276.120736
 31
0.0
  0
LINE
  5
3CB
330
3D2
100
AcDbEntity
  8
0
  6
ByBlock
 62
     0
370
    -2
380
     1
100
AcDbLine
 10
1064.353005479674
 20
188.253512
 30
0.0
 11
1064.352273965656
 21
276.120736
 31
0.0
  0
LINE
  5
3CC
330
3D2
100
AcDbEntity
  8
0
  6
ByBlock
 62
     0
370
    -2
380
     1
100
AcDbLine
 10
1174.172275464196
 20
275.940736
 30
0.0
 11
1119.803006
 21
275.940736
 31
0.0
  0
LINE
  5
3CD
330
3D2
100
AcDbEntity
  8
0
  6
ByBlock
 62
     0
370
    -2
380
     1
100
AcDbLine
 10
1064.532275464196
 20
275.940736
 30
0.0
 11
1118.903006
 21
275.940736
 31
0.0
  0
SOLID
  5
3CE
330
3D2
100
AcDbEntity
  8
0
  6
ByBlock
 62
     0
380
     1
100
AcDbTrace
 10
1174.352275464196
 20
275.940736
 30
0.0
 11
1174.172275464196
 21
275.970736
 31
0.0
 12
1174.172275464196
 22
275.910736
 32
0.0
 13
1174.172275464196
 23
275.910736
 33
0.0
  0
SOLID
  5
3CF
330
3D2
100
AcDbEntity
  8
0
  6
ByBlock
 62
     0
380
     1
100
AcDbTrace
 10
1064.352275464196
 20
275.940736
 30
0.0
 11
1064.532275464196
 21
275.970736
 31
0.0
 12
1064.532275464196
 22
275.910736
 32
0.0
 13
1064.532275464196
 23
275.910736
 33
0.0
  0
MTEXT
  5
3D0
330
3D2
100
AcDbEntity
  8
0
  6
ByBlock
 62
     0
370
    -2
380
     1
100
AcDbMText
 10
1119.353006
 20
275.940736
 30
0.0
 40
0.18
 41
0.0
 71
     5
 72
     1
  1
110,00
 73
     1
 44
1.0
  0
ENDBLK
  5
707
330
3D2
100
AcDbEntity
  8
0
100
AcDbBlockEnd
  0
BLOCK
  5
708
330
3DF
100
AcDbEntity
  8
0
100
AcDbBlockBegin
  2
*D64
 70
     1
 10
0.0
 20
0.0
 30
0.0
  3
*D64
  1

  0
POINT
  5
3D5
330
3DF
100
AcDbEntity
  8
DEFPOINTS
  6
ByBlock
 62
     0
380
     1
100
AcDbPoint
 10
1234.353006
 20
188.191012
 30
0.0
  0
POINT
  5
3D6
330
3DF
100
AcDbEntity
  8
DEFPOINTS
  6
ByBlock
 62
     0
380
     1
100
AcDbPoint
 10
1179.353006
 20
188.191012
 30
0.0
  0
LINE
  5
3D7
330
3DF
100
AcDbEntity
  8
0
  6
ByBlock
 62
     0
370
    -2
380
     1
100
AcDbLine
 10
1234.353005479674
 20
188.253512
 30
0.0
 11
1234.352277044689
 21
275.750892
 31
0.0
  0
LINE
  5
3D8
330
3DF
100
AcDbEntity
  8
0
  6
ByBlock
 62
     0
370
    -2
380
     1
100
AcDbLine
 10
1179.353005479674
 20
188.253512
 30
0.0
 11
1179.352277044689
 21
275.750892
 31
0.0
  0
LINE
  5
3D9
330
3DF
100
AcDbEntity
  8
0
  6
ByBlock
 62
     0
370
    -2
380
     1
100
AcDbLine
 10
1234.172278543229
 20
275.570892
 30
0.0
 11
1207.288006
 21
275.570892
 31
0.0
  0
LINE
  5
3DA
330
3DF
100
AcDbEntity
  8
0
  6
ByBlock
 62
     0
370
    -2
380
     1
100
AcDbLine
 10
1179.532278543229
 20
275.570892
 30
0.0
 11
1206.418006
 21
275.570892
 31
0.0
  0
SOLID
  5
3DB
330
3DF
100
AcDbEntity
  8
0
  6
ByBlock
 62
     0
380
     1
100
AcDbTrace
 10
1234.352278543229
 20
275.570892
 30
0.0
 11
1234.172278543229
 21
275.600892
 31
0.0
 12
1234.172278543229
 22
275.540892
 32
0.0
 13
1234.172278543229
 23
275.540892
 33
0.0
  0
SOLID
  5
3DC
330
3DF
100
AcDbEntity
  8
0
  6
ByBlock
 62
     0
380
     1
100
AcDbTrace
 10
1179.352278543229
 20
275.570892
 30
0.0
 11
1179.532278543229
 21
275.600892
 31
0.0
 12
1179.532278543229
 22
275.540892
 32
0.0
 13
1179.532278543229
 23
275.540892
 33
0.0
  0
MTEXT
  5
3DD
330
3DF
100
AcDbEntity
  8
0
  6
ByBlock
 62
     0
370
    -2
380
     1
100
AcDbMText
 10
1206.853006
 20
275.570892
 30
0.0
 40
0.18
 41
0.0
 71
     5
 72
     1
  1
55,00
 73
     1
 44
1.0
  0
ENDBLK
  5
709
330
3DF
100
AcDbEntity
  8
0
100
AcDbBlockEnd
  0
BLOCK
  5
70A
330
3EC
100
AcDbEntity
  8
0
100
AcDbBlockBegin
  2
*D65
 70
     1
 10
0.0
 20
0.0
 30
0.0
  3
*D65
  1

  0
POINT
  5
3E2
330
3EC
100
AcDbEntity
  8
DEFPOINTS
  6
ByBlock
 62
     0
380
     1
100
AcDbPoint
 10
1269.353006
 20
188.191012
 30
0.0
  0
POINT
  5
3E3
330
3EC
100
AcDbEntity
  8
DEFPOINTS
  6
ByBlock
 62
     0
380
     1
100
AcDbPoint
 10
1239.353006
 20
188.191012
 30
0.0
  0
LINE
  5
3E4
330
3EC
100
AcDbEntity
  8
0
  6
ByBlock
 62
     0
370
    -2
380
     1
100
AcDbLine
 10
1269.353005479674
 20
188.253512
 30
0.0
 11
1269.352264728608
 21
277.230262
 31
0.0
  0
LINE
  5
3E5
330
3EC
100
AcDbEntity
  8
0
  6
ByBlock
 62
     0
370
    -2
380
     1
100
AcDbLine
 10
1239.353005479674
 20
188.253512
 30
0.0
 11
1239.352264728608
 21
277.230262
 31
0.0
  0
LINE
  5
3E6
330
3EC
100
AcDbEntity
  8
0
  6
ByBlock
 62
     0
370
    -2
380
     1
100
AcDbLine
 10
1269.172266227147
 20
277.050262
 30
0.0
 11
1254.773006
 21
277.050262
 31
0.0
  0
LINE
  5
3E7
330
3EC
100
AcDbEntity
  8
0
  6
ByBlock
 62
     0
370
    -2
380
     1
100
AcDbLine
 10
1239.532266227147
 20
277.050262
 30
0.0
 11
1253.933006
 21
277.050262
 31
0.0
  0
SOLID
  5
3E8
330
3EC
100
AcDbEntity
  8
0
  6
ByBlock
 62
     0
380
     1
100
AcDbTrace
 10
1269.352266227148
 20
277.050262
 30
0.0
 11
1269.172266227147
 21
277.0802619999999
 31
0.0
 12
1269.172266227147
 22
277.0202619999999
 32
0.0
 13
1269.172266227147
 23
277.0202619999999
 33
0.0
  0
SOLID
  5
3E9
330
3EC
100
AcDbEntity
  8
0
  6
ByBlock
 62
     0
380
     1
100
AcDbTrace
 10
1239.352266227148
 20
277.050262
 30
0.0
 11
1239.532266227147
 21
277.0802619999999
 31
0.0
 12
1239.532266227147
 22
277.0202619999999
 32
0.0
 13
1239.532266227147
 23
277.0202619999999
 33
0.0
  0
MTEXT
  5
3EA
330
3EC
100
AcDbEntity
  8
0
  6
ByBlock
 62
     0
370
    -2
380
     1
100
AcDbMText
 10
1254.353006
 20
277.050262
 30
0.0
 40
0.18
 41
0.0
 71
     5
 72
     1
  1
30,00
 73
     1
 44
1.0
  0
ENDBLK
  5
70B
330
3EC
100
AcDbEntity
  8
0
100
AcDbBlockEnd
  0
BLOCK
  5
70C
330
3FA
100
AcDbEntity
  8
0
100
AcDbBlockBegin
  2
*D66
 70
     1
 10
0.0
 20
0.0
 30
0.0
  3
*D66
  1

  0
POINT
  5
3EF
330
3FA
100
AcDbEntity
  8
DEFPOINTS
  6
ByBlock
 62
     0
380
     1
100
AcDbPoint
 10
1179.353006
 20
171.291012
 30
0.0
  0
POINT
  5
3F0
330
3FA
100
AcDbEntity
  8
DEFPOINTS
  6
ByBlock
 62
     0
380
     1
100
AcDbPoint
 10
1174.353006
 20
171.291012
 30
0.0
  0
LINE
  5
3F1
330
3FA
100
AcDbEntity
  8
0
  6
ByBlock
 62
     0
370
    -2
380
     1
100
AcDbLine
 10
1179.353005479674
 20
171.228512
 30
0.0
 11
1179.352154549659
 21
69.134904
 31
0.0
  0
LINE
  5
3F2
330
3FA
100
AcDbEntity
  8
0
  6
ByBlock
 62
     0
370
    -2
380
     1
100
AcDbLine
 10
1174.353005479674
 20
171.228512
 30
0.0
 11
1174.352154549659
 21
69.134904
 31
0.0
  0
LINE
  5
3F3
330
3FA
100
AcDbEntity
  8
0
  6
ByBlock
 62
     0
370
    -2
380
     1
100
AcDbLine
 10
1179.172154549659
 20
69.197404
 30
0.0
 11
1174.532156048198
 21
69.197404
 31
0.0
  0
LINE
  5
3F4
330
3FA
100
AcDbEntity
  8
0
  6
ByBlock
 62
     0
370
    -2
380
     1
100
AcDbLine
 10
1179.352154549659
 20
69.197404
 30
0.0
 11
1191.43031
 21
69.197404
 31
0.0
  0
SOLID
  5
3F5
330
3FA
100
AcDbEntity
  8
0
  6
ByBlock
 62
     0
380
     1
100
AcDbTrace
 10
1179.352156048199
 20
69.197404
 30
0.0
 11
1179.172156048199
 21
69.227404
 31
0.0
 12
1179.172156048199
 22
69.167404
 32
0.0
 13
1179.172156048199
 23
69.167404
 33
0.0
  0
SOLID
  5
3F6
330
3FA
100
AcDbEntity
  8
0
  6
ByBlock
 62
     0
380
     1
100
AcDbTrace
 10
1174.352156048199
 20
69.197404
 30
0.0
 11
1174.532156048198
 21
69.227404
 31
0.0
 12
1174.532156048198
 22
69.167404
 32
0.0
 13
1174.532156048198
 23
69.167404
 33
0.0
  0
LINE
  5
3F7
330
3FA
100
AcDbEntity
  8
0
  6
ByBlock
 62
     0
370
    -2
380
     1
100
AcDbLine
 10
1191.43031
 20
69.197404
 30
0.0
 11
1191.61031
 21
69.197404
 31
0.0
  0
MTEXT
  5
3F8
330
3FA
100
AcDbEntity
  8
0
  6
ByBlock
 62
     0
370
    -2
380
     1
100
AcDbMText
 10
1191.95531
 20
69.197404
 30
0.0
 40
0.18
 41
0.0
 71
     5
 72
     1
  1
5,00
 73
     1
 44
1.0
  0
ENDBLK
  5
70D
330
3FA
100
AcDbEntity
  8
0
100
AcDbBlockEnd
  0
BLOCK
  5
70E
330
408
100
AcDbEntity
  8
0
100
AcDbBlockBegin
  2
*D67
 70
     1
 10
0.0
 20
0.0
 30
0.0
  3
*D67
  1

  0
POINT
  5
3FD
330
408
100
AcDbEntity
  8
DEFPOINTS
  6
ByBlock
 62
     0
380
     1
100
AcDbPoint
 10
1239.353006
 20
171.291012
 30
0.0
  0
POINT
  5
3FE
330
408
100
AcDbEntity
  8
DEFPOINTS
  6
ByBlock
 62
     0
380
     1
100
AcDbPoint
 10
1234.353006
 20
171.291012
 30
0.0
  0
LINE
  5
3FF
330
408
100
AcDbEntity
  8
0
  6
ByBlock
 62
     0
370
    -2
380
     1
100
AcDbLine
 10
1239.353005479674
 20
171.228512
 30
0.0
 11
1239.352111443116
 21
63.957078
 31
0.0
  0
LINE
  5
400
330
408
100
AcDbEntity
  8
0
  6
ByBlock
 62
     0
370
    -2
380
     1
100
AcDbLine
 10
1234.353005479674
 20
171.228512
 30
0.0
 11
1234.352111443116
 21
63.957078
 31
0.0
  0
LINE
  5
401
330
408
100
AcDbEntity
  8
0
  6
ByBlock
 62
     0
370
    -2
380
     1
100
AcDbLine
 10
1239.172111443115
 20
64.019578
 30
0.0
 11
1234.532112941655
 21
64.019578
 31
0.0
  0
LINE
  5
402
330
408
100
AcDbEntity
  8
0
  6
ByBlock
 62
     0
370
    -2
380
     1
100
AcDbLine
 10
1234.532112941655
 20
64.019578
 30
0.0
 11
1229.103102
 21
64.019578
 31
0.0
  0
SOLID
  5
403
330
408
100
AcDbEntity
  8
0
  6
ByBlock
 62
     0
380
     1
100
AcDbTrace
 10
1239.352112941655
 20
64.019578
 30
0.0
 11
1239.172112941655
 21
64.049578
 31
0.0
 12
1239.172112941655
 22
63.98957799999999
 32
0.0
 13
1239.172112941655
 23
63.98957799999999
 33
0.0
  0
SOLID
  5
404
330
408
100
AcDbEntity
  8
0
  6
ByBlock
 62
     0
380
     1
100
AcDbTrace
 10
1234.352112941655
 20
64.019578
 30
0.0
 11
1234.532112941655
 21
64.049578
 31
0.0
 12
1234.532112941655
 22
63.98957799999999
 32
0.0
 13
1234.532112941655
 23
63.98957799999999
 33
0.0
  0
LINE
  5
405
330
408
100
AcDbEntity
  8
0
  6
ByBlock
 62
     0
370
    -2
380
     1
100
AcDbLine
 10
1229.103102
 20
64.019578
 30
0.0
 11
1228.923102
 21
64.019578
 31
0.0
  0
MTEXT
  5
406
330
408
100
AcDbEntity
  8
0
  6
ByBlock
 62
     0
370
    -2
380
     1
100
AcDbMText
 10
1228.578102
 20
64.019578
 30
0.0
 40
0.18
 41
0.0
 71
     5
 72
     1
  1
5,00
 73
     1
 44
1.0
  0
ENDBLK
  5
70F
330
408
100
AcDbEntity
  8
0
100
AcDbBlockEnd
  0
BLOCK
  5
710
330
415
100
AcDbEntity
  8
0
100
AcDbBlockBegin
  2
*D68
 70
     1
 10
0.0
 20
0.0
 30
0.0
  3
*D68
  1

  0
POINT
  5
40B
330
415
100
AcDbEntity
  8
DEFPOINTS
  6
ByBlock
 62
     0
380
     1
100
AcDbPoint
 10
244.353006
 20
229.741012
 30
0.0
  0
POINT
  5
40C
330
415
100
AcDbEntity
  8
DEFPOINTS
  6
ByBlock
 62
     0
380
     1
100
AcDbPoint
 10
244.353006
 20
129.741012
 30
0.0
  0
LINE
  5
40D
330
415
100
AcDbEntity
  8
0
  6
ByBlock
 62
     0
370
    -2
380
     1
100
AcDbLine
 10
244.290506
 20
229.7410114796737
 30
0.0
 11
187.125398
 21
229.7405355675429
 31
0.0
  0
LINE
  5
40E
330
415
100
AcDbEntity
  8
0
  6
ByBlock
 62
     0
370
    -2
380
     1
100
AcDbLine
 10
244.290506
 20
129.7410114796737
 30
0.0
 11
187.125398
 21
129.7405355675429
 31
0.0
  0
LINE
  5
40F
330
415
100
AcDbEntity
  8
0
  6
ByBlock
 62
     0
370
    -2
380
     1
100
AcDbLine
 10
187.305398
 20
229.5605370660826
 30
0.0
 11
187.305398
 21
180.206012
 31
0.0
  0
LINE
  5
410
330
415
100
AcDbEntity
  8
0
  6
ByBlock
 62
     0
370
    -2
380
     1
100
AcDbLine
 10
187.305398
 20
129.9205370660826
 30
0.0
 11
187.305398
 21
179.276012
 31
0.0
  0
SOLID
  5
411
330
415
100
AcDbEntity
  8
0
  6
ByBlock
 62
     0
380
     1
100
AcDbTrace
 10
187.305398
 20
229.7405370660826
 30
0.0
 11
187.275398
 21
229.5605370660826
 31
0.0
 12
187.335398
 22
229.5605370660826
 32
0.0
 13
187.335398
 23
229.5605370660826
 33
0.0
  0
SOLID
  5
412
330
415
100
AcDbEntity
  8
0
  6
ByBlock
 62
     0
380
     1
100
AcDbTrace
 10
187.305398
 20
129.7405370660826
 30
0.0
 11
187.275398
 21
129.9205370660826
 31
0.0
 12
187.335398
 22
129.9205370660826
 32
0.0
 13
187.335398
 23
129.9205370660826
 33
0.0
  0
MTEXT
  5
413
330
415
100
AcDbEntity
  8
0
  6
ByBlock
 62
     0
370
    -2
380
     1
100
AcDbMText
 10
187.305398
 20
179.741012
 30
0.0
 40
0.18
 41
0.0
 71
     5
 72
     1
  1
100,00
 73
     1
 44
1.0
  0
ENDBLK
  5
711
330
415
100
AcDbEntity
  8
0
100
AcDbBlockEnd
  0
BLOCK
  5
712
330
422
100
AcDbEntity
  8
0
100
AcDbBlockBegin
  2
*D69
 70
     1
 10
0.0
 20
0.0
 30
0.0
  3
*D69
  1

  0
POINT
  5
418
330
422
100
AcDbEntity
  8
DEFPOINTS
  6
ByBlock
 62
     0
380
     1
100
AcDbPoint
 10
1344.353006
 20
860.419614
 30
0.0
  0
POINT
  5
419
330
422
100
AcDbEntity
  8
DEFPOINTS
  6
ByBlock
 62
     0
380
     1
100
AcDbPoint
 10
839.353006
 20
496.419614
 30
0.0
  0
LINE
  5
41A
330
422
100
AcDbEntity
  8
0
  6
ByBlock
 62
     0
370
    -2
380
     1
100
AcDbLine
 10
1344.415505999968
 20
860.4196119186948
 30
0.0
 11
1396.931865097149
 21
860.4178630776101
 31
0.0
  0
LINE
  5
41B
330
422
100
AcDbEntity
  8
0
  6
ByBlock
 62
     0
370
    -2
380
     1
100
AcDbLine
 10
839.4155059999675
 20
496.4196119186949
 30
0.0
 11
1396.922773536319
 21
496.4010464348858
 31
0.0
  0
LINE
  5
41C
330
422
100
AcDbEntity
  8
0
  6
ByBlock
 62
     0
370
    -2
380
     1
100
AcDbLine
 10
1396.751860601623
 20
860.237869071825
 30
0.0
 11
1396.747327437742
 21
678.7346138863732
 31
0.0
  0
LINE
  5
41D
330
422
100
AcDbEntity
  8
0
  6
ByBlock
 62
     0
370
    -2
380
     1
100
AcDbLine
 10
1396.742778032032
 20
496.5810524289884
 30
0.0
 11
1396.747311703075
 21
678.1046138865696
 31
0.0
  0
SOLID
  5
41E
330
422
100
AcDbEntity
  8
0
  6
ByBlock
 62
     0
380
     1
100
AcDbTrace
 10
1396.751865097242
 20
860.4178690717689
 30
0.0
 11
1396.721860601633
 21
860.2378698210949
 31
0.0
 12
1396.781860601614
 22
860.2378683225552
 32
0.0
 13
1396.781860601614
 23
860.2378683225552
 33
0.0
  0
SOLID
  5
41F
330
422
100
AcDbEntity
  8
0
  6
ByBlock
 62
     0
380
     1
100
AcDbTrace
 10
1396.742773536412
 20
496.4010524290446
 30
0.0
 11
1396.712778032041
 21
496.5810531782583
 31
0.0
 12
1396.772778032022
 22
496.5810516797186
 32
0.0
 13
1396.772778032022
 23
496.5810516797186
 33
0.0
  0
MTEXT
  5
420
330
422
100
AcDbEntity
  8
0
  6
ByBlock
 62
     0
370
    -2
380
     1
100
AcDbMText
 10
1396.747319570409
 20
678.4196138864714
 30
0.0
 40
0.18
 41
0.0
 71
     5
 72
     1
  1
360
 73
     1
 44
1.0
  0
ENDBLK
  5
713
330
422
100
AcDbEntity
  8
0
100
AcDbBlockEnd
  0
BLOCK
  5
714
330
42F
100
AcDbEntity
  8
0
100
AcDbBlockBegin
  2
*D70
 70
     1
 10
0.0
 20
0.0
 30
0.0
  3
*D70
  1

  0
POINT
  5
425
330
42F
100
AcDbEntity
  8
DEFPOINTS
  6
ByBlock
 62
     0
380
     1
100
AcDbPoint
 10
749.353006
 20
496.419614
 30
0.0
  0
POINT
  5
426
330
42F
100
AcDbEntity
  8
DEFPOINTS
  6
ByBlock
 62
     0
380
     1
100
AcDbPoint
 10
839.353006
 20
496.419614
 30
0.0
  0
LINE
  5
427
330
42F
100
AcDbEntity
  8
0
  6
ByBlock
 62
     0
370
    -2
380
     1
100
AcDbLine
 10
749.3530065203263
 20
496.357114
 30
0.0
 11
749.3536157081154
 21
423.183342
 31
0.0
  0
LINE
  5
428
330
42F
100
AcDbEntity
  8
0
  6
ByBlock
 62
     0
370
    -2
380
     1
100
AcDbLine
 10
839.3530065203263
 20
496.357114
 30
0.0
 11
839.3536157081154
 21
423.183342
 31
0.0
  0
LINE
  5
429
330
42F
100
AcDbEntity
  8
0
  6
ByBlock
 62
     0
370
    -2
380
     1
100
AcDbLine
 10
749.5336142095757
 20
423.363342
 30
0.0
 11
794.038006
 21
423.363342
 31
0.0
  0
LINE
  5
42A
330
42F
100
AcDbEntity
  8
0
  6
ByBlock
 62
     0
370
    -2
380
     1
100
AcDbLine
 10
839.1736142095757
 20
423.363342
 30
0.0
 11
794.6680060000001
 21
423.363342
 31
0.0
  0
SOLID
  5
42B
330
42F
100
AcDbEntity
  8
0
  6
ByBlock
 62
     0
380
     1
100
AcDbTrace
 10
749.3536142095758
 20
423.363342
 30
0.0
 11
749.5336142095757
 21
423.333342
 31
0.0
 12
749.5336142095757
 22
423.393342
 32
0.0
 13
749.5336142095757
 23
423.393342
 33
0.0
  0
SOLID
  5
42C
330
42F
100
AcDbEntity
  8
0
  6
ByBlock
 62
     0
380
     1
100
AcDbTrace
 10
839.3536142095758
 20
423.363342
 30
0.0
 11
839.1736142095757
 21
423.333342
 31
0.0
 12
839.1736142095757
 22
423.393342
 32
0.0
 13
839.1736142095757
 23
423.393342
 33
0.0
  0
MTEXT
  5
42D
330
42F
100
AcDbEntity
  8
0
  6
ByBlock
 62
     0
370
    -2
380
     1
100
AcDbMText
 10
794.353006
 20
423.363342
 30
0.0
 40
0.18
 41
0.0
 71
     5
 72
     1
  1
%%c90
 73
     1
 44
1.0
  0
ENDBLK
  5
715
330
42F
100
AcDbEntity
  8
0
100
AcDbBlockEnd
  0
BLOCK
  5
716
330
5D2
100
AcDbEntity
  8
0
100
AcDbBlockBegin
  2
*D71
 70
     1
 10
0.0
 20
0.0
 30
0.0
  3
*D71
  1

  0
POINT
  5
5C9
330
5D2
100
AcDbEntity
  8
DEFPOINTS
  6
ByBlock
 62
     0
380
     1
100
AcDbPoint
 10
244.353006
 20
840.419586
 30
0.0
  0
POINT
  5
5CA
330
5D2
100
AcDbEntity
  8
DEFPOINTS
  6
ByBlock
 62
     0
380
     1
100
AcDbPoint
 10
1344.353006
 20
840.419586
 30
0.0
  0
LINE
  5
5CB
330
5D2
100
AcDbEntity
  8
0
  6
ByBlock
 62
     0
370
    -2
380
     1
100
AcDbLine
 10
244.353006
 20
841.044586
 30
0.0
 11
244.353006
 21
914.7523963178267
 31
0.0
  0
LINE
  5
5CC
330
5D2
100
AcDbEntity
  8
0
  6
ByBlock
 62
     0
370
    -2
380
     1
100
AcDbLine
 10
1344.353006
 20
841.044586
 30
0.0
 11
1344.353006
 21
914.7523963178267
 31
0.0
  0
LINE
  5
5CD
330
5D2
100
AcDbEntity
  8
0
  6
ByBlock
 62
     0
370
    -2
380
     1
100
AcDbLine
 10
246.853006
 20
913.5023963178267
 30
0.0
 11
1341.853006
 21
913.5023963178267
 31
0.0
  0
SOLID
  5
5CE
330
5D2
100
AcDbEntity
  8
0
  6
ByBlock
 62
     0
380
     1
100
AcDbTrace
 10
244.353006
 20
913.5023963178267
 30
0.0
 11
246.853006
 21
913.08572965116
 31
0.0
 12
246.853006
 22
913.9190629844933
 32
0.0
 13
246.853006
 23
913.9190629844933
 33
0.0
  0
SOLID
  5
5CF
330
5D2
100
AcDbEntity
  8
0
  6
ByBlock
 62
     0
380
     1
100
AcDbTrace
 10
1344.353006
 20
913.5023963178267
 30
0.0
 11
1341.853006
 21
913.08572965116
 31
0.0
 12
1341.853006
 22
913.9190629844933
 32
0.0
 13
1341.853006
 23
913.9190629844933
 33
0.0
  0
MTEXT
  5
5D0
330
5D2
100
AcDbEntity
  8
0
  6
ByBlock
 62
     0
370
    -2
380
     1
100
AcDbMText
 10
794.3530059999998
 20
915.3773963178267
 30
0.0
 40
2.5
 41
0.0
 71
     5
 72
     1
  1
\A1;1100
 73
     1
 44
1.0
  0
ENDBLK
  5
717
330
5D2
100
AcDbEntity
  8
0
100
AcDbBlockEnd
  0
BLOCK
  5
718
330
5DD
100
AcDbEntity
  8
0
100
AcDbBlockBegin
  2
*D72
 70
     1
 10
0.0
 20
0.0
 30
0.0
  3
*D72
  1

  0
POINT
  5
5D4
330
5DD
100
AcDbEntity
  8
DEFPOINTS
  6
ByBlock
 62
     0
380
     1
100
AcDbPoint
 10
244.353006
 20
840.419586
 30
0.0
  0
POINT
  5
5D5
330
5DD
100
AcDbEntity
  8
DEFPOINTS
  6
ByBlock
 62
     0
380
     1
100
AcDbPoint
 10
1344.353006
 20
840.419586
 30
0.0
  0
LINE
  5
5D6
330
5DD
100
AcDbEntity
  8
0
  6
ByBlock
 62
     0
370
    -2
380
     1
100
AcDbLine
 10
244.353006
 20
841.044586
 30
0.0
 11
244.353006
 21
914.7523963178267
 31
0.0
  0
LINE
  5
5D7
330
5DD
100
AcDbEntity
  8
0
  6
ByBlock
 62
     0
370
    -2
380
     1
100
AcDbLine
 10
1344.353006
 20
841.044586
 30
0.0
 11
1344.353006
 21
914.7523963178267
 31
0.0
  0
LINE
  5
5D8
330
5DD
100
AcDbEntity
  8
0
  6
ByBlock
 62
     0
370
    -2
380
     1
100
AcDbLine
 10
246.853006
 20
913.5023963178267
 30
0.0
 11
1341.853006
 21
913.5023963178267
 31
0.0
  0
SOLID
  5
5D9
330
5DD
100
AcDbEntity
  8
0
  6
ByBlock
 62
     0
380
     1
100
AcDbTrace
 10
244.353006
 20
913.5023963178267
 30
0.0
 11
246.853006
 21
913.08572965116
 31
0.0
 12
246.853006
 22
913.9190629844933
 32
0.0
 13
246.853006
 23
913.9190629844933
 33
0.0
  0
SOLID
  5
5DA
330
5DD
100
AcDbEntity
  8
0
  6
ByBlock
 62
     0
380
     1
100
AcDbTrace
 10
1344.353006
 20
913.5023963178267
 30
0.0
 11
1341.853006
 21
913.08572965116
 31
0.0
 12
1341.853006
 22
913.9190629844933
 32
0.0
 13
1341.853006
 23
913.9190629844933
 33
0.0
  0
MTEXT
  5
5DB
330
5DD
100
AcDbEntity
  8
0
  6
ByBlock
 62
     0
370
    -2
380
     1
100
AcDbMText
 10
794.3530059999998
 20
915.3773963178267
 30
0.0
 40
2.5
 41
0.0
 71
     5
 72
     1
  1
\A1;1100
 73
     1
 44
1.0
  0
ENDBLK
  5
719
330
5DD
100
AcDbEntity
  8
0
100
AcDbBlockEnd
  0
BLOCK
  5
71A
330
5E8
100
AcDbEntity
  8
0
100
AcDbBlockBegin
  2
*D73
 70
     1
 10
0.0
 20
0.0
 30
0.0
  3
*D73
  1

  0
POINT
  5
5DF
330
5E8
100
AcDbEntity
  8
DEFPOINTS
  6
ByBlock
 62
     7
380
     1
100
AcDbPoint
 10
244.353006
 20
840.419586
 30
0.0
  0
POINT
  5
5E0
330
5E8
100
AcDbEntity
  8
DEFPOINTS
  6
ByBlock
 62
     7
380
     1
100
AcDbPoint
 10
1344.353006
 20
840.419586
 30
0.0
  0
LINE
  5
5E1
330
5E8
100
AcDbEntity
  8
0
  6
ByBlock
 62
     7
370
    -2
380
     1
100
AcDbLine
 10
244.353006
 20
841.044586
 30
0.0
 11
244.353006
 21
914.7523963178267
 31
0.0
  0
LINE
  5
5E2
330
5E8
100
AcDbEntity
  8
0
  6
ByBlock
 62
     7
370
    -2
380
     1
100
AcDbLine
 10
1344.353006
 20
841.044586
 30
0.0
 11
1344.353006
 21
914.7523963178267
 31
0.0
  0
LINE
  5
5E3
330
5E8
100
AcDbEntity
  8
0
  6
ByBlock
 62
     7
370
    -2
380
     1
100
AcDbLine
 10
254.353006
 20
913.5023963178267
 30
0.0
 11
1334.353006
 21
913.5023963178267
 31
0.0
  0
SOLID
  5
5E4
330
5E8
100
AcDbEntity
  8
0
  6
ByBlock
 62
     7
380
     1
100
AcDbTrace
 10
244.353006
 20
913.5023963178267
 30
0.0
 11
254.353006
 21
911.83572965116
 31
0.0
 12
254.353006
 22
915.1690629844933
 32
0.0
 13
254.353006
 23
915.1690629844933
 33
0.0
  0
SOLID
  5
5E5
330
5E8
100
AcDbEntity
  8
0
  6
ByBlock
 62
     7
380
     1
100
AcDbTrace
 10
1344.353006
 20
913.5023963178267
 30
0.0
 11
1334.353006
 21
911.83572965116
 31
0.0
 12
1334.353006
 22
915.1690629844933
 32
0.0
 13
1334.353006
 23
915.1690629844933
 33
0.0
  0
MTEXT
  5
5E6
330
5E8
100
AcDbEntity
  8
0
  6
ByBlock
 62
     0
370
    -2
380
     1
100
AcDbMText
 10
794.3530059999998
 20
925.5023963178267
 30
0.0
 40
14.0
 41
0.0
 71
     5
 72
     1
  1
\A1;1100
 73
     1
 44
1.0
  0
ENDBLK
  5
71B
330
5E8
100
AcDbEntity
  8
0
100
AcDbBlockEnd
  0
BLOCK
  5
71C
330
5F4
100
AcDbEntity
  8
0
100
AcDbBlockBegin
  2
*D74
 70
     1
 10
0.0
 20
0.0
 30
0.0
  3
*D74
  1

  0
POINT
  5
5EB
330
5F4
100
AcDbEntity
  8
DEFPOINTS
  6
ByBlock
 62
     0
380
     1
100
AcDbPoint
 10
765.4583401550841
 20
860.4195560000001
 30
0.0
  0
POINT
  5
5EC
330
5F4
100
AcDbEntity
  8
DEFPOINTS
  6
ByBlock
 62
     0
380
     1
100
AcDbPoint
 10
771.853006
 20
496.419616
 30
0.0
  0
LINE
  5
5ED
330
5F4
100
AcDbEntity
  8
0
  6
ByBlock
 62
     0
370
    -2
380
     1
100
AcDbLine
 10
766.0833401550841
 20
860.4195560000001
 30
0.0
 11
1446.702823604925
 21
860.4195560000001
 31
0.0
  0
LINE
  5
5EE
330
5F4
100
AcDbEntity
  8
0
  6
ByBlock
 62
     0
370
    -2
380
     1
100
AcDbLine
 10
772.478006
 20
496.419616
 30
0.0
 11
1446.702823604925
 21
496.419616
 31
0.0
  0
LINE
  5
5EF
330
5F4
100
AcDbEntity
  8
0
  6
ByBlock
 62
     0
370
    -2
380
     1
100
AcDbLine
 10
1445.452823604925
 20
857.9195560000001
 30
0.0
 11
1445.452823604925
 21
498.919616
 31
0.0
  0
SOLID
  5
5F0
330
5F4
100
AcDbEntity
  8
0
  6
ByBlock
 62
     0
380
     1
100
AcDbTrace
 10
1445.452823604925
 20
860.4195560000001
 30
0.0
 11
1445.036156938259
 21
857.9195560000001
 31
0.0
 12
1445.869490271592
 22
857.9195560000001
 32
0.0
 13
1445.869490271592
 23
857.9195560000001
 33
0.0
  0
SOLID
  5
5F1
330
5F4
100
AcDbEntity
  8
0
  6
ByBlock
 62
     0
380
     1
100
AcDbTrace
 10
1445.452823604925
 20
496.419616
 30
0.0
 11
1445.036156938259
 21
498.919616
 31
0.0
 12
1445.869490271592
 22
498.919616
 32
0.0
 13
1445.869490271592
 23
498.919616
 33
0.0
  0
MTEXT
  5
5F2
330
5F4
100
AcDbEntity
  8
0
  6
ByBlock
 62
     0
370
    -2
380
     1
100
AcDbMText
 10
1443.577823604925
 20
678.419586
 30
0.0
 40
2.5
 41
0.0
 71
     5
 72
     1
  1
\A1;364
 11
6.123031769111886E-17
 21
1.0
 31
0.0
 73
     1
 44
1.0
  0
ENDBLK
  5
71D
330
5F4
100
AcDbEntity
  8
0
100
AcDbBlockEnd
  0
BLOCK
  5
71E
330
5FF
100
AcDbEntity
  8
0
100
AcDbBlockBegin
  2
*D75
 70
     1
 10
0.0
 20
0.0
 30
0.0
  3
*D75
  1

  0
POINT
  5
5F6
330
5FF
100
AcDbEntity
  8
DEFPOINTS
  6
ByBlock
 62
     0
380
     1
100
AcDbPoint
 10
765.4583401550841
 20
860.4195560000001
 30
0.0
  0
POINT
  5
5F7
330
5FF
100
AcDbEntity
  8
DEFPOINTS
  6
ByBlock
 62
     0
380
     1
100
AcDbPoint
 10
771.853006
 20
496.419616
 30
0.0
  0
LINE
  5
5F8
330
5FF
100
AcDbEntity
  8
0
  6
ByBlock
 62
     0
370
    -2
380
     1
100
AcDbLine
 10
766.0833401550841
 20
860.4195560000001
 30
0.0
 11
1446.702823604925
 21
860.4195560000001
 31
0.0
  0
LINE
  5
5F9
330
5FF
100
AcDbEntity
  8
0
  6
ByBlock
 62
     0
370
    -2
380
     1
100
AcDbLine
 10
772.478006
 20
496.419616
 30
0.0
 11
1446.702823604925
 21
496.419616
 31
0.0
  0
LINE
  5
5FA
330
5FF
100
AcDbEntity
  8
0
  6
ByBlock
 62
     0
370
    -2
380
     1
100
AcDbLine
 10
1445.452823604925
 20
857.9195560000001
 30
0.0
 11
1445.452823604925
 21
498.919616
 31
0.0
  0
SOLID
  5
5FB
330
5FF
100
AcDbEntity
  8
0
  6
ByBlock
 62
     0
380
     1
100
AcDbTrace
 10
1445.452823604925
 20
860.4195560000001
 30
0.0
 11
1445.036156938259
 21
857.9195560000001
 31
0.0
 12
1445.869490271592
 22
857.9195560000001
 32
0.0
 13
1445.869490271592
 23
857.9195560000001
 33
0.0
  0
SOLID
  5
5FC
330
5FF
100
AcDbEntity
  8
0
  6
ByBlock
 62
     0
380
     1
100
AcDbTrace
 10
1445.452823604925
 20
496.419616
 30
0.0
 11
1445.036156938259
 21
498.919616
 31
0.0
 12
1445.869490271592
 22
498.919616
 32
0.0
 13
1445.869490271592
 23
498.919616
 33
0.0
  0
MTEXT
  5
5FD
330
5FF
100
AcDbEntity
  8
0
  6
ByBlock
 62
     0
370
    -2
380
     1
100
AcDbMText
 10
1443.577823604925
 20
678.419586
 30
0.0
 40
2.5
 41
0.0
 71
     5
 72
     1
  1
\A1;364
 11
6.123031769111886E-17
 21
1.0
 31
0.0
 73
     1
 44
1.0
  0
ENDBLK
  5
71F
330
5FF
100
AcDbEntity
  8
0
100
AcDbBlockEnd
  0
BLOCK
  5
720
330
60A
100
AcDbEntity
  8
0
100
AcDbBlockBegin
  2
*D76
 70
     1
 10
0.0
 20
0.0
 30
0.0
  3
*D76
  1

  0
POINT
  5
601
330
60A
100
AcDbEntity
  8
DEFPOINTS
  6
ByBlock
 62
     7
380
     1
100
AcDbPoint
 10
765.4583401550841
 20
860.4195560000001
 30
0.0
  0
POINT
  5
602
330
60A
100
AcDbEntity
  8
DEFPOINTS
  6
ByBlock
 62
     7
380
     1
100
AcDbPoint
 10
771.853006
 20
496.419616
 30
0.0
  0
LINE
  5
603
330
60A
100
AcDbEntity
  8
0
  6
ByBlock
 62
     7
370
    -2
380
     1
100
AcDbLine
 10
766.0833401550841
 20
860.4195560000001
 30
0.0
 11
1446.702823604925
 21
860.4195560000001
 31
0.0
  0
LINE
  5
604
330
60A
100
AcDbEntity
  8
0
  6
ByBlock
 62
     7
370
    -2
380
     1
100
AcDbLine
 10
772.478006
 20
496.419616
 30
0.0
 11
1446.702823604925
 21
496.419616
 31
0.0
  0
LINE
  5
605
330
60A
100
AcDbEntity
  8
0
  6
ByBlock
 62
     7
370
    -2
380
     1
100
AcDbLine
 10
1445.452823604925
 20
850.4195560000001
 30
0.0
 11
1445.452823604925
 21
506.419616
 31
0.0
  0
SOLID
  5
606
330
60A
100
AcDbEntity
  8
0
  6
ByBlock
 62
     7
380
     1
100
AcDbTrace
 10
1445.452823604925
 20
860.4195560000001
 30
0.0
 11
1443.786156938259
 21
850.4195560000001
 31
0.0
 12
1447.119490271592
 22
850.4195560000001
 32
0.0
 13
1447.119490271592
 23
850.4195560000001
 33
0.0
  0
SOLID
  5
607
330
60A
100
AcDbEntity
  8
0
  6
ByBlock
 62
     7
380
     1
100
AcDbTrace
 10
1445.452823604925
 20
496.419616
 30
0.0
 11
1443.786156938259
 21
506.419616
 31
0.0
 12
1447.119490271592
 22
506.419616
 32
0.0
 13
1447.119490271592
 23
506.419616
 33
0.0
  0
MTEXT
  5
608
330
60A
100
AcDbEntity
  8
0
  6
ByBlock
 62
     0
370
    -2
380
     1
100
AcDbMText
 10
1433.452823604925
 20
678.419586
 30
0.0
 40
14.0
 41
0.0
 71
     5
 72
     1
  1
\A1;364
 11
6.123031769111886E-17
 21
1.0
 31
0.0
 73
     1
 44
1.0
  0
ENDBLK
  5
721
330
60A
100
AcDbEntity
  8
0
100
AcDbBlockEnd
  0
BLOCK
  5
722
330
615
100
AcDbEntity
  8
0
100
AcDbBlockBegin
  2
*D77
 70
     1
 10
0.0
 20
0.0
 30
0.0
  3
*D77
  1

  0
POINT
  5
60C
330
615
100
AcDbEntity
  8
DEFPOINTS
  6
ByBlock
 62
     7
380
     1
100
AcDbPoint
 10
765.4583401550841
 20
860.4195560000001
 30
0.0
  0
POINT
  5
60D
330
615
100
AcDbEntity
  8
DEFPOINTS
  6
ByBlock
 62
     7
380
     1
100
AcDbPoint
 10
771.853006
 20
496.419616
 30
0.0
  0
LINE
  5
60E
330
615
100
AcDbEntity
  8
0
  6
ByBlock
 62
     7
370
    -2
380
     1
100
AcDbLine
 10
766.0833401550841
 20
860.4195560000001
 30
0.0
 11
1434.702823604925
 21
860.4195560000001
 31
0.0
  0
LINE
  5
60F
330
615
100
AcDbEntity
  8
0
  6
ByBlock
 62
     7
370
    -2
380
     1
100
AcDbLine
 10
772.478006
 20
496.419616
 30
0.0
 11
1434.702823604925
 21
496.419616
 31
0.0
  0
LINE
  5
610
330
615
100
AcDbEntity
  8
0
  6
ByBlock
 62
     7
370
    -2
380
     1
100
AcDbLine
 10
1433.452823604925
 20
850.4195560000001
 30
0.0
 11
1433.452823604925
 21
506.419616
 31
0.0
  0
SOLID
  5
611
330
615
100
AcDbEntity
  8
0
  6
ByBlock
 62
     7
380
     1
100
AcDbTrace
 10
1433.452823604925
 20
860.4195560000001
 30
0.0
 11
1431.786156938259
 21
850.4195560000001
 31
0.0
 12
1435.119490271592
 22
850.4195560000001
 32
0.0
 13
1435.119490271592
 23
850.4195560000001
 33
0.0
  0
SOLID
  5
612
330
615
100
AcDbEntity
  8
0
  6
ByBlock
 62
     7
380
     1
100
AcDbTrace
 10
1433.452823604925
 20
496.419616
 30
0.0
 11
1431.786156938259
 21
506.419616
 31
0.0
 12
1435.119490271592
 22
506.419616
 32
0.0
 13
1435.119490271592
 23
506.419616
 33
0.0
  0
MTEXT
  5
613
330
615
100
AcDbEntity
  8
0
  6
ByBlock
 62
     0
370
    -2
380
     1
100
AcDbMText
 10
1421.452823604925
 20
678.419586
 30
0.0
 40
14.0
 41
0.0
 71
     5
 72
     1
  1
\A1;364
 11
6.123031769111886E-17
 21
1.0
 31
0.0
 73
     1
 44
1.0
  0
ENDBLK
  5
723
330
615
100
AcDbEntity
  8
0
100
AcDbBlockEnd
  0
BLOCK
  5
724
330
622
100
AcDbEntity
  8
0
100
AcDbBlockBegin
  2
*D78
 70
     1
 10
0.0
 20
0.0
 30
0.0
  3
*D78
  1

  0
POINT
  5
619
330
622
100
AcDbEntity
  8
DEFPOINTS
  6
ByBlock
 62
     0
380
     1
100
AcDbPoint
 10
749.353006
 20
660.591851853257
 30
0.0
  0
POINT
  5
61A
330
622
100
AcDbEntity
  8
DEFPOINTS
  6
ByBlock
 62
     0
380
     1
100
AcDbPoint
 10
839.353006
 20
660.591851853257
 30
0.0
  0
LINE
  5
61B
330
622
100
AcDbEntity
  8
0
  6
ByBlock
 62
     0
370
    -2
380
     1
100
AcDbLine
 10
749.353006
 20
659.966851853257
 30
0.0
 11
749.353006
 21
423.4311549591597
 31
0.0
  0
LINE
  5
61C
330
622
100
AcDbEntity
  8
0
  6
ByBlock
 62
     0
370
    -2
380
     1
100
AcDbLine
 10
839.353006
 20
659.966851853257
 30
0.0
 11
839.353006
 21
423.4311549591597
 31
0.0
  0
LINE
  5
61D
330
622
100
AcDbEntity
  8
0
  6
ByBlock
 62
     0
370
    -2
380
     1
100
AcDbLine
 10
751.853006
 20
424.6811549591597
 30
0.0
 11
836.853006
 21
424.6811549591597
 31
0.0
  0
SOLID
  5
61E
330
622
100
AcDbEntity
  8
0
  6
ByBlock
 62
     0
380
     1
100
AcDbTrace
 10
749.353006
 20
424.6811549591597
 30
0.0
 11
751.853006
 21
424.2644882924931
 31
0.0
 12
751.853006
 22
425.0978216258263
 32
0.0
 13
751.853006
 23
425.0978216258263
 33
0.0
  0
SOLID
  5
61F
330
622
100
AcDbEntity
  8
0
  6
ByBlock
 62
     0
380
     1
100
AcDbTrace
 10
839.353006
 20
424.6811549591597
 30
0.0
 11
836.853006
 21
424.2644882924931
 31
0.0
 12
836.853006
 22
425.0978216258263
 32
0.0
 13
836.853006
 23
425.0978216258263
 33
0.0
  0
MTEXT
  5
620
330
622
100
AcDbEntity
  8
0
  6
ByBlock
 62
     0
370
    -2
380
     1
100
AcDbMText
 10
794.353006
 20
426.5561549591597
 30
0.0
 40
2.5
 41
0.0
 71
     5
 72
     1
  1
\A1;90
 73
     1
 44
1.0
  0
ENDBLK
  5
725
330
622
100
AcDbEntity
  8
0
100
AcDbBlockEnd
  0
BLOCK
  5
726
330
62D
100
AcDbEntity
  8
0
100
AcDbBlockBegin
  2
*D79
 70
     1
 10
0.0
 20
0.0
 30
0.0
  3
*D79
  1

  0
POINT
  5
624
330
62D
100
AcDbEntity
  8
DEFPOINTS
  6
ByBlock
 62
     0
380
     1
100
AcDbPoint
 10
749.353006
 20
660.591851853257
 30
0.0
  0
POINT
  5
625
330
62D
100
AcDbEntity
  8
DEFPOINTS
  6
ByBlock
 62
     0
380
     1
100
AcDbPoint
 10
839.353006
 20
660.591851853257
 30
0.0
  0
LINE
  5
626
330
62D
100
AcDbEntity
  8
0
  6
ByBlock
 62
     0
370
    -2
380
     1
100
AcDbLine
 10
749.353006
 20
659.966851853257
 30
0.0
 11
749.353006
 21
423.4311549591597
 31
0.0
  0
LINE
  5
627
330
62D
100
AcDbEntity
  8
0
  6
ByBlock
 62
     0
370
    -2
380
     1
100
AcDbLine
 10
839.353006
 20
659.966851853257
 30
0.0
 11
839.353006
 21
423.4311549591597
 31
0.0
  0
LINE
  5
628
330
62D
100
AcDbEntity
  8
0
  6
ByBlock
 62
     0
370
    -2
380
     1
100
AcDbLine
 10
751.853006
 20
424.6811549591597
 30
0.0
 11
836.853006
 21
424.6811549591597
 31
0.0
  0
SOLID
  5
629
330
62D
100
AcDbEntity
  8
0
  6
ByBlock
 62
     0
380
     1
100
AcDbTrace
 10
749.353006
 20
424.6811549591597
 30
0.0
 11
751.853006
 21
424.2644882924931
 31
0.0
 12
751.853006
 22
425.0978216258263
 32
0.0
 13
751.853006
 23
425.0978216258263
 33
0.0
  0
SOLID
  5
62A
330
62D
100
AcDbEntity
  8
0
  6
ByBlock
 62
     0
380
     1
100
AcDbTrace
 10
839.353006
 20
424.6811549591597
 30
0.0
 11
836.853006
 21
424.2644882924931
 31
0.0
 12
836.853006
 22
425.0978216258263
 32
0.0
 13
836.853006
 23
425.0978216258263
 33
0.0
  0
MTEXT
  5
62B
330
62D
100
AcDbEntity
  8
0
  6
ByBlock
 62
     0
370
    -2
380
     1
100
AcDbMText
 10
794.353006
 20
426.5561549591597
 30
0.0
 40
2.5
 41
0.0
 71
     5
 72
     1
  1
\A1;90
 73
     1
 44
1.0
  0
ENDBLK
  5
727
330
62D
100
AcDbEntity
  8
0
100
AcDbBlockEnd
  0
BLOCK
  5
728
330
638
100
AcDbEntity
  8
0
100
AcDbBlockBegin
  2
*D80
 70
     1
 10
0.0
 20
0.0
 30
0.0
  3
*D80
  1

  0
POINT
  5
62F
330
638
100
AcDbEntity
  8
DEFPOINTS
  6
ByBlock
 62
     7
380
     1
100
AcDbPoint
 10
749.353006
 20
660.591851853257
 30
0.0
  0
POINT
  5
630
330
638
100
AcDbEntity
  8
DEFPOINTS
  6
ByBlock
 62
     7
380
     1
100
AcDbPoint
 10
839.353006
 20
660.591851853257
 30
0.0
  0
LINE
  5
631
330
638
100
AcDbEntity
  8
0
  6
ByBlock
 62
     7
370
    -2
380
     1
100
AcDbLine
 10
749.353006
 20
659.966851853257
 30
0.0
 11
749.353006
 21
423.4311549591597
 31
0.0
  0
LINE
  5
632
330
638
100
AcDbEntity
  8
0
  6
ByBlock
 62
     7
370
    -2
380
     1
100
AcDbLine
 10
839.353006
 20
659.966851853257
 30
0.0
 11
839.353006
 21
423.4311549591597
 31
0.0
  0
LINE
  5
633
330
638
100
AcDbEntity
  8
0
  6
ByBlock
 62
     7
370
    -2
380
     1
100
AcDbLine
 10
759.353006
 20
424.6811549591597
 30
0.0
 11
829.353006
 21
424.6811549591597
 31
0.0
  0
SOLID
  5
634
330
638
100
AcDbEntity
  8
0
  6
ByBlock
 62
     7
380
     1
100
AcDbTrace
 10
749.353006
 20
424.6811549591597
 30
0.0
 11
759.353006
 21
423.0144882924931
 31
0.0
 12
759.353006
 22
426.3478216258263
 32
0.0
 13
759.353006
 23
426.3478216258263
 33
0.0
  0
SOLID
  5
635
330
638
100
AcDbEntity
  8
0
  6
ByBlock
 62
     7
380
     1
100
AcDbTrace
 10
839.353006
 20
424.6811549591597
 30
0.0
 11
829.353006
 21
423.0144882924931
 31
0.0
 12
829.353006
 22
426.3478216258263
 32
0.0
 13
829.353006
 23
426.3478216258263
 33
0.0
  0
MTEXT
  5
636
330
638
100
AcDbEntity
  8
0
  6
ByBlock
 62
     0
370
    -2
380
     1
100
AcDbMText
 10
794.353006
 20
436.6811549591597
 30
0.0
 40
14.0
 41
0.0
 71
     5
 72
     1
  1
\A1;90
 73
     1
 44
1.0
  0
ENDBLK
  5
729
330
638
100
AcDbEntity
  8
0
100
AcDbBlockEnd
  0
BLOCK
  5
72A
330
643
100
AcDbEntity
  8
0
100
AcDbBlockBegin
  2
*D81
 70
     1
 10
0.0
 20
0.0
 30
0.0
  3
*D81
  1

  0
POINT
  5
63A
330
643
100
AcDbEntity
  8
DEFPOINTS
  6
ByBlock
 62
     7
380
     1
100
AcDbPoint
 10
749.353006
 20
660.591851853257
 30
0.0
  0
POINT
  5
63B
330
643
100
AcDbEntity
  8
DEFPOINTS
  6
ByBlock
 62
     7
380
     1
100
AcDbPoint
 10
839.353006
 20
660.591851853257
 30
0.0
  0
LINE
  5
63C
330
643
100
AcDbEntity
  8
0
  6
ByBlock
 62
     7
370
    -2
380
     1
100
AcDbLine
 10
749.353006
 20
659.966851853257
 30
0.0
 11
749.353006
 21
423.4311549591597
 31
0.0
  0
LINE
  5
63D
330
643
100
AcDbEntity
  8
0
  6
ByBlock
 62
     7
370
    -2
380
     1
100
AcDbLine
 10
839.353006
 20
659.966851853257
 30
0.0
 11
839.353006
 21
423.4311549591597
 31
0.0
  0
LINE
  5
63E
330
643
100
AcDbEntity
  8
0
  6
ByBlock
 62
     7
370
    -2
380
     1
100
AcDbLine
 10
759.353006
 20
424.6811549591597
 30
0.0
 11
829.353006
 21
424.6811549591597
 31
0.0
  0
SOLID
  5
63F
330
643
100
AcDbEntity
  8
0
  6
ByBlock
 62
     7
380
     1
100
AcDbTrace
 10
749.353006
 20
424.6811549591597
 30
0.0
 11
759.353006
 21
423.0144882924931
 31
0.0
 12
759.353006
 22
426.3478216258263
 32
0.0
 13
759.353006
 23
426.3478216258263
 33
0.0
  0
SOLID
  5
640
330
643
100
AcDbEntity
  8
0
  6
ByBlock
 62
     7
380
     1
100
AcDbTrace
 10
839.353006
 20
424.6811549591597
 30
0.0
 11
829.353006
 21
423.0144882924931
 31
0.0
 12
829.353006
 22
426.3478216258263
 32
0.0
 13
829.353006
 23
426.3478216258263
 33
0.0
  0
MTEXT
  5
641
330
643
100
AcDbEntity
  8
0
  6
ByBlock
 62
     0
370
    -2
380
     1
100
AcDbMText
 10
794.353006
 20
436.6811549591597
 30
0.0
 40
14.0
 41
0.0
 71
     5
 72
     1
  1
Ø90
 73
     1
 44
1.0
  0
ENDBLK
  5
72B
330
643
100
AcDbEntity
  8
0
100
AcDbBlockEnd
  0
BLOCK
  5
72C
330
64E
100
AcDbEntity
  8
0
100
AcDbBlockBegin
  2
*D82
 70
     1
 10
0.0
 20
0.0
 30
0.0
  3
*D82
  1

  0
POINT
  5
645
330
64E
100
AcDbEntity
  8
DEFPOINTS
  6
ByBlock
 62
     7
380
     1
100
AcDbPoint
 10
749.353006
 20
660.591851853257
 30
0.0
  0
POINT
  5
646
330
64E
100
AcDbEntity
  8
DEFPOINTS
  6
ByBlock
 62
     7
380
     1
100
AcDbPoint
 10
839.353006
 20
660.591851853257
 30
0.0
  0
LINE
  5
647
330
64E
100
AcDbEntity
  8
0
  6
ByBlock
 62
     7
370
    -2
380
     1
100
AcDbLine
 10
749.353006
 20
659.966851853257
 30
0.0
 11
749.353006
 21
423.4311549591597
 31
0.0
  0
LINE
  5
648
330
64E
100
AcDbEntity
  8
0
  6
ByBlock
 62
     7
370
    -2
380
     1
100
AcDbLine
 10
839.353006
 20
659.966851853257
 30
0.0
 11
839.353006
 21
423.4311549591597
 31
0.0
  0
LINE
  5
649
330
64E
100
AcDbEntity
  8
0
  6
ByBlock
 62
     7
370
    -2
380
     1
100
AcDbLine
 10
759.353006
 20
424.6811549591597
 30
0.0
 11
829.353006
 21
424.6811549591597
 31
0.0
  0
SOLID
  5
64A
330
64E
100
AcDbEntity
  8
0
  6
ByBlock
 62
     7
380
     1
100
AcDbTrace
 10
749.353006
 20
424.6811549591597
 30
0.0
 11
759.353006
 21
423.0144882924931
 31
0.0
 12
759.353006
 22
426.3478216258263
 32
0.0
 13
759.353006
 23
426.3478216258263
 33
0.0
  0
SOLID
  5
64B
330
64E
100
AcDbEntity
  8
0
  6
ByBlock
 62
     7
380
     1
100
AcDbTrace
 10
839.353006
 20
424.6811549591597
 30
0.0
 11
829.353006
 21
423.0144882924931
 31
0.0
 12
829.353006
 22
426.3478216258263
 32
0.0
 13
829.353006
 23
426.3478216258263
 33
0.0
  0
MTEXT
  5
64C
330
64E
100
AcDbEntity
  8
0
  6
ByBlock
 62
     0
370
    -2
380
     1
100
AcDbMText
 10
794.353006
 20
436.6811549591597
 30
0.0
 40
14.0
 41
0.0
 71
     5
 72
     1
  1
Ø90
 73
     1
 44
1.0
  0
ENDBLK
  5
72D
330
64E
100
AcDbEntity
  8
0
100
AcDbBlockEnd
  0
BLOCK
  5
72E
330
659
100
AcDbEntity
  8
0
100
AcDbBlockBegin
  2
*D83
 70
     1
 10
0.0
 20
0.0
 30
0.0
  3
*D83
  1

  0
POINT
  5
650
330
659
100
AcDbEntity
  8
DEFPOINTS
  6
ByBlock
 62
     7
380
     1
100
AcDbPoint
 10
749.353006
 20
660.591851853257
 30
0.0
  0
POINT
  5
651
330
659
100
AcDbEntity
  8
DEFPOINTS
  6
ByBlock
 62
     7
380
     1
100
AcDbPoint
 10
839.353006
 20
660.591851853257
 30
0.0
  0
LINE
  5
652
330
659
100
AcDbEntity
  8
0
  6
ByBlock
 62
     7
370
    -2
380
     1
100
AcDbLine
 10
749.353006
 20
659.966851853257
 30
0.0
 11
749.353006
 21
423.4311549591597
 31
0.0
  0
LINE
  5
653
330
659
100
AcDbEntity
  8
0
  6
ByBlock
 62
     7
370
    -2
380
     1
100
AcDbLine
 10
839.353006
 20
659.966851853257
 30
0.0
 11
839.353006
 21
423.4311549591597
 31
0.0
  0
LINE
  5
654
330
659
100
AcDbEntity
  8
0
  6
ByBlock
 62
     7
370
    -2
380
     1
100
AcDbLine
 10
759.353006
 20
424.6811549591597
 30
0.0
 11
829.353006
 21
424.6811549591597
 31
0.0
  0
SOLID
  5
655
330
659
100
AcDbEntity
  8
0
  6
ByBlock
 62
     7
380
     1
100
AcDbTrace
 10
749.353006
 20
424.6811549591597
 30
0.0
 11
759.353006
 21
423.0144882924931
 31
0.0
 12
759.353006
 22
426.3478216258263
 32
0.0
 13
759.353006
 23
426.3478216258263
 33
0.0
  0
SOLID
  5
656
330
659
100
AcDbEntity
  8
0
  6
ByBlock
 62
     7
380
     1
100
AcDbTrace
 10
839.353006
 20
424.6811549591597
 30
0.0
 11
829.353006
 21
423.0144882924931
 31
0.0
 12
829.353006
 22
426.3478216258263
 32
0.0
 13
829.353006
 23
426.3478216258263
 33
0.0
  0
MTEXT
  5
657
330
659
100
AcDbEntity
  8
0
  6
ByBlock
 62
     0
370
    -2
380
     1
100
AcDbMText
 10
794.353006
 20
436.6811549591597
 30
0.0
 40
14.0
 41
0.0
 71
     5
 72
     1
  1
Ø90
 73
     1
 44
1.0
  0
ENDBLK
  5
72F
330
659
100
AcDbEntity
  8
0
100
AcDbBlockEnd
  0
BLOCK
  5
730
330
666
100
AcDbEntity
  8
0
100
AcDbBlockBegin
  2
*D84
 70
     1
 10
0.0
 20
0.0
 30
0.0
  3
*D84
  1

  0
POINT
  5
65D
330
666
100
AcDbEntity
  8
DEFPOINTS
  6
ByBlock
 62
     0
380
     1
100
AcDbPoint
 10
1090.613313307273
 20
229.740998
 30
0.0
  0
POINT
  5
65E
330
666
100
AcDbEntity
  8
DEFPOINTS
  6
ByBlock
 62
     0
380
     1
100
AcDbPoint
 10
1090.613313307273
 20
129.740998
 30
0.0
  0
LINE
  5
65F
330
666
100
AcDbEntity
  8
0
  6
ByBlock
 62
     0
370
    -2
380
     1
100
AcDbLine
 10
1091.238313307273
 20
229.740998
 30
0.0
 11
1434.702823604925
 21
229.740998
 31
0.0
  0
LINE
  5
660
330
666
100
AcDbEntity
  8
0
  6
ByBlock
 62
     0
370
    -2
380
     1
100
AcDbLine
 10
1091.238313307273
 20
129.740998
 30
0.0
 11
1434.702823604925
 21
129.740998
 31
0.0
  0
LINE
  5
661
330
666
100
AcDbEntity
  8
0
  6
ByBlock
 62
     0
370
    -2
380
     1
100
AcDbLine
 10
1433.452823604925
 20
227.240998
 30
0.0
 11
1433.452823604925
 21
132.240998
 31
0.0
  0
SOLID
  5
662
330
666
100
AcDbEntity
  8
0
  6
ByBlock
 62
     0
380
     1
100
AcDbTrace
 10
1433.452823604925
 20
229.740998
 30
0.0
 11
1433.036156938259
 21
227.240998
 31
0.0
 12
1433.869490271592
 22
227.240998
 32
0.0
 13
1433.869490271592
 23
227.240998
 33
0.0
  0
SOLID
  5
663
330
666
100
AcDbEntity
  8
0
  6
ByBlock
 62
     0
380
     1
100
AcDbTrace
 10
1433.452823604925
 20
129.740998
 30
0.0
 11
1433.036156938259
 21
132.240998
 31
0.0
 12
1433.869490271592
 22
132.240998
 32
0.0
 13
1433.869490271592
 23
132.240998
 33
0.0
  0
MTEXT
  5
664
330
666
100
AcDbEntity
  8
0
  6
ByBlock
 62
     0
370
    -2
380
     1
100
AcDbMText
 10
1431.577823604925
 20
179.740998
 30
0.0
 40
2.5
 41
0.0
 71
     5
 72
     1
  1
\A1;100
 11
6.123031769111886E-17
 21
1.0
 31
0.0
 73
     1
 44
1.0
  0
ENDBLK
  5
731
330
666
100
AcDbEntity
  8
0
100
AcDbBlockEnd
  0
BLOCK
  5
732
330
671
100
AcDbEntity
  8
0
100
AcDbBlockBegin
  2
*D85
 70
     1
 10
0.0
 20
0.0
 30
0.0
  3
*D85
  1

  0
POINT
  5
668
330
671
100
AcDbEntity
  8
DEFPOINTS
  6
ByBlock
 62
     0
380
     1
100
AcDbPoint
 10
1090.613313307273
 20
229.740998
 30
0.0
  0
POINT
  5
669
330
671
100
AcDbEntity
  8
DEFPOINTS
  6
ByBlock
 62
     0
380
     1
100
AcDbPoint
 10
1090.613313307273
 20
129.740998
 30
0.0
  0
LINE
  5
66A
330
671
100
AcDbEntity
  8
0
  6
ByBlock
 62
     0
370
    -2
380
     1
100
AcDbLine
 10
1091.238313307273
 20
229.740998
 30
0.0
 11
1434.702823604925
 21
229.740998
 31
0.0
  0
LINE
  5
66B
330
671
100
AcDbEntity
  8
0
  6
ByBlock
 62
     0
370
    -2
380
     1
100
AcDbLine
 10
1091.238313307273
 20
129.740998
 30
0.0
 11
1434.702823604925
 21
129.740998
 31
0.0
  0
LINE
  5
66C
330
671
100
AcDbEntity
  8
0
  6
ByBlock
 62
     0
370
    -2
380
     1
100
AcDbLine
 10
1433.452823604925
 20
227.240998
 30
0.0
 11
1433.452823604925
 21
132.240998
 31
0.0
  0
SOLID
  5
66D
330
671
100
AcDbEntity
  8
0
  6
ByBlock
 62
     0
380
     1
100
AcDbTrace
 10
1433.452823604925
 20
229.740998
 30
0.0
 11
1433.036156938259
 21
227.240998
 31
0.0
 12
1433.869490271592
 22
227.240998
 32
0.0
 13
1433.869490271592
 23
227.240998
 33
0.0
  0
SOLID
  5
66E
330
671
100
AcDbEntity
  8
0
  6
ByBlock
 62
     0
380
     1
100
AcDbTrace
 10
1433.452823604925
 20
129.740998
 30
0.0
 11
1433.036156938259
 21
132.240998
 31
0.0
 12
1433.869490271592
 22
132.240998
 32
0.0
 13
1433.869490271592
 23
132.240998
 33
0.0
  0
MTEXT
  5
66F
330
671
100
AcDbEntity
  8
0
  6
ByBlock
 62
     0
370
    -2
380
     1
100
AcDbMText
 10
1431.577823604925
 20
179.740998
 30
0.0
 40
2.5
 41
0.0
 71
     5
 72
     1
  1
\A1;100
 11
6.123031769111886E-17
 21
1.0
 31
0.0
 73
     1
 44
1.0
  0
ENDBLK
  5
733
330
671
100
AcDbEntity
  8
0
100
AcDbBlockEnd
  0
BLOCK
  5
734
330
67C
100
AcDbEntity
  8
0
100
AcDbBlockBegin
  2
*D86
 70
     1
 10
0.0
 20
0.0
 30
0.0
  3
*D86
  1

  0
POINT
  5
673
330
67C
100
AcDbEntity
  8
DEFPOINTS
  6
ByBlock
 62
     7
380
     1
100
AcDbPoint
 10
1090.613313307273
 20
229.740998
 30
0.0
  0
POINT
  5
674
330
67C
100
AcDbEntity
  8
DEFPOINTS
  6
ByBlock
 62
     7
380
     1
100
AcDbPoint
 10
1090.613313307273
 20
129.740998
 30
0.0
  0
LINE
  5
675
330
67C
100
AcDbEntity
  8
0
  6
ByBlock
 62
     7
370
    -2
380
     1
100
AcDbLine
 10
1091.238313307273
 20
229.740998
 30
0.0
 11
1434.702823604925
 21
229.740998
 31
0.0
  0
LINE
  5
676
330
67C
100
AcDbEntity
  8
0
  6
ByBlock
 62
     7
370
    -2
380
     1
100
AcDbLine
 10
1091.238313307273
 20
129.740998
 30
0.0
 11
1434.702823604925
 21
129.740998
 31
0.0
  0
LINE
  5
677
330
67C
100
AcDbEntity
  8
0
  6
ByBlock
 62
     7
370
    -2
380
     1
100
AcDbLine
 10
1433.452823604925
 20
219.740998
 30
0.0
 11
1433.452823604925
 21
139.740998
 31
0.0
  0
SOLID
  5
678
330
67C
100
AcDbEntity
  8
0
  6
ByBlock
 62
     7
380
     1
100
AcDbTrace
 10
1433.452823604925
 20
229.740998
 30
0.0
 11
1431.786156938259
 21
219.740998
 31
0.0
 12
1435.119490271592
 22
219.740998
 32
0.0
 13
1435.119490271592
 23
219.740998
 33
0.0
  0
SOLID
  5
679
330
67C
100
AcDbEntity
  8
0
  6
ByBlock
 62
     7
380
     1
100
AcDbTrace
 10
1433.452823604925
 20
129.740998
 30
0.0
 11
1431.786156938259
 21
139.740998
 31
0.0
 12
1435.119490271592
 22
139.740998
 32
0.0
 13
1435.119490271592
 23
139.740998
 33
0.0
  0
MTEXT
  5
67A
330
67C
100
AcDbEntity
  8
0
  6
ByBlock
 62
     0
370
    -2
380
     1
100
AcDbMText
 10
1421.452823604925
 20
179.740998
 30
0.0
 40
14.0
 41
0.0
 71
     5
 72
     1
  1
\A1;100
 11
6.123031769111886E-17
 21
1.0
 31
0.0
 73
     1
 44
1.0
  0
ENDBLK
  5
735
330
67C
100
AcDbEntity
  8
0
100
AcDbBlockEnd
  0
ENDSEC
  0
SECTION
  2
ENTITIES
  0
POINT
  5
430
330
1F
100
AcDbEntity
  8
2
 62
     7
370
    60
100
AcDbPoint
 10
768.993508
 20
538.423646
 30
0.0
  0
POINT
  5
431
330
1F
100
AcDbEntity
  8
2
 62
     7
370
    60
100
AcDbPoint
 10
794.353004
 20
179.740998
 30
0.0
  0
LINE
  5
432
330
1F
100
AcDbEntity
  8
2
  6
DASHDOT
 62
     7
370
    25
100
AcDbLine
 10
794.353004
 20
465.019592
 30
0.0
 11
794.353004
 21
841.81958
 31
0.0
  0
LINE
  5
434
330
1F
100
AcDbEntity
  8
2
  6
DASHDOT
 62
     7
370
    25
100
AcDbLine
 10
794.353004
 20
119.740998
 30
0.0
 11
794.353004
 21
239.740998
 31
0.0
  0
POINT
  5
44B
330
1F
100
AcDbEntity
  8
2
 62
     0
370
    60
100
AcDbPoint
 10
999.353006
 20
843.869614
 30
0.0
  0
POINT
  5
44C
330
1F
100
AcDbEntity
  8
2
 62
     0
370
    60
100
AcDbPoint
 10
794.353006
 20
841.81961
 30
0.0
  0
POINT
  5
454
330
1F
100
AcDbEntity
  8
2
 62
     0
370
    60
100
AcDbPoint
 10
999.353006
 20
826.969614
 30
0.0
  0
POINT
  5
455
330
1F
100
AcDbEntity
  8
2
 62
     0
370
    60
100
AcDbPoint
 10
1004.353006
 20
826.969614
 30
0.0
  0
POINT
  5
45D
330
1F
100
AcDbEntity
  8
2
 62
     0
370
    60
100
AcDbPoint
 10
1059.353006
 20
826.969614
 30
0.0
  0
POINT
  5
45E
330
1F
100
AcDbEntity
  8
2
 62
     0
370
    60
100
AcDbPoint
 10
1064.353006
 20
826.969614
 30
0.0
  0
POINT
  5
466
330
1F
100
AcDbEntity
  8
2
 62
     0
370
    60
100
AcDbPoint
 10
1174.353006
 20
826.969614
 30
0.0
  0
POINT
  5
467
330
1F
100
AcDbEntity
  8
2
 62
     0
370
    60
100
AcDbPoint
 10
1179.353006
 20
826.969614
 30
0.0
  0
POINT
  5
46F
330
1F
100
AcDbEntity
  8
2
 62
     0
370
    60
100
AcDbPoint
 10
1234.353006
 20
826.969614
 30
0.0
  0
POINT
  5
470
330
1F
100
AcDbEntity
  8
2
 62
     0
370
    60
100
AcDbPoint
 10
1239.353006
 20
826.969614
 30
0.0
  0
POINT
  5
478
330
1F
100
AcDbEntity
  8
2
 62
     0
370
    60
100
AcDbPoint
 10
1059.353006
 20
843.869614
 30
0.0
  0
POINT
  5
479
330
1F
100
AcDbEntity
  8
2
 62
     0
370
    60
100
AcDbPoint
 10
1004.353006
 20
843.869614
 30
0.0
  0
POINT
  5
481
330
1F
100
AcDbEntity
  8
2
 62
     0
370
    60
100
AcDbPoint
 10
1174.353006
 20
843.869614
 30
0.0
  0
POINT
  5
482
330
1F
100
AcDbEntity
  8
2
 62
     0
370
    60
100
AcDbPoint
 10
1064.353006
 20
843.869614
 30
0.0
  0
POINT
  5
48A
330
1F
100
AcDbEntity
  8
2
 62
     0
370
    60
100
AcDbPoint
 10
1234.353006
 20
843.869614
 30
0.0
  0
POINT
  5
48B
330
1F
100
AcDbEntity
  8
2
 62
     0
370
    60
100
AcDbPoint
 10
1179.353006
 20
843.869614
 30
0.0
  0
POINT
  5
493
330
1F
100
AcDbEntity
  8
2
 62
     0
370
    60
100
AcDbPoint
 10
1344.353006
 20
860.419614
 30
0.0
  0
POINT
  5
494
330
1F
100
AcDbEntity
  8
2
 62
     0
370
    60
100
AcDbPoint
 10
244.353006
 20
860.419614
 30
0.0
  0
POINT
  5
49C
330
1F
100
AcDbEntity
  8
2
 62
     0
370
    60
100
AcDbPoint
 10
244.353006
 20
860.419614
 30
0.0
  0
POINT
  5
49D
330
1F
100
AcDbEntity
  8
2
 62
     0
370
    60
100
AcDbPoint
 10
254.353006
 20
810.419614
 30
0.0
  0
POINT
  5
4A6
330
1F
100
AcDbEntity
  8
2
 62
     0
370
    60
100
AcDbPoint
 10
1072.803006
 20
835.419614
 30
0.0
  0
POINT
  5
4A7
330
1F
100
AcDbEntity
  8
2
 62
     0
370
    60
100
AcDbPoint
 10
1344.353006
 20
860.419614
 30
0.0
  0
LINE
  5
4A9
330
1F
100
AcDbEntity
  8
2
 62
     0
370
    60
100
AcDbLine
 10
1344.415506000002
 20
860.419614
 30
0.0
 11
1373.631638000006
 21
860.419614
 31
0.0
  0
POINT
  5
4AF
330
1F
100
AcDbEntity
  8
2
 62
     0
370
    60
100
AcDbPoint
 10
969.353006
 20
171.291012
 30
0.0
  0
POINT
  5
4B0
330
1F
100
AcDbEntity
  8
2
 62
     0
370
    60
100
AcDbPoint
 10
794.353006
 20
179.741012
 30
0.0
  0
POINT
  5
4B8
330
1F
100
AcDbEntity
  8
2
 62
     0
370
    60
100
AcDbPoint
 10
999.353006
 20
171.291012
 30
0.0
  0
POINT
  5
4B9
330
1F
100
AcDbEntity
  8
2
 62
     0
370
    60
100
AcDbPoint
 10
969.353006
 20
171.291012
 30
0.0
  0
POINT
  5
4C1
330
1F
100
AcDbEntity
  8
2
 62
     0
370
    60
100
AcDbPoint
 10
1004.353006
 20
171.291012
 30
0.0
  0
POINT
  5
4C2
330
1F
100
AcDbEntity
  8
2
 62
     0
370
    60
100
AcDbPoint
 10
999.353006
 20
171.291012
 30
0.0
  0
POINT
  5
4CB
330
1F
100
AcDbEntity
  8
2
 62
     0
370
    60
100
AcDbPoint
 10
1059.353006
 20
171.291012
 30
0.0
  0
POINT
  5
4CC
330
1F
100
AcDbEntity
  8
2
 62
     0
370
    60
100
AcDbPoint
 10
1064.353006
 20
171.291012
 30
0.0
  0
POINT
  5
4D4
330
1F
100
AcDbEntity
  8
2
 62
     0
370
    60
100
AcDbPoint
 10
1059.353006
 20
188.191012
 30
0.0
  0
POINT
  5
4D5
330
1F
100
AcDbEntity
  8
2
 62
     0
370
    60
100
AcDbPoint
 10
1004.353006
 20
188.191012
 30
0.0
  0
POINT
  5
4DD
330
1F
100
AcDbEntity
  8
2
 62
     0
370
    60
100
AcDbPoint
 10
1174.353006
 20
188.191012
 30
0.0
  0
POINT
  5
4DE
330
1F
100
AcDbEntity
  8
2
 62
     0
370
    60
100
AcDbPoint
 10
1064.353006
 20
188.191012
 30
0.0
  0
POINT
  5
4E6
330
1F
100
AcDbEntity
  8
2
 62
     0
370
    60
100
AcDbPoint
 10
1234.353006
 20
188.191012
 30
0.0
  0
POINT
  5
4E7
330
1F
100
AcDbEntity
  8
2
 62
     0
370
    60
100
AcDbPoint
 10
1179.353006
 20
188.191012
 30
0.0
  0
POINT
  5
4EF
330
1F
100
AcDbEntity
  8
2
 62
     0
370
    60
100
AcDbPoint
 10
1269.353006
 20
188.191012
 30
0.0
  0
POINT
  5
4F0
330
1F
100
AcDbEntity
  8
2
 62
     0
370
    60
100
AcDbPoint
 10
1239.353006
 20
188.191012
 30
0.0
  0
POINT
  5
4F8
330
1F
100
AcDbEntity
  8
2
 62
     0
370
    60
100
AcDbPoint
 10
1179.353006
 20
171.291012
 30
0.0
  0
POINT
  5
4F9
330
1F
100
AcDbEntity
  8
2
 62
     0
370
    60
100
AcDbPoint
 10
1174.353006
 20
171.291012
 30
0.0
  0
POINT
  5
502
330
1F
100
AcDbEntity
  8
2
 62
     0
370
    60
100
AcDbPoint
 10
1239.353006
 20
171.291012
 30
0.0
  0
POINT
  5
503
330
1F
100
AcDbEntity
  8
2
 62
     0
370
    60
100
AcDbPoint
 10
1234.353006
 20
171.291012
 30
0.0
  0
POINT
  5
50C
330
1F
100
AcDbEntity
  8
2
 62
     0
370
    60
100
AcDbPoint
 10
244.353006
 20
229.741012
 30
0.0
  0
POINT
  5
50D
330
1F
100
AcDbEntity
  8
2
 62
     0
370
    60
100
AcDbPoint
 10
244.353006
 20
129.741012
 30
0.0
  0
POINT
  5
515
330
1F
100
AcDbEntity
  8
0
 62
     0
370
    60
100
AcDbPoint
 10
1344.353006
 20
860.419614
 30
0.0
  0
POINT
  5
516
330
1F
100
AcDbEntity
  8
0
 62
     0
370
    60
100
AcDbPoint
 10
839.353006
 20
496.419614
 30
0.0
  0
POINT
  5
51E
330
1F
100
AcDbEntity
  8
0
 62
     0
370
    60
100
AcDbPoint
 10
749.353006
 20
496.419614
 30
0.0
  0
POINT
  5
51F
330
1F
100
AcDbEntity
  8
0
 62
     0
370
    60
100
AcDbPoint
 10
839.353006
 20
496.419614
 30
0.0
  0
LINE
  5
527
330
1F
100
AcDbEntity
  8
0
  6
DASHDOT
 62
     7
 48
0.21125
370
    25
100
AcDbLine
 10
1007.803018
 20
835.419616
 30
0.0
 11
990.902992
 21
835.419616
 31
0.0
  0
LINE
  5
528
330
1F
100
AcDbEntity
  8
0
  6
DASHDOT
 62
     7
 48
0.21125
370
    25
100
AcDbLine
 10
999.353006
 20
843.8696299999999
 30
0.0
 11
999.353006
 21
826.969604
 31
0.0
  0
LINE
  5
529
330
1F
100
AcDbEntity
  8
0
  6
DASHDOT
 62
     7
 48
0.21125
370
    25
100
AcDbLine
 10
1012.803018
 20
835.419616
 30
0.0
 11
995.902992
 21
835.419616
 31
0.0
  0
LINE
  5
52A
330
1F
100
AcDbEntity
  8
0
  6
DASHDOT
 62
     7
 48
0.21125
370
    25
100
AcDbLine
 10
1004.353006
 20
843.8696299999999
 30
0.0
 11
1004.353006
 21
826.969604
 31
0.0
  0
LINE
  5
52B
330
1F
100
AcDbEntity
  8
0
  6
DASHDOT
 62
     7
 48
0.21125
370
    25
100
AcDbLine
 10
1067.803018
 20
835.419616
 30
0.0
 11
1050.902992
 21
835.419616
 31
0.0
  0
LINE
  5
52C
330
1F
100
AcDbEntity
  8
0
  6
DASHDOT
 62
     7
 48
0.21125
370
    25
100
AcDbLine
 10
1059.353006
 20
843.8696299999999
 30
0.0
 11
1059.353006
 21
826.969604
 31
0.0
  0
LINE
  5
52D
330
1F
100
AcDbEntity
  8
0
  6
DASHDOT
 62
     7
 48
0.21125
370
    25
100
AcDbLine
 10
1072.803018
 20
835.419616
 30
0.0
 11
1055.902992
 21
835.419616
 31
0.0
  0
LINE
  5
52E
330
1F
100
AcDbEntity
  8
0
  6
DASHDOT
 62
     7
 48
0.21125
370
    25
100
AcDbLine
 10
1064.353006
 20
843.8696299999999
 30
0.0
 11
1064.353006
 21
826.969604
 31
0.0
  0
LINE
  5
52F
330
1F
100
AcDbEntity
  8
0
  6
DASHDOT
 62
     7
 48
0.211252
370
    25
100
AcDbLine
 10
1182.803078
 20
835.419616
 30
0.0
 11
1165.902932
 21
835.419616
 31
0.0
  0
LINE
  5
530
330
1F
100
AcDbEntity
  8
0
  6
DASHDOT
 62
     7
 48
0.21125
370
    25
100
AcDbLine
 10
1174.353006
 20
843.8696299999999
 30
0.0
 11
1174.353006
 21
826.969604
 31
0.0
  0
LINE
  5
531
330
1F
100
AcDbEntity
  8
0
  6
DASHDOT
 62
     7
 48
0.211252
370
    25
100
AcDbLine
 10
1187.803078
 20
835.419616
 30
0.0
 11
1170.902932
 21
835.419616
 31
0.0
  0
LINE
  5
532
330
1F
100
AcDbEntity
  8
0
  6
DASHDOT
 62
     7
 48
0.21125
370
    25
100
AcDbLine
 10
1179.353006
 20
843.8696299999999
 30
0.0
 11
1179.353006
 21
826.969604
 31
0.0
  0
LINE
  5
533
330
1F
100
AcDbEntity
  8
0
  6
DASHDOT
 62
     7
 48
0.211252
370
    25
100
AcDbLine
 10
1242.803078
 20
835.419616
 30
0.0
 11
1225.902932
 21
835.419616
 31
0.0
  0
LINE
  5
534
330
1F
100
AcDbEntity
  8
0
  6
DASHDOT
 62
     7
 48
0.21125
370
    25
100
AcDbLine
 10
1234.353006
 20
843.8696299999999
 30
0.0
 11
1234.353006
 21
826.969604
 31
0.0
  0
LINE
  5
535
330
1F
100
AcDbEntity
  8
0
  6
DASHDOT
 62
     7
 48
0.211252
370
    25
100
AcDbLine
 10
1247.803078
 20
835.419616
 30
0.0
 11
1230.902932
 21
835.419616
 31
0.0
  0
LINE
  5
536
330
1F
100
AcDbEntity
  8
0
  6
DASHDOT
 62
     7
 48
0.21125
370
    25
100
AcDbLine
 10
1239.353006
 20
843.8696299999999
 30
0.0
 11
1239.353006
 21
826.969604
 31
0.0
  0
LINE
  5
537
330
1F
100
AcDbEntity
  8
0
  6
DASHDOT
 62
     7
 48
0.073125
370
    25
100
AcDbLine
 10
797.277992
 20
800.419616
 30
0.0
 11
791.428018
 21
800.419616
 31
0.0
  0
LINE
  5
538
330
1F
100
AcDbEntity
  8
0
  6
DASHDOT
 62
     7
 48
0.073125
370
    60
100
AcDbLine
 10
794.353006
 20
803.344604
 30
0.0
 11
794.353006
 21
797.49463
 31
0.0
  0
LINE
  5
539
330
1F
100
AcDbEntity
  8
0
 62
     7
370
    60
100
AcDbLine
 10
839.353006
 20
496.419616
 30
0.0
 11
794.353006
 21
496.419616
 31
0.0
  0
LINE
  5
53A
330
1F
100
AcDbEntity
  8
0
 62
     7
370
    60
100
AcDbLine
 10
794.353006
 20
496.419616
 30
0.0
 11
749.353006
 21
496.419616
 31
0.0
  0
LWPOLYLINE
  5
53C
330
1F
100
AcDbEntity
  8
0
 62
     7
370
    60
100
AcDbPolyline
 90
       24
 70
     0
 43
0.0
 10
771.853006
 20
541.794678
 10
772.268106
 20
541.76056
 10
772.676492
 20
541.65973
 10
773.068886
 20
541.494262
 10
773.436868
 20
541.269288
 10
773.773354
 20
540.990418
 10
774.07267
 20
540.662536
 10
774.329872
 20
540.290222
 10
774.539712
 20
539.879394
 10
774.697182
 20
539.437622
 10
774.79783
 20
538.973694
 10
774.838418
 20
538.497192
 10
774.817422
 20
538.018554
 10
774.735574
 20
537.548462
 10
774.59562
 20
537.097352
 10
774.401528
 20
536.6745
 10
774.157814
 20
536.287842
 10
773.869728
 20
535.944154
 10
773.543068
 20
535.6492920000001
 10
773.184426
 20
535.408204
 10
772.80082
 20
535.22522
 10
772.400002
 20
535.104004
 10
771.990152
 20
535.048156
 10
771.853006
 20
535.044616
  0
LWPOLYLINE
  5
53D
330
1F
100
AcDbEntity
  8
0
 62
     7
370
    60
100
AcDbPolyline
 90
       15
 70
     0
 43
0.0
 10
768.993508
 20
538.423646
 10
769.013222
 20
538.817994
 10
769.077248
 20
539.237794
 10
769.183022
 20
539.645508
 10
769.322914
 20
540.007508
 10
769.494362
 20
540.337952
 10
769.691384
 20
540.643922
 10
769.913368
 20
540.91327
 10
770.16105
 20
541.144532
 10
770.425758
 20
541.34961
 10
770.709512
 20
541.520692
 10
771.015908
 20
541.649902
 10
771.341652
 20
541.738708
 10
771.680458
 20
541.787598
 10
771.853006
 20
541.794616
  0
LWPOLYLINE
  5
53E
330
1F
100
AcDbEntity
  8
0
 62
     7
370
    60
100
AcDbPolyline
 90
       13
 70
     0
 43
0.0
 10
771.853006
 20
535.044616
 10
771.460182
 20
535.070678
 10
771.077432
 20
535.155152
 10
770.712868
 20
535.301696
 10
770.372902
 20
535.50824
 10
770.06138
 20
535.769348
 10
769.779702
 20
536.079102
 10
769.53135
 20
536.432068
 10
769.326698
 20
536.820924
 10
769.17051
 20
537.237304
 10
769.0633320000001
 20
537.672974
 10
769.00486
 20
538.12091
 10
768.993508
 20
538.423646
  0
LINE
  5
54C
330
1F
100
AcDbEntity
  8
0
 62
     7
370
    60
100
AcDbLine
 10
749.353006
 20
496.419616
 30
0.0
 11
749.353006
 21
810.4195560000001
 31
0.0
  0
LINE
  5
54D
330
1F
100
AcDbEntity
  8
0
 62
     7
 48
0.482813
370
    60
100
AcDbLine
 10
839.353006
 20
496.419616
 30
0.0
 11
839.353006
 21
535.044616
 31
0.0
  0
LINE
  5
54E
330
1F
100
AcDbEntity
  8
0
 62
     7
370
    60
100
AcDbLine
 10
839.353006
 20
541.794616
 30
0.0
 11
839.353006
 21
810.4195560000001
 31
0.0
  0
LINE
  5
54F
330
1F
100
AcDbEntity
  8
0
 62
     7
 48
0.499999
370
    60
100
AcDbLine
 10
1344.353006
 20
820.419616
 30
0.0
 11
1344.353006
 21
860.4195560000001
 31
0.0
  0
LINE
  5
550
330
1F
100
AcDbEntity
  8
0
 62
     7
 48
0.499999
370
    60
100
AcDbLine
 10
244.353006
 20
820.419616
 30
0.0
 11
244.353006
 21
860.4195560000001
 31
0.0
  0
LINE
  5
551
330
1F
100
AcDbEntity
  8
0
 62
     7
370
    60
100
AcDbLine
 10
1344.353006
 20
860.4195560000001
 30
0.0
 11
244.353006
 21
860.4195560000001
 31
0.0
  0
ARC
  5
552
330
1F
100
AcDbEntity
  8
0
 62
     7
370
    60
100
AcDbCircle
 10
1334.353006
 20
820.419616
 30
0.0
 40
10.0
100
AcDbArc
 50
270.000001
 51
0.00001
  0
LINE
  5
553
330
1F
100
AcDbEntity
  8
0
 62
     7
370
    60
100
AcDbLine
 10
1334.353006
 20
810.419616
 30
0.0
 11
254.353006
 21
810.419616
 31
0.0
  0
ARC
  5
554
330
1F
100
AcDbEntity
  8
0
 62
     7
370
    60
100
AcDbCircle
 10
254.353006
 20
820.419616
 30
0.0
 40
10.0
100
AcDbArc
 50
180.000005
 51
270.000001
  0
LINE
  5
555
330
1F
100
AcDbEntity
  8
0
 62
     7
 48
0.0625
370
    60
100
AcDbLine
 10
999.353006
 20
828.919616
 30
0.0
 11
1004.353006
 21
828.919616
 31
0.0
  0
ARC
  5
556
330
1F
100
AcDbEntity
  8
0
 62
     7
370
    60
100
AcDbCircle
 10
1004.353006
 20
835.419616
 30
0.0
 40
6.5
100
AcDbArc
 50
270.000001
 51
89.99998900000001
  0
LINE
  5
557
330
1F
100
AcDbEntity
  8
0
 62
     7
 48
0.0625
370
    60
100
AcDbLine
 10
999.353006
 20
841.919616
 30
0.0
 11
1004.353006
 21
841.919616
 31
0.0
  0
ARC
  5
558
330
1F
100
AcDbEntity
  8
0
 62
     7
370
    60
100
AcDbCircle
 10
999.353006
 20
835.419616
 30
0.0
 40
6.5
100
AcDbArc
 50
90.000003
 51
270.000001
  0
LINE
  5
559
330
1F
100
AcDbEntity
  8
0
 62
     7
 48
0.0625
370
    60
100
AcDbLine
 10
1059.353006
 20
828.919616
 30
0.0
 11
1064.353006
 21
828.919616
 31
0.0
  0
ARC
  5
55A
330
1F
100
AcDbEntity
  8
0
 62
     7
370
    60
100
AcDbCircle
 10
1064.353006
 20
835.419616
 30
0.0
 40
6.5
100
AcDbArc
 50
270.000001
 51
89.99998900000001
  0
LINE
  5
55B
330
1F
100
AcDbEntity
  8
0
 62
     7
 48
0.0625
370
    60
100
AcDbLine
 10
1059.353006
 20
841.919616
 30
0.0
 11
1064.353006
 21
841.919616
 31
0.0
  0
ARC
  5
55C
330
1F
100
AcDbEntity
  8
0
 62
     7
370
    60
100
AcDbCircle
 10
1059.353006
 20
835.419616
 30
0.0
 40
6.5
100
AcDbArc
 50
90.000003
 51
270.000001
  0
LINE
  5
55D
330
1F
100
AcDbEntity
  8
0
 62
     7
 48
0.0625
370
    60
100
AcDbLine
 10
1174.353006
 20
828.919616
 30
0.0
 11
1179.353006
 21
828.919616
 31
0.0
  0
ARC
  5
55E
330
1F
100
AcDbEntity
  8
0
 62
     7
370
    60
100
AcDbCircle
 10
1179.353006
 20
835.419616
 30
0.0
 40
6.5
100
AcDbArc
 50
270.000001
 51
89.99998900000001
  0
LINE
  5
55F
330
1F
100
AcDbEntity
  8
0
 62
     7
 48
0.0625
370
    60
100
AcDbLine
 10
1174.353006
 20
841.919616
 30
0.0
 11
1179.353006
 21
841.919616
 31
0.0
  0
ARC
  5
560
330
1F
100
AcDbEntity
  8
0
 62
     7
370
    60
100
AcDbCircle
 10
1174.353006
 20
835.419616
 30
0.0
 40
6.5
100
AcDbArc
 50
90.000003
 51
270.000001
  0
LINE
  5
561
330
1F
100
AcDbEntity
  8
0
 62
     7
 48
0.0625
370
    60
100
AcDbLine
 10
1234.353006
 20
828.919616
 30
0.0
 11
1239.353006
 21
828.919616
 31
0.0
  0
ARC
  5
562
330
1F
100
AcDbEntity
  8
0
 62
     7
370
    60
100
AcDbCircle
 10
1239.353006
 20
835.419616
 30
0.0
 40
6.5
100
AcDbArc
 50
270.000001
 51
89.99998900000001
  0
LINE
  5
563
330
1F
100
AcDbEntity
  8
0
 62
     7
 48
0.0625
370
    60
100
AcDbLine
 10
1234.353006
 20
841.919616
 30
0.0
 11
1239.353006
 21
841.919616
 31
0.0
  0
ARC
  5
564
330
1F
100
AcDbEntity
  8
0
 62
     7
370
    60
100
AcDbCircle
 10
1234.353006
 20
835.419616
 30
0.0
 40
6.5
100
AcDbArc
 50
90.000003
 51
270.000001
  0
LINE
  5
565
330
1F
100
AcDbEntity
  8
0
 62
     7
 48
0.0625
370
    60
100
AcDbLine
 10
584.353006
 20
841.919616
 30
0.0
 11
589.353006
 21
841.919616
 31
0.0
  0
ARC
  5
566
330
1F
100
AcDbEntity
  8
0
 62
     7
370
    60
100
AcDbCircle
 10
584.353006
 20
835.419616
 30
0.0
 40
6.5
100
AcDbArc
 50
90.000003
 51
270.000001
  0
LINE
  5
567
330
1F
100
AcDbEntity
  8
0
 62
     7
 48
0.0625
370
    60
100
AcDbLine
 10
584.353006
 20
828.919616
 30
0.0
 11
589.353006
 21
828.919616
 31
0.0
  0
ARC
  5
568
330
1F
100
AcDbEntity
  8
0
 62
     7
370
    60
100
AcDbCircle
 10
589.353006
 20
835.419616
 30
0.0
 40
6.5
100
AcDbArc
 50
270.000001
 51
89.99998900000001
  0
LINE
  5
569
330
1F
100
AcDbEntity
  8
0
 62
     7
 48
0.0625
370
    60
100
AcDbLine
 10
524.353006
 20
841.919616
 30
0.0
 11
529.353006
 21
841.919616
 31
0.0
  0
ARC
  5
56A
330
1F
100
AcDbEntity
  8
0
 62
     7
370
    60
100
AcDbCircle
 10
524.353006
 20
835.419616
 30
0.0
 40
6.5
100
AcDbArc
 50
90.000003
 51
270.000001
  0
LINE
  5
56B
330
1F
100
AcDbEntity
  8
0
 62
     7
 48
0.0625
370
    60
100
AcDbLine
 10
524.353006
 20
828.919616
 30
0.0
 11
529.353006
 21
828.919616
 31
0.0
  0
ARC
  5
56C
330
1F
100
AcDbEntity
  8
0
 62
     7
370
    60
100
AcDbCircle
 10
529.353006
 20
835.419616
 30
0.0
 40
6.5
100
AcDbArc
 50
270.000001
 51
89.99998900000001
  0
LINE
  5
56D
330
1F
100
AcDbEntity
  8
0
 62
     7
 48
0.0625
370
    60
100
AcDbLine
 10
409.353006
 20
841.919616
 30
0.0
 11
414.353006
 21
841.919616
 31
0.0
  0
ARC
  5
56E
330
1F
100
AcDbEntity
  8
0
 62
     7
370
    60
100
AcDbCircle
 10
409.353006
 20
835.419616
 30
0.0
 40
6.5
100
AcDbArc
 50
90.000003
 51
270.000001
  0
LINE
  5
56F
330
1F
100
AcDbEntity
  8
0
 62
     7
 48
0.0625
370
    60
100
AcDbLine
 10
409.353006
 20
828.919616
 30
0.0
 11
414.353006
 21
828.919616
 31
0.0
  0
ARC
  5
570
330
1F
100
AcDbEntity
  8
0
 62
     7
370
    60
100
AcDbCircle
 10
414.353006
 20
835.419616
 30
0.0
 40
6.5
100
AcDbArc
 50
270.000001
 51
89.99998900000001
  0
LINE
  5
571
330
1F
100
AcDbEntity
  8
0
 62
     7
 48
0.0625
370
    60
100
AcDbLine
 10
349.353006
 20
841.919616
 30
0.0
 11
354.353006
 21
841.919616
 31
0.0
  0
ARC
  5
572
330
1F
100
AcDbEntity
  8
0
 62
     7
370
    60
100
AcDbCircle
 10
349.353006
 20
835.419616
 30
0.0
 40
6.5
100
AcDbArc
 50
90.000003
 51
270.000001
  0
LINE
  5
573
330
1F
100
AcDbEntity
  8
0
 62
     7
 48
0.0625
370
    60
100
AcDbLine
 10
349.353006
 20
828.919616
 30
0.0
 11
354.353006
 21
828.919616
 31
0.0
  0
ARC
  5
574
330
1F
100
AcDbEntity
  8
0
 62
     7
370
    60
100
AcDbCircle
 10
354.353006
 20
835.419616
 30
0.0
 40
6.5
100
AcDbArc
 50
270.000001
 51
89.99998900000001
  0
LINE
  5
575
330
1F
100
AcDbEntity
  8
0
 62
     7
370
    60
100
AcDbLine
 10
839.353006
 20
496.419616
 30
0.0
 11
794.353006
 21
496.419616
 31
0.0
  0
LINE
  5
576
330
1F
100
AcDbEntity
  8
0
 62
     7
370
    60
100
AcDbLine
 10
794.353006
 20
496.419616
 30
0.0
 11
749.353006
 21
496.419616
 31
0.0
  0
CIRCLE
  5
577
330
1F
100
AcDbEntity
  8
0
 62
     7
370
    60
100
AcDbCircle
 10
794.353006
 20
800.419616
 30
0.0
 40
2.25
  0
LWPOLYLINE
  5
578
330
1F
100
AcDbEntity
  8
0
 62
     7
370
    60
100
AcDbPolyline
 90
       24
 70
     0
 43
0.0
 10
771.853006
 20
541.794678
 10
772.268106
 20
541.76056
 10
772.676492
 20
541.65973
 10
773.068886
 20
541.494262
 10
773.436868
 20
541.269288
 10
773.773354
 20
540.990418
 10
774.07267
 20
540.662536
 10
774.329872
 20
540.290222
 10
774.539712
 20
539.879394
 10
774.697182
 20
539.437622
 10
774.79783
 20
538.973694
 10
774.838418
 20
538.497192
 10
774.817422
 20
538.018554
 10
774.735574
 20
537.548462
 10
774.59562
 20
537.097352
 10
774.401528
 20
536.6745
 10
774.157814
 20
536.287842
 10
773.869728
 20
535.944154
 10
773.543068
 20
535.6492920000001
 10
773.184426
 20
535.408204
 10
772.80082
 20
535.22522
 10
772.400002
 20
535.104004
 10
771.990152
 20
535.048156
 10
771.853006
 20
535.044616
  0
LWPOLYLINE
  5
579
330
1F
100
AcDbEntity
  8
0
 62
     7
370
    60
100
AcDbPolyline
 90
       15
 70
     0
 43
0.0
 10
768.993508
 20
538.423646
 10
769.013222
 20
538.817994
 10
769.077248
 20
539.237794
 10
769.183022
 20
539.645508
 10
769.322914
 20
540.007508
 10
769.494362
 20
540.337952
 10
769.691384
 20
540.643922
 10
769.913368
 20
540.91327
 10
770.16105
 20
541.144532
 10
770.425758
 20
541.34961
 10
770.709512
 20
541.520692
 10
771.015908
 20
541.649902
 10
771.341652
 20
541.738708
 10
771.680458
 20
541.787598
 10
771.853006
 20
541.794616
  0
LWPOLYLINE
  5
57A
330
1F
100
AcDbEntity
  8
0
 62
     7
370
    60
100
AcDbPolyline
 90
       13
 70
     0
 43
0.0
 10
771.853006
 20
535.044616
 10
771.460182
 20
535.070678
 10
771.077432
 20
535.155152
 10
770.712868
 20
535.301696
 10
770.372902
 20
535.50824
 10
770.06138
 20
535.769348
 10
769.779702
 20
536.079102
 10
769.53135
 20
536.432068
 10
769.326698
 20
536.820924
 10
769.17051
 20
537.237304
 10
769.0633320000001
 20
537.672974
 10
769.00486
 20
538.12091
 10
768.993508
 20
538.423646
  0
LINE
  5
588
330
1F
100
AcDbEntity
  8
0
 62
     7
370
    60
100
AcDbLine
 10
749.353006
 20
496.419616
 30
0.0
 11
749.353006
 21
810.4195560000001
 31
0.0
  0
LINE
  5
589
330
1F
100
AcDbEntity
  8
0
 62
     7
 48
0.482813
370
    60
100
AcDbLine
 10
839.353006
 20
496.419616
 30
0.0
 11
839.353006
 21
535.044616
 31
0.0
  0
LINE
  5
58A
330
1F
100
AcDbEntity
  8
0
 62
     7
370
    60
100
AcDbLine
 10
839.353006
 20
541.794616
 30
0.0
 11
839.353006
 21
810.4195560000001
 31
0.0
  0
LINE
  5
58B
330
1F
100
AcDbEntity
  8
0
  6
DASHDOT
 62
     7
 48
0.211252
370
    25
100
AcDbLine
 10
1277.803078
 20
179.740998
 30
0.0
 11
1260.902932
 21
179.740998
 31
0.0
  0
LINE
  5
58C
330
1F
100
AcDbEntity
  8
0
  6
DASHDOT
 62
     7
 48
0.21125
370
    25
100
AcDbLine
 10
1269.353006
 20
188.19101
 30
0.0
 11
1269.353006
 21
171.290986
 31
0.0
  0
LINE
  5
58D
330
1F
100
AcDbEntity
  8
0
  6
DASHDOT
 62
     7
 48
0.211252
370
    25
100
AcDbLine
 10
1247.803078
 20
179.740998
 30
0.0
 11
1230.902932
 21
179.740998
 31
0.0
  0
LINE
  5
58E
330
1F
100
AcDbEntity
  8
0
  6
DASHDOT
 62
     7
 48
0.21125
370
    25
100
AcDbLine
 10
1239.353006
 20
188.19101
 30
0.0
 11
1239.353006
 21
171.290986
 31
0.0
  0
LINE
  5
58F
330
1F
100
AcDbEntity
  8
0
  6
DASHDOT
 62
     7
 48
0.211252
370
    25
100
AcDbLine
 10
1242.803078
 20
179.740998
 30
0.0
 11
1225.902932
 21
179.740998
 31
0.0
  0
LINE
  5
590
330
1F
100
AcDbEntity
  8
0
  6
DASHDOT
 62
     7
 48
0.21125
370
    25
100
AcDbLine
 10
1234.353006
 20
188.19101
 30
0.0
 11
1234.353006
 21
171.290986
 31
0.0
  0
LINE
  5
591
330
1F
100
AcDbEntity
  8
0
  6
DASHDOT
 62
     7
 48
0.211252
370
    25
100
AcDbLine
 10
1187.803078
 20
179.740998
 30
0.0
 11
1170.902932
 21
179.740998
 31
0.0
  0
LINE
  5
592
330
1F
100
AcDbEntity
  8
0
  6
DASHDOT
 62
     7
 48
0.21125
370
    25
100
AcDbLine
 10
1179.353006
 20
188.19101
 30
0.0
 11
1179.353006
 21
171.290986
 31
0.0
  0
LINE
  5
593
330
1F
100
AcDbEntity
  8
0
  6
DASHDOT
 62
     7
 48
0.211252
370
    25
100
AcDbLine
 10
1182.803078
 20
179.740998
 30
0.0
 11
1165.902932
 21
179.740998
 31
0.0
  0
LINE
  5
594
330
1F
100
AcDbEntity
  8
0
  6
DASHDOT
 62
     7
 48
0.21125
370
    25
100
AcDbLine
 10
1174.353006
 20
188.19101
 30
0.0
 11
1174.353006
 21
171.290986
 31
0.0
  0
LINE
  5
595
330
1F
100
AcDbEntity
  8
0
  6
DASHDOT
 62
     7
 48
0.21125
370
    25
100
AcDbLine
 10
1072.803018
 20
179.740998
 30
0.0
 11
1055.902992
 21
179.740998
 31
0.0
  0
LINE
  5
596
330
1F
100
AcDbEntity
  8
0
  6
DASHDOT
 62
     7
 48
0.21125
370
    25
100
AcDbLine
 10
1064.353006
 20
188.19101
 30
0.0
 11
1064.353006
 21
171.290986
 31
0.0
  0
LINE
  5
597
330
1F
100
AcDbEntity
  8
0
  6
DASHDOT
 62
     7
 48
0.21125
370
    25
100
AcDbLine
 10
1067.803018
 20
179.740998
 30
0.0
 11
1050.902992
 21
179.740998
 31
0.0
  0
LINE
  5
598
330
1F
100
AcDbEntity
  8
0
  6
DASHDOT
 62
     7
 48
0.21125
370
    25
100
AcDbLine
 10
1059.353006
 20
188.19101
 30
0.0
 11
1059.353006
 21
171.290986
 31
0.0
  0
LINE
  5
599
330
1F
100
AcDbEntity
  8
0
  6
DASHDOT
 62
     7
 48
0.21125
370
    25
100
AcDbLine
 10
1012.803018
 20
179.740998
 30
0.0
 11
995.902992
 21
179.740998
 31
0.0
  0
LINE
  5
59A
330
1F
100
AcDbEntity
  8
0
  6
DASHDOT
 62
     7
 48
0.21125
370
    25
100
AcDbLine
 10
1004.353006
 20
188.19101
 30
0.0
 11
1004.353006
 21
171.290986
 31
0.0
  0
LINE
  5
59B
330
1F
100
AcDbEntity
  8
0
  6
DASHDOT
 62
     7
 48
0.21125
370
    25
100
AcDbLine
 10
1007.803018
 20
179.740998
 30
0.0
 11
990.902992
 21
179.740998
 31
0.0
  0
LINE
  5
59C
330
1F
100
AcDbEntity
  8
0
  6
DASHDOT
 62
     7
 48
0.21125
370
    25
100
AcDbLine
 10
999.353006
 20
188.19101
 30
0.0
 11
999.353006
 21
171.290986
 31
0.0
  0
LINE
  5
59D
330
1F
100
AcDbEntity
  8
0
  6
DASHDOT
 62
     7
 48
0.21125
370
    25
100
AcDbLine
 10
977.803018
 20
179.740998
 30
0.0
 11
960.902992
 21
179.740998
 31
0.0
  0
LINE
  5
59E
330
1F
100
AcDbEntity
  8
0
  6
DASHDOT
 62
     7
 48
0.21125
370
    25
100
AcDbLine
 10
969.353006
 20
188.19101
 30
0.0
 11
969.353006
 21
171.290986
 31
0.0
  0
LINE
  5
59F
330
1F
100
AcDbEntity
  8
0
 62
     7
370
    60
100
AcDbLine
 10
1344.353006
 20
129.740998
 30
0.0
 11
1344.353006
 21
229.740998
 31
0.0
  0
LINE
  5
5A0
330
1F
100
AcDbEntity
  8
0
 62
     7
370
    60
100
AcDbLine
 10
244.353006
 20
129.740998
 30
0.0
 11
244.353006
 21
229.740998
 31
0.0
  0
LINE
  5
5A1
330
1F
100
AcDbEntity
  8
0
 62
     7
370
    60
100
AcDbLine
 10
1344.353006
 20
229.740998
 30
0.0
 11
244.353006
 21
229.740998
 31
0.0
  0
LINE
  5
5A2
330
1F
100
AcDbEntity
  8
0
 62
     7
370
    60
100
AcDbLine
 10
1344.353006
 20
129.740998
 30
0.0
 11
244.353006
 21
129.740998
 31
0.0
  0
LINE
  5
5A3
330
1F
100
AcDbEntity
  8
0
 62
     7
 48
0.0625
370
    60
100
AcDbLine
 10
1004.353006
 20
173.240998
 30
0.0
 11
999.353006
 21
173.240998
 31
0.0
  0
ARC
  5
5A4
330
1F
100
AcDbEntity
  8
0
 62
     7
370
    60
100
AcDbCircle
 10
1004.353006
 20
179.740998
 30
0.0
 40
6.5
100
AcDbArc
 50
270.000001
 51
89.99998900000001
  0
LINE
  5
5A5
330
1F
100
AcDbEntity
  8
0
 62
     7
 48
0.0625
370
    60
100
AcDbLine
 10
1004.353006
 20
186.240998
 30
0.0
 11
999.353006
 21
186.240998
 31
0.0
  0
ARC
  5
5A6
330
1F
100
AcDbEntity
  8
0
 62
     7
370
    60
100
AcDbCircle
 10
999.353006
 20
179.740998
 30
0.0
 40
6.5
100
AcDbArc
 50
90.000003
 51
270.000001
  0
LINE
  5
5A7
330
1F
100
AcDbEntity
  8
0
 62
     7
 48
0.0625
370
    60
100
AcDbLine
 10
1064.353006
 20
173.240998
 30
0.0
 11
1059.353006
 21
173.240998
 31
0.0
  0
ARC
  5
5A8
330
1F
100
AcDbEntity
  8
0
 62
     7
370
    60
100
AcDbCircle
 10
1064.353006
 20
179.740998
 30
0.0
 40
6.5
100
AcDbArc
 50
270.000001
 51
89.99998900000001
  0
LINE
  5
5A9
330
1F
100
AcDbEntity
  8
0
 62
     7
 48
0.0625
370
    60
100
AcDbLine
 10
1064.353006
 20
186.240998
 30
0.0
 11
1059.353006
 21
186.240998
 31
0.0
  0
ARC
  5
5AA
330
1F
100
AcDbEntity
  8
0
 62
     7
370
    60
100
AcDbCircle
 10
1059.353006
 20
179.740998
 30
0.0
 40
6.5
100
AcDbArc
 50
90.000003
 51
270.000001
  0
LINE
  5
5AB
330
1F
100
AcDbEntity
  8
0
 62
     7
 48
0.0625
370
    60
100
AcDbLine
 10
1179.353006
 20
173.240998
 30
0.0
 11
1174.353006
 21
173.240998
 31
0.0
  0
ARC
  5
5AC
330
1F
100
AcDbEntity
  8
0
 62
     7
370
    60
100
AcDbCircle
 10
1179.353006
 20
179.740998
 30
0.0
 40
6.5
100
AcDbArc
 50
270.000001
 51
89.99998900000001
  0
LINE
  5
5AD
330
1F
100
AcDbEntity
  8
0
 62
     7
 48
0.0625
370
    60
100
AcDbLine
 10
1179.353006
 20
186.240998
 30
0.0
 11
1174.353006
 21
186.240998
 31
0.0
  0
ARC
  5
5AE
330
1F
100
AcDbEntity
  8
0
 62
     7
370
    60
100
AcDbCircle
 10
1174.353006
 20
179.740998
 30
0.0
 40
6.5
100
AcDbArc
 50
90.000003
 51
270.000001
  0
LINE
  5
5AF
330
1F
100
AcDbEntity
  8
0
 62
     7
 48
0.0625
370
    60
100
AcDbLine
 10
1239.353006
 20
173.240998
 30
0.0
 11
1234.353006
 21
173.240998
 31
0.0
  0
ARC
  5
5B0
330
1F
100
AcDbEntity
  8
0
 62
     7
370
    60
100
AcDbCircle
 10
1239.353006
 20
179.740998
 30
0.0
 40
6.5
100
AcDbArc
 50
270.000001
 51
89.99998900000001
  0
LINE
  5
5B1
330
1F
100
AcDbEntity
  8
0
 62
     7
 48
0.0625
370
    60
100
AcDbLine
 10
1239.353006
 20
186.240998
 30
0.0
 11
1234.353006
 21
186.240998
 31
0.0
  0
ARC
  5
5B2
330
1F
100
AcDbEntity
  8
0
 62
     7
370
    60
100
AcDbCircle
 10
1234.353006
 20
179.740998
 30
0.0
 40
6.5
100
AcDbArc
 50
90.000003
 51
270.000001
  0
CIRCLE
  5
5B3
330
1F
100
AcDbEntity
  8
0
 62
     7
370
    60
100
AcDbCircle
 10
1269.353006
 20
179.740998
 30
0.0
 40
6.5
  0
CIRCLE
  5
5B4
330
1F
100
AcDbEntity
  8
0
 62
     7
370
    60
100
AcDbCircle
 10
969.353006
 20
179.740998
 30
0.0
 40
6.5
  0
LINE
  5
5B5
330
1F
100
AcDbEntity
  8
0
 62
     7
 48
0.0625
370
    60
100
AcDbLine
 10
589.353006
 20
186.240998
 30
0.0
 11
584.353006
 21
186.240998
 31
0.0
  0
ARC
  5
5B6
330
1F
100
AcDbEntity
  8
0
 62
     7
370
    60
100
AcDbCircle
 10
584.353006
 20
179.740998
 30
0.0
 40
6.5
100
AcDbArc
 50
90.000003
 51
270.000001
  0
LINE
  5
5B7
330
1F
100
AcDbEntity
  8
0
 62
     7
 48
0.0625
370
    60
100
AcDbLine
 10
589.353006
 20
173.240998
 30
0.0
 11
584.353006
 21
173.240998
 31
0.0
  0
ARC
  5
5B8
330
1F
100
AcDbEntity
  8
0
 62
     7
370
    60
100
AcDbCircle
 10
589.353006
 20
179.740998
 30
0.0
 40
6.5
100
AcDbArc
 50
270.000001
 51
89.99998900000001
  0
LINE
  5
5B9
330
1F
100
AcDbEntity
  8
0
 62
     7
 48
0.0625
370
    60
100
AcDbLine
 10
529.353006
 20
186.240998
 30
0.0
 11
524.353006
 21
186.240998
 31
0.0
  0
ARC
  5
5BA
330
1F
100
AcDbEntity
  8
0
 62
     7
370
    60
100
AcDbCircle
 10
524.353006
 20
179.740998
 30
0.0
 40
6.5
100
AcDbArc
 50
90.000003
 51
270.000001
  0
LINE
  5
5BB
330
1F
100
AcDbEntity
  8
0
 62
     7
 48
0.0625
370
    60
100
AcDbLine
 10
529.353006
 20
173.240998
 30
0.0
 11
524.353006
 21
173.240998
 31
0.0
  0
ARC
  5
5BC
330
1F
100
AcDbEntity
  8
0
 62
     7
370
    60
100
AcDbCircle
 10
529.353006
 20
179.740998
 30
0.0
 40
6.5
100
AcDbArc
 50
270.000001
 51
89.99998900000001
  0
LINE
  5
5BD
330
1F
100
AcDbEntity
  8
0
 62
     7
 48
0.0625
370
    60
100
AcDbLine
 10
414.353006
 20
186.240998
 30
0.0
 11
409.353006
 21
186.240998
 31
0.0
  0
ARC
  5
5BE
330
1F
100
AcDbEntity
  8
0
 62
     7
370
    60
100
AcDbCircle
 10
409.353006
 20
179.740998
 30
0.0
 40
6.5
100
AcDbArc
 50
90.000003
 51
270.000001
  0
LINE
  5
5BF
330
1F
100
AcDbEntity
  8
0
 62
     7
 48
0.0625
370
    60
100
AcDbLine
 10
414.353006
 20
173.240998
 30
0.0
 11
409.353006
 21
173.240998
 31
0.0
  0
ARC
  5
5C0
330
1F
100
AcDbEntity
  8
0
 62
     7
370
    60
100
AcDbCircle
 10
414.353006
 20
179.740998
 30
0.0
 40
6.5
100
AcDbArc
 50
270.000001
 51
89.99998900000001
  0
LINE
  5
5C1
330
1F
100
AcDbEntity
  8
0
 62
     7
 48
0.0625
370
    60
100
AcDbLine
 10
354.353006
 20
186.240998
 30
0.0
 11
349.353006
 21
186.240998
 31
0.0
  0
ARC
  5
5C2
330
1F
100
AcDbEntity
  8
0
 62
     7
370
    60
100
AcDbCircle
 10
349.353006
 20
179.740998
 30
0.0
 40
6.5
100
AcDbArc
 50
90.000003
 51
270.000001
  0
LINE
  5
5C3
330
1F
100
AcDbEntity
  8
0
 62
     7
 48
0.0625
370
    60
100
AcDbLine
 10
354.353006
 20
173.240998
 30
0.0
 11
349.353006
 21
173.240998
 31
0.0
  0
ARC
  5
5C4
330
1F
100
AcDbEntity
  8
0
 62
     7
370
    60
100
AcDbCircle
 10
354.353006
 20
179.740998
 30
0.0
 40
6.5
100
AcDbArc
 50
270.000001
 51
89.99998900000001
  0
CIRCLE
  5
5C5
330
1F
100
AcDbEntity
  8
0
 62
     7
370
    60
100
AcDbCircle
 10
319.353006
 20
179.740998
 30
0.0
 40
6.5
  0
CIRCLE
  5
5C6
330
1F
100
AcDbEntity
  8
0
 62
     7
370
    60
100
AcDbCircle
 10
619.353006
 20
179.740998
 30
0.0
 40
6.5
  0
DIMENSION
  5
5C7
330
1F
100
AcDbEntity
  8
0
370
    25
100
AcDbDimension
  2
*D73
 10
1344.353006
 20
913.5023963178267
 30
0.0
 11
794.3530059999998
 21
925.5023963178267
 31
0.0
 70
    32
 71
     5
 41
2.5
 42
1100.0
  3
ISO-25
100
AcDbAlignedDimension
 13
244.353006
 23
840.419586
 33
0.0
 14
1344.353006
 24
840.419586
 34
0.0
100
AcDbRotatedDimension
1001
ACAD
1000
DSTYLE
1002
{
1070
    41
1040
10.0
1070
   140
1040
14.0
1070
   147
1040
5.0
1070
   176
1070
     7
1070
   177
1070
     7
1002
}
  0
DIMENSION
  5
5E9
330
1F
100
AcDbEntity
  8
0
370
    25
100
AcDbDimension
  2
*D77
 10
1433.452823604925
 20
496.419616
 30
0.0
 11
1421.452823604925
 21
678.419586
 31
0.0
 70
   160
 71
     5
 41
2.5
 42
363.99994
  3
ISO-25
100
AcDbAlignedDimension
 13
765.4583401550841
 23
860.4195560000001
 33
0.0
 14
771.853006
 24
496.419616
 34
0.0
 50
90.0
100
AcDbRotatedDimension
1001
ACAD
1000
DSTYLE
1002
{
1070
    41
1040
10.0
1070
   140
1040
14.0
1070
   147
1040
5.0
1070
   176
1070
     7
1070
   177
1070
     7
1002
}
  0
DIMENSION
  5
617
330
1F
100
AcDbEntity
  8
0
370
    25
100
AcDbDimension
  2
*D83
 10
839.353006
 20
424.6811549591597
 30
0.0
 11
794.353006
 21
436.6811549591597
 31
0.0
 70
   160
  1
Ø90
 71
     5
 41
2.5
 42
90.0
  3
ISO-25
100
AcDbAlignedDimension
 13
749.353006
 23
660.591851853257
 33
0.0
 14
839.353006
 24
660.591851853257
 34
0.0
100
AcDbRotatedDimension
1001
ACAD
1000
DSTYLE
1002
{
1070
    41
1040
10.0
1070
   140
1040
14.0
1070
   147
1040
5.0
1070
   176
1070
     7
1070
   177
1070
     7
1002
}
  0
DIMENSION
  5
65B
330
1F
100
AcDbEntity
  8
0
370
    25
100
AcDbDimension
  2
*D86
 10
1433.452823604925
 20
129.740998
 30
0.0
 11
1421.452823604925
 21
179.740998
 31
0.0
 70
    32
 71
     5
 41
2.5
 42
100.0
  3
ISO-25
100
AcDbAlignedDimension
 13
1090.613313307273
 23
229.740998
 33
0.0
 14
1090.613313307273
 24
129.740998
 34
0.0
 50
90.0
100
AcDbRotatedDimension
1001
ACAD
1000
DSTYLE
1002
{
1070
    41
1040
10.0
1070
   140
1040
14.0
1070
   147
1040
5.0
1070
   176
1070
     7
1070
   177
1070
     7
1002
}
  0
VIEWPORT
  5
BB
330
73
100
AcDbEntity
 67
     1
  8
0
100
AcDbViewport
 10
7.8
 20
4.5
 30
0.0
 40
15.64
 41
9.0
 68
     1
 69
     1
 12
6.0
 22
4.5
 13
0.0
 23
0.0
 14
0.5
 24
0.5
 15
0.5
 25
0.5
 16
0.0
 26
0.0
 36
1.0
 17
0.0
 27
0.0
 37
0.0
 42
50.0
 43
0.0
 44
0.0
 45
12.0
 50
0.0
 51
0.0
 72
   100
 90
   557152
  1

281
     0
 71
     1
 74
     0
110
0.0
120
0.0
130
0.0
111
1.0
121
0.0
131
0.0
112
0.0
122
1.0
132
0.0
 79
     0
146
0.0
  0
ENDSEC
  0
SECTION
  2
OBJECTS
  0
DICTIONARY
  5
C
330
0
100
AcDbDictionary
281
     1
  3
ACAD_COLOR
350
6C
  3
ACAD_GROUP
350
D
  3
ACAD_LAYOUT
350
1A
  3
ACAD_MATERIAL
350
6B
  3
ACAD_MLEADERSTYLE
350
737
  3
ACAD_MLINESTYLE
350
17
  3
ACAD_PLOTSETTINGS
350
19
  3
ACAD_PLOTSTYLENAME
350
E
  3
ACAD_SCALELIST
350
99
  3
ACAD_TABLESTYLE
350
92
  3
ACDBHEADERROUNDTRIPXREC
350
738
  3
AcDbVariableDictionary
350
59
  3
DWGPROPS
350
73B
  0
DICTIONARY
  5
6C
102
{ACAD_REACTORS
330
C
102
}
330
C
100
AcDbDictionary
281
     1
  0
DICTIONARY
  5
D
102
{ACAD_REACTORS
330
C
102
}
330
C
100
AcDbDictionary
281
     1
  0
DICTIONARY
  5
1A
102
{ACAD_REACTORS
330
C
102
}
330
C
100
AcDbDictionary
281
     1
  3
Layout1
350
74
  3
Layout2
350
687
  3
Model
350
22
  0
DICTIONARY
  5
6B
102
{ACAD_REACTORS
330
C
102
}
330
C
100
AcDbDictionary
281
     1
  0
DICTIONARY
  5
737
102
{ACAD_REACTORS
330
C
102
}
330
C
100
AcDbDictionary
281
     1
  0
DICTIONARY
  5
17
102
{ACAD_REACTORS
330
C
102
}
330
C
100
AcDbDictionary
281
     1
  3
Standard
350
18
  0
DICTIONARY
  5
19
102
{ACAD_REACTORS
330
C
102
}
330
C
100
AcDbDictionary
281
     1
  0
ACDBDICTIONARYWDFLT
  5
E
102
{ACAD_REACTORS
330
C
102
}
330
C
100
AcDbDictionary
281
     1
  3
Normal
350
F
100
AcDbDictionaryWithDefault
340
F
  0
DICTIONARY
  5
99
102
{ACAD_REACTORS
330
C
102
}
330
C
100
AcDbDictionary
281
     1
  3
A0
350
D5
  3
A1
350
D6
  3
A2
350
D7
  3
A3
350
D8
  3
A4
350
D9
  3
A5
350
DA
  3
A6
350
DB
  3
A7
350
DC
  3
A8
350
DD
  3
A9
350
DE
  3
B0
350
DF
  3
B1
350
E0
  3
B2
350
E1
  3
B3
350
E2
  3
B4
350
E3
  3
B5
350
E4
  3
B6
350
E5
  3
B7
350
E6
  3
B8
350
E7
  3
B9
350
E8
  3
C0
350
E9
  3
C1
350
EA
  3
C2
350
EB
  3
C3
350
EC
  3
C4
350
ED
  3
C5
350
EE
  3
C6
350
EF
  3
C7
350
F0
  3
C8
350
F1
  3
C9
350
F2
  3
D0
350
F3
  3
D1
350
F4
  3
D2
350
F5
  0
DICTIONARY
  5
92
102
{ACAD_REACTORS
330
C
102
}
330
C
100
AcDbDictionary
281
     1
  0
DICTIONARY
  5
738
102
{ACAD_REACTORS
330
C
102
}
330
C
100
AcDbDictionary
281
     1
  3
COLORDICT
350
739
  3
MATERIALDICT
350
73A
  0
DICTIONARY
  5
59
102
{ACAD_REACTORS
330
C
102
}
330
C
100
AcDbDictionary
281
     1
  3
CTABLESTYLE
350
98
  3
DIMASSOC
350
5A
  3
HIDETEXT
350
5E
  0
XRECORD
  5
73B
102
{ACAD_REACTORS
330
C
102
}
330
C
100
AcDbXrecord
280
     1
  1
DWGPROPS COOKIE
  2

  3

  4

  6

  7

  8
BelottiMc
  9

300
=
301
=
302
=
303
=
304
=
305
=
306
=
307
=
308
=
309
=
 40
0.0
 41
2455103.610351111
 42
2455103.663031065
  1

 90
        0
  0
LAYOUT
  5
74
330
1A
100
AcDbPlotSettings
  1

  2
ProgeSOFT PDF Wizard
  4
A4
  6

 40
5.926666666666667
 41
6.011333333333321
 42
6.095999999999985
 43
5.926666666666667
 44
210.0
 45
297.0
 46
88.56200000000001
 47
136.531
 48
0.0
 49
0.0
140
0.0
141
0.0
142
1.0
143
1.0
 70
   692
 72
     1
 73
     0
 74
     0
  7

 75
    16
147
1.0
148
4.426666666666668
149
1.5
100
AcDbLayout
  1
Layout1
 70
     1
 71
     1
 10
0.0
 20
0.0
 11
0.0
 21
0.0
 12
0.0
 22
0.0
 32
0.0
 14
0.0
 24
0.0
 34
0.0
 15
0.0
 25
0.0
 35
0.0
146
0.0
 13
0.0
 23
0.0
 33
0.0
 16
1.0
 26
0.0
 36
0.0
 17
0.0
 27
1.0
 37
0.0
 76
     0
330
D1
331
736
1001
PROGE_PRINT_SETTINGS
1070
    73
1070
     1
  0
LAYOUT
  5
687
102
{ACAD_REACTORS
330
1A
102
}
330
1A
100
AcDbPlotSettings
  1

  2
ProgeSOFT PDF Wizard
  4
A4
  6

 40
5.926666666666667
 41
6.011333333333321
 42
6.095999999999985
 43
5.926666666666667
 44
210.0
 45
297.0
 46
88.562
 47
136.531
 48
0.0
 49
0.0
140
0.0
141
0.0
142
1.0
143
1.0
 70
   692
 72
     1
 73
     0
 74
     0
  7

 75
    16
147
1.0
148
0.0
149
0.0
100
AcDbLayout
  1
Layout2
 70
     1
 71
     2
 10
0.0
 20
0.0
 11
12.0
 21
9.0
 12
0.0
 22
0.0
 32
0.0
 14
0.0
 24
0.0
 34
0.0
 15
12.0
 25
9.0
 35
0.0
146
0.0
 13
0.0
 23
0.0
 33
0.0
 16
1.0
 26
0.0
 36
0.0
 17
0.0
 27
1.0
 37
0.0
 76
     0
330
73
331
BB
1001
PROGE_PRINT_SETTINGS
1070
    73
1070
     1
  0
LAYOUT
  5
22
330
1A
100
AcDbPlotSettings
  1

  2
ProgeSOFT PDF Wizard
  4
A4
  6

 40
5.926666666666667
 41
6.011333333333317
 42
6.095999999999985
 43
5.926666666666667
 44
210.0
 45
297.0
 46
13.37559707263189
 47
0.0000000000000171
 48
0.0
 49
0.0
140
0.0
141
0.0
142
1.0
143
13.12647899228858
 70
 11956
 72
     1
 73
     1
 74
     0
  7

 75
     0
147
0.0761818916243625
148
1541.064011776394
149
662.551559540979
100
AcDbLayout
  1
Model
 70
     1
 71
     0
 10
0.0
 20
0.0
 11
0.0
 21
0.0
 12
0.0
 22
0.0
 32
0.0
 14
244.353006
 24
119.740998
 34
0.0
 15
1435.119490271592
 25
932.5023963178267
 35
0.0
146
0.0
 13
0.0
 23
0.0
 33
0.0
 16
1.0
 26
0.0
 36
0.0
 17
0.0
 27
1.0
 37
0.0
 76
     0
330
1F
331
97
  0
MLINESTYLE
  5
18
102
{ACAD_REACTORS
330
17
102
}
330
17
100
AcDbMlineStyle
  2
STANDARD
 70
     0
  3

 62
   256
 51
90.0
 52
90.0
 71
     2
 49
0.5
 62
   256
  6
BYLAYER
 49
-0.5
 62
   256
  6
BYLAYER
  0
ACDBPLACEHOLDER
  5
F
102
{ACAD_REACTORS
330
E
102
}
330
E
  0
SCALE
  5
D5
102
{ACAD_REACTORS
330
99
102
}
330
99
100
AcDbScale
 70
     0
300
1:1
140
1.0
141
1.0
290
     1
  0
SCALE
  5
D6
102
{ACAD_REACTORS
330
99
102
}
330
99
100
AcDbScale
 70
     0
300
1:2
140
1.0
141
2.0
290
     0
  0
SCALE
  5
D7
102
{ACAD_REACTORS
330
99
102
}
330
99
100
AcDbScale
 70
     0
300
1:4
140
1.0
141
4.0
290
     0
  0
SCALE
  5
D8
102
{ACAD_REACTORS
330
99
102
}
330
99
100
AcDbScale
 70
     0
300
1:5
140
1.0
141
5.0
290
     0
  0
SCALE
  5
D9
102
{ACAD_REACTORS
330
99
102
}
330
99
100
AcDbScale
 70
     0
300
1:8
140
1.0
141
8.0
290
     0
  0
SCALE
  5
DA
102
{ACAD_REACTORS
330
99
102
}
330
99
100
AcDbScale
 70
     0
300
1:10
140
1.0
141
10.0
290
     0
  0
SCALE
  5
DB
102
{ACAD_REACTORS
330
99
102
}
330
99
100
AcDbScale
 70
     0
300
1:16
140
1.0
141
16.0
290
     0
  0
SCALE
  5
DC
102
{ACAD_REACTORS
330
99
102
}
330
99
100
AcDbScale
 70
     0
300
1:20
140
1.0
141
20.0
290
     0
  0
SCALE
  5
DD
102
{ACAD_REACTORS
330
99
102
}
330
99
100
AcDbScale
 70
     0
300
1:30
140
1.0
141
30.0
290
     0
  0
SCALE
  5
DE
102
{ACAD_REACTORS
330
99
102
}
330
99
100
AcDbScale
 70
     0
300
1:40
140
1.0
141
40.0
290
     0
  0
SCALE
  5
DF
102
{ACAD_REACTORS
330
99
102
}
330
99
100
AcDbScale
 70
     0
300
1:50
140
1.0
141
50.0
290
     0
  0
SCALE
  5
E0
102
{ACAD_REACTORS
330
99
102
}
330
99
100
AcDbScale
 70
     0
300
1:100
140
1.0
141
100.0
290
     0
  0
SCALE
  5
E1
102
{ACAD_REACTORS
330
99
102
}
330
99
100
AcDbScale
 70
     0
300
2:1
140
2.0
141
1.0
290
     0
  0
SCALE
  5
E2
102
{ACAD_REACTORS
330
99
102
}
330
99
100
AcDbScale
 70
     0
300
4:1
140
4.0
141
1.0
290
     0
  0
SCALE
  5
E3
102
{ACAD_REACTORS
330
99
102
}
330
99
100
AcDbScale
 70
     0
300
8:1
140
8.0
141
1.0
290
     0
  0
SCALE
  5
E4
102
{ACAD_REACTORS
330
99
102
}
330
99
100
AcDbScale
 70
     0
300
10:1
140
10.0
141
1.0
290
     0
  0
SCALE
  5
E5
102
{ACAD_REACTORS
330
99
102
}
330
99
100
AcDbScale
 70
     0
300
100:1
140
100.0
141
1.0
290
     0
  0
SCALE
  5
E6
102
{ACAD_REACTORS
330
99
102
}
330
99
100
AcDbScale
 70
     0
300
1/128" = 1'-0"
140
0.0078125
141
12.0
290
     0
  0
SCALE
  5
E7
102
{ACAD_REACTORS
330
99
102
}
330
99
100
AcDbScale
 70
     0
300
1/64" = 1'-0"
140
0.015625
141
12.0
290
     0
  0
SCALE
  5
E8
102
{ACAD_REACTORS
330
99
102
}
330
99
100
AcDbScale
 70
     0
300
1/32" = 1'-0"
140
0.03125
141
12.0
290
     0
  0
SCALE
  5
E9
102
{ACAD_REACTORS
330
99
102
}
330
99
100
AcDbScale
 70
     0
300
1/16" = 1'-0"
140
0.0625
141
12.0
290
     0
  0
SCALE
  5
EA
102
{ACAD_REACTORS
330
99
102
}
330
99
100
AcDbScale
 70
     0
300
3/32" = 1'-0"
140
0.09375
141
12.0
290
     0
  0
SCALE
  5
EB
102
{ACAD_REACTORS
330
99
102
}
330
99
100
AcDbScale
 70
     0
300
1/8" = 1'-0"
140
0.125
141
12.0
290
     0
  0
SCALE
  5
EC
102
{ACAD_REACTORS
330
99
102
}
330
99
100
AcDbScale
 70
     0
300
3/16" = 1'-0"
140
0.1875
141
12.0
290
     0
  0
SCALE
  5
ED
102
{ACAD_REACTORS
330
99
102
}
330
99
100
AcDbScale
 70
     0
300
1/4" = 1'-0"
140
0.25
141
12.0
290
     0
  0
SCALE
  5
EE
102
{ACAD_REACTORS
330
99
102
}
330
99
100
AcDbScale
 70
     0
300
3/8" = 1'-0"
140
0.375
141
12.0
290
     0
  0
SCALE
  5
EF
102
{ACAD_REACTORS
330
99
102
}
330
99
100
AcDbScale
 70
     0
300
1/2" = 1'-0"
140
0.5
141
12.0
290
     0
  0
SCALE
  5
F0
102
{ACAD_REACTORS
330
99
102
}
330
99
100
AcDbScale
 70
     0
300
3/4" = 1'-0"
140
0.75
141
12.0
290
     0
  0
SCALE
  5
F1
102
{ACAD_REACTORS
330
99
102
}
330
99
100
AcDbScale
 70
     0
300
1" = 1'-0"
140
1.0
141
12.0
290
     0
  0
SCALE
  5
F2
102
{ACAD_REACTORS
330
99
102
}
330
99
100
AcDbScale
 70
     0
300
1-1/2" = 1'-0"
140
1.5
141
12.0
290
     0
  0
SCALE
  5
F3
102
{ACAD_REACTORS
330
99
102
}
330
99
100
AcDbScale
 70
     0
300
3" = 1'-0"
140
3.0
141
12.0
290
     0
  0
SCALE
  5
F4
102
{ACAD_REACTORS
330
99
102
}
330
99
100
AcDbScale
 70
     0
300
6" = 1'-0"
140
6.0
141
12.0
290
     0
  0
SCALE
  5
F5
102
{ACAD_REACTORS
330
99
102
}
330
99
100
AcDbScale
 70
     0
300
1'-0" = 1'-0"
140
12.0
141
12.0
290
     0
  0
XRECORD
  5
739
102
{ACAD_REACTORS
330
738
102
}
330
738
100
AcDbXrecord
280
     1
340
6C
  0
XRECORD
  5
73A
102
{ACAD_REACTORS
330
738
102
}
330
738
100
AcDbXrecord
280
     1
340
6B
  0
DICTIONARYVAR
  5
98
102
{ACAD_REACTORS
330
59
102
}
330
59
100
DictionaryVariables
280
     0
  1
Standard
  0
DICTIONARYVAR
  5
5A
102
{ACAD_REACTORS
330
59
102
}
330
59
100
DictionaryVariables
280
     0
  1
2
  0
DICTIONARYVAR
  5
5E
102
{ACAD_REACTORS
330
59
102
}
330
59
100
DictionaryVariables
280
     0
  1
1
  0
ENDSEC
  0
SECTION
  2
THUMBNAILIMAGE
 90
    17264
310
28000000B40000005A0000000100080000000000483F0000C2A9DC26F4E86C40000100000000000000000000000080000080000000808000800000008000800080800000C0C0C000C0DCC000F0CAA6000020400000206000002080000020A0000020C0000020E00000400000004020000040400000406000004080000040A0
310
000040C0000040E00000600000006020000060400000606000006080000060A0000060C0000060E00000800000008020000080400000806000008080000080A0000080C0000080E00000A0000000A0200000A0400000A0600000A0800000A0A00000A0C00000A0E00000C0000000C0200000C0400000C0600000C0800000C0
310
A00000C0C00000C0E00000E0000000E0200000E0400000E0600000E0800000E0A00000E0C00000E0E00040000000400020004000400040006000400080004000A0004000C0004000E00040200000402020004020400040206000402080004020A0004020C0004020E000404000004040200040404000404060004040800040
310
40A0004040C0004040E00040600000406020004060400040606000406080004060A0004060C0004060E00040800000408020004080400040806000408080004080A0004080C0004080E00040A0000040A0200040A0400040A0600040A0800040A0A00040A0C00040A0E00040C0000040C0200040C0400040C0600040C08000
310
40C0A00040C0C00040C0E00040E0000040E0200040E0400040E0600040E0800040E0A00040E0C00040E0E00080000000800020008000400080006000800080008000A0008000C0008000E00080200000802020008020400080206000802080008020A0008020C0008020E00080400000804020008040400080406000804080
310
008040A0008040C0008040E00080600000806020008060400080606000806080008060A0008060C0008060E00080800000808020008080400080806000808080008080A0008080C0008080E00080A0000080A0200080A0400080A0600080A0800080A0A00080A0C00080A0E00080C0000080C0200080C0400080C0600080C0
310
800080C0A00080C0C00080C0E00080E0000080E0200080E0400080E0600080E0800080E0A00080E0C00080E0E000C0000000C0002000C0004000C0006000C0008000C000A000C000C000C000E000C0200000C0202000C0204000C0206000C0208000C020A000C020C000C020E000C0400000C0402000C0404000C0406000C0
310
408000C040A000C040C000C040E000C0600000C0602000C0604000C0606000C0608000C060A000C060C000C060E000C0800000C0802000C0804000C0806000C0808000C080A000C080C000C080E000C0A00000C0A02000C0A04000C0A06000C0A08000C0A0A000C0A0C000C0A0E000C0C00000C0C02000C0C04000C0C06000
310
C0C08000C0C0A000F0FBFF00A4A0A000808080000000FF0000FF000000FFFF00FF000000FF00FF00FFFF0000FFFFFF0000000000000000000000000000000000000000000000000000000000000000000000000000000000000000000000000000000000000000000000000000000000000000000000000000000000000000
310
00000000000000000000000000000000000000000000000000000000000000000000000000000000000000000000000000000000000000000000000000000000000000000000000000000000000000000000000000000000000000000000000000000000000000000000000000000000000000000000000000000000000000
310
00000000000000000000000000000000000000000000000000000000000000000000000000000000000000000000000000000000000000000000000000000000000000000000000000000000000000000000000000000000000000000000000000000000000000000000000000000000000000000000000000000000000000
310
00000000000000000000000000000000000000000000000000000000000000000000000000000000000000000000000000000000000000000000000000000000000000000000000000000000000000000000000000000000000000000000000000000000000000000000000000000000000000000000000000000000000000
310
00000000000000000000000000000000000000000000000000000000000000000000000000000000000000000000000000000000000000000000000000000000000000000000000000000000000000000000000000000000000000000000000000000000000000000000000000000000000000000000000000000000000000
310
00000000000000000000000000000000000000000000000000000000000000000000000000000000000000000000000000000000000000000000000000000000000000000000000000000000000000000000000000000000000000000000000000000000000000000000000000000000000000000000000000000000000000
310
00000000000000000000000000000000000000000000000000000000000000000000000000000000000000000000000000000000000000000000000000000000000000000000000000000000000000000000000000000000000000000000000000000000000000000000000000000000000000000000000000000000000000
310
00000000000000000000000000000000000000000000000000000000000000000000000000000000000000000000000000000000000000000000000000000000000000000000000000000000000000000000000000000000000000000000000000000000000000000000000000000000000000000000000000000000000000
310
00000000000000000000000000000000000000000000000000000000000000000000000000000000000000000000000000000000000000000000000000000000000000000000000000000000000000000000000000000000000000000000000000000000000000000000000000000000000000000000000000000000000000
310
00000000000000000000000000000000000000000000000000000000000000000000000000000000000000000000000000000000000000000000000000000000000000000000000000000000000000000000000000000000000000000000000000000000000000000000000000000000000000000000000000000000000000
310
00000000000000000000000000000000000000000000000000000000000000000000000000000000000000000000000000000000000000000000000000000000000000000000000000000000000000000000000000000000000000000000000000000000000000000000000000000000000000000000000000000000000000
310
00000000000000000000000000000000000000000000000000000000000000000000000000000000000000000000000000000000000000000000000000000000000000000000000000000000000000000000000000000000000000000000000000000000000000000000000000000000000000000000000000000000000000
310
00000000000000000000000000000000000000000000000000000000000000000000000000000000000000000000000000000000000000000000000000000000000000000000000000000000000000000000000000000000000000000000000000000000000000000000000000000000000000000000000000000000000000
310
00000000000000000000000000000000000000000000000000000000000000000000000000000000000000000000000000000000000000000000000000000000000000000000000000000000000000000000000000000000000000000000000000000000000000000000000000000000000000000000000000000000000000
310
00000000000000000000000000000000000000000000000000000000000000000000000000000000000000000000000000000000000000000000000000000000000000000000000000000000000000000000000000000000000000000000000000000000000000000000000000000000000000000000000000000000000000
310
00000000000000000000000000000000000000000000000000000000000000000000000000000000000000000000000000000000000000000000000000000000000000000000000000000000000000000000000000000000000000000000000000000000000000000000000000000000000000000000000000000000000000
310
00000000000000000000000000000000000000000000000000000000000000000000000000000000000000000000000000000000000000000000000000000000000000000000000000000000000000000000000000000000000000000000000000000000000000000000000000000000000000000000000000000000000000
310
00000000000000000000000000000000000000000000000000000000000000000000000000000000000000000000000000000000000000000000000000000000000000000000000000000000000000000000000000000000000000000000000000000000000000000000000000000000000000000000000000000000000000
310
00000000000000000000000000000000000000000000000000000000000000000000000000000000000000000000000000000000000000000000000000000000000000000000000000000000000000000000000000000000000000000000000000000000000000000000000000000000000000000000000000000000000000
310
00000000000000000000000000000000000000000000000000000000000000000000000000000000000000000000000000000000000000000000000000000000000000000000000000000000000000000000000000000000000000000000000000000000000000000000000000000000000000000000000000000000000000
310
00000000000000000000000000000000000000000000000000000000000000000000000000000000000000000000000000000000000000000000000000000000000000000000000000000000000000000000000000000000000000000000000000000000000000000000000000000000000000000000000000000000000000
310
00000000000000000000000000000000000000000000000000000000000000000000000000000000000000000000000000000000000000000000000000000000000000000000000000000000000000000000000000000000000000000000000000000000000000000000000000000000000000000000000000000000000000
310
00000000000000000000000000000000000000000000000000000000000000000000000000000000000000000000000000000000000000000000000000000000000000000000000000000000000000000000000000000000000000000000000000000000000000000000000000000000000000000000000000000000000000
310
00000000000000000000000000000000000000000000000000000000000000000000000000000000000000000000000000000000000000000000000000000000000000000000000000000000000000000000000000000000000000000000000000000000000000000000000000000000000000000000000000000000000000
310
00000000000000000000000000000000000000000000000000000000000000000000000000000000000000000000000000000000000000000000000000000000000000000000000000000000000000000000000000000000000000000000000000000000000000000000000000000000000000000000000000000000000000
310
00000000000000000000000000000000000000000000000000000000000000000000000000000000000000000000000000000000000000000000000000000000000000000000000000000000000000000000000000000000000000000000000000000000000000000000000000000000000000000000000000000000000000
310
00000000000000000000000000000000000000000000000000000000000000000000000000000000000000000000000000000000000000000000000000000000000000000000000000000000000000000000000000000000000000000000000000000000000000000000000000000000000000000000000000000000000000
310
00000000000000000000000000000000000000000000000000000000000000000000000000000000000000000000000000000000000000000000000000000000000000000000000000000000000000000000000000000000000000000000000000000000000000000000000000000000000000000000000000000000000000
310
00000000000000000000000000000000000000000000000000000000000000000000000000000000000000000000000000000000000000000000000000000000000000000000000000000000000000000000000000000000000000000000000000000000000000000000000000000000000000000000000000000000000000
310
00000000000000000000000000000000000000000000000000000000000000000000000000000000000000000000000000000000000000000000000000000000000000000000000000000000000000000000000000000000000000000000000000000000000000000000000000000000000000000000000000000000000000
310
00000000000000000000000000000000000000000000000000000000000000000000000000000000000000000000000000000000000000000000000000000000000000000000000000000000000000000000000000000000000000000000000000000000000000000000000000000000000000000000000000000000000000
310
00000000000000000000000000000000000000000000000000000000000000000000000000000000000000000000000000000000000000000000000000000000000000000000000000000000000000000000000000000000000000000000000000000000000000000000000000000000000000000000000000000000000000
310
00000000000000000000000000000000000000000000000000000000000000000000000000000000000000000000000000000000000000000000000000000000000000000000000000000000000000000000000000000000000000000000000000000000000000000000000000000000000000000000000000000000000000
310
00000000000000000000000000000000000000000000000000000000000000000000000000000000000000000000000000000000000000000000000000000000000000000000000000000000000000000000000000000000000000000000000000000000000000000000000000000000000000000000000000000000000000
310
00000000000000000000000000000000000000000000000000000000000000000000000000000000000000000000000000000000000000000000000000000000000000000000000000000000000000000000000000000000000000000000000000000000000000000000000000000000000000000000000000000000000000
310
00000000000000000000000000000000000000000000000000000000000000000000000000000000000000000000000000000000000000000000000000000000000000000000000000000000000000000000000000000000000000000000000000000000000000000000000000000000000000000000000000000000000000
310
00000000000000000000000000000000000000000000000000000000000000000000000000000000000000000000000000000000000000000000000000000000000000000000000000000000000000000000000000000000000000000000000000000000000000000000000000000000000000000000000000000000000000
310
00000000000000000000000000000000000000000000000000000000000000000000000000000000000000000000000000000000000000000000000000000000000000000000000000000000000000000000000000000000000000000000000000000000000000000000000000000000000000000000000000000000000000
310
00000000000000000000000000000000000000000000000000000000000000000000000000000000000000000000000000000000000000000000000000000000000000000000000000000000000000000000000000000000000000000000000000000000000000000000000000000000000000000000000000000000000000
310
000000000000000000000000000000000000000000000000000000000000000000000000000000000000000000000000000000000000000000000000FFFFFFFFFFFFFFFFFFFF00FFFFFFFF0000000000FFFF00FF00000000000000000000000000000000000000000000000000000000000000000000000000000000000000
310
0000000000000000000000000000000000000000000000000000000000000000000000000000000000000000000000000000000000000000000000000000000000000000000000000000000000000000000000000000000000000000000000000000000000000000000000000000000000FF0000000000000000FFFFFF0000
310
FF0000000000FF0000FF000000000000000000000000000000000000000000000000000000000000000000000000000000000000000000000000000000000000000000000000000000000000000000000000000000000000000000000000000000000000000000000000000000000000000000000000000000000000000000
310
000000000000000000000000000000000000000000000000000000000000000000000000000000FF0000000000000000FF00FF0000FF0000000000FF0000FF00000000000000000000000000000000000000000000000000000000000000000000000000000000000000000000000000000000000000000000000000000000
310
0000000000000000000000000000000000000000000000000000000000000000000000000000000000000000000000000000000000000000000000FFFFFFFFFFFFFFFFFFFFFFFFFFFFFFFFFFFFFFFFFFFFFFFFFFFFFFFFFFFFFFFFFFFFFFFFFFFFFFFFFFFFFFFFFFFFFFFFFFFFFFFFFFFFFFFFFFFFFFFFFFFFFF0000000000
310
00000000000000000000000000000000000000000000000000000000000000000000000000000000000000000000000000000000000000000000000000000000000000000000000000000000000000000000000000000000000000000000000000000000000000000000000000000000FF0000FF0000000000000000000000
310
000000000000000000000000000000000000FF0000000000000000FF00FF0000FF0000000000FF0000FF0000000000FF00000000000000000000000000000000000000000000000000000000000000000000000000000000000000000000000000000000000000000000000000000000000000000000000000000000000000
310
0000000000000000000000000000000000000000000000000000000000000000000000000000FF0000FF0000000000000000000000000000000000000000000000000000000000FF0000000000000000FF00FF0000FF0000000000FF0000FF0000000000FF0000000000000000000000000000000000000000000000000000
310
00000000000000000000000000000000000000000000000000000000000000000000000000000000000000000000000000000000000000000000000000000000000000000000000000000000000000000000000000000000000000FF0000FF000000FFFFFF0000FFFF00000000FFFF00FFFFFFFF0000000000000000FF0000
310
000000000000FFFFFF00FFFFFF00000000FFFF00FFFFFF000000FF00000000000000000000000000000000000000000000000000000000000000000000000000000000000000000000000000000000000000000000000000000000000000000000000000000000000000000000000000000000000000000000000000000000
310
0000000000000000000000000000000000FF0000FF0000000000000000000000000000000000000000000000000000000000FF0000000000000000FF00FF0000FF0000000000FF0000FF00FF000000FF0000000000000000000000000000000000000000000000000000000000000000000000000000000000000000000000
310
00000000000000000000000000000000000000000000000000000000000000000000000000000000000000000000000000000000000000000000000000000000000000000000FF0000FF0000000000000000000000000000000000000000000000000000000000FF00000000000000000000FF0000FF0000000000FF0000FF
310
00FF000000FF000000000000000000000000000000000000000000000000000000000000000000000000000000000000000000000000000000000000000000000000000000000000000000000000000000000000000000000000000000000000000000000000000000000000000000000000000000000000000000FFFFFFFF
310
FFFFFFFFFFFFFFFFFFFFFFFFFFFFFFFFFFFFFFFFFFFFFFFFFFFFFFFFFFFFFFFFFFFFFFFFFFFFFFFFFFFFFFFFFFFFFFFFFFFFFFFFFFFFFFFFFFFFFF0000000000000000000000000000000000000000000000000000000000000000000000000000000000000000000000000000000000000000000000000000000000000000
310
000000000000000000000000000000000000000000000000000000000000000000000000000000000000000000000000000000000000000000000000000000000000000000000000000000000000000000000000000000000000000000FF0000FF0000000000FF0000FF00FF00000000000000000000000000000000000000
310
00000000000000000000000000000000000000000000000000000000000000000000000000000000000000000000000000000000000000000000000000000000000000000000000000000000000000000000000000000000000000000000000000000000000000000000000000000000000000000000000000000000000000
310
00000000000000000000000000000000000000FFFFFFFFFFFFFFFFFFFFFFFFFFFFFF000000000000000000000000000000000000000000000000000000000000000000000000000000000000000000000000000000000000000000000000000000000000000000000000000000000000000000000000000000000000000000
310
00000000000000000000000000000000000000000000000000000000000000000000000000000000000000000000000000000000000000000000000000000000000000000000000000000000000000000000000000000000000000000000000000000000000000000000000000000000000000000000000000000000000000
310
00000000000000000000000000000000000000000000000000000000000000000000000000000000000000000000000000000000000000000000000000000000000000000000000000000000000000000000000000000000000000000000000000000000000000000000000000000000000000000000000000000000000000
310
00000000000000000000000000000000000000000000000000000000000000000000000000000000000000000000000000000000000000000000000000000000000000000000000000000000000000000000000000000000000000000000000000000000000000000000000000000000000000000000000000000000000000
310
00000000000000000000000000000000000000000000000000000000000000000000000000000000000000000000000000000000000000000000000000000000000000000000000000000000000000000000000000000000000000000000000000000000000000000000000000000000000000000000000000000000000000
310
00000000000000000000000000000000000000000000000000000000000000000000000000000000000000000000000000000000000000000000000000000000000000000000000000000000000000000000000000000000000000000000000000000000000000000000000000000000000000000000000000000000000000
310
00000000000000000000000000000000000000000000000000000000000000000000000000000000000000000000000000000000000000000000000000000000000000000000000000000000000000000000000000000000000000000000000000000000000000000000000000000000000000000000000000000000000000
310
00000000000000000000000000000000000000000000000000000000000000000000000000000000000000000000000000000000000000000000000000000000000000000000000000000000000000000000000000000000000000000000000000000000000000000000000000000000000000000000000000000000000000
310
00000000000000000000000000000000000000000000000000000000000000000000000000000000000000000000000000000000000000000000000000000000000000000000000000000000000000000000000000000000000000000000000000000000000000000000000000000000000000000000000000000000000000
310
00000000000000000000000000000000000000000000000000000000000000000000000000000000000000000000000000000000000000000000000000000000000000000000000000000000000000000000000000000000000000000000000000000000000000000000000000000000000000000000000000000000000000
310
00000000000000000000000000000000000000000000000000000000000000000000000000000000000000000000000000000000000000000000000000000000000000000000000000000000000000000000000000000000000000000000000000000000000000000000000000000000000000000000000000000000000000
310
000000000000000000000000000000000000000000000000000000000000000000000000000000000000000000000000FFFFFFFFFFFF00000000000000000000000000000000000000000000000000000000000000000000000000000000000000000000000000000000000000000000000000000000000000000000000000
310
0000000000000000000000000000000000000000000000000000000000000000000000000000000000000000000000000000000000000000000000000000000000000000000000000000000000000000000000000000000000000000000000000000000000FF00000000FF0000000000000000000000000000000000000000
310
00000000000000000000000000000000000000000000000000000000000000000000000000000000000000000000000000000000000000000000000000000000000000000000000000000000000000000000000000000000000000000000000000000000000000000000000000000000000000000000000000000000000000
310
000000000000000000000000000000000000000000000000000000FF0000FF00FF00000000000000000000000000000000000000000000000000000000000000000000000000000000000000000000000000000000000000000000000000000000000000000000000000000000000000000000000000000000000000000000
310
0000000000000000000000000000000000000000000000000000000000000000000000000000000000000000000000000000000000000000000000000000000000000000000000000000000000000000FF0000FF00FF0000000000000000000000000000000000000000000000000000000000000000000000000000000000
310
00000000000000000000000000000000000000000000000000000000000000000000000000000000000000000000000000000000000000000000000000000000000000000000000000000000000000000000000000000000000000000000000000000000000000000000000000000000000000000000000000000000000000
310
000000000000FFFFFFFFFFFFFFFFFFFFFFFFFFFFFFFFFFFFFFFFFFFFFFFFFFFFFFFFFFFFFFFFFFFFFFFFFFFF0000000000000000000000000000000000000000000000000000000000000000000000000000000000000000000000000000000000000000000000000000000000000000000000000000000000000000000000
310
0000000000000000000000000000000000000000000000000000000000000000000000000000000000000000000000000000000000000000000000FF0000FF00FF00000000000000000000000000000000000000000000000000000000000000FF000000000000000000000000000000000000000000000000000000000000
310
00000000000000000000000000000000000000000000000000000000000000000000000000000000000000000000000000000000000000000000000000000000000000000000000000000000000000000000000000000000000000000000000000000000000000000000000000000000FFFFFFFF00FF000000000000000000
310
00000000000000000000000000000000000000000000FF0000000000000000000000000000000000000000000000000000000000000000000000000000000000000000000000000000000000000000000000000000000000000000000000000000000000000000000000000000000000000000000000000000000000000000
310
0000000000000000000000000000000000000000000000000000000000000000000000000000FFFF00FF00FF00000000000000000000000000000000000000000000000000000000000000FF000000000000000000000000000000000000000000000000000000000000000000000000000000000000000000000000000000
310
00000000000000000000000000000000000000000000000000000000000000000000000000000000000000000000000000000000000000000000000000000000000000000000000000000000000000000000000000000000000000FF0000FF00FF000000000000000000000000000000000000000000000000000000000000
310
00FF0000000000000000000000000000000000000000000000000000000000000000000000000000000000000000000000000000000000000000000000000000000000000000000000000000000000000000000000000000000000000000000000000000000000000000000000000000000000000000000000000000000000
310
0000000000000000000000000000000000FF0000FF00FF00000000000000000000000000000000000000000000000000000000000000FF000000000000000000000000000000000000000000000000000000000000000000000000000000000000000000000000000000000000000000000000000000000000000000000000
310
00000000000000000000000000000000000000000000000000000000000000000000000000000000000000000000000000000000000000000000000000000000000000000000FF0000FF00FF00000000000000000000000000000000000000000000000000000000000000FF00000000000000000000000000000000000000
310
000000000000000000000000000000000000000000000000000000000000000000000000000000000000000000000000000000000000000000000000000000000000000000000000000000000000000000000000000000000000000000000000000000000000000000000000000000000000000000000000000000FF0000FF
310
00FF00000000000000000000000000000000000000000000000000000000000000FF000000000000000000000000000000000000000000000000000000000000000000000000000000000000000000000000000000000000000000000000000000000000000000000000000000000000000000000000000000000000000000
310
00000000000000000000000000000000000000000000000000000000000000000000000000000000000000000000000000FF0000FF00FF00000000000000000000000000000000000000000000000000000000000000FF00000000000000000000000000000000000000000000000000000000000000000000000000000000
310
000000000000000000000000000000000000000000000000000000000000000000000000000000000000000000000000000000000000000000000000000000000000000000000000000000000000000000000000000000000000000000000000000000000000FF0000FF00FF00000000000000000000000000000000000000
310
0000000000000000000000FFFF000000000000000000000000000000000000000000000000000000000000000000000000000000000000000000000000000000000000000000000000000000000000000000000000000000000000000000000000000000000000000000000000000000000000000000000000000000000000
310
00000000000000000000000000000000000000000000000000000000FF0000FF00FF000000000000000000000000000000000000000000000000000000000000FFFF00000000000000000000000000000000000000000000000000000000000000000000000000000000000000000000000000000000000000000000000000
310
000000000000000000000000000000000000000000000000000000000000000000000000000000000000000000000000000000000000000000000000000000000000000000000000000000000000000000FF0000FF00FF000000000000000000000000000000000000000000000000000000000000FFFF0000000000000000
310
00000000000000000000000000000000000000000000000000000000000000000000000000000000000000000000000000000000000000000000000000000000000000000000000000000000000000000000000000000000000000000000000000000000000000000000000000000000000000000000000000000000000000
310
00000000000000FF0000FF00FF00000000000000000000000000000000000000000000000000000000000000FF00000000000000000000000000000000000000000000000000000000000000000000000000000000000000000000000000000000000000000000000000000000000000000000000000000000000000000000
310
000000000000000000000000000000000000000000000000000000000000000000000000000000000000000000000000000000000000000000000000FF0000FF00FF00000000000000000000000000000000000000000000000000000000000000FF0000000000000000000000000000000000000000000000000000000000
310
0000000000000000000000000000000000000000000000000000000000000000000000000000000000000000000000000000000000000000000000000000000000000000000000000000000000000000000000000000000000000000000000000000000000000000000000000000000000FF0000FF00FF0000000000000000
310
0000000000000000000000000000000000000000000000FF00000000000000000000000000000000000000000000000000000000000000000000000000000000000000000000000000000000000000000000000000000000000000000000000000000000000000000000000000000000000000000000000000000000000000
310
000000000000000000000000000000000000000000000000000000000000000000000000000000FF0000FF00FF00000000000000000000000000000000000000000000000000000000000000FF0000000000000000000000000000000000000000000000000000000000000000000000000000000000000000000000000000
310
0000000000000000000000000000000000000000000000000000000000000000000000000000000000000000000000000000000000000000000000000000000000000000000000000000000000000000000000000000000000000000FF00FFFF00FF0000000000000000000000000000000000000000000000000000000000
310
0000FF00000000000000000000000000000000000000000000000000000000000000000000000000000000000000000000000000000000000000000000000000000000000000000000000000000000000000000000000000000000000000000000000000000000000000000000000000000000000000FFFFFFFFFFFFFFFFFF
310
FFFFFFFFFFFFFFFFFFFFFFFFFFFFFFFFFFFFFFFFFFFFFFFFFFFFFFFFFFFFFFFFFFFFFFFFFFFFFFFFFFFFFFFFFFFFFFFFFFFFFF00000000FF0000000000000000000000000000000000000000000000000000000000000000000000000000000000000000000000000000000000000000000000000000000000000000000000
310
0000000000000000000000000000000000000000000000000000000000000000000000000000000000000000FF00000000FFFF0000FFFF00000000FFFF00FFFF00000000000000000000FF000000000000000000FFFF00FFFFFF00000000FFFF00FFFF00000000FF00000000FF000000000000000000000000000000000000
310
00000000000000000000000000000000000000000000000000000000000000000000000000000000000000000000000000000000000000000000000000000000000000000000000000000000000000000000000000000000000000000000000000FF0000000000FF0000FFFF00000000FFFF00FFFF00000000000000000000
310
FF000000000000000000FFFF0000FF0000000000FF0000FFFF00000000FF00000000FF0000000000000000000000000000000000000000000000000000000000000000000000000000000000000000000000000000000000000000000000000000000000000000000000000000000000000000000000000000000000000000
310
0000000000000000000000000000000000000000000000FFFFFFFFFFFFFFFFFFFFFFFFFFFFFFFFFFFFFFFFFFFFFFFFFFFFFFFFFFFFFFFFFFFFFFFFFFFFFFFFFFFFFFFFFFFFFFFFFFFFFFFFFFFFFFFFFFFFFFFFFFFFFFFFFF000000000000000000000000000000000000000000000000000000000000000000000000000000
310
00000000000000000000000000000000000000000000000000000000000000000000000000000000000000000000000000000000000000000000000000000000000000000000000000000000FF0000000000000000000000000000000000000000000000000000000000000000000000000000000000000000000000000000
310
0000000000000000FF00000000000000000000000000000000000000000000000000000000000000000000000000000000000000000000000000000000000000000000000000000000000000000000000000000000000000000000000000000000000000000000000000000000000000000000000000000000000000000000
310
0000FFFFFFFFFFFFFFFFFFFFFFFFFFFFFFFFFFFFFFFFFFFFFFFFFFFFFFFFFFFFFFFFFFFFFFFFFFFFFFFFFFFFFFFFFFFFFFFFFFFFFFFFFFFFFFFFFFFFFFFF0000000000000000000000000000000000000000000000000000000000000000000000000000000000000000000000000000000000000000000000000000000000
310
000000000000000000000000000000000000000000000000000000000000000000000000000000000000000000000000000000000000000000000000000000000000000000000000000000000000000000000000FFFFFF00000000000000000000000000000000000000000000000000000000000000000000000000000000
310
00000000000000000000000000000000000000000000000000000000000000000000000000000000000000000000000000000000000000000000000000000000000000000000000000000000000000000000000000000000000000000000000000000000000000000000000000000000000000000000000000000000000000
310
00000000000000000000000000000000000000000000000000000000000000000000000000000000000000000000000000000000000000000000000000000000000000000000000000000000000000000000000000000000000000000000000000000000000000000000000000000000000000000000000000000000000000
310
00000000000000000000000000000000000000000000000000000000000000000000000000000000000000000000000000000000000000000000000000000000000000000000000000000000000000000000000000000000000000000000000000000000000000000000000000000000000000000000000000000000000000
310
00000000000000000000000000000000000000000000000000000000000000000000000000000000000000000000000000000000000000000000000000000000000000000000000000000000000000000000000000000000000000000000000000000000000000000000000000000000000000000000000000000000000000
310
00000000000000000000000000000000000000000000000000000000000000000000000000000000000000000000000000000000000000000000000000000000000000000000000000000000000000000000000000000000000000000000000000000000000000000000000000000000000000000000000000000000000000
310
00000000000000000000000000000000000000000000000000000000000000000000000000000000000000000000000000000000000000000000000000000000000000000000000000000000000000000000000000000000000000000000000000000000000000000000000000000000000000000000000000000000000000
310
00000000000000000000000000000000000000000000000000000000000000000000000000000000000000000000000000000000000000000000000000000000000000000000000000000000000000000000000000000000000000000000000000000000000000000000000000000000000000000000000000000000000000
310
00000000000000000000000000000000000000000000000000000000000000000000000000000000000000000000000000000000000000000000000000000000000000000000000000000000000000000000000000000000000000000000000000000000000000000000000000000000000000000000000000000000000000
310
00000000000000000000000000000000000000000000000000000000000000000000000000000000000000000000000000000000000000000000000000000000000000000000000000000000000000000000000000000000000000000000000000000000000000000000000000000000000000000000000000000000000000
310
00000000000000000000000000000000000000000000000000000000000000000000000000000000000000000000000000000000000000000000000000000000000000000000000000000000000000000000000000000000000000000000000000000000000000000000000000000000000000000000000000000000000000
310
00000000000000000000000000000000000000000000000000000000000000000000000000000000000000000000000000000000000000000000000000000000000000000000000000000000000000000000000000000000000000000000000000000000000000000000000000000000000000000000000000000000000000
310
00000000000000000000000000000000000000000000000000000000000000000000000000000000000000000000000000000000000000000000000000000000000000000000000000000000000000000000000000000000000000000000000000000000000000000000000000000000000000000000000000000000000000
310
00000000000000000000000000000000000000000000000000000000000000000000000000000000000000000000000000000000000000000000000000000000000000000000000000000000000000000000000000000000000000000000000000000000000000000000000000000000000000000000000000000000000000
310
00000000000000000000000000000000000000000000000000000000000000000000000000000000000000000000000000000000000000000000000000000000000000000000000000000000000000000000000000000000000000000000000000000000000000000000000000000000000000000000000000000000000000
310
00000000000000000000000000000000000000000000000000000000000000000000000000000000000000000000000000000000000000000000000000000000000000000000000000000000000000000000000000000000000000000000000000000000000000000000000000000000000000000000000000000000000000
310
00000000000000000000000000000000000000000000000000000000000000000000000000000000000000000000000000000000000000000000000000000000000000000000000000000000000000000000000000000000000000000000000000000000000000000000000000000000000000000000000000000000000000
310
00000000000000000000000000000000000000000000000000000000000000000000000000000000000000000000000000000000000000000000000000000000000000000000000000000000000000000000000000000000000000000000000000000000000000000000000000000000000000000000000000000000000000
310
00000000000000000000000000000000000000000000000000000000000000000000000000000000000000000000000000000000000000000000000000000000000000000000000000000000000000000000000000000000000000000000000000000000000000000000000000000000000000000000000000000000000000
310
00000000000000000000000000000000000000000000000000000000000000000000000000000000000000000000000000000000000000000000000000000000000000000000000000000000000000000000000000000000000000000000000000000000000000000000000000000000000000000000000000000000000000
310
00000000000000000000000000000000000000000000000000000000000000000000000000000000000000000000000000000000000000000000000000000000000000000000000000000000000000000000000000000000000000000000000000000000000000000000000000000000000000000000000000000000000000
310
00000000000000000000000000000000000000000000000000000000000000000000000000000000000000000000000000000000000000000000000000000000000000000000000000000000000000000000000000000000000000000000000000000000000000000000000000000000000000000000000000000000000000
310
00000000000000000000000000000000000000000000000000000000000000000000000000000000000000000000000000000000000000000000000000000000000000000000000000000000000000000000000000000000000000000000000000000000000000000000000000000000000000000000000000000000000000
310
0000000000000000000000000000000000000000000000000000000000000000000000000000000000000000000000000000000000000000000000000000000000000000000000000000000000000000000000000000000000000000000000000000000000000000000000000000000000000000000000
  0
ENDSEC
  0
EOF
