  0
SECTION
  2
HEADER
  9
$ACADVER
  1
AC1015
  9
$ACADMAINTVER
 70
     6
  9
$DWGCODEPAGE
  3
ANSI_1252
  9
$INSBASE
 10
0.0
 20
0.0
 30
0.0
  9
$EXTMIN
 10
362.885772
 20
37.605102
 30
0.0
  9
$EXTMAX
 10
839.7313494594214
 20
719.3168728476256
 30
0.0
  9
$LIMMIN
 10
0.0
 20
0.0
  9
$LIMMAX
 10
0.0
 20
0.0
  9
$ORTHOMODE
 70
     0
  9
$REGENMODE
 70
     1
  9
$FILLMODE
 70
     1
  9
$QTEXTMODE
 70
     0
  9
$MIRRTEXT
 70
     0
  9
$LTSCALE
 40
1.0
  9
$ATTMODE
 70
     1
  9
$TEXTSIZE
 40
2.5
  9
$TRACEWID
 40
1.0
  9
$TEXTSTYLE
  7
Standard
  9
$CLAYER
  8
0
  9
$CELTYPE
  6
ByLayer
  9
$CECOLOR
 62
   256
  9
$CELTSCALE
 40
1.0
  9
$DISPSILH
 70
     0
  9
$DIMSCALE
 40
1.0
  9
$DIMASZ
 40
2.5
  9
$DIMEXO
 40
0.625
  9
$DIMDLI
 40
3.75
  9
$DIMRND
 40
0.0
  9
$DIMDLE
 40
0.0
  9
$DIMEXE
 40
1.25
  9
$DIMTP
 40
0.0
  9
$DIMTM
 40
0.0
  9
$DIMTXT
 40
2.5
  9
$DIMCEN
 40
2.5
  9
$DIMTSZ
 40
0.0
  9
$DIMTOL
 70
     0
  9
$DIMLIM
 70
     0
  9
$DIMTIH
 70
     0
  9
$DIMTOH
 70
     0
  9
$DIMSE1
 70
     0
  9
$DIMSE2
 70
     0
  9
$DIMTAD
 70
     1
  9
$DIMZIN
 70
     8
  9
$DIMBLK
  1

  9
$DIMASO
 70
     1
  9
$DIMSHO
 70
     1
  9
$DIMPOST
  1

  9
$DIMAPOST
  1

  9
$DIMALT
 70
     0
  9
$DIMALTD
 70
     3
  9
$DIMALTF
 40
0.03937007874016
  9
$DIMLFAC
 40
1.0
  9
$DIMTOFL
 70
     1
  9
$DIMTVP
 40
0.0
  9
$DIMTIX
 70
     0
  9
$DIMSOXD
 70
     0
  9
$DIMSAH
 70
     0
  9
$DIMBLK1
  1

  9
$DIMBLK2
  1

  9
$DIMSTYLE
  2
ISO-25
  9
$DIMCLRD
 70
     0
  9
$DIMCLRE
 70
     0
  9
$DIMCLRT
 70
     0
  9
$DIMTFAC
 40
1.0
  9
$DIMGAP
 40
0.625
  9
$DIMJUST
 70
     0
  9
$DIMSD1
 70
     0
  9
$DIMSD2
 70
     0
  9
$DIMTOLJ
 70
     0
  9
$DIMTZIN
 70
     8
  9
$DIMALTZ
 70
     0
  9
$DIMALTTZ
 70
     0
  9
$DIMUPT
 70
     0
  9
$DIMDEC
 70
     2
  9
$DIMTDEC
 70
     2
  9
$DIMALTU
 70
     2
  9
$DIMALTTD
 70
     3
  9
$DIMTXSTY
  7
Standard
  9
$DIMAUNIT
 70
     0
  9
$DIMADEC
 70
     0
  9
$DIMALTRND
 40
0.0
  9
$DIMAZIN
 70
     0
  9
$DIMDSEP
 70
    44
  9
$DIMATFIT
 70
     3
  9
$DIMFRAC
 70
     0
  9
$DIMLDRBLK
  1

  9
$DIMLUNIT
 70
     2
  9
$DIMLWD
 70
    -2
  9
$DIMLWE
 70
    -2
  9
$DIMTMOVE
 70
     0
  9
$LUNITS
 70
     2
  9
$LUPREC
 70
     4
  9
$SKETCHINC
 40
1.0
  9
$FILLETRAD
 40
0.0
  9
$AUNITS
 70
     0
  9
$AUPREC
 70
     0
  9
$MENU
  1
.
  9
$ELEVATION
 40
0.0
  9
$PELEVATION
 40
0.0
  9
$THICKNESS
 40
0.0
  9
$LIMCHECK
 70
     0
  9
$CHAMFERA
 40
0.0
  9
$CHAMFERB
 40
0.0
  9
$CHAMFERC
 40
0.0
  9
$CHAMFERD
 40
0.0
  9
$SKPOLY
 70
     0
  9
$TDCREATE
 40
2455103.63052257
  9
$TDUCREATE
 40
2455103.547189236
  9
$TDUPDATE
 40
2455103.672189225
  9
$TDUUPDATE
 40
2455103.588855891
  9
$TDINDWG
 40
0.0664053125
  9
$TDUSRTIMER
 40
0.0664029514
  9
$USRTIMER
 70
     1
  9
$ANGBASE
 50
0.0
  9
$ANGDIR
 70
     0
  9
$PDMODE
 70
     0
  9
$PDSIZE
 40
0.0
  9
$PLINEWID
 40
0.0
  9
$SPLFRAME
 70
     0
  9
$SPLINETYPE
 70
     6
  9
$SPLINESEGS
 70
     8
  9
$HANDSEED
  5
568
  9
$SURFTAB1
 70
     6
  9
$SURFTAB2
 70
     6
  9
$SURFTYPE
 70
     6
  9
$SURFU
 70
     6
  9
$SURFV
 70
     6
  9
$UCSBASE
  2

  9
$UCSNAME
  2

  9
$UCSORG
 10
0.0
 20
0.0
 30
0.0
  9
$UCSXDIR
 10
1.0
 20
0.0
 30
0.0
  9
$UCSYDIR
 10
0.0
 20
1.0
 30
0.0
  9
$UCSORTHOREF
  2

  9
$UCSORTHOVIEW
 70
     0
  9
$UCSORGTOP
 10
0.0
 20
0.0
 30
0.0
  9
$UCSORGBOTTOM
 10
0.0
 20
0.0
 30
0.0
  9
$UCSORGLEFT
 10
0.0
 20
0.0
 30
0.0
  9
$UCSORGRIGHT
 10
0.0
 20
0.0
 30
0.0
  9
$UCSORGFRONT
 10
0.0
 20
0.0
 30
0.0
  9
$UCSORGBACK
 10
0.0
 20
0.0
 30
0.0
  9
$PUCSBASE
  2

  9
$PUCSNAME
  2

  9
$PUCSORG
 10
0.0
 20
0.0
 30
0.0
  9
$PUCSXDIR
 10
1.0
 20
0.0
 30
0.0
  9
$PUCSYDIR
 10
0.0
 20
1.0
 30
0.0
  9
$PUCSORTHOREF
  2

  9
$PUCSORTHOVIEW
 70
     0
  9
$PUCSORGTOP
 10
0.0
 20
0.0
 30
0.0
  9
$PUCSORGBOTTOM
 10
0.0
 20
0.0
 30
0.0
  9
$PUCSORGLEFT
 10
0.0
 20
0.0
 30
0.0
  9
$PUCSORGRIGHT
 10
0.0
 20
0.0
 30
0.0
  9
$PUCSORGFRONT
 10
0.0
 20
0.0
 30
0.0
  9
$PUCSORGBACK
 10
0.0
 20
0.0
 30
0.0
  9
$USERI1
 70
     0
  9
$USERI2
 70
     0
  9
$USERI3
 70
     0
  9
$USERI4
 70
     0
  9
$USERI5
 70
     0
  9
$USERR1
 40
0.0
  9
$USERR2
 40
0.0
  9
$USERR3
 40
0.0
  9
$USERR4
 40
0.0
  9
$USERR5
 40
0.0
  9
$WORLDVIEW
 70
     1
  9
$SHADEDGE
 70
     3
  9
$SHADEDIF
 70
    70
  9
$TILEMODE
 70
     1
  9
$MAXACTVP
 70
    64
  9
$PINSBASE
 10
0.0
 20
0.0
 30
0.0
  9
$PLIMCHECK
 70
     0
  9
$PEXTMIN
 10
0.0
 20
0.0
 30
0.0
  9
$PEXTMAX
 10
12.0
 20
9.0
 30
0.0
  9
$PLIMMIN
 10
0.0
 20
0.0
  9
$PLIMMAX
 10
12.0
 20
9.0
  9
$UNITMODE
 70
     0
  9
$VISRETAIN
 70
     1
  9
$PLINEGEN
 70
     0
  9
$PSLTSCALE
 70
     1
  9
$TREEDEPTH
 70
  3020
  9
$CMLSTYLE
  2
Standard
  9
$CMLJUST
 70
     0
  9
$CMLSCALE
 40
20.0
  9
$PROXYGRAPHICS
 70
     1
  9
$MEASUREMENT
 70
     1
  9
$CELWEIGHT
370
    -1
  9
$ENDCAPS
280
     0
  9
$JOINSTYLE
280
     0
  9
$LWDISPLAY
290
     0
  9
$INSUNITS
 70
     4
  9
$HYPERLINKBASE
  1

  9
$STYLESHEET
  1

  9
$XEDIT
290
     1
  9
$CEPSNTYPE
380
     0
  9
$PSTYLEMODE
290
     1
  9
$FINGERPRINTGUID
  2
{5559452E-1E62-4159-8551-BF76FFF3E7E8}
  9
$VERSIONGUID
  2
{3CEB9EF8-4431-4551-B596-6734A9F966A9}
  9
$EXTNAMES
290
     1
  9
$PSVPSCALE
 40
0.0
  9
$OLESTARTUP
290
     0
  0
ENDSEC
  0
SECTION
  2
CLASSES
  0
CLASS
  1
ACDBDICTIONARYWDFLT
  2
AcDbDictionaryWithDefault
  3
ObjectDBX Classes
 90
        0
280
     0
281
     0
  0
CLASS
  1
ACDBPLACEHOLDER
  2
AcDbPlaceHolder
  3
ObjectDBX Classes
 90
        0
280
     0
281
     0
  0
CLASS
  1
LAYOUT
  2
AcDbLayout
  3
ObjectDBX Classes
 90
        0
280
     0
281
     0
  0
CLASS
  1
DICTIONARYVAR
  2
AcDbDictionaryVar
  3
ObjectDBX Classes
 90
        0
280
     0
281
     0
  0
CLASS
  1
TABLESTYLE
  2
AcDbTableStyle
  3
ObjectDBX Classes
 90
     4095
280
     0
281
     0
  0
CLASS
  1
SCALE
  2
AcDbScale
  3
ObjectDBX Classes
 90
     1153
280
     0
281
     0
  0
ENDSEC
  0
SECTION
  2
TABLES
  0
TABLE
  2
VPORT
  5
8
330
0
100
AcDbSymbolTable
 70
     2
  0
VPORT
  5
97
330
8
100
AcDbSymbolTableRecord
100
AcDbViewportTableRecord
  2
*Active
 70
     0
 10
0.0
 20
0.0
 11
1.0
 21
1.0
 12
490.951505149205
 22
266.0590186224413
 13
0.0
 23
0.0
 14
10.0
 24
10.0
 15
10.0
 25
10.0
 16
0.0
 26
0.0
 36
1.0
 17
0.0
 27
0.0
 37
0.0
 40
1239.877933168503
 41
1.664827586206896
 42
50.0
 43
0.0
 44
0.0
 50
0.0
 51
0.0
 71
     0
 72
  1000
 73
     1
 74
     3
 75
     0
 76
     0
 77
     0
 78
     0
281
     0
 65
     1
110
0.0
120
0.0
130
0.0
111
1.0
121
0.0
131
0.0
112
0.0
122
1.0
132
0.0
 79
     0
146
0.0
  0
ENDTAB
  0
TABLE
  2
LTYPE
  5
5
330
0
100
AcDbSymbolTable
 70
     8
  0
LTYPE
  5
14
330
5
100
AcDbSymbolTableRecord
100
AcDbLinetypeTableRecord
  2
ByBlock
 70
     0
  3

 72
    65
 73
     0
 40
0.0
  0
LTYPE
  5
15
330
5
100
AcDbSymbolTableRecord
100
AcDbLinetypeTableRecord
  2
ByLayer
 70
     0
  3

 72
    65
 73
     0
 40
0.0
  0
LTYPE
  5
16
330
5
100
AcDbSymbolTableRecord
100
AcDbLinetypeTableRecord
  2
Continuous
 70
     0
  3
Solid line
 72
    65
 73
     0
 40
0.0
  0
LTYPE
  5
4D5
330
5
100
AcDbSymbolTableRecord
100
AcDbLinetypeTableRecord
  2
DASHED
 70
     0
  3
__ __ __ __ __ __ __ __ __ __ __ __ __ __ __ __
 72
    65
 73
     2
 40
15.0
 49
12.0
 74
     0
 49
-3.0
 74
     0
  0
LTYPE
  5
4D6
330
5
100
AcDbSymbolTableRecord
100
AcDbLinetypeTableRecord
  2
DASHDOT
 70
     0
  3
 __ . __ . __ . __ . __ . __ . __ . 
 72
    65
 73
     4
 40
18.5
 49
12.0
 74
     0
 49
-3.0
 74
     0
 49
0.5
 74
     0
 49
-3.0
 74
     0
  0
LTYPE
  5
4D7
330
5
100
AcDbSymbolTableRecord
100
AcDbLinetypeTableRecord
  2
DOT
 70
     0
  3
 . . . . . . . . . . . . . . . .
 72
    65
 73
     2
 40
3.5
 49
0.5
 74
     0
 49
-3.0
 74
     0
  0
LTYPE
  5
4D8
330
5
100
AcDbSymbolTableRecord
100
AcDbLinetypeTableRecord
  2
DASHSPACE
 70
     0
  3
__    __    __    __    __   
 72
    65
 73
     2
 40
30.0
 49
12.0
 74
     0
 49
-18.0
 74
     0
  0
LTYPE
  5
4D9
330
5
100
AcDbSymbolTableRecord
100
AcDbLinetypeTableRecord
  2
DASHDOT2
 70
     0
  3
__ . . __ . . __ . . __ 
 72
    65
 73
     6
 40
22.0
 49
12.0
 74
     0
 49
-3.0
 74
     0
 49
0.5
 74
     0
 49
-3.0
 74
     0
 49
0.5
 74
     0
 49
-3.0
 74
     0
  0
LTYPE
  5
4DA
330
5
100
AcDbSymbolTableRecord
100
AcDbLinetypeTableRecord
  2
PHANTOM
 70
     0
  3
____________    ____    ____   _
 72
    65
 73
     6
 40
20.0
 49
10.0
 74
     0
 49
-2.0
 74
     0
 49
2.0
 74
     0
 49
-2.0
 74
     0
 49
2.0
 74
     0
 49
-2.0
 74
     0
  0
LTYPE
  5
4DB
330
5
100
AcDbSymbolTableRecord
100
AcDbLinetypeTableRecord
  2
AXES
 70
     0
  3
________  __  ________  __  _____
 72
    65
 73
     4
 40
24.0
 49
15.0
 74
     0
 49
-3.0
 74
     0
 49
3.0
 74
     0
 49
-3.0
 74
     0
  0
ENDTAB
  0
TABLE
  2
LAYER
  5
2
330
0
100
AcDbSymbolTable
 70
     3
  0
LAYER
  5
10
330
2
100
AcDbSymbolTableRecord
100
AcDbLayerTableRecord
  2
0
 70
     0
 62
     7
  6
Continuous
370
    -3
390
F
  0
LAYER
  5
100
330
2
100
AcDbSymbolTableRecord
100
AcDbLayerTableRecord
  2
2
 70
     0
 62
     7
  6
Continuous
370
    13
390
F
  0
LAYER
  5
24E
330
2
100
AcDbSymbolTableRecord
100
AcDbLayerTableRecord
  2
DEFPOINTS
 70
     0
 62
     7
  6
Continuous
290
     0
370
    -3
390
F
  0
ENDTAB
  0
TABLE
  2
STYLE
  5
3
330
0
100
AcDbSymbolTable
 70
     2
  0
STYLE
  5
11
330
3
100
AcDbSymbolTableRecord
100
AcDbTextStyleTableRecord
  2
Standard
 70
     0
 40
0.0
 41
1.0
 50
0.0
 71
     0
 42
2.5
  3
txt
  4

  0
STYLE
  5
F8
330
3
100
AcDbSymbolTableRecord
100
AcDbTextStyleTableRecord
  2
GDT
 70
     0
 40
0.0
 41
1.0
 50
0.0
 71
     0
 42
0.2
  3
amgdt.shx
  4

  0
ENDTAB
  0
TABLE
  2
VIEW
  5
6
330
0
100
AcDbSymbolTable
 70
     0
  0
ENDTAB
  0
TABLE
  2
UCS
  5
7
330
0
100
AcDbSymbolTable
 70
     0
  0
ENDTAB
  0
TABLE
  2
APPID
  5
9
330
0
100
AcDbSymbolTable
 70
     2
  0
APPID
  5
12
330
9
100
AcDbSymbolTableRecord
100
AcDbRegAppTableRecord
  2
ACAD
 70
     0
  0
APPID
  5
4D4
330
9
100
AcDbSymbolTableRecord
100
AcDbRegAppTableRecord
  2
PROGE_PRINT_SETTINGS
 70
     0
  0
ENDTAB
  0
TABLE
  2
DIMSTYLE
  5
A
330
0
100
AcDbSymbolTable
 70
     2
100
AcDbDimStyleTable
  0
DIMSTYLE
105
27
330
A
100
AcDbSymbolTableRecord
100
AcDbDimStyleTableRecord
  2
Standard
 70
     0
278
     0
340
11
  0
DIMSTYLE
105
29
102
{ACAD_REACTORS
330
413
330
435
330
457
330
49A
102
}
330
A
100
AcDbSymbolTableRecord
100
AcDbDimStyleTableRecord
  2
ISO-25
 70
     0
 41
2.5
 42
0.625
 43
3.75
 44
1.25
 73
     0
 74
     0
 77
     1
 78
     8
140
2.5
141
2.5
143
0.03937007874016
147
0.625
171
     3
172
     1
271
     2
272
     2
274
     3
278
    44
283
     0
284
     8
340
11
  0
ENDTAB
  0
TABLE
  2
BLOCK_RECORD
  5
1
330
0
100
AcDbSymbolTable
 70
    66
  0
BLOCK_RECORD
  5
1F
330
1
100
AcDbSymbolTableRecord
100
AcDbBlockTableRecord
  2
*Model_Space
340
22
  0
BLOCK_RECORD
  5
73
330
1
100
AcDbSymbolTableRecord
100
AcDbBlockTableRecord
  2
*Paper_Space
340
4DD
  0
BLOCK_RECORD
  5
D1
330
1
100
AcDbSymbolTableRecord
100
AcDbBlockTableRecord
  2
*Paper_Space0
340
74
  0
BLOCK_RECORD
  5
105
330
1
100
AcDbSymbolTableRecord
100
AcDbBlockTableRecord
  2
Block0
340
0
  0
BLOCK_RECORD
  5
10A
330
1
100
AcDbSymbolTableRecord
100
AcDbBlockTableRecord
  2
Block1
340
0
  0
BLOCK_RECORD
  5
10F
330
1
100
AcDbSymbolTableRecord
100
AcDbBlockTableRecord
  2
Block2
340
0
  0
BLOCK_RECORD
  5
114
330
1
100
AcDbSymbolTableRecord
100
AcDbBlockTableRecord
  2
Block3
340
0
  0
BLOCK_RECORD
  5
119
330
1
100
AcDbSymbolTableRecord
100
AcDbBlockTableRecord
  2
Block4
340
0
  0
BLOCK_RECORD
  5
11E
330
1
100
AcDbSymbolTableRecord
100
AcDbBlockTableRecord
  2
Block5
340
0
  0
BLOCK_RECORD
  5
123
330
1
100
AcDbSymbolTableRecord
100
AcDbBlockTableRecord
  2
Block6
340
0
  0
BLOCK_RECORD
  5
128
330
1
100
AcDbSymbolTableRecord
100
AcDbBlockTableRecord
  2
Block7
340
0
  0
BLOCK_RECORD
  5
12D
330
1
100
AcDbSymbolTableRecord
100
AcDbBlockTableRecord
  2
Block8
340
0
  0
BLOCK_RECORD
  5
15F
330
1
100
AcDbSymbolTableRecord
100
AcDbBlockTableRecord
  2
Block9
340
0
  0
BLOCK_RECORD
  5
164
330
1
100
AcDbSymbolTableRecord
100
AcDbBlockTableRecord
  2
Block10
340
0
  0
BLOCK_RECORD
  5
169
330
1
100
AcDbSymbolTableRecord
100
AcDbBlockTableRecord
  2
Block11
340
0
  0
BLOCK_RECORD
  5
16E
330
1
100
AcDbSymbolTableRecord
100
AcDbBlockTableRecord
  2
Block12
340
0
  0
BLOCK_RECORD
  5
173
330
1
100
AcDbSymbolTableRecord
100
AcDbBlockTableRecord
  2
Block13
340
0
  0
BLOCK_RECORD
  5
178
330
1
100
AcDbSymbolTableRecord
100
AcDbBlockTableRecord
  2
Block14
340
0
  0
BLOCK_RECORD
  5
17D
330
1
100
AcDbSymbolTableRecord
100
AcDbBlockTableRecord
  2
Block15
340
0
  0
BLOCK_RECORD
  5
196
330
1
100
AcDbSymbolTableRecord
100
AcDbBlockTableRecord
  2
Block16
340
0
  0
BLOCK_RECORD
  5
19A
330
1
100
AcDbSymbolTableRecord
100
AcDbBlockTableRecord
  2
Block17
340
0
  0
BLOCK_RECORD
  5
1A3
330
1
100
AcDbSymbolTableRecord
100
AcDbBlockTableRecord
  2
*D19
340
0
  0
BLOCK_RECORD
  5
1AC
330
1
100
AcDbSymbolTableRecord
100
AcDbBlockTableRecord
  2
*D20
340
0
  0
BLOCK_RECORD
  5
1B5
330
1
100
AcDbSymbolTableRecord
100
AcDbBlockTableRecord
  2
*D21
340
0
  0
BLOCK_RECORD
  5
1BE
330
1
100
AcDbSymbolTableRecord
100
AcDbBlockTableRecord
  2
*D22
340
0
  0
BLOCK_RECORD
  5
1C7
330
1
100
AcDbSymbolTableRecord
100
AcDbBlockTableRecord
  2
*D23
340
0
  0
BLOCK_RECORD
  5
1D0
330
1
100
AcDbSymbolTableRecord
100
AcDbBlockTableRecord
  2
*D24
340
0
  0
BLOCK_RECORD
  5
1D9
330
1
100
AcDbSymbolTableRecord
100
AcDbBlockTableRecord
  2
*D25
340
0
  0
BLOCK_RECORD
  5
1E2
330
1
100
AcDbSymbolTableRecord
100
AcDbBlockTableRecord
  2
*D26
340
0
  0
BLOCK_RECORD
  5
1EB
330
1
100
AcDbSymbolTableRecord
100
AcDbBlockTableRecord
  2
*D27
340
0
  0
BLOCK_RECORD
  5
1F4
330
1
100
AcDbSymbolTableRecord
100
AcDbBlockTableRecord
  2
*D28
340
0
  0
BLOCK_RECORD
  5
1FD
330
1
100
AcDbSymbolTableRecord
100
AcDbBlockTableRecord
  2
*D29
340
0
  0
BLOCK_RECORD
  5
206
330
1
100
AcDbSymbolTableRecord
100
AcDbBlockTableRecord
  2
*D30
340
0
  0
BLOCK_RECORD
  5
20F
330
1
100
AcDbSymbolTableRecord
100
AcDbBlockTableRecord
  2
*D31
340
0
  0
BLOCK_RECORD
  5
219
330
1
100
AcDbSymbolTableRecord
100
AcDbBlockTableRecord
  2
*D32
340
0
  0
BLOCK_RECORD
  5
222
330
1
100
AcDbSymbolTableRecord
100
AcDbBlockTableRecord
  2
*D33
340
0
  0
BLOCK_RECORD
  5
258
330
1
100
AcDbSymbolTableRecord
100
AcDbBlockTableRecord
  2
*D34
340
0
  0
BLOCK_RECORD
  5
265
330
1
100
AcDbSymbolTableRecord
100
AcDbBlockTableRecord
  2
*D35
340
0
  0
BLOCK_RECORD
  5
273
330
1
100
AcDbSymbolTableRecord
100
AcDbBlockTableRecord
  2
*D36
340
0
  0
BLOCK_RECORD
  5
280
330
1
100
AcDbSymbolTableRecord
100
AcDbBlockTableRecord
  2
*D37
340
0
  0
BLOCK_RECORD
  5
28E
330
1
100
AcDbSymbolTableRecord
100
AcDbBlockTableRecord
  2
*D38
340
0
  0
BLOCK_RECORD
  5
29B
330
1
100
AcDbSymbolTableRecord
100
AcDbBlockTableRecord
  2
*D39
340
0
  0
BLOCK_RECORD
  5
2A8
330
1
100
AcDbSymbolTableRecord
100
AcDbBlockTableRecord
  2
*D40
340
0
  0
BLOCK_RECORD
  5
2B5
330
1
100
AcDbSymbolTableRecord
100
AcDbBlockTableRecord
  2
*D41
340
0
  0
BLOCK_RECORD
  5
2C2
330
1
100
AcDbSymbolTableRecord
100
AcDbBlockTableRecord
  2
*D42
340
0
  0
BLOCK_RECORD
  5
2CF
330
1
100
AcDbSymbolTableRecord
100
AcDbBlockTableRecord
  2
*D43
340
0
  0
BLOCK_RECORD
  5
2DC
330
1
100
AcDbSymbolTableRecord
100
AcDbBlockTableRecord
  2
*D44
340
0
  0
BLOCK_RECORD
  5
2E9
330
1
100
AcDbSymbolTableRecord
100
AcDbBlockTableRecord
  2
*D45
340
0
  0
BLOCK_RECORD
  5
2F6
330
1
100
AcDbSymbolTableRecord
100
AcDbBlockTableRecord
  2
*D46
340
0
  0
BLOCK_RECORD
  5
303
330
1
100
AcDbSymbolTableRecord
100
AcDbBlockTableRecord
  2
*D47
340
0
  0
BLOCK_RECORD
  5
310
330
1
100
AcDbSymbolTableRecord
100
AcDbBlockTableRecord
  2
*D48
340
0
  0
BLOCK_RECORD
  5
41E
330
1
100
AcDbSymbolTableRecord
100
AcDbBlockTableRecord
  2
*D49
340
0
  0
BLOCK_RECORD
  5
429
330
1
100
AcDbSymbolTableRecord
100
AcDbBlockTableRecord
  2
*D50
340
0
  0
BLOCK_RECORD
  5
434
330
1
100
AcDbSymbolTableRecord
100
AcDbBlockTableRecord
  2
*D51
340
0
  0
BLOCK_RECORD
  5
440
330
1
100
AcDbSymbolTableRecord
100
AcDbBlockTableRecord
  2
*D52
340
0
  0
BLOCK_RECORD
  5
44B
330
1
100
AcDbSymbolTableRecord
100
AcDbBlockTableRecord
  2
*D53
340
0
  0
BLOCK_RECORD
  5
456
330
1
100
AcDbSymbolTableRecord
100
AcDbBlockTableRecord
  2
*D54
340
0
  0
BLOCK_RECORD
  5
462
330
1
100
AcDbSymbolTableRecord
100
AcDbBlockTableRecord
  2
*D55
340
0
  0
BLOCK_RECORD
  5
46D
330
1
100
AcDbSymbolTableRecord
100
AcDbBlockTableRecord
  2
*D56
340
0
  0
BLOCK_RECORD
  5
478
330
1
100
AcDbSymbolTableRecord
100
AcDbBlockTableRecord
  2
*D57
340
0
  0
BLOCK_RECORD
  5
483
330
1
100
AcDbSymbolTableRecord
100
AcDbBlockTableRecord
  2
*D58
340
0
  0
BLOCK_RECORD
  5
48E
330
1
100
AcDbSymbolTableRecord
100
AcDbBlockTableRecord
  2
*D59
340
0
  0
BLOCK_RECORD
  5
499
330
1
100
AcDbSymbolTableRecord
100
AcDbBlockTableRecord
  2
*D60
340
0
  0
BLOCK_RECORD
  5
4A5
330
1
100
AcDbSymbolTableRecord
100
AcDbBlockTableRecord
  2
*D61
340
0
  0
BLOCK_RECORD
  5
4B1
330
1
100
AcDbSymbolTableRecord
100
AcDbBlockTableRecord
  2
*D62
340
0
  0
BLOCK_RECORD
  5
4BC
330
1
100
AcDbSymbolTableRecord
100
AcDbBlockTableRecord
  2
*D63
340
0
  0
BLOCK_RECORD
  5
4C7
330
1
100
AcDbSymbolTableRecord
100
AcDbBlockTableRecord
  2
*D64
340
0
  0
BLOCK_RECORD
  5
4D2
330
1
100
AcDbSymbolTableRecord
100
AcDbBlockTableRecord
  2
*D65
340
0
  0
ENDTAB
  0
ENDSEC
  0
SECTION
  2
BLOCKS
  0
BLOCK
  5
20
330
1F
100
AcDbEntity
  8
0
100
AcDbBlockBegin
  2
*Model_Space
 70
     0
 10
0.0
 20
0.0
 30
0.0
  3
*Model_Space
  1

  0
ENDBLK
  5
21
330
1F
100
AcDbEntity
  8
0
100
AcDbBlockEnd
  0
BLOCK
  5
75
330
73
100
AcDbEntity
 67
     1
  8
0
100
AcDbBlockBegin
  2
*Paper_Space
 70
     0
 10
0.0
 20
0.0
 30
0.0
  3
*Paper_Space
  1

  0
ENDBLK
  5
76
330
73
100
AcDbEntity
 67
     1
  8
0
100
AcDbBlockEnd
  0
BLOCK
  5
4DE
330
D1
100
AcDbEntity
  8
0
100
AcDbBlockBegin
  2
*Paper_Space0
 70
     0
 10
0.0
 20
0.0
 30
0.0
  3
*Paper_Space0
  1

  0
VIEWPORT
  5
562
330
D1
100
AcDbEntity
  8
0
100
AcDbViewport
 10
7.8
 20
4.5
 30
0.0
 40
15.64
 41
9.0
 68
     1
 69
     1
 12
6.0
 22
4.5
 13
0.0
 23
0.0
 14
0.5
 24
0.5
 15
0.5
 25
0.5
 16
0.0
 26
0.0
 36
1.0
 17
0.0
 27
0.0
 37
0.0
 42
50.0
 43
0.0
 44
0.0
 45
12.0
 50
0.0
 51
0.0
 72
   100
 90
   557152
  1

281
     0
 71
     1
 74
     0
110
0.0
120
0.0
130
0.0
111
1.0
121
0.0
131
0.0
112
0.0
122
1.0
132
0.0
 79
     0
146
0.0
  0
ENDBLK
  5
4DF
330
D1
100
AcDbEntity
  8
0
100
AcDbBlockEnd
  0
BLOCK
  5
4E0
330
105
100
AcDbEntity
  8
0
100
AcDbBlockBegin
  2
Block0
 70
     0
 10
0.0
 20
0.0
 30
0.0
  3
Block0
  1

  0
LINE
  5
102
330
105
100
AcDbEntity
  8
0
  6
DASHDOT
 62
     7
 48
0.21125
370
    13
390
F
100
AcDbLine
 10
220.291046
 20
361.097687
 30
0.0
 11
211.841064
 21
361.097687
 31
0.0
  0
LINE
  5
103
330
105
100
AcDbEntity
  8
0
  6
DASHDOT
 62
     7
 48
0.21125
370
    13
390
F
100
AcDbLine
 10
216.066055
 20
365.322693
 30
0.0
 11
216.066055
 21
356.872681
 31
0.0
  0
ENDBLK
  5
4E1
330
105
100
AcDbEntity
  8
0
100
AcDbBlockEnd
  0
BLOCK
  5
4E2
330
10A
100
AcDbEntity
  8
0
100
AcDbBlockBegin
  2
Block1
 70
     0
 10
0.0
 20
0.0
 30
0.0
  3
Block1
  1

  0
LINE
  5
107
330
10A
100
AcDbEntity
  8
0
  6
DASHDOT
 62
     7
 48
0.21125
370
    13
390
F
100
AcDbLine
 10
217.791046
 20
361.097687
 30
0.0
 11
209.341064
 21
361.097687
 31
0.0
  0
LINE
  5
108
330
10A
100
AcDbEntity
  8
0
  6
DASHDOT
 62
     7
 48
0.21125
370
    13
390
F
100
AcDbLine
 10
213.566055
 20
365.322693
 30
0.0
 11
213.566055
 21
356.872681
 31
0.0
  0
ENDBLK
  5
4E3
330
10A
100
AcDbEntity
  8
0
100
AcDbBlockEnd
  0
BLOCK
  5
4E4
330
10F
100
AcDbEntity
  8
0
100
AcDbBlockBegin
  2
Block2
 70
     0
 10
0.0
 20
0.0
 30
0.0
  3
Block2
  1

  0
LINE
  5
10C
330
10F
100
AcDbEntity
  8
0
  6
DASHDOT
 62
     7
 48
0.21125
370
    13
390
F
100
AcDbLine
 10
190.291046
 20
361.097687
 30
0.0
 11
181.841049
 21
361.097687
 31
0.0
  0
LINE
  5
10D
330
10F
100
AcDbEntity
  8
0
  6
DASHDOT
 62
     7
 48
0.21125
370
    13
390
F
100
AcDbLine
 10
186.066055
 20
365.322693
 30
0.0
 11
186.066055
 21
356.872681
 31
0.0
  0
ENDBLK
  5
4E5
330
10F
100
AcDbEntity
  8
0
100
AcDbBlockEnd
  0
BLOCK
  5
4E6
330
114
100
AcDbEntity
  8
0
100
AcDbBlockBegin
  2
Block3
 70
     0
 10
0.0
 20
0.0
 30
0.0
  3
Block3
  1

  0
LINE
  5
111
330
114
100
AcDbEntity
  8
0
  6
DASHDOT
 62
     7
 48
0.21125
370
    13
390
F
100
AcDbLine
 10
187.791061
 20
361.097687
 30
0.0
 11
179.341049
 21
361.097687
 31
0.0
  0
LINE
  5
112
330
114
100
AcDbEntity
  8
0
  6
DASHDOT
 62
     7
 48
0.21125
370
    13
390
F
100
AcDbLine
 10
183.566055
 20
365.322693
 30
0.0
 11
183.566055
 21
356.872681
 31
0.0
  0
ENDBLK
  5
4E7
330
114
100
AcDbEntity
  8
0
100
AcDbBlockEnd
  0
BLOCK
  5
4E8
330
119
100
AcDbEntity
  8
0
100
AcDbBlockBegin
  2
Block4
 70
     0
 10
0.0
 20
0.0
 30
0.0
  3
Block4
  1

  0
LINE
  5
116
330
119
100
AcDbEntity
  8
0
  6
DASHDOT
 62
     7
 48
0.21125
370
    13
390
F
100
AcDbLine
 10
132.791061
 20
361.097687
 30
0.0
 11
124.341057
 21
361.097687
 31
0.0
  0
LINE
  5
117
330
119
100
AcDbEntity
  8
0
  6
DASHDOT
 62
     7
 48
0.21125
370
    13
390
F
100
AcDbLine
 10
128.566055
 20
365.322693
 30
0.0
 11
128.566055
 21
356.872681
 31
0.0
  0
ENDBLK
  5
4E9
330
119
100
AcDbEntity
  8
0
100
AcDbBlockEnd
  0
BLOCK
  5
4EA
330
11E
100
AcDbEntity
  8
0
100
AcDbBlockBegin
  2
Block5
 70
     0
 10
0.0
 20
0.0
 30
0.0
  3
Block5
  1

  0
LINE
  5
11B
330
11E
100
AcDbEntity
  8
0
  6
DASHDOT
 62
     7
 48
0.21125
370
    13
390
F
100
AcDbLine
 10
130.291061
 20
361.097687
 30
0.0
 11
121.841057
 21
361.097687
 31
0.0
  0
LINE
  5
11C
330
11E
100
AcDbEntity
  8
0
  6
DASHDOT
 62
     7
 48
0.21125
370
    13
390
F
100
AcDbLine
 10
126.066055
 20
365.322693
 30
0.0
 11
126.066055
 21
356.872681
 31
0.0
  0
ENDBLK
  5
4EB
330
11E
100
AcDbEntity
  8
0
100
AcDbBlockEnd
  0
BLOCK
  5
4EC
330
123
100
AcDbEntity
  8
0
100
AcDbBlockBegin
  2
Block6
 70
     0
 10
0.0
 20
0.0
 30
0.0
  3
Block6
  1

  0
LINE
  5
120
330
123
100
AcDbEntity
  8
0
  6
DASHDOT
 62
     7
 48
0.21125
370
    13
390
F
100
AcDbLine
 10
102.791054
 20
361.097687
 30
0.0
 11
94.341057
 21
361.097687
 31
0.0
  0
LINE
  5
121
330
123
100
AcDbEntity
  8
0
  6
DASHDOT
 62
     7
 48
0.21125
370
    13
390
F
100
AcDbLine
 10
98.566055
 20
365.322693
 30
0.0
 11
98.566055
 21
356.872681
 31
0.0
  0
ENDBLK
  5
4ED
330
123
100
AcDbEntity
  8
0
100
AcDbBlockEnd
  0
BLOCK
  5
4EE
330
128
100
AcDbEntity
  8
0
100
AcDbBlockBegin
  2
Block7
 70
     0
 10
0.0
 20
0.0
 30
0.0
  3
Block7
  1

  0
LINE
  5
125
330
128
100
AcDbEntity
  8
0
  6
DASHDOT
 62
     7
 48
0.21125
370
    13
390
F
100
AcDbLine
 10
100.291054
 20
361.097687
 30
0.0
 11
91.841057
 21
361.097687
 31
0.0
  0
LINE
  5
126
330
128
100
AcDbEntity
  8
0
  6
DASHDOT
 62
     7
 48
0.21125
370
    13
390
F
100
AcDbLine
 10
96.066055
 20
365.322693
 30
0.0
 11
96.066055
 21
356.872681
 31
0.0
  0
ENDBLK
  5
4EF
330
128
100
AcDbEntity
  8
0
100
AcDbBlockEnd
  0
BLOCK
  5
4F0
330
12D
100
AcDbEntity
  8
0
100
AcDbBlockBegin
  2
Block8
 70
     0
 10
0.0
 20
0.0
 30
0.0
  3
Block8
  1

  0
LINE
  5
12A
330
12D
100
AcDbEntity
  8
0
  6
DASHDOT
 62
     7
 48
0.073125
370
    13
390
F
100
AcDbLine
 10
157.528549
 20
343.597687
 30
0.0
 11
154.603561
 21
343.597687
 31
0.0
  0
LINE
  5
12B
330
12D
100
AcDbEntity
  8
0
  6
DASHDOT
 62
     7
 48
0.073125
370
    13
390
F
100
AcDbLine
 10
156.066055
 20
345.060181
 30
0.0
 11
156.066055
 21
342.135193
 31
0.0
  0
ENDBLK
  5
4F1
330
12D
100
AcDbEntity
  8
0
100
AcDbBlockEnd
  0
BLOCK
  5
4F2
330
15F
100
AcDbEntity
  8
0
100
AcDbBlockBegin
  2
Block9
 70
     0
 10
0.0
 20
0.0
 30
0.0
  3
Block9
  1

  0
LINE
  5
12F
330
15F
100
AcDbEntity
  8
0
 62
     7
370
    35
390
F
100
AcDbLine
 10
178.566055
 20
191.597687
 30
0.0
 11
156.066055
 21
191.597687
 31
0.0
  0
LINE
  5
130
330
15F
100
AcDbEntity
  8
0
 62
     7
370
    35
390
F
100
AcDbLine
 10
156.066055
 20
191.597687
 30
0.0
 11
133.566055
 21
191.597687
 31
0.0
  0
CIRCLE
  5
131
330
15F
100
AcDbEntity
  8
0
 62
     7
370
    35
390
F
100
AcDbCircle
 10
156.066055
 20
343.597687
 30
0.0
 40
1.125
  0
ARC
  5
132
330
15F
100
AcDbEntity
  8
0
 62
     7
370
    35
390
F
100
AcDbCircle
 10
144.561432
 20
212.574768
 30
0.0
 40
1.751123
100
AcDbArc
 50
309.321483
 51
324.701537
  0
ARC
  5
133
330
15F
100
AcDbEntity
  8
0
 62
     7
370
    35
390
F
100
AcDbCircle
 10
144.302231
 20
212.641479
 30
0.0
 40
2.012319
100
AcDbArc
 50
338.610343
 51
349.477694
  0
LWPOLYLINE
  5
134
330
15F
100
AcDbEntity
  8
0
 62
     7
370
    35
390
F
100
AcDbPolyline
 90
        3
 70
     0
 43
0.0
 10
146.246933
 20
213.074753
 10
146.177628
 20
213.267517
 10
146.104965
 20
213.444717
  0
LWPOLYLINE
  5
135
330
15F
100
AcDbEntity
  8
0
 62
     7
370
    35
390
F
100
AcDbPolyline
 90
        5
 70
     0
 43
0.0
 10
145.884964
 20
213.767151
 10
145.739868
 20
213.912918
 10
145.59317
 20
214.033371
 10
145.430618
 20
214.132553
 10
145.342819
 20
214.173981
  0
LWPOLYLINE
  5
136
330
15F
100
AcDbEntity
  8
0
 62
     7
370
    35
390
F
100
AcDbPolyline
 90
       24
 70
     0
 43
0.0
 10
144.816055
 20
214.285217
 10
145.02359
 20
214.268158
 10
145.227798
 20
214.217728
 10
145.423996
 20
214.135025
 10
145.607986
 20
214.022507
 10
145.77623
 20
213.883072
 10
145.925888
 20
213.719147
 10
146.054489
 20
213.53299
 10
146.159424
 20
213.327576
 10
146.238159
 20
213.106705
 10
146.288483
 20
212.874725
 10
146.308777
 20
212.63649
 10
146.298264
 20
212.397171
 10
146.257324
 20
212.162109
 10
146.187363
 20
211.936554
 10
146.090317
 20
211.725128
 10
145.96846
 20
211.531799
 10
145.824402
 20
211.35997
 10
145.661102
 20
211.212524
 10
145.481766
 20
211.09198
 10
145.289978
 20
211.000473
 10
145.089554
 20
210.939896
 10
144.884613
 20
210.911957
 10
144.816055
 20
210.910187
  0
LWPOLYLINE
  5
137
330
15F
100
AcDbEntity
  8
0
 62
     7
370
    35
390
F
100
AcDbPolyline
 90
       15
 70
     0
 43
0.0
 10
143.386322
 20
212.599716
 10
143.396149
 20
212.796875
 10
143.428177
 20
213.006775
 10
143.481064
 20
213.210648
 10
143.55101
 20
213.391647
 10
143.636719
 20
213.55687
 10
143.735245
 20
213.709854
 10
143.846237
 20
213.844513
 10
143.970078
 20
213.960144
 10
144.102417
 20
214.062698
 10
144.244293
 20
214.148224
 10
144.397491
 20
214.21283
 10
144.560379
 20
214.257233
 10
144.729797
 20
214.281693
 10
144.816055
 20
214.285187
  0
LWPOLYLINE
  5
138
330
15F
100
AcDbEntity
  8
0
 62
     7
370
    35
390
F
100
AcDbPolyline
 90
       13
 70
     0
 43
0.0
 10
144.816055
 20
210.910187
 10
144.619659
 20
210.923218
 10
144.428284
 20
210.965454
 10
144.246002
 20
211.038742
 10
144.075989
 20
211.141983
 10
143.920258
 20
211.272537
 10
143.779404
 20
211.427429
 10
143.655228
 20
211.603897
 10
143.552887
 20
211.798325
 10
143.474792
 20
212.006516
 10
143.421234
 20
212.224365
 10
143.391968
 20
212.448318
 10
143.386322
 20
212.599716
  0
LINE
  5
139
330
15F
100
AcDbEntity
  8
0
 62
     7
 48
0.001284
370
    35
390
F
100
AcDbLine
 10
178.562286
 20
214.233948
 30
0.0
 11
178.566055
 21
214.285187
 31
0.0
  0
ARC
  5
13A
330
15F
100
AcDbEntity
  8
0
 62
     7
370
    35
390
F
100
AcDbCircle
 10
199.597961
 20
212.650009
 30
0.0
 40
21.094349
100
AcDbArc
 50
176.933428
 51
177.807419
  0
LINE
  5
13B
330
15F
100
AcDbEntity
  8
0
 62
     7
 48
0.001107
370
    35
390
F
100
AcDbLine
 10
178.511948
 20
213.240936
 30
0.0
 11
178.513229
 21
213.285187
 31
0.0
  0
ARC
  5
13C
330
15F
100
AcDbEntity
  8
0
 62
     7
370
    35
390
F
100
AcDbCircle
 10
200.783722
 20
212.603653
 30
0.0
 40
22.281092
100
AcDbArc
 50
180.010769
 51
182.148578
  0
LINE
  5
13D
330
15F
100
AcDbEntity
  8
0
 62
     7
 48
0.001475
370
    35
390
F
100
AcDbLine
 10
178.519028
 20
211.73645
 30
0.0
 11
178.517212
 21
211.79541
 31
0.0
  0
ARC
  5
13E
330
15F
100
AcDbEntity
  8
0
 62
     7
370
    35
390
F
100
AcDbCircle
 10
199.547607
 20
212.492416
 30
0.0
 40
21.041124
100
AcDbArc
 50
182.928271
 51
184.311821
  0
LINE
  5
13F
330
15F
100
AcDbEntity
  8
0
 62
     7
 48
0.001333
370
    35
390
F
100
AcDbLine
 10
178.566055
 20
210.910187
 30
0.0
 11
178.562149
 21
210.963348
 31
0.0
  0
LWPOLYLINE
  5
140
330
15F
100
AcDbEntity
  8
0
 62
     7
370
    35
390
F
100
AcDbPolyline
 90
        5
 70
     0
 43
0.0
 10
178.566055
 20
210.910187
 10
178.517532
 20
211.779739
 10
178.502701
 20
212.637772
 10
178.517593
 20
213.412903
 10
178.566055
 20
214.285187
  0
ARC
  5
141
330
15F
100
AcDbEntity
  8
0
 62
     7
370
    35
390
F
100
AcDbCircle
 10
146.269287
 20
212.63002
 30
0.0
 40
1.876904
100
AcDbArc
 50
156.477215
 51
163.977979
  0
ARC
  5
142
330
15F
100
AcDbEntity
  8
0
 62
     7
370
    35
390
F
100
AcDbCircle
 10
146.453064
 20
212.598984
 30
0.0
 40
2.063419
100
AcDbArc
 50
175.410664
 51
190.728497
  0
LWPOLYLINE
  5
143
330
15F
100
AcDbEntity
  8
0
 62
     7
370
    35
390
F
100
AcDbPolyline
 90
        7
 70
     0
 43
0.0
 10
144.524933
 20
211.871338
 10
144.634415
 20
211.643417
 10
144.772232
 20
211.439362
 10
144.933884
 20
211.263901
 10
145.053436
 20
211.164627
 10
145.182053
 20
211.080536
 10
145.319321
 20
211.012375
  0
LWPOLYLINE
  5
144
330
15F
100
AcDbEntity
  8
0
 62
     7
370
    35
390
F
100
AcDbPolyline
 90
       22
 70
     0
 43
0.0
 10
145.30983
 20
211.008423
 10
145.161285
 20
211.085083
 10
145.022705
 20
211.182785
 10
144.89476
 20
211.29953
 10
144.776932
 20
211.432739
 10
144.670822
 20
211.580765
 10
144.580856
 20
211.743011
 10
144.508072
 20
211.916412
 10
144.452271
 20
212.096619
 10
144.413803
 20
212.283218
 10
144.393188
 20
212.473602
 10
144.390579
 20
212.668182
 10
144.408783
 20
212.875702
 10
144.449677
 20
213.089218
 10
144.51062
 20
213.287537
 10
144.590134
 20
213.466797
 10
144.684845
 20
213.63327
 10
144.791382
 20
213.78035
 10
144.908813
 20
213.906281
 10
145.034515
 20
214.017166
 10
145.172623
 20
214.109177
 10
145.324661
 20
214.180923
  0
LINE
  5
145
330
15F
100
AcDbEntity
  8
0
 62
     7
370
    35
390
F
100
AcDbLine
 10
133.566055
 20
191.597687
 30
0.0
 11
133.566055
 21
348.597656
 31
0.0
  0
LINE
  5
146
330
15F
100
AcDbEntity
  8
0
 62
     7
 48
0.482813
370
    35
390
F
100
AcDbLine
 10
178.566055
 20
191.597687
 30
0.0
 11
178.566055
 21
210.910187
 31
0.0
  0
LINE
  5
147
330
15F
100
AcDbEntity
  8
0
 62
     7
370
    35
390
F
100
AcDbLine
 10
178.566055
 20
214.285187
 30
0.0
 11
178.566055
 21
348.597656
 31
0.0
  0
LINE
  5
148
330
15F
100
AcDbEntity
  8
0
 62
     7
370
    35
390
F
100
AcDbLine
 10
256.06604
 20
353.597687
 30
0.0
 11
256.06604
 21
373.597687
 31
0.0
  0
LINE
  5
149
330
15F
100
AcDbEntity
  8
0
 62
     7
370
    35
390
F
100
AcDbLine
 10
56.066055
 20
353.597687
 30
0.0
 11
56.066055
 21
373.597687
 31
0.0
  0
LINE
  5
14A
330
15F
100
AcDbEntity
  8
0
 62
     7
370
    35
390
F
100
AcDbLine
 10
256.06604
 20
373.597687
 30
0.0
 11
56.066055
 21
373.597687
 31
0.0
  0
ARC
  5
14B
330
15F
100
AcDbEntity
  8
0
 62
     7
370
    35
390
F
100
AcDbCircle
 10
251.066055
 20
353.597687
 30
0.0
 40
5.0
100
AcDbArc
 50
270.000001
 51
0.00001
  0
LINE
  5
14C
330
15F
100
AcDbEntity
  8
0
 62
     7
370
    35
390
F
100
AcDbLine
 10
251.066055
 20
348.597687
 30
0.0
 11
61.066055
 21
348.597687
 31
0.0
  0
ARC
  5
14D
330
15F
100
AcDbEntity
  8
0
 62
     7
370
    35
390
F
100
AcDbCircle
 10
61.066055
 20
353.597687
 30
0.0
 40
5.0
100
AcDbArc
 50
180.000005
 51
270.000001
  0
LINE
  5
14E
330
15F
100
AcDbEntity
  8
0
 62
     7
 48
0.0625
370
    35
390
F
100
AcDbLine
 10
183.566055
 20
357.847687
 30
0.0
 11
186.066055
 21
357.847687
 31
0.0
  0
ARC
  5
14F
330
15F
100
AcDbEntity
  8
0
 62
     7
370
    35
390
F
100
AcDbCircle
 10
186.066055
 20
361.097687
 30
0.0
 40
3.25
100
AcDbArc
 50
270.000001
 51
89.99998900000001
  0
LINE
  5
150
330
15F
100
AcDbEntity
  8
0
 62
     7
 48
0.0625
370
    35
390
F
100
AcDbLine
 10
183.566055
 20
364.347687
 30
0.0
 11
186.066055
 21
364.347687
 31
0.0
  0
ARC
  5
151
330
15F
100
AcDbEntity
  8
0
 62
     7
370
    35
390
F
100
AcDbCircle
 10
183.566055
 20
361.097687
 30
0.0
 40
3.25
100
AcDbArc
 50
90.000003
 51
270.000001
  0
LINE
  5
152
330
15F
100
AcDbEntity
  8
0
 62
     7
 48
0.0625
370
    35
390
F
100
AcDbLine
 10
213.566055
 20
357.847687
 30
0.0
 11
216.066055
 21
357.847687
 31
0.0
  0
ARC
  5
153
330
15F
100
AcDbEntity
  8
0
 62
     7
370
    35
390
F
100
AcDbCircle
 10
216.066055
 20
361.097687
 30
0.0
 40
3.25
100
AcDbArc
 50
270.000001
 51
89.99998900000001
  0
LINE
  5
154
330
15F
100
AcDbEntity
  8
0
 62
     7
 48
0.0625
370
    35
390
F
100
AcDbLine
 10
213.566055
 20
364.347687
 30
0.0
 11
216.066055
 21
364.347687
 31
0.0
  0
ARC
  5
155
330
15F
100
AcDbEntity
  8
0
 62
     7
370
    35
390
F
100
AcDbCircle
 10
213.566055
 20
361.097687
 30
0.0
 40
3.25
100
AcDbArc
 50
90.000003
 51
270.000001
  0
LINE
  5
156
330
15F
100
AcDbEntity
  8
0
 62
     7
 48
0.0625
370
    35
390
F
100
AcDbLine
 10
126.066055
 20
364.347687
 30
0.0
 11
128.566055
 21
364.347687
 31
0.0
  0
ARC
  5
157
330
15F
100
AcDbEntity
  8
0
 62
     7
370
    35
390
F
100
AcDbCircle
 10
126.066055
 20
361.097687
 30
0.0
 40
3.25
100
AcDbArc
 50
90.000003
 51
270.000001
  0
LINE
  5
158
330
15F
100
AcDbEntity
  8
0
 62
     7
 48
0.0625
370
    35
390
F
100
AcDbLine
 10
126.066055
 20
357.847687
 30
0.0
 11
128.566055
 21
357.847687
 31
0.0
  0
ARC
  5
159
330
15F
100
AcDbEntity
  8
0
 62
     7
370
    35
390
F
100
AcDbCircle
 10
128.566055
 20
361.097687
 30
0.0
 40
3.25
100
AcDbArc
 50
270.000001
 51
89.99998900000001
  0
LINE
  5
15A
330
15F
100
AcDbEntity
  8
0
 62
     7
 48
0.0625
370
    35
390
F
100
AcDbLine
 10
96.066055
 20
364.347687
 30
0.0
 11
98.566055
 21
364.347687
 31
0.0
  0
ARC
  5
15B
330
15F
100
AcDbEntity
  8
0
 62
     7
370
    35
390
F
100
AcDbCircle
 10
96.066055
 20
361.097687
 30
0.0
 40
3.25
100
AcDbArc
 50
90.000003
 51
270.000001
  0
LINE
  5
15C
330
15F
100
AcDbEntity
  8
0
 62
     7
 48
0.0625
370
    35
390
F
100
AcDbLine
 10
96.066055
 20
357.847687
 30
0.0
 11
98.566055
 21
357.847687
 31
0.0
  0
ARC
  5
15D
330
15F
100
AcDbEntity
  8
0
 62
     7
370
    35
390
F
100
AcDbCircle
 10
98.566055
 20
361.097687
 30
0.0
 40
3.25
100
AcDbArc
 50
270.000001
 51
89.99998900000001
  0
ENDBLK
  5
4F3
330
15F
100
AcDbEntity
  8
0
100
AcDbBlockEnd
  0
BLOCK
  5
4F4
330
164
100
AcDbEntity
  8
0
100
AcDbBlockBegin
  2
Block10
 70
     0
 10
0.0
 20
0.0
 30
0.0
  3
Block10
  1

  0
LINE
  5
161
330
164
100
AcDbEntity
  8
0
  6
DASHDOT
 62
     7
 48
0.21125
370
    13
390
F
100
AcDbLine
 10
235.291046
 20
88.30777
 30
0.0
 11
226.841064
 21
88.30777
 31
0.0
  0
LINE
  5
162
330
164
100
AcDbEntity
  8
0
  6
DASHDOT
 62
     7
 48
0.21125
370
    13
390
F
100
AcDbLine
 10
231.066055
 20
92.532768
 30
0.0
 11
231.066055
 21
84.082771
 31
0.0
  0
ENDBLK
  5
4F5
330
164
100
AcDbEntity
  8
0
100
AcDbBlockEnd
  0
BLOCK
  5
4F6
330
169
100
AcDbEntity
  8
0
100
AcDbBlockBegin
  2
Block11
 70
     0
 10
0.0
 20
0.0
 30
0.0
  3
Block11
  1

  0
LINE
  5
166
330
169
100
AcDbEntity
  8
0
  6
DASHDOT
 62
     7
 48
0.21125
370
    13
390
F
100
AcDbLine
 10
220.291046
 20
88.30777
 30
0.0
 11
211.841064
 21
88.30777
 31
0.0
  0
LINE
  5
167
330
169
100
AcDbEntity
  8
0
  6
DASHDOT
 62
     7
 48
0.21125
370
    13
390
F
100
AcDbLine
 10
216.066055
 20
92.532768
 30
0.0
 11
216.066055
 21
84.082771
 31
0.0
  0
ENDBLK
  5
4F7
330
169
100
AcDbEntity
  8
0
100
AcDbBlockEnd
  0
BLOCK
  5
4F8
330
16E
100
AcDbEntity
  8
0
100
AcDbBlockBegin
  2
Block12
 70
     0
 10
0.0
 20
0.0
 30
0.0
  3
Block12
  1

  0
LINE
  5
16B
330
16E
100
AcDbEntity
  8
0
  6
DASHDOT
 62
     7
 48
0.21125
370
    13
390
F
100
AcDbLine
 10
217.791046
 20
88.30777
 30
0.0
 11
209.341064
 21
88.30777
 31
0.0
  0
LINE
  5
16C
330
16E
100
AcDbEntity
  8
0
  6
DASHDOT
 62
     7
 48
0.21125
370
    13
390
F
100
AcDbLine
 10
213.566055
 20
92.532768
 30
0.0
 11
213.566055
 21
84.082771
 31
0.0
  0
ENDBLK
  5
4F9
330
16E
100
AcDbEntity
  8
0
100
AcDbBlockEnd
  0
BLOCK
  5
4FA
330
173
100
AcDbEntity
  8
0
100
AcDbBlockBegin
  2
Block13
 70
     0
 10
0.0
 20
0.0
 30
0.0
  3
Block13
  1

  0
LINE
  5
170
330
173
100
AcDbEntity
  8
0
  6
DASHDOT
 62
     7
 48
0.21125
370
    13
390
F
100
AcDbLine
 10
190.291046
 20
88.30777
 30
0.0
 11
181.841049
 21
88.30777
 31
0.0
  0
LINE
  5
171
330
173
100
AcDbEntity
  8
0
  6
DASHDOT
 62
     7
 48
0.21125
370
    13
390
F
100
AcDbLine
 10
186.066055
 20
92.532768
 30
0.0
 11
186.066055
 21
84.082771
 31
0.0
  0
ENDBLK
  5
4FB
330
173
100
AcDbEntity
  8
0
100
AcDbBlockEnd
  0
BLOCK
  5
4FC
330
178
100
AcDbEntity
  8
0
100
AcDbBlockBegin
  2
Block14
 70
     0
 10
0.0
 20
0.0
 30
0.0
  3
Block14
  1

  0
LINE
  5
175
330
178
100
AcDbEntity
  8
0
  6
DASHDOT
 62
     7
 48
0.21125
370
    13
390
F
100
AcDbLine
 10
187.791061
 20
88.30777
 30
0.0
 11
179.341049
 21
88.30777
 31
0.0
  0
LINE
  5
176
330
178
100
AcDbEntity
  8
0
  6
DASHDOT
 62
     7
 48
0.21125
370
    13
390
F
100
AcDbLine
 10
183.566055
 20
92.532768
 30
0.0
 11
183.566055
 21
84.082771
 31
0.0
  0
ENDBLK
  5
4FD
330
178
100
AcDbEntity
  8
0
100
AcDbBlockEnd
  0
BLOCK
  5
4FE
330
17D
100
AcDbEntity
  8
0
100
AcDbBlockBegin
  2
Block15
 70
     0
 10
0.0
 20
0.0
 30
0.0
  3
Block15
  1

  0
LINE
  5
17A
330
17D
100
AcDbEntity
  8
0
  6
DASHDOT
 62
     7
 48
0.21125
370
    13
390
F
100
AcDbLine
 10
132.791061
 20
88.30777
 30
0.0
 11
124.341057
 21
88.30777
 31
0.0
  0
LINE
  5
17B
330
17D
100
AcDbEntity
  8
0
  6
DASHDOT
 62
     7
 48
0.21125
370
    13
390
F
100
AcDbLine
 10
128.566055
 20
92.532768
 30
0.0
 11
128.566055
 21
84.082771
 31
0.0
  0
ENDBLK
  5
4FF
330
17D
100
AcDbEntity
  8
0
100
AcDbBlockEnd
  0
BLOCK
  5
500
330
196
100
AcDbEntity
  8
0
100
AcDbBlockBegin
  2
Block16
 70
     0
 10
0.0
 20
0.0
 30
0.0
  3
Block16
  1

  0
LINE
  5
17F
330
196
100
AcDbEntity
  8
0
 62
     7
370
    35
390
F
100
AcDbLine
 10
256.06604
 20
63.30777
 30
0.0
 11
256.06604
 21
113.30777
 31
0.0
  0
LINE
  5
180
330
196
100
AcDbEntity
  8
0
 62
     7
370
    35
390
F
100
AcDbLine
 10
56.066055
 20
63.30777
 30
0.0
 11
56.066055
 21
113.30777
 31
0.0
  0
LINE
  5
181
330
196
100
AcDbEntity
  8
0
 62
     7
370
    35
390
F
100
AcDbLine
 10
256.06604
 20
113.30777
 30
0.0
 11
56.066055
 21
113.30777
 31
0.0
  0
LINE
  5
182
330
196
100
AcDbEntity
  8
0
 62
     7
370
    35
390
F
100
AcDbLine
 10
256.06604
 20
63.30777
 30
0.0
 11
56.066055
 21
63.30777
 31
0.0
  0
CIRCLE
  5
183
330
196
100
AcDbEntity
  8
0
 62
     7
370
    35
390
F
100
AcDbCircle
 10
231.066055
 20
88.30777
 30
0.0
 40
3.25
  0
CIRCLE
  5
184
330
196
100
AcDbEntity
  8
0
 62
     7
370
    35
390
F
100
AcDbCircle
 10
81.066055
 20
88.30777
 30
0.0
 40
3.25
  0
LINE
  5
185
330
196
100
AcDbEntity
  8
0
 62
     7
 48
0.0625
370
    35
390
F
100
AcDbLine
 10
186.066055
 20
85.05777
 30
0.0
 11
183.566055
 21
85.05777
 31
0.0
  0
ARC
  5
186
330
196
100
AcDbEntity
  8
0
 62
     7
370
    35
390
F
100
AcDbCircle
 10
186.066055
 20
88.30777
 30
0.0
 40
3.25
100
AcDbArc
 50
270.000001
 51
89.99998900000001
  0
LINE
  5
187
330
196
100
AcDbEntity
  8
0
 62
     7
 48
0.0625
370
    35
390
F
100
AcDbLine
 10
186.066055
 20
91.55777
 30
0.0
 11
183.566055
 21
91.55777
 31
0.0
  0
ARC
  5
188
330
196
100
AcDbEntity
  8
0
 62
     7
370
    35
390
F
100
AcDbCircle
 10
183.566055
 20
88.30777
 30
0.0
 40
3.25
100
AcDbArc
 50
90.000003
 51
270.000001
  0
LINE
  5
189
330
196
100
AcDbEntity
  8
0
 62
     7
 48
0.0625
370
    35
390
F
100
AcDbLine
 10
216.066055
 20
85.05777
 30
0.0
 11
213.566055
 21
85.05777
 31
0.0
  0
ARC
  5
18A
330
196
100
AcDbEntity
  8
0
 62
     7
370
    35
390
F
100
AcDbCircle
 10
216.066055
 20
88.30777
 30
0.0
 40
3.25
100
AcDbArc
 50
270.000001
 51
89.99998900000001
  0
LINE
  5
18B
330
196
100
AcDbEntity
  8
0
 62
     7
 48
0.0625
370
    35
390
F
100
AcDbLine
 10
216.066055
 20
91.55777
 30
0.0
 11
213.566055
 21
91.55777
 31
0.0
  0
ARC
  5
18C
330
196
100
AcDbEntity
  8
0
 62
     7
370
    35
390
F
100
AcDbCircle
 10
213.566055
 20
88.30777
 30
0.0
 40
3.25
100
AcDbArc
 50
90.000003
 51
270.000001
  0
LINE
  5
18D
330
196
100
AcDbEntity
  8
0
 62
     7
 48
0.0625
370
    35
390
F
100
AcDbLine
 10
128.566055
 20
91.55777
 30
0.0
 11
126.066055
 21
91.55777
 31
0.0
  0
ARC
  5
18E
330
196
100
AcDbEntity
  8
0
 62
     7
370
    35
390
F
100
AcDbCircle
 10
126.066055
 20
88.30777
 30
0.0
 40
3.25
100
AcDbArc
 50
90.000003
 51
270.000001
  0
LINE
  5
18F
330
196
100
AcDbEntity
  8
0
 62
     7
 48
0.0625
370
    35
390
F
100
AcDbLine
 10
128.566055
 20
85.05777
 30
0.0
 11
126.066055
 21
85.05777
 31
0.0
  0
ARC
  5
190
330
196
100
AcDbEntity
  8
0
 62
     7
370
    35
390
F
100
AcDbCircle
 10
128.566055
 20
88.30777
 30
0.0
 40
3.25
100
AcDbArc
 50
270.000001
 51
89.99998900000001
  0
LINE
  5
191
330
196
100
AcDbEntity
  8
0
 62
     7
 48
0.0625
370
    35
390
F
100
AcDbLine
 10
98.566055
 20
91.55777
 30
0.0
 11
96.066055
 21
91.55777
 31
0.0
  0
ARC
  5
192
330
196
100
AcDbEntity
  8
0
 62
     7
370
    35
390
F
100
AcDbCircle
 10
96.066055
 20
88.30777
 30
0.0
 40
3.25
100
AcDbArc
 50
90.000003
 51
270.000001
  0
LINE
  5
193
330
196
100
AcDbEntity
  8
0
 62
     7
 48
0.0625
370
    35
390
F
100
AcDbLine
 10
98.566055
 20
85.05777
 30
0.0
 11
96.066055
 21
85.05777
 31
0.0
  0
ARC
  5
194
330
196
100
AcDbEntity
  8
0
 62
     7
370
    35
390
F
100
AcDbCircle
 10
98.566055
 20
88.30777
 30
0.0
 40
3.25
100
AcDbArc
 50
270.000001
 51
89.99998900000001
  0
ENDBLK
  5
501
330
196
100
AcDbEntity
  8
0
100
AcDbBlockEnd
  0
BLOCK
  5
502
330
19A
100
AcDbEntity
  8
0
100
AcDbBlockBegin
  2
Block17
 70
     0
 10
0.0
 20
0.0
 30
0.0
  3
Block17
  1

  0
TEXT
  5
198
330
19A
100
AcDbEntity
  8
0
 62
     7
370
    13
390
F
100
AcDbText
 10
-12.016083
 20
426.131958
 30
0.0
 40
14.0
  1
GW85187 TESTA PALO DOPPIO Ø76
 41
0.8878454899159663
 72
     5
 11
340.162628
 21
426.131958
 31
0.0
100
AcDbText
  0
ENDBLK
  5
503
330
19A
100
AcDbEntity
  8
0
100
AcDbBlockEnd
  0
BLOCK
  5
504
330
1A3
100
AcDbEntity
  8
0
100
AcDbBlockBegin
  2
*D19
 70
     1
 10
0.0
 20
0.0
 30
0.0
  3
*D19
  1

  0
TEXT
  5
19C
330
1A3
100
AcDbEntity
  8
2
 62
    34
370
    13
390
F
100
AcDbText
 10
162.813618
 20
319.173889
 30
0.0
 40
2.5
  1
50
 50
90.0
 41
1.289908800000012
 72
     5
 11
162.813618
 21
324.011047
 31
0.0
100
AcDbText
  0
LINE
  5
19D
330
1A3
100
AcDbEntity
  8
2
 62
    34
370
    13
390
F
100
AcDbLine
 10
184.44289
 20
309.092468
 30
0.0
 11
162.813618
 21
309.092468
 31
0.0
  0
LINE
  5
19E
330
1A3
100
AcDbEntity
  8
2
 62
    34
 48
0.415732
370
    13
390
F
100
AcDbLine
 10
179.44289
 20
334.092468
 30
0.0
 11
162.813618
 21
334.092468
 31
0.0
  0
LWPOLYLINE
  5
19F
330
1A3
100
AcDbEntity
  8
2
 62
    34
370
    13
390
F
100
AcDbPolyline
 90
        3
 70
     0
 43
0.0
 10
164.295979
 20
311.024323
 10
164.813618
 20
309.092468
 10
165.331257
 20
311.024323
  0
LWPOLYLINE
  5
1A0
330
1A3
100
AcDbEntity
  8
2
 62
    34
370
    13
390
F
100
AcDbPolyline
 90
        3
 70
     0
 43
0.0
 10
165.331257
 20
332.160614
 10
164.813618
 20
334.092468
 10
164.295979
 20
332.160614
  0
LINE
  5
1A1
330
1A3
100
AcDbEntity
  8
2
 62
    34
370
    13
390
F
100
AcDbLine
 10
164.813618
 20
309.092468
 30
0.0
 11
164.813618
 21
334.092468
 31
0.0
  0
ENDBLK
  5
505
330
1A3
100
AcDbEntity
  8
0
100
AcDbBlockEnd
  0
BLOCK
  5
506
330
1AC
100
AcDbEntity
  8
0
100
AcDbBlockBegin
  2
*D20
 70
     1
 10
0.0
 20
0.0
 30
0.0
  3
*D20
  1

  0
TEXT
  5
1A5
330
1AC
100
AcDbEntity
  8
2
 62
    34
370
    13
390
F
100
AcDbText
 10
390.206543
 20
325.423889
 30
0.0
 40
2.5
  1
25
 50
90.0
 41
1.160917920000011
 72
     5
 11
390.206543
 21
330.261047
 31
0.0
100
AcDbText
  0
LINE
  5
1A6
330
1AC
100
AcDbEntity
  8
2
 62
    34
370
    13
390
F
100
AcDbLine
 10
347.667892
 20
321.592468
 30
0.0
 11
394.206543
 21
321.592468
 31
0.0
  0
LINE
  5
1A7
330
1AC
100
AcDbEntity
  8
2
 62
    34
 48
0.269091
370
    13
390
F
100
AcDbLine
 10
383.442902
 20
334.092468
 30
0.0
 11
394.206543
 21
334.092468
 31
0.0
  0
LWPOLYLINE
  5
1A8
330
1AC
100
AcDbEntity
  8
2
 62
    34
370
    13
390
F
100
AcDbPolyline
 90
        3
 70
     0
 43
0.0
 10
392.724182
 20
332.160614
 10
392.206543
 20
334.092468
 10
391.688904
 20
332.160614
  0
LWPOLYLINE
  5
1A9
330
1AC
100
AcDbEntity
  8
2
 62
    34
370
    13
390
F
100
AcDbPolyline
 90
        3
 70
     0
 43
0.0
 10
391.688904
 20
323.524323
 10
392.206543
 20
321.592468
 10
392.724182
 20
323.524323
  0
LINE
  5
1AA
330
1AC
100
AcDbEntity
  8
2
 62
    34
 48
0.3125
370
    13
390
F
100
AcDbLine
 10
392.206543
 20
321.592468
 30
0.0
 11
392.206543
 21
334.092468
 31
0.0
  0
ENDBLK
  5
507
330
1AC
100
AcDbEntity
  8
0
100
AcDbBlockEnd
  0
BLOCK
  5
508
330
1B5
100
AcDbEntity
  8
0
100
AcDbBlockBegin
  2
*D21
 70
     1
 10
0.0
 20
0.0
 30
0.0
  3
*D21
  1

  0
TEXT
  5
1AE
330
1B5
100
AcDbEntity
  8
2
 62
    34
370
    13
390
F
100
AcDbText
 10
352.401855
 20
292.345154
 30
0.0
 40
2.5
  1
5
 41
1.301147999999978
 72
     5
 11
354.570435
 21
292.345154
 31
0.0
100
AcDbText
  0
LINE
  5
1AF
330
1B5
100
AcDbEntity
  8
2
 62
    34
370
    13
390
F
100
AcDbLine
 10
338.942886
 20
315.367462
 30
0.0
 11
338.942886
 21
288.345154
 31
0.0
  0
LINE
  5
1B0
330
1B5
100
AcDbEntity
  8
2
 62
    34
370
    13
390
F
100
AcDbLine
 10
341.442886
 20
315.367462
 30
0.0
 11
341.442886
 21
288.345154
 31
0.0
  0
LWPOLYLINE
  5
1B1
330
1B5
100
AcDbEntity
  8
2
 62
    34
370
    13
390
F
100
AcDbPolyline
 90
        3
 70
     0
 43
0.0
 10
337.011032
 20
289.827515
 10
338.942886
 20
290.345154
 10
337.011032
 20
290.862793
  0
LWPOLYLINE
  5
1B2
330
1B5
100
AcDbEntity
  8
2
 62
    34
370
    13
390
F
100
AcDbPolyline
 90
        3
 70
     0
 43
0.0
 10
343.374741
 20
290.862793
 10
341.442886
 20
290.345154
 10
343.374741
 20
289.827515
  0
LINE
  5
1B3
330
1B5
100
AcDbEntity
  8
2
 62
    34
370
    13
390
F
100
AcDbLine
 10
333.942886
 20
290.345154
 30
0.0
 11
354.57045
 21
290.345154
 31
0.0
  0
ENDBLK
  5
509
330
1B5
100
AcDbEntity
  8
0
100
AcDbBlockEnd
  0
BLOCK
  5
50A
330
1BE
100
AcDbEntity
  8
0
100
AcDbBlockBegin
  2
*D22
 70
     1
 10
0.0
 20
0.0
 30
0.0
  3
*D22
  1

  0
TEXT
  5
1B7
330
1BE
100
AcDbEntity
  8
2
 62
    34
370
    13
390
F
100
AcDbText
 10
322.774292
 20
277.968964
 30
0.0
 40
2.5
  1
55
 41
1.160925360000006
 72
     5
 11
327.611481
 21
277.968964
 31
0.0
100
AcDbText
  0
LINE
  5
1B8
330
1BE
100
AcDbEntity
  8
2
 62
    34
370
    13
390
F
100
AcDbLine
 10
311.442886
 20
315.367462
 30
0.0
 11
311.442886
 21
273.968964
 31
0.0
  0
LINE
  5
1B9
330
1BE
100
AcDbEntity
  8
2
 62
    34
370
    13
390
F
100
AcDbLine
 10
338.942886
 20
315.367462
 30
0.0
 11
338.942886
 21
273.968964
 31
0.0
  0
LWPOLYLINE
  5
1BA
330
1BE
100
AcDbEntity
  8
2
 62
    34
370
    13
390
F
100
AcDbPolyline
 90
        3
 70
     0
 43
0.0
 10
313.374741
 20
276.486603
 10
311.442886
 20
275.968964
 10
313.374741
 20
275.451324
  0
LWPOLYLINE
  5
1BB
330
1BE
100
AcDbEntity
  8
2
 62
    34
370
    13
390
F
100
AcDbPolyline
 90
        3
 70
     0
 43
0.0
 10
337.011032
 20
275.451324
 10
338.942886
 20
275.968964
 10
337.011032
 20
276.486603
  0
LINE
  5
1BC
330
1BE
100
AcDbEntity
  8
2
 62
    34
370
    13
390
F
100
AcDbLine
 10
311.442886
 20
275.968964
 30
0.0
 11
338.942886
 21
275.968964
 31
0.0
  0
ENDBLK
  5
50B
330
1BE
100
AcDbEntity
  8
0
100
AcDbBlockEnd
  0
BLOCK
  5
50C
330
1C7
100
AcDbEntity
  8
0
100
AcDbBlockBegin
  2
*D23
 70
     1
 10
0.0
 20
0.0
 30
0.0
  3
*D23
  1

  0
TEXT
  5
1C0
330
1C7
100
AcDbEntity
  8
2
 62
    34
370
    13
390
F
100
AcDbText
 10
321.630951
 20
292.540741
 30
0.0
 40
2.5
  1
5
 41
1.301147400000014
 72
     5
 11
323.79953
 21
292.540741
 31
0.0
100
AcDbText
  0
LINE
  5
1C1
330
1C7
100
AcDbEntity
  8
2
 62
    34
370
    13
390
F
100
AcDbLine
 10
308.942886
 20
315.367462
 30
0.0
 11
308.942886
 21
288.540741
 31
0.0
  0
LINE
  5
1C2
330
1C7
100
AcDbEntity
  8
2
 62
    34
370
    13
390
F
100
AcDbLine
 10
311.442886
 20
315.367462
 30
0.0
 11
311.442886
 21
288.540741
 31
0.0
  0
LWPOLYLINE
  5
1C3
330
1C7
100
AcDbEntity
  8
2
 62
    34
370
    13
390
F
100
AcDbPolyline
 90
        3
 70
     0
 43
0.0
 10
307.011032
 20
290.023102
 10
308.942886
 20
290.540741
 10
307.011032
 20
291.05838
  0
LWPOLYLINE
  5
1C4
330
1C7
100
AcDbEntity
  8
2
 62
    34
370
    13
390
F
100
AcDbPolyline
 90
        3
 70
     0
 43
0.0
 10
313.374741
 20
291.05838
 10
311.442886
 20
290.540741
 10
313.374741
 20
290.023102
  0
LINE
  5
1C5
330
1C7
100
AcDbEntity
  8
2
 62
    34
 48
0.496416
370
    13
390
F
100
AcDbLine
 10
303.942886
 20
290.540741
 30
0.0
 11
323.799545
 21
290.540741
 31
0.0
  0
ENDBLK
  5
50D
330
1C7
100
AcDbEntity
  8
0
100
AcDbBlockEnd
  0
BLOCK
  5
50E
330
1D0
100
AcDbEntity
  8
0
100
AcDbBlockBegin
  2
*D24
 70
     1
 10
0.0
 20
0.0
 30
0.0
  3
*D24
  1

  0
TEXT
  5
1C9
330
1D0
100
AcDbEntity
  8
2
 62
    34
370
    13
390
F
100
AcDbText
 10
292.774292
 20
345.450134
 30
0.0
 40
2.5
  1
55
 41
1.160925360000006
 72
     5
 11
297.611481
 21
345.450134
 31
0.0
100
AcDbText
  0
LINE
  5
1CA
330
1D0
100
AcDbEntity
  8
2
 62
    34
 48
0.466442
370
    13
390
F
100
AcDbLine
 10
281.442886
 20
326.79245
 30
0.0
 11
281.442886
 21
345.450134
 31
0.0
  0
LINE
  5
1CB
330
1D0
100
AcDbEntity
  8
2
 62
    34
 48
0.440816
370
    13
390
F
100
AcDbLine
 10
308.942886
 20
327.817474
 30
0.0
 11
308.942886
 21
345.450134
 31
0.0
  0
LWPOLYLINE
  5
1CC
330
1D0
100
AcDbEntity
  8
2
 62
    34
370
    13
390
F
100
AcDbPolyline
 90
        3
 70
     0
 43
0.0
 10
283.374741
 20
343.967773
 10
281.442886
 20
343.450134
 10
283.374741
 20
342.932495
  0
LWPOLYLINE
  5
1CD
330
1D0
100
AcDbEntity
  8
2
 62
    34
370
    13
390
F
100
AcDbPolyline
 90
        3
 70
     0
 43
0.0
 10
307.011032
 20
342.932495
 10
308.942886
 20
343.450134
 10
307.011032
 20
343.967773
  0
LINE
  5
1CE
330
1D0
100
AcDbEntity
  8
2
 62
    34
370
    13
390
F
100
AcDbLine
 10
281.442886
 20
343.450134
 30
0.0
 11
308.942886
 21
343.450134
 31
0.0
  0
ENDBLK
  5
50F
330
1D0
100
AcDbEntity
  8
0
100
AcDbBlockEnd
  0
BLOCK
  5
510
330
1D9
100
AcDbEntity
  8
0
100
AcDbBlockBegin
  2
*D25
 70
     1
 10
0.0
 20
0.0
 30
0.0
  3
*D25
  1

  0
TEXT
  5
1D2
330
1D9
100
AcDbEntity
  8
2
 62
    34
370
    13
390
F
100
AcDbText
 10
277.690002
 20
356.011597
 30
0.0
 40
2.5
  1
400
 41
1.286703085714284
 72
     5
 11
285.19577
 21
356.011597
 31
0.0
100
AcDbText
  0
LINE
  5
1D3
330
1D9
100
AcDbEntity
  8
2
 62
    34
 48
0.497978
370
    13
390
F
100
AcDbLine
 10
181.44289
 20
336.092468
 30
0.0
 11
181.44289
 21
356.011597
 31
0.0
  0
LINE
  5
1D4
330
1D9
100
AcDbEntity
  8
2
 62
    34
 48
0.497978
370
    13
390
F
100
AcDbLine
 10
381.442902
 20
336.092468
 30
0.0
 11
381.442902
 21
356.011597
 31
0.0
  0
LWPOLYLINE
  5
1D5
330
1D9
100
AcDbEntity
  8
2
 62
    34
370
    13
390
F
100
AcDbPolyline
 90
        3
 70
     0
 43
0.0
 10
183.374741
 20
354.529236
 10
181.44289
 20
354.011597
 10
183.374741
 20
353.493958
  0
LWPOLYLINE
  5
1D6
330
1D9
100
AcDbEntity
  8
2
 62
    34
370
    13
390
F
100
AcDbPolyline
 90
        3
 70
     0
 43
0.0
 10
379.511032
 20
353.493958
 10
381.442902
 20
354.011597
 10
379.511032
 20
354.529236
  0
LINE
  5
1D7
330
1D9
100
AcDbEntity
  8
2
 62
    34
370
    13
390
F
100
AcDbLine
 10
181.44289
 20
354.011597
 30
0.0
 11
381.442902
 21
354.011597
 31
0.0
  0
ENDBLK
  5
511
330
1D9
100
AcDbEntity
  8
0
100
AcDbBlockEnd
  0
BLOCK
  5
512
330
1E2
100
AcDbEntity
  8
0
100
AcDbBlockBegin
  2
*D26
 70
     1
 10
0.0
 20
0.0
 30
0.0
  3
*D26
  1

  0
TEXT
  5
1DB
330
1E2
100
AcDbEntity
  8
2
 62
    34
370
    13
390
F
100
AcDbText
 10
160.988636
 20
45.049667
 30
0.0
 40
2.5
  1
100
 50
90.0
 41
1.501153600000001
 72
     5
 11
160.988636
 21
52.555435
 31
0.0
100
AcDbText
  0
LINE
  5
1DC
330
1E2
100
AcDbEntity
  8
2
 62
    34
 48
0.461356
370
    13
390
F
100
AcDbLine
 10
179.44289
 20
23.802551
 30
0.0
 11
160.988636
 21
23.802551
 31
0.0
  0
LINE
  5
1DD
330
1E2
100
AcDbEntity
  8
2
 62
    34
 48
0.461356
370
    13
390
F
100
AcDbLine
 10
179.44289
 20
73.802551
 30
0.0
 11
160.988636
 21
73.802551
 31
0.0
  0
LWPOLYLINE
  5
1DE
330
1E2
100
AcDbEntity
  8
2
 62
    34
370
    13
390
F
100
AcDbPolyline
 90
        3
 70
     0
 43
0.0
 10
162.470997
 20
25.734406
 10
162.988636
 20
23.802551
 10
163.506275
 20
25.734406
  0
LWPOLYLINE
  5
1DF
330
1E2
100
AcDbEntity
  8
2
 62
    34
370
    13
390
F
100
AcDbPolyline
 90
        3
 70
     0
 43
0.0
 10
163.506275
 20
71.870697
 10
162.988636
 20
73.802551
 10
162.470997
 20
71.870697
  0
LINE
  5
1E0
330
1E2
100
AcDbEntity
  8
2
 62
    34
370
    13
390
F
100
AcDbLine
 10
162.988636
 20
23.802551
 30
0.0
 11
162.988636
 21
73.802551
 31
0.0
  0
ENDBLK
  5
513
330
1E2
100
AcDbEntity
  8
0
100
AcDbBlockEnd
  0
BLOCK
  5
514
330
1EB
100
AcDbEntity
  8
0
100
AcDbBlockBegin
  2
*D27
 70
     1
 10
0.0
 20
0.0
 30
0.0
  3
*D27
  1

  0
TEXT
  5
1E4
330
1EB
100
AcDbEntity
  8
2
 62
    34
370
    13
390
F
100
AcDbText
 10
304.928375
 20
85.947853
 30
0.0
 40
2.5
  1
5
 41
1.301147399999979
 72
     5
 11
307.096954
 21
85.947853
 31
0.0
100
AcDbText
  0
LINE
  5
1E5
330
1EB
100
AcDbEntity
  8
2
 62
    34
370
    13
390
F
100
AcDbLine
 10
308.942886
 20
55.02755
 30
0.0
 11
308.942886
 21
85.947853
 31
0.0
  0
LINE
  5
1E6
330
1EB
100
AcDbEntity
  8
2
 62
    34
370
    13
390
F
100
AcDbLine
 10
311.442886
 20
55.02755
 30
0.0
 11
311.442886
 21
85.947853
 31
0.0
  0
LWPOLYLINE
  5
1E7
330
1EB
100
AcDbEntity
  8
2
 62
    34
370
    13
390
F
100
AcDbPolyline
 90
        3
 70
     0
 43
0.0
 10
313.374741
 20
84.465492
 10
311.442886
 20
83.947853
 10
313.374741
 20
83.430214
  0
LWPOLYLINE
  5
1E8
330
1EB
100
AcDbEntity
  8
2
 62
    34
370
    13
390
F
100
AcDbPolyline
 90
        3
 70
     0
 43
0.0
 10
307.011032
 20
83.430214
 10
308.942886
 20
83.947853
 10
307.011032
 20
84.465492
  0
LINE
  5
1E9
330
1EB
100
AcDbEntity
  8
2
 62
    34
 48
0.3125
370
    13
390
F
100
AcDbLine
 10
303.942886
 20
83.947853
 30
0.0
 11
316.442886
 21
83.947853
 31
0.0
  0
ENDBLK
  5
515
330
1EB
100
AcDbEntity
  8
0
100
AcDbBlockEnd
  0
BLOCK
  5
516
330
1F4
100
AcDbEntity
  8
0
100
AcDbBlockBegin
  2
*D28
 70
     1
 10
0.0
 20
0.0
 30
0.0
  3
*D28
  1

  0
TEXT
  5
1ED
330
1F4
100
AcDbEntity
  8
2
 62
    34
370
    13
390
F
100
AcDbText
 10
322.774292
 20
98.289398
 30
0.0
 40
2.5
  1
55
 41
1.160925360000006
 72
     5
 11
327.611481
 21
98.289398
 31
0.0
100
AcDbText
  0
LINE
  5
1EE
330
1F4
100
AcDbEntity
  8
2
 62
    34
370
    13
390
F
100
AcDbLine
 10
311.442886
 20
55.02755
 30
0.0
 11
311.442886
 21
98.289398
 31
0.0
  0
LINE
  5
1EF
330
1F4
100
AcDbEntity
  8
2
 62
    34
370
    13
390
F
100
AcDbLine
 10
338.942886
 20
55.02755
 30
0.0
 11
338.942886
 21
98.289398
 31
0.0
  0
LWPOLYLINE
  5
1F0
330
1F4
100
AcDbEntity
  8
2
 62
    34
370
    13
390
F
100
AcDbPolyline
 90
        3
 70
     0
 43
0.0
 10
313.374741
 20
96.807037
 10
311.442886
 20
96.289398
 10
313.374741
 20
95.771759
  0
LWPOLYLINE
  5
1F1
330
1F4
100
AcDbEntity
  8
2
 62
    34
370
    13
390
F
100
AcDbPolyline
 90
        3
 70
     0
 43
0.0
 10
337.011032
 20
95.771759
 10
338.942886
 20
96.289398
 10
337.011032
 20
96.807037
  0
LINE
  5
1F2
330
1F4
100
AcDbEntity
  8
2
 62
    34
370
    13
390
F
100
AcDbLine
 10
311.442886
 20
96.289398
 30
0.0
 11
338.942886
 21
96.289398
 31
0.0
  0
ENDBLK
  5
517
330
1F4
100
AcDbEntity
  8
0
100
AcDbBlockEnd
  0
BLOCK
  5
518
330
1FD
100
AcDbEntity
  8
0
100
AcDbBlockBegin
  2
*D29
 70
     1
 10
0.0
 20
0.0
 30
0.0
  3
*D29
  1

  0
TEXT
  5
1F6
330
1FD
100
AcDbEntity
  8
2
 62
    34
370
    13
390
F
100
AcDbText
 10
331.557449
 20
98.289398
 30
0.0
 40
2.5
  1
5
 41
1.301147399999979
 72
     5
 11
333.726028
 21
98.289398
 31
0.0
100
AcDbText
  0
LINE
  5
1F7
330
1FD
100
AcDbEntity
  8
2
 62
    34
370
    13
390
F
100
AcDbLine
 10
338.942886
 20
55.02755
 30
0.0
 11
338.942886
 21
98.289398
 31
0.0
  0
LINE
  5
1F8
330
1FD
100
AcDbEntity
  8
2
 62
    34
370
    13
390
F
100
AcDbLine
 10
341.442886
 20
55.02755
 30
0.0
 11
341.442886
 21
98.289398
 31
0.0
  0
LWPOLYLINE
  5
1F9
330
1FD
100
AcDbEntity
  8
2
 62
    34
370
    13
390
F
100
AcDbPolyline
 90
        3
 70
     0
 43
0.0
 10
343.374741
 20
96.807037
 10
341.442886
 20
96.289398
 10
343.374741
 20
95.771759
  0
LWPOLYLINE
  5
1FA
330
1FD
100
AcDbEntity
  8
2
 62
    34
370
    13
390
F
100
AcDbPolyline
 90
        3
 70
     0
 43
0.0
 10
337.011032
 20
95.771759
 10
338.942886
 20
96.289398
 10
337.011032
 20
96.807037
  0
LINE
  5
1FB
330
1FD
100
AcDbEntity
  8
2
 62
    34
 48
0.372136
370
    13
390
F
100
AcDbLine
 10
331.557449
 20
96.289398
 30
0.0
 11
346.442886
 21
96.289398
 31
0.0
  0
ENDBLK
  5
519
330
1FD
100
AcDbEntity
  8
0
100
AcDbBlockEnd
  0
BLOCK
  5
51A
330
206
100
AcDbEntity
  8
0
100
AcDbBlockBegin
  2
*D30
 70
     1
 10
0.0
 20
0.0
 30
0.0
  3
*D30
  1

  0
TEXT
  5
1FF
330
206
100
AcDbEntity
  8
2
 62
    34
370
    13
390
F
100
AcDbText
 10
346.524292
 20
87.557617
 30
0.0
 40
2.5
  1
30
 41
1.289917066666673
 72
     5
 11
351.361481
 21
87.557617
 31
0.0
100
AcDbText
  0
LINE
  5
200
330
206
100
AcDbEntity
  8
2
 62
    34
370
    13
390
F
100
AcDbLine
 10
341.442886
 20
55.02755
 30
0.0
 11
341.442886
 21
87.557625
 31
0.0
  0
LINE
  5
201
330
206
100
AcDbEntity
  8
2
 62
    34
370
    13
390
F
100
AcDbLine
 10
356.442886
 20
55.02755
 30
0.0
 11
356.442886
 21
87.557625
 31
0.0
  0
LWPOLYLINE
  5
202
330
206
100
AcDbEntity
  8
2
 62
    34
370
    13
390
F
100
AcDbPolyline
 90
        3
 70
     0
 43
0.0
 10
343.374741
 20
86.075264
 10
341.442886
 20
85.557625
 10
343.374741
 20
85.039986
  0
LWPOLYLINE
  5
203
330
206
100
AcDbEntity
  8
2
 62
    34
370
    13
390
F
100
AcDbPolyline
 90
        3
 70
     0
 43
0.0
 10
354.511032
 20
85.039986
 10
356.442886
 20
85.557625
 10
354.511032
 20
86.075264
  0
LINE
  5
204
330
206
100
AcDbEntity
  8
2
 62
    34
 48
0.375
370
    13
390
F
100
AcDbLine
 10
341.442886
 20
85.557625
 30
0.0
 11
356.442886
 21
85.557625
 31
0.0
  0
ENDBLK
  5
51B
330
206
100
AcDbEntity
  8
0
100
AcDbBlockEnd
  0
BLOCK
  5
51C
330
20F
100
AcDbEntity
  8
0
100
AcDbBlockBegin
  2
*D31
 70
     1
 10
0.0
 20
0.0
 30
0.0
  3
*D31
  1

  0
TEXT
  5
208
330
20F
100
AcDbEntity
  8
2
 62
    34
370
    13
390
F
100
AcDbText
 10
277.690002
 20
98.468262
 30
0.0
 40
2.5
  1
110
 41
1.637622109090907
 72
     5
 11
285.19577
 21
98.468262
 31
0.0
100
AcDbText
  0
LINE
  5
209
330
20F
100
AcDbEntity
  8
2
 62
    34
370
    13
390
F
100
AcDbLine
 10
253.942886
 20
55.02755
 30
0.0
 11
253.942886
 21
98.468262
 31
0.0
  0
LINE
  5
20A
330
20F
100
AcDbEntity
  8
2
 62
    34
370
    13
390
F
100
AcDbLine
 10
308.942886
 20
55.02755
 30
0.0
 11
308.942886
 21
98.468262
 31
0.0
  0
LWPOLYLINE
  5
20B
330
20F
100
AcDbEntity
  8
2
 62
    34
370
    13
390
F
100
AcDbPolyline
 90
        3
 70
     0
 43
0.0
 10
255.874741
 20
96.985901
 10
253.942886
 20
96.468262
 10
255.874741
 20
95.950623
  0
LWPOLYLINE
  5
20C
330
20F
100
AcDbEntity
  8
2
 62
    34
370
    13
390
F
100
AcDbPolyline
 90
        3
 70
     0
 43
0.0
 10
307.011032
 20
95.950623
 10
308.942886
 20
96.468262
 10
307.011032
 20
96.985901
  0
LINE
  5
20D
330
20F
100
AcDbEntity
  8
2
 62
    34
370
    13
390
F
100
AcDbLine
 10
253.942886
 20
96.468262
 30
0.0
 11
308.942886
 21
96.468262
 31
0.0
  0
ENDBLK
  5
51D
330
20F
100
AcDbEntity
  8
0
100
AcDbBlockEnd
  0
BLOCK
  5
51E
330
219
100
AcDbEntity
  8
0
100
AcDbBlockBegin
  2
*D32
 70
     1
 10
0.0
 20
0.0
 30
0.0
  3
*D32
  1

  0
TEXT
  5
211
330
219
100
AcDbEntity
  8
0
 62
    34
370
    13
390
F
100
AcDbText
 10
275.80687
 20
130.651428
 30
0.0
 40
3.5
  1
%%c
 41
1.5
 72
     5
 11
279.30687
 21
130.651428
 31
0.0
100
AcDbText
  0
TEXT
  5
212
330
219
100
AcDbEntity
  8
0
 62
    34
370
    13
390
F
100
AcDbText
 10
280.30687
 20
130.651428
 30
0.0
 40
3.5
  1
90
 41
1.289911047619052
 72
     5
 11
287.078903
 21
130.651428
 31
0.0
100
AcDbText
  0
LINE
  5
213
330
219
100
AcDbEntity
  8
0
 62
    34
370
    13
390
F
100
AcDbLine
 10
258.942886
 20
150.092468
 30
0.0
 11
258.942886
 21
126.651428
 31
0.0
  0
LINE
  5
214
330
219
100
AcDbEntity
  8
0
 62
    34
370
    13
390
F
100
AcDbLine
 10
303.942886
 20
150.092468
 30
0.0
 11
303.942886
 21
126.651428
 31
0.0
  0
LWPOLYLINE
  5
215
330
219
100
AcDbEntity
  8
0
 62
    34
370
    13
390
F
100
AcDbPolyline
 90
        3
 70
     0
 43
0.0
 10
302.011032
 20
128.133789
 10
303.942886
 20
128.651428
 10
302.011032
 20
129.169067
  0
LWPOLYLINE
  5
216
330
219
100
AcDbEntity
  8
0
 62
    34
370
    13
390
F
100
AcDbPolyline
 90
        3
 70
     0
 43
0.0
 10
260.874741
 20
129.169067
 10
258.942886
 20
128.651428
 10
260.874741
 20
128.133789
  0
LINE
  5
217
330
219
100
AcDbEntity
  8
0
 62
    34
370
    13
390
F
100
AcDbLine
 10
258.942886
 20
128.651428
 30
0.0
 11
303.942886
 21
128.651428
 31
0.0
  0
ENDBLK
  5
51F
330
219
100
AcDbEntity
  8
0
100
AcDbBlockEnd
  0
BLOCK
  5
520
330
222
100
AcDbEntity
  8
0
100
AcDbBlockBegin
  2
*D33
 70
     1
 10
0.0
 20
0.0
 30
0.0
  3
*D33
  1

  0
TEXT
  5
21B
330
222
100
AcDbEntity
  8
0
 62
    34
370
    13
390
F
100
AcDbText
 10
399.125031
 20
237.83844
 30
0.0
 40
3.5
  1
360
 50
90.0
 41
1.200920800000001
 72
     5
 11
399.125031
 21
248.346497
 31
0.0
100
AcDbText
  0
LINE
  5
21C
330
222
100
AcDbEntity
  8
0
 62
    34
370
    13
390
F
100
AcDbLine
 10
305.942886
 20
152.092468
 30
0.0
 11
403.125031
 21
152.092468
 31
0.0
  0
LINE
  5
21D
330
222
100
AcDbEntity
  8
0
 62
    34
 48
0.492053
370
    13
390
F
100
AcDbLine
 10
383.442902
 20
334.092468
 30
0.0
 11
403.125031
 21
334.092468
 31
0.0
  0
LWPOLYLINE
  5
21E
330
222
100
AcDbEntity
  8
0
 62
    34
370
    13
390
F
100
AcDbPolyline
 90
        3
 70
     0
 43
0.0
 10
401.64267
 20
332.160614
 10
401.125031
 20
334.092468
 10
400.607391
 20
332.160614
  0
LWPOLYLINE
  5
21F
330
222
100
AcDbEntity
  8
0
 62
    34
370
    13
390
F
100
AcDbPolyline
 90
        3
 70
     0
 43
0.0
 10
400.607391
 20
154.024323
 10
401.125031
 20
152.092468
 10
401.64267
 20
154.024323
  0
LINE
  5
220
330
222
100
AcDbEntity
  8
0
 62
    34
370
    13
390
F
100
AcDbLine
 10
401.125031
 20
152.092468
 30
0.0
 11
401.125031
 21
334.092468
 31
0.0
  0
ENDBLK
  5
521
330
222
100
AcDbEntity
  8
0
100
AcDbBlockEnd
  0
BLOCK
  5
522
330
258
100
AcDbEntity
  8
0
100
AcDbBlockBegin
  2
*D34
 70
     1
 10
0.0
 20
0.0
 30
0.0
  3
*D34
  1

  0
POINT
  5
24D
330
258
100
AcDbEntity
  8
DEFPOINTS
  6
ByBlock
 62
     0
380
     1
100
AcDbPoint
 10
362.88578
 20
668.184932
 30
0.0
  0
POINT
  5
24F
330
258
100
AcDbEntity
  8
DEFPOINTS
  6
ByBlock
 62
     0
380
     1
100
AcDbPoint
 10
372.88578
 20
618.184932
 30
0.0
  0
LINE
  5
250
330
258
100
AcDbEntity
  8
0
  6
ByBlock
 62
     0
370
    -2
380
     1
100
AcDbLine
 10
362.8232800000065
 20
668.1849330406526
 30
0.0
 11
329.4484847969291
 21
668.1854887457132
 31
0.0
  0
LINE
  5
251
330
258
100
AcDbEntity
  8
0
  6
ByBlock
 62
     0
370
    -2
380
     1
100
AcDbLine
 10
372.8232800000065
 20
618.1849330406526
 30
0.0
 11
329.447236018008
 21
618.1856552709165
 31
0.0
  0
LINE
  5
252
330
258
100
AcDbEntity
  8
0
  6
ByBlock
 62
     0
370
    -2
380
     1
100
AcDbLine
 10
329.6284803012912
 20
668.0054857486899
 30
0.0
 11
329.6278708813175
 21
643.6049319842745
 31
0.0
  0
LINE
  5
253
330
258
100
AcDbEntity
  8
0
  6
ByBlock
 62
     0
370
    -2
380
     1
100
AcDbLine
 10
329.6272405136084
 20
618.365652273781
 30
0.0
 11
329.6278499017617
 21
642.7649319845364
 31
0.0
  0
SOLID
  5
254
330
258
100
AcDbEntity
  8
0
  6
ByBlock
 62
     0
380
     1
100
AcDbTrace
 10
329.6284847969103
 20
668.1854857486338
 30
0.0
 11
329.5984803013006
 21
668.0054864979597
 31
0.0
 12
329.6584803012819
 22
668.0054849994201
 32
0.0
 13
329.6584803012819
 23
668.0054849994201
 33
0.0
  0
SOLID
  5
255
330
258
100
AcDbEntity
  8
0
  6
ByBlock
 62
     0
380
     1
100
AcDbTrace
 10
329.6272360179893
 20
618.1856522738371
 30
0.0
 11
329.5972405136177
 21
618.3656530230509
 31
0.0
 12
329.657240513599
 22
618.3656515245112
 32
0.0
 13
329.657240513599
 23
618.3656515245112
 33
0.0
  0
MTEXT
  5
256
330
258
100
AcDbEntity
  8
0
  6
ByBlock
 62
     0
370
    -2
380
     1
100
AcDbMText
 10
329.6278603915396
 20
643.1849319844055
 30
0.0
 40
0.18
 41
0.0
 71
     5
 72
     1
  1
50,00
 73
     1
 44
1.0
  0
ENDBLK
  5
523
330
258
100
AcDbEntity
  8
0
100
AcDbBlockEnd
  0
BLOCK
  5
524
330
265
100
AcDbEntity
  8
0
100
AcDbBlockBegin
  2
*D35
 70
     1
 10
0.0
 20
0.0
 30
0.0
  3
*D35
  1

  0
POINT
  5
25B
330
265
100
AcDbEntity
  8
DEFPOINTS
  6
ByBlock
 62
     0
380
     1
100
AcDbPoint
 10
691.33578
 20
643.184932
 30
0.0
  0
POINT
  5
25C
330
265
100
AcDbEntity
  8
DEFPOINTS
  6
ByBlock
 62
     0
380
     1
100
AcDbPoint
 10
762.88578
 20
668.184932
 30
0.0
  0
LINE
  5
25D
330
265
100
AcDbEntity
  8
0
  6
ByBlock
 62
     0
370
    -2
380
     1
100
AcDbLine
 10
691.3982800000022
 20
643.184932
 30
0.0
 11
784.592877869493
 21
643.184932
 31
0.0
  0
LINE
  5
25E
330
265
100
AcDbEntity
  8
0
  6
ByBlock
 62
     0
370
    -2
380
     1
100
AcDbLine
 10
762.9482800000021
 20
668.184932
 30
0.0
 11
784.5930860000062
 21
668.184932
 31
0.0
  0
LINE
  5
25F
330
265
100
AcDbEntity
  8
0
  6
ByBlock
 62
     0
370
    -2
380
     1
100
AcDbLine
 10
784.4128793680264
 20
643.3649319999938
 30
0.0
 11
784.4129783132724
 21
655.2499320008815
 31
0.0
  0
LINE
  5
260
330
265
100
AcDbEntity
  8
0
  6
ByBlock
 62
     0
370
    -2
380
     1
100
AcDbLine
 10
784.4130845014604
 20
668.0049320000062
 30
0.0
 11
784.4129855562143
 21
656.1199320008513
 31
0.0
  0
SOLID
  5
261
330
265
100
AcDbEntity
  8
0
  6
ByBlock
 62
     0
380
     1
100
AcDbTrace
 10
784.4128778694867
 20
643.184932
 30
0.0
 11
784.4428793680254
 21
643.3649317502371
 31
0.0
 12
784.3828793680275
 22
643.3649322497504
 32
0.0
 13
784.3828793680275
 23
643.3649322497504
 33
0.0
  0
SOLID
  5
262
330
265
100
AcDbEntity
  8
0
  6
ByBlock
 62
     0
380
     1
100
AcDbTrace
 10
784.413086
 20
668.184932
 30
0.0
 11
784.4430845014593
 21
668.0049317502496
 31
0.0
 12
784.3830845014613
 22
668.0049322497629
 32
0.0
 13
784.3830845014613
 23
668.0049322497629
 33
0.0
  0
MTEXT
  5
263
330
265
100
AcDbEntity
  8
0
  6
ByBlock
 62
     0
370
    -2
380
     1
100
AcDbMText
 10
784.4129819347434
 20
655.6849320008664
 30
0.0
 40
0.18
 41
0.0
 71
     5
 72
     1
  1
25,00
 73
     1
 44
1.0
  0
ENDBLK
  5
525
330
265
100
AcDbEntity
  8
0
100
AcDbBlockEnd
  0
BLOCK
  5
526
330
273
100
AcDbEntity
  8
0
100
AcDbBlockBegin
  2
*D36
 70
     1
 10
0.0
 20
0.0
 30
0.0
  3
*D36
  1

  0
POINT
  5
268
330
273
100
AcDbEntity
  8
DEFPOINTS
  6
ByBlock
 62
     0
380
     1
100
AcDbPoint
 10
682.88578
 20
634.734932
 30
0.0
  0
POINT
  5
269
330
273
100
AcDbEntity
  8
DEFPOINTS
  6
ByBlock
 62
     0
380
     1
100
AcDbPoint
 10
677.88578
 20
634.734932
 30
0.0
  0
LINE
  5
26A
330
273
100
AcDbEntity
  8
0
  6
ByBlock
 62
     0
370
    -2
380
     1
100
AcDbLine
 10
682.8857794796737
 20
634.672432
 30
0.0
 11
682.885328567947
 21
580.627796
 31
0.0
  0
LINE
  5
26B
330
273
100
AcDbEntity
  8
0
  6
ByBlock
 62
     0
370
    -2
380
     1
100
AcDbLine
 10
677.8857794796737
 20
634.672432
 30
0.0
 11
677.885328567947
 21
580.627796
 31
0.0
  0
LINE
  5
26C
330
273
100
AcDbEntity
  8
0
  6
ByBlock
 62
     0
370
    -2
380
     1
100
AcDbLine
 10
682.7053285679469
 20
580.690296
 30
0.0
 11
678.0653300664867
 21
580.690296
 31
0.0
  0
LINE
  5
26D
330
273
100
AcDbEntity
  8
0
  6
ByBlock
 62
     0
370
    -2
380
     1
100
AcDbLine
 10
682.885328567947
 20
580.690296
 30
0.0
 11
706.447298
 21
580.690296
 31
0.0
  0
SOLID
  5
26E
330
273
100
AcDbEntity
  8
0
  6
ByBlock
 62
     0
380
     1
100
AcDbTrace
 10
682.8853300664866
 20
580.690296
 30
0.0
 11
682.7053300664867
 21
580.720296
 31
0.0
 12
682.7053300664867
 22
580.660296
 32
0.0
 13
682.7053300664867
 23
580.660296
 33
0.0
  0
SOLID
  5
26F
330
273
100
AcDbEntity
  8
0
  6
ByBlock
 62
     0
380
     1
100
AcDbTrace
 10
677.8853300664866
 20
580.690296
 30
0.0
 11
678.0653300664867
 21
580.720296
 31
0.0
 12
678.0653300664867
 22
580.660296
 32
0.0
 13
678.0653300664867
 23
580.660296
 33
0.0
  0
LINE
  5
270
330
273
100
AcDbEntity
  8
0
  6
ByBlock
 62
     0
370
    -2
380
     1
100
AcDbLine
 10
706.447298
 20
580.690296
 30
0.0
 11
706.627298
 21
580.690296
 31
0.0
  0
MTEXT
  5
271
330
273
100
AcDbEntity
  8
0
  6
ByBlock
 62
     0
370
    -2
380
     1
100
AcDbMText
 10
706.972298
 20
580.690296
 30
0.0
 40
0.18
 41
0.0
 71
     5
 72
     1
  1
5,00
 73
     1
 44
1.0
  0
ENDBLK
  5
527
330
273
100
AcDbEntity
  8
0
100
AcDbBlockEnd
  0
BLOCK
  5
528
330
280
100
AcDbEntity
  8
0
100
AcDbBlockBegin
  2
*D37
 70
     1
 10
0.0
 20
0.0
 30
0.0
  3
*D37
  1

  0
POINT
  5
276
330
280
100
AcDbEntity
  8
DEFPOINTS
  6
ByBlock
 62
     0
380
     1
100
AcDbPoint
 10
677.88578
 20
634.734932
 30
0.0
  0
POINT
  5
277
330
280
100
AcDbEntity
  8
DEFPOINTS
  6
ByBlock
 62
     0
380
     1
100
AcDbPoint
 10
622.88578
 20
634.734932
 30
0.0
  0
LINE
  5
278
330
280
100
AcDbEntity
  8
0
  6
ByBlock
 62
     0
370
    -2
380
     1
100
AcDbLine
 10
677.8857794796737
 20
634.672432
 30
0.0
 11
677.8850891980427
 21
551.757916
 31
0.0
  0
LINE
  5
279
330
280
100
AcDbEntity
  8
0
  6
ByBlock
 62
     0
370
    -2
380
     1
100
AcDbLine
 10
622.8857794796737
 20
634.672432
 30
0.0
 11
622.8850891980427
 21
551.757916
 31
0.0
  0
LINE
  5
27A
330
280
100
AcDbEntity
  8
0
  6
ByBlock
 62
     0
370
    -2
380
     1
100
AcDbLine
 10
677.7050906965824
 20
551.937916
 30
0.0
 11
650.82078
 21
551.937916
 31
0.0
  0
LINE
  5
27B
330
280
100
AcDbEntity
  8
0
  6
ByBlock
 62
     0
370
    -2
380
     1
100
AcDbLine
 10
623.0650906965824
 20
551.937916
 30
0.0
 11
649.9507799999999
 21
551.937916
 31
0.0
  0
SOLID
  5
27C
330
280
100
AcDbEntity
  8
0
  6
ByBlock
 62
     0
380
     1
100
AcDbTrace
 10
677.8850906965823
 20
551.937916
 30
0.0
 11
677.7050906965824
 21
551.967916
 31
0.0
 12
677.7050906965824
 22
551.907916
 32
0.0
 13
677.7050906965824
 23
551.907916
 33
0.0
  0
SOLID
  5
27D
330
280
100
AcDbEntity
  8
0
  6
ByBlock
 62
     0
380
     1
100
AcDbTrace
 10
622.8850906965823
 20
551.937916
 30
0.0
 11
623.0650906965824
 21
551.967916
 31
0.0
 12
623.0650906965824
 22
551.907916
 32
0.0
 13
623.0650906965824
 23
551.907916
 33
0.0
  0
MTEXT
  5
27E
330
280
100
AcDbEntity
  8
0
  6
ByBlock
 62
     0
370
    -2
380
     1
100
AcDbMText
 10
650.38578
 20
551.937916
 30
0.0
 40
0.18
 41
0.0
 71
     5
 72
     1
  1
55,00
 73
     1
 44
1.0
  0
ENDBLK
  5
529
330
280
100
AcDbEntity
  8
0
100
AcDbBlockEnd
  0
BLOCK
  5
52A
330
28E
100
AcDbEntity
  8
0
100
AcDbBlockBegin
  2
*D38
 70
     1
 10
0.0
 20
0.0
 30
0.0
  3
*D38
  1

  0
POINT
  5
283
330
28E
100
AcDbEntity
  8
DEFPOINTS
  6
ByBlock
 62
     0
380
     1
100
AcDbPoint
 10
622.88578
 20
634.734932
 30
0.0
  0
POINT
  5
284
330
28E
100
AcDbEntity
  8
DEFPOINTS
  6
ByBlock
 62
     0
380
     1
100
AcDbPoint
 10
617.88578
 20
634.734932
 30
0.0
  0
LINE
  5
285
330
28E
100
AcDbEntity
  8
0
  6
ByBlock
 62
     0
370
    -2
380
     1
100
AcDbLine
 10
622.8857794796737
 20
634.672432
 30
0.0
 11
622.8853318245568
 21
581.01897
 31
0.0
  0
LINE
  5
286
330
28E
100
AcDbEntity
  8
0
  6
ByBlock
 62
     0
370
    -2
380
     1
100
AcDbLine
 10
617.8857794796737
 20
634.672432
 30
0.0
 11
617.8853318245568
 21
581.01897
 31
0.0
  0
LINE
  5
287
330
28E
100
AcDbEntity
  8
0
  6
ByBlock
 62
     0
370
    -2
380
     1
100
AcDbLine
 10
622.7053318245568
 20
581.08147
 30
0.0
 11
618.0653333230965
 21
581.08147
 31
0.0
  0
LINE
  5
288
330
28E
100
AcDbEntity
  8
0
  6
ByBlock
 62
     0
370
    -2
380
     1
100
AcDbLine
 10
622.8853318245568
 20
581.08147
 30
0.0
 11
644.905488
 21
581.08147
 31
0.0
  0
SOLID
  5
289
330
28E
100
AcDbEntity
  8
0
  6
ByBlock
 62
     0
380
     1
100
AcDbTrace
 10
622.8853333230965
 20
581.08147
 30
0.0
 11
622.7053333230965
 21
581.1114699999999
 31
0.0
 12
622.7053333230965
 22
581.05147
 32
0.0
 13
622.7053333230965
 23
581.05147
 33
0.0
  0
SOLID
  5
28A
330
28E
100
AcDbEntity
  8
0
  6
ByBlock
 62
     0
380
     1
100
AcDbTrace
 10
617.8853333230965
 20
581.08147
 30
0.0
 11
618.0653333230965
 21
581.1114699999999
 31
0.0
 12
618.0653333230965
 22
581.05147
 32
0.0
 13
618.0653333230965
 23
581.05147
 33
0.0
  0
LINE
  5
28B
330
28E
100
AcDbEntity
  8
0
  6
ByBlock
 62
     0
370
    -2
380
     1
100
AcDbLine
 10
644.905488
 20
581.08147
 30
0.0
 11
645.0854879999999
 21
581.08147
 31
0.0
  0
MTEXT
  5
28C
330
28E
100
AcDbEntity
  8
0
  6
ByBlock
 62
     0
370
    -2
380
     1
100
AcDbMText
 10
645.430488
 20
581.08147
 30
0.0
 40
0.18
 41
0.0
 71
     5
 72
     1
  1
5,00
 73
     1
 44
1.0
  0
ENDBLK
  5
52B
330
28E
100
AcDbEntity
  8
0
100
AcDbBlockEnd
  0
BLOCK
  5
52C
330
29B
100
AcDbEntity
  8
0
100
AcDbBlockBegin
  2
*D39
 70
     1
 10
0.0
 20
0.0
 30
0.0
  3
*D39
  1

  0
POINT
  5
291
330
29B
100
AcDbEntity
  8
DEFPOINTS
  6
ByBlock
 62
     0
380
     1
100
AcDbPoint
 10
617.88578
 20
651.634932
 30
0.0
  0
POINT
  5
292
330
29B
100
AcDbEntity
  8
DEFPOINTS
  6
ByBlock
 62
     0
380
     1
100
AcDbPoint
 10
562.88578
 20
649.584928
 30
0.0
  0
LINE
  5
293
330
29B
100
AcDbEntity
  8
0
  6
ByBlock
 62
     0
370
    -2
380
     1
100
AcDbLine
 10
617.8857805203262
 20
651.697432
 30
0.0
 11
617.8860750827814
 21
687.0793722208531
 31
0.0
  0
LINE
  5
294
330
29B
100
AcDbEntity
  8
0
  6
ByBlock
 62
     0
370
    -2
380
     1
100
AcDbLine
 10
562.8857805203262
 20
649.647428
 30
0.0
 11
562.8860921571409
 21
687.0802879948275
 31
0.0
  0
LINE
  5
295
330
29B
100
AcDbEntity
  8
0
  6
ByBlock
 62
     0
370
    -2
380
     1
100
AcDbLine
 10
617.7060735842667
 20
686.8993752179325
 30
0.0
 11
590.8207799923157
 21
686.899822869929
 31
0.0
  0
LINE
  5
296
330
29B
100
AcDbEntity
  8
0
  6
ByBlock
 62
     0
370
    -2
380
     1
100
AcDbLine
 10
563.0660906585762
 20
686.900284997748
 30
0.0
 11
589.9507799924362
 21
686.8998373558127
 31
0.0
  0
SOLID
  5
297
330
29B
100
AcDbEntity
  8
0
  6
ByBlock
 62
     0
380
     1
100
AcDbTrace
 10
617.8860735842418
 20
686.8993722208531
 30
0.0
 11
617.70607408378
 21
686.9293752179284
 31
0.0
 12
617.7060730847535
 22
686.8693752179366
 32
0.0
 13
617.7060730847535
 23
686.8693752179366
 33
0.0
  0
SOLID
  5
298
330
29B
100
AcDbEntity
  8
0
  6
ByBlock
 62
     0
380
     1
100
AcDbTrace
 10
562.8860906586011
 20
686.9002879948274
 30
0.0
 11
563.0660911580894
 21
686.9302849977439
 31
0.0
 12
563.0660901590629
 22
686.8702849977523
 32
0.0
 13
563.0660901590629
 23
686.8702849977523
 33
0.0
  0
MTEXT
  5
299
330
29B
100
AcDbEntity
  8
0
  6
ByBlock
 62
     0
370
    -2
380
     1
100
AcDbMText
 10
590.3857799923759
 20
686.8998301128709
 30
0.0
 40
0.18
 41
0.0
 71
     5
 72
     1
  1
55,00
 73
     1
 44
1.0
  0
ENDBLK
  5
52D
330
29B
100
AcDbEntity
  8
0
100
AcDbBlockEnd
  0
BLOCK
  5
52E
330
2A8
100
AcDbEntity
  8
0
100
AcDbBlockBegin
  2
*D40
 70
     1
 10
0.0
 20
0.0
 30
0.0
  3
*D40
  1

  0
POINT
  5
29E
330
2A8
100
AcDbEntity
  8
DEFPOINTS
  6
ByBlock
 62
     0
380
     1
100
AcDbPoint
 10
762.88578
 20
668.184932
 30
0.0
  0
POINT
  5
29F
330
2A8
100
AcDbEntity
  8
DEFPOINTS
  6
ByBlock
 62
     0
380
     1
100
AcDbPoint
 10
362.88578
 20
668.184932
 30
0.0
  0
LINE
  5
2A0
330
2A8
100
AcDbEntity
  8
0
  6
ByBlock
 62
     0
370
    -2
380
     1
100
AcDbLine
 10
762.8857794796737
 20
668.247432
 30
0.0
 11
762.8854468389936
 21
708.2032119999999
 31
0.0
  0
LINE
  5
2A1
330
2A8
100
AcDbEntity
  8
0
  6
ByBlock
 62
     0
370
    -2
380
     1
100
AcDbLine
 10
362.8857794796737
 20
668.247432
 30
0.0
 11
362.8854468389937
 21
708.2032119999999
 31
0.0
  0
LINE
  5
2A2
330
2A8
100
AcDbEntity
  8
0
  6
ByBlock
 62
     0
370
    -2
380
     1
100
AcDbLine
 10
762.7054483375333
 20
708.023212
 30
0.0
 11
563.38078
 21
708.023212
 31
0.0
  0
LINE
  5
2A3
330
2A8
100
AcDbEntity
  8
0
  6
ByBlock
 62
     0
370
    -2
380
     1
100
AcDbLine
 10
363.0654483375334
 20
708.023212
 30
0.0
 11
562.39078
 21
708.023212
 31
0.0
  0
SOLID
  5
2A4
330
2A8
100
AcDbEntity
  8
0
  6
ByBlock
 62
     0
380
     1
100
AcDbTrace
 10
762.8854483375334
 20
708.023212
 30
0.0
 11
762.7054483375333
 21
708.0532119999999
 31
0.0
 12
762.7054483375333
 22
707.993212
 32
0.0
 13
762.7054483375333
 23
707.993212
 33
0.0
  0
SOLID
  5
2A5
330
2A8
100
AcDbEntity
  8
0
  6
ByBlock
 62
     0
380
     1
100
AcDbTrace
 10
362.8854483375334
 20
708.023212
 30
0.0
 11
363.0654483375334
 21
708.0532119999999
 31
0.0
 12
363.0654483375334
 22
707.993212
 32
0.0
 13
363.0654483375334
 23
707.993212
 33
0.0
  0
MTEXT
  5
2A6
330
2A8
100
AcDbEntity
  8
0
  6
ByBlock
 62
     0
370
    -2
380
     1
100
AcDbMText
 10
562.88578
 20
708.023212
 30
0.0
 40
0.18
 41
0.0
 71
     5
 72
     1
  1
400,00
 73
     1
 44
1.0
  0
ENDBLK
  5
52F
330
2A8
100
AcDbEntity
  8
0
100
AcDbBlockEnd
  0
BLOCK
  5
530
330
2B5
100
AcDbEntity
  8
0
100
AcDbBlockBegin
  2
*D41
 70
     1
 10
0.0
 20
0.0
 30
0.0
  3
*D41
  1

  0
POINT
  5
2AB
330
2B5
100
AcDbEntity
  8
DEFPOINTS
  6
ByBlock
 62
     0
380
     1
100
AcDbPoint
 10
362.88578
 20
147.605102
 30
0.0
  0
POINT
  5
2AC
330
2B5
100
AcDbEntity
  8
DEFPOINTS
  6
ByBlock
 62
     0
380
     1
100
AcDbPoint
 10
362.88578
 20
47.605102
 30
0.0
  0
LINE
  5
2AD
330
2B5
100
AcDbEntity
  8
0
  6
ByBlock
 62
     0
370
    -2
380
     1
100
AcDbLine
 10
362.82328
 20
147.6051014796737
 30
0.0
 11
325.797272
 21
147.6047932299917
 31
0.0
  0
LINE
  5
2AE
330
2B5
100
AcDbEntity
  8
0
  6
ByBlock
 62
     0
370
    -2
380
     1
100
AcDbLine
 10
362.82328
 20
47.60510147967372
 30
0.0
 11
325.797272
 21
47.60479322999169
 31
0.0
  0
LINE
  5
2AF
330
2B5
100
AcDbEntity
  8
0
  6
ByBlock
 62
     0
370
    -2
380
     1
100
AcDbLine
 10
325.977272
 20
147.4247947285314
 30
0.0
 11
325.977272
 21
98.070102
 31
0.0
  0
LINE
  5
2B0
330
2B5
100
AcDbEntity
  8
0
  6
ByBlock
 62
     0
370
    -2
380
     1
100
AcDbLine
 10
325.977272
 20
47.78479472853139
 30
0.0
 11
325.977272
 21
97.140102
 31
0.0
  0
SOLID
  5
2B1
330
2B5
100
AcDbEntity
  8
0
  6
ByBlock
 62
     0
380
     1
100
AcDbTrace
 10
325.977272
 20
147.6047947285314
 30
0.0
 11
325.947272
 21
147.4247947285314
 31
0.0
 12
326.0072720000001
 22
147.4247947285314
 32
0.0
 13
326.0072720000001
 23
147.4247947285314
 33
0.0
  0
SOLID
  5
2B2
330
2B5
100
AcDbEntity
  8
0
  6
ByBlock
 62
     0
380
     1
100
AcDbTrace
 10
325.977272
 20
47.60479472853139
 30
0.0
 11
325.947272
 21
47.78479472853139
 31
0.0
 12
326.0072720000001
 22
47.78479472853139
 32
0.0
 13
326.0072720000001
 23
47.78479472853139
 33
0.0
  0
MTEXT
  5
2B3
330
2B5
100
AcDbEntity
  8
0
  6
ByBlock
 62
     0
370
    -2
380
     1
100
AcDbMText
 10
325.977272
 20
97.605102
 30
0.0
 40
0.18
 41
0.0
 71
     5
 72
     1
  1
100,00
 73
     1
 44
1.0
  0
ENDBLK
  5
531
330
2B5
100
AcDbEntity
  8
0
100
AcDbBlockEnd
  0
BLOCK
  5
532
330
2C2
100
AcDbEntity
  8
0
100
AcDbBlockBegin
  2
*D42
 70
     1
 10
0.0
 20
0.0
 30
0.0
  3
*D42
  1

  0
POINT
  5
2B8
330
2C2
100
AcDbEntity
  8
DEFPOINTS
  6
ByBlock
 62
     0
380
     1
100
AcDbPoint
 10
617.88578
 20
106.055102
 30
0.0
  0
POINT
  5
2B9
330
2C2
100
AcDbEntity
  8
DEFPOINTS
  6
ByBlock
 62
     0
380
     1
100
AcDbPoint
 10
622.88578
 20
106.055102
 30
0.0
  0
LINE
  5
2BA
330
2C2
100
AcDbEntity
  8
0
  6
ByBlock
 62
     0
370
    -2
380
     1
100
AcDbLine
 10
617.8857805203262
 20
106.117602
 30
0.0
 11
617.8862963352058
 21
168.075706
 31
0.0
  0
LINE
  5
2BB
330
2C2
100
AcDbEntity
  8
0
  6
ByBlock
 62
     0
370
    -2
380
     1
100
AcDbLine
 10
622.8857805203262
 20
106.117602
 30
0.0
 11
622.8862963352058
 21
168.075706
 31
0.0
  0
LINE
  5
2BC
330
2C2
100
AcDbEntity
  8
0
  6
ByBlock
 62
     0
370
    -2
380
     1
100
AcDbLine
 10
618.0662963352058
 20
167.895706
 30
0.0
 11
622.7062948366661
 21
167.895706
 31
0.0
  0
LINE
  5
2BD
330
2C2
100
AcDbEntity
  8
0
  6
ByBlock
 62
     0
370
    -2
380
     1
100
AcDbLine
 10
617.8857805203262
 20
167.895706
 30
0.0
 11
612.3703380000001
 21
167.895706
 31
0.0
  0
SOLID
  5
2BE
330
2C2
100
AcDbEntity
  8
0
  6
ByBlock
 62
     0
380
     1
100
AcDbTrace
 10
617.8862948366661
 20
167.895706
 30
0.0
 11
618.0662948366661
 21
167.865706
 31
0.0
 12
618.0662948366661
 22
167.925706
 32
0.0
 13
618.0662948366661
 23
167.925706
 33
0.0
  0
SOLID
  5
2BF
330
2C2
100
AcDbEntity
  8
0
  6
ByBlock
 62
     0
380
     1
100
AcDbTrace
 10
622.8862948366661
 20
167.895706
 30
0.0
 11
622.7062948366661
 21
167.865706
 31
0.0
 12
622.7062948366661
 22
167.925706
 32
0.0
 13
622.7062948366661
 23
167.925706
 33
0.0
  0
MTEXT
  5
2C0
330
2C2
100
AcDbEntity
  8
0
  6
ByBlock
 62
     0
370
    -2
380
     1
100
AcDbMText
 10
612.025338
 20
167.895706
 30
0.0
 40
0.18
 41
0.0
 71
     5
 72
     1
  1
5,00
 73
     1
 44
1.0
  0
ENDBLK
  5
533
330
2C2
100
AcDbEntity
  8
0
100
AcDbBlockEnd
  0
BLOCK
  5
534
330
2CF
100
AcDbEntity
  8
0
100
AcDbBlockBegin
  2
*D43
 70
     1
 10
0.0
 20
0.0
 30
0.0
  3
*D43
  1

  0
POINT
  5
2C5
330
2CF
100
AcDbEntity
  8
DEFPOINTS
  6
ByBlock
 62
     0
380
     1
100
AcDbPoint
 10
677.88578
 20
106.055102
 30
0.0
  0
POINT
  5
2C6
330
2CF
100
AcDbEntity
  8
DEFPOINTS
  6
ByBlock
 62
     0
380
     1
100
AcDbPoint
 10
622.88578
 20
106.055102
 30
0.0
  0
LINE
  5
2C7
330
2CF
100
AcDbEntity
  8
0
  6
ByBlock
 62
     0
370
    -2
380
     1
100
AcDbLine
 10
677.8857794796737
 20
106.117602
 30
0.0
 11
677.8850581726265
 21
192.758796
 31
0.0
  0
LINE
  5
2C8
330
2CF
100
AcDbEntity
  8
0
  6
ByBlock
 62
     0
370
    -2
380
     1
100
AcDbLine
 10
622.8857794796737
 20
106.117602
 30
0.0
 11
622.8850581726265
 21
192.758796
 31
0.0
  0
LINE
  5
2C9
330
2CF
100
AcDbEntity
  8
0
  6
ByBlock
 62
     0
370
    -2
380
     1
100
AcDbLine
 10
677.7050596711662
 20
192.578796
 30
0.0
 11
650.82078
 21
192.578796
 31
0.0
  0
LINE
  5
2CA
330
2CF
100
AcDbEntity
  8
0
  6
ByBlock
 62
     0
370
    -2
380
     1
100
AcDbLine
 10
623.0650596711662
 20
192.578796
 30
0.0
 11
649.9507799999999
 21
192.578796
 31
0.0
  0
SOLID
  5
2CB
330
2CF
100
AcDbEntity
  8
0
  6
ByBlock
 62
     0
380
     1
100
AcDbTrace
 10
677.8850596711661
 20
192.578796
 30
0.0
 11
677.7050596711662
 21
192.608796
 31
0.0
 12
677.7050596711662
 22
192.548796
 32
0.0
 13
677.7050596711662
 23
192.548796
 33
0.0
  0
SOLID
  5
2CC
330
2CF
100
AcDbEntity
  8
0
  6
ByBlock
 62
     0
380
     1
100
AcDbTrace
 10
622.8850596711661
 20
192.578796
 30
0.0
 11
623.0650596711662
 21
192.608796
 31
0.0
 12
623.0650596711662
 22
192.548796
 32
0.0
 13
623.0650596711662
 23
192.548796
 33
0.0
  0
MTEXT
  5
2CD
330
2CF
100
AcDbEntity
  8
0
  6
ByBlock
 62
     0
370
    -2
380
     1
100
AcDbMText
 10
650.38578
 20
192.578796
 30
0.0
 40
0.18
 41
0.0
 71
     5
 72
     1
  1
55,00
 73
     1
 44
1.0
  0
ENDBLK
  5
535
330
2CF
100
AcDbEntity
  8
0
100
AcDbBlockEnd
  0
BLOCK
  5
536
330
2DC
100
AcDbEntity
  8
0
100
AcDbBlockBegin
  2
*D44
 70
     1
 10
0.0
 20
0.0
 30
0.0
  3
*D44
  1

  0
POINT
  5
2D2
330
2DC
100
AcDbEntity
  8
DEFPOINTS
  6
ByBlock
 62
     0
380
     1
100
AcDbPoint
 10
677.88578
 20
106.055102
 30
0.0
  0
POINT
  5
2D3
330
2DC
100
AcDbEntity
  8
DEFPOINTS
  6
ByBlock
 62
     0
380
     1
100
AcDbPoint
 10
682.88578
 20
106.055102
 30
0.0
  0
LINE
  5
2D4
330
2DC
100
AcDbEntity
  8
0
  6
ByBlock
 62
     0
370
    -2
380
     1
100
AcDbLine
 10
677.8857805203262
 20
106.117602
 30
0.0
 11
677.8865018273734
 21
192.758796
 31
0.0
  0
LINE
  5
2D5
330
2DC
100
AcDbEntity
  8
0
  6
ByBlock
 62
     0
370
    -2
380
     1
100
AcDbLine
 10
682.8857805203262
 20
106.117602
 30
0.0
 11
682.8865018273734
 21
192.758796
 31
0.0
  0
LINE
  5
2D6
330
2DC
100
AcDbEntity
  8
0
  6
ByBlock
 62
     0
370
    -2
380
     1
100
AcDbLine
 10
678.0665018273735
 20
192.578796
 30
0.0
 11
682.7065003288337
 21
192.578796
 31
0.0
  0
LINE
  5
2D7
330
2DC
100
AcDbEntity
  8
0
  6
ByBlock
 62
     0
370
    -2
380
     1
100
AcDbLine
 10
677.8857805203262
 20
192.578796
 30
0.0
 11
665.628474
 21
192.578796
 31
0.0
  0
SOLID
  5
2D8
330
2DC
100
AcDbEntity
  8
0
  6
ByBlock
 62
     0
380
     1
100
AcDbTrace
 10
677.8865003288338
 20
192.578796
 30
0.0
 11
678.0665003288337
 21
192.548796
 31
0.0
 12
678.0665003288337
 22
192.608796
 32
0.0
 13
678.0665003288337
 23
192.608796
 33
0.0
  0
SOLID
  5
2D9
330
2DC
100
AcDbEntity
  8
0
  6
ByBlock
 62
     0
380
     1
100
AcDbTrace
 10
682.8865003288338
 20
192.578796
 30
0.0
 11
682.7065003288337
 21
192.548796
 31
0.0
 12
682.7065003288337
 22
192.608796
 32
0.0
 13
682.7065003288337
 23
192.608796
 33
0.0
  0
MTEXT
  5
2DA
330
2DC
100
AcDbEntity
  8
0
  6
ByBlock
 62
     0
370
    -2
380
     1
100
AcDbMText
 10
665.283474
 20
192.578796
 30
0.0
 40
0.18
 41
0.0
 71
     5
 72
     1
  1
5,00
 73
     1
 44
1.0
  0
ENDBLK
  5
537
330
2DC
100
AcDbEntity
  8
0
100
AcDbBlockEnd
  0
BLOCK
  5
538
330
2E9
100
AcDbEntity
  8
0
100
AcDbBlockBegin
  2
*D45
 70
     1
 10
0.0
 20
0.0
 30
0.0
  3
*D45
  1

  0
POINT
  5
2DF
330
2E9
100
AcDbEntity
  8
DEFPOINTS
  6
ByBlock
 62
     0
380
     1
100
AcDbPoint
 10
712.88578
 20
106.055102
 30
0.0
  0
POINT
  5
2E0
330
2E9
100
AcDbEntity
  8
DEFPOINTS
  6
ByBlock
 62
     0
380
     1
100
AcDbPoint
 10
682.88578
 20
106.055102
 30
0.0
  0
LINE
  5
2E1
330
2E9
100
AcDbEntity
  8
0
  6
ByBlock
 62
     0
370
    -2
380
     1
100
AcDbLine
 10
712.8857794796737
 20
106.117602
 30
0.0
 11
712.885236861397
 21
171.295248
 31
0.0
  0
LINE
  5
2E2
330
2E9
100
AcDbEntity
  8
0
  6
ByBlock
 62
     0
370
    -2
380
     1
100
AcDbLine
 10
682.8857794796737
 20
106.117602
 30
0.0
 11
682.885236861397
 21
171.295248
 31
0.0
  0
LINE
  5
2E3
330
2E9
100
AcDbEntity
  8
0
  6
ByBlock
 62
     0
370
    -2
380
     1
100
AcDbLine
 10
712.7052383599366
 20
171.115248
 30
0.0
 11
698.3057799999999
 21
171.115248
 31
0.0
  0
LINE
  5
2E4
330
2E9
100
AcDbEntity
  8
0
  6
ByBlock
 62
     0
370
    -2
380
     1
100
AcDbLine
 10
683.0652383599366
 20
171.115248
 30
0.0
 11
697.46578
 21
171.115248
 31
0.0
  0
SOLID
  5
2E5
330
2E9
100
AcDbEntity
  8
0
  6
ByBlock
 62
     0
380
     1
100
AcDbTrace
 10
712.8852383599367
 20
171.115248
 30
0.0
 11
712.7052383599366
 21
171.145248
 31
0.0
 12
712.7052383599366
 22
171.085248
 32
0.0
 13
712.7052383599366
 23
171.085248
 33
0.0
  0
SOLID
  5
2E6
330
2E9
100
AcDbEntity
  8
0
  6
ByBlock
 62
     0
380
     1
100
AcDbTrace
 10
682.8852383599367
 20
171.115248
 30
0.0
 11
683.0652383599366
 21
171.145248
 31
0.0
 12
683.0652383599366
 22
171.085248
 32
0.0
 13
683.0652383599366
 23
171.085248
 33
0.0
  0
MTEXT
  5
2E7
330
2E9
100
AcDbEntity
  8
0
  6
ByBlock
 62
     0
370
    -2
380
     1
100
AcDbMText
 10
697.88578
 20
171.115248
 30
0.0
 40
0.18
 41
0.0
 71
     5
 72
     1
  1
30,00
 73
     1
 44
1.0
  0
ENDBLK
  5
539
330
2E9
100
AcDbEntity
  8
0
100
AcDbBlockEnd
  0
BLOCK
  5
53A
330
2F6
100
AcDbEntity
  8
0
100
AcDbBlockBegin
  2
*D46
 70
     1
 10
0.0
 20
0.0
 30
0.0
  3
*D46
  1

  0
POINT
  5
2EC
330
2F6
100
AcDbEntity
  8
DEFPOINTS
  6
ByBlock
 62
     0
380
     1
100
AcDbPoint
 10
617.88578
 20
106.055102
 30
0.0
  0
POINT
  5
2ED
330
2F6
100
AcDbEntity
  8
DEFPOINTS
  6
ByBlock
 62
     0
380
     1
100
AcDbPoint
 10
507.88578
 20
106.055102
 30
0.0
  0
LINE
  5
2EE
330
2F6
100
AcDbEntity
  8
0
  6
ByBlock
 62
     0
370
    -2
380
     1
100
AcDbLine
 10
617.8857794796737
 20
106.117602
 30
0.0
 11
617.8850551944786
 21
193.116522
 31
0.0
  0
LINE
  5
2EF
330
2F6
100
AcDbEntity
  8
0
  6
ByBlock
 62
     0
370
    -2
380
     1
100
AcDbLine
 10
507.8857794796737
 20
106.117602
 30
0.0
 11
507.8850551944786
 21
193.116522
 31
0.0
  0
LINE
  5
2F0
330
2F6
100
AcDbEntity
  8
0
  6
ByBlock
 62
     0
370
    -2
380
     1
100
AcDbLine
 10
617.7050566930183
 20
192.936522
 30
0.0
 11
563.33578
 21
192.936522
 31
0.0
  0
LINE
  5
2F1
330
2F6
100
AcDbEntity
  8
0
  6
ByBlock
 62
     0
370
    -2
380
     1
100
AcDbLine
 10
508.0650566930184
 20
192.936522
 30
0.0
 11
562.4357799999999
 21
192.936522
 31
0.0
  0
SOLID
  5
2F2
330
2F6
100
AcDbEntity
  8
0
  6
ByBlock
 62
     0
380
     1
100
AcDbTrace
 10
617.8850566930183
 20
192.936522
 30
0.0
 11
617.7050566930183
 21
192.966522
 31
0.0
 12
617.7050566930183
 22
192.906522
 32
0.0
 13
617.7050566930183
 23
192.906522
 33
0.0
  0
SOLID
  5
2F3
330
2F6
100
AcDbEntity
  8
0
  6
ByBlock
 62
     0
380
     1
100
AcDbTrace
 10
507.8850566930183
 20
192.936522
 30
0.0
 11
508.0650566930184
 21
192.966522
 31
0.0
 12
508.0650566930184
 22
192.906522
 32
0.0
 13
508.0650566930184
 23
192.906522
 33
0.0
  0
MTEXT
  5
2F4
330
2F6
100
AcDbEntity
  8
0
  6
ByBlock
 62
     0
370
    -2
380
     1
100
AcDbMText
 10
562.88578
 20
192.936522
 30
0.0
 40
0.18
 41
0.0
 71
     5
 72
     1
  1
110,00
 73
     1
 44
1.0
  0
ENDBLK
  5
53B
330
2F6
100
AcDbEntity
  8
0
100
AcDbBlockEnd
  0
BLOCK
  5
53C
330
303
100
AcDbEntity
  8
0
100
AcDbBlockBegin
  2
*D47
 70
     1
 10
0.0
 20
0.0
 30
0.0
  3
*D47
  1

  0
POINT
  5
2F9
330
303
100
AcDbEntity
  8
DEFPOINTS
  6
ByBlock
 62
     0
380
     1
100
AcDbPoint
 10
517.88578
 20
304.184932
 30
0.0
  0
POINT
  5
2FA
330
303
100
AcDbEntity
  8
DEFPOINTS
  6
ByBlock
 62
     0
380
     1
100
AcDbPoint
 10
607.88578
 20
304.184932
 30
0.0
  0
LINE
  5
2FB
330
303
100
AcDbEntity
  8
0
  6
ByBlock
 62
     0
370
    -2
380
     1
100
AcDbLine
 10
517.8857805203262
 20
304.122432
 30
0.0
 11
517.8861718021614
 21
257.122856
 31
0.0
  0
LINE
  5
2FC
330
303
100
AcDbEntity
  8
0
  6
ByBlock
 62
     0
370
    -2
380
     1
100
AcDbLine
 10
607.8857805203262
 20
304.122432
 30
0.0
 11
607.8861718021614
 21
257.122856
 31
0.0
  0
LINE
  5
2FD
330
303
100
AcDbEntity
  8
0
  6
ByBlock
 62
     0
370
    -2
380
     1
100
AcDbLine
 10
518.0661703036217
 20
257.302856
 30
0.0
 11
562.5707799999999
 21
257.302856
 31
0.0
  0
LINE
  5
2FE
330
303
100
AcDbEntity
  8
0
  6
ByBlock
 62
     0
370
    -2
380
     1
100
AcDbLine
 10
607.7061703036217
 20
257.302856
 30
0.0
 11
563.20078
 21
257.302856
 31
0.0
  0
SOLID
  5
2FF
330
303
100
AcDbEntity
  8
0
  6
ByBlock
 62
     0
380
     1
100
AcDbTrace
 10
517.8861703036216
 20
257.302856
 30
0.0
 11
518.0661703036217
 21
257.272856
 31
0.0
 12
518.0661703036217
 22
257.332856
 32
0.0
 13
518.0661703036217
 23
257.332856
 33
0.0
  0
SOLID
  5
300
330
303
100
AcDbEntity
  8
0
  6
ByBlock
 62
     0
380
     1
100
AcDbTrace
 10
607.8861703036216
 20
257.302856
 30
0.0
 11
607.7061703036217
 21
257.272856
 31
0.0
 12
607.7061703036217
 22
257.332856
 32
0.0
 13
607.7061703036217
 23
257.332856
 33
0.0
  0
MTEXT
  5
301
330
303
100
AcDbEntity
  8
0
  6
ByBlock
 62
     0
370
    -2
380
     1
100
AcDbMText
 10
562.88578
 20
257.302856
 30
0.0
 40
0.18
 41
0.0
 71
     5
 72
     1
  1
%%c90
 73
     1
 44
1.0
  0
ENDBLK
  5
53D
330
303
100
AcDbEntity
  8
0
100
AcDbBlockEnd
  0
BLOCK
  5
53E
330
310
100
AcDbEntity
  8
0
100
AcDbBlockBegin
  2
*D48
 70
     1
 10
0.0
 20
0.0
 30
0.0
  3
*D48
  1

  0
POINT
  5
306
330
310
100
AcDbEntity
  8
DEFPOINTS
  6
ByBlock
 62
     0
380
     1
100
AcDbPoint
 10
607.88578
 20
304.184932
 30
0.0
  0
POINT
  5
307
330
310
100
AcDbEntity
  8
DEFPOINTS
  6
ByBlock
 62
     0
380
     1
100
AcDbPoint
 10
762.88578
 20
668.184932
 30
0.0
  0
LINE
  5
308
330
310
100
AcDbEntity
  8
0
  6
ByBlock
 62
     0
370
    -2
380
     1
100
AcDbLine
 10
607.9482800000021
 20
304.184932
 30
0.0
 11
802.4270316197324
 21
304.184932
 31
0.0
  0
LINE
  5
309
330
310
100
AcDbEntity
  8
0
  6
ByBlock
 62
     0
370
    -2
380
     1
100
AcDbLine
 10
762.9482800000021
 20
668.1849320000001
 30
0.0
 11
802.4300620000062
 21
668.184932
 31
0.0
  0
LINE
  5
30A
330
310
100
AcDbEntity
  8
0
  6
ByBlock
 62
     0
370
    -2
380
     1
100
AcDbLine
 10
802.2470331182659
 20
304.3649319999938
 30
0.0
 11
802.2485441874187
 21
485.8699320126252
 31
0.0
  0
LINE
  5
30B
330
310
100
AcDbEntity
  8
0
  6
ByBlock
 62
     0
370
    -2
380
     1
100
AcDbLine
 10
802.2500605014602
 20
668.0049320000063
 30
0.0
 11
802.2485494323076
 21
486.4999320126034
 31
0.0
  0
SOLID
  5
30C
330
310
100
AcDbEntity
  8
0
  6
ByBlock
 62
     0
380
     1
100
AcDbTrace
 10
802.2470316197262
 20
304.184932
 30
0.0
 11
802.2770331182649
 21
304.3649317502371
 31
0.0
 12
802.217033118267
 22
304.3649322497504
 32
0.0
 13
802.217033118267
 23
304.3649322497504
 33
0.0
  0
SOLID
  5
30D
330
310
100
AcDbEntity
  8
0
  6
ByBlock
 62
     0
380
     1
100
AcDbTrace
 10
802.250062
 20
668.184932
 30
0.0
 11
802.2800605014593
 21
668.0049317502496
 31
0.0
 12
802.2200605014613
 22
668.0049322497629
 32
0.0
 13
802.2200605014613
 23
668.0049322497629
 33
0.0
  0
MTEXT
  5
30E
330
310
100
AcDbEntity
  8
0
  6
ByBlock
 62
     0
370
    -2
380
     1
100
AcDbMText
 10
802.2485468098632
 20
486.1849320126143
 30
0.0
 40
0.18
 41
0.0
 71
     5
 72
     1
  1
360
 73
     1
 44
1.0
  0
ENDBLK
  5
53F
330
310
100
AcDbEntity
  8
0
100
AcDbBlockEnd
  0
BLOCK
  5
540
330
41E
100
AcDbEntity
  8
0
100
AcDbBlockBegin
  2
*D49
 70
     1
 10
0.0
 20
0.0
 30
0.0
  3
*D49
  1

  0
POINT
  5
415
330
41E
100
AcDbEntity
  8
DEFPOINTS
  6
ByBlock
 62
     0
380
     1
100
AcDbPoint
 10
362.885772
 20
648.184936
 30
0.0
  0
POINT
  5
416
330
41E
100
AcDbEntity
  8
DEFPOINTS
  6
ByBlock
 62
     0
380
     1
100
AcDbPoint
 10
762.8857419999999
 20
648.184936
 30
0.0
  0
LINE
  5
417
330
41E
100
AcDbEntity
  8
0
  6
ByBlock
 62
     0
370
    -2
380
     1
100
AcDbLine
 10
362.885772
 20
648.809936
 30
0.0
 11
362.885772
 21
701.5668728476256
 31
0.0
  0
LINE
  5
418
330
41E
100
AcDbEntity
  8
0
  6
ByBlock
 62
     0
370
    -2
380
     1
100
AcDbLine
 10
762.8857419999999
 20
648.809936
 30
0.0
 11
762.8857419999999
 21
701.5668728476256
 31
0.0
  0
LINE
  5
419
330
41E
100
AcDbEntity
  8
0
  6
ByBlock
 62
     0
370
    -2
380
     1
100
AcDbLine
 10
365.385772
 20
700.3168728476256
 30
0.0
 11
760.3857419999999
 21
700.3168728476256
 31
0.0
  0
SOLID
  5
41A
330
41E
100
AcDbEntity
  8
0
  6
ByBlock
 62
     0
380
     1
100
AcDbTrace
 10
362.885772
 20
700.3168728476256
 30
0.0
 11
365.385772
 21
699.900206180959
 31
0.0
 12
365.385772
 22
700.7335395142923
 32
0.0
 13
365.385772
 23
700.7335395142923
 33
0.0
  0
SOLID
  5
41B
330
41E
100
AcDbEntity
  8
0
  6
ByBlock
 62
     0
380
     1
100
AcDbTrace
 10
762.8857419999999
 20
700.3168728476256
 30
0.0
 11
760.3857419999999
 21
699.900206180959
 31
0.0
 12
760.3857419999999
 22
700.7335395142923
 32
0.0
 13
760.3857419999999
 23
700.7335395142923
 33
0.0
  0
MTEXT
  5
41C
330
41E
100
AcDbEntity
  8
0
  6
ByBlock
 62
     0
370
    -2
380
     1
100
AcDbMText
 10
562.885757
 20
702.1918728476256
 30
0.0
 40
2.5
 41
0.0
 71
     5
 72
     1
  1
\A1;400
 73
     1
 44
1.0
  0
ENDBLK
  5
541
330
41E
100
AcDbEntity
  8
0
100
AcDbBlockEnd
  0
BLOCK
  5
542
330
429
100
AcDbEntity
  8
0
100
AcDbBlockBegin
  2
*D50
 70
     1
 10
0.0
 20
0.0
 30
0.0
  3
*D50
  1

  0
POINT
  5
420
330
429
100
AcDbEntity
  8
DEFPOINTS
  6
ByBlock
 62
     0
380
     1
100
AcDbPoint
 10
362.885772
 20
648.184936
 30
0.0
  0
POINT
  5
421
330
429
100
AcDbEntity
  8
DEFPOINTS
  6
ByBlock
 62
     0
380
     1
100
AcDbPoint
 10
762.8857419999999
 20
648.184936
 30
0.0
  0
LINE
  5
422
330
429
100
AcDbEntity
  8
0
  6
ByBlock
 62
     0
370
    -2
380
     1
100
AcDbLine
 10
362.885772
 20
648.809936
 30
0.0
 11
362.885772
 21
701.5668728476256
 31
0.0
  0
LINE
  5
423
330
429
100
AcDbEntity
  8
0
  6
ByBlock
 62
     0
370
    -2
380
     1
100
AcDbLine
 10
762.8857419999999
 20
648.809936
 30
0.0
 11
762.8857419999999
 21
701.5668728476256
 31
0.0
  0
LINE
  5
424
330
429
100
AcDbEntity
  8
0
  6
ByBlock
 62
     0
370
    -2
380
     1
100
AcDbLine
 10
365.385772
 20
700.3168728476256
 30
0.0
 11
760.3857419999999
 21
700.3168728476256
 31
0.0
  0
SOLID
  5
425
330
429
100
AcDbEntity
  8
0
  6
ByBlock
 62
     0
380
     1
100
AcDbTrace
 10
362.885772
 20
700.3168728476256
 30
0.0
 11
365.385772
 21
699.900206180959
 31
0.0
 12
365.385772
 22
700.7335395142923
 32
0.0
 13
365.385772
 23
700.7335395142923
 33
0.0
  0
SOLID
  5
426
330
429
100
AcDbEntity
  8
0
  6
ByBlock
 62
     0
380
     1
100
AcDbTrace
 10
762.8857419999999
 20
700.3168728476256
 30
0.0
 11
760.3857419999999
 21
699.900206180959
 31
0.0
 12
760.3857419999999
 22
700.7335395142923
 32
0.0
 13
760.3857419999999
 23
700.7335395142923
 33
0.0
  0
MTEXT
  5
427
330
429
100
AcDbEntity
  8
0
  6
ByBlock
 62
     0
370
    -2
380
     1
100
AcDbMText
 10
562.885757
 20
702.1918728476256
 30
0.0
 40
2.5
 41
0.0
 71
     5
 72
     1
  1
\A1;400
 73
     1
 44
1.0
  0
ENDBLK
  5
543
330
429
100
AcDbEntity
  8
0
100
AcDbBlockEnd
  0
BLOCK
  5
544
330
434
100
AcDbEntity
  8
0
100
AcDbBlockBegin
  2
*D51
 70
     1
 10
0.0
 20
0.0
 30
0.0
  3
*D51
  1

  0
POINT
  5
42B
330
434
100
AcDbEntity
  8
DEFPOINTS
  6
ByBlock
 62
     7
380
     1
100
AcDbPoint
 10
362.885772
 20
648.184936
 30
0.0
  0
POINT
  5
42C
330
434
100
AcDbEntity
  8
DEFPOINTS
  6
ByBlock
 62
     7
380
     1
100
AcDbPoint
 10
762.8857419999999
 20
648.184936
 30
0.0
  0
LINE
  5
42D
330
434
100
AcDbEntity
  8
0
  6
ByBlock
 62
     7
370
    -2
380
     1
100
AcDbLine
 10
362.885772
 20
648.809936
 30
0.0
 11
362.885772
 21
701.5668728476256
 31
0.0
  0
LINE
  5
42E
330
434
100
AcDbEntity
  8
0
  6
ByBlock
 62
     7
370
    -2
380
     1
100
AcDbLine
 10
762.8857419999999
 20
648.809936
 30
0.0
 11
762.8857419999999
 21
701.5668728476256
 31
0.0
  0
LINE
  5
42F
330
434
100
AcDbEntity
  8
0
  6
ByBlock
 62
     7
370
    -2
380
     1
100
AcDbLine
 10
372.885772
 20
700.3168728476256
 30
0.0
 11
752.8857419999999
 21
700.3168728476256
 31
0.0
  0
SOLID
  5
430
330
434
100
AcDbEntity
  8
0
  6
ByBlock
 62
     7
380
     1
100
AcDbTrace
 10
362.885772
 20
700.3168728476256
 30
0.0
 11
372.885772
 21
698.650206180959
 31
0.0
 12
372.885772
 22
701.9835395142923
 32
0.0
 13
372.885772
 23
701.9835395142923
 33
0.0
  0
SOLID
  5
431
330
434
100
AcDbEntity
  8
0
  6
ByBlock
 62
     7
380
     1
100
AcDbTrace
 10
762.8857419999999
 20
700.3168728476256
 30
0.0
 11
752.8857419999999
 21
698.650206180959
 31
0.0
 12
752.8857419999999
 22
701.9835395142923
 32
0.0
 13
752.8857419999999
 23
701.9835395142923
 33
0.0
  0
MTEXT
  5
432
330
434
100
AcDbEntity
  8
0
  6
ByBlock
 62
     0
370
    -2
380
     1
100
AcDbMText
 10
562.885757
 20
712.3168728476256
 30
0.0
 40
14.0
 41
0.0
 71
     5
 72
     1
  1
\A1;400
 73
     1
 44
1.0
  0
ENDBLK
  5
545
330
434
100
AcDbEntity
  8
0
100
AcDbBlockEnd
  0
BLOCK
  5
546
330
440
100
AcDbEntity
  8
0
100
AcDbBlockBegin
  2
*D52
 70
     1
 10
0.0
 20
0.0
 30
0.0
  3
*D52
  1

  0
POINT
  5
437
330
440
100
AcDbEntity
  8
DEFPOINTS
  6
ByBlock
 62
     0
380
     1
100
AcDbPoint
 10
562.885757
 20
668.184936
 30
0.0
  0
POINT
  5
438
330
440
100
AcDbEntity
  8
DEFPOINTS
  6
ByBlock
 62
     0
380
     1
100
AcDbPoint
 10
562.885772
 20
304.184936
 30
0.0
  0
LINE
  5
439
330
440
100
AcDbEntity
  8
0
  6
ByBlock
 62
     0
370
    -2
380
     1
100
AcDbLine
 10
563.510757
 20
668.184936
 30
0.0
 11
839.3146827927546
 21
668.184936
 31
0.0
  0
LINE
  5
43A
330
440
100
AcDbEntity
  8
0
  6
ByBlock
 62
     0
370
    -2
380
     1
100
AcDbLine
 10
563.510772
 20
304.184936
 30
0.0
 11
839.3146827927546
 21
304.184936
 31
0.0
  0
LINE
  5
43B
330
440
100
AcDbEntity
  8
0
  6
ByBlock
 62
     0
370
    -2
380
     1
100
AcDbLine
 10
838.0646827927546
 20
665.684936
 30
0.0
 11
838.0646827927546
 21
306.684936
 31
0.0
  0
SOLID
  5
43C
330
440
100
AcDbEntity
  8
0
  6
ByBlock
 62
     0
380
     1
100
AcDbTrace
 10
838.0646827927546
 20
668.184936
 30
0.0
 11
837.6480161260879
 21
665.684936
 31
0.0
 12
838.4813494594214
 22
665.684936
 32
0.0
 13
838.4813494594214
 23
665.684936
 33
0.0
  0
SOLID
  5
43D
330
440
100
AcDbEntity
  8
0
  6
ByBlock
 62
     0
380
     1
100
AcDbTrace
 10
838.0646827927546
 20
304.184936
 30
0.0
 11
837.6480161260879
 21
306.684936
 31
0.0
 12
838.4813494594214
 22
306.684936
 32
0.0
 13
838.4813494594214
 23
306.684936
 33
0.0
  0
MTEXT
  5
43E
330
440
100
AcDbEntity
  8
0
  6
ByBlock
 62
     0
370
    -2
380
     1
100
AcDbMText
 10
836.1896827927546
 20
486.184936
 30
0.0
 40
2.5
 41
0.0
 71
     5
 72
     1
  1
\A1;364
 11
6.123031769111886E-17
 21
1.0
 31
0.0
 73
     1
 44
1.0
  0
ENDBLK
  5
547
330
440
100
AcDbEntity
  8
0
100
AcDbBlockEnd
  0
BLOCK
  5
548
330
44B
100
AcDbEntity
  8
0
100
AcDbBlockBegin
  2
*D53
 70
     1
 10
0.0
 20
0.0
 30
0.0
  3
*D53
  1

  0
POINT
  5
442
330
44B
100
AcDbEntity
  8
DEFPOINTS
  6
ByBlock
 62
     0
380
     1
100
AcDbPoint
 10
562.885757
 20
668.184936
 30
0.0
  0
POINT
  5
443
330
44B
100
AcDbEntity
  8
DEFPOINTS
  6
ByBlock
 62
     0
380
     1
100
AcDbPoint
 10
562.885772
 20
304.184936
 30
0.0
  0
LINE
  5
444
330
44B
100
AcDbEntity
  8
0
  6
ByBlock
 62
     0
370
    -2
380
     1
100
AcDbLine
 10
563.510757
 20
668.184936
 30
0.0
 11
839.3146827927546
 21
668.184936
 31
0.0
  0
LINE
  5
445
330
44B
100
AcDbEntity
  8
0
  6
ByBlock
 62
     0
370
    -2
380
     1
100
AcDbLine
 10
563.510772
 20
304.184936
 30
0.0
 11
839.3146827927546
 21
304.184936
 31
0.0
  0
LINE
  5
446
330
44B
100
AcDbEntity
  8
0
  6
ByBlock
 62
     0
370
    -2
380
     1
100
AcDbLine
 10
838.0646827927546
 20
665.684936
 30
0.0
 11
838.0646827927546
 21
306.684936
 31
0.0
  0
SOLID
  5
447
330
44B
100
AcDbEntity
  8
0
  6
ByBlock
 62
     0
380
     1
100
AcDbTrace
 10
838.0646827927546
 20
668.184936
 30
0.0
 11
837.6480161260879
 21
665.684936
 31
0.0
 12
838.4813494594214
 22
665.684936
 32
0.0
 13
838.4813494594214
 23
665.684936
 33
0.0
  0
SOLID
  5
448
330
44B
100
AcDbEntity
  8
0
  6
ByBlock
 62
     0
380
     1
100
AcDbTrace
 10
838.0646827927546
 20
304.184936
 30
0.0
 11
837.6480161260879
 21
306.684936
 31
0.0
 12
838.4813494594214
 22
306.684936
 32
0.0
 13
838.4813494594214
 23
306.684936
 33
0.0
  0
MTEXT
  5
449
330
44B
100
AcDbEntity
  8
0
  6
ByBlock
 62
     0
370
    -2
380
     1
100
AcDbMText
 10
836.1896827927546
 20
486.184936
 30
0.0
 40
2.5
 41
0.0
 71
     5
 72
     1
  1
\A1;364
 11
6.123031769111886E-17
 21
1.0
 31
0.0
 73
     1
 44
1.0
  0
ENDBLK
  5
549
330
44B
100
AcDbEntity
  8
0
100
AcDbBlockEnd
  0
BLOCK
  5
54A
330
456
100
AcDbEntity
  8
0
100
AcDbBlockBegin
  2
*D54
 70
     1
 10
0.0
 20
0.0
 30
0.0
  3
*D54
  1

  0
POINT
  5
44D
330
456
100
AcDbEntity
  8
DEFPOINTS
  6
ByBlock
 62
     7
380
     1
100
AcDbPoint
 10
562.885757
 20
668.184936
 30
0.0
  0
POINT
  5
44E
330
456
100
AcDbEntity
  8
DEFPOINTS
  6
ByBlock
 62
     7
380
     1
100
AcDbPoint
 10
562.885772
 20
304.184936
 30
0.0
  0
LINE
  5
44F
330
456
100
AcDbEntity
  8
0
  6
ByBlock
 62
     7
370
    -2
380
     1
100
AcDbLine
 10
563.510757
 20
668.184936
 30
0.0
 11
839.3146827927546
 21
668.184936
 31
0.0
  0
LINE
  5
450
330
456
100
AcDbEntity
  8
0
  6
ByBlock
 62
     7
370
    -2
380
     1
100
AcDbLine
 10
563.510772
 20
304.184936
 30
0.0
 11
839.3146827927546
 21
304.184936
 31
0.0
  0
LINE
  5
451
330
456
100
AcDbEntity
  8
0
  6
ByBlock
 62
     7
370
    -2
380
     1
100
AcDbLine
 10
838.0646827927546
 20
658.184936
 30
0.0
 11
838.0646827927546
 21
314.184936
 31
0.0
  0
SOLID
  5
452
330
456
100
AcDbEntity
  8
0
  6
ByBlock
 62
     7
380
     1
100
AcDbTrace
 10
838.0646827927546
 20
668.184936
 30
0.0
 11
836.3980161260879
 21
658.184936
 31
0.0
 12
839.7313494594214
 22
658.184936
 32
0.0
 13
839.7313494594214
 23
658.184936
 33
0.0
  0
SOLID
  5
453
330
456
100
AcDbEntity
  8
0
  6
ByBlock
 62
     7
380
     1
100
AcDbTrace
 10
838.0646827927546
 20
304.184936
 30
0.0
 11
836.3980161260879
 21
314.184936
 31
0.0
 12
839.7313494594214
 22
314.184936
 32
0.0
 13
839.7313494594214
 23
314.184936
 33
0.0
  0
MTEXT
  5
454
330
456
100
AcDbEntity
  8
0
  6
ByBlock
 62
     0
370
    -2
380
     1
100
AcDbMText
 10
826.0646827927546
 20
486.184936
 30
0.0
 40
14.0
 41
0.0
 71
     5
 72
     1
  1
\A1;364
 11
6.123031769111886E-17
 21
1.0
 31
0.0
 73
     1
 44
1.0
  0
ENDBLK
  5
54B
330
456
100
AcDbEntity
  8
0
100
AcDbBlockEnd
  0
BLOCK
  5
54C
330
462
100
AcDbEntity
  8
0
100
AcDbBlockBegin
  2
*D55
 70
     1
 10
0.0
 20
0.0
 30
0.0
  3
*D55
  1

  0
POINT
  5
459
330
462
100
AcDbEntity
  8
DEFPOINTS
  6
ByBlock
 62
     0
380
     1
100
AcDbPoint
 10
517.885772
 20
386.8532960929985
 30
0.0
  0
POINT
  5
45A
330
462
100
AcDbEntity
  8
DEFPOINTS
  6
ByBlock
 62
     0
380
     1
100
AcDbPoint
 10
607.885772
 20
386.8532960929985
 30
0.0
  0
LINE
  5
45B
330
462
100
AcDbEntity
  8
0
  6
ByBlock
 62
     0
370
    -2
380
     1
100
AcDbLine
 10
517.885772
 20
386.2282960929985
 30
0.0
 11
517.885772
 21
227.8282833050892
 31
0.0
  0
LINE
  5
45C
330
462
100
AcDbEntity
  8
0
  6
ByBlock
 62
     0
370
    -2
380
     1
100
AcDbLine
 10
607.885772
 20
386.2282960929985
 30
0.0
 11
607.885772
 21
227.8282833050892
 31
0.0
  0
LINE
  5
45D
330
462
100
AcDbEntity
  8
0
  6
ByBlock
 62
     0
370
    -2
380
     1
100
AcDbLine
 10
520.385772
 20
229.0782833050892
 30
0.0
 11
605.385772
 21
229.0782833050892
 31
0.0
  0
SOLID
  5
45E
330
462
100
AcDbEntity
  8
0
  6
ByBlock
 62
     0
380
     1
100
AcDbTrace
 10
517.885772
 20
229.0782833050892
 30
0.0
 11
520.385772
 21
228.6616166384225
 31
0.0
 12
520.385772
 22
229.4949499717559
 32
0.0
 13
520.385772
 23
229.4949499717559
 33
0.0
  0
SOLID
  5
45F
330
462
100
AcDbEntity
  8
0
  6
ByBlock
 62
     0
380
     1
100
AcDbTrace
 10
607.885772
 20
229.0782833050892
 30
0.0
 11
605.385772
 21
228.6616166384225
 31
0.0
 12
605.385772
 22
229.4949499717559
 32
0.0
 13
605.385772
 23
229.4949499717559
 33
0.0
  0
MTEXT
  5
460
330
462
100
AcDbEntity
  8
0
  6
ByBlock
 62
     0
370
    -2
380
     1
100
AcDbMText
 10
562.885772
 20
230.9532833050892
 30
0.0
 40
2.5
 41
0.0
 71
     5
 72
     1
  1
\A1;90
 73
     1
 44
1.0
  0
ENDBLK
  5
54D
330
462
100
AcDbEntity
  8
0
100
AcDbBlockEnd
  0
BLOCK
  5
54E
330
46D
100
AcDbEntity
  8
0
100
AcDbBlockBegin
  2
*D56
 70
     1
 10
0.0
 20
0.0
 30
0.0
  3
*D56
  1

  0
POINT
  5
464
330
46D
100
AcDbEntity
  8
DEFPOINTS
  6
ByBlock
 62
     0
380
     1
100
AcDbPoint
 10
517.885772
 20
386.8532960929985
 30
0.0
  0
POINT
  5
465
330
46D
100
AcDbEntity
  8
DEFPOINTS
  6
ByBlock
 62
     0
380
     1
100
AcDbPoint
 10
607.885772
 20
386.8532960929985
 30
0.0
  0
LINE
  5
466
330
46D
100
AcDbEntity
  8
0
  6
ByBlock
 62
     0
370
    -2
380
     1
100
AcDbLine
 10
517.885772
 20
386.2282960929985
 30
0.0
 11
517.885772
 21
227.8282833050892
 31
0.0
  0
LINE
  5
467
330
46D
100
AcDbEntity
  8
0
  6
ByBlock
 62
     0
370
    -2
380
     1
100
AcDbLine
 10
607.885772
 20
386.2282960929985
 30
0.0
 11
607.885772
 21
227.8282833050892
 31
0.0
  0
LINE
  5
468
330
46D
100
AcDbEntity
  8
0
  6
ByBlock
 62
     0
370
    -2
380
     1
100
AcDbLine
 10
520.385772
 20
229.0782833050892
 30
0.0
 11
605.385772
 21
229.0782833050892
 31
0.0
  0
SOLID
  5
469
330
46D
100
AcDbEntity
  8
0
  6
ByBlock
 62
     0
380
     1
100
AcDbTrace
 10
517.885772
 20
229.0782833050892
 30
0.0
 11
520.385772
 21
228.6616166384225
 31
0.0
 12
520.385772
 22
229.4949499717559
 32
0.0
 13
520.385772
 23
229.4949499717559
 33
0.0
  0
SOLID
  5
46A
330
46D
100
AcDbEntity
  8
0
  6
ByBlock
 62
     0
380
     1
100
AcDbTrace
 10
607.885772
 20
229.0782833050892
 30
0.0
 11
605.385772
 21
228.6616166384225
 31
0.0
 12
605.385772
 22
229.4949499717559
 32
0.0
 13
605.385772
 23
229.4949499717559
 33
0.0
  0
MTEXT
  5
46B
330
46D
100
AcDbEntity
  8
0
  6
ByBlock
 62
     0
370
    -2
380
     1
100
AcDbMText
 10
562.885772
 20
230.9532833050892
 30
0.0
 40
2.5
 41
0.0
 71
     5
 72
     1
  1
\A1;90
 73
     1
 44
1.0
  0
ENDBLK
  5
54F
330
46D
100
AcDbEntity
  8
0
100
AcDbBlockEnd
  0
BLOCK
  5
550
330
478
100
AcDbEntity
  8
0
100
AcDbBlockBegin
  2
*D57
 70
     1
 10
0.0
 20
0.0
 30
0.0
  3
*D57
  1

  0
POINT
  5
46F
330
478
100
AcDbEntity
  8
DEFPOINTS
  6
ByBlock
 62
     7
380
     1
100
AcDbPoint
 10
517.885772
 20
386.8532960929985
 30
0.0
  0
POINT
  5
470
330
478
100
AcDbEntity
  8
DEFPOINTS
  6
ByBlock
 62
     7
380
     1
100
AcDbPoint
 10
607.885772
 20
386.8532960929985
 30
0.0
  0
LINE
  5
471
330
478
100
AcDbEntity
  8
0
  6
ByBlock
 62
     7
370
    -2
380
     1
100
AcDbLine
 10
517.885772
 20
386.2282960929985
 30
0.0
 11
517.885772
 21
227.8282833050892
 31
0.0
  0
LINE
  5
472
330
478
100
AcDbEntity
  8
0
  6
ByBlock
 62
     7
370
    -2
380
     1
100
AcDbLine
 10
607.885772
 20
386.2282960929985
 30
0.0
 11
607.885772
 21
227.8282833050892
 31
0.0
  0
LINE
  5
473
330
478
100
AcDbEntity
  8
0
  6
ByBlock
 62
     7
370
    -2
380
     1
100
AcDbLine
 10
527.885772
 20
229.0782833050892
 30
0.0
 11
597.885772
 21
229.0782833050892
 31
0.0
  0
SOLID
  5
474
330
478
100
AcDbEntity
  8
0
  6
ByBlock
 62
     7
380
     1
100
AcDbTrace
 10
517.885772
 20
229.0782833050892
 30
0.0
 11
527.885772
 21
227.4116166384225
 31
0.0
 12
527.885772
 22
230.7449499717559
 32
0.0
 13
527.885772
 23
230.7449499717559
 33
0.0
  0
SOLID
  5
475
330
478
100
AcDbEntity
  8
0
  6
ByBlock
 62
     7
380
     1
100
AcDbTrace
 10
607.885772
 20
229.0782833050892
 30
0.0
 11
597.885772
 21
227.4116166384225
 31
0.0
 12
597.885772
 22
230.7449499717559
 32
0.0
 13
597.885772
 23
230.7449499717559
 33
0.0
  0
MTEXT
  5
476
330
478
100
AcDbEntity
  8
0
  6
ByBlock
 62
     0
370
    -2
380
     1
100
AcDbMText
 10
562.885772
 20
241.0782833050892
 30
0.0
 40
14.0
 41
0.0
 71
     5
 72
     1
  1
\A1;90
 73
     1
 44
1.0
  0
ENDBLK
  5
551
330
478
100
AcDbEntity
  8
0
100
AcDbBlockEnd
  0
BLOCK
  5
552
330
483
100
AcDbEntity
  8
0
100
AcDbBlockBegin
  2
*D58
 70
     1
 10
0.0
 20
0.0
 30
0.0
  3
*D58
  1

  0
POINT
  5
47A
330
483
100
AcDbEntity
  8
DEFPOINTS
  6
ByBlock
 62
     7
380
     1
100
AcDbPoint
 10
517.885772
 20
386.8532960929985
 30
0.0
  0
POINT
  5
47B
330
483
100
AcDbEntity
  8
DEFPOINTS
  6
ByBlock
 62
     7
380
     1
100
AcDbPoint
 10
607.885772
 20
386.8532960929985
 30
0.0
  0
LINE
  5
47C
330
483
100
AcDbEntity
  8
0
  6
ByBlock
 62
     7
370
    -2
380
     1
100
AcDbLine
 10
517.885772
 20
386.2282960929985
 30
0.0
 11
517.885772
 21
227.8282833050892
 31
0.0
  0
LINE
  5
47D
330
483
100
AcDbEntity
  8
0
  6
ByBlock
 62
     7
370
    -2
380
     1
100
AcDbLine
 10
607.885772
 20
386.2282960929985
 30
0.0
 11
607.885772
 21
227.8282833050892
 31
0.0
  0
LINE
  5
47E
330
483
100
AcDbEntity
  8
0
  6
ByBlock
 62
     7
370
    -2
380
     1
100
AcDbLine
 10
527.885772
 20
229.0782833050892
 30
0.0
 11
597.885772
 21
229.0782833050892
 31
0.0
  0
SOLID
  5
47F
330
483
100
AcDbEntity
  8
0
  6
ByBlock
 62
     7
380
     1
100
AcDbTrace
 10
517.885772
 20
229.0782833050892
 30
0.0
 11
527.885772
 21
227.4116166384225
 31
0.0
 12
527.885772
 22
230.7449499717559
 32
0.0
 13
527.885772
 23
230.7449499717559
 33
0.0
  0
SOLID
  5
480
330
483
100
AcDbEntity
  8
0
  6
ByBlock
 62
     7
380
     1
100
AcDbTrace
 10
607.885772
 20
229.0782833050892
 30
0.0
 11
597.885772
 21
227.4116166384225
 31
0.0
 12
597.885772
 22
230.7449499717559
 32
0.0
 13
597.885772
 23
230.7449499717559
 33
0.0
  0
MTEXT
  5
481
330
483
100
AcDbEntity
  8
0
  6
ByBlock
 62
     0
370
    -2
380
     1
100
AcDbMText
 10
562.885772
 20
241.0782833050892
 30
0.0
 40
14.0
 41
0.0
 71
     5
 72
     1
  1
\A1;90
 73
     1
 44
1.0
  0
ENDBLK
  5
553
330
483
100
AcDbEntity
  8
0
100
AcDbBlockEnd
  0
BLOCK
  5
554
330
48E
100
AcDbEntity
  8
0
100
AcDbBlockBegin
  2
*D59
 70
     1
 10
0.0
 20
0.0
 30
0.0
  3
*D59
  1

  0
POINT
  5
485
330
48E
100
AcDbEntity
  8
DEFPOINTS
  6
ByBlock
 62
     7
380
     1
100
AcDbPoint
 10
517.885772
 20
386.8532960929985
 30
0.0
  0
POINT
  5
486
330
48E
100
AcDbEntity
  8
DEFPOINTS
  6
ByBlock
 62
     7
380
     1
100
AcDbPoint
 10
607.885772
 20
386.8532960929985
 30
0.0
  0
LINE
  5
487
330
48E
100
AcDbEntity
  8
0
  6
ByBlock
 62
     7
370
    -2
380
     1
100
AcDbLine
 10
517.885772
 20
386.2282960929985
 30
0.0
 11
517.885772
 21
239.8282833050892
 31
0.0
  0
LINE
  5
488
330
48E
100
AcDbEntity
  8
0
  6
ByBlock
 62
     7
370
    -2
380
     1
100
AcDbLine
 10
607.885772
 20
386.2282960929985
 30
0.0
 11
607.885772
 21
239.8282833050892
 31
0.0
  0
LINE
  5
489
330
48E
100
AcDbEntity
  8
0
  6
ByBlock
 62
     7
370
    -2
380
     1
100
AcDbLine
 10
527.885772
 20
241.0782833050892
 30
0.0
 11
597.885772
 21
241.0782833050892
 31
0.0
  0
SOLID
  5
48A
330
48E
100
AcDbEntity
  8
0
  6
ByBlock
 62
     7
380
     1
100
AcDbTrace
 10
517.885772
 20
241.0782833050892
 30
0.0
 11
527.885772
 21
239.4116166384225
 31
0.0
 12
527.885772
 22
242.7449499717559
 32
0.0
 13
527.885772
 23
242.7449499717559
 33
0.0
  0
SOLID
  5
48B
330
48E
100
AcDbEntity
  8
0
  6
ByBlock
 62
     7
380
     1
100
AcDbTrace
 10
607.885772
 20
241.0782833050892
 30
0.0
 11
597.885772
 21
239.4116166384225
 31
0.0
 12
597.885772
 22
242.7449499717559
 32
0.0
 13
597.885772
 23
242.7449499717559
 33
0.0
  0
MTEXT
  5
48C
330
48E
100
AcDbEntity
  8
0
  6
ByBlock
 62
     0
370
    -2
380
     1
100
AcDbMText
 10
562.885772
 20
253.0782833050892
 30
0.0
 40
14.0
 41
0.0
 71
     5
 72
     1
  1
\A1;90
 73
     1
 44
1.0
  0
ENDBLK
  5
555
330
48E
100
AcDbEntity
  8
0
100
AcDbBlockEnd
  0
BLOCK
  5
556
330
499
100
AcDbEntity
  8
0
100
AcDbBlockBegin
  2
*D60
 70
     1
 10
0.0
 20
0.0
 30
0.0
  3
*D60
  1

  0
POINT
  5
490
330
499
100
AcDbEntity
  8
DEFPOINTS
  6
ByBlock
 62
     7
380
     1
100
AcDbPoint
 10
517.885772
 20
386.8532960929985
 30
0.0
  0
POINT
  5
491
330
499
100
AcDbEntity
  8
DEFPOINTS
  6
ByBlock
 62
     7
380
     1
100
AcDbPoint
 10
607.885772
 20
386.8532960929985
 30
0.0
  0
LINE
  5
492
330
499
100
AcDbEntity
  8
0
  6
ByBlock
 62
     7
370
    -2
380
     1
100
AcDbLine
 10
517.885772
 20
386.2282960929985
 30
0.0
 11
517.885772
 21
239.8282833050892
 31
0.0
  0
LINE
  5
493
330
499
100
AcDbEntity
  8
0
  6
ByBlock
 62
     7
370
    -2
380
     1
100
AcDbLine
 10
607.885772
 20
386.2282960929985
 30
0.0
 11
607.885772
 21
239.8282833050892
 31
0.0
  0
LINE
  5
494
330
499
100
AcDbEntity
  8
0
  6
ByBlock
 62
     7
370
    -2
380
     1
100
AcDbLine
 10
527.885772
 20
241.0782833050892
 30
0.0
 11
597.885772
 21
241.0782833050892
 31
0.0
  0
SOLID
  5
495
330
499
100
AcDbEntity
  8
0
  6
ByBlock
 62
     7
380
     1
100
AcDbTrace
 10
517.885772
 20
241.0782833050892
 30
0.0
 11
527.885772
 21
239.4116166384225
 31
0.0
 12
527.885772
 22
242.7449499717559
 32
0.0
 13
527.885772
 23
242.7449499717559
 33
0.0
  0
SOLID
  5
496
330
499
100
AcDbEntity
  8
0
  6
ByBlock
 62
     7
380
     1
100
AcDbTrace
 10
607.885772
 20
241.0782833050892
 30
0.0
 11
597.885772
 21
239.4116166384225
 31
0.0
 12
597.885772
 22
242.7449499717559
 32
0.0
 13
597.885772
 23
242.7449499717559
 33
0.0
  0
MTEXT
  5
497
330
499
100
AcDbEntity
  8
0
  6
ByBlock
 62
     0
370
    -2
380
     1
100
AcDbMText
 10
562.885772
 20
253.0782833050892
 30
0.0
 40
14.0
 41
0.0
 71
     5
 72
     1
  1
Ø90
 73
     1
 44
1.0
  0
ENDBLK
  5
557
330
499
100
AcDbEntity
  8
0
100
AcDbBlockEnd
  0
BLOCK
  5
558
330
4A5
100
AcDbEntity
  8
0
100
AcDbBlockBegin
  2
*D61
 70
     1
 10
0.0
 20
0.0
 30
0.0
  3
*D61
  1

  0
POINT
  5
49C
330
4A5
100
AcDbEntity
  8
DEFPOINTS
  6
ByBlock
 62
     0
380
     1
100
AcDbPoint
 10
624.9238673382594
 20
147.605102
 30
0.0
  0
POINT
  5
49D
330
4A5
100
AcDbEntity
  8
DEFPOINTS
  6
ByBlock
 62
     0
380
     1
100
AcDbPoint
 10
624.9238673382594
 20
47.605102
 30
0.0
  0
LINE
  5
49E
330
4A5
100
AcDbEntity
  8
0
  6
ByBlock
 62
     0
370
    -2
380
     1
100
AcDbLine
 10
625.5488673382594
 20
147.605102
 30
0.0
 11
825.5713226818652
 21
147.605102
 31
0.0
  0
LINE
  5
49F
330
4A5
100
AcDbEntity
  8
0
  6
ByBlock
 62
     0
370
    -2
380
     1
100
AcDbLine
 10
625.5488673382594
 20
47.605102
 30
0.0
 11
825.5713226818652
 21
47.605102
 31
0.0
  0
LINE
  5
4A0
330
4A5
100
AcDbEntity
  8
0
  6
ByBlock
 62
     0
370
    -2
380
     1
100
AcDbLine
 10
824.3213226818652
 20
145.105102
 30
0.0
 11
824.3213226818652
 21
50.105102
 31
0.0
  0
SOLID
  5
4A1
330
4A5
100
AcDbEntity
  8
0
  6
ByBlock
 62
     0
380
     1
100
AcDbTrace
 10
824.3213226818652
 20
147.605102
 30
0.0
 11
823.9046560151986
 21
145.105102
 31
0.0
 12
824.7379893485319
 22
145.105102
 32
0.0
 13
824.7379893485319
 23
145.105102
 33
0.0
  0
SOLID
  5
4A2
330
4A5
100
AcDbEntity
  8
0
  6
ByBlock
 62
     0
380
     1
100
AcDbTrace
 10
824.3213226818652
 20
47.605102
 30
0.0
 11
823.9046560151986
 21
50.105102
 31
0.0
 12
824.7379893485319
 22
50.105102
 32
0.0
 13
824.7379893485319
 23
50.105102
 33
0.0
  0
MTEXT
  5
4A3
330
4A5
100
AcDbEntity
  8
0
  6
ByBlock
 62
     0
370
    -2
380
     1
100
AcDbMText
 10
822.4463226818652
 20
97.60510200000002
 30
0.0
 40
2.5
 41
0.0
 71
     5
 72
     1
  1
\A1;100
 11
6.123031769111886E-17
 21
1.0
 31
0.0
 73
     1
 44
1.0
  0
ENDBLK
  5
559
330
4A5
100
AcDbEntity
  8
0
100
AcDbBlockEnd
  0
BLOCK
  5
55A
330
4B1
100
AcDbEntity
  8
0
100
AcDbBlockBegin
  2
*D62
 70
     1
 10
0.0
 20
0.0
 30
0.0
  3
*D62
  1

  0
POINT
  5
4A8
330
4B1
100
AcDbEntity
  8
DEFPOINTS
  6
ByBlock
 62
     0
380
     1
100
AcDbPoint
 10
624.9238673382594
 20
147.605102
 30
0.0
  0
POINT
  5
4A9
330
4B1
100
AcDbEntity
  8
DEFPOINTS
  6
ByBlock
 62
     0
380
     1
100
AcDbPoint
 10
624.9238673382594
 20
47.605102
 30
0.0
  0
LINE
  5
4AA
330
4B1
100
AcDbEntity
  8
0
  6
ByBlock
 62
     0
370
    -2
380
     1
100
AcDbLine
 10
625.5488673382594
 20
147.605102
 30
0.0
 11
839.3146827927546
 21
147.605102
 31
0.0
  0
LINE
  5
4AB
330
4B1
100
AcDbEntity
  8
0
  6
ByBlock
 62
     0
370
    -2
380
     1
100
AcDbLine
 10
625.5488673382594
 20
47.605102
 30
0.0
 11
839.3146827927546
 21
47.605102
 31
0.0
  0
LINE
  5
4AC
330
4B1
100
AcDbEntity
  8
0
  6
ByBlock
 62
     0
370
    -2
380
     1
100
AcDbLine
 10
838.0646827927546
 20
145.105102
 30
0.0
 11
838.0646827927546
 21
50.105102
 31
0.0
  0
SOLID
  5
4AD
330
4B1
100
AcDbEntity
  8
0
  6
ByBlock
 62
     0
380
     1
100
AcDbTrace
 10
838.0646827927546
 20
147.605102
 30
0.0
 11
837.648016126088
 21
145.105102
 31
0.0
 12
838.4813494594213
 22
145.105102
 32
0.0
 13
838.4813494594213
 23
145.105102
 33
0.0
  0
SOLID
  5
4AE
330
4B1
100
AcDbEntity
  8
0
  6
ByBlock
 62
     0
380
     1
100
AcDbTrace
 10
838.0646827927546
 20
47.605102
 30
0.0
 11
837.648016126088
 21
50.105102
 31
0.0
 12
838.4813494594213
 22
50.105102
 32
0.0
 13
838.4813494594213
 23
50.105102
 33
0.0
  0
MTEXT
  5
4AF
330
4B1
100
AcDbEntity
  8
0
  6
ByBlock
 62
     0
370
    -2
380
     1
100
AcDbMText
 10
836.1896827927546
 20
97.60510199999999
 30
0.0
 40
2.5
 41
0.0
 71
     5
 72
     1
  1
\A1;100
 11
6.123031769111886E-17
 21
1.0
 31
0.0
 73
     1
 44
1.0
  0
ENDBLK
  5
55B
330
4B1
100
AcDbEntity
  8
0
100
AcDbBlockEnd
  0
BLOCK
  5
55C
330
4BC
100
AcDbEntity
  8
0
100
AcDbBlockBegin
  2
*D63
 70
     1
 10
0.0
 20
0.0
 30
0.0
  3
*D63
  1

  0
POINT
  5
4B3
330
4BC
100
AcDbEntity
  8
DEFPOINTS
  6
ByBlock
 62
     0
380
     1
100
AcDbPoint
 10
624.9238673382594
 20
147.605102
 30
0.0
  0
POINT
  5
4B4
330
4BC
100
AcDbEntity
  8
DEFPOINTS
  6
ByBlock
 62
     0
380
     1
100
AcDbPoint
 10
624.9238673382594
 20
47.605102
 30
0.0
  0
LINE
  5
4B5
330
4BC
100
AcDbEntity
  8
0
  6
ByBlock
 62
     0
370
    -2
380
     1
100
AcDbLine
 10
625.5488673382594
 20
147.605102
 30
0.0
 11
839.3146827927546
 21
147.605102
 31
0.0
  0
LINE
  5
4B6
330
4BC
100
AcDbEntity
  8
0
  6
ByBlock
 62
     0
370
    -2
380
     1
100
AcDbLine
 10
625.5488673382594
 20
47.605102
 30
0.0
 11
839.3146827927546
 21
47.605102
 31
0.0
  0
LINE
  5
4B7
330
4BC
100
AcDbEntity
  8
0
  6
ByBlock
 62
     0
370
    -2
380
     1
100
AcDbLine
 10
838.0646827927546
 20
145.105102
 30
0.0
 11
838.0646827927546
 21
50.105102
 31
0.0
  0
SOLID
  5
4B8
330
4BC
100
AcDbEntity
  8
0
  6
ByBlock
 62
     0
380
     1
100
AcDbTrace
 10
838.0646827927546
 20
147.605102
 30
0.0
 11
837.648016126088
 21
145.105102
 31
0.0
 12
838.4813494594213
 22
145.105102
 32
0.0
 13
838.4813494594213
 23
145.105102
 33
0.0
  0
SOLID
  5
4B9
330
4BC
100
AcDbEntity
  8
0
  6
ByBlock
 62
     0
380
     1
100
AcDbTrace
 10
838.0646827927546
 20
47.605102
 30
0.0
 11
837.648016126088
 21
50.105102
 31
0.0
 12
838.4813494594213
 22
50.105102
 32
0.0
 13
838.4813494594213
 23
50.105102
 33
0.0
  0
MTEXT
  5
4BA
330
4BC
100
AcDbEntity
  8
0
  6
ByBlock
 62
     0
370
    -2
380
     1
100
AcDbMText
 10
836.1896827927546
 20
97.60510199999999
 30
0.0
 40
2.5
 41
0.0
 71
     5
 72
     1
  1
\A1;100
 11
6.123031769111886E-17
 21
1.0
 31
0.0
 73
     1
 44
1.0
  0
ENDBLK
  5
55D
330
4BC
100
AcDbEntity
  8
0
100
AcDbBlockEnd
  0
BLOCK
  5
55E
330
4C7
100
AcDbEntity
  8
0
100
AcDbBlockBegin
  2
*D64
 70
     1
 10
0.0
 20
0.0
 30
0.0
  3
*D64
  1

  0
POINT
  5
4BE
330
4C7
100
AcDbEntity
  8
DEFPOINTS
  6
ByBlock
 62
     0
380
     1
100
AcDbPoint
 10
624.9238673382594
 20
147.605102
 30
0.0
  0
POINT
  5
4BF
330
4C7
100
AcDbEntity
  8
DEFPOINTS
  6
ByBlock
 62
     0
380
     1
100
AcDbPoint
 10
624.9238673382594
 20
47.605102
 30
0.0
  0
LINE
  5
4C0
330
4C7
100
AcDbEntity
  8
0
  6
ByBlock
 62
     0
370
    -2
380
     1
100
AcDbLine
 10
625.5488673382594
 20
147.605102
 30
0.0
 11
839.3146827927546
 21
147.605102
 31
0.0
  0
LINE
  5
4C1
330
4C7
100
AcDbEntity
  8
0
  6
ByBlock
 62
     0
370
    -2
380
     1
100
AcDbLine
 10
625.5488673382594
 20
47.605102
 30
0.0
 11
839.3146827927546
 21
47.605102
 31
0.0
  0
LINE
  5
4C2
330
4C7
100
AcDbEntity
  8
0
  6
ByBlock
 62
     0
370
    -2
380
     1
100
AcDbLine
 10
838.0646827927546
 20
145.105102
 30
0.0
 11
838.0646827927546
 21
50.105102
 31
0.0
  0
SOLID
  5
4C3
330
4C7
100
AcDbEntity
  8
0
  6
ByBlock
 62
     0
380
     1
100
AcDbTrace
 10
838.0646827927546
 20
147.605102
 30
0.0
 11
837.648016126088
 21
145.105102
 31
0.0
 12
838.4813494594213
 22
145.105102
 32
0.0
 13
838.4813494594213
 23
145.105102
 33
0.0
  0
SOLID
  5
4C4
330
4C7
100
AcDbEntity
  8
0
  6
ByBlock
 62
     0
380
     1
100
AcDbTrace
 10
838.0646827927546
 20
47.605102
 30
0.0
 11
837.648016126088
 21
50.105102
 31
0.0
 12
838.4813494594213
 22
50.105102
 32
0.0
 13
838.4813494594213
 23
50.105102
 33
0.0
  0
MTEXT
  5
4C5
330
4C7
100
AcDbEntity
  8
0
  6
ByBlock
 62
     0
370
    -2
380
     1
100
AcDbMText
 10
836.1896827927546
 20
97.60510199999999
 30
0.0
 40
2.5
 41
0.0
 71
     5
 72
     1
  1
\A1;100
 11
6.123031769111886E-17
 21
1.0
 31
0.0
 73
     1
 44
1.0
  0
ENDBLK
  5
55F
330
4C7
100
AcDbEntity
  8
0
100
AcDbBlockEnd
  0
BLOCK
  5
560
330
4D2
100
AcDbEntity
  8
0
100
AcDbBlockBegin
  2
*D65
 70
     1
 10
0.0
 20
0.0
 30
0.0
  3
*D65
  1

  0
POINT
  5
4C9
330
4D2
100
AcDbEntity
  8
DEFPOINTS
  6
ByBlock
 62
     7
380
     1
100
AcDbPoint
 10
624.9238673382594
 20
147.605102
 30
0.0
  0
POINT
  5
4CA
330
4D2
100
AcDbEntity
  8
DEFPOINTS
  6
ByBlock
 62
     7
380
     1
100
AcDbPoint
 10
624.9238673382594
 20
47.605102
 30
0.0
  0
LINE
  5
4CB
330
4D2
100
AcDbEntity
  8
0
  6
ByBlock
 62
     7
370
    -2
380
     1
100
AcDbLine
 10
625.5488673382594
 20
147.605102
 30
0.0
 11
839.3146827927546
 21
147.605102
 31
0.0
  0
LINE
  5
4CC
330
4D2
100
AcDbEntity
  8
0
  6
ByBlock
 62
     7
370
    -2
380
     1
100
AcDbLine
 10
625.5488673382594
 20
47.605102
 30
0.0
 11
839.3146827927546
 21
47.605102
 31
0.0
  0
LINE
  5
4CD
330
4D2
100
AcDbEntity
  8
0
  6
ByBlock
 62
     7
370
    -2
380
     1
100
AcDbLine
 10
838.0646827927546
 20
137.605102
 30
0.0
 11
838.0646827927546
 21
57.605102
 31
0.0
  0
SOLID
  5
4CE
330
4D2
100
AcDbEntity
  8
0
  6
ByBlock
 62
     7
380
     1
100
AcDbTrace
 10
838.0646827927546
 20
147.605102
 30
0.0
 11
836.398016126088
 21
137.605102
 31
0.0
 12
839.7313494594213
 22
137.605102
 32
0.0
 13
839.7313494594213
 23
137.605102
 33
0.0
  0
SOLID
  5
4CF
330
4D2
100
AcDbEntity
  8
0
  6
ByBlock
 62
     7
380
     1
100
AcDbTrace
 10
838.0646827927546
 20
47.605102
 30
0.0
 11
836.398016126088
 21
57.605102
 31
0.0
 12
839.7313494594213
 22
57.605102
 32
0.0
 13
839.7313494594213
 23
57.605102
 33
0.0
  0
MTEXT
  5
4D0
330
4D2
100
AcDbEntity
  8
0
  6
ByBlock
 62
     0
370
    -2
380
     1
100
AcDbMText
 10
826.0646827927546
 20
97.60510199999999
 30
0.0
 40
14.0
 41
0.0
 71
     5
 72
     1
  1
\A1;100
 11
6.123031769111886E-17
 21
1.0
 31
0.0
 73
     1
 44
1.0
  0
ENDBLK
  5
561
330
4D2
100
AcDbEntity
  8
0
100
AcDbBlockEnd
  0
ENDSEC
  0
SECTION
  2
ENTITIES
  0
POINT
  5
311
330
1F
100
AcDbEntity
  8
2
 62
     7
370
    60
100
AcDbPoint
 10
537.526306
 20
346.188996
 30
0.0
  0
LINE
  5
312
330
1F
100
AcDbEntity
  8
2
  6
DASHDOT
 62
     7
370
    25
100
AcDbLine
 10
562.885772
 20
272.784942
 30
0.0
 11
562.885772
 21
649.5849
 31
0.0
  0
LINE
  5
314
330
1F
100
AcDbEntity
  8
2
  6
DASHDOT
 62
     7
370
    25
100
AcDbLine
 10
562.885772
 20
37.605102
 30
0.0
 11
562.885772
 21
157.605102
 31
0.0
  0
POINT
  5
327
330
1F
100
AcDbEntity
  8
2
 62
     0
370
    60
100
AcDbPoint
 10
362.88578
 20
668.184932
 30
0.0
  0
POINT
  5
328
330
1F
100
AcDbEntity
  8
2
 62
     0
370
    60
100
AcDbPoint
 10
372.88578
 20
618.184932
 30
0.0
  0
POINT
  5
330
330
1F
100
AcDbEntity
  8
2
 62
     0
370
    60
100
AcDbPoint
 10
691.33578
 20
643.184932
 30
0.0
  0
POINT
  5
331
330
1F
100
AcDbEntity
  8
2
 62
     0
370
    60
100
AcDbPoint
 10
762.88578
 20
668.184932
 30
0.0
  0
POINT
  5
339
330
1F
100
AcDbEntity
  8
2
 62
     0
370
    60
100
AcDbPoint
 10
682.88578
 20
634.734932
 30
0.0
  0
POINT
  5
33A
330
1F
100
AcDbEntity
  8
2
 62
     0
370
    60
100
AcDbPoint
 10
677.88578
 20
634.734932
 30
0.0
  0
POINT
  5
343
330
1F
100
AcDbEntity
  8
2
 62
     0
370
    60
100
AcDbPoint
 10
677.88578
 20
634.734932
 30
0.0
  0
POINT
  5
344
330
1F
100
AcDbEntity
  8
2
 62
     0
370
    60
100
AcDbPoint
 10
622.88578
 20
634.734932
 30
0.0
  0
POINT
  5
34C
330
1F
100
AcDbEntity
  8
2
 62
     0
370
    60
100
AcDbPoint
 10
622.88578
 20
634.734932
 30
0.0
  0
POINT
  5
34D
330
1F
100
AcDbEntity
  8
2
 62
     0
370
    60
100
AcDbPoint
 10
617.88578
 20
634.734932
 30
0.0
  0
POINT
  5
356
330
1F
100
AcDbEntity
  8
2
 62
     0
370
    60
100
AcDbPoint
 10
617.88578
 20
651.634932
 30
0.0
  0
POINT
  5
357
330
1F
100
AcDbEntity
  8
2
 62
     0
370
    60
100
AcDbPoint
 10
562.88578
 20
649.584928
 30
0.0
  0
POINT
  5
35F
330
1F
100
AcDbEntity
  8
2
 62
     0
370
    60
100
AcDbPoint
 10
762.88578
 20
668.184932
 30
0.0
  0
POINT
  5
360
330
1F
100
AcDbEntity
  8
2
 62
     0
370
    60
100
AcDbPoint
 10
362.88578
 20
668.184932
 30
0.0
  0
POINT
  5
368
330
1F
100
AcDbEntity
  8
2
 62
     0
370
    60
100
AcDbPoint
 10
362.88578
 20
147.605102
 30
0.0
  0
POINT
  5
369
330
1F
100
AcDbEntity
  8
2
 62
     0
370
    60
100
AcDbPoint
 10
362.88578
 20
47.605102
 30
0.0
  0
POINT
  5
371
330
1F
100
AcDbEntity
  8
2
 62
     0
370
    60
100
AcDbPoint
 10
617.88578
 20
106.055102
 30
0.0
  0
POINT
  5
372
330
1F
100
AcDbEntity
  8
2
 62
     0
370
    60
100
AcDbPoint
 10
622.88578
 20
106.055102
 30
0.0
  0
POINT
  5
37A
330
1F
100
AcDbEntity
  8
2
 62
     0
370
    60
100
AcDbPoint
 10
677.88578
 20
106.055102
 30
0.0
  0
POINT
  5
37B
330
1F
100
AcDbEntity
  8
2
 62
     0
370
    60
100
AcDbPoint
 10
622.88578
 20
106.055102
 30
0.0
  0
POINT
  5
383
330
1F
100
AcDbEntity
  8
2
 62
     0
370
    60
100
AcDbPoint
 10
677.88578
 20
106.055102
 30
0.0
  0
POINT
  5
384
330
1F
100
AcDbEntity
  8
2
 62
     0
370
    60
100
AcDbPoint
 10
682.88578
 20
106.055102
 30
0.0
  0
POINT
  5
38C
330
1F
100
AcDbEntity
  8
2
 62
     0
370
    60
100
AcDbPoint
 10
712.88578
 20
106.055102
 30
0.0
  0
POINT
  5
38D
330
1F
100
AcDbEntity
  8
2
 62
     0
370
    60
100
AcDbPoint
 10
682.88578
 20
106.055102
 30
0.0
  0
POINT
  5
395
330
1F
100
AcDbEntity
  8
2
 62
     0
370
    60
100
AcDbPoint
 10
617.88578
 20
106.055102
 30
0.0
  0
POINT
  5
396
330
1F
100
AcDbEntity
  8
2
 62
     0
370
    60
100
AcDbPoint
 10
507.88578
 20
106.055102
 30
0.0
  0
POINT
  5
39E
330
1F
100
AcDbEntity
  8
0
 62
     0
370
    60
100
AcDbPoint
 10
517.88578
 20
304.184932
 30
0.0
  0
POINT
  5
39F
330
1F
100
AcDbEntity
  8
0
 62
     0
370
    60
100
AcDbPoint
 10
607.88578
 20
304.184932
 30
0.0
  0
POINT
  5
3A7
330
1F
100
AcDbEntity
  8
0
 62
     0
370
    60
100
AcDbPoint
 10
607.88578
 20
304.184932
 30
0.0
  0
POINT
  5
3A8
330
1F
100
AcDbEntity
  8
0
 62
     0
370
    60
100
AcDbPoint
 10
762.88578
 20
668.184932
 30
0.0
  0
LINE
  5
3B0
330
1F
100
AcDbEntity
  8
0
  6
DASHDOT
 62
     7
 48
0.21125
370
    25
100
AcDbLine
 10
691.335754
 20
643.184936
 30
0.0
 11
669.6409963665453
 21
643.184936
 31
0.0
  0
LINE
  5
3B1
330
1F
100
AcDbEntity
  8
0
  6
DASHDOT
 62
     7
 48
0.21125
370
    25
100
AcDbLine
 10
682.885772
 20
651.634948
 30
0.0
 11
682.885772
 21
634.734924
 31
0.0
  0
LINE
  5
3B3
330
1F
100
AcDbEntity
  8
0
  6
DASHDOT
 62
     7
 48
0.21125
370
    25
100
AcDbLine
 10
677.885772
 20
651.634948
 30
0.0
 11
677.885772
 21
634.734924
 31
0.0
  0
LINE
  5
3B4
330
1F
100
AcDbEntity
  8
0
  6
DASHDOT
 62
     7
 48
0.21125
370
    25
100
AcDbLine
 10
631.335754
 20
643.184936
 30
0.0
 11
608.7663921638243
 21
643.184936
 31
0.0
  0
LINE
  5
3B5
330
1F
100
AcDbEntity
  8
0
  6
DASHDOT
 62
     7
 48
0.21125
370
    25
100
AcDbLine
 10
622.885772
 20
651.634948
 30
0.0
 11
622.885772
 21
634.734924
 31
0.0
  0
LINE
  5
3B7
330
1F
100
AcDbEntity
  8
0
  6
DASHDOT
 62
     7
 48
0.21125
370
    25
100
AcDbLine
 10
617.885772
 20
651.634948
 30
0.0
 11
617.885772
 21
634.734924
 31
0.0
  0
LINE
  5
3B8
330
1F
100
AcDbEntity
  8
0
  6
DASHDOT
 62
     7
 48
0.21125
370
    25
100
AcDbLine
 10
516.335784
 20
643.184936
 30
0.0
 11
494.1768424066466
 21
643.184936
 31
0.0
  0
LINE
  5
3B9
330
1F
100
AcDbEntity
  8
0
  6
DASHDOT
 62
     7
 48
0.21125
370
    25
100
AcDbLine
 10
507.885772
 20
651.634948
 30
0.0
 11
507.885772
 21
634.734924
 31
0.0
  0
LINE
  5
3BB
330
1F
100
AcDbEntity
  8
0
  6
DASHDOT
 62
     7
 48
0.21125
370
    25
100
AcDbLine
 10
502.885772
 20
651.634948
 30
0.0
 11
502.885772
 21
634.734924
 31
0.0
  0
LINE
  5
3BC
330
1F
100
AcDbEntity
  8
0
  6
DASHDOT
 62
     7
 48
0.21125
370
    25
100
AcDbLine
 10
456.33577
 20
643.184936
 30
0.0
 11
434.4659981188308
 21
643.184936
 31
0.0
  0
LINE
  5
3BD
330
1F
100
AcDbEntity
  8
0
  6
DASHDOT
 62
     7
 48
0.21125
370
    25
100
AcDbLine
 10
447.885772
 20
651.634948
 30
0.0
 11
447.885772
 21
634.734924
 31
0.0
  0
LINE
  5
3BF
330
1F
100
AcDbEntity
  8
0
  6
DASHDOT
 62
     7
 48
0.21125
370
    25
100
AcDbLine
 10
442.885772
 20
651.634948
 30
0.0
 11
442.885772
 21
634.734924
 31
0.0
  0
LINE
  5
3C0
330
1F
100
AcDbEntity
  8
0
  6
DASHDOT
 62
     7
 48
0.073125
370
    25
100
AcDbLine
 10
565.81076
 20
608.184936
 30
0.0
 11
559.960784
 21
608.184936
 31
0.0
  0
LINE
  5
3C1
330
1F
100
AcDbEntity
  8
0
  6
DASHDOT
 62
     7
 48
0.073125
370
    60
100
AcDbLine
 10
562.885772
 20
611.109924
 30
0.0
 11
562.885772
 21
605.259948
 31
0.0
  0
LINE
  5
3C2
330
1F
100
AcDbEntity
  8
0
 62
     7
370
    60
100
AcDbLine
 10
607.885772
 20
304.184936
 30
0.0
 11
562.885772
 21
304.184936
 31
0.0
  0
LINE
  5
3C3
330
1F
100
AcDbEntity
  8
0
 62
     7
370
    60
100
AcDbLine
 10
562.885772
 20
304.184936
 30
0.0
 11
517.885772
 21
304.184936
 31
0.0
  0
CIRCLE
  5
3C4
330
1F
100
AcDbEntity
  8
0
 62
     7
370
    60
100
AcDbCircle
 10
562.885772
 20
608.184936
 30
0.0
 40
2.25
  0
LWPOLYLINE
  5
3C9
330
1F
100
AcDbEntity
  8
0
 62
     7
370
    60
100
AcDbPolyline
 90
       24
 70
     0
 43
0.0
 10
540.385772
 20
349.559996
 10
540.800842
 20
349.525878
 10
541.209258
 20
349.425018
 10
541.6016539999999
 20
349.2596120000001
 10
541.969634
 20
349.034576
 10
542.306122
 20
348.755706
 10
542.6054379999999
 20
348.427856
 10
542.8626399999999
 20
348.0555420000001
 10
543.07251
 20
347.644714
 10
543.22998
 20
347.202972
 10
543.330628
 20
346.739012
 10
543.371216
 20
346.2625420000001
 10
543.35019
 20
345.783904
 10
543.26831
 20
345.31378
 10
543.128388
 20
344.86267
 10
542.934296
 20
344.4398180000001
 10
542.690582
 20
344.05316
 10
542.402466
 20
343.709502
 10
542.075866
 20
343.41461
 10
541.717194
 20
343.173522
 10
541.333618
 20
342.990508
 10
540.93277
 20
342.869354
 10
540.522888
 20
342.813476
 10
540.385772
 20
342.809936
  0
LWPOLYLINE
  5
3CA
330
1F
100
AcDbEntity
  8
0
 62
     7
370
    60
100
AcDbPolyline
 90
       15
 70
     0
 43
0.0
 10
537.526306
 20
346.188994
 10
537.54596
 20
346.583312
 10
537.610016
 20
347.003112
 10
537.71579
 20
347.410858
 10
537.855682
 20
347.772856
 10
538.0271
 20
348.103302
 10
538.224152
 20
348.40927
 10
538.446136
 20
348.678588
 10
538.693818
 20
348.90985
 10
538.958496
 20
349.114958
 10
539.242248
 20
349.28601
 10
539.548644
 20
349.415222
 10
539.87442
 20
349.5040280000001
 10
540.213256
 20
349.552948
 10
540.385772
 20
349.559936
  0
LWPOLYLINE
  5
3CB
330
1F
100
AcDbEntity
  8
0
 62
     7
370
    60
100
AcDbPolyline
 90
       13
 70
     0
 43
0.0
 10
540.385772
 20
342.809936
 10
539.99298
 20
342.835998
 10
539.61023
 20
342.92047
 10
539.245666
 20
343.067046
 10
538.90564
 20
343.2735280000001
 10
538.5941779999999
 20
343.534636
 10
538.31247
 20
343.84442
 10
538.064118
 20
344.197356
 10
537.859436
 20
344.586212
 10
537.703246
 20
345.002594
 10
537.59613
 20
345.438292
 10
537.537598
 20
345.886198
 10
537.526306
 20
346.188994
  0
LINE
  5
3CC
330
1F
100
AcDbEntity
  8
0
 62
     7
 48
0.001284
370
    60
100
AcDbLine
 10
607.878234
 20
349.457458
 30
0.0
 11
607.885772
 21
349.559936
 31
0.0
  0
ARC
  5
3CD
330
1F
100
AcDbEntity
  8
0
 62
     7
370
    60
100
AcDbCircle
 10
649.949584
 20
346.28958
 30
0.0
 40
42.188698
100
AcDbArc
 50
176.933428
 51
177.807419
  0
LINE
  5
3CE
330
1F
100
AcDbEntity
  8
0
 62
     7
 48
0.001107
370
    60
100
AcDbLine
 10
607.777558
 20
347.471434
 30
0.0
 11
607.78012
 21
347.559936
 31
0.0
  0
LINE
  5
3D0
330
1F
100
AcDbEntity
  8
0
 62
     7
 48
0.001475
370
    60
100
AcDbLine
 10
607.791718
 20
344.462462
 30
0.0
 11
607.788086
 21
344.580382
 31
0.0
  0
ARC
  5
3D1
330
1F
100
AcDbEntity
  8
0
 62
     7
370
    60
100
AcDbCircle
 10
649.848876
 20
345.974394
 30
0.0
 40
42.082248
100
AcDbArc
 50
182.928271
 51
184.311821
  0
LINE
  5
3D2
330
1F
100
AcDbEntity
  8
0
 62
     7
 48
0.001333
370
    60
100
AcDbLine
 10
607.885772
 20
342.809936
 30
0.0
 11
607.87796
 21
342.916258
 31
0.0
  0
LWPOLYLINE
  5
3D3
330
1F
100
AcDbEntity
  8
0
 62
     7
370
    60
100
AcDbPolyline
 90
        5
 70
     0
 43
0.0
 10
607.885772
 20
342.809936
 10
607.788726
 20
344.54904
 10
607.759064
 20
346.2651060000001
 10
607.788848
 20
347.815368
 10
607.885772
 20
349.559936
  0
LINE
  5
3D8
330
1F
100
AcDbEntity
  8
0
 62
     7
370
    60
100
AcDbLine
 10
517.885772
 20
304.184936
 30
0.0
 11
517.885772
 21
618.1848739999999
 31
0.0
  0
LINE
  5
3D9
330
1F
100
AcDbEntity
  8
0
 62
     7
 48
0.482813
370
    60
100
AcDbLine
 10
607.885772
 20
304.184936
 30
0.0
 11
607.885772
 21
342.809936
 31
0.0
  0
LINE
  5
3DA
330
1F
100
AcDbEntity
  8
0
 62
     7
370
    60
100
AcDbLine
 10
607.885772
 20
349.559936
 30
0.0
 11
607.885772
 21
618.1848739999999
 31
0.0
  0
LINE
  5
3DB
330
1F
100
AcDbEntity
  8
0
 62
     7
370
    60
100
AcDbLine
 10
762.8857419999999
 20
628.184936
 30
0.0
 11
762.8857419999999
 21
668.184936
 31
0.0
  0
LINE
  5
3DC
330
1F
100
AcDbEntity
  8
0
 62
     7
370
    60
100
AcDbLine
 10
362.885772
 20
628.184936
 30
0.0
 11
362.885772
 21
668.184936
 31
0.0
  0
LINE
  5
3DD
330
1F
100
AcDbEntity
  8
0
 62
     7
370
    60
100
AcDbLine
 10
762.8857419999999
 20
668.184936
 30
0.0
 11
362.885772
 21
668.184936
 31
0.0
  0
ARC
  5
3DE
330
1F
100
AcDbEntity
  8
0
 62
     7
370
    60
100
AcDbCircle
 10
752.885772
 20
628.184936
 30
0.0
 40
10.0
100
AcDbArc
 50
270.000001
 51
0.00001
  0
LINE
  5
3DF
330
1F
100
AcDbEntity
  8
0
 62
     7
370
    60
100
AcDbLine
 10
752.885772
 20
618.184936
 30
0.0
 11
372.885772
 21
618.184936
 31
0.0
  0
ARC
  5
3E0
330
1F
100
AcDbEntity
  8
0
 62
     7
370
    60
100
AcDbCircle
 10
372.885772
 20
628.184936
 30
0.0
 40
10.0
100
AcDbArc
 50
180.000005
 51
270.000001
  0
LINE
  5
3E1
330
1F
100
AcDbEntity
  8
0
 62
     7
 48
0.0625
370
    60
100
AcDbLine
 10
617.885772
 20
636.684936
 30
0.0
 11
622.885772
 21
636.684936
 31
0.0
  0
ARC
  5
3E2
330
1F
100
AcDbEntity
  8
0
 62
     7
370
    60
100
AcDbCircle
 10
622.885772
 20
643.184936
 30
0.0
 40
6.5
100
AcDbArc
 50
270.000001
 51
89.99998900000001
  0
LINE
  5
3E3
330
1F
100
AcDbEntity
  8
0
 62
     7
 48
0.0625
370
    60
100
AcDbLine
 10
617.885772
 20
649.684936
 30
0.0
 11
622.885772
 21
649.684936
 31
0.0
  0
ARC
  5
3E4
330
1F
100
AcDbEntity
  8
0
 62
     7
370
    60
100
AcDbCircle
 10
617.885772
 20
643.184936
 30
0.0
 40
6.5
100
AcDbArc
 50
90.000003
 51
270.000001
  0
LINE
  5
3E5
330
1F
100
AcDbEntity
  8
0
 62
     7
 48
0.0625
370
    60
100
AcDbLine
 10
677.885772
 20
636.684936
 30
0.0
 11
682.885772
 21
636.684936
 31
0.0
  0
ARC
  5
3E6
330
1F
100
AcDbEntity
  8
0
 62
     7
370
    60
100
AcDbCircle
 10
682.885772
 20
643.184936
 30
0.0
 40
6.5
100
AcDbArc
 50
270.000001
 51
89.99998900000001
  0
LINE
  5
3E7
330
1F
100
AcDbEntity
  8
0
 62
     7
 48
0.0625
370
    60
100
AcDbLine
 10
677.885772
 20
649.684936
 30
0.0
 11
682.885772
 21
649.684936
 31
0.0
  0
ARC
  5
3E8
330
1F
100
AcDbEntity
  8
0
 62
     7
370
    60
100
AcDbCircle
 10
677.885772
 20
643.184936
 30
0.0
 40
6.5
100
AcDbArc
 50
90.000003
 51
270.000001
  0
LINE
  5
3E9
330
1F
100
AcDbEntity
  8
0
 62
     7
 48
0.0625
370
    60
100
AcDbLine
 10
502.885772
 20
649.684936
 30
0.0
 11
507.885772
 21
649.684936
 31
0.0
  0
ARC
  5
3EA
330
1F
100
AcDbEntity
  8
0
 62
     7
370
    60
100
AcDbCircle
 10
502.885772
 20
643.184936
 30
0.0
 40
6.5
100
AcDbArc
 50
90.000003
 51
270.000001
  0
LINE
  5
3EB
330
1F
100
AcDbEntity
  8
0
 62
     7
 48
0.0625
370
    60
100
AcDbLine
 10
502.885772
 20
636.684936
 30
0.0
 11
507.885772
 21
636.684936
 31
0.0
  0
ARC
  5
3EC
330
1F
100
AcDbEntity
  8
0
 62
     7
370
    60
100
AcDbCircle
 10
507.885772
 20
643.184936
 30
0.0
 40
6.5
100
AcDbArc
 50
270.000001
 51
89.99998900000001
  0
LINE
  5
3ED
330
1F
100
AcDbEntity
  8
0
 62
     7
 48
0.0625
370
    60
100
AcDbLine
 10
442.885772
 20
649.684936
 30
0.0
 11
447.885772
 21
649.684936
 31
0.0
  0
ARC
  5
3EE
330
1F
100
AcDbEntity
  8
0
 62
     7
370
    60
100
AcDbCircle
 10
442.885772
 20
643.184936
 30
0.0
 40
6.5
100
AcDbArc
 50
90.000003
 51
270.000001
  0
LINE
  5
3EF
330
1F
100
AcDbEntity
  8
0
 62
     7
 48
0.0625
370
    60
100
AcDbLine
 10
442.885772
 20
636.684936
 30
0.0
 11
447.885772
 21
636.684936
 31
0.0
  0
ARC
  5
3F0
330
1F
100
AcDbEntity
  8
0
 62
     7
370
    60
100
AcDbCircle
 10
447.885772
 20
643.184936
 30
0.0
 40
6.5
100
AcDbArc
 50
270.000001
 51
89.99998900000001
  0
LINE
  5
3F1
330
1F
100
AcDbEntity
  8
0
  6
DASHDOT
 62
     7
 48
0.21125
370
    25
100
AcDbLine
 10
721.335754
 20
97.60510200000002
 30
0.0
 11
704.43579
 21
97.60510200000002
 31
0.0
  0
LINE
  5
3F2
330
1F
100
AcDbEntity
  8
0
  6
DASHDOT
 62
     7
 48
0.21125
370
    25
100
AcDbLine
 10
712.885772
 20
106.055098
 30
0.0
 11
712.885772
 21
89.155104
 31
0.0
  0
LINE
  5
3F3
330
1F
100
AcDbEntity
  8
0
  6
DASHDOT
 62
     7
 48
0.21125
370
    25
100
AcDbLine
 10
691.335754
 20
97.60510200000002
 30
0.0
 11
674.43579
 21
97.60510200000002
 31
0.0
  0
LINE
  5
3F4
330
1F
100
AcDbEntity
  8
0
  6
DASHDOT
 62
     7
 48
0.21125
370
    25
100
AcDbLine
 10
682.885772
 20
106.055098
 30
0.0
 11
682.885772
 21
89.155104
 31
0.0
  0
LINE
  5
3F5
330
1F
100
AcDbEntity
  8
0
  6
DASHDOT
 62
     7
 48
0.21125
370
    25
100
AcDbLine
 10
686.335754
 20
97.60510200000002
 30
0.0
 11
669.43579
 21
97.60510200000002
 31
0.0
  0
LINE
  5
3F6
330
1F
100
AcDbEntity
  8
0
  6
DASHDOT
 62
     7
 48
0.21125
370
    25
100
AcDbLine
 10
677.885772
 20
106.055098
 30
0.0
 11
677.885772
 21
89.155104
 31
0.0
  0
LINE
  5
3F7
330
1F
100
AcDbEntity
  8
0
  6
DASHDOT
 62
     7
 48
0.21125
370
    60
100
AcDbLine
 10
631.335754
 20
97.60510200000002
 30
0.0
 11
614.43576
 21
97.60510200000002
 31
0.0
  0
LINE
  5
3F8
330
1F
100
AcDbEntity
  8
0
  6
DASHDOT
 62
     7
 48
0.21125
370
    25
100
AcDbLine
 10
622.885772
 20
106.055098
 30
0.0
 11
622.885772
 21
89.155104
 31
0.0
  0
LINE
  5
3F9
330
1F
100
AcDbEntity
  8
0
  6
DASHDOT
 62
     7
 48
0.21125
370
    25
100
AcDbLine
 10
626.335784
 20
97.60510200000002
 30
0.0
 11
609.43576
 21
97.60510200000002
 31
0.0
  0
LINE
  5
3FA
330
1F
100
AcDbEntity
  8
0
  6
DASHDOT
 62
     7
 48
0.21125
370
    25
100
AcDbLine
 10
617.885772
 20
106.055098
 30
0.0
 11
617.885772
 21
89.155104
 31
0.0
  0
LINE
  5
3FB
330
1F
100
AcDbEntity
  8
0
  6
DASHDOT
 62
     7
 48
0.21125
370
    25
100
AcDbLine
 10
516.335784
 20
97.60510200000002
 30
0.0
 11
499.435776
 21
97.60510200000002
 31
0.0
  0
LINE
  5
3FC
330
1F
100
AcDbEntity
  8
0
  6
DASHDOT
 62
     7
 48
0.21125
370
    25
100
AcDbLine
 10
507.885772
 20
106.055098
 30
0.0
 11
507.885772
 21
89.155104
 31
0.0
  0
LINE
  5
3FD
330
1F
100
AcDbEntity
  8
0
 62
     7
370
    60
100
AcDbLine
 10
762.8857419999999
 20
47.605102
 30
0.0
 11
762.8857419999999
 21
147.605102
 31
0.0
  0
LINE
  5
3FE
330
1F
100
AcDbEntity
  8
0
 62
     7
370
    60
100
AcDbLine
 10
362.885772
 20
47.605102
 30
0.0
 11
362.885772
 21
147.605102
 31
0.0
  0
LINE
  5
3FF
330
1F
100
AcDbEntity
  8
0
 62
     7
370
    60
100
AcDbLine
 10
762.8857419999999
 20
147.605102
 30
0.0
 11
362.885772
 21
147.605102
 31
0.0
  0
LINE
  5
400
330
1F
100
AcDbEntity
  8
0
 62
     7
370
    60
100
AcDbLine
 10
762.8857419999999
 20
47.605102
 30
0.0
 11
362.885772
 21
47.605102
 31
0.0
  0
CIRCLE
  5
401
330
1F
100
AcDbEntity
  8
0
 62
     7
370
    60
100
AcDbCircle
 10
712.885772
 20
97.60510200000002
 30
0.0
 40
6.5
  0
CIRCLE
  5
402
330
1F
100
AcDbEntity
  8
0
 62
     7
370
    60
100
AcDbCircle
 10
412.885772
 20
97.60510200000002
 30
0.0
 40
6.5
  0
LINE
  5
403
330
1F
100
AcDbEntity
  8
0
 62
     7
 48
0.0625
370
    60
100
AcDbLine
 10
622.885772
 20
91.10510200000002
 30
0.0
 11
617.885772
 21
91.10510200000002
 31
0.0
  0
ARC
  5
404
330
1F
100
AcDbEntity
  8
0
 62
     7
370
    60
100
AcDbCircle
 10
622.885772
 20
97.60510200000002
 30
0.0
 40
6.5
100
AcDbArc
 50
270.000001
 51
89.99998900000001
  0
LINE
  5
405
330
1F
100
AcDbEntity
  8
0
 62
     7
 48
0.0625
370
    60
100
AcDbLine
 10
622.885772
 20
104.105102
 30
0.0
 11
617.885772
 21
104.105102
 31
0.0
  0
ARC
  5
406
330
1F
100
AcDbEntity
  8
0
 62
     7
370
    60
100
AcDbCircle
 10
617.885772
 20
97.60510200000002
 30
0.0
 40
6.5
100
AcDbArc
 50
90.000003
 51
270.000001
  0
LINE
  5
407
330
1F
100
AcDbEntity
  8
0
 62
     7
 48
0.0625
370
    60
100
AcDbLine
 10
682.885772
 20
91.10510200000002
 30
0.0
 11
677.885772
 21
91.10510200000002
 31
0.0
  0
ARC
  5
408
330
1F
100
AcDbEntity
  8
0
 62
     7
370
    60
100
AcDbCircle
 10
682.885772
 20
97.60510200000002
 30
0.0
 40
6.5
100
AcDbArc
 50
270.000001
 51
89.99998900000001
  0
LINE
  5
409
330
1F
100
AcDbEntity
  8
0
 62
     7
 48
0.0625
370
    60
100
AcDbLine
 10
682.885772
 20
104.105102
 30
0.0
 11
677.885772
 21
104.105102
 31
0.0
  0
ARC
  5
40A
330
1F
100
AcDbEntity
  8
0
 62
     7
370
    60
100
AcDbCircle
 10
677.885772
 20
97.60510200000002
 30
0.0
 40
6.5
100
AcDbArc
 50
90.000003
 51
270.000001
  0
LINE
  5
40B
330
1F
100
AcDbEntity
  8
0
 62
     7
 48
0.0625
370
    60
100
AcDbLine
 10
507.885772
 20
104.105102
 30
0.0
 11
502.885772
 21
104.105102
 31
0.0
  0
ARC
  5
40C
330
1F
100
AcDbEntity
  8
0
 62
     7
370
    60
100
AcDbCircle
 10
502.885772
 20
97.60510200000002
 30
0.0
 40
6.5
100
AcDbArc
 50
90.000003
 51
270.000001
  0
LINE
  5
40D
330
1F
100
AcDbEntity
  8
0
 62
     7
 48
0.0625
370
    60
100
AcDbLine
 10
507.885772
 20
91.10510200000002
 30
0.0
 11
502.885772
 21
91.10510200000002
 31
0.0
  0
ARC
  5
40E
330
1F
100
AcDbEntity
  8
0
 62
     7
370
    60
100
AcDbCircle
 10
507.885772
 20
97.60510200000002
 30
0.0
 40
6.5
100
AcDbArc
 50
270.000001
 51
89.99998900000001
  0
LINE
  5
40F
330
1F
100
AcDbEntity
  8
0
 62
     7
 48
0.0625
370
    60
100
AcDbLine
 10
447.885772
 20
104.105102
 30
0.0
 11
442.885772
 21
104.105102
 31
0.0
  0
ARC
  5
410
330
1F
100
AcDbEntity
  8
0
 62
     7
370
    60
100
AcDbCircle
 10
442.885772
 20
97.60510200000002
 30
0.0
 40
6.5
100
AcDbArc
 50
90.000003
 51
270.000001
  0
LINE
  5
411
330
1F
100
AcDbEntity
  8
0
 62
     7
 48
0.0625
370
    60
100
AcDbLine
 10
447.885772
 20
91.10510200000002
 30
0.0
 11
442.885772
 21
91.10510200000002
 31
0.0
  0
ARC
  5
412
330
1F
100
AcDbEntity
  8
0
 62
     7
370
    60
100
AcDbCircle
 10
447.885772
 20
97.60510200000002
 30
0.0
 40
6.5
100
AcDbArc
 50
270.000001
 51
89.99998900000001
  0
DIMENSION
  5
413
330
1F
100
AcDbEntity
  8
0
370
    25
100
AcDbDimension
  2
*D51
 10
762.8857419999999
 20
700.3168728476256
 30
0.0
 11
562.885757
 21
712.3168728476256
 31
0.0
 70
    32
 71
     5
 41
2.5
 42
399.99997
  3
ISO-25
100
AcDbAlignedDimension
 13
362.885772
 23
648.184936
 33
0.0
 14
762.8857419999999
 24
648.184936
 34
0.0
100
AcDbRotatedDimension
1001
ACAD
1000
DSTYLE
1002
{
1070
    41
1040
10.0
1070
   140
1040
14.0
1070
   147
1040
5.0
1070
   176
1070
     7
1070
   177
1070
     7
1002
}
  0
DIMENSION
  5
435
330
1F
100
AcDbEntity
  8
0
370
    25
100
AcDbDimension
  2
*D54
 10
838.0646827927546
 20
304.184936
 30
0.0
 11
826.0646827927546
 21
486.184936
 31
0.0
 70
    32
 71
     5
 41
2.5
 42
364.0
  3
ISO-25
100
AcDbAlignedDimension
 13
562.885757
 23
668.184936
 33
0.0
 14
562.885772
 24
304.184936
 34
0.0
 50
90.0
100
AcDbRotatedDimension
1001
ACAD
1000
DSTYLE
1002
{
1070
    41
1040
10.0
1070
   140
1040
14.0
1070
   147
1040
5.0
1070
   176
1070
     7
1070
   177
1070
     7
1002
}
  0
DIMENSION
  5
457
330
1F
100
AcDbEntity
  8
0
370
    25
100
AcDbDimension
  2
*D60
 10
607.885772
 20
241.0782833050892
 30
0.0
 11
562.885772
 21
253.0782833050892
 31
0.0
 70
   160
  1
Ø90
 71
     5
 41
2.5
 42
90.0
  3
ISO-25
100
AcDbAlignedDimension
 13
517.885772
 23
386.8532960929985
 33
0.0
 14
607.885772
 24
386.8532960929985
 34
0.0
100
AcDbRotatedDimension
1001
ACAD
1000
DSTYLE
1002
{
1070
    41
1040
10.0
1070
   140
1040
14.0
1070
   147
1040
5.0
1070
   176
1070
     7
1070
   177
1070
     7
1002
}
  0
DIMENSION
  5
49A
330
1F
100
AcDbEntity
  8
0
370
    25
100
AcDbDimension
  2
*D65
 10
838.0646827927546
 20
47.605102
 30
0.0
 11
826.0646827927546
 21
97.60510199999999
 31
0.0
 70
   160
 71
     5
 41
2.5
 42
100.0
  3
ISO-25
100
AcDbAlignedDimension
 13
624.9238673382594
 23
147.605102
 33
0.0
 14
624.9238673382594
 24
47.605102
 34
0.0
 50
90.0
100
AcDbRotatedDimension
1001
ACAD
1000
DSTYLE
1002
{
1070
    41
1040
10.0
1070
   140
1040
14.0
1070
   147
1040
5.0
1070
   176
1070
     7
1070
   177
1070
     7
1002
}
  0
VIEWPORT
  5
BB
330
73
100
AcDbEntity
 67
     1
  8
0
100
AcDbViewport
 10
7.8
 20
4.5
 30
0.0
 40
15.64
 41
9.0
 68
     1
 69
     1
 12
6.0
 22
4.5
 13
0.0
 23
0.0
 14
0.5
 24
0.5
 15
0.5
 25
0.5
 16
0.0
 26
0.0
 36
1.0
 17
0.0
 27
0.0
 37
0.0
 42
50.0
 43
0.0
 44
0.0
 45
12.0
 50
0.0
 51
0.0
 72
   100
 90
   557152
  1

281
     0
 71
     1
 74
     0
110
0.0
120
0.0
130
0.0
111
1.0
121
0.0
131
0.0
112
0.0
122
1.0
132
0.0
 79
     0
146
0.0
  0
ENDSEC
  0
SECTION
  2
OBJECTS
  0
DICTIONARY
  5
C
330
0
100
AcDbDictionary
281
     1
  3
ACAD_COLOR
350
6C
  3
ACAD_GROUP
350
D
  3
ACAD_LAYOUT
350
1A
  3
ACAD_MATERIAL
350
6B
  3
ACAD_MLEADERSTYLE
350
563
  3
ACAD_MLINESTYLE
350
17
  3
ACAD_PLOTSETTINGS
350
19
  3
ACAD_PLOTSTYLENAME
350
E
  3
ACAD_SCALELIST
350
99
  3
ACAD_TABLESTYLE
350
92
  3
ACDBHEADERROUNDTRIPXREC
350
564
  3
AcDbVariableDictionary
350
59
  3
DWGPROPS
350
567
  0
DICTIONARY
  5
6C
102
{ACAD_REACTORS
330
C
102
}
330
C
100
AcDbDictionary
281
     1
  0
DICTIONARY
  5
D
102
{ACAD_REACTORS
330
C
102
}
330
C
100
AcDbDictionary
281
     1
  0
DICTIONARY
  5
1A
102
{ACAD_REACTORS
330
C
102
}
330
C
100
AcDbDictionary
281
     1
  3
Layout1
350
74
  3
Layout2
350
4DD
  3
Model
350
22
  0
DICTIONARY
  5
6B
102
{ACAD_REACTORS
330
C
102
}
330
C
100
AcDbDictionary
281
     1
  0
DICTIONARY
  5
563
102
{ACAD_REACTORS
330
C
102
}
330
C
100
AcDbDictionary
281
     1
  0
DICTIONARY
  5
17
102
{ACAD_REACTORS
330
C
102
}
330
C
100
AcDbDictionary
281
     1
  3
Standard
350
18
  0
DICTIONARY
  5
19
102
{ACAD_REACTORS
330
C
102
}
330
C
100
AcDbDictionary
281
     1
  0
ACDBDICTIONARYWDFLT
  5
E
102
{ACAD_REACTORS
330
C
102
}
330
C
100
AcDbDictionary
281
     1
  3
Normal
350
F
100
AcDbDictionaryWithDefault
340
F
  0
DICTIONARY
  5
99
102
{ACAD_REACTORS
330
C
102
}
330
C
100
AcDbDictionary
281
     1
  3
A0
350
D5
  3
A1
350
D6
  3
A2
350
D7
  3
A3
350
D8
  3
A4
350
D9
  3
A5
350
DA
  3
A6
350
DB
  3
A7
350
DC
  3
A8
350
DD
  3
A9
350
DE
  3
B0
350
DF
  3
B1
350
E0
  3
B2
350
E1
  3
B3
350
E2
  3
B4
350
E3
  3
B5
350
E4
  3
B6
350
E5
  3
B7
350
E6
  3
B8
350
E7
  3
B9
350
E8
  3
C0
350
E9
  3
C1
350
EA
  3
C2
350
EB
  3
C3
350
EC
  3
C4
350
ED
  3
C5
350
EE
  3
C6
350
EF
  3
C7
350
F0
  3
C8
350
F1
  3
C9
350
F2
  3
D0
350
F3
  3
D1
350
F4
  3
D2
350
F5
  0
DICTIONARY
  5
92
102
{ACAD_REACTORS
330
C
102
}
330
C
100
AcDbDictionary
281
     1
  0
DICTIONARY
  5
564
102
{ACAD_REACTORS
330
C
102
}
330
C
100
AcDbDictionary
281
     1
  3
COLORDICT
350
565
  3
MATERIALDICT
350
566
  0
DICTIONARY
  5
59
102
{ACAD_REACTORS
330
C
102
}
330
C
100
AcDbDictionary
281
     1
  3
CTABLESTYLE
350
98
  3
DIMASSOC
350
5A
  3
HIDETEXT
350
5E
  0
XRECORD
  5
567
102
{ACAD_REACTORS
330
C
102
}
330
C
100
AcDbXrecord
280
     1
  1
DWGPROPS COOKIE
  2

  3

  4

  6

  7

  8
BelottiMc
  9

300
=
301
=
302
=
303
=
304
=
305
=
306
=
307
=
308
=
309
=
 40
0.0
 41
2455103.547189236
 42
2455103.588855891
  1

 90
        0
  0
LAYOUT
  5
74
330
1A
100
AcDbPlotSettings
  1

  2
ProgeSOFT PDF Wizard
  4
A4
  6

 40
5.926666666666667
 41
6.011333333333321
 42
6.095999999999985
 43
5.926666666666667
 44
210.0
 45
297.0
 46
88.56200000000001
 47
136.531
 48
0.0
 49
0.0
140
0.0
141
0.0
142
1.0
143
1.0
 70
   692
 72
     1
 73
     0
 74
     0
  7

 75
    16
147
1.0
148
4.426666666666668
149
1.5
100
AcDbLayout
  1
Layout1
 70
     1
 71
     1
 10
0.0
 20
0.0
 11
0.0
 21
0.0
 12
0.0
 22
0.0
 32
0.0
 14
0.0
 24
0.0
 34
0.0
 15
0.0
 25
0.0
 35
0.0
146
0.0
 13
0.0
 23
0.0
 33
0.0
 16
1.0
 26
0.0
 36
0.0
 17
0.0
 27
1.0
 37
0.0
 76
     0
330
D1
331
562
1001
PROGE_PRINT_SETTINGS
1070
    73
1070
     1
  0
LAYOUT
  5
4DD
102
{ACAD_REACTORS
330
1A
102
}
330
1A
100
AcDbPlotSettings
  1

  2
ProgeSOFT PDF Wizard
  4
A4
  6

 40
5.926666666666667
 41
6.011333333333321
 42
6.095999999999985
 43
5.926666666666667
 44
210.0
 45
297.0
 46
88.562
 47
136.531
 48
0.0
 49
0.0
140
0.0
141
0.0
142
1.0
143
1.0
 70
   692
 72
     1
 73
     0
 74
     0
  7

 75
    16
147
1.0
148
0.0
149
0.0
100
AcDbLayout
  1
Layout2
 70
     1
 71
     2
 10
0.0
 20
0.0
 11
12.0
 21
9.0
 12
0.0
 22
0.0
 32
0.0
 14
0.0
 24
0.0
 34
0.0
 15
12.0
 25
9.0
 35
0.0
146
0.0
 13
0.0
 23
0.0
 33
0.0
 16
1.0
 26
0.0
 36
0.0
 17
0.0
 27
1.0
 37
0.0
 76
     0
330
73
331
BB
1001
PROGE_PRINT_SETTINGS
1070
    73
1070
     1
  0
LAYOUT
  5
22
330
1A
100
AcDbPlotSettings
  1

  2
ProgeSOFT PDF Wizard
  4
A4
  6

 40
5.926666666666667
 41
6.011333333333317
 42
6.095999999999985
 43
5.926666666666667
 44
210.0
 45
297.0
 46
13.37559707263187
 47
0.0000000000000041
 48
0.0
 49
0.0
140
0.0
141
0.0
142
1.0
143
7.241172049126555
 70
 11956
 72
     1
 73
     1
 74
     0
  7

 75
     0
147
0.1380991907408997
148
541.139988184852
149
353.8799479618101
100
AcDbLayout
  1
Model
 70
     1
 71
     0
 10
0.0
 20
0.0
 11
0.0
 21
0.0
 12
0.0
 22
0.0
 32
0.0
 14
362.885772
 24
37.605102
 34
0.0
 15
839.7313494594214
 25
719.3168728476256
 35
0.0
146
0.0
 13
0.0
 23
0.0
 33
0.0
 16
1.0
 26
0.0
 36
0.0
 17
0.0
 27
1.0
 37
0.0
 76
     0
330
1F
331
97
  0
MLINESTYLE
  5
18
102
{ACAD_REACTORS
330
17
102
}
330
17
100
AcDbMlineStyle
  2
STANDARD
 70
     0
  3

 62
   256
 51
90.0
 52
90.0
 71
     2
 49
0.5
 62
   256
  6
BYLAYER
 49
-0.5
 62
   256
  6
BYLAYER
  0
ACDBPLACEHOLDER
  5
F
102
{ACAD_REACTORS
330
E
102
}
330
E
  0
SCALE
  5
D5
102
{ACAD_REACTORS
330
99
102
}
330
99
100
AcDbScale
 70
     0
300
1:1
140
1.0
141
1.0
290
     1
  0
SCALE
  5
D6
102
{ACAD_REACTORS
330
99
102
}
330
99
100
AcDbScale
 70
     0
300
1:2
140
1.0
141
2.0
290
     0
  0
SCALE
  5
D7
102
{ACAD_REACTORS
330
99
102
}
330
99
100
AcDbScale
 70
     0
300
1:4
140
1.0
141
4.0
290
     0
  0
SCALE
  5
D8
102
{ACAD_REACTORS
330
99
102
}
330
99
100
AcDbScale
 70
     0
300
1:5
140
1.0
141
5.0
290
     0
  0
SCALE
  5
D9
102
{ACAD_REACTORS
330
99
102
}
330
99
100
AcDbScale
 70
     0
300
1:8
140
1.0
141
8.0
290
     0
  0
SCALE
  5
DA
102
{ACAD_REACTORS
330
99
102
}
330
99
100
AcDbScale
 70
     0
300
1:10
140
1.0
141
10.0
290
     0
  0
SCALE
  5
DB
102
{ACAD_REACTORS
330
99
102
}
330
99
100
AcDbScale
 70
     0
300
1:16
140
1.0
141
16.0
290
     0
  0
SCALE
  5
DC
102
{ACAD_REACTORS
330
99
102
}
330
99
100
AcDbScale
 70
     0
300
1:20
140
1.0
141
20.0
290
     0
  0
SCALE
  5
DD
102
{ACAD_REACTORS
330
99
102
}
330
99
100
AcDbScale
 70
     0
300
1:30
140
1.0
141
30.0
290
     0
  0
SCALE
  5
DE
102
{ACAD_REACTORS
330
99
102
}
330
99
100
AcDbScale
 70
     0
300
1:40
140
1.0
141
40.0
290
     0
  0
SCALE
  5
DF
102
{ACAD_REACTORS
330
99
102
}
330
99
100
AcDbScale
 70
     0
300
1:50
140
1.0
141
50.0
290
     0
  0
SCALE
  5
E0
102
{ACAD_REACTORS
330
99
102
}
330
99
100
AcDbScale
 70
     0
300
1:100
140
1.0
141
100.0
290
     0
  0
SCALE
  5
E1
102
{ACAD_REACTORS
330
99
102
}
330
99
100
AcDbScale
 70
     0
300
2:1
140
2.0
141
1.0
290
     0
  0
SCALE
  5
E2
102
{ACAD_REACTORS
330
99
102
}
330
99
100
AcDbScale
 70
     0
300
4:1
140
4.0
141
1.0
290
     0
  0
SCALE
  5
E3
102
{ACAD_REACTORS
330
99
102
}
330
99
100
AcDbScale
 70
     0
300
8:1
140
8.0
141
1.0
290
     0
  0
SCALE
  5
E4
102
{ACAD_REACTORS
330
99
102
}
330
99
100
AcDbScale
 70
     0
300
10:1
140
10.0
141
1.0
290
     0
  0
SCALE
  5
E5
102
{ACAD_REACTORS
330
99
102
}
330
99
100
AcDbScale
 70
     0
300
100:1
140
100.0
141
1.0
290
     0
  0
SCALE
  5
E6
102
{ACAD_REACTORS
330
99
102
}
330
99
100
AcDbScale
 70
     0
300
1/128" = 1'-0"
140
0.0078125
141
12.0
290
     0
  0
SCALE
  5
E7
102
{ACAD_REACTORS
330
99
102
}
330
99
100
AcDbScale
 70
     0
300
1/64" = 1'-0"
140
0.015625
141
12.0
290
     0
  0
SCALE
  5
E8
102
{ACAD_REACTORS
330
99
102
}
330
99
100
AcDbScale
 70
     0
300
1/32" = 1'-0"
140
0.03125
141
12.0
290
     0
  0
SCALE
  5
E9
102
{ACAD_REACTORS
330
99
102
}
330
99
100
AcDbScale
 70
     0
300
1/16" = 1'-0"
140
0.0625
141
12.0
290
     0
  0
SCALE
  5
EA
102
{ACAD_REACTORS
330
99
102
}
330
99
100
AcDbScale
 70
     0
300
3/32" = 1'-0"
140
0.09375
141
12.0
290
     0
  0
SCALE
  5
EB
102
{ACAD_REACTORS
330
99
102
}
330
99
100
AcDbScale
 70
     0
300
1/8" = 1'-0"
140
0.125
141
12.0
290
     0
  0
SCALE
  5
EC
102
{ACAD_REACTORS
330
99
102
}
330
99
100
AcDbScale
 70
     0
300
3/16" = 1'-0"
140
0.1875
141
12.0
290
     0
  0
SCALE
  5
ED
102
{ACAD_REACTORS
330
99
102
}
330
99
100
AcDbScale
 70
     0
300
1/4" = 1'-0"
140
0.25
141
12.0
290
     0
  0
SCALE
  5
EE
102
{ACAD_REACTORS
330
99
102
}
330
99
100
AcDbScale
 70
     0
300
3/8" = 1'-0"
140
0.375
141
12.0
290
     0
  0
SCALE
  5
EF
102
{ACAD_REACTORS
330
99
102
}
330
99
100
AcDbScale
 70
     0
300
1/2" = 1'-0"
140
0.5
141
12.0
290
     0
  0
SCALE
  5
F0
102
{ACAD_REACTORS
330
99
102
}
330
99
100
AcDbScale
 70
     0
300
3/4" = 1'-0"
140
0.75
141
12.0
290
     0
  0
SCALE
  5
F1
102
{ACAD_REACTORS
330
99
102
}
330
99
100
AcDbScale
 70
     0
300
1" = 1'-0"
140
1.0
141
12.0
290
     0
  0
SCALE
  5
F2
102
{ACAD_REACTORS
330
99
102
}
330
99
100
AcDbScale
 70
     0
300
1-1/2" = 1'-0"
140
1.5
141
12.0
290
     0
  0
SCALE
  5
F3
102
{ACAD_REACTORS
330
99
102
}
330
99
100
AcDbScale
 70
     0
300
3" = 1'-0"
140
3.0
141
12.0
290
     0
  0
SCALE
  5
F4
102
{ACAD_REACTORS
330
99
102
}
330
99
100
AcDbScale
 70
     0
300
6" = 1'-0"
140
6.0
141
12.0
290
     0
  0
SCALE
  5
F5
102
{ACAD_REACTORS
330
99
102
}
330
99
100
AcDbScale
 70
     0
300
1'-0" = 1'-0"
140
12.0
141
12.0
290
     0
  0
XRECORD
  5
565
102
{ACAD_REACTORS
330
564
102
}
330
564
100
AcDbXrecord
280
     1
340
6C
  0
XRECORD
  5
566
102
{ACAD_REACTORS
330
564
102
}
330
564
100
AcDbXrecord
280
     1
340
6B
  0
DICTIONARYVAR
  5
98
102
{ACAD_REACTORS
330
59
102
}
330
59
100
DictionaryVariables
280
     0
  1
Standard
  0
DICTIONARYVAR
  5
5A
102
{ACAD_REACTORS
330
59
102
}
330
59
100
DictionaryVariables
280
     0
  1
2
  0
DICTIONARYVAR
  5
5E
102
{ACAD_REACTORS
330
59
102
}
330
59
100
DictionaryVariables
280
     0
  1
1
  0
ENDSEC
  0
EOF
