  0
SECTION
  2
HEADER
  9
$ACADVER
  1
AC1015
  9
$ACADMAINTVER
 70
     6
  9
$DWGCODEPAGE
  3
ANSI_1252
  9
$INSBASE
 10
0.0
 20
0.0
 30
0.0
  9
$EXTMIN
 10
394.8696611463667
 20
15.4704440780639
 30
0.0
  9
$EXTMAX
 10
753.2627644864267
 20
686.9291471090226
 30
0.0
  9
$LIMMIN
 10
0.0
 20
0.0
  9
$LIMMAX
 10
0.0
 20
0.0
  9
$ORTHOMODE
 70
     0
  9
$REGENMODE
 70
     1
  9
$FILLMODE
 70
     1
  9
$QTEXTMODE
 70
     0
  9
$MIRRTEXT
 70
     0
  9
$LTSCALE
 40
1.0
  9
$ATTMODE
 70
     1
  9
$TEXTSIZE
 40
2.5
  9
$TRACEWID
 40
1.0
  9
$TEXTSTYLE
  7
Standard
  9
$CLAYER
  8
0
  9
$CELTYPE
  6
ByLayer
  9
$CECOLOR
 62
   256
  9
$CELTSCALE
 40
1.0
  9
$DISPSILH
 70
     0
  9
$DIMSCALE
 40
1.0
  9
$DIMASZ
 40
2.5
  9
$DIMEXO
 40
0.625
  9
$DIMDLI
 40
3.75
  9
$DIMRND
 40
0.0
  9
$DIMDLE
 40
0.0
  9
$DIMEXE
 40
1.25
  9
$DIMTP
 40
0.0
  9
$DIMTM
 40
0.0
  9
$DIMTXT
 40
2.5
  9
$DIMCEN
 40
2.5
  9
$DIMTSZ
 40
0.0
  9
$DIMTOL
 70
     0
  9
$DIMLIM
 70
     0
  9
$DIMTIH
 70
     0
  9
$DIMTOH
 70
     0
  9
$DIMSE1
 70
     0
  9
$DIMSE2
 70
     0
  9
$DIMTAD
 70
     1
  9
$DIMZIN
 70
     8
  9
$DIMBLK
  1

  9
$DIMASO
 70
     1
  9
$DIMSHO
 70
     1
  9
$DIMPOST
  1

  9
$DIMAPOST
  1

  9
$DIMALT
 70
     0
  9
$DIMALTD
 70
     3
  9
$DIMALTF
 40
0.03937007874016
  9
$DIMLFAC
 40
1.0
  9
$DIMTOFL
 70
     1
  9
$DIMTVP
 40
0.0
  9
$DIMTIX
 70
     0
  9
$DIMSOXD
 70
     0
  9
$DIMSAH
 70
     0
  9
$DIMBLK1
  1

  9
$DIMBLK2
  1

  9
$DIMSTYLE
  2
ISO-25
  9
$DIMCLRD
 70
     0
  9
$DIMCLRE
 70
     0
  9
$DIMCLRT
 70
     0
  9
$DIMTFAC
 40
1.0
  9
$DIMGAP
 40
0.625
  9
$DIMJUST
 70
     0
  9
$DIMSD1
 70
     0
  9
$DIMSD2
 70
     0
  9
$DIMTOLJ
 70
     0
  9
$DIMTZIN
 70
     8
  9
$DIMALTZ
 70
     0
  9
$DIMALTTZ
 70
     0
  9
$DIMUPT
 70
     0
  9
$DIMDEC
 70
     2
  9
$DIMTDEC
 70
     2
  9
$DIMALTU
 70
     2
  9
$DIMALTTD
 70
     3
  9
$DIMTXSTY
  7
Standard
  9
$DIMAUNIT
 70
     0
  9
$DIMADEC
 70
     0
  9
$DIMALTRND
 40
0.0
  9
$DIMAZIN
 70
     0
  9
$DIMDSEP
 70
    44
  9
$DIMATFIT
 70
     3
  9
$DIMFRAC
 70
     0
  9
$DIMLDRBLK
  1

  9
$DIMLUNIT
 70
     2
  9
$DIMLWD
 70
    -2
  9
$DIMLWE
 70
    -2
  9
$DIMTMOVE
 70
     0
  9
$LUNITS
 70
     2
  9
$LUPREC
 70
     4
  9
$SKETCHINC
 40
1.0
  9
$FILLETRAD
 40
0.0
  9
$AUNITS
 70
     0
  9
$AUPREC
 70
     0
  9
$MENU
  1
.
  9
$ELEVATION
 40
0.0
  9
$PELEVATION
 40
0.0
  9
$THICKNESS
 40
0.0
  9
$LIMCHECK
 70
     0
  9
$CHAMFERA
 40
0.0
  9
$CHAMFERB
 40
0.0
  9
$CHAMFERC
 40
0.0
  9
$CHAMFERD
 40
0.0
  9
$SKPOLY
 70
     0
  9
$TDCREATE
 40
2455103.609450533
  9
$TDUCREATE
 40
2455103.526117199
  9
$TDUPDATE
 40
2455103.651117222
  9
$TDUUPDATE
 40
2455103.567783889
  9
$TDINDWG
 40
0.0455025463
  9
$TDUSRTIMER
 40
0.0455001736
  9
$USRTIMER
 70
     1
  9
$ANGBASE
 50
0.0
  9
$ANGDIR
 70
     0
  9
$PDMODE
 70
     0
  9
$PDSIZE
 40
0.0
  9
$PLINEWID
 40
0.0
  9
$SPLFRAME
 70
     0
  9
$SPLINETYPE
 70
     6
  9
$SPLINESEGS
 70
     8
  9
$HANDSEED
  5
5CF
  9
$SURFTAB1
 70
     6
  9
$SURFTAB2
 70
     6
  9
$SURFTYPE
 70
     6
  9
$SURFU
 70
     6
  9
$SURFV
 70
     6
  9
$UCSBASE
  2

  9
$UCSNAME
  2

  9
$UCSORG
 10
0.0
 20
0.0
 30
0.0
  9
$UCSXDIR
 10
1.0
 20
0.0
 30
0.0
  9
$UCSYDIR
 10
0.0
 20
1.0
 30
0.0
  9
$UCSORTHOREF
  2

  9
$UCSORTHOVIEW
 70
     0
  9
$UCSORGTOP
 10
0.0
 20
0.0
 30
0.0
  9
$UCSORGBOTTOM
 10
0.0
 20
0.0
 30
0.0
  9
$UCSORGLEFT
 10
0.0
 20
0.0
 30
0.0
  9
$UCSORGRIGHT
 10
0.0
 20
0.0
 30
0.0
  9
$UCSORGFRONT
 10
0.0
 20
0.0
 30
0.0
  9
$UCSORGBACK
 10
0.0
 20
0.0
 30
0.0
  9
$PUCSBASE
  2

  9
$PUCSNAME
  2

  9
$PUCSORG
 10
0.0
 20
0.0
 30
0.0
  9
$PUCSXDIR
 10
1.0
 20
0.0
 30
0.0
  9
$PUCSYDIR
 10
0.0
 20
1.0
 30
0.0
  9
$PUCSORTHOREF
  2

  9
$PUCSORTHOVIEW
 70
     0
  9
$PUCSORGTOP
 10
0.0
 20
0.0
 30
0.0
  9
$PUCSORGBOTTOM
 10
0.0
 20
0.0
 30
0.0
  9
$PUCSORGLEFT
 10
0.0
 20
0.0
 30
0.0
  9
$PUCSORGRIGHT
 10
0.0
 20
0.0
 30
0.0
  9
$PUCSORGFRONT
 10
0.0
 20
0.0
 30
0.0
  9
$PUCSORGBACK
 10
0.0
 20
0.0
 30
0.0
  9
$USERI1
 70
     0
  9
$USERI2
 70
     0
  9
$USERI3
 70
     0
  9
$USERI4
 70
     0
  9
$USERI5
 70
     0
  9
$USERR1
 40
0.0
  9
$USERR2
 40
0.0
  9
$USERR3
 40
0.0
  9
$USERR4
 40
0.0
  9
$USERR5
 40
0.0
  9
$WORLDVIEW
 70
     1
  9
$SHADEDGE
 70
     3
  9
$SHADEDIF
 70
    70
  9
$TILEMODE
 70
     1
  9
$MAXACTVP
 70
    64
  9
$PINSBASE
 10
0.0
 20
0.0
 30
0.0
  9
$PLIMCHECK
 70
     0
  9
$PEXTMIN
 10
0.0
 20
0.0
 30
0.0
  9
$PEXTMAX
 10
12.0
 20
9.0
 30
0.0
  9
$PLIMMIN
 10
0.0
 20
0.0
  9
$PLIMMAX
 10
12.0
 20
9.0
  9
$UNITMODE
 70
     0
  9
$VISRETAIN
 70
     1
  9
$PLINEGEN
 70
     0
  9
$PSLTSCALE
 70
     1
  9
$TREEDEPTH
 70
  3020
  9
$CMLSTYLE
  2
Standard
  9
$CMLJUST
 70
     0
  9
$CMLSCALE
 40
20.0
  9
$PROXYGRAPHICS
 70
     1
  9
$MEASUREMENT
 70
     1
  9
$CELWEIGHT
370
    -1
  9
$ENDCAPS
280
     0
  9
$JOINSTYLE
280
     0
  9
$LWDISPLAY
290
     0
  9
$INSUNITS
 70
     4
  9
$HYPERLINKBASE
  1

  9
$STYLESHEET
  1

  9
$XEDIT
290
     1
  9
$CEPSNTYPE
380
     0
  9
$PSTYLEMODE
290
     1
  9
$FINGERPRINTGUID
  2
{5559452E-1E62-4159-8551-BF76FFF3E7E8}
  9
$VERSIONGUID
  2
{3CEB9EF8-4431-4551-B596-6734A9F966A9}
  9
$EXTNAMES
290
     1
  9
$PSVPSCALE
 40
0.0
  9
$OLESTARTUP
290
     0
  0
ENDSEC
  0
SECTION
  2
CLASSES
  0
CLASS
  1
ACDBDICTIONARYWDFLT
  2
AcDbDictionaryWithDefault
  3
ObjectDBX Classes
 90
        0
280
     0
281
     0
  0
CLASS
  1
ACDBPLACEHOLDER
  2
AcDbPlaceHolder
  3
ObjectDBX Classes
 90
        0
280
     0
281
     0
  0
CLASS
  1
LAYOUT
  2
AcDbLayout
  3
ObjectDBX Classes
 90
        0
280
     0
281
     0
  0
CLASS
  1
DICTIONARYVAR
  2
AcDbDictionaryVar
  3
ObjectDBX Classes
 90
        0
280
     0
281
     0
  0
CLASS
  1
TABLESTYLE
  2
AcDbTableStyle
  3
ObjectDBX Classes
 90
     4095
280
     0
281
     0
  0
CLASS
  1
SCALE
  2
AcDbScale
  3
ObjectDBX Classes
 90
     1153
280
     0
281
     0
  0
ENDSEC
  0
SECTION
  2
TABLES
  0
TABLE
  2
VPORT
  5
8
330
0
100
AcDbSymbolTable
 70
     2
  0
VPORT
  5
97
330
8
100
AcDbSymbolTableRecord
100
AcDbViewportTableRecord
  2
*Active
 70
     0
 10
0.0
 20
0.0
 11
1.0
 21
1.0
 12
530.9129765223736
 22
319.3715926360512
 13
0.0
 23
0.0
 14
10.0
 24
10.0
 15
10.0
 25
10.0
 16
0.0
 26
0.0
 36
1.0
 17
0.0
 27
0.0
 37
0.0
 40
909.2921157901496
 41
1.664827586206897
 42
50.0
 43
0.0
 44
0.0
 50
0.0
 51
0.0
 71
     0
 72
  1000
 73
     1
 74
     3
 75
     0
 76
     0
 77
     0
 78
     0
281
     0
 65
     1
110
0.0
120
0.0
130
0.0
111
1.0
121
0.0
131
0.0
112
0.0
122
1.0
132
0.0
 79
     0
146
0.0
  0
ENDTAB
  0
TABLE
  2
LTYPE
  5
5
330
0
100
AcDbSymbolTable
 70
     8
  0
LTYPE
  5
14
330
5
100
AcDbSymbolTableRecord
100
AcDbLinetypeTableRecord
  2
ByBlock
 70
     0
  3

 72
    65
 73
     0
 40
0.0
  0
LTYPE
  5
15
330
5
100
AcDbSymbolTableRecord
100
AcDbLinetypeTableRecord
  2
ByLayer
 70
     0
  3

 72
    65
 73
     0
 40
0.0
  0
LTYPE
  5
16
330
5
100
AcDbSymbolTableRecord
100
AcDbLinetypeTableRecord
  2
Continuous
 70
     0
  3
Solid line
 72
    65
 73
     0
 40
0.0
  0
LTYPE
  5
52C
330
5
100
AcDbSymbolTableRecord
100
AcDbLinetypeTableRecord
  2
DASHED
 70
     0
  3
__ __ __ __ __ __ __ __ __ __ __ __ __ __ __ __
 72
    65
 73
     2
 40
15.0
 49
12.0
 74
     0
 49
-3.0
 74
     0
  0
LTYPE
  5
52D
330
5
100
AcDbSymbolTableRecord
100
AcDbLinetypeTableRecord
  2
DASHDOT
 70
     0
  3
 __ . __ . __ . __ . __ . __ . __ . 
 72
    65
 73
     4
 40
18.5
 49
12.0
 74
     0
 49
-3.0
 74
     0
 49
0.5
 74
     0
 49
-3.0
 74
     0
  0
LTYPE
  5
52E
330
5
100
AcDbSymbolTableRecord
100
AcDbLinetypeTableRecord
  2
DOT
 70
     0
  3
 . . . . . . . . . . . . . . . .
 72
    65
 73
     2
 40
3.5
 49
0.5
 74
     0
 49
-3.0
 74
     0
  0
LTYPE
  5
52F
330
5
100
AcDbSymbolTableRecord
100
AcDbLinetypeTableRecord
  2
DASHSPACE
 70
     0
  3
__    __    __    __    __   
 72
    65
 73
     2
 40
30.0
 49
12.0
 74
     0
 49
-18.0
 74
     0
  0
LTYPE
  5
530
330
5
100
AcDbSymbolTableRecord
100
AcDbLinetypeTableRecord
  2
DASHDOT2
 70
     0
  3
__ . . __ . . __ . . __ 
 72
    65
 73
     6
 40
22.0
 49
12.0
 74
     0
 49
-3.0
 74
     0
 49
0.5
 74
     0
 49
-3.0
 74
     0
 49
0.5
 74
     0
 49
-3.0
 74
     0
  0
LTYPE
  5
531
330
5
100
AcDbSymbolTableRecord
100
AcDbLinetypeTableRecord
  2
PHANTOM
 70
     0
  3
____________    ____    ____   _
 72
    65
 73
     6
 40
20.0
 49
10.0
 74
     0
 49
-2.0
 74
     0
 49
2.0
 74
     0
 49
-2.0
 74
     0
 49
2.0
 74
     0
 49
-2.0
 74
     0
  0
LTYPE
  5
532
330
5
100
AcDbSymbolTableRecord
100
AcDbLinetypeTableRecord
  2
AXES
 70
     0
  3
________  __  ________  __  _____
 72
    65
 73
     4
 40
24.0
 49
15.0
 74
     0
 49
-3.0
 74
     0
 49
3.0
 74
     0
 49
-3.0
 74
     0
  0
ENDTAB
  0
TABLE
  2
LAYER
  5
2
330
0
100
AcDbSymbolTable
 70
     3
  0
LAYER
  5
10
330
2
100
AcDbSymbolTableRecord
100
AcDbLayerTableRecord
  2
0
 70
     0
 62
     7
  6
Continuous
370
    -3
390
F
  0
LAYER
  5
100
330
2
100
AcDbSymbolTableRecord
100
AcDbLayerTableRecord
  2
2
 70
     0
 62
     7
  6
Continuous
370
    13
390
F
  0
LAYER
  5
23B
330
2
100
AcDbSymbolTableRecord
100
AcDbLayerTableRecord
  2
DEFPOINTS
 70
     0
 62
     7
  6
Continuous
290
     0
370
    -3
390
F
  0
ENDTAB
  0
TABLE
  2
STYLE
  5
3
330
0
100
AcDbSymbolTable
 70
     2
  0
STYLE
  5
11
330
3
100
AcDbSymbolTableRecord
100
AcDbTextStyleTableRecord
  2
Standard
 70
     0
 40
0.0
 41
1.0
 50
0.0
 71
     0
 42
2.5
  3
txt
  4

  0
STYLE
  5
F8
330
3
100
AcDbSymbolTableRecord
100
AcDbTextStyleTableRecord
  2
GDT
 70
     0
 40
0.0
 41
1.0
 50
0.0
 71
     0
 42
0.2
  3
amgdt.shx
  4

  0
ENDTAB
  0
TABLE
  2
VIEW
  5
6
330
0
100
AcDbSymbolTable
 70
     0
  0
ENDTAB
  0
TABLE
  2
UCS
  5
7
330
0
100
AcDbSymbolTable
 70
     0
  0
ENDTAB
  0
TABLE
  2
APPID
  5
9
330
0
100
AcDbSymbolTable
 70
     2
  0
APPID
  5
12
330
9
100
AcDbSymbolTableRecord
100
AcDbRegAppTableRecord
  2
ACAD
 70
     0
  0
APPID
  5
52B
330
9
100
AcDbSymbolTableRecord
100
AcDbRegAppTableRecord
  2
PROGE_PRINT_SETTINGS
 70
     0
  0
ENDTAB
  0
TABLE
  2
DIMSTYLE
  5
A
330
0
100
AcDbSymbolTable
 70
     2
100
AcDbDimStyleTable
  0
DIMSTYLE
105
27
330
A
100
AcDbSymbolTableRecord
100
AcDbDimStyleTableRecord
  2
Standard
 70
     0
278
     0
340
11
  0
DIMSTYLE
105
29
102
{ACAD_REACTORS
330
471
330
49E
330
4C0
330
4FC
102
}
330
A
100
AcDbSymbolTableRecord
100
AcDbDimStyleTableRecord
  2
ISO-25
 70
     0
 41
2.5
 42
0.625
 43
3.75
 44
1.25
 73
     0
 74
     0
 77
     1
 78
     8
140
2.5
141
2.5
143
0.03937007874016
147
0.625
171
     3
172
     1
271
     2
272
     2
274
     3
278
    44
283
     0
284
     8
340
11
  0
ENDTAB
  0
TABLE
  2
BLOCK_RECORD
  5
1
330
0
100
AcDbSymbolTable
 70
    74
  0
BLOCK_RECORD
  5
1F
330
1
100
AcDbSymbolTableRecord
100
AcDbBlockTableRecord
  2
*Model_Space
340
22
  0
BLOCK_RECORD
  5
73
330
1
100
AcDbSymbolTableRecord
100
AcDbBlockTableRecord
  2
*Paper_Space
340
534
  0
BLOCK_RECORD
  5
D1
330
1
100
AcDbSymbolTableRecord
100
AcDbBlockTableRecord
  2
*Paper_Space0
340
74
  0
BLOCK_RECORD
  5
105
330
1
100
AcDbSymbolTableRecord
100
AcDbBlockTableRecord
  2
Block0
340
0
  0
BLOCK_RECORD
  5
10A
330
1
100
AcDbSymbolTableRecord
100
AcDbBlockTableRecord
  2
Block1
340
0
  0
BLOCK_RECORD
  5
10F
330
1
100
AcDbSymbolTableRecord
100
AcDbBlockTableRecord
  2
Block2
340
0
  0
BLOCK_RECORD
  5
114
330
1
100
AcDbSymbolTableRecord
100
AcDbBlockTableRecord
  2
Block3
340
0
  0
BLOCK_RECORD
  5
119
330
1
100
AcDbSymbolTableRecord
100
AcDbBlockTableRecord
  2
Block4
340
0
  0
BLOCK_RECORD
  5
11E
330
1
100
AcDbSymbolTableRecord
100
AcDbBlockTableRecord
  2
Block5
340
0
  0
BLOCK_RECORD
  5
123
330
1
100
AcDbSymbolTableRecord
100
AcDbBlockTableRecord
  2
Block6
340
0
  0
BLOCK_RECORD
  5
128
330
1
100
AcDbSymbolTableRecord
100
AcDbBlockTableRecord
  2
Block7
340
0
  0
BLOCK_RECORD
  5
12D
330
1
100
AcDbSymbolTableRecord
100
AcDbBlockTableRecord
  2
Block8
340
0
  0
BLOCK_RECORD
  5
15F
330
1
100
AcDbSymbolTableRecord
100
AcDbBlockTableRecord
  2
Block9
340
0
  0
BLOCK_RECORD
  5
164
330
1
100
AcDbSymbolTableRecord
100
AcDbBlockTableRecord
  2
Block10
340
0
  0
BLOCK_RECORD
  5
169
330
1
100
AcDbSymbolTableRecord
100
AcDbBlockTableRecord
  2
Block11
340
0
  0
BLOCK_RECORD
  5
16E
330
1
100
AcDbSymbolTableRecord
100
AcDbBlockTableRecord
  2
Block12
340
0
  0
BLOCK_RECORD
  5
173
330
1
100
AcDbSymbolTableRecord
100
AcDbBlockTableRecord
  2
Block13
340
0
  0
BLOCK_RECORD
  5
178
330
1
100
AcDbSymbolTableRecord
100
AcDbBlockTableRecord
  2
Block14
340
0
  0
BLOCK_RECORD
  5
17D
330
1
100
AcDbSymbolTableRecord
100
AcDbBlockTableRecord
  2
Block15
340
0
  0
BLOCK_RECORD
  5
194
330
1
100
AcDbSymbolTableRecord
100
AcDbBlockTableRecord
  2
Block16
340
0
  0
BLOCK_RECORD
  5
198
330
1
100
AcDbSymbolTableRecord
100
AcDbBlockTableRecord
  2
Block17
340
0
  0
BLOCK_RECORD
  5
1A1
330
1
100
AcDbSymbolTableRecord
100
AcDbBlockTableRecord
  2
*D19
340
0
  0
BLOCK_RECORD
  5
1AA
330
1
100
AcDbSymbolTableRecord
100
AcDbBlockTableRecord
  2
*D20
340
0
  0
BLOCK_RECORD
  5
1B4
330
1
100
AcDbSymbolTableRecord
100
AcDbBlockTableRecord
  2
*D21
340
0
  0
BLOCK_RECORD
  5
1BD
330
1
100
AcDbSymbolTableRecord
100
AcDbBlockTableRecord
  2
*D22
340
0
  0
BLOCK_RECORD
  5
1C6
330
1
100
AcDbSymbolTableRecord
100
AcDbBlockTableRecord
  2
*D23
340
0
  0
BLOCK_RECORD
  5
1CF
330
1
100
AcDbSymbolTableRecord
100
AcDbBlockTableRecord
  2
*D24
340
0
  0
BLOCK_RECORD
  5
1D8
330
1
100
AcDbSymbolTableRecord
100
AcDbBlockTableRecord
  2
*D25
340
0
  0
BLOCK_RECORD
  5
1E0
330
1
100
AcDbSymbolTableRecord
100
AcDbBlockTableRecord
  2
*D26
340
0
  0
BLOCK_RECORD
  5
1E9
330
1
100
AcDbSymbolTableRecord
100
AcDbBlockTableRecord
  2
*D27
340
0
  0
BLOCK_RECORD
  5
1F2
330
1
100
AcDbSymbolTableRecord
100
AcDbBlockTableRecord
  2
*D28
340
0
  0
BLOCK_RECORD
  5
1FB
330
1
100
AcDbSymbolTableRecord
100
AcDbBlockTableRecord
  2
*D29
340
0
  0
BLOCK_RECORD
  5
204
330
1
100
AcDbSymbolTableRecord
100
AcDbBlockTableRecord
  2
*D30
340
0
  0
BLOCK_RECORD
  5
20D
330
1
100
AcDbSymbolTableRecord
100
AcDbBlockTableRecord
  2
*D31
340
0
  0
BLOCK_RECORD
  5
245
330
1
100
AcDbSymbolTableRecord
100
AcDbBlockTableRecord
  2
*D32
340
0
  0
BLOCK_RECORD
  5
252
330
1
100
AcDbSymbolTableRecord
100
AcDbBlockTableRecord
  2
*D33
340
0
  0
BLOCK_RECORD
  5
25F
330
1
100
AcDbSymbolTableRecord
100
AcDbBlockTableRecord
  2
*D34
340
0
  0
BLOCK_RECORD
  5
26C
330
1
100
AcDbSymbolTableRecord
100
AcDbBlockTableRecord
  2
*D35
340
0
  0
BLOCK_RECORD
  5
279
330
1
100
AcDbSymbolTableRecord
100
AcDbBlockTableRecord
  2
*D36
340
0
  0
BLOCK_RECORD
  5
287
330
1
100
AcDbSymbolTableRecord
100
AcDbBlockTableRecord
  2
*D37
340
0
  0
BLOCK_RECORD
  5
294
330
1
100
AcDbSymbolTableRecord
100
AcDbBlockTableRecord
  2
*D38
340
0
  0
BLOCK_RECORD
  5
2A0
330
1
100
AcDbSymbolTableRecord
100
AcDbBlockTableRecord
  2
*D39
340
0
  0
BLOCK_RECORD
  5
2AE
330
1
100
AcDbSymbolTableRecord
100
AcDbBlockTableRecord
  2
*D40
340
0
  0
BLOCK_RECORD
  5
2BB
330
1
100
AcDbSymbolTableRecord
100
AcDbBlockTableRecord
  2
*D41
340
0
  0
BLOCK_RECORD
  5
2C8
330
1
100
AcDbSymbolTableRecord
100
AcDbBlockTableRecord
  2
*D42
340
0
  0
BLOCK_RECORD
  5
2D5
330
1
100
AcDbSymbolTableRecord
100
AcDbBlockTableRecord
  2
*D43
340
0
  0
BLOCK_RECORD
  5
2E2
330
1
100
AcDbSymbolTableRecord
100
AcDbBlockTableRecord
  2
*D44
340
0
  0
BLOCK_RECORD
  5
308
330
1
100
AcDbSymbolTableRecord
100
AcDbBlockTableRecord
  2
*D45
340
0
  0
BLOCK_RECORD
  5
314
330
1
100
AcDbSymbolTableRecord
100
AcDbBlockTableRecord
  2
*D46
340
0
  0
BLOCK_RECORD
  5
320
330
1
100
AcDbSymbolTableRecord
100
AcDbBlockTableRecord
  2
*D47
340
0
  0
BLOCK_RECORD
  5
32C
330
1
100
AcDbSymbolTableRecord
100
AcDbBlockTableRecord
  2
*D48
340
0
  0
BLOCK_RECORD
  5
339
330
1
100
AcDbSymbolTableRecord
100
AcDbBlockTableRecord
  2
*D49
340
0
  0
BLOCK_RECORD
  5
344
330
1
100
AcDbSymbolTableRecord
100
AcDbBlockTableRecord
  2
*D50
340
0
  0
BLOCK_RECORD
  5
350
330
1
100
AcDbSymbolTableRecord
100
AcDbBlockTableRecord
  2
*D51
340
0
  0
BLOCK_RECORD
  5
35D
330
1
100
AcDbSymbolTableRecord
100
AcDbBlockTableRecord
  2
*D52
340
0
  0
BLOCK_RECORD
  5
369
330
1
100
AcDbSymbolTableRecord
100
AcDbBlockTableRecord
  2
*D53
340
0
  0
BLOCK_RECORD
  5
375
330
1
100
AcDbSymbolTableRecord
100
AcDbBlockTableRecord
  2
*D54
340
0
  0
BLOCK_RECORD
  5
381
330
1
100
AcDbSymbolTableRecord
100
AcDbBlockTableRecord
  2
*D55
340
0
  0
BLOCK_RECORD
  5
38D
330
1
100
AcDbSymbolTableRecord
100
AcDbBlockTableRecord
  2
*D56
340
0
  0
BLOCK_RECORD
  5
399
330
1
100
AcDbSymbolTableRecord
100
AcDbBlockTableRecord
  2
*D57
340
0
  0
BLOCK_RECORD
  5
47C
330
1
100
AcDbSymbolTableRecord
100
AcDbBlockTableRecord
  2
*D58
340
0
  0
BLOCK_RECORD
  5
487
330
1
100
AcDbSymbolTableRecord
100
AcDbBlockTableRecord
  2
*D59
340
0
  0
BLOCK_RECORD
  5
492
330
1
100
AcDbSymbolTableRecord
100
AcDbBlockTableRecord
  2
*D60
340
0
  0
BLOCK_RECORD
  5
49D
330
1
100
AcDbSymbolTableRecord
100
AcDbBlockTableRecord
  2
*D61
340
0
  0
BLOCK_RECORD
  5
4A9
330
1
100
AcDbSymbolTableRecord
100
AcDbBlockTableRecord
  2
*D62
340
0
  0
BLOCK_RECORD
  5
4B4
330
1
100
AcDbSymbolTableRecord
100
AcDbBlockTableRecord
  2
*D63
340
0
  0
BLOCK_RECORD
  5
4BF
330
1
100
AcDbSymbolTableRecord
100
AcDbBlockTableRecord
  2
*D64
340
0
  0
BLOCK_RECORD
  5
4CB
330
1
100
AcDbSymbolTableRecord
100
AcDbBlockTableRecord
  2
*D65
340
0
  0
BLOCK_RECORD
  5
4D6
330
1
100
AcDbSymbolTableRecord
100
AcDbBlockTableRecord
  2
*D66
340
0
  0
BLOCK_RECORD
  5
4E1
330
1
100
AcDbSymbolTableRecord
100
AcDbBlockTableRecord
  2
*D67
340
0
  0
BLOCK_RECORD
  5
4EC
330
1
100
AcDbSymbolTableRecord
100
AcDbBlockTableRecord
  2
*D68
340
0
  0
BLOCK_RECORD
  5
4F7
330
1
100
AcDbSymbolTableRecord
100
AcDbBlockTableRecord
  2
*D69
340
0
  0
BLOCK_RECORD
  5
507
330
1
100
AcDbSymbolTableRecord
100
AcDbBlockTableRecord
  2
*D70
340
0
  0
BLOCK_RECORD
  5
512
330
1
100
AcDbSymbolTableRecord
100
AcDbBlockTableRecord
  2
*D71
340
0
  0
BLOCK_RECORD
  5
51D
330
1
100
AcDbSymbolTableRecord
100
AcDbBlockTableRecord
  2
*D72
340
0
  0
BLOCK_RECORD
  5
529
330
1
100
AcDbSymbolTableRecord
100
AcDbBlockTableRecord
  2
*D73
340
0
  0
ENDTAB
  0
ENDSEC
  0
SECTION
  2
BLOCKS
  0
BLOCK
  5
20
330
1F
100
AcDbEntity
  8
0
100
AcDbBlockBegin
  2
*Model_Space
 70
     0
 10
0.0
 20
0.0
 30
0.0
  3
*Model_Space
  1

  0
ENDBLK
  5
21
330
1F
100
AcDbEntity
  8
0
100
AcDbBlockEnd
  0
BLOCK
  5
75
330
73
100
AcDbEntity
 67
     1
  8
0
100
AcDbBlockBegin
  2
*Paper_Space
 70
     0
 10
0.0
 20
0.0
 30
0.0
  3
*Paper_Space
  1

  0
ENDBLK
  5
76
330
73
100
AcDbEntity
 67
     1
  8
0
100
AcDbBlockEnd
  0
BLOCK
  5
535
330
D1
100
AcDbEntity
  8
0
100
AcDbBlockBegin
  2
*Paper_Space0
 70
     0
 10
0.0
 20
0.0
 30
0.0
  3
*Paper_Space0
  1

  0
VIEWPORT
  5
5C9
330
D1
100
AcDbEntity
  8
0
100
AcDbViewport
 10
7.8
 20
4.5
 30
0.0
 40
15.64
 41
9.0
 68
     1
 69
     1
 12
6.0
 22
4.5
 13
0.0
 23
0.0
 14
0.5
 24
0.5
 15
0.5
 25
0.5
 16
0.0
 26
0.0
 36
1.0
 17
0.0
 27
0.0
 37
0.0
 42
50.0
 43
0.0
 44
0.0
 45
12.0
 50
0.0
 51
0.0
 72
   100
 90
   557152
  1

281
     0
 71
     1
 74
     0
110
0.0
120
0.0
130
0.0
111
1.0
121
0.0
131
0.0
112
0.0
122
1.0
132
0.0
 79
     0
146
0.0
  0
ENDBLK
  5
536
330
D1
100
AcDbEntity
  8
0
100
AcDbBlockEnd
  0
BLOCK
  5
537
330
105
100
AcDbEntity
  8
0
100
AcDbBlockBegin
  2
Block0
 70
     0
 10
0.0
 20
0.0
 30
0.0
  3
Block0
  1

  0
LINE
  5
102
330
105
100
AcDbEntity
  8
0
  6
DASHDOT
 62
     7
 48
0.21125
370
    13
390
F
100
AcDbLine
 10
183.199081
 20
358.589386
 30
0.0
 11
174.749084
 21
358.589386
 31
0.0
  0
LINE
  5
103
330
105
100
AcDbEntity
  8
0
  6
DASHDOT
 62
     7
 48
0.21125
370
    13
390
F
100
AcDbLine
 10
178.974091
 20
362.814392
 30
0.0
 11
178.974091
 21
354.36438
 31
0.0
  0
ENDBLK
  5
538
330
105
100
AcDbEntity
  8
0
100
AcDbBlockEnd
  0
BLOCK
  5
539
330
10A
100
AcDbEntity
  8
0
100
AcDbBlockBegin
  2
Block1
 70
     0
 10
0.0
 20
0.0
 30
0.0
  3
Block1
  1

  0
LINE
  5
107
330
10A
100
AcDbEntity
  8
0
  6
DASHDOT
 62
     7
 48
0.21125
370
    13
390
F
100
AcDbLine
 10
185.699081
 20
358.589386
 30
0.0
 11
177.249084
 21
358.589386
 31
0.0
  0
LINE
  5
108
330
10A
100
AcDbEntity
  8
0
  6
DASHDOT
 62
     7
 48
0.21125
370
    13
390
F
100
AcDbLine
 10
181.474091
 20
362.814392
 30
0.0
 11
181.474091
 21
354.36438
 31
0.0
  0
ENDBLK
  5
53A
330
10A
100
AcDbEntity
  8
0
100
AcDbBlockEnd
  0
BLOCK
  5
53B
330
10F
100
AcDbEntity
  8
0
100
AcDbBlockBegin
  2
Block2
 70
     0
 10
0.0
 20
0.0
 30
0.0
  3
Block2
  1

  0
LINE
  5
10C
330
10F
100
AcDbEntity
  8
0
  6
DASHDOT
 62
     7
 48
0.21125
370
    13
390
F
100
AcDbLine
 10
153.199081
 20
358.589386
 30
0.0
 11
144.749084
 21
358.589386
 31
0.0
  0
LINE
  5
10D
330
10F
100
AcDbEntity
  8
0
  6
DASHDOT
 62
     7
 48
0.21125
370
    13
390
F
100
AcDbLine
 10
148.974091
 20
362.814392
 30
0.0
 11
148.974091
 21
354.36438
 31
0.0
  0
ENDBLK
  5
53C
330
10F
100
AcDbEntity
  8
0
100
AcDbBlockEnd
  0
BLOCK
  5
53D
330
114
100
AcDbEntity
  8
0
100
AcDbBlockBegin
  2
Block3
 70
     0
 10
0.0
 20
0.0
 30
0.0
  3
Block3
  1

  0
LINE
  5
111
330
114
100
AcDbEntity
  8
0
  6
DASHDOT
 62
     7
 48
0.21125
370
    13
390
F
100
AcDbLine
 10
155.699081
 20
358.589386
 30
0.0
 11
147.249084
 21
358.589386
 31
0.0
  0
LINE
  5
112
330
114
100
AcDbEntity
  8
0
  6
DASHDOT
 62
     7
 48
0.21125
370
    13
390
F
100
AcDbLine
 10
151.474091
 20
362.814392
 30
0.0
 11
151.474091
 21
354.36438
 31
0.0
  0
ENDBLK
  5
53E
330
114
100
AcDbEntity
  8
0
100
AcDbBlockEnd
  0
BLOCK
  5
53F
330
119
100
AcDbEntity
  8
0
100
AcDbBlockBegin
  2
Block4
 70
     0
 10
0.0
 20
0.0
 30
0.0
  3
Block4
  1

  0
LINE
  5
116
330
119
100
AcDbEntity
  8
0
  6
DASHDOT
 62
     7
 48
0.21125
370
    13
390
F
100
AcDbLine
 10
95.699081
 20
358.589386
 30
0.0
 11
87.249084
 21
358.589386
 31
0.0
  0
LINE
  5
117
330
119
100
AcDbEntity
  8
0
  6
DASHDOT
 62
     7
 48
0.21125
370
    13
390
F
100
AcDbLine
 10
91.474083
 20
362.814392
 30
0.0
 11
91.474083
 21
354.36438
 31
0.0
  0
ENDBLK
  5
540
330
119
100
AcDbEntity
  8
0
100
AcDbBlockEnd
  0
BLOCK
  5
541
330
11E
100
AcDbEntity
  8
0
100
AcDbBlockBegin
  2
Block5
 70
     0
 10
0.0
 20
0.0
 30
0.0
  3
Block5
  1

  0
LINE
  5
11B
330
11E
100
AcDbEntity
  8
0
  6
DASHDOT
 62
     7
 48
0.21125
370
    13
390
F
100
AcDbLine
 10
98.199081
 20
358.589386
 30
0.0
 11
89.749084
 21
358.589386
 31
0.0
  0
LINE
  5
11C
330
11E
100
AcDbEntity
  8
0
  6
DASHDOT
 62
     7
 48
0.21125
370
    13
390
F
100
AcDbLine
 10
93.974083
 20
362.814392
 30
0.0
 11
93.974083
 21
354.36438
 31
0.0
  0
ENDBLK
  5
542
330
11E
100
AcDbEntity
  8
0
100
AcDbBlockEnd
  0
BLOCK
  5
543
330
123
100
AcDbEntity
  8
0
100
AcDbBlockBegin
  2
Block6
 70
     0
 10
0.0
 20
0.0
 30
0.0
  3
Block6
  1

  0
LINE
  5
120
330
123
100
AcDbEntity
  8
0
  6
DASHDOT
 62
     7
 48
0.21125
370
    13
390
F
100
AcDbLine
 10
68.199081
 20
358.589386
 30
0.0
 11
59.749084
 21
358.589386
 31
0.0
  0
LINE
  5
121
330
123
100
AcDbEntity
  8
0
  6
DASHDOT
 62
     7
 48
0.21125
370
    13
390
F
100
AcDbLine
 10
63.974083
 20
362.814392
 30
0.0
 11
63.974083
 21
354.36438
 31
0.0
  0
ENDBLK
  5
544
330
123
100
AcDbEntity
  8
0
100
AcDbBlockEnd
  0
BLOCK
  5
545
330
128
100
AcDbEntity
  8
0
100
AcDbBlockBegin
  2
Block7
 70
     0
 10
0.0
 20
0.0
 30
0.0
  3
Block7
  1

  0
LINE
  5
125
330
128
100
AcDbEntity
  8
0
  6
DASHDOT
 62
     7
 48
0.21125
370
    13
390
F
100
AcDbLine
 10
65.699081
 20
358.589386
 30
0.0
 11
57.249084
 21
358.589386
 31
0.0
  0
LINE
  5
126
330
128
100
AcDbEntity
  8
0
  6
DASHDOT
 62
     7
 48
0.21125
370
    13
390
F
100
AcDbLine
 10
61.474083
 20
362.814392
 30
0.0
 11
61.474083
 21
354.36438
 31
0.0
  0
ENDBLK
  5
546
330
128
100
AcDbEntity
  8
0
100
AcDbBlockEnd
  0
BLOCK
  5
547
330
12D
100
AcDbEntity
  8
0
100
AcDbBlockBegin
  2
Block8
 70
     0
 10
0.0
 20
0.0
 30
0.0
  3
Block8
  1

  0
LINE
  5
12A
330
12D
100
AcDbEntity
  8
0
  6
DASHDOT
 62
     7
 48
0.073125
370
    13
390
F
100
AcDbLine
 10
122.936584
 20
341.089386
 30
0.0
 11
120.011581
 21
341.089386
 31
0.0
  0
LINE
  5
12B
330
12D
100
AcDbEntity
  8
0
  6
DASHDOT
 62
     7
 48
0.073125
370
    13
390
F
100
AcDbLine
 10
121.474083
 20
342.55188
 30
0.0
 11
121.474083
 21
339.626892
 31
0.0
  0
ENDBLK
  5
548
330
12D
100
AcDbEntity
  8
0
100
AcDbBlockEnd
  0
BLOCK
  5
549
330
15F
100
AcDbEntity
  8
0
100
AcDbBlockBegin
  2
Block9
 70
     0
 10
0.0
 20
0.0
 30
0.0
  3
Block9
  1

  0
LINE
  5
12F
330
15F
100
AcDbEntity
  8
0
 62
     7
370
    35
390
F
100
AcDbLine
 10
143.974091
 20
189.089386
 30
0.0
 11
121.474083
 21
189.089386
 31
0.0
  0
LINE
  5
130
330
15F
100
AcDbEntity
  8
0
 62
     7
370
    35
390
F
100
AcDbLine
 10
121.474083
 20
189.089386
 30
0.0
 11
98.974083
 21
189.089386
 31
0.0
  0
CIRCLE
  5
131
330
15F
100
AcDbEntity
  8
0
 62
     7
370
    35
390
F
100
AcDbCircle
 10
121.474083
 20
341.089386
 30
0.0
 40
1.125
  0
ARC
  5
132
330
15F
100
AcDbEntity
  8
0
 62
     7
370
    35
390
F
100
AcDbCircle
 10
109.969467
 20
210.066467
 30
0.0
 40
1.751123
100
AcDbArc
 50
309.321483
 51
324.701537
  0
ARC
  5
133
330
15F
100
AcDbEntity
  8
0
 62
     7
370
    35
390
F
100
AcDbCircle
 10
109.710258
 20
210.133179
 30
0.0
 40
2.012319
100
AcDbArc
 50
338.610343
 51
349.477694
  0
LWPOLYLINE
  5
134
330
15F
100
AcDbEntity
  8
0
 62
     7
370
    35
390
F
100
AcDbPolyline
 90
        3
 70
     0
 43
0.0
 10
111.654961
 20
210.566452
 10
111.585663
 20
210.759216
 10
111.512985
 20
210.936417
  0
LWPOLYLINE
  5
135
330
15F
100
AcDbEntity
  8
0
 62
     7
370
    35
390
F
100
AcDbPolyline
 90
        5
 70
     0
 43
0.0
 10
111.292999
 20
211.25885
 10
111.147888
 20
211.404617
 10
111.001198
 20
211.52507
 10
110.838654
 20
211.624252
 10
110.750847
 20
211.66568
  0
LWPOLYLINE
  5
136
330
15F
100
AcDbEntity
  8
0
 62
     7
370
    35
390
F
100
AcDbPolyline
 90
       24
 70
     0
 43
0.0
 10
110.224075
 20
211.776917
 10
110.431618
 20
211.759857
 10
110.635834
 20
211.709427
 10
110.832024
 20
211.626724
 10
111.016014
 20
211.514206
 10
111.184258
 20
211.374771
 10
111.333916
 20
211.210846
 10
111.462517
 20
211.024689
 10
111.567451
 20
210.819275
 10
111.646187
 20
210.598404
 10
111.69651
 20
210.366425
 10
111.716797
 20
210.128189
 10
111.706299
 20
209.88887
 10
111.665352
 20
209.653809
 10
111.595383
 20
209.428253
 10
111.498337
 20
209.216827
 10
111.376488
 20
209.023499
 10
111.232437
 20
208.851669
 10
111.069122
 20
208.704224
 10
110.889793
 20
208.583679
 10
110.697998
 20
208.492172
 10
110.497581
 20
208.431595
 10
110.292648
 20
208.403656
 10
110.224083
 20
208.401886
  0
LWPOLYLINE
  5
137
330
15F
100
AcDbEntity
  8
0
 62
     7
370
    35
390
F
100
AcDbPolyline
 90
       15
 70
     0
 43
0.0
 10
108.794342
 20
210.091415
 10
108.804176
 20
210.288574
 10
108.836205
 20
210.498474
 10
108.889091
 20
210.702347
 10
108.959038
 20
210.883347
 10
109.044754
 20
211.048569
 10
109.143272
 20
211.201553
 10
109.254257
 20
211.336212
 10
109.378105
 20
211.451843
 10
109.510452
 20
211.554398
 10
109.652328
 20
211.639923
 10
109.805527
 20
211.704529
 10
109.968399
 20
211.748932
 10
110.137825
 20
211.773392
 10
110.224075
 20
211.776886
  0
LWPOLYLINE
  5
138
330
15F
100
AcDbEntity
  8
0
 62
     7
370
    35
390
F
100
AcDbPolyline
 90
       13
 70
     0
 43
0.0
 10
110.224075
 20
208.401886
 10
110.027687
 20
208.414917
 10
109.836311
 20
208.457153
 10
109.65403
 20
208.530441
 10
109.484016
 20
208.633682
 10
109.328285
 20
208.764236
 10
109.187431
 20
208.919128
 10
109.063255
 20
209.095596
 10
108.960922
 20
209.290024
 10
108.882828
 20
209.498215
 10
108.829262
 20
209.716064
 10
108.800003
 20
209.940018
 10
108.794342
 20
210.091415
  0
LINE
  5
139
330
15F
100
AcDbEntity
  8
0
 62
     7
 48
0.001284
370
    35
390
F
100
AcDbLine
 10
143.970306
 20
211.725647
 30
0.0
 11
143.974091
 21
211.776886
 31
0.0
  0
ARC
  5
13A
330
15F
100
AcDbEntity
  8
0
 62
     7
370
    35
390
F
100
AcDbCircle
 10
165.005997
 20
210.141708
 30
0.0
 40
21.094349
100
AcDbArc
 50
176.933428
 51
177.807419
  0
LINE
  5
13B
330
15F
100
AcDbEntity
  8
0
 62
     7
 48
0.001107
370
    35
390
F
100
AcDbLine
 10
143.919968
 20
210.732635
 30
0.0
 11
143.921265
 21
210.776886
 31
0.0
  0
ARC
  5
13C
330
15F
100
AcDbEntity
  8
0
 62
     7
370
    35
390
F
100
AcDbCircle
 10
166.191757
 20
210.095352
 30
0.0
 40
22.281092
100
AcDbArc
 50
180.010769
 51
182.148578
  0
LINE
  5
13D
330
15F
100
AcDbEntity
  8
0
 62
     7
 48
0.001475
370
    35
390
F
100
AcDbLine
 10
143.927063
 20
209.228149
 30
0.0
 11
143.925232
 21
209.287109
 31
0.0
  0
ARC
  5
13E
330
15F
100
AcDbEntity
  8
0
 62
     7
370
    35
390
F
100
AcDbCircle
 10
164.955643
 20
209.984116
 30
0.0
 40
21.041124
100
AcDbArc
 50
182.928271
 51
184.311821
  0
LINE
  5
13F
330
15F
100
AcDbEntity
  8
0
 62
     7
 48
0.001333
370
    35
390
F
100
AcDbLine
 10
143.974091
 20
208.401886
 30
0.0
 11
143.970184
 21
208.455048
 31
0.0
  0
LWPOLYLINE
  5
140
330
15F
100
AcDbEntity
  8
0
 62
     7
370
    35
390
F
100
AcDbPolyline
 90
        5
 70
     0
 43
0.0
 10
143.974091
 20
208.401886
 10
143.925552
 20
209.271439
 10
143.910736
 20
210.129471
 10
143.925629
 20
210.904602
 10
143.974091
 20
211.776886
  0
ARC
  5
141
330
15F
100
AcDbEntity
  8
0
 62
     7
370
    35
390
F
100
AcDbCircle
 10
111.677322
 20
210.121719
 30
0.0
 40
1.876904
100
AcDbArc
 50
156.477215
 51
163.977979
  0
ARC
  5
142
330
15F
100
AcDbEntity
  8
0
 62
     7
370
    35
390
F
100
AcDbCircle
 10
111.861084
 20
210.090683
 30
0.0
 40
2.063419
100
AcDbArc
 50
175.410664
 51
190.728497
  0
LWPOLYLINE
  5
143
330
15F
100
AcDbEntity
  8
0
 62
     7
370
    35
390
F
100
AcDbPolyline
 90
        7
 70
     0
 43
0.0
 10
109.932968
 20
209.363037
 10
110.042435
 20
209.135117
 10
110.180252
 20
208.931061
 10
110.341911
 20
208.7556
 10
110.461472
 20
208.656326
 10
110.590073
 20
208.572235
 10
110.727341
 20
208.504074
  0
LWPOLYLINE
  5
144
330
15F
100
AcDbEntity
  8
0
 62
     7
370
    35
390
F
100
AcDbPolyline
 90
       22
 70
     0
 43
0.0
 10
110.717857
 20
208.500122
 10
110.569321
 20
208.576782
 10
110.430733
 20
208.674484
 10
110.302788
 20
208.791229
 10
110.184952
 20
208.924438
 10
110.07885
 20
209.072464
 10
109.988884
 20
209.234711
 10
109.9161
 20
209.408112
 10
109.860306
 20
209.588318
 10
109.821831
 20
209.774918
 10
109.801208
 20
209.965302
 10
109.798615
 20
210.159882
 10
109.816803
 20
210.367401
 10
109.857704
 20
210.580917
 10
109.918648
 20
210.779236
 10
109.998154
 20
210.958496
 10
110.09288
 20
211.124969
 10
110.199417
 20
211.272049
 10
110.316841
 20
211.39798
 10
110.442543
 20
211.508865
 10
110.58065
 20
211.600876
 10
110.732697
 20
211.672623
  0
LINE
  5
145
330
15F
100
AcDbEntity
  8
0
 62
     7
370
    35
390
F
100
AcDbLine
 10
98.974083
 20
189.089386
 30
0.0
 11
98.974083
 21
346.089355
 31
0.0
  0
LINE
  5
146
330
15F
100
AcDbEntity
  8
0
 62
     7
 48
0.482813
370
    35
390
F
100
AcDbLine
 10
143.974091
 20
189.089386
 30
0.0
 11
143.974091
 21
208.401886
 31
0.0
  0
LINE
  5
147
330
15F
100
AcDbEntity
  8
0
 62
     7
370
    35
390
F
100
AcDbLine
 10
143.974091
 20
211.776886
 30
0.0
 11
143.974091
 21
346.089355
 31
0.0
  0
LINE
  5
148
330
15F
100
AcDbEntity
  8
0
 62
     7
370
    35
390
F
100
AcDbLine
 10
186.474091
 20
351.089386
 30
0.0
 11
186.474091
 21
371.089386
 31
0.0
  0
LINE
  5
149
330
15F
100
AcDbEntity
  8
0
 62
     7
370
    35
390
F
100
AcDbLine
 10
56.474083
 20
351.089386
 30
0.0
 11
56.474083
 21
371.089386
 31
0.0
  0
LINE
  5
14A
330
15F
100
AcDbEntity
  8
0
 62
     7
370
    35
390
F
100
AcDbLine
 10
186.474091
 20
371.089386
 30
0.0
 11
56.474083
 21
371.089386
 31
0.0
  0
ARC
  5
14B
330
15F
100
AcDbEntity
  8
0
 62
     7
370
    35
390
F
100
AcDbCircle
 10
181.474091
 20
351.089386
 30
0.0
 40
5.0
100
AcDbArc
 50
270.000001
 51
0.00001
  0
LINE
  5
14C
330
15F
100
AcDbEntity
  8
0
 62
     7
370
    35
390
F
100
AcDbLine
 10
181.474091
 20
346.089386
 30
0.0
 11
61.474083
 21
346.089386
 31
0.0
  0
ARC
  5
14D
330
15F
100
AcDbEntity
  8
0
 62
     7
370
    35
390
F
100
AcDbCircle
 10
61.474083
 20
351.089386
 30
0.0
 40
5.0
100
AcDbArc
 50
180.000005
 51
270.000001
  0
LINE
  5
14E
330
15F
100
AcDbEntity
  8
0
 62
     7
 48
0.0625
370
    35
390
F
100
AcDbLine
 10
148.974091
 20
355.339386
 30
0.0
 11
151.474091
 21
355.339386
 31
0.0
  0
ARC
  5
14F
330
15F
100
AcDbEntity
  8
0
 62
     7
370
    35
390
F
100
AcDbCircle
 10
151.474091
 20
358.589386
 30
0.0
 40
3.25
100
AcDbArc
 50
270.000001
 51
89.99998900000001
  0
LINE
  5
150
330
15F
100
AcDbEntity
  8
0
 62
     7
 48
0.0625
370
    35
390
F
100
AcDbLine
 10
148.974091
 20
361.839386
 30
0.0
 11
151.474091
 21
361.839386
 31
0.0
  0
ARC
  5
151
330
15F
100
AcDbEntity
  8
0
 62
     7
370
    35
390
F
100
AcDbCircle
 10
148.974091
 20
358.589386
 30
0.0
 40
3.25
100
AcDbArc
 50
90.000003
 51
270.000001
  0
LINE
  5
152
330
15F
100
AcDbEntity
  8
0
 62
     7
 48
0.0625
370
    35
390
F
100
AcDbLine
 10
178.974091
 20
355.339386
 30
0.0
 11
181.474091
 21
355.339386
 31
0.0
  0
ARC
  5
153
330
15F
100
AcDbEntity
  8
0
 62
     7
370
    35
390
F
100
AcDbCircle
 10
181.474091
 20
358.589386
 30
0.0
 40
3.25
100
AcDbArc
 50
270.000001
 51
89.99998900000001
  0
LINE
  5
154
330
15F
100
AcDbEntity
  8
0
 62
     7
 48
0.0625
370
    35
390
F
100
AcDbLine
 10
178.974091
 20
361.839386
 30
0.0
 11
181.474091
 21
361.839386
 31
0.0
  0
ARC
  5
155
330
15F
100
AcDbEntity
  8
0
 62
     7
370
    35
390
F
100
AcDbCircle
 10
178.974091
 20
358.589386
 30
0.0
 40
3.25
100
AcDbArc
 50
90.000003
 51
270.000001
  0
LINE
  5
156
330
15F
100
AcDbEntity
  8
0
 62
     7
 48
0.0625
370
    35
390
F
100
AcDbLine
 10
91.474083
 20
361.839386
 30
0.0
 11
93.974083
 21
361.839386
 31
0.0
  0
ARC
  5
157
330
15F
100
AcDbEntity
  8
0
 62
     7
370
    35
390
F
100
AcDbCircle
 10
91.474083
 20
358.589386
 30
0.0
 40
3.25
100
AcDbArc
 50
90.000003
 51
270.000001
  0
LINE
  5
158
330
15F
100
AcDbEntity
  8
0
 62
     7
 48
0.0625
370
    35
390
F
100
AcDbLine
 10
91.474083
 20
355.339386
 30
0.0
 11
93.974083
 21
355.339386
 31
0.0
  0
ARC
  5
159
330
15F
100
AcDbEntity
  8
0
 62
     7
370
    35
390
F
100
AcDbCircle
 10
93.974083
 20
358.589386
 30
0.0
 40
3.25
100
AcDbArc
 50
270.000001
 51
89.99998900000001
  0
LINE
  5
15A
330
15F
100
AcDbEntity
  8
0
 62
     7
 48
0.0625
370
    35
390
F
100
AcDbLine
 10
61.474083
 20
361.839386
 30
0.0
 11
63.974083
 21
361.839386
 31
0.0
  0
ARC
  5
15B
330
15F
100
AcDbEntity
  8
0
 62
     7
370
    35
390
F
100
AcDbCircle
 10
61.474083
 20
358.589386
 30
0.0
 40
3.25
100
AcDbArc
 50
90.000003
 51
270.000001
  0
LINE
  5
15C
330
15F
100
AcDbEntity
  8
0
 62
     7
 48
0.0625
370
    35
390
F
100
AcDbLine
 10
61.474083
 20
355.339386
 30
0.0
 11
63.974083
 21
355.339386
 31
0.0
  0
ARC
  5
15D
330
15F
100
AcDbEntity
  8
0
 62
     7
370
    35
390
F
100
AcDbCircle
 10
63.974083
 20
358.589386
 30
0.0
 40
3.25
100
AcDbArc
 50
270.000001
 51
89.99998900000001
  0
ENDBLK
  5
54A
330
15F
100
AcDbEntity
  8
0
100
AcDbBlockEnd
  0
BLOCK
  5
54B
330
164
100
AcDbEntity
  8
0
100
AcDbBlockBegin
  2
Block10
 70
     0
 10
0.0
 20
0.0
 30
0.0
  3
Block10
  1

  0
LINE
  5
161
330
164
100
AcDbEntity
  8
0
  6
DASHDOT
 62
     7
 48
0.21125
370
    13
390
F
100
AcDbLine
 10
183.199081
 20
100.618362
 30
0.0
 11
174.749084
 21
100.618362
 31
0.0
  0
LINE
  5
162
330
164
100
AcDbEntity
  8
0
  6
DASHDOT
 62
     7
 48
0.21125
370
    13
390
F
100
AcDbLine
 10
178.974091
 20
104.843361
 30
0.0
 11
178.974091
 21
96.393364
 31
0.0
  0
ENDBLK
  5
54C
330
164
100
AcDbEntity
  8
0
100
AcDbBlockEnd
  0
BLOCK
  5
54D
330
169
100
AcDbEntity
  8
0
100
AcDbBlockBegin
  2
Block11
 70
     0
 10
0.0
 20
0.0
 30
0.0
  3
Block11
  1

  0
LINE
  5
166
330
169
100
AcDbEntity
  8
0
  6
DASHDOT
 62
     7
 48
0.21125
370
    13
390
F
100
AcDbLine
 10
185.699081
 20
100.618362
 30
0.0
 11
177.249084
 21
100.618362
 31
0.0
  0
LINE
  5
167
330
169
100
AcDbEntity
  8
0
  6
DASHDOT
 62
     7
 48
0.21125
370
    13
390
F
100
AcDbLine
 10
181.474091
 20
104.843361
 30
0.0
 11
181.474091
 21
96.393364
 31
0.0
  0
ENDBLK
  5
54E
330
169
100
AcDbEntity
  8
0
100
AcDbBlockEnd
  0
BLOCK
  5
54F
330
16E
100
AcDbEntity
  8
0
100
AcDbBlockBegin
  2
Block12
 70
     0
 10
0.0
 20
0.0
 30
0.0
  3
Block12
  1

  0
LINE
  5
16B
330
16E
100
AcDbEntity
  8
0
  6
DASHDOT
 62
     7
 48
0.21125
370
    13
390
F
100
AcDbLine
 10
155.699081
 20
100.618362
 30
0.0
 11
147.249084
 21
100.618362
 31
0.0
  0
LINE
  5
16C
330
16E
100
AcDbEntity
  8
0
  6
DASHDOT
 62
     7
 48
0.21125
370
    13
390
F
100
AcDbLine
 10
151.474091
 20
104.843361
 30
0.0
 11
151.474091
 21
96.393364
 31
0.0
  0
ENDBLK
  5
550
330
16E
100
AcDbEntity
  8
0
100
AcDbBlockEnd
  0
BLOCK
  5
551
330
173
100
AcDbEntity
  8
0
100
AcDbBlockBegin
  2
Block13
 70
     0
 10
0.0
 20
0.0
 30
0.0
  3
Block13
  1

  0
LINE
  5
170
330
173
100
AcDbEntity
  8
0
  6
DASHDOT
 62
     7
 48
0.21125
370
    13
390
F
100
AcDbLine
 10
153.199081
 20
100.618362
 30
0.0
 11
144.749084
 21
100.618362
 31
0.0
  0
LINE
  5
171
330
173
100
AcDbEntity
  8
0
  6
DASHDOT
 62
     7
 48
0.21125
370
    13
390
F
100
AcDbLine
 10
148.974091
 20
104.843361
 30
0.0
 11
148.974091
 21
96.393364
 31
0.0
  0
ENDBLK
  5
552
330
173
100
AcDbEntity
  8
0
100
AcDbBlockEnd
  0
BLOCK
  5
553
330
178
100
AcDbEntity
  8
0
100
AcDbBlockBegin
  2
Block14
 70
     0
 10
0.0
 20
0.0
 30
0.0
  3
Block14
  1

  0
LINE
  5
175
330
178
100
AcDbEntity
  8
0
  6
DASHDOT
 62
     7
 48
0.21125
370
    13
390
F
100
AcDbLine
 10
98.199081
 20
100.618362
 30
0.0
 11
89.749084
 21
100.618362
 31
0.0
  0
LINE
  5
176
330
178
100
AcDbEntity
  8
0
  6
DASHDOT
 62
     7
 48
0.21125
370
    13
390
F
100
AcDbLine
 10
93.974083
 20
104.843361
 30
0.0
 11
93.974083
 21
96.393364
 31
0.0
  0
ENDBLK
  5
554
330
178
100
AcDbEntity
  8
0
100
AcDbBlockEnd
  0
BLOCK
  5
555
330
17D
100
AcDbEntity
  8
0
100
AcDbBlockBegin
  2
Block15
 70
     0
 10
0.0
 20
0.0
 30
0.0
  3
Block15
  1

  0
LINE
  5
17A
330
17D
100
AcDbEntity
  8
0
  6
DASHDOT
 62
     7
 48
0.21125
370
    13
390
F
100
AcDbLine
 10
95.699081
 20
100.618362
 30
0.0
 11
87.249084
 21
100.618362
 31
0.0
  0
LINE
  5
17B
330
17D
100
AcDbEntity
  8
0
  6
DASHDOT
 62
     7
 48
0.21125
370
    13
390
F
100
AcDbLine
 10
91.474083
 20
104.843361
 30
0.0
 11
91.474083
 21
96.393364
 31
0.0
  0
ENDBLK
  5
556
330
17D
100
AcDbEntity
  8
0
100
AcDbBlockEnd
  0
BLOCK
  5
557
330
194
100
AcDbEntity
  8
0
100
AcDbBlockBegin
  2
Block16
 70
     0
 10
0.0
 20
0.0
 30
0.0
  3
Block16
  1

  0
LINE
  5
17F
330
194
100
AcDbEntity
  8
0
 62
     7
370
    35
390
F
100
AcDbLine
 10
186.474091
 20
75.618362
 30
0.0
 11
186.474091
 21
125.618362
 31
0.0
  0
LINE
  5
180
330
194
100
AcDbEntity
  8
0
 62
     7
370
    35
390
F
100
AcDbLine
 10
56.474083
 20
75.618362
 30
0.0
 11
56.474083
 21
125.618362
 31
0.0
  0
LINE
  5
181
330
194
100
AcDbEntity
  8
0
 62
     7
370
    35
390
F
100
AcDbLine
 10
186.474091
 20
125.618362
 30
0.0
 11
56.474083
 21
125.618362
 31
0.0
  0
LINE
  5
182
330
194
100
AcDbEntity
  8
0
 62
     7
370
    35
390
F
100
AcDbLine
 10
186.474091
 20
75.618362
 30
0.0
 11
56.474083
 21
75.618362
 31
0.0
  0
LINE
  5
183
330
194
100
AcDbEntity
  8
0
 62
     7
 48
0.0625
370
    35
390
F
100
AcDbLine
 10
151.474091
 20
97.368362
 30
0.0
 11
148.974091
 21
97.368362
 31
0.0
  0
ARC
  5
184
330
194
100
AcDbEntity
  8
0
 62
     7
370
    35
390
F
100
AcDbCircle
 10
151.474091
 20
100.618362
 30
0.0
 40
3.25
100
AcDbArc
 50
270.000001
 51
89.99998900000001
  0
LINE
  5
185
330
194
100
AcDbEntity
  8
0
 62
     7
 48
0.0625
370
    35
390
F
100
AcDbLine
 10
151.474091
 20
103.868362
 30
0.0
 11
148.974091
 21
103.868362
 31
0.0
  0
ARC
  5
186
330
194
100
AcDbEntity
  8
0
 62
     7
370
    35
390
F
100
AcDbCircle
 10
148.974091
 20
100.618362
 30
0.0
 40
3.25
100
AcDbArc
 50
90.000003
 51
270.000001
  0
LINE
  5
187
330
194
100
AcDbEntity
  8
0
 62
     7
 48
0.0625
370
    35
390
F
100
AcDbLine
 10
181.474091
 20
97.368362
 30
0.0
 11
178.974091
 21
97.368362
 31
0.0
  0
ARC
  5
188
330
194
100
AcDbEntity
  8
0
 62
     7
370
    35
390
F
100
AcDbCircle
 10
181.474091
 20
100.618362
 30
0.0
 40
3.25
100
AcDbArc
 50
270.000001
 51
89.99998900000001
  0
LINE
  5
189
330
194
100
AcDbEntity
  8
0
 62
     7
 48
0.0625
370
    35
390
F
100
AcDbLine
 10
181.474091
 20
103.868362
 30
0.0
 11
178.974091
 21
103.868362
 31
0.0
  0
ARC
  5
18A
330
194
100
AcDbEntity
  8
0
 62
     7
370
    35
390
F
100
AcDbCircle
 10
178.974091
 20
100.618362
 30
0.0
 40
3.25
100
AcDbArc
 50
90.000003
 51
270.000001
  0
LINE
  5
18B
330
194
100
AcDbEntity
  8
0
 62
     7
 48
0.0625
370
    35
390
F
100
AcDbLine
 10
93.974083
 20
103.868362
 30
0.0
 11
91.474083
 21
103.868362
 31
0.0
  0
ARC
  5
18C
330
194
100
AcDbEntity
  8
0
 62
     7
370
    35
390
F
100
AcDbCircle
 10
91.474083
 20
100.618362
 30
0.0
 40
3.25
100
AcDbArc
 50
90.000003
 51
270.000001
  0
LINE
  5
18D
330
194
100
AcDbEntity
  8
0
 62
     7
 48
0.0625
370
    35
390
F
100
AcDbLine
 10
93.974083
 20
97.368362
 30
0.0
 11
91.474083
 21
97.368362
 31
0.0
  0
ARC
  5
18E
330
194
100
AcDbEntity
  8
0
 62
     7
370
    35
390
F
100
AcDbCircle
 10
93.974083
 20
100.618362
 30
0.0
 40
3.25
100
AcDbArc
 50
270.000001
 51
89.99998900000001
  0
LINE
  5
18F
330
194
100
AcDbEntity
  8
0
 62
     7
 48
0.0625
370
    35
390
F
100
AcDbLine
 10
63.974083
 20
103.868362
 30
0.0
 11
61.474083
 21
103.868362
 31
0.0
  0
ARC
  5
190
330
194
100
AcDbEntity
  8
0
 62
     7
370
    35
390
F
100
AcDbCircle
 10
61.474083
 20
100.618362
 30
0.0
 40
3.25
100
AcDbArc
 50
90.000003
 51
270.000001
  0
LINE
  5
191
330
194
100
AcDbEntity
  8
0
 62
     7
 48
0.0625
370
    35
390
F
100
AcDbLine
 10
63.974083
 20
97.368362
 30
0.0
 11
61.474083
 21
97.368362
 31
0.0
  0
ARC
  5
192
330
194
100
AcDbEntity
  8
0
 62
     7
370
    35
390
F
100
AcDbCircle
 10
63.974083
 20
100.618362
 30
0.0
 40
3.25
100
AcDbArc
 50
270.000001
 51
89.99998900000001
  0
ENDBLK
  5
558
330
194
100
AcDbEntity
  8
0
100
AcDbBlockEnd
  0
BLOCK
  5
559
330
198
100
AcDbEntity
  8
0
100
AcDbBlockBegin
  2
Block17
 70
     0
 10
0.0
 20
0.0
 30
0.0
  3
Block17
  1

  0
TEXT
  5
196
330
198
100
AcDbEntity
  8
0
 62
     7
370
    13
390
F
100
AcDbText
 10
-51.984634
 20
426.958588
 30
0.0
 40
14.0
  1
GW85186 TESTA PALO SINGOLO Ø76
 41
0.8871497483766233
 72
     5
 11
312.338196
 21
426.958588
 31
0.0
100
AcDbText
  0
ENDBLK
  5
55A
330
198
100
AcDbEntity
  8
0
100
AcDbBlockEnd
  0
BLOCK
  5
55B
330
1A1
100
AcDbEntity
  8
0
100
AcDbBlockBegin
  2
*D19
 70
     1
 10
0.0
 20
0.0
 30
0.0
  3
*D19
  1

  0
TEXT
  5
19A
330
1A1
100
AcDbEntity
  8
2
 62
    34
370
    13
390
F
100
AcDbText
 10
277.040535
 20
340.812271
 30
0.0
 40
2.5
  1
260
 41
1.200922880000007
 72
     5
 11
284.546303
 21
340.812271
 31
0.0
100
AcDbText
  0
LINE
  5
19B
330
1A1
100
AcDbEntity
  8
2
 62
    34
370
    13
390
F
100
AcDbLine
 10
215.793419
 20
318.889267
 30
0.0
 11
215.793419
 21
340.812271
 31
0.0
  0
LINE
  5
19C
330
1A1
100
AcDbEntity
  8
2
 62
    34
370
    13
390
F
100
AcDbLine
 10
345.793427
 20
318.889267
 30
0.0
 11
345.793427
 21
340.812271
 31
0.0
  0
LWPOLYLINE
  5
19D
330
1A1
100
AcDbEntity
  8
2
 62
    34
370
    13
390
F
100
AcDbPolyline
 90
        3
 70
     0
 43
0.0
 10
343.861572
 20
338.294632
 10
345.793427
 20
338.812271
 10
343.861572
 20
339.32991
  0
LWPOLYLINE
  5
19E
330
1A1
100
AcDbEntity
  8
2
 62
    34
370
    13
390
F
100
AcDbPolyline
 90
        3
 70
     0
 43
0.0
 10
217.725269
 20
339.32991
 10
215.793419
 20
338.812271
 10
217.725269
 20
338.294632
  0
LINE
  5
19F
330
1A1
100
AcDbEntity
  8
2
 62
    34
370
    13
390
F
100
AcDbLine
 10
215.793419
 20
338.812271
 30
0.0
 11
345.793427
 21
338.812271
 31
0.0
  0
ENDBLK
  5
55C
330
1A1
100
AcDbEntity
  8
0
100
AcDbBlockEnd
  0
BLOCK
  5
55D
330
1AA
100
AcDbEntity
  8
0
100
AcDbBlockBegin
  2
*D20
 70
     1
 10
0.0
 20
0.0
 30
0.0
  3
*D20
  1

  0
TEXT
  5
1A3
330
1AA
100
AcDbEntity
  8
2
 62
    34
370
    13
390
F
100
AcDbText
 10
199.023293
 20
301.970688
 30
0.0
 40
2.5
  1
50
 50
90.0
 41
1.289908799999997
 72
     5
 11
199.023293
 21
306.807846
 31
0.0
100
AcDbText
  0
LINE
  5
1A4
330
1AA
100
AcDbEntity
  8
2
 62
    34
 48
0.494253
370
    13
390
F
100
AcDbLine
 10
218.793419
 20
291.889267
 30
0.0
 11
199.023293
 21
291.889267
 31
0.0
  0
LINE
  5
1A5
330
1AA
100
AcDbEntity
  8
2
 62
    34
 48
0.369253
370
    13
390
F
100
AcDbLine
 10
213.793419
 20
316.889267
 30
0.0
 11
199.023293
 21
316.889267
 31
0.0
  0
LWPOLYLINE
  5
1A6
330
1AA
100
AcDbEntity
  8
2
 62
    34
370
    13
390
F
100
AcDbPolyline
 90
        3
 70
     0
 43
0.0
 10
200.505653
 20
293.821121
 10
201.023293
 20
291.889267
 10
201.540932
 20
293.821121
  0
LWPOLYLINE
  5
1A7
330
1AA
100
AcDbEntity
  8
2
 62
    34
370
    13
390
F
100
AcDbPolyline
 90
        3
 70
     0
 43
0.0
 10
201.540932
 20
314.957413
 10
201.023293
 20
316.889267
 10
200.505653
 20
314.957413
  0
LINE
  5
1A8
330
1AA
100
AcDbEntity
  8
2
 62
    34
370
    13
390
F
100
AcDbLine
 10
201.023293
 20
291.889267
 30
0.0
 11
201.023293
 21
316.889267
 31
0.0
  0
ENDBLK
  5
55E
330
1AA
100
AcDbEntity
  8
0
100
AcDbBlockEnd
  0
BLOCK
  5
55F
330
1B4
100
AcDbEntity
  8
0
100
AcDbBlockBegin
  2
*D21
 70
     1
 10
0.0
 20
0.0
 30
0.0
  3
*D21
  1

  0
TEXT
  5
1AC
330
1B4
100
AcDbEntity
  8
2
 62
    34
370
    13
390
F
100
AcDbText
 10
315.093979
 20
119.052887
 30
0.0
 40
2.5
  1
90
 41
1.289917066666673
 72
     5
 11
319.931168
 21
119.052887
 31
0.0
100
AcDbText
  0
TEXT
  5
1AD
330
1B4
100
AcDbEntity
  8
2
 62
    34
370
    13
390
F
100
AcDbText
 10
311.593979
 20
119.052887
 30
0.0
 40
2.5
  1
%%c
 41
1.5
 72
     5
 11
314.093979
 21
119.052887
 31
0.0
100
AcDbText
  0
LINE
  5
1AE
330
1B4
100
AcDbEntity
  8
2
 62
    34
 48
0.44591
370
    13
390
F
100
AcDbLine
 10
258.293419
 20
132.889267
 30
0.0
 11
258.293419
 21
115.052887
 31
0.0
  0
LINE
  5
1AF
330
1B4
100
AcDbEntity
  8
2
 62
    34
 48
0.44591
370
    13
390
F
100
AcDbLine
 10
303.293427
 20
132.889267
 30
0.0
 11
303.293427
 21
115.052887
 31
0.0
  0
LWPOLYLINE
  5
1B0
330
1B4
100
AcDbEntity
  8
2
 62
    34
370
    13
390
F
100
AcDbPolyline
 90
        3
 70
     0
 43
0.0
 10
301.361572
 20
116.535248
 10
303.293427
 20
117.052887
 10
301.361572
 20
117.570526
  0
LWPOLYLINE
  5
1B1
330
1B4
100
AcDbEntity
  8
2
 62
    34
370
    13
390
F
100
AcDbPolyline
 90
        3
 70
     0
 43
0.0
 10
260.225273
 20
117.570526
 10
258.293419
 20
117.052887
 10
260.225273
 20
116.535248
  0
LINE
  5
1B2
330
1B4
100
AcDbEntity
  8
2
 62
    34
370
    13
390
F
100
AcDbLine
 10
258.293419
 20
117.052887
 30
0.0
 11
319.931168
 21
117.052887
 31
0.0
  0
ENDBLK
  5
560
330
1B4
100
AcDbEntity
  8
0
100
AcDbBlockEnd
  0
BLOCK
  5
561
330
1BD
100
AcDbEntity
  8
0
100
AcDbBlockBegin
  2
*D22
 70
     1
 10
0.0
 20
0.0
 30
0.0
  3
*D22
  1

  0
TEXT
  5
1B6
330
1BD
100
AcDbEntity
  8
2
 62
    34
370
    13
390
F
100
AcDbText
 10
362.728638
 20
308.220688
 30
0.0
 40
2.5
  1
25
 50
90.0
 41
1.160917919999997
 72
     5
 11
362.728638
 21
313.057846
 31
0.0
100
AcDbText
  0
LINE
  5
1B7
330
1BD
100
AcDbEntity
  8
2
 62
    34
 48
0.492756
370
    13
390
F
100
AcDbLine
 10
347.018417
 20
304.389267
 30
0.0
 11
366.728638
 21
304.389267
 31
0.0
  0
LINE
  5
1B8
330
1BD
100
AcDbEntity
  8
2
 62
    34
 48
0.47338
370
    13
390
F
100
AcDbLine
 10
347.793427
 20
316.889267
 30
0.0
 11
366.728638
 21
316.889267
 31
0.0
  0
LWPOLYLINE
  5
1B9
330
1BD
100
AcDbEntity
  8
2
 62
    34
370
    13
390
F
100
AcDbPolyline
 90
        3
 70
     0
 43
0.0
 10
365.246277
 20
314.957413
 10
364.728638
 20
316.889267
 10
364.210999
 20
314.957413
  0
LWPOLYLINE
  5
1BA
330
1BD
100
AcDbEntity
  8
2
 62
    34
370
    13
390
F
100
AcDbPolyline
 90
        3
 70
     0
 43
0.0
 10
364.210999
 20
306.321121
 10
364.728638
 20
304.389267
 10
365.246277
 20
306.321121
  0
LINE
  5
1BB
330
1BD
100
AcDbEntity
  8
2
 62
    34
 48
0.3125
370
    13
390
F
100
AcDbLine
 10
364.728638
 20
304.389267
 30
0.0
 11
364.728638
 21
316.889267
 31
0.0
  0
ENDBLK
  5
562
330
1BD
100
AcDbEntity
  8
0
100
AcDbBlockEnd
  0
BLOCK
  5
563
330
1C6
100
AcDbEntity
  8
0
100
AcDbBlockBegin
  2
*D23
 70
     1
 10
0.0
 20
0.0
 30
0.0
  3
*D23
  1

  0
TEXT
  5
1BF
330
1C6
100
AcDbEntity
  8
2
 62
    34
370
    13
390
F
100
AcDbText
 10
335.83844
 20
324.513748
 30
0.0
 40
2.5
  1
5
 41
1.301147400000014
 72
     5
 11
338.007019
 21
324.513748
 31
0.0
100
AcDbText
  0
LINE
  5
1C0
330
1C6
100
AcDbEntity
  8
2
 62
    34
 48
0.347487
370
    13
390
F
100
AcDbLine
 10
338.293427
 20
310.614273
 30
0.0
 11
338.293427
 21
324.513748
 31
0.0
  0
LINE
  5
1C1
330
1C6
100
AcDbEntity
  8
2
 62
    34
 48
0.347487
370
    13
390
F
100
AcDbLine
 10
340.793427
 20
310.614273
 30
0.0
 11
340.793427
 21
324.513748
 31
0.0
  0
LWPOLYLINE
  5
1C2
330
1C6
100
AcDbEntity
  8
2
 62
    34
370
    13
390
F
100
AcDbPolyline
 90
        3
 70
     0
 43
0.0
 10
342.725266
 20
323.031387
 10
340.793427
 20
322.513748
 10
342.725266
 20
321.996109
  0
LWPOLYLINE
  5
1C3
330
1C6
100
AcDbEntity
  8
2
 62
    34
370
    13
390
F
100
AcDbPolyline
 90
        3
 70
     0
 43
0.0
 10
336.361572
 20
321.996109
 10
338.293427
 20
322.513748
 10
336.361572
 20
323.031387
  0
LINE
  5
1C4
330
1C6
100
AcDbEntity
  8
2
 62
    34
 48
0.3125
370
    13
390
F
100
AcDbLine
 10
333.293427
 20
322.513748
 30
0.0
 11
345.793427
 21
322.513748
 31
0.0
  0
ENDBLK
  5
564
330
1C6
100
AcDbEntity
  8
0
100
AcDbBlockEnd
  0
BLOCK
  5
565
330
1CF
100
AcDbEntity
  8
0
100
AcDbBlockBegin
  2
*D24
 70
     1
 10
0.0
 20
0.0
 30
0.0
  3
*D24
  1

  0
TEXT
  5
1C8
330
1CF
100
AcDbEntity
  8
2
 62
    34
370
    13
390
F
100
AcDbText
 10
302.235916
 20
324.101273
 30
0.0
 40
2.5
  1
5
 41
1.301147400000014
 72
     5
 11
304.404495
 21
324.101273
 31
0.0
100
AcDbText
  0
LINE
  5
1C9
330
1CF
100
AcDbEntity
  8
2
 62
    34
 48
0.337175
370
    13
390
F
100
AcDbLine
 10
308.293427
 20
310.614273
 30
0.0
 11
308.293427
 21
324.101273
 31
0.0
  0
LINE
  5
1CA
330
1CF
100
AcDbEntity
  8
2
 62
    34
 48
0.337175
370
    13
390
F
100
AcDbLine
 10
310.793427
 20
310.614273
 30
0.0
 11
310.793427
 21
324.101273
 31
0.0
  0
LWPOLYLINE
  5
1CB
330
1CF
100
AcDbEntity
  8
2
 62
    34
370
    13
390
F
100
AcDbPolyline
 90
        3
 70
     0
 43
0.0
 10
306.361572
 20
321.583633
 10
308.293427
 20
322.101273
 10
306.361572
 20
322.618912
  0
LWPOLYLINE
  5
1CC
330
1CF
100
AcDbEntity
  8
2
 62
    34
370
    13
390
F
100
AcDbPolyline
 90
        3
 70
     0
 43
0.0
 10
312.725266
 20
322.618912
 10
310.793427
 20
322.101273
 10
312.725266
 20
321.583633
  0
LINE
  5
1CD
330
1CF
100
AcDbEntity
  8
2
 62
    34
 48
0.338938
370
    13
390
F
100
AcDbLine
 10
302.235916
 20
322.101273
 30
0.0
 11
315.793427
 21
322.101273
 31
0.0
  0
ENDBLK
  5
566
330
1CF
100
AcDbEntity
  8
0
100
AcDbBlockEnd
  0
BLOCK
  5
567
330
1D8
100
AcDbEntity
  8
0
100
AcDbBlockBegin
  2
*D25
 70
     1
 10
0.0
 20
0.0
 30
0.0
  3
*D25
  1

  0
TEXT
  5
1D1
330
1D8
100
AcDbEntity
  8
2
 62
    34
370
    13
390
F
100
AcDbText
 10
277.040535
 20
331.525803
 30
0.0
 40
2.5
  1
110
 41
1.637622109090919
 72
     5
 11
284.546303
 21
331.525803
 31
0.0
100
AcDbText
  0
LINE
  5
1D2
330
1D8
100
AcDbEntity
  8
2
 62
    34
370
    13
390
F
100
AcDbLine
 10
253.293419
 20
310.614273
 30
0.0
 11
253.293419
 21
331.525803
 31
0.0
  0
LINE
  5
1D3
330
1D8
100
AcDbEntity
  8
2
 62
    34
370
    13
390
F
100
AcDbLine
 10
308.293427
 20
310.614273
 30
0.0
 11
308.293427
 21
331.525803
 31
0.0
  0
LWPOLYLINE
  5
1D4
330
1D8
100
AcDbEntity
  8
2
 62
    34
370
    13
390
F
100
AcDbPolyline
 90
        3
 70
     0
 43
0.0
 10
255.225273
 20
330.043442
 10
253.293419
 20
329.525803
 10
255.225273
 20
329.008163
  0
LWPOLYLINE
  5
1D5
330
1D8
100
AcDbEntity
  8
2
 62
    34
370
    13
390
F
100
AcDbPolyline
 90
        3
 70
     0
 43
0.0
 10
306.361572
 20
329.008163
 10
308.293427
 20
329.525803
 10
306.361572
 20
330.043442
  0
LINE
  5
1D6
330
1D8
100
AcDbEntity
  8
2
 62
    34
370
    13
390
F
100
AcDbLine
 10
253.293419
 20
329.525803
 30
0.0
 11
308.293427
 21
329.525803
 31
0.0
  0
ENDBLK
  5
568
330
1D8
100
AcDbEntity
  8
0
100
AcDbBlockEnd
  0
BLOCK
  5
569
330
1E0
100
AcDbEntity
  8
0
100
AcDbBlockBegin
  2
*D26
 70
     1
 10
0.0
 20
0.0
 30
0.0
  3
*D26
  1

  0
TEXT
  5
1DA
330
1E0
100
AcDbEntity
  8
2
 62
    34
370
    13
390
F
100
AcDbText
 10
315.842331
 20
282.296494
 30
0.0
 40
2.500000000000024
  1
13
 50
48.17953231572834
 41
1.451157376506326
 72
     5
 11
319.067764
 21
285.901352
 31
0.0
100
AcDbText
  0
TEXT
  5
1DB
330
1E0
100
AcDbEntity
  8
2
 62
    34
370
    13
390
F
100
AcDbText
 10
313.508545
 20
279.688156
 30
0.0
 40
2.499999999999957
  1
%%c
 50
48.17966651453128
 41
1.499999578280115
 72
     5
 11
315.175537
 21
281.551254
 31
0.0
100
AcDbText
  0
LWPOLYLINE
  5
1DC
330
1E0
100
AcDbEntity
  8
2
 62
    34
370
    13
390
F
100
AcDbPolyline
 90
        3
 70
     0
 43
0.0
 10
341.3629
 20
308.596146
 10
340.46051
 20
306.811295
 10
342.13443
 20
307.905807
  0
LWPOLYLINE
  5
1DD
330
1E0
100
AcDbEntity
  8
2
 62
    34
370
    13
390
F
100
AcDbPolyline
 90
        3
 70
     0
 43
0.0
 10
335.223938
 20
300.182388
 10
336.126328
 20
301.967239
 10
334.452408
 20
300.872696
  0
LINE
  5
1DE
330
1E0
100
AcDbEntity
  8
2
 62
    34
370
    13
390
F
100
AcDbLine
 10
314.999023
 20
278.354568
 30
0.0
 11
343.79451
 21
310.537491
 31
0.0
  0
ENDBLK
  5
56A
330
1E0
100
AcDbEntity
  8
0
100
AcDbBlockEnd
  0
BLOCK
  5
56B
330
1E9
100
AcDbEntity
  8
0
100
AcDbBlockBegin
  2
*D27
 70
     1
 10
0.0
 20
0.0
 30
0.0
  3
*D27
  1

  0
TEXT
  5
1E2
330
1E9
100
AcDbEntity
  8
2
 62
    34
370
    13
390
F
100
AcDbText
 10
348.280212
 20
81.738388
 30
0.0
 40
2.5
  1
5
 41
1.301148000000012
 72
     5
 11
350.448792
 21
81.738388
 31
0.0
100
AcDbText
  0
LINE
  5
1E3
330
1E9
100
AcDbEntity
  8
2
 62
    34
370
    13
390
F
100
AcDbLine
 10
338.29686
 20
48.418243
 30
0.0
 11
338.29686
 21
81.738388
 31
0.0
  0
LINE
  5
1E4
330
1E9
100
AcDbEntity
  8
2
 62
    34
370
    13
390
F
100
AcDbLine
 10
340.793427
 20
48.418243
 30
0.0
 11
340.793427
 21
81.738388
 31
0.0
  0
LWPOLYLINE
  5
1E5
330
1E9
100
AcDbEntity
  8
2
 62
    34
370
    13
390
F
100
AcDbPolyline
 90
        3
 70
     0
 43
0.0
 10
336.365005
 20
79.220764
 10
338.29686
 20
79.738388
 10
336.365005
 20
80.256027
  0
LWPOLYLINE
  5
1E6
330
1E9
100
AcDbEntity
  8
2
 62
    34
370
    13
390
F
100
AcDbPolyline
 90
        3
 70
     0
 43
0.0
 10
342.725266
 20
80.256027
 10
340.793427
 20
79.738388
 10
342.725266
 20
79.220764
  0
LINE
  5
1E7
330
1E9
100
AcDbEntity
  8
2
 62
    34
 48
0.428798
370
    13
390
F
100
AcDbLine
 10
333.29686
 20
79.738388
 30
0.0
 11
350.448792
 21
79.738388
 31
0.0
  0
ENDBLK
  5
56C
330
1E9
100
AcDbEntity
  8
0
100
AcDbBlockEnd
  0
BLOCK
  5
56D
330
1F2
100
AcDbEntity
  8
0
100
AcDbBlockBegin
  2
*D28
 70
     1
 10
0.0
 20
0.0
 30
0.0
  3
*D28
  1

  0
TEXT
  5
1EB
330
1F2
100
AcDbEntity
  8
2
 62
    34
370
    13
390
F
100
AcDbText
 10
322.126541
 20
89.738663
 30
0.0
 40
2.5
  1
55
 41
1.160925360000006
 72
     5
 11
326.96373
 21
89.738663
 31
0.0
100
AcDbText
  0
LINE
  5
1EC
330
1F2
100
AcDbEntity
  8
2
 62
    34
370
    13
390
F
100
AcDbLine
 10
310.793427
 20
44.193245
 30
0.0
 11
310.793427
 21
89.738663
 31
0.0
  0
LINE
  5
1ED
330
1F2
100
AcDbEntity
  8
2
 62
    34
370
    13
390
F
100
AcDbLine
 10
338.29686
 20
48.418243
 30
0.0
 11
338.29686
 21
89.738663
 31
0.0
  0
LWPOLYLINE
  5
1EE
330
1F2
100
AcDbEntity
  8
2
 62
    34
370
    13
390
F
100
AcDbPolyline
 90
        3
 70
     0
 43
0.0
 10
336.365005
 20
87.221024
 10
338.29686
 20
87.738663
 10
336.365005
 20
88.256302
  0
LWPOLYLINE
  5
1EF
330
1F2
100
AcDbEntity
  8
2
 62
    34
370
    13
390
F
100
AcDbPolyline
 90
        3
 70
     0
 43
0.0
 10
312.725266
 20
88.256302
 10
310.793427
 20
87.738663
 10
312.725266
 20
87.221024
  0
LINE
  5
1F0
330
1F2
100
AcDbEntity
  8
2
 62
    34
370
    13
390
F
100
AcDbLine
 10
310.793427
 20
87.738663
 30
0.0
 11
338.29686
 21
87.738663
 31
0.0
  0
ENDBLK
  5
56E
330
1F2
100
AcDbEntity
  8
0
100
AcDbBlockEnd
  0
BLOCK
  5
56F
330
1FB
100
AcDbEntity
  8
0
100
AcDbBlockBegin
  2
*D29
 70
     1
 10
0.0
 20
0.0
 30
0.0
  3
*D29
  1

  0
TEXT
  5
1F4
330
1FB
100
AcDbEntity
  8
2
 62
    34
370
    13
390
F
100
AcDbText
 10
302.022705
 20
81.106812
 30
0.0
 40
2.5
  1
5
 41
1.301147400000014
 72
     5
 11
304.191284
 21
81.106812
 31
0.0
100
AcDbText
  0
LINE
  5
1F5
330
1FB
100
AcDbEntity
  8
2
 62
    34
370
    13
390
F
100
AcDbLine
 10
308.293427
 20
44.193245
 30
0.0
 11
308.293427
 21
81.106812
 31
0.0
  0
LINE
  5
1F6
330
1FB
100
AcDbEntity
  8
2
 62
    34
370
    13
390
F
100
AcDbLine
 10
310.793427
 20
44.193245
 30
0.0
 11
310.793427
 21
81.106812
 31
0.0
  0
LWPOLYLINE
  5
1F7
330
1FB
100
AcDbEntity
  8
2
 62
    34
370
    13
390
F
100
AcDbPolyline
 90
        3
 70
     0
 43
0.0
 10
312.725266
 20
79.624451
 10
310.793427
 20
79.106812
 10
312.725266
 20
78.589172
  0
LWPOLYLINE
  5
1F8
330
1FB
100
AcDbEntity
  8
2
 62
    34
370
    13
390
F
100
AcDbPolyline
 90
        3
 70
     0
 43
0.0
 10
306.361572
 20
78.589172
 10
308.293427
 20
79.106812
 10
306.361572
 20
79.624451
  0
LINE
  5
1F9
330
1FB
100
AcDbEntity
  8
2
 62
    34
 48
0.344268
370
    13
390
F
100
AcDbLine
 10
302.022705
 20
79.106812
 30
0.0
 11
315.793427
 21
79.106812
 31
0.0
  0
ENDBLK
  5
570
330
1FB
100
AcDbEntity
  8
0
100
AcDbBlockEnd
  0
BLOCK
  5
571
330
204
100
AcDbEntity
  8
0
100
AcDbBlockBegin
  2
*D30
 70
     1
 10
0.0
 20
0.0
 30
0.0
  3
*D30
  1

  0
TEXT
  5
1FD
330
204
100
AcDbEntity
  8
2
 62
    34
370
    13
390
F
100
AcDbText
 10
292.124832
 20
89.738663
 30
0.0
 40
2.5
  1
55
 41
1.160925359999992
 72
     5
 11
296.962021
 21
89.738663
 31
0.0
100
AcDbText
  0
LINE
  5
1FE
330
204
100
AcDbEntity
  8
2
 62
    34
370
    13
390
F
100
AcDbLine
 10
280.793419
 20
48.418243
 30
0.0
 11
280.793419
 21
89.738663
 31
0.0
  0
LINE
  5
1FF
330
204
100
AcDbEntity
  8
2
 62
    34
370
    13
390
F
100
AcDbLine
 10
308.293427
 20
44.193245
 30
0.0
 11
308.293427
 21
89.738663
 31
0.0
  0
LWPOLYLINE
  5
200
330
204
100
AcDbEntity
  8
2
 62
    34
370
    13
390
F
100
AcDbPolyline
 90
        3
 70
     0
 43
0.0
 10
282.725273
 20
88.256302
 10
280.793419
 20
87.738663
 10
282.725273
 20
87.221024
  0
LWPOLYLINE
  5
201
330
204
100
AcDbEntity
  8
2
 62
    34
370
    13
390
F
100
AcDbPolyline
 90
        3
 70
     0
 43
0.0
 10
306.361572
 20
87.221024
 10
308.293427
 20
87.738663
 10
306.361572
 20
88.256302
  0
LINE
  5
202
330
204
100
AcDbEntity
  8
2
 62
    34
370
    13
390
F
100
AcDbLine
 10
280.793419
 20
87.738663
 30
0.0
 11
308.293427
 21
87.738663
 31
0.0
  0
ENDBLK
  5
572
330
204
100
AcDbEntity
  8
0
100
AcDbBlockEnd
  0
BLOCK
  5
573
330
20D
100
AcDbEntity
  8
0
100
AcDbBlockBegin
  2
*D31
 70
     1
 10
0.0
 20
0.0
 30
0.0
  3
*D31
  1

  0
TEXT
  5
206
330
20D
100
AcDbEntity
  8
0
 62
    34
370
    13
390
F
100
AcDbText
 10
382.359131
 20
220.635239
 30
0.0
 40
3.5
  1
360
 50
90.0
 41
1.200920685714284
 72
     5
 11
382.359131
 21
231.143295
 31
0.0
100
AcDbText
  0
LINE
  5
207
330
20D
100
AcDbEntity
  8
0
 62
    34
370
    13
390
F
100
AcDbLine
 10
305.293427
 20
134.889267
 30
0.0
 11
386.359131
 21
134.889267
 31
0.0
  0
LINE
  5
208
330
20D
100
AcDbEntity
  8
0
 62
    34
370
    13
390
F
100
AcDbLine
 10
347.793427
 20
316.889267
 30
0.0
 11
386.359131
 21
316.889267
 31
0.0
  0
LWPOLYLINE
  5
209
330
20D
100
AcDbEntity
  8
0
 62
    34
370
    13
390
F
100
AcDbPolyline
 90
        3
 70
     0
 43
0.0
 10
384.87677
 20
314.957413
 10
384.359131
 20
316.889267
 10
383.841492
 20
314.957413
  0
LWPOLYLINE
  5
20A
330
20D
100
AcDbEntity
  8
0
 62
    34
370
    13
390
F
100
AcDbPolyline
 90
        3
 70
     0
 43
0.0
 10
383.841492
 20
136.821121
 10
384.359131
 20
134.889267
 10
384.87677
 20
136.821121
  0
LINE
  5
20B
330
20D
100
AcDbEntity
  8
0
 62
    34
370
    13
390
F
100
AcDbLine
 10
384.359131
 20
134.889267
 30
0.0
 11
384.359131
 21
316.889267
 31
0.0
  0
ENDBLK
  5
574
330
20D
100
AcDbEntity
  8
0
100
AcDbBlockEnd
  0
BLOCK
  5
575
330
245
100
AcDbEntity
  8
0
100
AcDbBlockBegin
  2
*D32
 70
     1
 10
0.0
 20
0.0
 30
0.0
  3
*D32
  1

  0
POINT
  5
23A
330
245
100
AcDbEntity
  8
DEFPOINTS
  6
ByBlock
 62
     0
380
     1
100
AcDbPoint
 10
431.586838
 20
633.77853
 30
0.0
  0
POINT
  5
23C
330
245
100
AcDbEntity
  8
DEFPOINTS
  6
ByBlock
 62
     0
380
     1
100
AcDbPoint
 10
691.586838
 20
633.77853
 30
0.0
  0
LINE
  5
23D
330
245
100
AcDbEntity
  8
0
  6
ByBlock
 62
     0
370
    -2
380
     1
100
AcDbLine
 10
431.5868385203263
 20
633.84103
 30
0.0
 11
431.5872045262424
 21
677.80454
 31
0.0
  0
LINE
  5
23E
330
245
100
AcDbEntity
  8
0
  6
ByBlock
 62
     0
370
    -2
380
     1
100
AcDbLine
 10
691.5868385203262
 20
633.84103
 30
0.0
 11
691.5872045262424
 21
677.80454
 31
0.0
  0
LINE
  5
23F
330
245
100
AcDbEntity
  8
0
  6
ByBlock
 62
     0
370
    -2
380
     1
100
AcDbLine
 10
431.7672030277027
 20
677.62454
 30
0.0
 11
561.076838
 21
677.62454
 31
0.0
  0
LINE
  5
240
330
245
100
AcDbEntity
  8
0
  6
ByBlock
 62
     0
370
    -2
380
     1
100
AcDbLine
 10
691.4072030277026
 20
677.62454
 30
0.0
 11
562.0968379999999
 21
677.62454
 31
0.0
  0
SOLID
  5
241
330
245
100
AcDbEntity
  8
0
  6
ByBlock
 62
     0
380
     1
100
AcDbTrace
 10
431.5872030277027
 20
677.62454
 30
0.0
 11
431.7672030277027
 21
677.59454
 31
0.0
 12
431.7672030277027
 22
677.65454
 32
0.0
 13
431.7672030277027
 23
677.65454
 33
0.0
  0
SOLID
  5
242
330
245
100
AcDbEntity
  8
0
  6
ByBlock
 62
     0
380
     1
100
AcDbTrace
 10
691.5872030277026
 20
677.62454
 30
0.0
 11
691.4072030277026
 21
677.59454
 31
0.0
 12
691.4072030277026
 22
677.65454
 32
0.0
 13
691.4072030277026
 23
677.65454
 33
0.0
  0
MTEXT
  5
243
330
245
100
AcDbEntity
  8
0
  6
ByBlock
 62
     0
370
    -2
380
     1
100
AcDbMText
 10
561.586838
 20
677.62454
 30
0.0
 40
0.18
 41
0.0
 71
     5
 72
     1
  1
260,00
 73
     1
 44
1.0
  0
ENDBLK
  5
576
330
245
100
AcDbEntity
  8
0
100
AcDbBlockEnd
  0
BLOCK
  5
577
330
252
100
AcDbEntity
  8
0
100
AcDbBlockBegin
  2
*D33
 70
     1
 10
0.0
 20
0.0
 30
0.0
  3
*D33
  1

  0
POINT
  5
248
330
252
100
AcDbEntity
  8
DEFPOINTS
  6
ByBlock
 62
     0
380
     1
100
AcDbPoint
 10
431.586838
 20
633.77853
 30
0.0
  0
POINT
  5
249
330
252
100
AcDbEntity
  8
DEFPOINTS
  6
ByBlock
 62
     0
380
     1
100
AcDbPoint
 10
441.586838
 20
583.77853
 30
0.0
  0
LINE
  5
24A
330
252
100
AcDbEntity
  8
0
  6
ByBlock
 62
     0
370
    -2
380
     1
100
AcDbLine
 10
431.5243380000065
 20
633.7785310406526
 30
0.0
 11
401.8678347953827
 21
633.7790248345115
 31
0.0
  0
LINE
  5
24B
330
252
100
AcDbEntity
  8
0
  6
ByBlock
 62
     0
370
    -2
380
     1
100
AcDbLine
 10
441.5243380000065
 20
583.7785310406526
 30
0.0
 11
401.8665860164617
 21
583.7791913597148
 31
0.0
  0
LINE
  5
24C
330
252
100
AcDbEntity
  8
0
  6
ByBlock
 62
     0
370
    -2
380
     1
100
AcDbLine
 10
402.047830299745
 20
633.5990218374882
 30
0.0
 11
402.0472208813175
 21
609.1985299842745
 31
0.0
  0
LINE
  5
24D
330
252
100
AcDbEntity
  8
0
  6
ByBlock
 62
     0
370
    -2
380
     1
100
AcDbLine
 10
402.0465905120621
 20
583.9591883625793
 30
0.0
 11
402.0471999017618
 21
608.3585299845364
 31
0.0
  0
SOLID
  5
24E
330
252
100
AcDbEntity
  8
0
  6
ByBlock
 62
     0
380
     1
100
AcDbTrace
 10
402.0478347953641
 20
633.7790218374321
 30
0.0
 11
402.0178302997543
 21
633.599022586758
 31
0.0
 12
402.0778302997356
 22
633.5990210882184
 32
0.0
 13
402.0778302997356
 23
633.5990210882184
 33
0.0
  0
SOLID
  5
24F
330
252
100
AcDbEntity
  8
0
  6
ByBlock
 62
     0
380
     1
100
AcDbTrace
 10
402.046586016443
 20
583.7791883626354
 30
0.0
 11
402.0165905120714
 21
583.9591891118491
 31
0.0
 12
402.0765905120527
 22
583.9591876133095
 32
0.0
 13
402.0765905120527
 23
583.9591876133095
 33
0.0
  0
MTEXT
  5
250
330
252
100
AcDbEntity
  8
0
  6
ByBlock
 62
     0
370
    -2
380
     1
100
AcDbMText
 10
402.0472103915396
 20
608.7785299844055
 30
0.0
 40
0.18
 41
0.0
 71
     5
 72
     1
  1
50,00
 73
     1
 44
1.0
  0
ENDBLK
  5
578
330
252
100
AcDbEntity
  8
0
100
AcDbBlockEnd
  0
BLOCK
  5
579
330
25F
100
AcDbEntity
  8
0
100
AcDbBlockBegin
  2
*D34
 70
     1
 10
0.0
 20
0.0
 30
0.0
  3
*D34
  1

  0
POINT
  5
255
330
25F
100
AcDbEntity
  8
DEFPOINTS
  6
ByBlock
 62
     0
380
     1
100
AcDbPoint
 10
516.586838
 20
269.77853
 30
0.0
  0
POINT
  5
256
330
25F
100
AcDbEntity
  8
DEFPOINTS
  6
ByBlock
 62
     0
380
     1
100
AcDbPoint
 10
606.586838
 20
269.77853
 30
0.0
  0
LINE
  5
257
330
25F
100
AcDbEntity
  8
0
  6
ByBlock
 62
     0
370
    -2
380
     1
100
AcDbLine
 10
516.5868385203262
 20
269.71603
 30
0.0
 11
516.5871364821336
 21
233.92577
 31
0.0
  0
LINE
  5
258
330
25F
100
AcDbEntity
  8
0
  6
ByBlock
 62
     0
370
    -2
380
     1
100
AcDbLine
 10
606.5868385203262
 20
269.71603
 30
0.0
 11
606.5871364821336
 21
233.92577
 31
0.0
  0
LINE
  5
259
330
25F
100
AcDbEntity
  8
0
  6
ByBlock
 62
     0
370
    -2
380
     1
100
AcDbLine
 10
516.7671364821337
 20
234.10577
 30
0.0
 11
606.4071349835939
 21
234.10577
 31
0.0
  0
LINE
  5
25A
330
25F
100
AcDbEntity
  8
0
  6
ByBlock
 62
     0
370
    -2
380
     1
100
AcDbLine
 10
606.5868385203262
 20
234.10577
 30
0.0
 11
631.015146
 21
234.10577
 31
0.0
  0
SOLID
  5
25B
330
25F
100
AcDbEntity
  8
0
  6
ByBlock
 62
     0
380
     1
100
AcDbTrace
 10
516.587134983594
 20
234.10577
 30
0.0
 11
516.7671349835939
 21
234.07577
 31
0.0
 12
516.7671349835939
 22
234.13577
 32
0.0
 13
516.7671349835939
 23
234.13577
 33
0.0
  0
SOLID
  5
25C
330
25F
100
AcDbEntity
  8
0
  6
ByBlock
 62
     0
380
     1
100
AcDbTrace
 10
606.587134983594
 20
234.10577
 30
0.0
 11
606.4071349835939
 21
234.07577
 31
0.0
 12
606.4071349835939
 22
234.13577
 32
0.0
 13
606.4071349835939
 23
234.13577
 33
0.0
  0
MTEXT
  5
25D
330
25F
100
AcDbEntity
  8
0
  6
ByBlock
 62
     0
370
    -2
380
     1
100
AcDbMText
 10
631.525146
 20
234.10577
 30
0.0
 40
0.18
 41
0.0
 71
     5
 72
     1
  1
%%c90,00
 73
     1
 44
1.0
  0
ENDBLK
  5
57A
330
25F
100
AcDbEntity
  8
0
100
AcDbBlockEnd
  0
BLOCK
  5
57B
330
26C
100
AcDbEntity
  8
0
100
AcDbBlockBegin
  2
*D35
 70
     1
 10
0.0
 20
0.0
 30
0.0
  3
*D35
  1

  0
POINT
  5
262
330
26C
100
AcDbEntity
  8
DEFPOINTS
  6
ByBlock
 62
     0
380
     1
100
AcDbPoint
 10
690.036838
 20
608.77853
 30
0.0
  0
POINT
  5
263
330
26C
100
AcDbEntity
  8
DEFPOINTS
  6
ByBlock
 62
     0
380
     1
100
AcDbPoint
 10
691.586838
 20
633.77853
 30
0.0
  0
LINE
  5
264
330
26C
100
AcDbEntity
  8
0
  6
ByBlock
 62
     0
370
    -2
380
     1
100
AcDbLine
 10
690.0993380000021
 20
608.77853
 30
0.0
 11
729.6370678694929
 21
608.77853
 31
0.0
  0
LINE
  5
265
330
26C
100
AcDbEntity
  8
0
  6
ByBlock
 62
     0
370
    -2
380
     1
100
AcDbLine
 10
691.6493380000021
 20
633.77853
 30
0.0
 11
729.6372760000062
 21
633.77853
 31
0.0
  0
LINE
  5
266
330
26C
100
AcDbEntity
  8
0
  6
ByBlock
 62
     0
370
    -2
380
     1
100
AcDbLine
 10
729.4570693680264
 20
608.9585299999939
 30
0.0
 11
729.4571683132724
 21
620.8435300008815
 31
0.0
  0
LINE
  5
267
330
26C
100
AcDbEntity
  8
0
  6
ByBlock
 62
     0
370
    -2
380
     1
100
AcDbLine
 10
729.4572745014602
 20
633.5985300000062
 30
0.0
 11
729.4571755562142
 21
621.7135300008514
 31
0.0
  0
SOLID
  5
268
330
26C
100
AcDbEntity
  8
0
  6
ByBlock
 62
     0
380
     1
100
AcDbTrace
 10
729.4570678694867
 20
608.77853
 30
0.0
 11
729.4870693680253
 21
608.9585297502372
 31
0.0
 12
729.4270693680274
 22
608.9585302497504
 32
0.0
 13
729.4270693680274
 23
608.9585302497504
 33
0.0
  0
SOLID
  5
269
330
26C
100
AcDbEntity
  8
0
  6
ByBlock
 62
     0
380
     1
100
AcDbTrace
 10
729.457276
 20
633.77853
 30
0.0
 11
729.4872745014593
 21
633.5985297502497
 31
0.0
 12
729.4272745014613
 22
633.5985302497629
 32
0.0
 13
729.4272745014613
 23
633.5985302497629
 33
0.0
  0
MTEXT
  5
26A
330
26C
100
AcDbEntity
  8
0
  6
ByBlock
 62
     0
370
    -2
380
     1
100
AcDbMText
 10
729.4571719347433
 20
621.2785300008665
 30
0.0
 40
0.18
 41
0.0
 71
     5
 72
     1
  1
25,00
 73
     1
 44
1.0
  0
ENDBLK
  5
57C
330
26C
100
AcDbEntity
  8
0
100
AcDbBlockEnd
  0
BLOCK
  5
57D
330
279
100
AcDbEntity
  8
0
100
AcDbBlockBegin
  2
*D36
 70
     1
 10
0.0
 20
0.0
 30
0.0
  3
*D36
  1

  0
POINT
  5
26F
330
279
100
AcDbEntity
  8
DEFPOINTS
  6
ByBlock
 62
     0
380
     1
100
AcDbPoint
 10
676.586838
 20
617.22853
 30
0.0
  0
POINT
  5
270
330
279
100
AcDbEntity
  8
DEFPOINTS
  6
ByBlock
 62
     0
380
     1
100
AcDbPoint
 10
681.586838
 20
617.22853
 30
0.0
  0
LINE
  5
271
330
279
100
AcDbEntity
  8
0
  6
ByBlock
 62
     0
370
    -2
380
     1
100
AcDbLine
 10
676.5868385203262
 20
617.29103
 30
0.0
 11
676.5870709310456
 21
645.207494
 31
0.0
  0
LINE
  5
272
330
279
100
AcDbEntity
  8
0
  6
ByBlock
 62
     0
370
    -2
380
     1
100
AcDbLine
 10
681.5868385203262
 20
617.29103
 30
0.0
 11
681.5870709310456
 21
645.207494
 31
0.0
  0
LINE
  5
273
330
279
100
AcDbEntity
  8
0
  6
ByBlock
 62
     0
370
    -2
380
     1
100
AcDbLine
 10
676.7670709310455
 20
645.027494
 30
0.0
 11
681.4070694325059
 21
645.027494
 31
0.0
  0
LINE
  5
274
330
279
100
AcDbEntity
  8
0
  6
ByBlock
 62
     0
370
    -2
380
     1
100
AcDbLine
 10
676.5868385203262
 20
645.027494
 30
0.0
 11
674.19046
 21
645.027494
 31
0.0
  0
SOLID
  5
275
330
279
100
AcDbEntity
  8
0
  6
ByBlock
 62
     0
380
     1
100
AcDbTrace
 10
676.5870694325058
 20
645.027494
 30
0.0
 11
676.7670694325058
 21
644.9974940000001
 31
0.0
 12
676.7670694325058
 22
645.057494
 32
0.0
 13
676.7670694325058
 23
645.057494
 33
0.0
  0
SOLID
  5
276
330
279
100
AcDbEntity
  8
0
  6
ByBlock
 62
     0
380
     1
100
AcDbTrace
 10
681.5870694325058
 20
645.027494
 30
0.0
 11
681.4070694325059
 21
644.9974940000001
 31
0.0
 12
681.4070694325059
 22
645.057494
 32
0.0
 13
681.4070694325059
 23
645.057494
 33
0.0
  0
MTEXT
  5
277
330
279
100
AcDbEntity
  8
0
  6
ByBlock
 62
     0
370
    -2
380
     1
100
AcDbMText
 10
673.84546
 20
645.027494
 30
0.0
 40
0.18
 41
0.0
 71
     5
 72
     1
  1
5,00
 73
     1
 44
1.0
  0
ENDBLK
  5
57E
330
279
100
AcDbEntity
  8
0
100
AcDbBlockEnd
  0
BLOCK
  5
57F
330
287
100
AcDbEntity
  8
0
100
AcDbBlockBegin
  2
*D37
 70
     1
 10
0.0
 20
0.0
 30
0.0
  3
*D37
  1

  0
POINT
  5
27C
330
287
100
AcDbEntity
  8
DEFPOINTS
  6
ByBlock
 62
     0
380
     1
100
AcDbPoint
 10
621.586838
 20
617.22853
 30
0.0
  0
POINT
  5
27D
330
287
100
AcDbEntity
  8
DEFPOINTS
  6
ByBlock
 62
     0
380
     1
100
AcDbPoint
 10
616.586838
 20
617.22853
 30
0.0
  0
LINE
  5
27E
330
287
100
AcDbEntity
  8
0
  6
ByBlock
 62
     0
370
    -2
380
     1
100
AcDbLine
 10
621.5868374796737
 20
617.29103
 30
0.0
 11
621.5866119368617
 21
644.265042
 31
0.0
  0
LINE
  5
27F
330
287
100
AcDbEntity
  8
0
  6
ByBlock
 62
     0
370
    -2
380
     1
100
AcDbLine
 10
616.5868374796737
 20
617.29103
 30
0.0
 11
616.5866119368617
 21
644.265042
 31
0.0
  0
LINE
  5
280
330
287
100
AcDbEntity
  8
0
  6
ByBlock
 62
     0
370
    -2
380
     1
100
AcDbLine
 10
621.4066119368617
 20
644.202542
 30
0.0
 11
616.7666134354014
 21
644.202542
 31
0.0
  0
LINE
  5
281
330
287
100
AcDbEntity
  8
0
  6
ByBlock
 62
     0
370
    -2
380
     1
100
AcDbLine
 10
616.7666134354014
 20
644.202542
 30
0.0
 11
606.115412
 21
644.202542
 31
0.0
  0
SOLID
  5
282
330
287
100
AcDbEntity
  8
0
  6
ByBlock
 62
     0
380
     1
100
AcDbTrace
 10
621.5866134354014
 20
644.202542
 30
0.0
 11
621.4066134354014
 21
644.232542
 31
0.0
 12
621.4066134354014
 22
644.172542
 32
0.0
 13
621.4066134354014
 23
644.172542
 33
0.0
  0
SOLID
  5
283
330
287
100
AcDbEntity
  8
0
  6
ByBlock
 62
     0
380
     1
100
AcDbTrace
 10
616.5866134354014
 20
644.202542
 30
0.0
 11
616.7666134354014
 21
644.232542
 31
0.0
 12
616.7666134354014
 22
644.172542
 32
0.0
 13
616.7666134354014
 23
644.172542
 33
0.0
  0
LINE
  5
284
330
287
100
AcDbEntity
  8
0
  6
ByBlock
 62
     0
370
    -2
380
     1
100
AcDbLine
 10
606.115412
 20
644.202542
 30
0.0
 11
606.2954119999999
 21
644.202542
 31
0.0
  0
MTEXT
  5
285
330
287
100
AcDbEntity
  8
0
  6
ByBlock
 62
     0
370
    -2
380
     1
100
AcDbMText
 10
606.640412
 20
644.202542
 30
0.0
 40
0.18
 41
0.0
 71
     5
 72
     1
  1
5,00
 73
     1
 44
1.0
  0
ENDBLK
  5
580
330
287
100
AcDbEntity
  8
0
100
AcDbBlockEnd
  0
BLOCK
  5
581
330
294
100
AcDbEntity
  8
0
100
AcDbBlockBegin
  2
*D38
 70
     1
 10
0.0
 20
0.0
 30
0.0
  3
*D38
  1

  0
POINT
  5
28A
330
294
100
AcDbEntity
  8
DEFPOINTS
  6
ByBlock
 62
     0
380
     1
100
AcDbPoint
 10
616.586838
 20
617.22853
 30
0.0
  0
POINT
  5
28B
330
294
100
AcDbEntity
  8
DEFPOINTS
  6
ByBlock
 62
     0
380
     1
100
AcDbPoint
 10
506.586838
 20
617.22853
 30
0.0
  0
LINE
  5
28C
330
294
100
AcDbEntity
  8
0
  6
ByBlock
 62
     0
370
    -2
380
     1
100
AcDbLine
 10
616.5868374796737
 20
617.29103
 30
0.0
 11
616.5864883151625
 21
659.231602
 31
0.0
  0
LINE
  5
28D
330
294
100
AcDbEntity
  8
0
  6
ByBlock
 62
     0
370
    -2
380
     1
100
AcDbLine
 10
506.5868374796737
 20
617.29103
 30
0.0
 11
506.5864883151626
 21
659.231602
 31
0.0
  0
LINE
  5
28E
330
294
100
AcDbEntity
  8
0
  6
ByBlock
 62
     0
370
    -2
380
     1
100
AcDbLine
 10
616.4064898137023
 20
659.051602
 30
0.0
 11
562.036838
 21
659.051602
 31
0.0
  0
LINE
  5
28F
330
294
100
AcDbEntity
  8
0
  6
ByBlock
 62
     0
370
    -2
380
     1
100
AcDbLine
 10
506.7664898137023
 20
659.051602
 30
0.0
 11
561.1368379999999
 21
659.051602
 31
0.0
  0
SOLID
  5
290
330
294
100
AcDbEntity
  8
0
  6
ByBlock
 62
     0
380
     1
100
AcDbTrace
 10
616.5864898137022
 20
659.051602
 30
0.0
 11
616.4064898137023
 21
659.081602
 31
0.0
 12
616.4064898137023
 22
659.021602
 32
0.0
 13
616.4064898137023
 23
659.021602
 33
0.0
  0
SOLID
  5
291
330
294
100
AcDbEntity
  8
0
  6
ByBlock
 62
     0
380
     1
100
AcDbTrace
 10
506.5864898137023
 20
659.051602
 30
0.0
 11
506.7664898137023
 21
659.081602
 31
0.0
 12
506.7664898137023
 22
659.021602
 32
0.0
 13
506.7664898137023
 23
659.021602
 33
0.0
  0
MTEXT
  5
292
330
294
100
AcDbEntity
  8
0
  6
ByBlock
 62
     0
370
    -2
380
     1
100
AcDbMText
 10
561.586838
 20
659.051602
 30
0.0
 40
0.18
 41
0.0
 71
     5
 72
     1
  1
110,00
 73
     1
 44
1.0
  0
ENDBLK
  5
582
330
294
100
AcDbEntity
  8
0
100
AcDbBlockEnd
  0
BLOCK
  5
583
330
2A0
100
AcDbEntity
  8
0
100
AcDbBlockBegin
  2
*D39
 70
     1
 10
0.0
 20
0.0
 30
0.0
  3
*D39
  1

  0
LINE
  5
297
330
2A0
100
AcDbEntity
  8
0
  6
ByBlock
 62
     0
370
    -2
380
     1
100
AcDbLine
 10
676.4968379999999
 20
608.77853
 30
0.0
 11
676.676838
 21
608.77853
 31
0.0
  0
LINE
  5
298
330
2A0
100
AcDbEntity
  8
0
  6
ByBlock
 62
     0
370
    -2
380
     1
100
AcDbLine
 10
676.586838
 20
608.8685300000001
 30
0.0
 11
676.586838
 21
608.68853
 31
0.0
  0
LINE
  5
299
330
2A0
100
AcDbEntity
  8
0
  6
ByBlock
 62
     0
370
    -2
380
     1
100
AcDbLine
 10
672.1326263408612
 20
603.8003370864827
 30
0.0
 11
635.5572484835376
 21
562.922332
 31
0.0
  0
LINE
  5
29A
330
2A0
100
AcDbEntity
  8
0
  6
ByBlock
 62
     0
370
    -2
380
     1
100
AcDbLine
 10
635.5572484835376
 20
562.922332
 30
0.0
 11
635.3772484835376
 21
562.922332
 31
0.0
  0
SOLID
  5
29B
330
2A0
100
AcDbEntity
  8
0
  6
ByBlock
 62
     0
380
     1
100
AcDbTrace
 10
672.25265
 20
603.93448
 30
0.0
 11
672.1102691886083
 21
603.8203410296725
 31
0.0
 12
672.1549834931141
 22
603.7803331432929
 32
0.0
 13
672.1549834931141
 23
603.7803331432929
 33
0.0
  0
MTEXT
  5
29C
330
2A0
100
AcDbEntity
  8
0
  6
ByBlock
 62
     0
370
    -2
380
     1
100
AcDbMText
 10
634.8822484835376
 20
562.922332
 30
0.0
 40
0.18
 41
0.0
 71
     5
 72
     1
  1
%%c13,00
 73
     1
 44
1.0
  0
POINT
  5
29D
330
2A0
100
AcDbEntity
  8
DEFPOINTS
  6
ByBlock
 62
     0
380
     1
100
AcDbPoint
 10
680.921026
 20
613.62258
 30
0.0
  0
POINT
  5
29E
330
2A0
100
AcDbEntity
  8
DEFPOINTS
  6
ByBlock
 62
     0
380
     1
100
AcDbPoint
 10
672.25265
 20
603.93448
 30
0.0
  0
ENDBLK
  5
584
330
2A0
100
AcDbEntity
  8
0
100
AcDbBlockEnd
  0
BLOCK
  5
585
330
2AE
100
AcDbEntity
  8
0
100
AcDbBlockBegin
  2
*D40
 70
     1
 10
0.0
 20
0.0
 30
0.0
  3
*D40
  1

  0
POINT
  5
2A3
330
2AE
100
AcDbEntity
  8
DEFPOINTS
  6
ByBlock
 62
     0
380
     1
100
AcDbPoint
 10
681.586838
 20
92.836486
 30
0.0
  0
POINT
  5
2A4
330
2AE
100
AcDbEntity
  8
DEFPOINTS
  6
ByBlock
 62
     0
380
     1
100
AcDbPoint
 10
676.59372
 20
92.836486
 30
0.0
  0
LINE
  5
2A5
330
2AE
100
AcDbEntity
  8
0
  6
ByBlock
 62
     0
370
    -2
380
     1
100
AcDbLine
 10
681.5868374796737
 20
92.898986
 30
0.0
 11
681.5862817062165
 21
159.539292
 31
0.0
  0
LINE
  5
2A6
330
2AE
100
AcDbEntity
  8
0
  6
ByBlock
 62
     0
370
    -2
380
     1
100
AcDbLine
 10
676.5937194796737
 20
92.898986
 30
0.0
 11
676.5931637062165
 21
159.539292
 31
0.0
  0
LINE
  5
2A7
330
2AE
100
AcDbEntity
  8
0
  6
ByBlock
 62
     0
370
    -2
380
     1
100
AcDbLine
 10
681.4062817062164
 20
159.476792
 30
0.0
 11
676.7731652047562
 21
159.476792
 31
0.0
  0
LINE
  5
2A8
330
2AE
100
AcDbEntity
  8
0
  6
ByBlock
 62
     0
370
    -2
380
     1
100
AcDbLine
 10
681.5862817062165
 20
159.476792
 30
0.0
 11
699.2840040000001
 21
159.476792
 31
0.0
  0
SOLID
  5
2A9
330
2AE
100
AcDbEntity
  8
0
  6
ByBlock
 62
     0
380
     1
100
AcDbTrace
 10
681.5862832047561
 20
159.476792
 30
0.0
 11
681.4062832047562
 21
159.506792
 31
0.0
 12
681.4062832047562
 22
159.446792
 32
0.0
 13
681.4062832047562
 23
159.446792
 33
0.0
  0
SOLID
  5
2AA
330
2AE
100
AcDbEntity
  8
0
  6
ByBlock
 62
     0
380
     1
100
AcDbTrace
 10
676.5931652047561
 20
159.476792
 30
0.0
 11
676.7731652047562
 21
159.506792
 31
0.0
 12
676.7731652047562
 22
159.446792
 32
0.0
 13
676.7731652047562
 23
159.446792
 33
0.0
  0
LINE
  5
2AB
330
2AE
100
AcDbEntity
  8
0
  6
ByBlock
 62
     0
370
    -2
380
     1
100
AcDbLine
 10
699.2840040000001
 20
159.476792
 30
0.0
 11
699.104004
 21
159.476792
 31
0.0
  0
MTEXT
  5
2AC
330
2AE
100
AcDbEntity
  8
0
  6
ByBlock
 62
     0
370
    -2
380
     1
100
AcDbMText
 10
698.729004
 20
159.476792
 30
0.0
 40
0.18
 41
0.0
 71
     5
 72
     1
  1
4,99
 73
     1
 44
1.0
  0
ENDBLK
  5
586
330
2AE
100
AcDbEntity
  8
0
100
AcDbBlockEnd
  0
BLOCK
  5
587
330
2BB
100
AcDbEntity
  8
0
100
AcDbBlockBegin
  2
*D41
 70
     1
 10
0.0
 20
0.0
 30
0.0
  3
*D41
  1

  0
POINT
  5
2B1
330
2BB
100
AcDbEntity
  8
DEFPOINTS
  6
ByBlock
 62
     0
380
     1
100
AcDbPoint
 10
621.586838
 20
84.386486
 30
0.0
  0
POINT
  5
2B2
330
2BB
100
AcDbEntity
  8
DEFPOINTS
  6
ByBlock
 62
     0
380
     1
100
AcDbPoint
 10
676.59372
 20
92.836486
 30
0.0
  0
LINE
  5
2B3
330
2BB
100
AcDbEntity
  8
0
  6
ByBlock
 62
     0
370
    -2
380
     1
100
AcDbLine
 10
621.5868406016314
 20
84.44898599994802
 30
0.0
 11
621.5906373256024
 21
175.6591576512733
 31
0.0
  0
LINE
  5
2B4
330
2BB
100
AcDbEntity
  8
0
  6
ByBlock
 62
     0
370
    -2
380
     1
100
AcDbLine
 10
676.5937226016314
 20
92.89898599994801
 30
0.0
 11
676.5971675087854
 21
175.6573258852947
 31
0.0
  0
LINE
  5
2B5
330
2BB
100
AcDbEntity
  8
0
  6
ByBlock
 62
     0
370
    -2
380
     1
100
AcDbLine
 10
621.7706298328042
 20
175.4791516572643
 30
0.0
 11
648.6702780307328
 21
175.47825587525
 31
0.0
  0
LINE
  5
2B6
330
2BB
100
AcDbEntity
  8
0
  6
ByBlock
 62
     0
370
    -2
380
     1
100
AcDbLine
 10
676.4171600161868
 20
175.4773318796032
 30
0.0
 11
649.510278030267
 21
175.478227902509
 31
0.0
  0
SOLID
  5
2B7
330
2BB
100
AcDbEntity
  8
0
  6
ByBlock
 62
     0
380
     1
100
AcDbTrace
 10
621.5906298329039
 20
175.479157651423
 30
0.0
 11
621.7706288337777
 21
175.4491516572809
 31
0.0
 12
621.7706308318305
 22
175.5091516572476
 32
0.0
 13
621.7706308318305
 23
175.5091516572476
 33
0.0
  0
SOLID
  5
2B8
330
2BB
100
AcDbEntity
  8
0
  6
ByBlock
 62
     0
380
     1
100
AcDbTrace
 10
676.597160016087
 20
175.4773258854444
 30
0.0
 11
676.4171590171603
 21
175.4473318796198
 31
0.0
 12
676.4171610152133
 22
175.5073318795866
 32
0.0
 13
676.4171610152133
 23
175.5073318795866
 33
0.0
  0
MTEXT
  5
2B9
330
2BB
100
AcDbEntity
  8
0
  6
ByBlock
 62
     0
370
    -2
380
     1
100
AcDbMText
 10
649.0902780304999
 20
175.4782418888795
 30
0.0
 40
0.18
 41
0.0
 71
     5
 72
     1
  1
55,01
 73
     1
 44
1.0
  0
ENDBLK
  5
588
330
2BB
100
AcDbEntity
  8
0
100
AcDbBlockEnd
  0
BLOCK
  5
589
330
2C8
100
AcDbEntity
  8
0
100
AcDbBlockBegin
  2
*D42
 70
     1
 10
0.0
 20
0.0
 30
0.0
  3
*D42
  1

  0
POINT
  5
2BE
330
2C8
100
AcDbEntity
  8
DEFPOINTS
  6
ByBlock
 62
     0
380
     1
100
AcDbPoint
 10
616.586838
 20
84.386486
 30
0.0
  0
POINT
  5
2BF
330
2C8
100
AcDbEntity
  8
DEFPOINTS
  6
ByBlock
 62
     0
380
     1
100
AcDbPoint
 10
621.586838
 20
84.386486
 30
0.0
  0
LINE
  5
2C0
330
2C8
100
AcDbEntity
  8
0
  6
ByBlock
 62
     0
370
    -2
380
     1
100
AcDbLine
 10
616.5868385203262
 20
84.448986
 30
0.0
 11
616.5874541256449
 21
158.393612
 31
0.0
  0
LINE
  5
2C1
330
2C8
100
AcDbEntity
  8
0
  6
ByBlock
 62
     0
370
    -2
380
     1
100
AcDbLine
 10
621.5868385203262
 20
84.448986
 30
0.0
 11
621.5874541256449
 21
158.393612
 31
0.0
  0
LINE
  5
2C2
330
2C8
100
AcDbEntity
  8
0
  6
ByBlock
 62
     0
370
    -2
380
     1
100
AcDbLine
 10
616.7674541256448
 20
158.213612
 30
0.0
 11
621.4074526271052
 21
158.213612
 31
0.0
  0
LINE
  5
2C3
330
2C8
100
AcDbEntity
  8
0
  6
ByBlock
 62
     0
370
    -2
380
     1
100
AcDbLine
 10
616.5868385203262
 20
158.213612
 30
0.0
 11
606.55899
 21
158.213612
 31
0.0
  0
SOLID
  5
2C4
330
2C8
100
AcDbEntity
  8
0
  6
ByBlock
 62
     0
380
     1
100
AcDbTrace
 10
616.5874526271051
 20
158.213612
 30
0.0
 11
616.7674526271052
 21
158.183612
 31
0.0
 12
616.7674526271052
 22
158.243612
 32
0.0
 13
616.7674526271052
 23
158.243612
 33
0.0
  0
SOLID
  5
2C5
330
2C8
100
AcDbEntity
  8
0
  6
ByBlock
 62
     0
380
     1
100
AcDbTrace
 10
621.5874526271051
 20
158.213612
 30
0.0
 11
621.4074526271052
 21
158.183612
 31
0.0
 12
621.4074526271052
 22
158.243612
 32
0.0
 13
621.4074526271052
 23
158.243612
 33
0.0
  0
MTEXT
  5
2C6
330
2C8
100
AcDbEntity
  8
0
  6
ByBlock
 62
     0
370
    -2
380
     1
100
AcDbMText
 10
606.21399
 20
158.213612
 30
0.0
 40
0.18
 41
0.0
 71
     5
 72
     1
  1
5,00
 73
     1
 44
1.0
  0
ENDBLK
  5
58A
330
2C8
100
AcDbEntity
  8
0
100
AcDbBlockEnd
  0
BLOCK
  5
58B
330
2D5
100
AcDbEntity
  8
0
100
AcDbBlockBegin
  2
*D43
 70
     1
 10
0.0
 20
0.0
 30
0.0
  3
*D43
  1

  0
POINT
  5
2CB
330
2D5
100
AcDbEntity
  8
DEFPOINTS
  6
ByBlock
 62
     0
380
     1
100
AcDbPoint
 10
616.586838
 20
84.386486
 30
0.0
  0
POINT
  5
2CC
330
2D5
100
AcDbEntity
  8
DEFPOINTS
  6
ByBlock
 62
     0
380
     1
100
AcDbPoint
 10
561.586838
 20
92.836486
 30
0.0
  0
LINE
  5
2CD
330
2D5
100
AcDbEntity
  8
0
  6
ByBlock
 62
     0
370
    -2
380
     1
100
AcDbLine
 10
616.5868385203262
 20
84.448986
 30
0.0
 11
616.587597842247
 21
175.6564102131146
 31
0.0
  0
LINE
  5
2CE
330
2D5
100
AcDbEntity
  8
0
  6
ByBlock
 62
     0
370
    -2
380
     1
100
AcDbLine
 10
561.5868385203262
 20
92.898986
 30
0.0
 11
561.5875275017576
 21
175.6573259885445
 31
0.0
  0
LINE
  5
2CF
330
2D5
100
AcDbEntity
  8
0
  6
ByBlock
 62
     0
370
    -2
380
     1
100
AcDbLine
 10
616.4075963437323
 20
175.476413210194
 30
0.0
 11
589.5218379923157
 21
175.476860869929
 31
0.0
  0
LINE
  5
2D0
330
2D5
100
AcDbEntity
  8
0
  6
ByBlock
 62
     0
370
    -2
380
     1
100
AcDbLine
 10
561.7675260031929
 20
175.4773229914651
 30
0.0
 11
588.6518379924362
 21
175.4768753558127
 31
0.0
  0
SOLID
  5
2D1
330
2D5
100
AcDbEntity
  8
0
  6
ByBlock
 62
     0
380
     1
100
AcDbTrace
 10
616.5875963437073
 20
175.4764102131146
 30
0.0
 11
616.4075968432455
 21
175.5064132101899
 31
0.0
 12
616.407595844219
 22
175.4464132101982
 32
0.0
 13
616.407595844219
 23
175.4464132101982
 33
0.0
  0
SOLID
  5
2D2
330
2D5
100
AcDbEntity
  8
0
  6
ByBlock
 62
     0
380
     1
100
AcDbTrace
 10
561.5875260032178
 20
175.4773259885445
 30
0.0
 11
561.7675265027061
 21
175.5073229914609
 31
0.0
 12
561.7675255036796
 22
175.4473229914692
 32
0.0
 13
561.7675255036796
 23
175.4473229914692
 33
0.0
  0
MTEXT
  5
2D3
330
2D5
100
AcDbEntity
  8
0
  6
ByBlock
 62
     0
370
    -2
380
     1
100
AcDbMText
 10
589.0868379923759
 20
175.4768681128708
 30
0.0
 40
0.18
 41
0.0
 71
     5
 72
     1
  1
55,00
 73
     1
 44
1.0
  0
ENDBLK
  5
58C
330
2D5
100
AcDbEntity
  8
0
100
AcDbBlockEnd
  0
BLOCK
  5
58D
330
2E2
100
AcDbEntity
  8
0
100
AcDbBlockBegin
  2
*D44
 70
     1
 10
0.0
 20
0.0
 30
0.0
  3
*D44
  1

  0
POINT
  5
2D8
330
2E2
100
AcDbEntity
  8
DEFPOINTS
  6
ByBlock
 62
     0
380
     1
100
AcDbPoint
 10
606.586838
 20
269.77853
 30
0.0
  0
POINT
  5
2D9
330
2E2
100
AcDbEntity
  8
DEFPOINTS
  6
ByBlock
 62
     0
380
     1
100
AcDbPoint
 10
691.586838
 20
633.77853
 30
0.0
  0
LINE
  5
2DA
330
2E2
100
AcDbEntity
  8
0
  6
ByBlock
 62
     0
370
    -2
380
     1
100
AcDbLine
 10
606.6493380000021
 20
269.77853
 30
0.0
 11
768.8952316197325
 21
269.77853
 31
0.0
  0
LINE
  5
2DB
330
2E2
100
AcDbEntity
  8
0
  6
ByBlock
 62
     0
370
    -2
380
     1
100
AcDbLine
 10
691.6493380000021
 20
633.77853
 30
0.0
 11
768.8982620000062
 21
633.77853
 31
0.0
  0
LINE
  5
2DC
330
2E2
100
AcDbEntity
  8
0
  6
ByBlock
 62
     0
370
    -2
380
     1
100
AcDbLine
 10
768.7152331182659
 20
269.9585299999937
 30
0.0
 11
768.7167441874187
 21
451.4635300126252
 31
0.0
  0
LINE
  5
2DD
330
2E2
100
AcDbEntity
  8
0
  6
ByBlock
 62
     0
370
    -2
380
     1
100
AcDbLine
 10
768.7182605014603
 20
633.5985300000063
 30
0.0
 11
768.7167494323077
 21
452.0935300126034
 31
0.0
  0
SOLID
  5
2DE
330
2E2
100
AcDbEntity
  8
0
  6
ByBlock
 62
     0
380
     1
100
AcDbTrace
 10
768.7152316197262
 20
269.77853
 30
0.0
 11
768.7452331182649
 21
269.9585297502371
 31
0.0
 12
768.685233118267
 22
269.9585302497504
 32
0.0
 13
768.685233118267
 23
269.9585302497504
 33
0.0
  0
SOLID
  5
2DF
330
2E2
100
AcDbEntity
  8
0
  6
ByBlock
 62
     0
380
     1
100
AcDbTrace
 10
768.718262
 20
633.77853
 30
0.0
 11
768.7482605014593
 21
633.5985297502497
 31
0.0
 12
768.6882605014613
 22
633.5985302497629
 32
0.0
 13
768.6882605014613
 23
633.5985302497629
 33
0.0
  0
MTEXT
  5
2E0
330
2E2
100
AcDbEntity
  8
0
  6
ByBlock
 62
     0
370
    -2
380
     1
100
AcDbMText
 10
768.7167468098633
 20
451.7785300126143
 30
0.0
 40
0.18
 41
0.0
 71
     5
 72
     1
  1
360
 73
     1
 44
1.0
  0
ENDBLK
  5
58E
330
2E2
100
AcDbEntity
  8
0
100
AcDbBlockEnd
  0
BLOCK
  5
58F
330
308
100
AcDbEntity
  8
0
100
AcDbBlockBegin
  2
*D45
 70
     1
 10
0.0
 20
0.0
 30
0.0
  3
*D45
  1

  0
POINT
  5
2FE
330
308
100
AcDbEntity
  8
DEFPOINTS
  6
ByBlock
 62
     0
380
     1
100
AcDbPoint
 10
606.586838
 20
269.77853
 30
0.0
  0
POINT
  5
2FF
330
308
100
AcDbEntity
  8
DEFPOINTS
  6
ByBlock
 62
     0
380
     1
100
AcDbPoint
 10
691.586838
 20
633.77853
 30
0.0
  0
LINE
  5
300
330
308
100
AcDbEntity
  8
0
  6
ByBlock
 62
     0
370
    -2
380
     1
100
AcDbLine
 10
606.6493380000021
 20
269.77853
 30
0.0
 11
768.8952316197325
 21
269.77853
 31
0.0
  0
LINE
  5
301
330
308
100
AcDbEntity
  8
0
  6
ByBlock
 62
     0
370
    -2
380
     1
100
AcDbLine
 10
691.6493380000021
 20
633.77853
 30
0.0
 11
768.8982620000062
 21
633.77853
 31
0.0
  0
LINE
  5
302
330
308
100
AcDbEntity
  8
0
  6
ByBlock
 62
     0
370
    -2
380
     1
100
AcDbLine
 10
768.7152331182659
 20
269.9585299999937
 30
0.0
 11
768.7167441874187
 21
451.4635300126252
 31
0.0
  0
LINE
  5
303
330
308
100
AcDbEntity
  8
0
  6
ByBlock
 62
     0
370
    -2
380
     1
100
AcDbLine
 10
768.7182605014603
 20
633.5985300000063
 30
0.0
 11
768.7167494323077
 21
452.0935300126034
 31
0.0
  0
SOLID
  5
304
330
308
100
AcDbEntity
  8
0
  6
ByBlock
 62
     0
380
     1
100
AcDbTrace
 10
768.7152316197262
 20
269.77853
 30
0.0
 11
768.7452331182649
 21
269.9585297502371
 31
0.0
 12
768.685233118267
 22
269.9585302497504
 32
0.0
 13
768.685233118267
 23
269.9585302497504
 33
0.0
  0
SOLID
  5
305
330
308
100
AcDbEntity
  8
0
  6
ByBlock
 62
     0
380
     1
100
AcDbTrace
 10
768.718262
 20
633.77853
 30
0.0
 11
768.7482605014593
 21
633.5985297502497
 31
0.0
 12
768.6882605014613
 22
633.5985302497629
 32
0.0
 13
768.6882605014613
 23
633.5985302497629
 33
0.0
  0
MTEXT
  5
306
330
308
100
AcDbEntity
  8
0
  6
ByBlock
 62
     0
370
    -2
380
     1
100
AcDbMText
 10
768.7167468098633
 20
451.7785300126143
 30
0.0
 40
0.18
 41
0.0
 71
     5
 72
     1
  1
360
 73
     1
 44
1.0
  0
ENDBLK
  5
590
330
308
100
AcDbEntity
  8
0
100
AcDbBlockEnd
  0
BLOCK
  5
591
330
314
100
AcDbEntity
  8
0
100
AcDbBlockBegin
  2
*D46
 70
     1
 10
0.0
 20
0.0
 30
0.0
  3
*D46
  1

  0
POINT
  5
30A
330
314
100
AcDbEntity
  8
DEFPOINTS
  6
ByBlock
 62
     0
380
     1
100
AcDbPoint
 10
616.586838
 20
84.386486
 30
0.0
  0
POINT
  5
30B
330
314
100
AcDbEntity
  8
DEFPOINTS
  6
ByBlock
 62
     0
380
     1
100
AcDbPoint
 10
561.586838
 20
92.836486
 30
0.0
  0
LINE
  5
30C
330
314
100
AcDbEntity
  8
0
  6
ByBlock
 62
     0
370
    -2
380
     1
100
AcDbLine
 10
616.5868385203262
 20
84.448986
 30
0.0
 11
616.587597842247
 21
175.6564102131147
 31
0.0
  0
LINE
  5
30D
330
314
100
AcDbEntity
  8
0
  6
ByBlock
 62
     0
370
    -2
380
     1
100
AcDbLine
 10
561.5868385203262
 20
92.898986
 30
0.0
 11
561.5875275017576
 21
175.6573259885445
 31
0.0
  0
LINE
  5
30E
330
314
100
AcDbEntity
  8
0
  6
ByBlock
 62
     0
370
    -2
380
     1
100
AcDbLine
 10
616.4075963437323
 20
175.476413210194
 30
0.0
 11
589.5218379923156
 21
175.476860869929
 31
0.0
  0
LINE
  5
30F
330
314
100
AcDbEntity
  8
0
  6
ByBlock
 62
     0
370
    -2
380
     1
100
AcDbLine
 10
561.7675260031929
 20
175.4773229914651
 30
0.0
 11
588.6518379924362
 21
175.4768753558127
 31
0.0
  0
SOLID
  5
310
330
314
100
AcDbEntity
  8
0
  6
ByBlock
 62
     0
380
     1
100
AcDbTrace
 10
616.5875963437073
 20
175.4764102131147
 30
0.0
 11
616.4075968432455
 21
175.5064132101899
 31
0.0
 12
616.407595844219
 22
175.4464132101982
 32
0.0
 13
616.407595844219
 23
175.4464132101982
 33
0.0
  0
SOLID
  5
311
330
314
100
AcDbEntity
  8
0
  6
ByBlock
 62
     0
380
     1
100
AcDbTrace
 10
561.5875260032178
 20
175.4773259885445
 30
0.0
 11
561.7675265027061
 21
175.5073229914609
 31
0.0
 12
561.7675255036796
 22
175.4473229914692
 32
0.0
 13
561.7675255036796
 23
175.4473229914692
 33
0.0
  0
MTEXT
  5
312
330
314
100
AcDbEntity
  8
0
  6
ByBlock
 62
     0
370
    -2
380
     1
100
AcDbMText
 10
589.0868379923759
 20
175.4768681128708
 30
0.0
 40
0.18
 41
0.0
 71
     5
 72
     1
  1
55,00
 73
     1
 44
1.0
  0
ENDBLK
  5
592
330
314
100
AcDbEntity
  8
0
100
AcDbBlockEnd
  0
BLOCK
  5
593
330
320
100
AcDbEntity
  8
0
100
AcDbBlockBegin
  2
*D47
 70
     1
 10
0.0
 20
0.0
 30
0.0
  3
*D47
  1

  0
POINT
  5
316
330
320
100
AcDbEntity
  8
DEFPOINTS
  6
ByBlock
 62
     0
380
     1
100
AcDbPoint
 10
616.586838
 20
84.386486
 30
0.0
  0
POINT
  5
317
330
320
100
AcDbEntity
  8
DEFPOINTS
  6
ByBlock
 62
     0
380
     1
100
AcDbPoint
 10
621.586838
 20
84.386486
 30
0.0
  0
LINE
  5
318
330
320
100
AcDbEntity
  8
0
  6
ByBlock
 62
     0
370
    -2
380
     1
100
AcDbLine
 10
616.5868385203262
 20
84.448986
 30
0.0
 11
616.5874541256449
 21
158.393612
 31
0.0
  0
LINE
  5
319
330
320
100
AcDbEntity
  8
0
  6
ByBlock
 62
     0
370
    -2
380
     1
100
AcDbLine
 10
621.5868385203262
 20
84.448986
 30
0.0
 11
621.5874541256449
 21
158.393612
 31
0.0
  0
LINE
  5
31A
330
320
100
AcDbEntity
  8
0
  6
ByBlock
 62
     0
370
    -2
380
     1
100
AcDbLine
 10
616.7674541256448
 20
158.213612
 30
0.0
 11
621.4074526271052
 21
158.213612
 31
0.0
  0
LINE
  5
31B
330
320
100
AcDbEntity
  8
0
  6
ByBlock
 62
     0
370
    -2
380
     1
100
AcDbLine
 10
616.5868385203262
 20
158.213612
 30
0.0
 11
606.55899
 21
158.213612
 31
0.0
  0
SOLID
  5
31C
330
320
100
AcDbEntity
  8
0
  6
ByBlock
 62
     0
380
     1
100
AcDbTrace
 10
616.5874526271051
 20
158.213612
 30
0.0
 11
616.7674526271052
 21
158.183612
 31
0.0
 12
616.7674526271052
 22
158.243612
 32
0.0
 13
616.7674526271052
 23
158.243612
 33
0.0
  0
SOLID
  5
31D
330
320
100
AcDbEntity
  8
0
  6
ByBlock
 62
     0
380
     1
100
AcDbTrace
 10
621.5874526271051
 20
158.213612
 30
0.0
 11
621.4074526271052
 21
158.183612
 31
0.0
 12
621.4074526271052
 22
158.243612
 32
0.0
 13
621.4074526271052
 23
158.243612
 33
0.0
  0
MTEXT
  5
31E
330
320
100
AcDbEntity
  8
0
  6
ByBlock
 62
     0
370
    -2
380
     1
100
AcDbMText
 10
606.21399
 20
158.213612
 30
0.0
 40
0.18
 41
0.0
 71
     5
 72
     1
  1
5,00
 73
     1
 44
1.0
  0
ENDBLK
  5
594
330
320
100
AcDbEntity
  8
0
100
AcDbBlockEnd
  0
BLOCK
  5
595
330
32C
100
AcDbEntity
  8
0
100
AcDbBlockBegin
  2
*D48
 70
     1
 10
0.0
 20
0.0
 30
0.0
  3
*D48
  1

  0
POINT
  5
322
330
32C
100
AcDbEntity
  8
DEFPOINTS
  6
ByBlock
 62
     0
380
     1
100
AcDbPoint
 10
621.586838
 20
84.386486
 30
0.0
  0
POINT
  5
323
330
32C
100
AcDbEntity
  8
DEFPOINTS
  6
ByBlock
 62
     0
380
     1
100
AcDbPoint
 10
676.59372
 20
92.836486
 30
0.0
  0
LINE
  5
324
330
32C
100
AcDbEntity
  8
0
  6
ByBlock
 62
     0
370
    -2
380
     1
100
AcDbLine
 10
621.5868406016314
 20
84.44898599994802
 30
0.0
 11
621.5906373256024
 21
175.6591576512733
 31
0.0
  0
LINE
  5
325
330
32C
100
AcDbEntity
  8
0
  6
ByBlock
 62
     0
370
    -2
380
     1
100
AcDbLine
 10
676.5937226016314
 20
92.89898599994801
 30
0.0
 11
676.5971675087854
 21
175.6573258852947
 31
0.0
  0
LINE
  5
326
330
32C
100
AcDbEntity
  8
0
  6
ByBlock
 62
     0
370
    -2
380
     1
100
AcDbLine
 10
621.7706298328042
 20
175.4791516572643
 30
0.0
 11
648.6702780307328
 21
175.47825587525
 31
0.0
  0
LINE
  5
327
330
32C
100
AcDbEntity
  8
0
  6
ByBlock
 62
     0
370
    -2
380
     1
100
AcDbLine
 10
676.4171600161868
 20
175.4773318796032
 30
0.0
 11
649.510278030267
 21
175.478227902509
 31
0.0
  0
SOLID
  5
328
330
32C
100
AcDbEntity
  8
0
  6
ByBlock
 62
     0
380
     1
100
AcDbTrace
 10
621.5906298329039
 20
175.479157651423
 30
0.0
 11
621.7706288337777
 21
175.4491516572809
 31
0.0
 12
621.7706308318305
 22
175.5091516572476
 32
0.0
 13
621.7706308318305
 23
175.5091516572476
 33
0.0
  0
SOLID
  5
329
330
32C
100
AcDbEntity
  8
0
  6
ByBlock
 62
     0
380
     1
100
AcDbTrace
 10
676.597160016087
 20
175.4773258854444
 30
0.0
 11
676.4171590171603
 21
175.4473318796198
 31
0.0
 12
676.4171610152133
 22
175.5073318795866
 32
0.0
 13
676.4171610152133
 23
175.5073318795866
 33
0.0
  0
MTEXT
  5
32A
330
32C
100
AcDbEntity
  8
0
  6
ByBlock
 62
     0
370
    -2
380
     1
100
AcDbMText
 10
649.0902780304999
 20
175.4782418888795
 30
0.0
 40
0.18
 41
0.0
 71
     5
 72
     1
  1
55,01
 73
     1
 44
1.0
  0
ENDBLK
  5
596
330
32C
100
AcDbEntity
  8
0
100
AcDbBlockEnd
  0
BLOCK
  5
597
330
339
100
AcDbEntity
  8
0
100
AcDbBlockBegin
  2
*D49
 70
     1
 10
0.0
 20
0.0
 30
0.0
  3
*D49
  1

  0
POINT
  5
32E
330
339
100
AcDbEntity
  8
DEFPOINTS
  6
ByBlock
 62
     0
380
     1
100
AcDbPoint
 10
681.586838
 20
92.836486
 30
0.0
  0
POINT
  5
32F
330
339
100
AcDbEntity
  8
DEFPOINTS
  6
ByBlock
 62
     0
380
     1
100
AcDbPoint
 10
676.59372
 20
92.836486
 30
0.0
  0
LINE
  5
330
330
339
100
AcDbEntity
  8
0
  6
ByBlock
 62
     0
370
    -2
380
     1
100
AcDbLine
 10
681.5868374796737
 20
92.898986
 30
0.0
 11
681.5862817062165
 21
159.539292
 31
0.0
  0
LINE
  5
331
330
339
100
AcDbEntity
  8
0
  6
ByBlock
 62
     0
370
    -2
380
     1
100
AcDbLine
 10
676.5937194796737
 20
92.898986
 30
0.0
 11
676.5931637062165
 21
159.539292
 31
0.0
  0
LINE
  5
332
330
339
100
AcDbEntity
  8
0
  6
ByBlock
 62
     0
370
    -2
380
     1
100
AcDbLine
 10
681.4062817062164
 20
159.476792
 30
0.0
 11
676.7731652047562
 21
159.476792
 31
0.0
  0
LINE
  5
333
330
339
100
AcDbEntity
  8
0
  6
ByBlock
 62
     0
370
    -2
380
     1
100
AcDbLine
 10
681.5862817062165
 20
159.476792
 30
0.0
 11
699.2840040000001
 21
159.476792
 31
0.0
  0
SOLID
  5
334
330
339
100
AcDbEntity
  8
0
  6
ByBlock
 62
     0
380
     1
100
AcDbTrace
 10
681.5862832047561
 20
159.476792
 30
0.0
 11
681.4062832047562
 21
159.506792
 31
0.0
 12
681.4062832047562
 22
159.446792
 32
0.0
 13
681.4062832047562
 23
159.446792
 33
0.0
  0
SOLID
  5
335
330
339
100
AcDbEntity
  8
0
  6
ByBlock
 62
     0
380
     1
100
AcDbTrace
 10
676.5931652047561
 20
159.476792
 30
0.0
 11
676.7731652047562
 21
159.506792
 31
0.0
 12
676.7731652047562
 22
159.446792
 32
0.0
 13
676.7731652047562
 23
159.446792
 33
0.0
  0
LINE
  5
336
330
339
100
AcDbEntity
  8
0
  6
ByBlock
 62
     0
370
    -2
380
     1
100
AcDbLine
 10
699.2840040000001
 20
159.476792
 30
0.0
 11
699.104004
 21
159.476792
 31
0.0
  0
MTEXT
  5
337
330
339
100
AcDbEntity
  8
0
  6
ByBlock
 62
     0
370
    -2
380
     1
100
AcDbMText
 10
698.729004
 20
159.476792
 30
0.0
 40
0.18
 41
0.0
 71
     5
 72
     1
  1
4,99
 73
     1
 44
1.0
  0
ENDBLK
  5
598
330
339
100
AcDbEntity
  8
0
100
AcDbBlockEnd
  0
BLOCK
  5
599
330
344
100
AcDbEntity
  8
0
100
AcDbBlockBegin
  2
*D50
 70
     1
 10
0.0
 20
0.0
 30
0.0
  3
*D50
  1

  0
LINE
  5
33B
330
344
100
AcDbEntity
  8
0
  6
ByBlock
 62
     0
370
    -2
380
     1
100
AcDbLine
 10
676.4968379999999
 20
608.77853
 30
0.0
 11
676.676838
 21
608.77853
 31
0.0
  0
LINE
  5
33C
330
344
100
AcDbEntity
  8
0
  6
ByBlock
 62
     0
370
    -2
380
     1
100
AcDbLine
 10
676.586838
 20
608.8685300000001
 30
0.0
 11
676.586838
 21
608.68853
 31
0.0
  0
LINE
  5
33D
330
344
100
AcDbEntity
  8
0
  6
ByBlock
 62
     0
370
    -2
380
     1
100
AcDbLine
 10
672.1326263408612
 20
603.8003370864827
 30
0.0
 11
635.5572484835376
 21
562.922332
 31
0.0
  0
LINE
  5
33E
330
344
100
AcDbEntity
  8
0
  6
ByBlock
 62
     0
370
    -2
380
     1
100
AcDbLine
 10
635.5572484835376
 20
562.922332
 30
0.0
 11
635.3772484835376
 21
562.922332
 31
0.0
  0
SOLID
  5
33F
330
344
100
AcDbEntity
  8
0
  6
ByBlock
 62
     0
380
     1
100
AcDbTrace
 10
672.25265
 20
603.93448
 30
0.0
 11
672.1102691886083
 21
603.8203410296725
 31
0.0
 12
672.1549834931141
 22
603.7803331432929
 32
0.0
 13
672.1549834931141
 23
603.7803331432929
 33
0.0
  0
MTEXT
  5
340
330
344
100
AcDbEntity
  8
0
  6
ByBlock
 62
     0
370
    -2
380
     1
100
AcDbMText
 10
634.8822484835376
 20
562.922332
 30
0.0
 40
0.18
 41
0.0
 71
     5
 72
     1
  1
%%c13,00
 73
     1
 44
1.0
  0
POINT
  5
341
330
344
100
AcDbEntity
  8
DEFPOINTS
  6
ByBlock
 62
     0
380
     1
100
AcDbPoint
 10
680.921026
 20
613.62258
 30
0.0
  0
POINT
  5
342
330
344
100
AcDbEntity
  8
DEFPOINTS
  6
ByBlock
 62
     0
380
     1
100
AcDbPoint
 10
672.25265
 20
603.93448
 30
0.0
  0
ENDBLK
  5
59A
330
344
100
AcDbEntity
  8
0
100
AcDbBlockEnd
  0
BLOCK
  5
59B
330
350
100
AcDbEntity
  8
0
100
AcDbBlockBegin
  2
*D51
 70
     1
 10
0.0
 20
0.0
 30
0.0
  3
*D51
  1

  0
POINT
  5
346
330
350
100
AcDbEntity
  8
DEFPOINTS
  6
ByBlock
 62
     0
380
     1
100
AcDbPoint
 10
616.586838
 20
617.22853
 30
0.0
  0
POINT
  5
347
330
350
100
AcDbEntity
  8
DEFPOINTS
  6
ByBlock
 62
     0
380
     1
100
AcDbPoint
 10
506.586838
 20
617.22853
 30
0.0
  0
LINE
  5
348
330
350
100
AcDbEntity
  8
0
  6
ByBlock
 62
     0
370
    -2
380
     1
100
AcDbLine
 10
616.5868374796737
 20
617.29103
 30
0.0
 11
616.5864883151625
 21
659.231602
 31
0.0
  0
LINE
  5
349
330
350
100
AcDbEntity
  8
0
  6
ByBlock
 62
     0
370
    -2
380
     1
100
AcDbLine
 10
506.5868374796737
 20
617.29103
 30
0.0
 11
506.5864883151626
 21
659.231602
 31
0.0
  0
LINE
  5
34A
330
350
100
AcDbEntity
  8
0
  6
ByBlock
 62
     0
370
    -2
380
     1
100
AcDbLine
 10
616.4064898137023
 20
659.051602
 30
0.0
 11
562.036838
 21
659.051602
 31
0.0
  0
LINE
  5
34B
330
350
100
AcDbEntity
  8
0
  6
ByBlock
 62
     0
370
    -2
380
     1
100
AcDbLine
 10
506.7664898137023
 20
659.051602
 30
0.0
 11
561.1368379999999
 21
659.051602
 31
0.0
  0
SOLID
  5
34C
330
350
100
AcDbEntity
  8
0
  6
ByBlock
 62
     0
380
     1
100
AcDbTrace
 10
616.5864898137022
 20
659.051602
 30
0.0
 11
616.4064898137023
 21
659.081602
 31
0.0
 12
616.4064898137023
 22
659.021602
 32
0.0
 13
616.4064898137023
 23
659.021602
 33
0.0
  0
SOLID
  5
34D
330
350
100
AcDbEntity
  8
0
  6
ByBlock
 62
     0
380
     1
100
AcDbTrace
 10
506.5864898137023
 20
659.051602
 30
0.0
 11
506.7664898137023
 21
659.081602
 31
0.0
 12
506.7664898137023
 22
659.021602
 32
0.0
 13
506.7664898137023
 23
659.021602
 33
0.0
  0
MTEXT
  5
34E
330
350
100
AcDbEntity
  8
0
  6
ByBlock
 62
     0
370
    -2
380
     1
100
AcDbMText
 10
561.586838
 20
659.051602
 30
0.0
 40
0.18
 41
0.0
 71
     5
 72
     1
  1
110,00
 73
     1
 44
1.0
  0
ENDBLK
  5
59C
330
350
100
AcDbEntity
  8
0
100
AcDbBlockEnd
  0
BLOCK
  5
59D
330
35D
100
AcDbEntity
  8
0
100
AcDbBlockBegin
  2
*D52
 70
     1
 10
0.0
 20
0.0
 30
0.0
  3
*D52
  1

  0
POINT
  5
352
330
35D
100
AcDbEntity
  8
DEFPOINTS
  6
ByBlock
 62
     0
380
     1
100
AcDbPoint
 10
621.586838
 20
617.22853
 30
0.0
  0
POINT
  5
353
330
35D
100
AcDbEntity
  8
DEFPOINTS
  6
ByBlock
 62
     0
380
     1
100
AcDbPoint
 10
616.586838
 20
617.22853
 30
0.0
  0
LINE
  5
354
330
35D
100
AcDbEntity
  8
0
  6
ByBlock
 62
     0
370
    -2
380
     1
100
AcDbLine
 10
621.5868374796737
 20
617.29103
 30
0.0
 11
621.5866119368617
 21
644.265042
 31
0.0
  0
LINE
  5
355
330
35D
100
AcDbEntity
  8
0
  6
ByBlock
 62
     0
370
    -2
380
     1
100
AcDbLine
 10
616.5868374796737
 20
617.29103
 30
0.0
 11
616.5866119368617
 21
644.265042
 31
0.0
  0
LINE
  5
356
330
35D
100
AcDbEntity
  8
0
  6
ByBlock
 62
     0
370
    -2
380
     1
100
AcDbLine
 10
621.4066119368617
 20
644.202542
 30
0.0
 11
616.7666134354014
 21
644.202542
 31
0.0
  0
LINE
  5
357
330
35D
100
AcDbEntity
  8
0
  6
ByBlock
 62
     0
370
    -2
380
     1
100
AcDbLine
 10
616.7666134354014
 20
644.202542
 30
0.0
 11
606.115412
 21
644.202542
 31
0.0
  0
SOLID
  5
358
330
35D
100
AcDbEntity
  8
0
  6
ByBlock
 62
     0
380
     1
100
AcDbTrace
 10
621.5866134354014
 20
644.202542
 30
0.0
 11
621.4066134354014
 21
644.232542
 31
0.0
 12
621.4066134354014
 22
644.172542
 32
0.0
 13
621.4066134354014
 23
644.172542
 33
0.0
  0
SOLID
  5
359
330
35D
100
AcDbEntity
  8
0
  6
ByBlock
 62
     0
380
     1
100
AcDbTrace
 10
616.5866134354014
 20
644.202542
 30
0.0
 11
616.7666134354014
 21
644.232542
 31
0.0
 12
616.7666134354014
 22
644.172542
 32
0.0
 13
616.7666134354014
 23
644.172542
 33
0.0
  0
LINE
  5
35A
330
35D
100
AcDbEntity
  8
0
  6
ByBlock
 62
     0
370
    -2
380
     1
100
AcDbLine
 10
606.115412
 20
644.202542
 30
0.0
 11
606.2954119999999
 21
644.202542
 31
0.0
  0
MTEXT
  5
35B
330
35D
100
AcDbEntity
  8
0
  6
ByBlock
 62
     0
370
    -2
380
     1
100
AcDbMText
 10
606.640412
 20
644.202542
 30
0.0
 40
0.18
 41
0.0
 71
     5
 72
     1
  1
5,00
 73
     1
 44
1.0
  0
ENDBLK
  5
59E
330
35D
100
AcDbEntity
  8
0
100
AcDbBlockEnd
  0
BLOCK
  5
59F
330
369
100
AcDbEntity
  8
0
100
AcDbBlockBegin
  2
*D53
 70
     1
 10
0.0
 20
0.0
 30
0.0
  3
*D53
  1

  0
POINT
  5
35F
330
369
100
AcDbEntity
  8
DEFPOINTS
  6
ByBlock
 62
     0
380
     1
100
AcDbPoint
 10
676.586838
 20
617.22853
 30
0.0
  0
POINT
  5
360
330
369
100
AcDbEntity
  8
DEFPOINTS
  6
ByBlock
 62
     0
380
     1
100
AcDbPoint
 10
681.586838
 20
617.22853
 30
0.0
  0
LINE
  5
361
330
369
100
AcDbEntity
  8
0
  6
ByBlock
 62
     0
370
    -2
380
     1
100
AcDbLine
 10
676.5868385203262
 20
617.29103
 30
0.0
 11
676.5870709310456
 21
645.207494
 31
0.0
  0
LINE
  5
362
330
369
100
AcDbEntity
  8
0
  6
ByBlock
 62
     0
370
    -2
380
     1
100
AcDbLine
 10
681.5868385203262
 20
617.29103
 30
0.0
 11
681.5870709310456
 21
645.207494
 31
0.0
  0
LINE
  5
363
330
369
100
AcDbEntity
  8
0
  6
ByBlock
 62
     0
370
    -2
380
     1
100
AcDbLine
 10
676.7670709310455
 20
645.027494
 30
0.0
 11
681.4070694325059
 21
645.027494
 31
0.0
  0
LINE
  5
364
330
369
100
AcDbEntity
  8
0
  6
ByBlock
 62
     0
370
    -2
380
     1
100
AcDbLine
 10
676.5868385203262
 20
645.027494
 30
0.0
 11
674.19046
 21
645.027494
 31
0.0
  0
SOLID
  5
365
330
369
100
AcDbEntity
  8
0
  6
ByBlock
 62
     0
380
     1
100
AcDbTrace
 10
676.5870694325058
 20
645.027494
 30
0.0
 11
676.7670694325058
 21
644.9974940000001
 31
0.0
 12
676.7670694325058
 22
645.057494
 32
0.0
 13
676.7670694325058
 23
645.057494
 33
0.0
  0
SOLID
  5
366
330
369
100
AcDbEntity
  8
0
  6
ByBlock
 62
     0
380
     1
100
AcDbTrace
 10
681.5870694325058
 20
645.027494
 30
0.0
 11
681.4070694325059
 21
644.9974940000001
 31
0.0
 12
681.4070694325059
 22
645.057494
 32
0.0
 13
681.4070694325059
 23
645.057494
 33
0.0
  0
MTEXT
  5
367
330
369
100
AcDbEntity
  8
0
  6
ByBlock
 62
     0
370
    -2
380
     1
100
AcDbMText
 10
673.84546
 20
645.027494
 30
0.0
 40
0.18
 41
0.0
 71
     5
 72
     1
  1
5,00
 73
     1
 44
1.0
  0
ENDBLK
  5
5A0
330
369
100
AcDbEntity
  8
0
100
AcDbBlockEnd
  0
BLOCK
  5
5A1
330
375
100
AcDbEntity
  8
0
100
AcDbBlockBegin
  2
*D54
 70
     1
 10
0.0
 20
0.0
 30
0.0
  3
*D54
  1

  0
POINT
  5
36B
330
375
100
AcDbEntity
  8
DEFPOINTS
  6
ByBlock
 62
     0
380
     1
100
AcDbPoint
 10
690.036838
 20
608.77853
 30
0.0
  0
POINT
  5
36C
330
375
100
AcDbEntity
  8
DEFPOINTS
  6
ByBlock
 62
     0
380
     1
100
AcDbPoint
 10
691.586838
 20
633.77853
 30
0.0
  0
LINE
  5
36D
330
375
100
AcDbEntity
  8
0
  6
ByBlock
 62
     0
370
    -2
380
     1
100
AcDbLine
 10
690.0993380000021
 20
608.77853
 30
0.0
 11
729.6370678694929
 21
608.77853
 31
0.0
  0
LINE
  5
36E
330
375
100
AcDbEntity
  8
0
  6
ByBlock
 62
     0
370
    -2
380
     1
100
AcDbLine
 10
691.6493380000021
 20
633.77853
 30
0.0
 11
729.6372760000062
 21
633.77853
 31
0.0
  0
LINE
  5
36F
330
375
100
AcDbEntity
  8
0
  6
ByBlock
 62
     0
370
    -2
380
     1
100
AcDbLine
 10
729.4570693680264
 20
608.9585299999939
 30
0.0
 11
729.4571683132724
 21
620.8435300008815
 31
0.0
  0
LINE
  5
370
330
375
100
AcDbEntity
  8
0
  6
ByBlock
 62
     0
370
    -2
380
     1
100
AcDbLine
 10
729.4572745014602
 20
633.5985300000062
 30
0.0
 11
729.4571755562142
 21
621.7135300008514
 31
0.0
  0
SOLID
  5
371
330
375
100
AcDbEntity
  8
0
  6
ByBlock
 62
     0
380
     1
100
AcDbTrace
 10
729.4570678694867
 20
608.77853
 30
0.0
 11
729.4870693680253
 21
608.9585297502372
 31
0.0
 12
729.4270693680274
 22
608.9585302497504
 32
0.0
 13
729.4270693680274
 23
608.9585302497504
 33
0.0
  0
SOLID
  5
372
330
375
100
AcDbEntity
  8
0
  6
ByBlock
 62
     0
380
     1
100
AcDbTrace
 10
729.457276
 20
633.77853
 30
0.0
 11
729.4872745014593
 21
633.5985297502497
 31
0.0
 12
729.4272745014613
 22
633.5985302497629
 32
0.0
 13
729.4272745014613
 23
633.5985302497629
 33
0.0
  0
MTEXT
  5
373
330
375
100
AcDbEntity
  8
0
  6
ByBlock
 62
     0
370
    -2
380
     1
100
AcDbMText
 10
729.4571719347433
 20
621.2785300008665
 30
0.0
 40
0.18
 41
0.0
 71
     5
 72
     1
  1
25,00
 73
     1
 44
1.0
  0
ENDBLK
  5
5A2
330
375
100
AcDbEntity
  8
0
100
AcDbBlockEnd
  0
BLOCK
  5
5A3
330
381
100
AcDbEntity
  8
0
100
AcDbBlockBegin
  2
*D55
 70
     1
 10
0.0
 20
0.0
 30
0.0
  3
*D55
  1

  0
POINT
  5
377
330
381
100
AcDbEntity
  8
DEFPOINTS
  6
ByBlock
 62
     0
380
     1
100
AcDbPoint
 10
516.586838
 20
269.77853
 30
0.0
  0
POINT
  5
378
330
381
100
AcDbEntity
  8
DEFPOINTS
  6
ByBlock
 62
     0
380
     1
100
AcDbPoint
 10
606.586838
 20
269.77853
 30
0.0
  0
LINE
  5
379
330
381
100
AcDbEntity
  8
0
  6
ByBlock
 62
     0
370
    -2
380
     1
100
AcDbLine
 10
516.5868385203262
 20
269.71603
 30
0.0
 11
516.5871364821336
 21
233.92577
 31
0.0
  0
LINE
  5
37A
330
381
100
AcDbEntity
  8
0
  6
ByBlock
 62
     0
370
    -2
380
     1
100
AcDbLine
 10
606.5868385203262
 20
269.71603
 30
0.0
 11
606.5871364821336
 21
233.92577
 31
0.0
  0
LINE
  5
37B
330
381
100
AcDbEntity
  8
0
  6
ByBlock
 62
     0
370
    -2
380
     1
100
AcDbLine
 10
516.7671364821337
 20
234.10577
 30
0.0
 11
606.4071349835939
 21
234.10577
 31
0.0
  0
LINE
  5
37C
330
381
100
AcDbEntity
  8
0
  6
ByBlock
 62
     0
370
    -2
380
     1
100
AcDbLine
 10
606.5868385203262
 20
234.10577
 30
0.0
 11
631.015146
 21
234.10577
 31
0.0
  0
SOLID
  5
37D
330
381
100
AcDbEntity
  8
0
  6
ByBlock
 62
     0
380
     1
100
AcDbTrace
 10
516.587134983594
 20
234.10577
 30
0.0
 11
516.7671349835939
 21
234.07577
 31
0.0
 12
516.7671349835939
 22
234.13577
 32
0.0
 13
516.7671349835939
 23
234.13577
 33
0.0
  0
SOLID
  5
37E
330
381
100
AcDbEntity
  8
0
  6
ByBlock
 62
     0
380
     1
100
AcDbTrace
 10
606.587134983594
 20
234.10577
 30
0.0
 11
606.4071349835939
 21
234.07577
 31
0.0
 12
606.4071349835939
 22
234.13577
 32
0.0
 13
606.4071349835939
 23
234.13577
 33
0.0
  0
MTEXT
  5
37F
330
381
100
AcDbEntity
  8
0
  6
ByBlock
 62
     0
370
    -2
380
     1
100
AcDbMText
 10
631.525146
 20
234.10577
 30
0.0
 40
0.18
 41
0.0
 71
     5
 72
     1
  1
%%c90,00
 73
     1
 44
1.0
  0
ENDBLK
  5
5A4
330
381
100
AcDbEntity
  8
0
100
AcDbBlockEnd
  0
BLOCK
  5
5A5
330
38D
100
AcDbEntity
  8
0
100
AcDbBlockBegin
  2
*D56
 70
     1
 10
0.0
 20
0.0
 30
0.0
  3
*D56
  1

  0
POINT
  5
383
330
38D
100
AcDbEntity
  8
DEFPOINTS
  6
ByBlock
 62
     0
380
     1
100
AcDbPoint
 10
431.586838
 20
633.77853
 30
0.0
  0
POINT
  5
384
330
38D
100
AcDbEntity
  8
DEFPOINTS
  6
ByBlock
 62
     0
380
     1
100
AcDbPoint
 10
441.586838
 20
583.77853
 30
0.0
  0
LINE
  5
385
330
38D
100
AcDbEntity
  8
0
  6
ByBlock
 62
     0
370
    -2
380
     1
100
AcDbLine
 10
431.5243380000065
 20
633.7785310406526
 30
0.0
 11
401.8678347953827
 21
633.7790248345115
 31
0.0
  0
LINE
  5
386
330
38D
100
AcDbEntity
  8
0
  6
ByBlock
 62
     0
370
    -2
380
     1
100
AcDbLine
 10
441.5243380000065
 20
583.7785310406526
 30
0.0
 11
401.8665860164617
 21
583.7791913597148
 31
0.0
  0
LINE
  5
387
330
38D
100
AcDbEntity
  8
0
  6
ByBlock
 62
     0
370
    -2
380
     1
100
AcDbLine
 10
402.047830299745
 20
633.5990218374882
 30
0.0
 11
402.0472208813175
 21
609.1985299842745
 31
0.0
  0
LINE
  5
388
330
38D
100
AcDbEntity
  8
0
  6
ByBlock
 62
     0
370
    -2
380
     1
100
AcDbLine
 10
402.0465905120621
 20
583.9591883625793
 30
0.0
 11
402.0471999017618
 21
608.3585299845365
 31
0.0
  0
SOLID
  5
389
330
38D
100
AcDbEntity
  8
0
  6
ByBlock
 62
     0
380
     1
100
AcDbTrace
 10
402.0478347953641
 20
633.7790218374321
 30
0.0
 11
402.0178302997543
 21
633.599022586758
 31
0.0
 12
402.0778302997356
 22
633.5990210882184
 32
0.0
 13
402.0778302997356
 23
633.5990210882184
 33
0.0
  0
SOLID
  5
38A
330
38D
100
AcDbEntity
  8
0
  6
ByBlock
 62
     0
380
     1
100
AcDbTrace
 10
402.046586016443
 20
583.7791883626354
 30
0.0
 11
402.0165905120714
 21
583.9591891118491
 31
0.0
 12
402.0765905120527
 22
583.9591876133095
 32
0.0
 13
402.0765905120527
 23
583.9591876133095
 33
0.0
  0
MTEXT
  5
38B
330
38D
100
AcDbEntity
  8
0
  6
ByBlock
 62
     0
370
    -2
380
     1
100
AcDbMText
 10
402.0472103915396
 20
608.7785299844055
 30
0.0
 40
0.18
 41
0.0
 71
     5
 72
     1
  1
50,00
 73
     1
 44
1.0
  0
ENDBLK
  5
5A6
330
38D
100
AcDbEntity
  8
0
100
AcDbBlockEnd
  0
BLOCK
  5
5A7
330
399
100
AcDbEntity
  8
0
100
AcDbBlockBegin
  2
*D57
 70
     1
 10
0.0
 20
0.0
 30
0.0
  3
*D57
  1

  0
POINT
  5
38F
330
399
100
AcDbEntity
  8
DEFPOINTS
  6
ByBlock
 62
     0
380
     1
100
AcDbPoint
 10
431.586838
 20
633.77853
 30
0.0
  0
POINT
  5
390
330
399
100
AcDbEntity
  8
DEFPOINTS
  6
ByBlock
 62
     0
380
     1
100
AcDbPoint
 10
691.586838
 20
633.77853
 30
0.0
  0
LINE
  5
391
330
399
100
AcDbEntity
  8
0
  6
ByBlock
 62
     0
370
    -2
380
     1
100
AcDbLine
 10
431.5868385203263
 20
633.84103
 30
0.0
 11
431.5872045262424
 21
677.80454
 31
0.0
  0
LINE
  5
392
330
399
100
AcDbEntity
  8
0
  6
ByBlock
 62
     0
370
    -2
380
     1
100
AcDbLine
 10
691.5868385203262
 20
633.84103
 30
0.0
 11
691.5872045262424
 21
677.80454
 31
0.0
  0
LINE
  5
393
330
399
100
AcDbEntity
  8
0
  6
ByBlock
 62
     0
370
    -2
380
     1
100
AcDbLine
 10
431.7672030277027
 20
677.62454
 30
0.0
 11
561.076838
 21
677.62454
 31
0.0
  0
LINE
  5
394
330
399
100
AcDbEntity
  8
0
  6
ByBlock
 62
     0
370
    -2
380
     1
100
AcDbLine
 10
691.4072030277026
 20
677.62454
 30
0.0
 11
562.0968379999999
 21
677.62454
 31
0.0
  0
SOLID
  5
395
330
399
100
AcDbEntity
  8
0
  6
ByBlock
 62
     0
380
     1
100
AcDbTrace
 10
431.5872030277027
 20
677.62454
 30
0.0
 11
431.7672030277027
 21
677.59454
 31
0.0
 12
431.7672030277027
 22
677.65454
 32
0.0
 13
431.7672030277027
 23
677.65454
 33
0.0
  0
SOLID
  5
396
330
399
100
AcDbEntity
  8
0
  6
ByBlock
 62
     0
380
     1
100
AcDbTrace
 10
691.5872030277026
 20
677.62454
 30
0.0
 11
691.4072030277026
 21
677.59454
 31
0.0
 12
691.4072030277026
 22
677.65454
 32
0.0
 13
691.4072030277026
 23
677.65454
 33
0.0
  0
MTEXT
  5
397
330
399
100
AcDbEntity
  8
0
  6
ByBlock
 62
     0
370
    -2
380
     1
100
AcDbMText
 10
561.586838
 20
677.62454
 30
0.0
 40
0.18
 41
0.0
 71
     5
 72
     1
  1
260,00
 73
     1
 44
1.0
  0
ENDBLK
  5
5A8
330
399
100
AcDbEntity
  8
0
100
AcDbBlockEnd
  0
BLOCK
  5
5A9
330
47C
100
AcDbEntity
  8
0
100
AcDbBlockBegin
  2
*D58
 70
     1
 10
0.0
 20
0.0
 30
0.0
  3
*D58
  1

  0
POINT
  5
473
330
47C
100
AcDbEntity
  8
DEFPOINTS
  6
ByBlock
 62
     0
380
     1
100
AcDbPoint
 10
431.586838
 20
609.8842879867074
 30
0.0
  0
POINT
  5
474
330
47C
100
AcDbEntity
  8
DEFPOINTS
  6
ByBlock
 62
     0
380
     1
100
AcDbPoint
 10
691.5868539999999
 20
611.6508119630518
 30
0.0
  0
LINE
  5
475
330
47C
100
AcDbEntity
  8
0
  6
ByBlock
 62
     0
370
    -2
380
     1
100
AcDbLine
 10
431.586838
 20
610.5092879867074
 30
0.0
 11
431.586838
 21
669.1791471090226
 31
0.0
  0
LINE
  5
476
330
47C
100
AcDbEntity
  8
0
  6
ByBlock
 62
     0
370
    -2
380
     1
100
AcDbLine
 10
691.5868539999999
 20
612.2758119630518
 30
0.0
 11
691.5868539999999
 21
669.1791471090226
 31
0.0
  0
LINE
  5
477
330
47C
100
AcDbEntity
  8
0
  6
ByBlock
 62
     0
370
    -2
380
     1
100
AcDbLine
 10
434.086838
 20
667.9291471090226
 30
0.0
 11
689.0868539999999
 21
667.9291471090226
 31
0.0
  0
SOLID
  5
478
330
47C
100
AcDbEntity
  8
0
  6
ByBlock
 62
     0
380
     1
100
AcDbTrace
 10
431.586838
 20
667.9291471090226
 30
0.0
 11
434.086838
 21
667.5124804423559
 31
0.0
 12
434.086838
 22
668.3458137756892
 32
0.0
 13
434.086838
 23
668.3458137756892
 33
0.0
  0
SOLID
  5
479
330
47C
100
AcDbEntity
  8
0
  6
ByBlock
 62
     0
380
     1
100
AcDbTrace
 10
691.5868539999999
 20
667.9291471090226
 30
0.0
 11
689.0868539999999
 21
667.5124804423559
 31
0.0
 12
689.0868539999999
 22
668.3458137756892
 32
0.0
 13
689.0868539999999
 23
668.3458137756892
 33
0.0
  0
MTEXT
  5
47A
330
47C
100
AcDbEntity
  8
0
  6
ByBlock
 62
     0
370
    -2
380
     1
100
AcDbMText
 10
561.5868459999999
 20
669.8041471090226
 30
0.0
 40
2.5
 41
0.0
 71
     5
 72
     1
  1
\A1;260
 73
     1
 44
1.0
  0
ENDBLK
  5
5AA
330
47C
100
AcDbEntity
  8
0
100
AcDbBlockEnd
  0
BLOCK
  5
5AB
330
487
100
AcDbEntity
  8
0
100
AcDbBlockBegin
  2
*D59
 70
     1
 10
0.0
 20
0.0
 30
0.0
  3
*D59
  1

  0
POINT
  5
47E
330
487
100
AcDbEntity
  8
DEFPOINTS
  6
ByBlock
 62
     0
380
     1
100
AcDbPoint
 10
431.586838
 20
609.8842879867074
 30
0.0
  0
POINT
  5
47F
330
487
100
AcDbEntity
  8
DEFPOINTS
  6
ByBlock
 62
     0
380
     1
100
AcDbPoint
 10
691.5868539999999
 20
611.6508119630518
 30
0.0
  0
LINE
  5
480
330
487
100
AcDbEntity
  8
0
  6
ByBlock
 62
     0
370
    -2
380
     1
100
AcDbLine
 10
431.586838
 20
610.5092879867074
 30
0.0
 11
431.586838
 21
669.1791471090226
 31
0.0
  0
LINE
  5
481
330
487
100
AcDbEntity
  8
0
  6
ByBlock
 62
     0
370
    -2
380
     1
100
AcDbLine
 10
691.5868539999999
 20
612.2758119630518
 30
0.0
 11
691.5868539999999
 21
669.1791471090226
 31
0.0
  0
LINE
  5
482
330
487
100
AcDbEntity
  8
0
  6
ByBlock
 62
     0
370
    -2
380
     1
100
AcDbLine
 10
434.086838
 20
667.9291471090226
 30
0.0
 11
689.0868539999999
 21
667.9291471090226
 31
0.0
  0
SOLID
  5
483
330
487
100
AcDbEntity
  8
0
  6
ByBlock
 62
     0
380
     1
100
AcDbTrace
 10
431.586838
 20
667.9291471090226
 30
0.0
 11
434.086838
 21
667.5124804423559
 31
0.0
 12
434.086838
 22
668.3458137756892
 32
0.0
 13
434.086838
 23
668.3458137756892
 33
0.0
  0
SOLID
  5
484
330
487
100
AcDbEntity
  8
0
  6
ByBlock
 62
     0
380
     1
100
AcDbTrace
 10
691.5868539999999
 20
667.9291471090226
 30
0.0
 11
689.0868539999999
 21
667.5124804423559
 31
0.0
 12
689.0868539999999
 22
668.3458137756892
 32
0.0
 13
689.0868539999999
 23
668.3458137756892
 33
0.0
  0
MTEXT
  5
485
330
487
100
AcDbEntity
  8
0
  6
ByBlock
 62
     0
370
    -2
380
     1
100
AcDbMText
 10
561.5868459999999
 20
669.8041471090226
 30
0.0
 40
2.5
 41
0.0
 71
     5
 72
     1
  1
\A1;260
 73
     1
 44
1.0
  0
ENDBLK
  5
5AC
330
487
100
AcDbEntity
  8
0
100
AcDbBlockEnd
  0
BLOCK
  5
5AD
330
492
100
AcDbEntity
  8
0
100
AcDbBlockBegin
  2
*D60
 70
     1
 10
0.0
 20
0.0
 30
0.0
  3
*D60
  1

  0
POINT
  5
489
330
492
100
AcDbEntity
  8
DEFPOINTS
  6
ByBlock
 62
     0
380
     1
100
AcDbPoint
 10
431.586838
 20
609.8842879867074
 30
0.0
  0
POINT
  5
48A
330
492
100
AcDbEntity
  8
DEFPOINTS
  6
ByBlock
 62
     0
380
     1
100
AcDbPoint
 10
691.5868539999999
 20
611.6508119630518
 30
0.0
  0
LINE
  5
48B
330
492
100
AcDbEntity
  8
0
  6
ByBlock
 62
     0
370
    -2
380
     1
100
AcDbLine
 10
431.586838
 20
610.5092879867074
 30
0.0
 11
431.586838
 21
669.1791471090226
 31
0.0
  0
LINE
  5
48C
330
492
100
AcDbEntity
  8
0
  6
ByBlock
 62
     0
370
    -2
380
     1
100
AcDbLine
 10
691.5868539999999
 20
612.2758119630518
 30
0.0
 11
691.5868539999999
 21
669.1791471090226
 31
0.0
  0
LINE
  5
48D
330
492
100
AcDbEntity
  8
0
  6
ByBlock
 62
     0
370
    -2
380
     1
100
AcDbLine
 10
434.086838
 20
667.9291471090226
 30
0.0
 11
689.0868539999999
 21
667.9291471090226
 31
0.0
  0
SOLID
  5
48E
330
492
100
AcDbEntity
  8
0
  6
ByBlock
 62
     0
380
     1
100
AcDbTrace
 10
431.586838
 20
667.9291471090226
 30
0.0
 11
434.086838
 21
667.5124804423559
 31
0.0
 12
434.086838
 22
668.3458137756892
 32
0.0
 13
434.086838
 23
668.3458137756892
 33
0.0
  0
SOLID
  5
48F
330
492
100
AcDbEntity
  8
0
  6
ByBlock
 62
     0
380
     1
100
AcDbTrace
 10
691.5868539999999
 20
667.9291471090226
 30
0.0
 11
689.0868539999999
 21
667.5124804423559
 31
0.0
 12
689.0868539999999
 22
668.3458137756892
 32
0.0
 13
689.0868539999999
 23
668.3458137756892
 33
0.0
  0
MTEXT
  5
490
330
492
100
AcDbEntity
  8
0
  6
ByBlock
 62
     0
370
    -2
380
     1
100
AcDbMText
 10
561.5868459999999
 20
669.8041471090226
 30
0.0
 40
2.5
 41
0.0
 71
     5
 72
     1
  1
\A1;260
 73
     1
 44
1.0
  0
ENDBLK
  5
5AE
330
492
100
AcDbEntity
  8
0
100
AcDbBlockEnd
  0
BLOCK
  5
5AF
330
49D
100
AcDbEntity
  8
0
100
AcDbBlockBegin
  2
*D61
 70
     1
 10
0.0
 20
0.0
 30
0.0
  3
*D61
  1

  0
POINT
  5
494
330
49D
100
AcDbEntity
  8
DEFPOINTS
  6
ByBlock
 62
     7
380
     1
100
AcDbPoint
 10
431.586838
 20
609.8842879867074
 30
0.0
  0
POINT
  5
495
330
49D
100
AcDbEntity
  8
DEFPOINTS
  6
ByBlock
 62
     7
380
     1
100
AcDbPoint
 10
691.5868539999999
 20
611.6508119630518
 30
0.0
  0
LINE
  5
496
330
49D
100
AcDbEntity
  8
0
  6
ByBlock
 62
     7
370
    -2
380
     1
100
AcDbLine
 10
431.586838
 20
610.5092879867074
 30
0.0
 11
431.586838
 21
669.1791471090226
 31
0.0
  0
LINE
  5
497
330
49D
100
AcDbEntity
  8
0
  6
ByBlock
 62
     7
370
    -2
380
     1
100
AcDbLine
 10
691.5868539999999
 20
612.2758119630518
 30
0.0
 11
691.5868539999999
 21
669.1791471090226
 31
0.0
  0
LINE
  5
498
330
49D
100
AcDbEntity
  8
0
  6
ByBlock
 62
     7
370
    -2
380
     1
100
AcDbLine
 10
441.586838
 20
667.9291471090226
 30
0.0
 11
681.5868539999999
 21
667.9291471090226
 31
0.0
  0
SOLID
  5
499
330
49D
100
AcDbEntity
  8
0
  6
ByBlock
 62
     7
380
     1
100
AcDbTrace
 10
431.586838
 20
667.9291471090226
 30
0.0
 11
441.586838
 21
666.2624804423559
 31
0.0
 12
441.586838
 22
669.5958137756892
 32
0.0
 13
441.586838
 23
669.5958137756892
 33
0.0
  0
SOLID
  5
49A
330
49D
100
AcDbEntity
  8
0
  6
ByBlock
 62
     7
380
     1
100
AcDbTrace
 10
691.5868539999999
 20
667.9291471090226
 30
0.0
 11
681.5868539999999
 21
666.2624804423559
 31
0.0
 12
681.5868539999999
 22
669.5958137756892
 32
0.0
 13
681.5868539999999
 23
669.5958137756892
 33
0.0
  0
MTEXT
  5
49B
330
49D
100
AcDbEntity
  8
0
  6
ByBlock
 62
     0
370
    -2
380
     1
100
AcDbMText
 10
561.5868459999999
 20
679.9291471090226
 30
0.0
 40
14.0
 41
0.0
 71
     5
 72
     1
  1
\A1;260
 73
     1
 44
1.0
  0
ENDBLK
  5
5B0
330
49D
100
AcDbEntity
  8
0
100
AcDbBlockEnd
  0
BLOCK
  5
5B1
330
4A9
100
AcDbEntity
  8
0
100
AcDbBlockBegin
  2
*D62
 70
     1
 10
0.0
 20
0.0
 30
0.0
  3
*D62
  1

  0
POINT
  5
4A0
330
4A9
100
AcDbEntity
  8
DEFPOINTS
  6
ByBlock
 62
     0
380
     1
100
AcDbPoint
 10
538.0576092321702
 20
633.778534
 30
0.0
  0
POINT
  5
4A1
330
4A9
100
AcDbEntity
  8
DEFPOINTS
  6
ByBlock
 62
     0
380
     1
100
AcDbPoint
 10
584.0868459999999
 20
269.778534
 30
0.0
  0
LINE
  5
4A2
330
4A9
100
AcDbEntity
  8
0
  6
ByBlock
 62
     0
370
    -2
380
     1
100
AcDbLine
 10
538.6826092321702
 20
633.778534
 30
0.0
 11
740.7064736655384
 21
633.778534
 31
0.0
  0
LINE
  5
4A3
330
4A9
100
AcDbEntity
  8
0
  6
ByBlock
 62
     0
370
    -2
380
     1
100
AcDbLine
 10
584.7118459999999
 20
269.778534
 30
0.0
 11
740.7064736655384
 21
269.778534
 31
0.0
  0
LINE
  5
4A4
330
4A9
100
AcDbEntity
  8
0
  6
ByBlock
 62
     0
370
    -2
380
     1
100
AcDbLine
 10
739.4564736655384
 20
631.278534
 30
0.0
 11
739.4564736655384
 21
272.278534
 31
0.0
  0
SOLID
  5
4A5
330
4A9
100
AcDbEntity
  8
0
  6
ByBlock
 62
     0
380
     1
100
AcDbTrace
 10
739.4564736655384
 20
633.778534
 30
0.0
 11
739.0398069988718
 21
631.278534
 31
0.0
 12
739.873140332205
 22
631.278534
 32
0.0
 13
739.873140332205
 23
631.278534
 33
0.0
  0
SOLID
  5
4A6
330
4A9
100
AcDbEntity
  8
0
  6
ByBlock
 62
     0
380
     1
100
AcDbTrace
 10
739.4564736655384
 20
269.778534
 30
0.0
 11
739.0398069988718
 21
272.278534
 31
0.0
 12
739.873140332205
 22
272.278534
 32
0.0
 13
739.873140332205
 23
272.278534
 33
0.0
  0
MTEXT
  5
4A7
330
4A9
100
AcDbEntity
  8
0
  6
ByBlock
 62
     0
370
    -2
380
     1
100
AcDbMText
 10
737.5814736655384
 20
451.778534
 30
0.0
 40
2.5
 41
0.0
 71
     5
 72
     1
  1
\A1;364
 11
6.123031769111886E-17
 21
1.0
 31
0.0
 73
     1
 44
1.0
  0
ENDBLK
  5
5B2
330
4A9
100
AcDbEntity
  8
0
100
AcDbBlockEnd
  0
BLOCK
  5
5B3
330
4B4
100
AcDbEntity
  8
0
100
AcDbBlockBegin
  2
*D63
 70
     1
 10
0.0
 20
0.0
 30
0.0
  3
*D63
  1

  0
POINT
  5
4AB
330
4B4
100
AcDbEntity
  8
DEFPOINTS
  6
ByBlock
 62
     0
380
     1
100
AcDbPoint
 10
538.0576092321702
 20
633.778534
 30
0.0
  0
POINT
  5
4AC
330
4B4
100
AcDbEntity
  8
DEFPOINTS
  6
ByBlock
 62
     0
380
     1
100
AcDbPoint
 10
584.0868459999999
 20
269.778534
 30
0.0
  0
LINE
  5
4AD
330
4B4
100
AcDbEntity
  8
0
  6
ByBlock
 62
     0
370
    -2
380
     1
100
AcDbLine
 10
538.6826092321702
 20
633.778534
 30
0.0
 11
740.7064736655384
 21
633.778534
 31
0.0
  0
LINE
  5
4AE
330
4B4
100
AcDbEntity
  8
0
  6
ByBlock
 62
     0
370
    -2
380
     1
100
AcDbLine
 10
584.7118459999999
 20
269.778534
 30
0.0
 11
740.7064736655384
 21
269.778534
 31
0.0
  0
LINE
  5
4AF
330
4B4
100
AcDbEntity
  8
0
  6
ByBlock
 62
     0
370
    -2
380
     1
100
AcDbLine
 10
739.4564736655384
 20
631.278534
 30
0.0
 11
739.4564736655384
 21
272.278534
 31
0.0
  0
SOLID
  5
4B0
330
4B4
100
AcDbEntity
  8
0
  6
ByBlock
 62
     0
380
     1
100
AcDbTrace
 10
739.4564736655384
 20
633.778534
 30
0.0
 11
739.0398069988718
 21
631.278534
 31
0.0
 12
739.873140332205
 22
631.278534
 32
0.0
 13
739.873140332205
 23
631.278534
 33
0.0
  0
SOLID
  5
4B1
330
4B4
100
AcDbEntity
  8
0
  6
ByBlock
 62
     0
380
     1
100
AcDbTrace
 10
739.4564736655384
 20
269.778534
 30
0.0
 11
739.0398069988718
 21
272.278534
 31
0.0
 12
739.873140332205
 22
272.278534
 32
0.0
 13
739.873140332205
 23
272.278534
 33
0.0
  0
MTEXT
  5
4B2
330
4B4
100
AcDbEntity
  8
0
  6
ByBlock
 62
     0
370
    -2
380
     1
100
AcDbMText
 10
737.5814736655384
 20
451.778534
 30
0.0
 40
2.5
 41
0.0
 71
     5
 72
     1
  1
\A1;364
 11
6.123031769111886E-17
 21
1.0
 31
0.0
 73
     1
 44
1.0
  0
ENDBLK
  5
5B4
330
4B4
100
AcDbEntity
  8
0
100
AcDbBlockEnd
  0
BLOCK
  5
5B5
330
4BF
100
AcDbEntity
  8
0
100
AcDbBlockBegin
  2
*D64
 70
     1
 10
0.0
 20
0.0
 30
0.0
  3
*D64
  1

  0
POINT
  5
4B6
330
4BF
100
AcDbEntity
  8
DEFPOINTS
  6
ByBlock
 62
     7
380
     1
100
AcDbPoint
 10
538.0576092321702
 20
633.778534
 30
0.0
  0
POINT
  5
4B7
330
4BF
100
AcDbEntity
  8
DEFPOINTS
  6
ByBlock
 62
     7
380
     1
100
AcDbPoint
 10
584.0868459999999
 20
269.778534
 30
0.0
  0
LINE
  5
4B8
330
4BF
100
AcDbEntity
  8
0
  6
ByBlock
 62
     7
370
    -2
380
     1
100
AcDbLine
 10
538.6826092321702
 20
633.778534
 30
0.0
 11
740.7064736655384
 21
633.778534
 31
0.0
  0
LINE
  5
4B9
330
4BF
100
AcDbEntity
  8
0
  6
ByBlock
 62
     7
370
    -2
380
     1
100
AcDbLine
 10
584.7118459999999
 20
269.778534
 30
0.0
 11
740.7064736655384
 21
269.778534
 31
0.0
  0
LINE
  5
4BA
330
4BF
100
AcDbEntity
  8
0
  6
ByBlock
 62
     7
370
    -2
380
     1
100
AcDbLine
 10
739.4564736655384
 20
623.778534
 30
0.0
 11
739.4564736655384
 21
279.778534
 31
0.0
  0
SOLID
  5
4BB
330
4BF
100
AcDbEntity
  8
0
  6
ByBlock
 62
     7
380
     1
100
AcDbTrace
 10
739.4564736655384
 20
633.778534
 30
0.0
 11
737.7898069988718
 21
623.778534
 31
0.0
 12
741.123140332205
 22
623.778534
 32
0.0
 13
741.123140332205
 23
623.778534
 33
0.0
  0
SOLID
  5
4BC
330
4BF
100
AcDbEntity
  8
0
  6
ByBlock
 62
     7
380
     1
100
AcDbTrace
 10
739.4564736655384
 20
269.778534
 30
0.0
 11
737.7898069988718
 21
279.778534
 31
0.0
 12
741.123140332205
 22
279.778534
 32
0.0
 13
741.123140332205
 23
279.778534
 33
0.0
  0
MTEXT
  5
4BD
330
4BF
100
AcDbEntity
  8
0
  6
ByBlock
 62
     0
370
    -2
380
     1
100
AcDbMText
 10
727.4564736655384
 20
451.778534
 30
0.0
 40
14.0
 41
0.0
 71
     5
 72
     1
  1
\A1;364
 11
6.123031769111886E-17
 21
1.0
 31
0.0
 73
     1
 44
1.0
  0
ENDBLK
  5
5B6
330
4BF
100
AcDbEntity
  8
0
100
AcDbBlockEnd
  0
BLOCK
  5
5B7
330
4CB
100
AcDbEntity
  8
0
100
AcDbBlockBegin
  2
*D65
 70
     1
 10
0.0
 20
0.0
 30
0.0
  3
*D65
  1

  0
POINT
  5
4C2
330
4CB
100
AcDbEntity
  8
DEFPOINTS
  6
ByBlock
 62
     0
380
     1
100
AcDbPoint
 10
516.586838
 20
327.2638403508528
 30
0.0
  0
POINT
  5
4C3
330
4CB
100
AcDbEntity
  8
DEFPOINTS
  6
ByBlock
 62
     0
380
     1
100
AcDbPoint
 10
606.5868539999999
 20
327.2638403508528
 30
0.0
  0
LINE
  5
4C4
330
4CB
100
AcDbEntity
  8
0
  6
ByBlock
 62
     0
370
    -2
380
     1
100
AcDbLine
 10
516.586838
 20
326.6388403508528
 30
0.0
 11
516.586838
 21
214.4106479578399
 31
0.0
  0
LINE
  5
4C5
330
4CB
100
AcDbEntity
  8
0
  6
ByBlock
 62
     0
370
    -2
380
     1
100
AcDbLine
 10
606.5868539999999
 20
326.6388403508528
 30
0.0
 11
606.5868539999999
 21
214.4106479578399
 31
0.0
  0
LINE
  5
4C6
330
4CB
100
AcDbEntity
  8
0
  6
ByBlock
 62
     0
370
    -2
380
     1
100
AcDbLine
 10
519.086838
 20
215.6606479578399
 30
0.0
 11
604.0868539999999
 21
215.6606479578399
 31
0.0
  0
SOLID
  5
4C7
330
4CB
100
AcDbEntity
  8
0
  6
ByBlock
 62
     0
380
     1
100
AcDbTrace
 10
516.586838
 20
215.6606479578399
 30
0.0
 11
519.086838
 21
215.2439812911732
 31
0.0
 12
519.086838
 22
216.0773146245065
 32
0.0
 13
519.086838
 23
216.0773146245065
 33
0.0
  0
SOLID
  5
4C8
330
4CB
100
AcDbEntity
  8
0
  6
ByBlock
 62
     0
380
     1
100
AcDbTrace
 10
606.5868539999999
 20
215.6606479578399
 30
0.0
 11
604.0868539999999
 21
215.2439812911732
 31
0.0
 12
604.0868539999999
 22
216.0773146245065
 32
0.0
 13
604.0868539999999
 23
216.0773146245065
 33
0.0
  0
MTEXT
  5
4C9
330
4CB
100
AcDbEntity
  8
0
  6
ByBlock
 62
     0
370
    -2
380
     1
100
AcDbMText
 10
561.5868459999999
 20
217.5356479578399
 30
0.0
 40
2.5
 41
0.0
 71
     5
 72
     1
  1
\A1;90
 73
     1
 44
1.0
  0
ENDBLK
  5
5B8
330
4CB
100
AcDbEntity
  8
0
100
AcDbBlockEnd
  0
BLOCK
  5
5B9
330
4D6
100
AcDbEntity
  8
0
100
AcDbBlockBegin
  2
*D66
 70
     1
 10
0.0
 20
0.0
 30
0.0
  3
*D66
  1

  0
POINT
  5
4CD
330
4D6
100
AcDbEntity
  8
DEFPOINTS
  6
ByBlock
 62
     0
380
     1
100
AcDbPoint
 10
516.586838
 20
327.2638403508528
 30
0.0
  0
POINT
  5
4CE
330
4D6
100
AcDbEntity
  8
DEFPOINTS
  6
ByBlock
 62
     0
380
     1
100
AcDbPoint
 10
606.5868539999999
 20
327.2638403508528
 30
0.0
  0
LINE
  5
4CF
330
4D6
100
AcDbEntity
  8
0
  6
ByBlock
 62
     0
370
    -2
380
     1
100
AcDbLine
 10
516.586838
 20
326.6388403508528
 30
0.0
 11
516.586838
 21
214.4106479578399
 31
0.0
  0
LINE
  5
4D0
330
4D6
100
AcDbEntity
  8
0
  6
ByBlock
 62
     0
370
    -2
380
     1
100
AcDbLine
 10
606.5868539999999
 20
326.6388403508528
 30
0.0
 11
606.5868539999999
 21
214.4106479578399
 31
0.0
  0
LINE
  5
4D1
330
4D6
100
AcDbEntity
  8
0
  6
ByBlock
 62
     0
370
    -2
380
     1
100
AcDbLine
 10
519.086838
 20
215.6606479578399
 30
0.0
 11
604.0868539999999
 21
215.6606479578399
 31
0.0
  0
SOLID
  5
4D2
330
4D6
100
AcDbEntity
  8
0
  6
ByBlock
 62
     0
380
     1
100
AcDbTrace
 10
516.586838
 20
215.6606479578399
 30
0.0
 11
519.086838
 21
215.2439812911732
 31
0.0
 12
519.086838
 22
216.0773146245065
 32
0.0
 13
519.086838
 23
216.0773146245065
 33
0.0
  0
SOLID
  5
4D3
330
4D6
100
AcDbEntity
  8
0
  6
ByBlock
 62
     0
380
     1
100
AcDbTrace
 10
606.5868539999999
 20
215.6606479578399
 30
0.0
 11
604.0868539999999
 21
215.2439812911732
 31
0.0
 12
604.0868539999999
 22
216.0773146245065
 32
0.0
 13
604.0868539999999
 23
216.0773146245065
 33
0.0
  0
MTEXT
  5
4D4
330
4D6
100
AcDbEntity
  8
0
  6
ByBlock
 62
     0
370
    -2
380
     1
100
AcDbMText
 10
561.5868459999999
 20
217.5356479578399
 30
0.0
 40
2.5
 41
0.0
 71
     5
 72
     1
  1
\A1;90
 73
     1
 44
1.0
  0
ENDBLK
  5
5BA
330
4D6
100
AcDbEntity
  8
0
100
AcDbBlockEnd
  0
BLOCK
  5
5BB
330
4E1
100
AcDbEntity
  8
0
100
AcDbBlockBegin
  2
*D67
 70
     1
 10
0.0
 20
0.0
 30
0.0
  3
*D67
  1

  0
POINT
  5
4D8
330
4E1
100
AcDbEntity
  8
DEFPOINTS
  6
ByBlock
 62
     7
380
     1
100
AcDbPoint
 10
516.586838
 20
327.2638403508528
 30
0.0
  0
POINT
  5
4D9
330
4E1
100
AcDbEntity
  8
DEFPOINTS
  6
ByBlock
 62
     7
380
     1
100
AcDbPoint
 10
606.5868539999999
 20
327.2638403508528
 30
0.0
  0
LINE
  5
4DA
330
4E1
100
AcDbEntity
  8
0
  6
ByBlock
 62
     7
370
    -2
380
     1
100
AcDbLine
 10
516.586838
 20
326.6388403508528
 30
0.0
 11
516.586838
 21
214.4106479578399
 31
0.0
  0
LINE
  5
4DB
330
4E1
100
AcDbEntity
  8
0
  6
ByBlock
 62
     7
370
    -2
380
     1
100
AcDbLine
 10
606.5868539999999
 20
326.6388403508528
 30
0.0
 11
606.5868539999999
 21
214.4106479578399
 31
0.0
  0
LINE
  5
4DC
330
4E1
100
AcDbEntity
  8
0
  6
ByBlock
 62
     7
370
    -2
380
     1
100
AcDbLine
 10
526.586838
 20
215.6606479578399
 30
0.0
 11
596.5868539999999
 21
215.6606479578399
 31
0.0
  0
SOLID
  5
4DD
330
4E1
100
AcDbEntity
  8
0
  6
ByBlock
 62
     7
380
     1
100
AcDbTrace
 10
516.586838
 20
215.6606479578399
 30
0.0
 11
526.586838
 21
213.9939812911732
 31
0.0
 12
526.586838
 22
217.3273146245065
 32
0.0
 13
526.586838
 23
217.3273146245065
 33
0.0
  0
SOLID
  5
4DE
330
4E1
100
AcDbEntity
  8
0
  6
ByBlock
 62
     7
380
     1
100
AcDbTrace
 10
606.5868539999999
 20
215.6606479578399
 30
0.0
 11
596.5868539999999
 21
213.9939812911732
 31
0.0
 12
596.5868539999999
 22
217.3273146245065
 32
0.0
 13
596.5868539999999
 23
217.3273146245065
 33
0.0
  0
MTEXT
  5
4DF
330
4E1
100
AcDbEntity
  8
0
  6
ByBlock
 62
     0
370
    -2
380
     1
100
AcDbMText
 10
561.5868459999999
 20
227.6606479578399
 30
0.0
 40
14.0
 41
0.0
 71
     5
 72
     1
  1
\A1;90
 73
     1
 44
1.0
  0
ENDBLK
  5
5BC
330
4E1
100
AcDbEntity
  8
0
100
AcDbBlockEnd
  0
BLOCK
  5
5BD
330
4EC
100
AcDbEntity
  8
0
100
AcDbBlockBegin
  2
*D68
 70
     1
 10
0.0
 20
0.0
 30
0.0
  3
*D68
  1

  0
POINT
  5
4E3
330
4EC
100
AcDbEntity
  8
DEFPOINTS
  6
ByBlock
 62
     7
380
     1
100
AcDbPoint
 10
516.586838
 20
327.2638403508528
 30
0.0
  0
POINT
  5
4E4
330
4EC
100
AcDbEntity
  8
DEFPOINTS
  6
ByBlock
 62
     7
380
     1
100
AcDbPoint
 10
606.5868539999999
 20
327.2638403508528
 30
0.0
  0
LINE
  5
4E5
330
4EC
100
AcDbEntity
  8
0
  6
ByBlock
 62
     7
370
    -2
380
     1
100
AcDbLine
 10
516.586838
 20
326.6388403508528
 30
0.0
 11
516.586838
 21
214.4106479578399
 31
0.0
  0
LINE
  5
4E6
330
4EC
100
AcDbEntity
  8
0
  6
ByBlock
 62
     7
370
    -2
380
     1
100
AcDbLine
 10
606.5868539999999
 20
326.6388403508528
 30
0.0
 11
606.5868539999999
 21
214.4106479578399
 31
0.0
  0
LINE
  5
4E7
330
4EC
100
AcDbEntity
  8
0
  6
ByBlock
 62
     7
370
    -2
380
     1
100
AcDbLine
 10
526.586838
 20
215.6606479578399
 30
0.0
 11
596.5868539999999
 21
215.6606479578399
 31
0.0
  0
SOLID
  5
4E8
330
4EC
100
AcDbEntity
  8
0
  6
ByBlock
 62
     7
380
     1
100
AcDbTrace
 10
516.586838
 20
215.6606479578399
 30
0.0
 11
526.586838
 21
213.9939812911732
 31
0.0
 12
526.586838
 22
217.3273146245065
 32
0.0
 13
526.586838
 23
217.3273146245065
 33
0.0
  0
SOLID
  5
4E9
330
4EC
100
AcDbEntity
  8
0
  6
ByBlock
 62
     7
380
     1
100
AcDbTrace
 10
606.5868539999999
 20
215.6606479578399
 30
0.0
 11
596.5868539999999
 21
213.9939812911732
 31
0.0
 12
596.5868539999999
 22
217.3273146245065
 32
0.0
 13
596.5868539999999
 23
217.3273146245065
 33
0.0
  0
MTEXT
  5
4EA
330
4EC
100
AcDbEntity
  8
0
  6
ByBlock
 62
     0
370
    -2
380
     1
100
AcDbMText
 10
561.5868459999999
 20
227.6606479578399
 30
0.0
 40
14.0
 41
0.0
 71
     5
 72
     1
  1
Ø90
 73
     1
 44
1.0
  0
ENDBLK
  5
5BE
330
4EC
100
AcDbEntity
  8
0
100
AcDbBlockEnd
  0
BLOCK
  5
5BF
330
4F7
100
AcDbEntity
  8
0
100
AcDbBlockBegin
  2
*D69
 70
     1
 10
0.0
 20
0.0
 30
0.0
  3
*D69
  1

  0
POINT
  5
4EE
330
4F7
100
AcDbEntity
  8
DEFPOINTS
  6
ByBlock
 62
     7
380
     1
100
AcDbPoint
 10
516.586838
 20
327.2638403508528
 30
0.0
  0
POINT
  5
4EF
330
4F7
100
AcDbEntity
  8
DEFPOINTS
  6
ByBlock
 62
     7
380
     1
100
AcDbPoint
 10
606.5868539999999
 20
327.2638403508528
 30
0.0
  0
LINE
  5
4F0
330
4F7
100
AcDbEntity
  8
0
  6
ByBlock
 62
     7
370
    -2
380
     1
100
AcDbLine
 10
516.586838
 20
326.6388403508528
 30
0.0
 11
516.586838
 21
209.9279671565766
 31
0.0
  0
LINE
  5
4F1
330
4F7
100
AcDbEntity
  8
0
  6
ByBlock
 62
     7
370
    -2
380
     1
100
AcDbLine
 10
606.5868539999999
 20
326.6388403508528
 30
0.0
 11
606.5868539999999
 21
209.9279671565766
 31
0.0
  0
LINE
  5
4F2
330
4F7
100
AcDbEntity
  8
0
  6
ByBlock
 62
     7
370
    -2
380
     1
100
AcDbLine
 10
526.586838
 20
211.1779671565766
 30
0.0
 11
596.5868539999999
 21
211.1779671565766
 31
0.0
  0
SOLID
  5
4F3
330
4F7
100
AcDbEntity
  8
0
  6
ByBlock
 62
     7
380
     1
100
AcDbTrace
 10
516.586838
 20
211.1779671565766
 30
0.0
 11
526.586838
 21
209.5113004899099
 31
0.0
 12
526.586838
 22
212.8446338232433
 32
0.0
 13
526.586838
 23
212.8446338232433
 33
0.0
  0
SOLID
  5
4F4
330
4F7
100
AcDbEntity
  8
0
  6
ByBlock
 62
     7
380
     1
100
AcDbTrace
 10
606.5868539999999
 20
211.1779671565766
 30
0.0
 11
596.5868539999999
 21
209.5113004899099
 31
0.0
 12
596.5868539999999
 22
212.8446338232433
 32
0.0
 13
596.5868539999999
 23
212.8446338232433
 33
0.0
  0
MTEXT
  5
4F5
330
4F7
100
AcDbEntity
  8
0
  6
ByBlock
 62
     0
370
    -2
380
     1
100
AcDbMText
 10
561.5868459999999
 20
223.1779671565766
 30
0.0
 40
14.0
 41
0.0
 71
     5
 72
     1
  1
Ø90
 73
     1
 44
1.0
  0
ENDBLK
  5
5C0
330
4F7
100
AcDbEntity
  8
0
100
AcDbBlockEnd
  0
BLOCK
  5
5C1
330
507
100
AcDbEntity
  8
0
100
AcDbBlockBegin
  2
*D70
 70
     1
 10
0.0
 20
0.0
 30
0.0
  3
*D70
  1

  0
POINT
  5
4FE
330
507
100
AcDbEntity
  8
DEFPOINTS
  6
ByBlock
 62
     0
380
     1
100
AcDbPoint
 10
584.6492675386806
 20
142.836486
 30
0.0
  0
POINT
  5
4FF
330
507
100
AcDbEntity
  8
DEFPOINTS
  6
ByBlock
 62
     0
380
     1
100
AcDbPoint
 10
584.6492675386806
 20
42.83648600000001
 30
0.0
  0
LINE
  5
500
330
507
100
AcDbEntity
  8
0
  6
ByBlock
 62
     0
370
    -2
380
     1
100
AcDbLine
 10
585.2742675386806
 20
142.836486
 30
0.0
 11
753.2627644864267
 21
142.836486
 31
0.0
  0
LINE
  5
501
330
507
100
AcDbEntity
  8
0
  6
ByBlock
 62
     0
370
    -2
380
     1
100
AcDbLine
 10
585.2742675386806
 20
42.83648600000001
 30
0.0
 11
753.2627644864267
 21
42.83648600000001
 31
0.0
  0
LINE
  5
502
330
507
100
AcDbEntity
  8
0
  6
ByBlock
 62
     0
370
    -2
380
     1
100
AcDbLine
 10
752.0127644864267
 20
140.336486
 30
0.0
 11
752.0127644864267
 21
45.33648600000001
 31
0.0
  0
SOLID
  5
503
330
507
100
AcDbEntity
  8
0
  6
ByBlock
 62
     0
380
     1
100
AcDbTrace
 10
752.0127644864267
 20
142.836486
 30
0.0
 11
751.5960978197601
 21
140.336486
 31
0.0
 12
752.4294311530933
 22
140.336486
 32
0.0
 13
752.4294311530933
 23
140.336486
 33
0.0
  0
SOLID
  5
504
330
507
100
AcDbEntity
  8
0
  6
ByBlock
 62
     0
380
     1
100
AcDbTrace
 10
752.0127644864267
 20
42.83648600000001
 30
0.0
 11
751.5960978197601
 21
45.33648600000001
 31
0.0
 12
752.4294311530933
 22
45.33648600000001
 32
0.0
 13
752.4294311530933
 23
45.33648600000001
 33
0.0
  0
MTEXT
  5
505
330
507
100
AcDbEntity
  8
0
  6
ByBlock
 62
     0
370
    -2
380
     1
100
AcDbMText
 10
750.1377644864267
 20
92.83648600000001
 30
0.0
 40
2.5
 41
0.0
 71
     5
 72
     1
  1
\A1;100
 11
6.123031769111886E-17
 21
1.0
 31
0.0
 73
     1
 44
1.0
  0
ENDBLK
  5
5C2
330
507
100
AcDbEntity
  8
0
100
AcDbBlockEnd
  0
BLOCK
  5
5C3
330
512
100
AcDbEntity
  8
0
100
AcDbBlockBegin
  2
*D71
 70
     1
 10
0.0
 20
0.0
 30
0.0
  3
*D71
  1

  0
POINT
  5
509
330
512
100
AcDbEntity
  8
DEFPOINTS
  6
ByBlock
 62
     0
380
     1
100
AcDbPoint
 10
584.6492675386806
 20
142.836486
 30
0.0
  0
POINT
  5
50A
330
512
100
AcDbEntity
  8
DEFPOINTS
  6
ByBlock
 62
     0
380
     1
100
AcDbPoint
 10
584.6492675386806
 20
42.83648600000001
 30
0.0
  0
LINE
  5
50B
330
512
100
AcDbEntity
  8
0
  6
ByBlock
 62
     0
370
    -2
380
     1
100
AcDbLine
 10
585.2742675386806
 20
142.836486
 30
0.0
 11
753.2627644864267
 21
142.836486
 31
0.0
  0
LINE
  5
50C
330
512
100
AcDbEntity
  8
0
  6
ByBlock
 62
     0
370
    -2
380
     1
100
AcDbLine
 10
585.2742675386806
 20
42.83648600000001
 30
0.0
 11
753.2627644864267
 21
42.83648600000001
 31
0.0
  0
LINE
  5
50D
330
512
100
AcDbEntity
  8
0
  6
ByBlock
 62
     0
370
    -2
380
     1
100
AcDbLine
 10
752.0127644864267
 20
140.336486
 30
0.0
 11
752.0127644864267
 21
45.33648600000001
 31
0.0
  0
SOLID
  5
50E
330
512
100
AcDbEntity
  8
0
  6
ByBlock
 62
     0
380
     1
100
AcDbTrace
 10
752.0127644864267
 20
142.836486
 30
0.0
 11
751.5960978197601
 21
140.336486
 31
0.0
 12
752.4294311530933
 22
140.336486
 32
0.0
 13
752.4294311530933
 23
140.336486
 33
0.0
  0
SOLID
  5
50F
330
512
100
AcDbEntity
  8
0
  6
ByBlock
 62
     0
380
     1
100
AcDbTrace
 10
752.0127644864267
 20
42.83648600000001
 30
0.0
 11
751.5960978197601
 21
45.33648600000001
 31
0.0
 12
752.4294311530933
 22
45.33648600000001
 32
0.0
 13
752.4294311530933
 23
45.33648600000001
 33
0.0
  0
MTEXT
  5
510
330
512
100
AcDbEntity
  8
0
  6
ByBlock
 62
     0
370
    -2
380
     1
100
AcDbMText
 10
750.1377644864267
 20
92.83648600000001
 30
0.0
 40
2.5
 41
0.0
 71
     5
 72
     1
  1
\A1;100
 11
6.123031769111886E-17
 21
1.0
 31
0.0
 73
     1
 44
1.0
  0
ENDBLK
  5
5C4
330
512
100
AcDbEntity
  8
0
100
AcDbBlockEnd
  0
BLOCK
  5
5C5
330
51D
100
AcDbEntity
  8
0
100
AcDbBlockBegin
  2
*D72
 70
     1
 10
0.0
 20
0.0
 30
0.0
  3
*D72
  1

  0
POINT
  5
514
330
51D
100
AcDbEntity
  8
DEFPOINTS
  6
ByBlock
 62
     7
380
     1
100
AcDbPoint
 10
584.6492675386806
 20
142.836486
 30
0.0
  0
POINT
  5
515
330
51D
100
AcDbEntity
  8
DEFPOINTS
  6
ByBlock
 62
     7
380
     1
100
AcDbPoint
 10
584.6492675386806
 20
42.83648600000001
 30
0.0
  0
LINE
  5
516
330
51D
100
AcDbEntity
  8
0
  6
ByBlock
 62
     7
370
    -2
380
     1
100
AcDbLine
 10
585.2742675386806
 20
142.836486
 30
0.0
 11
753.2627644864267
 21
142.836486
 31
0.0
  0
LINE
  5
517
330
51D
100
AcDbEntity
  8
0
  6
ByBlock
 62
     7
370
    -2
380
     1
100
AcDbLine
 10
585.2742675386806
 20
42.83648600000001
 30
0.0
 11
753.2627644864267
 21
42.83648600000001
 31
0.0
  0
LINE
  5
518
330
51D
100
AcDbEntity
  8
0
  6
ByBlock
 62
     7
370
    -2
380
     1
100
AcDbLine
 10
752.0127644864267
 20
132.836486
 30
0.0
 11
752.0127644864267
 21
52.83648600000001
 31
0.0
  0
SOLID
  5
519
330
51D
100
AcDbEntity
  8
0
  6
ByBlock
 62
     7
380
     1
100
AcDbTrace
 10
752.0127644864267
 20
142.836486
 30
0.0
 11
750.3460978197601
 21
132.836486
 31
0.0
 12
753.6794311530933
 22
132.836486
 32
0.0
 13
753.6794311530933
 23
132.836486
 33
0.0
  0
SOLID
  5
51A
330
51D
100
AcDbEntity
  8
0
  6
ByBlock
 62
     7
380
     1
100
AcDbTrace
 10
752.0127644864267
 20
42.83648600000001
 30
0.0
 11
750.3460978197601
 21
52.83648600000001
 31
0.0
 12
753.6794311530933
 22
52.83648600000001
 32
0.0
 13
753.6794311530933
 23
52.83648600000001
 33
0.0
  0
MTEXT
  5
51B
330
51D
100
AcDbEntity
  8
0
  6
ByBlock
 62
     0
370
    -2
380
     1
100
AcDbMText
 10
740.0127644864267
 20
92.83648600000001
 30
0.0
 40
14.0
 41
0.0
 71
     5
 72
     1
  1
\A1;100
 11
6.123031769111886E-17
 21
1.0
 31
0.0
 73
     1
 44
1.0
  0
ENDBLK
  5
5C6
330
51D
100
AcDbEntity
  8
0
100
AcDbBlockEnd
  0
BLOCK
  5
5C7
330
529
100
AcDbEntity
  8
0
100
AcDbBlockBegin
  2
*D73
 70
     1
 10
0.0
 20
0.0
 30
0.0
  3
*D73
  1

  0
POINT
  5
520
330
529
100
AcDbEntity
  8
DEFPOINTS
  6
ByBlock
 62
     7
380
     1
100
AcDbPoint
 10
584.6492675386806
 20
142.836486
 30
0.0
  0
POINT
  5
521
330
529
100
AcDbEntity
  8
DEFPOINTS
  6
ByBlock
 62
     7
380
     1
100
AcDbPoint
 10
584.6492675386806
 20
42.83648600000001
 30
0.0
  0
LINE
  5
522
330
529
100
AcDbEntity
  8
0
  6
ByBlock
 62
     7
370
    -2
380
     1
100
AcDbLine
 10
585.2742675386806
 20
142.836486
 30
0.0
 11
741.2627644864267
 21
142.836486
 31
0.0
  0
LINE
  5
523
330
529
100
AcDbEntity
  8
0
  6
ByBlock
 62
     7
370
    -2
380
     1
100
AcDbLine
 10
585.2742675386806
 20
42.83648600000001
 30
0.0
 11
741.2627644864267
 21
42.83648600000001
 31
0.0
  0
LINE
  5
524
330
529
100
AcDbEntity
  8
0
  6
ByBlock
 62
     7
370
    -2
380
     1
100
AcDbLine
 10
740.0127644864267
 20
132.836486
 30
0.0
 11
740.0127644864267
 21
52.83648600000001
 31
0.0
  0
SOLID
  5
525
330
529
100
AcDbEntity
  8
0
  6
ByBlock
 62
     7
380
     1
100
AcDbTrace
 10
740.0127644864267
 20
142.836486
 30
0.0
 11
738.3460978197601
 21
132.836486
 31
0.0
 12
741.6794311530933
 22
132.836486
 32
0.0
 13
741.6794311530933
 23
132.836486
 33
0.0
  0
SOLID
  5
526
330
529
100
AcDbEntity
  8
0
  6
ByBlock
 62
     7
380
     1
100
AcDbTrace
 10
740.0127644864267
 20
42.83648600000001
 30
0.0
 11
738.3460978197601
 21
52.83648600000001
 31
0.0
 12
741.6794311530933
 22
52.83648600000001
 32
0.0
 13
741.6794311530933
 23
52.83648600000001
 33
0.0
  0
MTEXT
  5
527
330
529
100
AcDbEntity
  8
0
  6
ByBlock
 62
     0
370
    -2
380
     1
100
AcDbMText
 10
728.0127644864267
 20
92.83648600000001
 30
0.0
 40
14.0
 41
0.0
 71
     5
 72
     1
  1
\A1;100
 11
6.123031769111886E-17
 21
1.0
 31
0.0
 73
     1
 44
1.0
  0
ENDBLK
  5
5C8
330
529
100
AcDbEntity
  8
0
100
AcDbBlockEnd
  0
ENDSEC
  0
SECTION
  2
ENTITIES
  0
POINT
  5
2E4
330
1F
100
AcDbEntity
  8
2
 62
     7
370
    60
100
AcDbPoint
 10
681.586854
 20
92.836486
 30
0.0
  0
POINT
  5
2E5
330
1F
100
AcDbEntity
  8
2
 62
     7
370
    60
100
AcDbPoint
 10
676.59372
 20
92.836486
 30
0.0
  0
POINT
  5
2E6
330
1F
100
AcDbEntity
  8
2
 62
     7
370
    60
100
AcDbPoint
 10
561.586838
 20
92.836486
 30
0.0
  0
LINE
  5
2E7
330
1F
100
AcDbEntity
  8
2
  6
DASHDOT
 62
     7
370
    25
100
AcDbLine
 10
561.586838
 20
238.37854
 30
0.0
 11
561.586838
 21
615.178498
 31
0.0
  0
LINE
  5
2E8
330
1F
100
AcDbEntity
  8
2
  6
DASHDOT
 62
     7
 48
0.00191
370
    60
100
AcDbLine
 10
606.599578
 20
311.778534
 30
0.0
 11
606.446746
 21
311.778534
 31
0.0
  0
LINE
  5
2E9
330
1F
100
AcDbEntity
  8
2
  6
DASHDOT
 62
     7
370
    25
100
AcDbLine
 10
561.586838
 20
32.836486
 30
0.0
 11
561.586838
 21
152.836486
 31
0.0
  0
LINE
  5
2EA
330
1F
100
AcDbEntity
  8
2
  6
DASHDOT
 62
     7
370
    25
100
AcDbLine
 10
706.8696771463667
 20
92.836486
 30
0.0
 11
405.586838
 21
92.836486
 31
0.0
  0
POINT
  5
39A
330
1F
100
AcDbEntity
  8
2
 62
     0
370
    60
100
AcDbPoint
 10
431.586838
 20
633.77853
 30
0.0
  0
POINT
  5
39B
330
1F
100
AcDbEntity
  8
2
 62
     0
370
    60
100
AcDbPoint
 10
691.586838
 20
633.77853
 30
0.0
  0
POINT
  5
3A3
330
1F
100
AcDbEntity
  8
2
 62
     0
370
    60
100
AcDbPoint
 10
431.586838
 20
633.77853
 30
0.0
  0
POINT
  5
3A4
330
1F
100
AcDbEntity
  8
2
 62
     0
370
    60
100
AcDbPoint
 10
441.586838
 20
583.77853
 30
0.0
  0
POINT
  5
3AC
330
1F
100
AcDbEntity
  8
2
 62
     0
370
    60
100
AcDbPoint
 10
516.586838
 20
269.77853
 30
0.0
  0
POINT
  5
3AD
330
1F
100
AcDbEntity
  8
2
 62
     0
370
    60
100
AcDbPoint
 10
606.586838
 20
269.77853
 30
0.0
  0
POINT
  5
3B5
330
1F
100
AcDbEntity
  8
2
 62
     0
370
    60
100
AcDbPoint
 10
690.036838
 20
608.77853
 30
0.0
  0
POINT
  5
3B6
330
1F
100
AcDbEntity
  8
2
 62
     0
370
    60
100
AcDbPoint
 10
691.586838
 20
633.77853
 30
0.0
  0
POINT
  5
3BE
330
1F
100
AcDbEntity
  8
2
 62
     0
370
    60
100
AcDbPoint
 10
676.586838
 20
617.22853
 30
0.0
  0
POINT
  5
3BF
330
1F
100
AcDbEntity
  8
2
 62
     0
370
    60
100
AcDbPoint
 10
681.586838
 20
617.22853
 30
0.0
  0
POINT
  5
3C7
330
1F
100
AcDbEntity
  8
2
 62
     0
370
    60
100
AcDbPoint
 10
621.586838
 20
617.22853
 30
0.0
  0
POINT
  5
3C8
330
1F
100
AcDbEntity
  8
2
 62
     0
370
    60
100
AcDbPoint
 10
616.586838
 20
617.22853
 30
0.0
  0
POINT
  5
3D1
330
1F
100
AcDbEntity
  8
2
 62
     0
370
    60
100
AcDbPoint
 10
616.586838
 20
617.22853
 30
0.0
  0
POINT
  5
3D2
330
1F
100
AcDbEntity
  8
2
 62
     0
370
    60
100
AcDbPoint
 10
506.586838
 20
617.22853
 30
0.0
  0
LINE
  5
3DA
330
1F
100
AcDbEntity
  8
2
 62
     0
370
    60
100
AcDbLine
 10
676.4968379999999
 20
608.77853
 30
0.0
 11
676.676838
 21
608.77853
 31
0.0
  0
LINE
  5
3DB
330
1F
100
AcDbEntity
  8
2
 62
     0
370
    60
100
AcDbLine
 10
676.586838
 20
608.8685300000001
 30
0.0
 11
676.586838
 21
608.68853
 31
0.0
  0
POINT
  5
3E2
330
1F
100
AcDbEntity
  8
2
 62
     0
370
    60
100
AcDbPoint
 10
681.586838
 20
92.836486
 30
0.0
  0
POINT
  5
3E3
330
1F
100
AcDbEntity
  8
2
 62
     0
370
    60
100
AcDbPoint
 10
676.59372
 20
92.836486
 30
0.0
  0
POINT
  5
3EC
330
1F
100
AcDbEntity
  8
2
 62
     0
370
    60
100
AcDbPoint
 10
621.586838
 20
84.386486
 30
0.0
  0
POINT
  5
3ED
330
1F
100
AcDbEntity
  8
2
 62
     0
370
    60
100
AcDbPoint
 10
676.59372
 20
92.836486
 30
0.0
  0
POINT
  5
3F5
330
1F
100
AcDbEntity
  8
2
 62
     0
370
    60
100
AcDbPoint
 10
616.586838
 20
84.386486
 30
0.0
  0
POINT
  5
3F6
330
1F
100
AcDbEntity
  8
2
 62
     0
370
    60
100
AcDbPoint
 10
621.586838
 20
84.386486
 30
0.0
  0
POINT
  5
3FE
330
1F
100
AcDbEntity
  8
2
 62
     0
370
    60
100
AcDbPoint
 10
616.586838
 20
84.386486
 30
0.0
  0
POINT
  5
3FF
330
1F
100
AcDbEntity
  8
2
 62
     0
370
    60
100
AcDbPoint
 10
561.586838
 20
92.836486
 30
0.0
  0
POINT
  5
407
330
1F
100
AcDbEntity
  8
0
 62
     0
370
    60
100
AcDbPoint
 10
606.586838
 20
269.77853
 30
0.0
  0
POINT
  5
408
330
1F
100
AcDbEntity
  8
0
 62
     0
370
    60
100
AcDbPoint
 10
691.586838
 20
633.77853
 30
0.0
  0
LINE
  5
410
330
1F
100
AcDbEntity
  8
0
  6
DASHDOT
 62
     7
 48
0.21125
370
    25
100
AcDbLine
 10
685.036834
 20
608.778534
 30
0.0
 11
668.13684
 21
608.778534
 31
0.0
  0
LINE
  5
411
330
1F
100
AcDbEntity
  8
0
  6
DASHDOT
 62
     7
 48
0.21125
370
    25
100
AcDbLine
 10
676.5868539999999
 20
617.228546
 30
0.0
 11
676.5868539999999
 21
600.328522
 31
0.0
  0
LINE
  5
412
330
1F
100
AcDbEntity
  8
0
  6
DASHDOT
 62
     7
 48
0.21125
370
    25
100
AcDbLine
 10
690.036834
 20
608.778534
 30
0.0
 11
673.13684
 21
608.778534
 31
0.0
  0
LINE
  5
413
330
1F
100
AcDbEntity
  8
0
  6
DASHDOT
 62
     7
 48
0.21125
370
    25
100
AcDbLine
 10
681.5868539999999
 20
617.228546
 30
0.0
 11
681.5868539999999
 21
600.328522
 31
0.0
  0
LINE
  5
414
330
1F
100
AcDbEntity
  8
0
  6
DASHDOT
 62
     7
 48
0.21125
370
    25
100
AcDbLine
 10
625.036834
 20
608.778534
 30
0.0
 11
608.13684
 21
608.778534
 31
0.0
  0
LINE
  5
415
330
1F
100
AcDbEntity
  8
0
  6
DASHDOT
 62
     7
 48
0.21125
370
    25
100
AcDbLine
 10
616.5868539999999
 20
617.228546
 30
0.0
 11
616.5868539999999
 21
600.328522
 31
0.0
  0
LINE
  5
416
330
1F
100
AcDbEntity
  8
0
  6
DASHDOT
 62
     7
 48
0.21125
370
    25
100
AcDbLine
 10
630.036834
 20
608.778534
 30
0.0
 11
613.13684
 21
608.778534
 31
0.0
  0
LINE
  5
417
330
1F
100
AcDbEntity
  8
0
  6
DASHDOT
 62
     7
 48
0.21125
370
    25
100
AcDbLine
 10
621.5868539999999
 20
617.228546
 30
0.0
 11
621.5868539999999
 21
600.328522
 31
0.0
  0
LINE
  5
418
330
1F
100
AcDbEntity
  8
0
  6
DASHDOT
 62
     7
 48
0.21125
370
    60
100
AcDbLine
 10
510.036834
 20
608.778534
 30
0.0
 11
493.13684
 21
608.778534
 31
0.0
  0
LINE
  5
419
330
1F
100
AcDbEntity
  8
0
  6
DASHDOT
 62
     7
 48
0.21125
370
    25
100
AcDbLine
 10
501.5868379999999
 20
617.228546
 30
0.0
 11
501.5868379999999
 21
600.328522
 31
0.0
  0
LINE
  5
41A
330
1F
100
AcDbEntity
  8
0
  6
DASHDOT
 62
     7
 48
0.21125
370
    25
100
AcDbLine
 10
515.036834
 20
608.778534
 30
0.0
 11
498.13684
 21
608.778534
 31
0.0
  0
LINE
  5
41B
330
1F
100
AcDbEntity
  8
0
  6
DASHDOT
 62
     7
 48
0.21125
370
    25
100
AcDbLine
 10
506.5868379999999
 20
617.228546
 30
0.0
 11
506.5868379999999
 21
600.328522
 31
0.0
  0
LINE
  5
41C
330
1F
100
AcDbEntity
  8
0
  6
DASHDOT
 62
     7
 48
0.21125
370
    60
100
AcDbLine
 10
455.036834
 20
608.778534
 30
0.0
 11
438.13684
 21
608.778534
 31
0.0
  0
LINE
  5
41D
330
1F
100
AcDbEntity
  8
0
  6
DASHDOT
 62
     7
 48
0.21125
370
    25
100
AcDbLine
 10
446.586838
 20
617.228546
 30
0.0
 11
446.586838
 21
600.328522
 31
0.0
  0
LINE
  5
41E
330
1F
100
AcDbEntity
  8
0
  6
DASHDOT
 62
     7
 48
0.21125
370
    25
100
AcDbLine
 10
450.036834
 20
608.778534
 30
0.0
 11
433.13684
 21
608.778534
 31
0.0
  0
LINE
  5
41F
330
1F
100
AcDbEntity
  8
0
  6
DASHDOT
 62
     7
 48
0.21125
370
    25
100
AcDbLine
 10
441.586838
 20
617.228546
 30
0.0
 11
441.586838
 21
600.328522
 31
0.0
  0
LINE
  5
420
330
1F
100
AcDbEntity
  8
0
  6
DASHDOT
 62
     7
 48
0.073125
370
    25
100
AcDbLine
 10
564.51184
 20
573.778534
 30
0.0
 11
558.661834
 21
573.778534
 31
0.0
  0
LINE
  5
421
330
1F
100
AcDbEntity
  8
0
  6
DASHDOT
 62
     7
 48
0.073125
370
    60
100
AcDbLine
 10
561.586838
 20
576.703522
 30
0.0
 11
561.586838
 21
570.853546
 31
0.0
  0
LINE
  5
422
330
1F
100
AcDbEntity
  8
0
 62
     7
370
    60
100
AcDbLine
 10
606.5868539999999
 20
269.778534
 30
0.0
 11
561.586838
 21
269.778534
 31
0.0
  0
LINE
  5
423
330
1F
100
AcDbEntity
  8
0
 62
     7
370
    60
100
AcDbLine
 10
561.586838
 20
269.778534
 30
0.0
 11
516.586838
 21
269.778534
 31
0.0
  0
CIRCLE
  5
424
330
1F
100
AcDbEntity
  8
0
 62
     7
370
    60
100
AcDbCircle
 10
561.586838
 20
573.778534
 30
0.0
 40
2.25
  0
LWPOLYLINE
  5
429
330
1F
100
AcDbEntity
  8
0
 62
     7
370
    60
100
AcDbPolyline
 90
       24
 70
     0
 43
0.0
 10
539.086822
 20
315.153596
 10
539.501908
 20
315.119476
 10
539.91034
 20
315.018616
 10
540.30272
 20
314.85321
 10
540.6707
 20
314.628174
 10
541.007188
 20
314.349304
 10
541.306504
 20
314.021454
 10
541.563706
 20
313.64914
 10
541.773574
 20
313.238312
 10
541.9310459999999
 20
312.79657
 10
542.031692
 20
312.332612
 10
542.072266
 20
311.85614
 10
542.0512699999999
 20
311.377502
 10
541.969376
 20
310.90738
 10
541.829438
 20
310.456268
 10
541.635346
 20
310.033416
 10
541.391648
 20
309.64676
 10
541.103546
 20
309.3031
 10
540.776916
 20
309.00821
 10
540.4182579999999
 20
308.76712
 10
540.034668
 20
308.584106
 10
539.633834
 20
308.462952
 10
539.223968
 20
308.407074
 10
539.086838
 20
308.403534
  0
LWPOLYLINE
  5
42A
330
1F
100
AcDbEntity
  8
0
 62
     7
370
    60
100
AcDbPolyline
 90
       15
 70
     0
 43
0.0
 10
536.227356
 20
311.782592
 10
536.247024
 20
312.17691
 10
536.3110819999999
 20
312.59671
 10
536.416854
 20
313.004456
 10
536.556748
 20
313.366456
 10
536.72818
 20
313.6969
 10
536.925216
 20
314.002868
 10
537.1471859999999
 20
314.272186
 10
537.394882
 20
314.503448
 10
537.659576
 20
314.708558
 10
537.943328
 20
314.879608
 10
538.249726
 20
315.00882
 10
538.57547
 20
315.097626
 10
538.914322
 20
315.146546
 10
539.086822
 20
315.153534
  0
LWPOLYLINE
  5
42B
330
1F
100
AcDbEntity
  8
0
 62
     7
370
    60
100
AcDbPolyline
 90
       13
 70
     0
 43
0.0
 10
539.086822
 20
308.403534
 10
538.694046
 20
308.429596
 10
538.311294
 20
308.514068
 10
537.946732
 20
308.660644
 10
537.606704
 20
308.867126
 10
537.2952419999999
 20
309.128234
 10
537.0135339999999
 20
309.438018
 10
536.765182
 20
309.790954
 10
536.560516
 20
310.17981
 10
536.404328
 20
310.596192
 10
536.297196
 20
311.03189
 10
536.2386779999999
 20
311.479798
 10
536.227356
 20
311.782592
  0
LINE
  5
42C
330
1F
100
AcDbEntity
  8
0
 62
     7
 48
0.001284
370
    60
100
AcDbLine
 10
606.5792839999999
 20
315.051056
 30
0.0
 11
606.5868539999999
 21
315.153534
 31
0.0
  0
ARC
  5
42D
330
1F
100
AcDbEntity
  8
0
 62
     7
370
    60
100
AcDbCircle
 10
648.650666
 20
311.883178
 30
0.0
 40
42.188698
100
AcDbArc
 50
176.933428
 51
177.807419
  0
LINE
  5
42E
330
1F
100
AcDbEntity
  8
0
 62
     7
 48
0.001107
370
    60
100
AcDbLine
 10
606.478608
 20
313.065032
 30
0.0
 11
606.4812019999999
 21
313.153534
 31
0.0
  0
ARC
  5
42F
330
1F
100
AcDbEntity
  8
0
 62
     7
370
    60
100
AcDbCircle
 10
651.0221859999999
 20
311.790466
 30
0.0
 40
44.562184
100
AcDbArc
 50
180.010769
 51
182.148578
  0
LINE
  5
430
330
1F
100
AcDbEntity
  8
0
 62
     7
 48
0.001475
370
    60
100
AcDbLine
 10
606.492798
 20
310.05606
 30
0.0
 11
606.4891359999999
 21
310.17398
 31
0.0
  0
ARC
  5
431
330
1F
100
AcDbEntity
  8
0
 62
     7
370
    60
100
AcDbCircle
 10
648.5499580000001
 20
311.567994
 30
0.0
 40
42.082248
100
AcDbArc
 50
182.928271
 51
184.311821
  0
LINE
  5
432
330
1F
100
AcDbEntity
  8
0
 62
     7
 48
0.001333
370
    60
100
AcDbLine
 10
606.5868539999999
 20
308.403534
 30
0.0
 11
606.57904
 21
308.509858
 31
0.0
  0
LWPOLYLINE
  5
433
330
1F
100
AcDbEntity
  8
0
 62
     7
370
    60
100
AcDbPolyline
 90
        5
 70
     0
 43
0.0
 10
606.5868539999999
 20
308.403534
 10
606.489776
 20
310.14264
 10
606.460144
 20
311.858704
 10
606.48993
 20
313.408966
 10
606.5868539999999
 20
315.153534
  0
LINE
  5
438
330
1F
100
AcDbEntity
  8
0
 62
     7
370
    60
100
AcDbLine
 10
516.586838
 20
269.778534
 30
0.0
 11
516.586838
 21
583.778472
 31
0.0
  0
LINE
  5
439
330
1F
100
AcDbEntity
  8
0
 62
     7
 48
0.482813
370
    60
100
AcDbLine
 10
606.5868539999999
 20
269.778534
 30
0.0
 11
606.5868539999999
 21
308.403534
 31
0.0
  0
LINE
  5
43A
330
1F
100
AcDbEntity
  8
0
 62
     7
370
    60
100
AcDbLine
 10
606.5868539999999
 20
315.153534
 30
0.0
 11
606.5868539999999
 21
583.778472
 31
0.0
  0
LINE
  5
43B
330
1F
100
AcDbEntity
  8
0
 62
     7
370
    60
100
AcDbLine
 10
691.5868539999999
 20
593.778534
 30
0.0
 11
691.5868539999999
 21
633.778534
 31
0.0
  0
LINE
  5
43C
330
1F
100
AcDbEntity
  8
0
 62
     7
370
    60
100
AcDbLine
 10
431.586838
 20
593.778534
 30
0.0
 11
431.586838
 21
633.778534
 31
0.0
  0
LINE
  5
43D
330
1F
100
AcDbEntity
  8
0
 62
     7
370
    60
100
AcDbLine
 10
691.5868539999999
 20
633.778534
 30
0.0
 11
431.586838
 21
633.778534
 31
0.0
  0
ARC
  5
43E
330
1F
100
AcDbEntity
  8
0
 62
     7
370
    60
100
AcDbCircle
 10
681.5868539999999
 20
593.778534
 30
0.0
 40
10.0
100
AcDbArc
 50
270.000001
 51
0.00001
  0
LINE
  5
43F
330
1F
100
AcDbEntity
  8
0
 62
     7
370
    60
100
AcDbLine
 10
681.5868539999999
 20
583.778534
 30
0.0
 11
441.586838
 21
583.778534
 31
0.0
  0
ARC
  5
440
330
1F
100
AcDbEntity
  8
0
 62
     7
370
    60
100
AcDbCircle
 10
441.586838
 20
593.778534
 30
0.0
 40
10.0
100
AcDbArc
 50
180.000005
 51
270.000001
  0
LINE
  5
441
330
1F
100
AcDbEntity
  8
0
 62
     7
 48
0.0625
370
    60
100
AcDbLine
 10
616.5868539999999
 20
602.278534
 30
0.0
 11
621.5868539999999
 21
602.278534
 31
0.0
  0
ARC
  5
442
330
1F
100
AcDbEntity
  8
0
 62
     7
370
    60
100
AcDbCircle
 10
621.5868539999999
 20
608.778534
 30
0.0
 40
6.5
100
AcDbArc
 50
270.000001
 51
89.99998900000001
  0
LINE
  5
443
330
1F
100
AcDbEntity
  8
0
 62
     7
 48
0.0625
370
    60
100
AcDbLine
 10
616.5868539999999
 20
615.278534
 30
0.0
 11
621.5868539999999
 21
615.278534
 31
0.0
  0
ARC
  5
444
330
1F
100
AcDbEntity
  8
0
 62
     7
370
    60
100
AcDbCircle
 10
616.5868539999999
 20
608.778534
 30
0.0
 40
6.5
100
AcDbArc
 50
90.000003
 51
270.000001
  0
LINE
  5
445
330
1F
100
AcDbEntity
  8
0
 62
     7
 48
0.0625
370
    60
100
AcDbLine
 10
676.5868539999999
 20
602.278534
 30
0.0
 11
681.5868539999999
 21
602.278534
 31
0.0
  0
ARC
  5
446
330
1F
100
AcDbEntity
  8
0
 62
     7
370
    60
100
AcDbCircle
 10
681.5868539999999
 20
608.778534
 30
0.0
 40
6.5
100
AcDbArc
 50
270.000001
 51
89.99998900000001
  0
LINE
  5
447
330
1F
100
AcDbEntity
  8
0
 62
     7
 48
0.0625
370
    60
100
AcDbLine
 10
676.5868539999999
 20
615.278534
 30
0.0
 11
681.5868539999999
 21
615.278534
 31
0.0
  0
ARC
  5
448
330
1F
100
AcDbEntity
  8
0
 62
     7
370
    60
100
AcDbCircle
 10
676.5868539999999
 20
608.778534
 30
0.0
 40
6.5
100
AcDbArc
 50
90.000003
 51
270.000001
  0
LINE
  5
449
330
1F
100
AcDbEntity
  8
0
 62
     7
 48
0.0625
370
    60
100
AcDbLine
 10
501.5868379999999
 20
615.278534
 30
0.0
 11
506.5868379999999
 21
615.278534
 31
0.0
  0
ARC
  5
44A
330
1F
100
AcDbEntity
  8
0
 62
     7
370
    60
100
AcDbCircle
 10
501.5868379999999
 20
608.778534
 30
0.0
 40
6.5
100
AcDbArc
 50
90.000003
 51
270.000001
  0
LINE
  5
44B
330
1F
100
AcDbEntity
  8
0
 62
     7
 48
0.0625
370
    60
100
AcDbLine
 10
501.5868379999999
 20
602.278534
 30
0.0
 11
506.5868379999999
 21
602.278534
 31
0.0
  0
ARC
  5
44C
330
1F
100
AcDbEntity
  8
0
 62
     7
370
    60
100
AcDbCircle
 10
506.5868379999999
 20
608.778534
 30
0.0
 40
6.5
100
AcDbArc
 50
270.000001
 51
89.99998900000001
  0
LINE
  5
44D
330
1F
100
AcDbEntity
  8
0
 62
     7
 48
0.0625
370
    60
100
AcDbLine
 10
441.586838
 20
615.278534
 30
0.0
 11
446.586838
 21
615.278534
 31
0.0
  0
ARC
  5
44E
330
1F
100
AcDbEntity
  8
0
 62
     7
370
    60
100
AcDbCircle
 10
441.586838
 20
608.778534
 30
0.0
 40
6.5
100
AcDbArc
 50
90.000003
 51
270.000001
  0
LINE
  5
44F
330
1F
100
AcDbEntity
  8
0
 62
     7
 48
0.0625
370
    60
100
AcDbLine
 10
441.586838
 20
602.278534
 30
0.0
 11
446.586838
 21
602.278534
 31
0.0
  0
ARC
  5
450
330
1F
100
AcDbEntity
  8
0
 62
     7
370
    60
100
AcDbCircle
 10
446.586838
 20
608.778534
 30
0.0
 40
6.5
100
AcDbArc
 50
270.000001
 51
89.99998900000001
  0
LINE
  5
451
330
1F
100
AcDbEntity
  8
0
  6
DASHDOT
 62
     7
 48
0.21125
370
    25
100
AcDbLine
 10
685.036834
 20
92.83648600000001
 30
0.0
 11
668.13684
 21
92.83648600000001
 31
0.0
  0
LINE
  5
452
330
1F
100
AcDbEntity
  8
0
  6
DASHDOT
 62
     7
 48
0.21125
370
    25
100
AcDbLine
 10
676.5868539999999
 20
101.286484
 30
0.0
 11
676.5868539999999
 21
84.38649000000001
 31
0.0
  0
LINE
  5
453
330
1F
100
AcDbEntity
  8
0
  6
DASHDOT
 62
     7
 48
0.21125
370
    25
100
AcDbLine
 10
690.036834
 20
92.83648600000001
 30
0.0
 11
673.13684
 21
92.83648600000001
 31
0.0
  0
LINE
  5
454
330
1F
100
AcDbEntity
  8
0
  6
DASHDOT
 62
     7
 48
0.21125
370
    25
100
AcDbLine
 10
681.5868539999999
 20
101.286484
 30
0.0
 11
681.5868539999999
 21
84.38649000000001
 31
0.0
  0
LINE
  5
455
330
1F
100
AcDbEntity
  8
0
  6
DASHDOT
 62
     7
 48
0.21125
370
    25
100
AcDbLine
 10
630.036834
 20
92.83648600000001
 30
0.0
 11
613.13684
 21
92.83648600000001
 31
0.0
  0
LINE
  5
456
330
1F
100
AcDbEntity
  8
0
  6
DASHDOT
 62
     7
 48
0.21125
370
    25
100
AcDbLine
 10
621.5868539999999
 20
101.286484
 30
0.0
 11
621.5868539999999
 21
84.38649000000001
 31
0.0
  0
LINE
  5
457
330
1F
100
AcDbEntity
  8
0
  6
DASHDOT
 62
     7
 48
0.21125
370
    25
100
AcDbLine
 10
625.036834
 20
92.83648600000001
 30
0.0
 11
608.13684
 21
92.83648600000001
 31
0.0
  0
LINE
  5
458
330
1F
100
AcDbEntity
  8
0
  6
DASHDOT
 62
     7
 48
0.21125
370
    25
100
AcDbLine
 10
616.5868539999999
 20
101.286484
 30
0.0
 11
616.5868539999999
 21
84.38649000000001
 31
0.0
  0
LINE
  5
459
330
1F
100
AcDbEntity
  8
0
  6
DASHDOT
 62
     7
 48
0.21125
370
    25
100
AcDbLine
 10
515.036834
 20
92.83648600000001
 30
0.0
 11
498.13684
 21
92.83648600000001
 31
0.0
  0
LINE
  5
45A
330
1F
100
AcDbEntity
  8
0
  6
DASHDOT
 62
     7
 48
0.21125
370
    25
100
AcDbLine
 10
506.5868379999999
 20
101.286484
 30
0.0
 11
506.5868379999999
 21
84.38649000000001
 31
0.0
  0
LINE
  5
45B
330
1F
100
AcDbEntity
  8
0
  6
DASHDOT
 62
     7
 48
0.21125
370
    60
100
AcDbLine
 10
510.036834
 20
92.83648600000001
 30
0.0
 11
493.13684
 21
92.83648600000001
 31
0.0
  0
LINE
  5
45C
330
1F
100
AcDbEntity
  8
0
  6
DASHDOT
 62
     7
 48
0.21125
370
    25
100
AcDbLine
 10
501.5868379999999
 20
101.286484
 30
0.0
 11
501.5868379999999
 21
84.38649000000001
 31
0.0
  0
LINE
  5
45D
330
1F
100
AcDbEntity
  8
0
 62
     7
370
    60
100
AcDbLine
 10
691.5868539999999
 20
42.83648600000001
 30
0.0
 11
691.5868539999999
 21
142.836486
 31
0.0
  0
LINE
  5
45E
330
1F
100
AcDbEntity
  8
0
 62
     7
370
    60
100
AcDbLine
 10
431.586838
 20
42.83648600000001
 30
0.0
 11
431.586838
 21
142.836486
 31
0.0
  0
LINE
  5
45F
330
1F
100
AcDbEntity
  8
0
 62
     7
370
    60
100
AcDbLine
 10
691.5868539999999
 20
142.836486
 30
0.0
 11
431.586838
 21
142.836486
 31
0.0
  0
LINE
  5
460
330
1F
100
AcDbEntity
  8
0
 62
     7
370
    60
100
AcDbLine
 10
691.5868539999999
 20
42.83648600000001
 30
0.0
 11
431.586838
 21
42.83648600000001
 31
0.0
  0
LINE
  5
461
330
1F
100
AcDbEntity
  8
0
 62
     7
 48
0.0625
370
    60
100
AcDbLine
 10
621.5868539999999
 20
86.33648600000001
 30
0.0
 11
616.5868539999999
 21
86.33648600000001
 31
0.0
  0
ARC
  5
462
330
1F
100
AcDbEntity
  8
0
 62
     7
370
    60
100
AcDbCircle
 10
621.5868539999999
 20
92.83648600000001
 30
0.0
 40
6.5
100
AcDbArc
 50
270.000001
 51
89.99998900000001
  0
LINE
  5
463
330
1F
100
AcDbEntity
  8
0
 62
     7
 48
0.0625
370
    60
100
AcDbLine
 10
621.5868539999999
 20
99.33648600000001
 30
0.0
 11
616.5868539999999
 21
99.33648600000001
 31
0.0
  0
ARC
  5
464
330
1F
100
AcDbEntity
  8
0
 62
     7
370
    60
100
AcDbCircle
 10
616.5868539999999
 20
92.83648600000001
 30
0.0
 40
6.5
100
AcDbArc
 50
90.000003
 51
270.000001
  0
LINE
  5
465
330
1F
100
AcDbEntity
  8
0
 62
     7
 48
0.0625
370
    60
100
AcDbLine
 10
681.5868539999999
 20
86.33648600000001
 30
0.0
 11
676.5868539999999
 21
86.33648600000001
 31
0.0
  0
ARC
  5
466
330
1F
100
AcDbEntity
  8
0
 62
     7
370
    60
100
AcDbCircle
 10
681.5868539999999
 20
92.83648600000001
 30
0.0
 40
6.5
100
AcDbArc
 50
270.000001
 51
89.99998900000001
  0
LINE
  5
467
330
1F
100
AcDbEntity
  8
0
 62
     7
 48
0.0625
370
    60
100
AcDbLine
 10
681.5868539999999
 20
99.33648600000001
 30
0.0
 11
676.5868539999999
 21
99.33648600000001
 31
0.0
  0
ARC
  5
468
330
1F
100
AcDbEntity
  8
0
 62
     7
370
    60
100
AcDbCircle
 10
676.5868539999999
 20
92.83648600000001
 30
0.0
 40
6.5
100
AcDbArc
 50
90.000003
 51
270.000001
  0
LINE
  5
469
330
1F
100
AcDbEntity
  8
0
 62
     7
 48
0.0625
370
    60
100
AcDbLine
 10
506.5868379999999
 20
99.33648600000001
 30
0.0
 11
501.5868379999999
 21
99.33648600000001
 31
0.0
  0
ARC
  5
46A
330
1F
100
AcDbEntity
  8
0
 62
     7
370
    60
100
AcDbCircle
 10
501.5868379999999
 20
92.83648600000001
 30
0.0
 40
6.5
100
AcDbArc
 50
90.000003
 51
270.000001
  0
LINE
  5
46B
330
1F
100
AcDbEntity
  8
0
 62
     7
 48
0.0625
370
    60
100
AcDbLine
 10
506.5868379999999
 20
86.33648600000001
 30
0.0
 11
501.5868379999999
 21
86.33648600000001
 31
0.0
  0
ARC
  5
46C
330
1F
100
AcDbEntity
  8
0
 62
     7
370
    60
100
AcDbCircle
 10
506.5868379999999
 20
92.83648600000001
 30
0.0
 40
6.5
100
AcDbArc
 50
270.000001
 51
89.99998900000001
  0
LINE
  5
46D
330
1F
100
AcDbEntity
  8
0
 62
     7
 48
0.0625
370
    60
100
AcDbLine
 10
446.586838
 20
99.33648600000001
 30
0.0
 11
441.586838
 21
99.33648600000001
 31
0.0
  0
ARC
  5
46E
330
1F
100
AcDbEntity
  8
0
 62
     7
370
    60
100
AcDbCircle
 10
441.586838
 20
92.83648600000001
 30
0.0
 40
6.5
100
AcDbArc
 50
90.000003
 51
270.000001
  0
LINE
  5
46F
330
1F
100
AcDbEntity
  8
0
 62
     7
 48
0.0625
370
    60
100
AcDbLine
 10
446.586838
 20
86.33648600000001
 30
0.0
 11
441.586838
 21
86.33648600000001
 31
0.0
  0
ARC
  5
470
330
1F
100
AcDbEntity
  8
0
 62
     7
370
    60
100
AcDbCircle
 10
446.586838
 20
92.83648600000001
 30
0.0
 40
6.5
100
AcDbArc
 50
270.000001
 51
89.99998900000001
  0
DIMENSION
  5
471
330
1F
100
AcDbEntity
  8
0
370
    25
100
AcDbDimension
  2
*D61
 10
691.5868539999999
 20
667.9291471090226
 30
0.0
 11
561.5868459999999
 21
679.9291471090226
 31
0.0
 70
    32
 71
     5
 41
2.5
 42
260.0000159999999
  3
ISO-25
100
AcDbAlignedDimension
 13
431.586838
 23
609.8842879867074
 33
0.0
 14
691.5868539999999
 24
611.6508119630518
 34
0.0
100
AcDbRotatedDimension
1001
ACAD
1000
DSTYLE
1002
{
1070
    41
1040
10.0
1070
   140
1040
14.0
1070
   147
1040
5.0
1070
   176
1070
     7
1070
   177
1070
     7
1002
}
  0
DIMENSION
  5
49E
330
1F
100
AcDbEntity
  8
0
370
    25
100
AcDbDimension
  2
*D64
 10
739.4564736655384
 20
269.778534
 30
0.0
 11
727.4564736655384
 21
451.778534
 31
0.0
 70
    32
 71
     5
 41
2.5
 42
364.0000000000001
  3
ISO-25
100
AcDbAlignedDimension
 13
538.0576092321702
 23
633.778534
 33
0.0
 14
584.0868459999999
 24
269.778534
 34
0.0
 50
90.0
100
AcDbRotatedDimension
1001
ACAD
1000
DSTYLE
1002
{
1070
    41
1040
10.0
1070
   140
1040
14.0
1070
   147
1040
5.0
1070
   176
1070
     7
1070
   177
1070
     7
1002
}
  0
DIMENSION
  5
4C0
330
1F
100
AcDbEntity
  8
0
370
    25
100
AcDbDimension
  2
*D69
 10
606.5868539999999
 20
211.1779671565766
 30
0.0
 11
561.5868459999999
 21
223.1779671565766
 31
0.0
 70
   160
  1
Ø90
 71
     5
 41
2.5
 42
90.00001599999996
  3
ISO-25
100
AcDbAlignedDimension
 13
516.586838
 23
327.2638403508528
 33
0.0
 14
606.5868539999999
 24
327.2638403508528
 34
0.0
100
AcDbRotatedDimension
1001
ACAD
1000
DSTYLE
1002
{
1070
    41
1040
10.0
1070
   140
1040
14.0
1070
   147
1040
5.0
1070
   176
1070
     7
1070
   177
1070
     7
1002
}
  0
LINE
  5
4FA
330
1F
100
AcDbEntity
  8
0
  6
DASHDOT
 62
     7
 48
0.21125
370
    25
100
AcDbLine
 10
446.586838
 20
100.818597061183
 30
0.0
 11
446.586838
 21
83.91860306118298
 31
0.0
  0
LINE
  5
4FB
330
1F
100
AcDbEntity
  8
0
  6
DASHDOT
 62
     7
 48
0.21125
370
    25
100
AcDbLine
 10
441.5868376596608
 20
100.515035445876
 30
0.0
 11
441.5868376596608
 21
83.61504144587603
 31
0.0
  0
DIMENSION
  5
4FC
330
1F
100
AcDbEntity
  8
0
370
    25
100
AcDbDimension
  2
*D73
 10
740.0127644864267
 20
42.83648600000001
 30
0.0
 11
728.0127644864267
 21
92.83648600000001
 31
0.0
 70
   160
 71
     5
 41
2.5
 42
100.0
  3
ISO-25
100
AcDbAlignedDimension
 13
584.6492675386806
 23
142.836486
 33
0.0
 14
584.6492675386806
 24
42.83648600000001
 34
0.0
 50
90.0
100
AcDbRotatedDimension
1001
ACAD
1000
DSTYLE
1002
{
1070
    41
1040
10.0
1070
   140
1040
14.0
1070
   147
1040
5.0
1070
   176
1070
     7
1070
   177
1070
     7
1002
}
  0
VIEWPORT
  5
BB
330
73
100
AcDbEntity
 67
     1
  8
0
100
AcDbViewport
 10
7.8
 20
4.5
 30
0.0
 40
15.64
 41
9.0
 68
     1
 69
     1
 12
6.0
 22
4.5
 13
0.0
 23
0.0
 14
0.5
 24
0.5
 15
0.5
 25
0.5
 16
0.0
 26
0.0
 36
1.0
 17
0.0
 27
0.0
 37
0.0
 42
50.0
 43
0.0
 44
0.0
 45
12.0
 50
0.0
 51
0.0
 72
   100
 90
   557152
  1

281
     0
 71
     1
 74
     0
110
0.0
120
0.0
130
0.0
111
1.0
121
0.0
131
0.0
112
0.0
122
1.0
132
0.0
 79
     0
146
0.0
  0
ENDSEC
  0
SECTION
  2
OBJECTS
  0
DICTIONARY
  5
C
330
0
100
AcDbDictionary
281
     1
  3
ACAD_COLOR
350
6C
  3
ACAD_GROUP
350
D
  3
ACAD_LAYOUT
350
1A
  3
ACAD_MATERIAL
350
6B
  3
ACAD_MLEADERSTYLE
350
5CA
  3
ACAD_MLINESTYLE
350
17
  3
ACAD_PLOTSETTINGS
350
19
  3
ACAD_PLOTSTYLENAME
350
E
  3
ACAD_SCALELIST
350
99
  3
ACAD_TABLESTYLE
350
92
  3
ACDBHEADERROUNDTRIPXREC
350
5CB
  3
AcDbVariableDictionary
350
59
  3
DWGPROPS
350
5CE
  0
DICTIONARY
  5
6C
102
{ACAD_REACTORS
330
C
102
}
330
C
100
AcDbDictionary
281
     1
  0
DICTIONARY
  5
D
102
{ACAD_REACTORS
330
C
102
}
330
C
100
AcDbDictionary
281
     1
  0
DICTIONARY
  5
1A
102
{ACAD_REACTORS
330
C
102
}
330
C
100
AcDbDictionary
281
     1
  3
Layout1
350
74
  3
Layout2
350
534
  3
Model
350
22
  0
DICTIONARY
  5
6B
102
{ACAD_REACTORS
330
C
102
}
330
C
100
AcDbDictionary
281
     1
  0
DICTIONARY
  5
5CA
102
{ACAD_REACTORS
330
C
102
}
330
C
100
AcDbDictionary
281
     1
  0
DICTIONARY
  5
17
102
{ACAD_REACTORS
330
C
102
}
330
C
100
AcDbDictionary
281
     1
  3
Standard
350
18
  0
DICTIONARY
  5
19
102
{ACAD_REACTORS
330
C
102
}
330
C
100
AcDbDictionary
281
     1
  0
ACDBDICTIONARYWDFLT
  5
E
102
{ACAD_REACTORS
330
C
102
}
330
C
100
AcDbDictionary
281
     1
  3
Normal
350
F
100
AcDbDictionaryWithDefault
340
F
  0
DICTIONARY
  5
99
102
{ACAD_REACTORS
330
C
102
}
330
C
100
AcDbDictionary
281
     1
  3
A0
350
D5
  3
A1
350
D6
  3
A2
350
D7
  3
A3
350
D8
  3
A4
350
D9
  3
A5
350
DA
  3
A6
350
DB
  3
A7
350
DC
  3
A8
350
DD
  3
A9
350
DE
  3
B0
350
DF
  3
B1
350
E0
  3
B2
350
E1
  3
B3
350
E2
  3
B4
350
E3
  3
B5
350
E4
  3
B6
350
E5
  3
B7
350
E6
  3
B8
350
E7
  3
B9
350
E8
  3
C0
350
E9
  3
C1
350
EA
  3
C2
350
EB
  3
C3
350
EC
  3
C4
350
ED
  3
C5
350
EE
  3
C6
350
EF
  3
C7
350
F0
  3
C8
350
F1
  3
C9
350
F2
  3
D0
350
F3
  3
D1
350
F4
  3
D2
350
F5
  0
DICTIONARY
  5
92
102
{ACAD_REACTORS
330
C
102
}
330
C
100
AcDbDictionary
281
     1
  0
DICTIONARY
  5
5CB
102
{ACAD_REACTORS
330
C
102
}
330
C
100
AcDbDictionary
281
     1
  3
COLORDICT
350
5CC
  3
MATERIALDICT
350
5CD
  0
DICTIONARY
  5
59
102
{ACAD_REACTORS
330
C
102
}
330
C
100
AcDbDictionary
281
     1
  3
CTABLESTYLE
350
98
  3
DIMASSOC
350
5A
  3
HIDETEXT
350
5E
  0
XRECORD
  5
5CE
102
{ACAD_REACTORS
330
C
102
}
330
C
100
AcDbXrecord
280
     1
  1
DWGPROPS COOKIE
  2

  3

  4

  6

  7

  8
BelottiMc
  9

300
=
301
=
302
=
303
=
304
=
305
=
306
=
307
=
308
=
309
=
 40
0.0
 41
2455103.526117199
 42
2455103.567783889
  1

 90
        0
  0
LAYOUT
  5
74
102
{ACAD_REACTORS
330
1A
102
}
330
1A
100
AcDbPlotSettings
  1

  2
ProgeSOFT PDF Wizard
  4
A4
  6

 40
5.926666666666667
 41
6.011333333333317
 42
6.095999999999985
 43
5.926666666666667
 44
210.0
 45
297.0
 46
88.56200000000001
 47
136.531
 48
0.0
 49
0.0
140
0.0
141
0.0
142
1.0
143
1.0
 70
   692
 72
     1
 73
     0
 74
     0
  7

 75
    16
147
1.0
148
4.426666666666668
149
1.5
100
AcDbLayout
  1
Layout1
 70
     1
 71
     1
 10
0.0
 20
0.0
 11
0.0
 21
0.0
 12
0.0
 22
0.0
 32
0.0
 14
0.0
 24
0.0
 34
0.0
 15
0.0
 25
0.0
 35
0.0
146
0.0
 13
0.0
 23
0.0
 33
0.0
 16
1.0
 26
0.0
 36
0.0
 17
0.0
 27
1.0
 37
0.0
 76
     0
330
D1
331
5C9
1001
PROGE_PRINT_SETTINGS
1070
    73
1070
     1
  0
LAYOUT
  5
534
102
{ACAD_REACTORS
330
1A
102
}
330
1A
100
AcDbPlotSettings
  1

  2
ProgeSOFT PDF Wizard
  4
A4
  6

 40
5.926666666666667
 41
6.011333333333317
 42
6.095999999999985
 43
5.926666666666667
 44
210.0
 45
297.0
 46
88.562
 47
136.531
 48
0.0
 49
0.0
140
0.0
141
0.0
142
1.0
143
1.0
 70
   692
 72
     1
 73
     0
 74
     0
  7

 75
    16
147
1.0
148
0.0
149
0.0
100
AcDbLayout
  1
Layout2
 70
     1
 71
     2
 10
0.0
 20
0.0
 11
12.0
 21
9.0
 12
0.0
 22
0.0
 32
0.0
 14
0.0
 24
0.0
 34
0.0
 15
12.0
 25
9.0
 35
0.0
146
0.0
 13
0.0
 23
0.0
 33
0.0
 16
1.0
 26
0.0
 36
0.0
 17
0.0
 27
1.0
 37
0.0
 76
     0
330
73
331
BB
1001
PROGE_PRINT_SETTINGS
1070
    73
1070
     1
  0
LAYOUT
  5
22
102
{ACAD_REACTORS
330
1A
102
}
330
1A
100
AcDbPlotSettings
  1

  2
ProgeSOFT PDF Wizard
  4
A4
  6

 40
5.926666666666667
 41
6.011333333333317
 42
6.095999999999985
 43
5.926666666666667
 44
210.0
 45
297.0
 46
0.0000000000000007
 47
83.07219027892847
 48
0.0
 49
0.0
140
0.0
141
0.0
142
1.0
143
7.646403620050157
 70
 11956
 72
     1
 73
     0
 74
     0
  7

 75
     0
147
0.1307804360964979
148
225.9943226215648
149
135.2744652590236
100
AcDbLayout
  1
Model
 70
     1
 71
     0
 10
0.0
 20
0.0
 11
0.0
 21
0.0
 12
0.0
 22
0.0
 32
0.0
 14
394.8696611463667
 24
15.4704440780639
 34
0.0
 15
753.2627644864267
 25
686.9291471090226
 35
0.0
146
0.0
 13
0.0
 23
0.0
 33
0.0
 16
1.0
 26
0.0
 36
0.0
 17
0.0
 27
1.0
 37
0.0
 76
     0
330
1F
331
97
1001
PROGE_PRINT_SETTINGS
1070
    73
1070
     1
  0
MLINESTYLE
  5
18
102
{ACAD_REACTORS
330
17
102
}
330
17
100
AcDbMlineStyle
  2
STANDARD
 70
     0
  3

 62
   256
 51
90.0
 52
90.0
 71
     2
 49
0.5
 62
   256
  6
BYLAYER
 49
-0.5
 62
   256
  6
BYLAYER
  0
ACDBPLACEHOLDER
  5
F
102
{ACAD_REACTORS
330
E
102
}
330
E
  0
SCALE
  5
D5
102
{ACAD_REACTORS
330
99
102
}
330
99
100
AcDbScale
 70
     0
300
1:1
140
1.0
141
1.0
290
     1
  0
SCALE
  5
D6
102
{ACAD_REACTORS
330
99
102
}
330
99
100
AcDbScale
 70
     0
300
1:2
140
1.0
141
2.0
290
     0
  0
SCALE
  5
D7
102
{ACAD_REACTORS
330
99
102
}
330
99
100
AcDbScale
 70
     0
300
1:4
140
1.0
141
4.0
290
     0
  0
SCALE
  5
D8
102
{ACAD_REACTORS
330
99
102
}
330
99
100
AcDbScale
 70
     0
300
1:5
140
1.0
141
5.0
290
     0
  0
SCALE
  5
D9
102
{ACAD_REACTORS
330
99
102
}
330
99
100
AcDbScale
 70
     0
300
1:8
140
1.0
141
8.0
290
     0
  0
SCALE
  5
DA
102
{ACAD_REACTORS
330
99
102
}
330
99
100
AcDbScale
 70
     0
300
1:10
140
1.0
141
10.0
290
     0
  0
SCALE
  5
DB
102
{ACAD_REACTORS
330
99
102
}
330
99
100
AcDbScale
 70
     0
300
1:16
140
1.0
141
16.0
290
     0
  0
SCALE
  5
DC
102
{ACAD_REACTORS
330
99
102
}
330
99
100
AcDbScale
 70
     0
300
1:20
140
1.0
141
20.0
290
     0
  0
SCALE
  5
DD
102
{ACAD_REACTORS
330
99
102
}
330
99
100
AcDbScale
 70
     0
300
1:30
140
1.0
141
30.0
290
     0
  0
SCALE
  5
DE
102
{ACAD_REACTORS
330
99
102
}
330
99
100
AcDbScale
 70
     0
300
1:40
140
1.0
141
40.0
290
     0
  0
SCALE
  5
DF
102
{ACAD_REACTORS
330
99
102
}
330
99
100
AcDbScale
 70
     0
300
1:50
140
1.0
141
50.0
290
     0
  0
SCALE
  5
E0
102
{ACAD_REACTORS
330
99
102
}
330
99
100
AcDbScale
 70
     0
300
1:100
140
1.0
141
100.0
290
     0
  0
SCALE
  5
E1
102
{ACAD_REACTORS
330
99
102
}
330
99
100
AcDbScale
 70
     0
300
2:1
140
2.0
141
1.0
290
     0
  0
SCALE
  5
E2
102
{ACAD_REACTORS
330
99
102
}
330
99
100
AcDbScale
 70
     0
300
4:1
140
4.0
141
1.0
290
     0
  0
SCALE
  5
E3
102
{ACAD_REACTORS
330
99
102
}
330
99
100
AcDbScale
 70
     0
300
8:1
140
8.0
141
1.0
290
     0
  0
SCALE
  5
E4
102
{ACAD_REACTORS
330
99
102
}
330
99
100
AcDbScale
 70
     0
300
10:1
140
10.0
141
1.0
290
     0
  0
SCALE
  5
E5
102
{ACAD_REACTORS
330
99
102
}
330
99
100
AcDbScale
 70
     0
300
100:1
140
100.0
141
1.0
290
     0
  0
SCALE
  5
E6
102
{ACAD_REACTORS
330
99
102
}
330
99
100
AcDbScale
 70
     0
300
1/128" = 1'-0"
140
0.0078125
141
12.0
290
     0
  0
SCALE
  5
E7
102
{ACAD_REACTORS
330
99
102
}
330
99
100
AcDbScale
 70
     0
300
1/64" = 1'-0"
140
0.015625
141
12.0
290
     0
  0
SCALE
  5
E8
102
{ACAD_REACTORS
330
99
102
}
330
99
100
AcDbScale
 70
     0
300
1/32" = 1'-0"
140
0.03125
141
12.0
290
     0
  0
SCALE
  5
E9
102
{ACAD_REACTORS
330
99
102
}
330
99
100
AcDbScale
 70
     0
300
1/16" = 1'-0"
140
0.0625
141
12.0
290
     0
  0
SCALE
  5
EA
102
{ACAD_REACTORS
330
99
102
}
330
99
100
AcDbScale
 70
     0
300
3/32" = 1'-0"
140
0.09375
141
12.0
290
     0
  0
SCALE
  5
EB
102
{ACAD_REACTORS
330
99
102
}
330
99
100
AcDbScale
 70
     0
300
1/8" = 1'-0"
140
0.125
141
12.0
290
     0
  0
SCALE
  5
EC
102
{ACAD_REACTORS
330
99
102
}
330
99
100
AcDbScale
 70
     0
300
3/16" = 1'-0"
140
0.1875
141
12.0
290
     0
  0
SCALE
  5
ED
102
{ACAD_REACTORS
330
99
102
}
330
99
100
AcDbScale
 70
     0
300
1/4" = 1'-0"
140
0.25
141
12.0
290
     0
  0
SCALE
  5
EE
102
{ACAD_REACTORS
330
99
102
}
330
99
100
AcDbScale
 70
     0
300
3/8" = 1'-0"
140
0.375
141
12.0
290
     0
  0
SCALE
  5
EF
102
{ACAD_REACTORS
330
99
102
}
330
99
100
AcDbScale
 70
     0
300
1/2" = 1'-0"
140
0.5
141
12.0
290
     0
  0
SCALE
  5
F0
102
{ACAD_REACTORS
330
99
102
}
330
99
100
AcDbScale
 70
     0
300
3/4" = 1'-0"
140
0.75
141
12.0
290
     0
  0
SCALE
  5
F1
102
{ACAD_REACTORS
330
99
102
}
330
99
100
AcDbScale
 70
     0
300
1" = 1'-0"
140
1.0
141
12.0
290
     0
  0
SCALE
  5
F2
102
{ACAD_REACTORS
330
99
102
}
330
99
100
AcDbScale
 70
     0
300
1-1/2" = 1'-0"
140
1.5
141
12.0
290
     0
  0
SCALE
  5
F3
102
{ACAD_REACTORS
330
99
102
}
330
99
100
AcDbScale
 70
     0
300
3" = 1'-0"
140
3.0
141
12.0
290
     0
  0
SCALE
  5
F4
102
{ACAD_REACTORS
330
99
102
}
330
99
100
AcDbScale
 70
     0
300
6" = 1'-0"
140
6.0
141
12.0
290
     0
  0
SCALE
  5
F5
102
{ACAD_REACTORS
330
99
102
}
330
99
100
AcDbScale
 70
     0
300
1'-0" = 1'-0"
140
12.0
141
12.0
290
     0
  0
XRECORD
  5
5CC
102
{ACAD_REACTORS
330
5CB
102
}
330
5CB
100
AcDbXrecord
280
     1
340
6C
  0
XRECORD
  5
5CD
102
{ACAD_REACTORS
330
5CB
102
}
330
5CB
100
AcDbXrecord
280
     1
340
6B
  0
DICTIONARYVAR
  5
98
102
{ACAD_REACTORS
330
59
102
}
330
59
100
DictionaryVariables
280
     0
  1
Standard
  0
DICTIONARYVAR
  5
5A
102
{ACAD_REACTORS
330
59
102
}
330
59
100
DictionaryVariables
280
     0
  1
2
  0
DICTIONARYVAR
  5
5E
102
{ACAD_REACTORS
330
59
102
}
330
59
100
DictionaryVariables
280
     0
  1
1
  0
ENDSEC
  0
EOF
