  0
SECTION
  2
HEADER
  9
$ACADVER
  1
AC1015
  9
$ACADMAINTVER
 70
     6
  9
$DWGCODEPAGE
  3
ANSI_1252
  9
$INSBASE
 10
0.0
 20
0.0
 30
0.0
  9
$EXTMIN
 10
105.3127334615954
 20
77.96781115879824
 30
0.0
  9
$EXTMAX
 10
1035.213932461595
 20
496.5858241026778
 30
0.0
  9
$LIMMIN
 10
0.0
 20
0.0
  9
$LIMMAX
 10
0.0
 20
0.0
  9
$ORTHOMODE
 70
     0
  9
$REGENMODE
 70
     1
  9
$FILLMODE
 70
     1
  9
$QTEXTMODE
 70
     0
  9
$MIRRTEXT
 70
     0
  9
$LTSCALE
 40
1.0
  9
$ATTMODE
 70
     1
  9
$TEXTSIZE
 40
2.5
  9
$TRACEWID
 40
1.0
  9
$TEXTSTYLE
  7
Standard
  9
$CLAYER
  8
0
  9
$CELTYPE
  6
ByLayer
  9
$CECOLOR
 62
   256
  9
$CELTSCALE
 40
1.0
  9
$DISPSILH
 70
     0
  9
$DIMSCALE
 40
1.0
  9
$DIMASZ
 40
2.5
  9
$DIMEXO
 40
0.625
  9
$DIMDLI
 40
3.75
  9
$DIMRND
 40
0.0
  9
$DIMDLE
 40
0.0
  9
$DIMEXE
 40
1.25
  9
$DIMTP
 40
0.0
  9
$DIMTM
 40
0.0
  9
$DIMTXT
 40
2.5
  9
$DIMCEN
 40
2.5
  9
$DIMTSZ
 40
0.0
  9
$DIMTOL
 70
     0
  9
$DIMLIM
 70
     0
  9
$DIMTIH
 70
     0
  9
$DIMTOH
 70
     0
  9
$DIMSE1
 70
     0
  9
$DIMSE2
 70
     0
  9
$DIMTAD
 70
     1
  9
$DIMZIN
 70
     8
  9
$DIMBLK
  1

  9
$DIMASO
 70
     1
  9
$DIMSHO
 70
     1
  9
$DIMPOST
  1

  9
$DIMAPOST
  1

  9
$DIMALT
 70
     0
  9
$DIMALTD
 70
     3
  9
$DIMALTF
 40
0.03937007874016
  9
$DIMLFAC
 40
1.0
  9
$DIMTOFL
 70
     1
  9
$DIMTVP
 40
0.0
  9
$DIMTIX
 70
     0
  9
$DIMSOXD
 70
     0
  9
$DIMSAH
 70
     0
  9
$DIMBLK1
  1

  9
$DIMBLK2
  1

  9
$DIMSTYLE
  2
ISO-25
  9
$DIMCLRD
 70
     0
  9
$DIMCLRE
 70
     0
  9
$DIMCLRT
 70
     0
  9
$DIMTFAC
 40
1.0
  9
$DIMGAP
 40
0.625
  9
$DIMJUST
 70
     0
  9
$DIMSD1
 70
     0
  9
$DIMSD2
 70
     0
  9
$DIMTOLJ
 70
     0
  9
$DIMTZIN
 70
     8
  9
$DIMALTZ
 70
     0
  9
$DIMALTTZ
 70
     0
  9
$DIMUPT
 70
     0
  9
$DIMDEC
 70
     2
  9
$DIMTDEC
 70
     2
  9
$DIMALTU
 70
     2
  9
$DIMALTTD
 70
     3
  9
$DIMTXSTY
  7
Standard
  9
$DIMAUNIT
 70
     0
  9
$DIMADEC
 70
     0
  9
$DIMALTRND
 40
0.0
  9
$DIMAZIN
 70
     0
  9
$DIMDSEP
 70
    44
  9
$DIMATFIT
 70
     3
  9
$DIMFRAC
 70
     0
  9
$DIMLDRBLK
  1

  9
$DIMLUNIT
 70
     2
  9
$DIMLWD
 70
    -2
  9
$DIMLWE
 70
    -2
  9
$DIMTMOVE
 70
     0
  9
$LUNITS
 70
     2
  9
$LUPREC
 70
     4
  9
$SKETCHINC
 40
1.0
  9
$FILLETRAD
 40
0.0
  9
$AUNITS
 70
     0
  9
$AUPREC
 70
     0
  9
$MENU
  1
.
  9
$ELEVATION
 40
0.0
  9
$PELEVATION
 40
0.0
  9
$THICKNESS
 40
0.0
  9
$LIMCHECK
 70
     0
  9
$CHAMFERA
 40
0.0
  9
$CHAMFERB
 40
0.0
  9
$CHAMFERC
 40
0.0
  9
$CHAMFERD
 40
0.0
  9
$SKPOLY
 70
     0
  9
$TDCREATE
 40
2455099.617479838
  9
$TDUCREATE
 40
2455099.534146504
  9
$TDUPDATE
 40
2455099.659146504
  9
$TDUUPDATE
 40
2455099.575813171
  9
$TDINDWG
 40
0.0328752315
  9
$TDUSRTIMER
 40
0.0328728704
  9
$USRTIMER
 70
     1
  9
$ANGBASE
 50
0.0
  9
$ANGDIR
 70
     0
  9
$PDMODE
 70
     0
  9
$PDSIZE
 40
0.0
  9
$PLINEWID
 40
0.0
  9
$SPLFRAME
 70
     0
  9
$SPLINETYPE
 70
     6
  9
$SPLINESEGS
 70
     8
  9
$HANDSEED
  5
1BB
  9
$SURFTAB1
 70
     6
  9
$SURFTAB2
 70
     6
  9
$SURFTYPE
 70
     6
  9
$SURFU
 70
     6
  9
$SURFV
 70
     6
  9
$UCSBASE
  2

  9
$UCSNAME
  2

  9
$UCSORG
 10
0.0
 20
0.0
 30
0.0
  9
$UCSXDIR
 10
1.0
 20
0.0
 30
0.0
  9
$UCSYDIR
 10
0.0
 20
1.0
 30
0.0
  9
$UCSORTHOREF
  2

  9
$UCSORTHOVIEW
 70
     0
  9
$UCSORGTOP
 10
0.0
 20
0.0
 30
0.0
  9
$UCSORGBOTTOM
 10
0.0
 20
0.0
 30
0.0
  9
$UCSORGLEFT
 10
0.0
 20
0.0
 30
0.0
  9
$UCSORGRIGHT
 10
0.0
 20
0.0
 30
0.0
  9
$UCSORGFRONT
 10
0.0
 20
0.0
 30
0.0
  9
$UCSORGBACK
 10
0.0
 20
0.0
 30
0.0
  9
$PUCSBASE
  2

  9
$PUCSNAME
  2

  9
$PUCSORG
 10
0.0
 20
0.0
 30
0.0
  9
$PUCSXDIR
 10
1.0
 20
0.0
 30
0.0
  9
$PUCSYDIR
 10
0.0
 20
1.0
 30
0.0
  9
$PUCSORTHOREF
  2

  9
$PUCSORTHOVIEW
 70
     0
  9
$PUCSORGTOP
 10
0.0
 20
0.0
 30
0.0
  9
$PUCSORGBOTTOM
 10
0.0
 20
0.0
 30
0.0
  9
$PUCSORGLEFT
 10
0.0
 20
0.0
 30
0.0
  9
$PUCSORGRIGHT
 10
0.0
 20
0.0
 30
0.0
  9
$PUCSORGFRONT
 10
0.0
 20
0.0
 30
0.0
  9
$PUCSORGBACK
 10
0.0
 20
0.0
 30
0.0
  9
$USERI1
 70
     0
  9
$USERI2
 70
     0
  9
$USERI3
 70
     0
  9
$USERI4
 70
     0
  9
$USERI5
 70
     0
  9
$USERR1
 40
0.0
  9
$USERR2
 40
0.0
  9
$USERR3
 40
0.0
  9
$USERR4
 40
0.0
  9
$USERR5
 40
0.0
  9
$WORLDVIEW
 70
     1
  9
$SHADEDGE
 70
     3
  9
$SHADEDIF
 70
    70
  9
$TILEMODE
 70
     1
  9
$MAXACTVP
 70
    64
  9
$PINSBASE
 10
0.0
 20
0.0
 30
0.0
  9
$PLIMCHECK
 70
     0
  9
$PEXTMIN
 10
0.0
 20
0.0
 30
0.0
  9
$PEXTMAX
 10
12.0
 20
9.0
 30
0.0
  9
$PLIMMIN
 10
0.0
 20
0.0
  9
$PLIMMAX
 10
12.0
 20
9.0
  9
$UNITMODE
 70
     0
  9
$VISRETAIN
 70
     1
  9
$PLINEGEN
 70
     0
  9
$PSLTSCALE
 70
     1
  9
$TREEDEPTH
 70
  3020
  9
$CMLSTYLE
  2
Standard
  9
$CMLJUST
 70
     0
  9
$CMLSCALE
 40
20.0
  9
$PROXYGRAPHICS
 70
     1
  9
$MEASUREMENT
 70
     1
  9
$CELWEIGHT
370
    -1
  9
$ENDCAPS
280
     0
  9
$JOINSTYLE
280
     0
  9
$LWDISPLAY
290
     0
  9
$INSUNITS
 70
     4
  9
$HYPERLINKBASE
  1

  9
$STYLESHEET
  1

  9
$XEDIT
290
     1
  9
$CEPSNTYPE
380
     0
  9
$PSTYLEMODE
290
     1
  9
$FINGERPRINTGUID
  2
{5559452E-1E62-4159-8551-BF76FFF3E7E8}
  9
$VERSIONGUID
  2
{3CEB9EF8-4431-4551-B596-6734A9F966A9}
  9
$EXTNAMES
290
     1
  9
$PSVPSCALE
 40
0.0
  9
$OLESTARTUP
290
     0
  0
ENDSEC
  0
SECTION
  2
CLASSES
  0
CLASS
  1
ACDBDICTIONARYWDFLT
  2
AcDbDictionaryWithDefault
  3
ObjectDBX Classes
 90
        0
280
     0
281
     0
  0
CLASS
  1
ACDBPLACEHOLDER
  2
AcDbPlaceHolder
  3
ObjectDBX Classes
 90
        0
280
     0
281
     0
  0
CLASS
  1
LAYOUT
  2
AcDbLayout
  3
ObjectDBX Classes
 90
        0
280
     0
281
     0
  0
CLASS
  1
DICTIONARYVAR
  2
AcDbDictionaryVar
  3
ObjectDBX Classes
 90
        0
280
     0
281
     0
  0
CLASS
  1
TABLESTYLE
  2
AcDbTableStyle
  3
ObjectDBX Classes
 90
     4095
280
     0
281
     0
  0
CLASS
  1
SCALE
  2
AcDbScale
  3
ObjectDBX Classes
 90
     1153
280
     0
281
     0
  0
ENDSEC
  0
SECTION
  2
TABLES
  0
TABLE
  2
VPORT
  5
8
330
0
100
AcDbSymbolTable
 70
     2
  0
VPORT
  5
97
330
8
100
AcDbSymbolTableRecord
100
AcDbViewportTableRecord
  2
*Active
 70
     0
 10
0.0
 20
0.0
 11
1.0
 21
1.0
 12
300.5688928229487
 22
292.8371663809607
 13
0.0
 23
0.0
 14
10.0
 24
10.0
 15
10.0
 25
10.0
 16
0.0
 26
0.0
 36
1.0
 17
0.0
 27
0.0
 37
0.0
 40
1236.984589754269
 41
1.664827586206897
 42
50.0
 43
0.0
 44
0.0
 50
0.0
 51
0.0
 71
     0
 72
  1000
 73
     1
 74
     3
 75
     0
 76
     0
 77
     0
 78
     0
281
     0
 65
     1
110
0.0
120
0.0
130
0.0
111
1.0
121
0.0
131
0.0
112
0.0
122
1.0
132
0.0
 79
     0
146
0.0
  0
ENDTAB
  0
TABLE
  2
LTYPE
  5
5
330
0
100
AcDbSymbolTable
 70
     1
  0
LTYPE
  5
14
330
5
100
AcDbSymbolTableRecord
100
AcDbLinetypeTableRecord
  2
ByBlock
 70
     0
  3

 72
    65
 73
     0
 40
0.0
  0
LTYPE
  5
15
330
5
100
AcDbSymbolTableRecord
100
AcDbLinetypeTableRecord
  2
ByLayer
 70
     0
  3

 72
    65
 73
     0
 40
0.0
  0
LTYPE
  5
16
330
5
100
AcDbSymbolTableRecord
100
AcDbLinetypeTableRecord
  2
Continuous
 70
     0
  3
Solid line
 72
    65
 73
     0
 40
0.0
  0
ENDTAB
  0
TABLE
  2
LAYER
  5
2
330
0
100
AcDbSymbolTable
 70
     3
  0
LAYER
  5
10
330
2
100
AcDbSymbolTableRecord
100
AcDbLayerTableRecord
  2
0
 70
     0
 62
     7
  6
Continuous
370
    -3
390
F
  0
LAYER
  5
F8
330
2
100
AcDbSymbolTableRecord
100
AcDbLayerTableRecord
  2
2
 70
     0
 62
     7
  6
Continuous
370
    13
390
F
  0
LAYER
  5
12E
330
2
100
AcDbSymbolTableRecord
100
AcDbLayerTableRecord
  2
DEFPOINTS
 70
     0
 62
     7
  6
Continuous
290
     0
370
    -3
390
F
  0
ENDTAB
  0
TABLE
  2
STYLE
  5
3
330
0
100
AcDbSymbolTable
 70
     1
  0
STYLE
  5
11
330
3
100
AcDbSymbolTableRecord
100
AcDbTextStyleTableRecord
  2
Standard
 70
     0
 40
0.0
 41
1.0
 50
0.0
 71
     0
 42
2.5
  3
txt
  4

  0
ENDTAB
  0
TABLE
  2
VIEW
  5
6
330
0
100
AcDbSymbolTable
 70
     0
  0
ENDTAB
  0
TABLE
  2
UCS
  5
7
330
0
100
AcDbSymbolTable
 70
     0
  0
ENDTAB
  0
TABLE
  2
APPID
  5
9
330
0
100
AcDbSymbolTable
 70
     2
  0
APPID
  5
12
330
9
100
AcDbSymbolTableRecord
100
AcDbRegAppTableRecord
  2
ACAD
 70
     0
  0
APPID
  5
19C
330
9
100
AcDbSymbolTableRecord
100
AcDbRegAppTableRecord
  2
PROGE_PRINT_SETTINGS
 70
     0
  0
ENDTAB
  0
TABLE
  2
DIMSTYLE
  5
A
330
0
100
AcDbSymbolTable
 70
     2
100
AcDbDimStyleTable
  0
DIMSTYLE
105
27
102
{ACAD_REACTORS
330
123
330
124
330
129
330
12A
330
12B
102
}
330
A
100
AcDbSymbolTableRecord
100
AcDbDimStyleTableRecord
  2
Standard
 70
     0
278
     0
340
11
  0
DIMSTYLE
105
29
330
A
100
AcDbSymbolTableRecord
100
AcDbDimStyleTableRecord
  2
ISO-25
 70
     0
 41
2.5
 42
0.625
 43
3.75
 44
1.25
 73
     0
 74
     0
 77
     1
 78
     8
140
2.5
141
2.5
143
0.03937007874016
147
0.625
171
     3
172
     1
271
     2
272
     2
274
     3
278
    44
283
     0
284
     8
340
11
  0
ENDTAB
  0
TABLE
  2
BLOCK_RECORD
  5
1
330
0
100
AcDbSymbolTable
 70
    11
  0
BLOCK_RECORD
  5
1F
330
1
100
AcDbSymbolTableRecord
100
AcDbBlockTableRecord
  2
*Model_Space
340
22
  0
BLOCK_RECORD
  5
73
330
1
100
AcDbSymbolTableRecord
100
AcDbBlockTableRecord
  2
*Paper_Space
340
19E
  0
BLOCK_RECORD
  5
D1
330
1
100
AcDbSymbolTableRecord
100
AcDbBlockTableRecord
  2
*Paper_Space0
340
74
  0
BLOCK_RECORD
  5
137
330
1
100
AcDbSymbolTableRecord
100
AcDbBlockTableRecord
  2
*D1
340
0
  0
BLOCK_RECORD
  5
142
330
1
100
AcDbSymbolTableRecord
100
AcDbBlockTableRecord
  2
*D2
340
0
  0
BLOCK_RECORD
  5
14D
330
1
100
AcDbSymbolTableRecord
100
AcDbBlockTableRecord
  2
*D3
340
0
  0
BLOCK_RECORD
  5
158
330
1
100
AcDbSymbolTableRecord
100
AcDbBlockTableRecord
  2
*D4
340
0
  0
BLOCK_RECORD
  5
163
330
1
100
AcDbSymbolTableRecord
100
AcDbBlockTableRecord
  2
*D5
340
0
  0
BLOCK_RECORD
  5
16E
330
1
100
AcDbSymbolTableRecord
100
AcDbBlockTableRecord
  2
*D6
340
0
  0
BLOCK_RECORD
  5
179
330
1
100
AcDbSymbolTableRecord
100
AcDbBlockTableRecord
  2
*D7
340
0
  0
BLOCK_RECORD
  5
184
330
1
100
AcDbSymbolTableRecord
100
AcDbBlockTableRecord
  2
*D8
340
0
  0
BLOCK_RECORD
  5
18F
330
1
100
AcDbSymbolTableRecord
100
AcDbBlockTableRecord
  2
*D9
340
0
  0
BLOCK_RECORD
  5
19A
330
1
100
AcDbSymbolTableRecord
100
AcDbBlockTableRecord
  2
*D10
340
0
  0
ENDTAB
  0
ENDSEC
  0
SECTION
  2
BLOCKS
  0
BLOCK
  5
20
330
1F
100
AcDbEntity
  8
0
100
AcDbBlockBegin
  2
*Model_Space
 70
     0
 10
0.0
 20
0.0
 30
0.0
  3
*Model_Space
  1

  0
ENDBLK
  5
21
330
1F
100
AcDbEntity
  8
0
100
AcDbBlockEnd
  0
BLOCK
  5
75
330
73
100
AcDbEntity
 67
     1
  8
0
100
AcDbBlockBegin
  2
*Paper_Space
 70
     0
 10
0.0
 20
0.0
 30
0.0
  3
*Paper_Space
  1

  0
ENDBLK
  5
76
330
73
100
AcDbEntity
 67
     1
  8
0
100
AcDbBlockEnd
  0
BLOCK
  5
19F
330
D1
100
AcDbEntity
  8
0
100
AcDbBlockBegin
  2
*Paper_Space0
 70
     0
 10
0.0
 20
0.0
 30
0.0
  3
*Paper_Space0
  1

  0
VIEWPORT
  5
1B5
330
D1
100
AcDbEntity
  8
0
100
AcDbViewport
 10
7.8
 20
4.5
 30
0.0
 40
15.64
 41
9.0
 68
     1
 69
     1
 12
6.0
 22
4.5
 13
0.0
 23
0.0
 14
0.5
 24
0.5
 15
0.5
 25
0.5
 16
0.0
 26
0.0
 36
1.0
 17
0.0
 27
0.0
 37
0.0
 42
50.0
 43
0.0
 44
0.0
 45
12.0
 50
0.0
 51
0.0
 72
   100
 90
   557152
  1

281
     0
 71
     1
 74
     0
110
0.0
120
0.0
130
0.0
111
1.0
121
0.0
131
0.0
112
0.0
122
1.0
132
0.0
 79
     0
146
0.0
  0
ENDBLK
  5
1A0
330
D1
100
AcDbEntity
  8
0
100
AcDbBlockEnd
  0
BLOCK
  5
1A1
330
137
100
AcDbEntity
  8
0
100
AcDbBlockBegin
  2
*D1
 70
     1
 10
0.0
 20
0.0
 30
0.0
  3
*D1
  1

  0
POINT
  5
12D
330
137
100
AcDbEntity
  8
DEFPOINTS
  6
ByBlock
 62
     7
380
     1
100
AcDbPoint
 10
826.968788
 20
611.024531
 30
0.0
  0
POINT
  5
12F
330
137
100
AcDbEntity
  8
DEFPOINTS
  6
ByBlock
 62
     7
380
     1
100
AcDbPoint
 10
865.162422
 20
291.707698
 30
0.0
  0
LINE
  5
130
330
137
100
AcDbEntity
  8
0
  6
ByBlock
 62
     7
370
    -2
380
     1
100
AcDbLine
 10
826.343788
 20
611.024531
 30
0.0
 11
788.8387364550482
 21
611.024531
 31
0.0
  0
LINE
  5
131
330
137
100
AcDbEntity
  8
0
  6
ByBlock
 62
     7
370
    -2
380
     1
100
AcDbLine
 10
864.537422
 20
291.707698
 30
0.0
 11
788.8387364550482
 21
291.707698
 31
0.0
  0
LINE
  5
132
330
137
100
AcDbEntity
  8
0
  6
ByBlock
 62
     7
370
    -2
380
     1
100
AcDbLine
 10
790.0887364550482
 20
601.024531
 30
0.0
 11
790.0887364550482
 21
301.707698
 31
0.0
  0
SOLID
  5
133
330
137
100
AcDbEntity
  8
0
  6
ByBlock
 62
     7
380
     1
100
AcDbTrace
 10
790.0887364550482
 20
611.024531
 30
0.0
 11
788.4220697883816
 21
601.024531
 31
0.0
 12
791.7554031217148
 22
601.024531
 32
0.0
 13
791.7554031217148
 23
601.024531
 33
0.0
  0
SOLID
  5
134
330
137
100
AcDbEntity
  8
0
  6
ByBlock
 62
     7
380
     1
100
AcDbTrace
 10
790.0887364550482
 20
291.707698
 30
0.0
 11
788.4220697883816
 21
301.707698
 31
0.0
 12
791.7554031217148
 22
301.707698
 32
0.0
 13
791.7554031217148
 23
301.707698
 33
0.0
  0
MTEXT
  5
135
330
137
100
AcDbEntity
  8
0
  6
ByBlock
 62
     0
370
    -2
380
     1
100
AcDbMText
 10
778.0887364550482
 20
451.3661145
 30
0.0
 40
14.0
 41
0.0
 71
     5
 72
     1
  1
320
 11
6.123031769111886E-17
 21
1.0
 31
0.0
 73
     1
 44
1.0
  0
ENDBLK
  5
1A2
330
137
100
AcDbEntity
  8
0
100
AcDbBlockEnd
  0
BLOCK
  5
1A3
330
142
100
AcDbEntity
  8
0
100
AcDbBlockBegin
  2
*D2
 70
     1
 10
0.0
 20
0.0
 30
0.0
  3
*D2
  1

  0
POINT
  5
139
330
142
100
AcDbEntity
  8
DEFPOINTS
  6
ByBlock
 62
     7
380
     1
100
AcDbPoint
 10
820.4567747034242
 20
583.6845563908148
 30
0.0
  0
POINT
  5
13A
330
142
100
AcDbEntity
  8
DEFPOINTS
  6
ByBlock
 62
     7
380
     1
100
AcDbPoint
 10
1042.218788
 20
583.6845563908148
 30
0.0
  0
LINE
  5
13B
330
142
100
AcDbEntity
  8
0
  6
ByBlock
 62
     7
370
    -2
380
     1
100
AcDbLine
 10
820.4567747034242
 20
584.3095563908148
 30
0.0
 11
820.4567747034242
 21
640.3710623811794
 31
0.0
  0
LINE
  5
13C
330
142
100
AcDbEntity
  8
0
  6
ByBlock
 62
     7
370
    -2
380
     1
100
AcDbLine
 10
1042.218788
 20
584.3095563908148
 30
0.0
 11
1042.218788
 21
640.3710623811794
 31
0.0
  0
LINE
  5
13D
330
142
100
AcDbEntity
  8
0
  6
ByBlock
 62
     7
370
    -2
380
     1
100
AcDbLine
 10
830.4567747034242
 20
639.1210623811794
 30
0.0
 11
1032.218788
 21
639.1210623811794
 31
0.0
  0
SOLID
  5
13E
330
142
100
AcDbEntity
  8
0
  6
ByBlock
 62
     7
380
     1
100
AcDbTrace
 10
820.4567747034242
 20
639.1210623811794
 30
0.0
 11
830.4567747034242
 21
637.4543957145128
 31
0.0
 12
830.4567747034242
 22
640.787729047846
 32
0.0
 13
830.4567747034242
 23
640.787729047846
 33
0.0
  0
SOLID
  5
13F
330
142
100
AcDbEntity
  8
0
  6
ByBlock
 62
     7
380
     1
100
AcDbTrace
 10
1042.218788
 20
639.1210623811794
 30
0.0
 11
1032.218788
 21
637.4543957145128
 31
0.0
 12
1032.218788
 22
640.787729047846
 32
0.0
 13
1032.218788
 23
640.787729047846
 33
0.0
  0
MTEXT
  5
140
330
142
100
AcDbEntity
  8
0
  6
ByBlock
 62
     0
370
    -2
380
     1
100
AcDbMText
 10
931.337781351712
 20
651.1210623811794
 30
0.0
 40
14.0
 41
0.0
 71
     5
 72
     1
  1
222
 73
     1
 44
1.0
  0
ENDBLK
  5
1A4
330
142
100
AcDbEntity
  8
0
100
AcDbBlockEnd
  0
BLOCK
  5
1A5
330
14D
100
AcDbEntity
  8
0
100
AcDbBlockBegin
  2
*D3
 70
     1
 10
0.0
 20
0.0
 30
0.0
  3
*D3
  1

  0
POINT
  5
144
330
14D
100
AcDbEntity
  8
DEFPOINTS
  6
ByBlock
 62
     7
380
     1
100
AcDbPoint
 10
580.817604
 20
482.287043
 30
0.0
  0
POINT
  5
145
330
14D
100
AcDbEntity
  8
DEFPOINTS
  6
ByBlock
 62
     7
380
     1
100
AcDbPoint
 10
580.817604
 20
297.787013
 30
0.0
  0
LINE
  5
146
330
14D
100
AcDbEntity
  8
0
  6
ByBlock
 62
     7
370
    -2
380
     1
100
AcDbLine
 10
581.442604
 20
482.287043
 30
0.0
 11
640.8258473172832
 21
482.287043
 31
0.0
  0
LINE
  5
147
330
14D
100
AcDbEntity
  8
0
  6
ByBlock
 62
     7
370
    -2
380
     1
100
AcDbLine
 10
581.442604
 20
297.787013
 30
0.0
 11
640.8258473172832
 21
297.787013
 31
0.0
  0
LINE
  5
148
330
14D
100
AcDbEntity
  8
0
  6
ByBlock
 62
     7
370
    -2
380
     1
100
AcDbLine
 10
639.5758473172832
 20
472.287043
 30
0.0
 11
639.5758473172832
 21
307.787013
 31
0.0
  0
SOLID
  5
149
330
14D
100
AcDbEntity
  8
0
  6
ByBlock
 62
     7
380
     1
100
AcDbTrace
 10
639.5758473172832
 20
482.287043
 30
0.0
 11
637.9091806506166
 21
472.287043
 31
0.0
 12
641.2425139839498
 22
472.287043
 32
0.0
 13
641.2425139839498
 23
472.287043
 33
0.0
  0
SOLID
  5
14A
330
14D
100
AcDbEntity
  8
0
  6
ByBlock
 62
     7
380
     1
100
AcDbTrace
 10
639.5758473172832
 20
297.787013
 30
0.0
 11
637.9091806506166
 21
307.787013
 31
0.0
 12
641.2425139839498
 22
307.787013
 32
0.0
 13
641.2425139839498
 23
307.787013
 33
0.0
  0
MTEXT
  5
14B
330
14D
100
AcDbEntity
  8
0
  6
ByBlock
 62
     0
370
    -2
380
     1
100
AcDbMText
 10
627.5758473172832
 20
390.037028
 30
0.0
 40
14.0
 41
0.0
 71
     5
 72
     1
  1
185
 11
6.123031769111886E-17
 21
1.0
 31
0.0
 73
     1
 44
1.0
  0
ENDBLK
  5
1A6
330
14D
100
AcDbEntity
  8
0
100
AcDbBlockEnd
  0
BLOCK
  5
1A7
330
158
100
AcDbEntity
  8
0
100
AcDbBlockBegin
  2
*D4
 70
     1
 10
0.0
 20
0.0
 30
0.0
  3
*D4
  1

  0
POINT
  5
14F
330
158
100
AcDbEntity
  8
DEFPOINTS
  6
ByBlock
 62
     7
380
     1
100
AcDbPoint
 10
112.317589
 20
396.787043
 30
0.0
  0
POINT
  5
150
330
158
100
AcDbEntity
  8
DEFPOINTS
  6
ByBlock
 62
     7
380
     1
100
AcDbPoint
 10
614.317604
 20
396.787043
 30
0.0
  0
LINE
  5
151
330
158
100
AcDbEntity
  8
0
  6
ByBlock
 62
     7
370
    -2
380
     1
100
AcDbLine
 10
112.317589
 20
396.162043
 30
0.0
 11
112.317589
 21
239.9197161039665
 31
0.0
  0
LINE
  5
152
330
158
100
AcDbEntity
  8
0
  6
ByBlock
 62
     7
370
    -2
380
     1
100
AcDbLine
 10
614.317604
 20
396.162043
 30
0.0
 11
614.317604
 21
239.9197161039665
 31
0.0
  0
LINE
  5
153
330
158
100
AcDbEntity
  8
0
  6
ByBlock
 62
     7
370
    -2
380
     1
100
AcDbLine
 10
122.317589
 20
241.1697161039665
 30
0.0
 11
604.317604
 21
241.1697161039665
 31
0.0
  0
SOLID
  5
154
330
158
100
AcDbEntity
  8
0
  6
ByBlock
 62
     7
380
     1
100
AcDbTrace
 10
112.317589
 20
241.1697161039665
 30
0.0
 11
122.317589
 21
239.5030494372998
 31
0.0
 12
122.317589
 22
242.8363827706332
 32
0.0
 13
122.317589
 23
242.8363827706332
 33
0.0
  0
SOLID
  5
155
330
158
100
AcDbEntity
  8
0
  6
ByBlock
 62
     7
380
     1
100
AcDbTrace
 10
614.317604
 20
241.1697161039665
 30
0.0
 11
604.317604
 21
239.5030494372998
 31
0.0
 12
604.317604
 22
242.8363827706332
 32
0.0
 13
604.317604
 23
242.8363827706332
 33
0.0
  0
MTEXT
  5
156
330
158
100
AcDbEntity
  8
0
  6
ByBlock
 62
     0
370
    -2
380
     1
100
AcDbMText
 10
363.3175965
 20
253.1697161039665
 30
0.0
 40
14.0
 41
0.0
 71
     5
 72
     1
  1
\A1;502
 73
     1
 44
1.0
  0
ENDBLK
  5
1A8
330
158
100
AcDbEntity
  8
0
100
AcDbBlockEnd
  0
BLOCK
  5
1A9
330
163
100
AcDbEntity
  8
0
100
AcDbBlockBegin
  2
*D5
 70
     1
 10
0.0
 20
0.0
 30
0.0
  3
*D5
  1

  0
POINT
  5
15A
330
163
100
AcDbEntity
  8
DEFPOINTS
  6
ByBlock
 62
     7
380
     1
100
AcDbPoint
 10
170.817589
 20
529.3393965988112
 30
0.0
  0
POINT
  5
15B
330
163
100
AcDbEntity
  8
DEFPOINTS
  6
ByBlock
 62
     7
380
     1
100
AcDbPoint
 10
580.817604
 20
529.3393965988112
 30
0.0
  0
LINE
  5
15C
330
163
100
AcDbEntity
  8
0
  6
ByBlock
 62
     7
370
    -2
380
     1
100
AcDbLine
 10
170.817589
 20
529.9643965988112
 30
0.0
 11
170.817589
 21
640.3710623811794
 31
0.0
  0
LINE
  5
15D
330
163
100
AcDbEntity
  8
0
  6
ByBlock
 62
     7
370
    -2
380
     1
100
AcDbLine
 10
580.817604
 20
529.9643965988112
 30
0.0
 11
580.817604
 21
640.3710623811794
 31
0.0
  0
LINE
  5
15E
330
163
100
AcDbEntity
  8
0
  6
ByBlock
 62
     7
370
    -2
380
     1
100
AcDbLine
 10
180.817589
 20
639.1210623811794
 30
0.0
 11
570.817604
 21
639.1210623811794
 31
0.0
  0
SOLID
  5
15F
330
163
100
AcDbEntity
  8
0
  6
ByBlock
 62
     7
380
     1
100
AcDbTrace
 10
170.817589
 20
639.1210623811794
 30
0.0
 11
180.817589
 21
637.4543957145128
 31
0.0
 12
180.817589
 22
640.787729047846
 32
0.0
 13
180.817589
 23
640.787729047846
 33
0.0
  0
SOLID
  5
160
330
163
100
AcDbEntity
  8
0
  6
ByBlock
 62
     7
380
     1
100
AcDbTrace
 10
580.817604
 20
639.1210623811794
 30
0.0
 11
570.817604
 21
637.4543957145128
 31
0.0
 12
570.817604
 22
640.787729047846
 32
0.0
 13
570.817604
 23
640.787729047846
 33
0.0
  0
MTEXT
  5
161
330
163
100
AcDbEntity
  8
0
  6
ByBlock
 62
     0
370
    -2
380
     1
100
AcDbMText
 10
375.8175965
 20
651.1210623811794
 30
0.0
 40
14.0
 41
0.0
 71
     5
 72
     1
  1
\A1;410
 73
     1
 44
1.0
  0
ENDBLK
  5
1AA
330
163
100
AcDbEntity
  8
0
100
AcDbBlockEnd
  0
BLOCK
  5
1AB
330
16E
100
AcDbEntity
  8
0
100
AcDbBlockBegin
  2
*D6
 70
     1
 10
0.0
 20
0.0
 30
0.0
  3
*D6
  1

  0
POINT
  5
165
330
16E
100
AcDbEntity
  8
DEFPOINTS
  6
ByBlock
 62
     7
380
     1
100
AcDbPoint
 10
163.8127334615954
 20
367.8041583203096
 30
0.0
  0
POINT
  5
166
330
16E
100
AcDbEntity
  8
DEFPOINTS
  6
ByBlock
 62
     7
380
     1
100
AcDbPoint
 10
573.8127484615953
 20
367.8041583203096
 30
0.0
  0
LINE
  5
167
330
16E
100
AcDbEntity
  8
0
  6
ByBlock
 62
     7
370
    -2
380
     1
100
AcDbLine
 10
163.8127334615954
 20
368.4291583203096
 30
0.0
 11
163.8127334615954
 21
478.8358241026778
 31
0.0
  0
LINE
  5
168
330
16E
100
AcDbEntity
  8
0
  6
ByBlock
 62
     7
370
    -2
380
     1
100
AcDbLine
 10
573.8127484615953
 20
368.4291583203096
 30
0.0
 11
573.8127484615953
 21
478.8358241026778
 31
0.0
  0
LINE
  5
169
330
16E
100
AcDbEntity
  8
0
  6
ByBlock
 62
     7
370
    -2
380
     1
100
AcDbLine
 10
173.8127334615954
 20
477.5858241026778
 30
0.0
 11
563.8127484615953
 21
477.5858241026778
 31
0.0
  0
SOLID
  5
16A
330
16E
100
AcDbEntity
  8
0
  6
ByBlock
 62
     7
380
     1
100
AcDbTrace
 10
163.8127334615954
 20
477.5858241026778
 30
0.0
 11
173.8127334615954
 21
475.9191574360111
 31
0.0
 12
173.8127334615954
 22
479.2524907693445
 32
0.0
 13
173.8127334615954
 23
479.2524907693445
 33
0.0
  0
SOLID
  5
16B
330
16E
100
AcDbEntity
  8
0
  6
ByBlock
 62
     7
380
     1
100
AcDbTrace
 10
573.8127484615953
 20
477.5858241026778
 30
0.0
 11
563.8127484615953
 21
475.9191574360111
 31
0.0
 12
563.8127484615953
 22
479.2524907693445
 32
0.0
 13
563.8127484615953
 23
479.2524907693445
 33
0.0
  0
MTEXT
  5
16C
330
16E
100
AcDbEntity
  8
0
  6
ByBlock
 62
     0
370
    -2
380
     1
100
AcDbMText
 10
368.8127409615954
 20
489.5858241026778
 30
0.0
 40
14.0
 41
0.0
 71
     5
 72
     1
  1
\A1;410
 73
     1
 44
1.0
  0
ENDBLK
  5
1AC
330
16E
100
AcDbEntity
  8
0
100
AcDbBlockEnd
  0
BLOCK
  5
1AD
330
179
100
AcDbEntity
  8
0
100
AcDbBlockBegin
  2
*D7
 70
     1
 10
0.0
 20
0.0
 30
0.0
  3
*D7
  1

  0
POINT
  5
170
330
179
100
AcDbEntity
  8
DEFPOINTS
  6
ByBlock
 62
     7
380
     1
100
AcDbPoint
 10
105.3127334615954
 20
235.2518047214984
 30
0.0
  0
POINT
  5
171
330
179
100
AcDbEntity
  8
DEFPOINTS
  6
ByBlock
 62
     7
380
     1
100
AcDbPoint
 10
607.3127484615953
 20
235.2518047214984
 30
0.0
  0
LINE
  5
172
330
179
100
AcDbEntity
  8
0
  6
ByBlock
 62
     7
370
    -2
380
     1
100
AcDbLine
 10
105.3127334615954
 20
234.6268047214984
 30
0.0
 11
105.3127334615954
 21
78.3844778254649
 31
0.0
  0
LINE
  5
173
330
179
100
AcDbEntity
  8
0
  6
ByBlock
 62
     7
370
    -2
380
     1
100
AcDbLine
 10
607.3127484615953
 20
234.6268047214984
 30
0.0
 11
607.3127484615953
 21
78.3844778254649
 31
0.0
  0
LINE
  5
174
330
179
100
AcDbEntity
  8
0
  6
ByBlock
 62
     7
370
    -2
380
     1
100
AcDbLine
 10
115.3127334615954
 20
79.6344778254649
 30
0.0
 11
597.3127484615953
 21
79.6344778254649
 31
0.0
  0
SOLID
  5
175
330
179
100
AcDbEntity
  8
0
  6
ByBlock
 62
     7
380
     1
100
AcDbTrace
 10
105.3127334615954
 20
79.6344778254649
 30
0.0
 11
115.3127334615954
 21
77.96781115879824
 31
0.0
 12
115.3127334615954
 22
81.30114449213156
 32
0.0
 13
115.3127334615954
 23
81.30114449213156
 33
0.0
  0
SOLID
  5
176
330
179
100
AcDbEntity
  8
0
  6
ByBlock
 62
     7
380
     1
100
AcDbTrace
 10
607.3127484615953
 20
79.6344778254649
 30
0.0
 11
597.3127484615953
 21
77.96781115879824
 31
0.0
 12
597.3127484615953
 22
81.30114449213156
 32
0.0
 13
597.3127484615953
 23
81.30114449213156
 33
0.0
  0
MTEXT
  5
177
330
179
100
AcDbEntity
  8
0
  6
ByBlock
 62
     0
370
    -2
380
     1
100
AcDbMText
 10
356.3127409615954
 20
91.6344778254649
 30
0.0
 40
14.0
 41
0.0
 71
     5
 72
     1
  1
\A1;502
 73
     1
 44
1.0
  0
ENDBLK
  5
1AE
330
179
100
AcDbEntity
  8
0
100
AcDbBlockEnd
  0
BLOCK
  5
1AF
330
184
100
AcDbEntity
  8
0
100
AcDbBlockBegin
  2
*D8
 70
     1
 10
0.0
 20
0.0
 30
0.0
  3
*D8
  1

  0
POINT
  5
17B
330
184
100
AcDbEntity
  8
DEFPOINTS
  6
ByBlock
 62
     7
380
     1
100
AcDbPoint
 10
573.8127484615953
 20
320.7518047214984
 30
0.0
  0
POINT
  5
17C
330
184
100
AcDbEntity
  8
DEFPOINTS
  6
ByBlock
 62
     7
380
     1
100
AcDbPoint
 10
573.8127484615953
 20
136.2517747214984
 30
0.0
  0
LINE
  5
17D
330
184
100
AcDbEntity
  8
0
  6
ByBlock
 62
     7
370
    -2
380
     1
100
AcDbLine
 10
574.4377484615953
 20
320.7518047214984
 30
0.0
 11
633.8209917788786
 21
320.7518047214984
 31
0.0
  0
LINE
  5
17E
330
184
100
AcDbEntity
  8
0
  6
ByBlock
 62
     7
370
    -2
380
     1
100
AcDbLine
 10
574.4377484615953
 20
136.2517747214984
 30
0.0
 11
633.8209917788786
 21
136.2517747214984
 31
0.0
  0
LINE
  5
17F
330
184
100
AcDbEntity
  8
0
  6
ByBlock
 62
     7
370
    -2
380
     1
100
AcDbLine
 10
632.5709917788786
 20
310.7518047214984
 30
0.0
 11
632.5709917788786
 21
146.2517747214984
 31
0.0
  0
SOLID
  5
180
330
184
100
AcDbEntity
  8
0
  6
ByBlock
 62
     7
380
     1
100
AcDbTrace
 10
632.5709917788786
 20
320.7518047214984
 30
0.0
 11
630.904325112212
 21
310.7518047214984
 31
0.0
 12
634.2376584455452
 22
310.7518047214984
 32
0.0
 13
634.2376584455452
 23
310.7518047214984
 33
0.0
  0
SOLID
  5
181
330
184
100
AcDbEntity
  8
0
  6
ByBlock
 62
     7
380
     1
100
AcDbTrace
 10
632.5709917788786
 20
136.2517747214984
 30
0.0
 11
630.904325112212
 21
146.2517747214984
 31
0.0
 12
634.2376584455452
 22
146.2517747214984
 32
0.0
 13
634.2376584455452
 23
146.2517747214984
 33
0.0
  0
MTEXT
  5
182
330
184
100
AcDbEntity
  8
0
  6
ByBlock
 62
     0
370
    -2
380
     1
100
AcDbMText
 10
620.5709917788786
 20
228.5017897214984
 30
0.0
 40
14.0
 41
0.0
 71
     5
 72
     1
  1
185
 11
6.123031769111886E-17
 21
1.0
 31
0.0
 73
     1
 44
1.0
  0
ENDBLK
  5
1B0
330
184
100
AcDbEntity
  8
0
100
AcDbBlockEnd
  0
BLOCK
  5
1B1
330
18F
100
AcDbEntity
  8
0
100
AcDbBlockBegin
  2
*D9
 70
     1
 10
0.0
 20
0.0
 30
0.0
  3
*D9
  1

  0
POINT
  5
186
330
18F
100
AcDbEntity
  8
DEFPOINTS
  6
ByBlock
 62
     7
380
     1
100
AcDbPoint
 10
813.4519191650196
 20
422.1493181123132
 30
0.0
  0
POINT
  5
187
330
18F
100
AcDbEntity
  8
DEFPOINTS
  6
ByBlock
 62
     7
380
     1
100
AcDbPoint
 10
1035.213932461595
 20
422.1493181123132
 30
0.0
  0
LINE
  5
188
330
18F
100
AcDbEntity
  8
0
  6
ByBlock
 62
     7
370
    -2
380
     1
100
AcDbLine
 10
813.4519191650196
 20
422.7743181123132
 30
0.0
 11
813.4519191650196
 21
478.8358241026778
 31
0.0
  0
LINE
  5
189
330
18F
100
AcDbEntity
  8
0
  6
ByBlock
 62
     7
370
    -2
380
     1
100
AcDbLine
 10
1035.213932461595
 20
422.7743181123132
 30
0.0
 11
1035.213932461595
 21
478.8358241026778
 31
0.0
  0
LINE
  5
18A
330
18F
100
AcDbEntity
  8
0
  6
ByBlock
 62
     7
370
    -2
380
     1
100
AcDbLine
 10
823.4519191650196
 20
477.5858241026778
 30
0.0
 11
1025.213932461595
 21
477.5858241026778
 31
0.0
  0
SOLID
  5
18B
330
18F
100
AcDbEntity
  8
0
  6
ByBlock
 62
     7
380
     1
100
AcDbTrace
 10
813.4519191650196
 20
477.5858241026778
 30
0.0
 11
823.4519191650196
 21
475.9191574360111
 31
0.0
 12
823.4519191650196
 22
479.2524907693445
 32
0.0
 13
823.4519191650196
 23
479.2524907693445
 33
0.0
  0
SOLID
  5
18C
330
18F
100
AcDbEntity
  8
0
  6
ByBlock
 62
     7
380
     1
100
AcDbTrace
 10
1035.213932461595
 20
477.5858241026778
 30
0.0
 11
1025.213932461595
 21
475.9191574360111
 31
0.0
 12
1025.213932461595
 22
479.2524907693445
 32
0.0
 13
1025.213932461595
 23
479.2524907693445
 33
0.0
  0
MTEXT
  5
18D
330
18F
100
AcDbEntity
  8
0
  6
ByBlock
 62
     0
370
    -2
380
     1
100
AcDbMText
 10
924.3329258133074
 20
489.5858241026778
 30
0.0
 40
14.0
 41
0.0
 71
     5
 72
     1
  1
222
 73
     1
 44
1.0
  0
ENDBLK
  5
1B2
330
18F
100
AcDbEntity
  8
0
100
AcDbBlockEnd
  0
BLOCK
  5
1B3
330
19A
100
AcDbEntity
  8
0
100
AcDbBlockBegin
  2
*D10
 70
     1
 10
0.0
 20
0.0
 30
0.0
  3
*D10
  1

  0
POINT
  5
191
330
19A
100
AcDbEntity
  8
DEFPOINTS
  6
ByBlock
 62
     7
380
     1
100
AcDbPoint
 10
819.9639324615954
 20
449.4892927214984
 30
0.0
  0
POINT
  5
192
330
19A
100
AcDbEntity
  8
DEFPOINTS
  6
ByBlock
 62
     7
380
     1
100
AcDbPoint
 10
858.1575664615954
 20
130.1724597214984
 30
0.0
  0
LINE
  5
193
330
19A
100
AcDbEntity
  8
0
  6
ByBlock
 62
     7
370
    -2
380
     1
100
AcDbLine
 10
819.3389324615954
 20
449.4892927214984
 30
0.0
 11
781.8338809166436
 21
449.4892927214984
 31
0.0
  0
LINE
  5
194
330
19A
100
AcDbEntity
  8
0
  6
ByBlock
 62
     7
370
    -2
380
     1
100
AcDbLine
 10
857.5325664615954
 20
130.1724597214984
 30
0.0
 11
781.8338809166436
 21
130.1724597214984
 31
0.0
  0
LINE
  5
195
330
19A
100
AcDbEntity
  8
0
  6
ByBlock
 62
     7
370
    -2
380
     1
100
AcDbLine
 10
783.0838809166436
 20
439.4892927214984
 30
0.0
 11
783.0838809166436
 21
140.1724597214984
 31
0.0
  0
SOLID
  5
196
330
19A
100
AcDbEntity
  8
0
  6
ByBlock
 62
     7
380
     1
100
AcDbTrace
 10
783.0838809166436
 20
449.4892927214984
 30
0.0
 11
781.417214249977
 21
439.4892927214984
 31
0.0
 12
784.7505475833102
 22
439.4892927214984
 32
0.0
 13
784.7505475833102
 23
439.4892927214984
 33
0.0
  0
SOLID
  5
197
330
19A
100
AcDbEntity
  8
0
  6
ByBlock
 62
     7
380
     1
100
AcDbTrace
 10
783.0838809166436
 20
130.1724597214984
 30
0.0
 11
781.417214249977
 21
140.1724597214984
 31
0.0
 12
784.7505475833102
 22
140.1724597214984
 32
0.0
 13
784.7505475833102
 23
140.1724597214984
 33
0.0
  0
MTEXT
  5
198
330
19A
100
AcDbEntity
  8
0
  6
ByBlock
 62
     0
370
    -2
380
     1
100
AcDbMText
 10
771.0838809166436
 20
289.8308762214984
 30
0.0
 40
14.0
 41
0.0
 71
     5
 72
     1
  1
320
 11
6.123031769111886E-17
 21
1.0
 31
0.0
 73
     1
 44
1.0
  0
ENDBLK
  5
1B4
330
19A
100
AcDbEntity
  8
0
100
AcDbBlockEnd
  0
ENDSEC
  0
SECTION
  2
ENTITIES
  0
POINT
  5
F9
330
1F
100
AcDbEntity
  8
2
 62
     7
370
    60
100
AcDbPoint
 10
1035.213932461595
 20
430.1724597214985
 30
0.0
  0
POINT
  5
FA
330
1F
100
AcDbEntity
  8
2
 62
     7
370
    60
100
AcDbPoint
 10
1035.213932461595
 20
430.1724597214985
 30
0.0
  0
POINT
  5
FB
330
1F
100
AcDbEntity
  8
0
 62
     7
370
    60
100
AcDbPoint
 10
813.2418254615953
 20
430.1724597214985
 30
0.0
  0
LINE
  5
FC
330
1F
100
AcDbEntity
  8
2
 62
     7
370
    60
100
AcDbLine
 10
573.8127484615953
 20
136.2517747214984
 30
0.0
 11
573.8127484615953
 21
433.2518047214984
 31
0.0
  0
LINE
  5
FD
330
1F
100
AcDbEntity
  8
2
 62
     7
370
    60
100
AcDbLine
 10
163.8127334615954
 20
136.2517747214984
 30
0.0
 11
163.8127334615954
 21
433.2518047214984
 31
0.0
  0
LINE
  5
FE
330
1F
100
AcDbEntity
  8
2
 62
     7
370
    60
100
AcDbLine
 10
166.8127334615954
 20
436.2518047214984
 30
0.0
 11
570.8127484615953
 21
436.2518047214984
 31
0.0
  0
LINE
  5
FF
330
1F
100
AcDbEntity
  8
2
 62
     7
370
    60
100
AcDbLine
 10
165.812733496502
 20
284.7518047214984
 30
0.0
 11
571.812748496502
 21
284.7518047214984
 31
0.0
  0
CIRCLE
  5
100
330
1F
100
AcDbEntity
  8
2
 62
     7
370
    60
100
AcDbCircle
 10
111.8127334615954
 20
235.2518047214984
 30
0.0
 40
3.25
  0
CIRCLE
  5
101
330
1F
100
AcDbEntity
  8
2
 62
     7
370
    60
100
AcDbCircle
 10
601.8127484615953
 20
235.2518047214984
 30
0.0
 40
3.25
  0
LINE
  5
102
330
1F
100
AcDbEntity
  8
2
 62
     7
370
    60
100
AcDbLine
 10
108.2416574615954
 20
265.1806987214984
 30
0.0
 11
163.8127334615954
 21
320.7518047214984
 31
0.0
  0
LINE
  5
103
330
1F
100
AcDbEntity
  8
2
 62
     7
370
    60
100
AcDbLine
 10
573.8127484615953
 20
320.7518047214984
 30
0.0
 11
604.3837934615954
 21
290.1806987214984
 31
0.0
  0
ARC
  5
104
330
1F
100
AcDbEntity
  8
2
 62
     7
370
    60
100
AcDbCircle
 10
165.8127334615954
 20
286.7518047214984
 30
0.0
 40
2.000000000000008
100
AcDbArc
 50
180.0000050000005
 51
270.0000010000005
  0
ARC
  5
105
330
1F
100
AcDbEntity
  8
2
 62
     7
370
    60
100
AcDbCircle
 10
571.8127484615953
 20
286.7518047214984
 30
0.0
 40
2.0
100
AcDbArc
 50
270.0000010000014
 51
0.0000000000014249
  0
ARC
  5
106
330
1F
100
AcDbEntity
  8
2
 62
     7
370
    60
100
AcDbCircle
 10
166.8127334615954
 20
433.2518047214984
 30
0.0
 40
3.000000000000004
100
AcDbArc
 50
90.00000299999986
 51
180.0000049999998
  0
ARC
  5
107
330
1F
100
AcDbEntity
  8
2
 62
     7
370
    60
100
AcDbCircle
 10
570.8127484615953
 20
433.2518047214984
 30
0.0
 40
3.0
100
AcDbArc
 50
0.0
 51
90.000003
  0
LINE
  5
108
330
1F
100
AcDbEntity
  8
2
 62
     7
370
    60
100
AcDbLine
 10
108.2416574615954
 20
191.8228497214984
 30
0.0
 11
163.8127334615954
 21
136.2517747214984
 31
0.0
  0
LINE
  5
109
330
1F
100
AcDbEntity
  8
2
 62
     7
370
    60
100
AcDbLine
 10
573.8127484615953
 20
136.2517747214984
 30
0.0
 11
604.3837934615954
 21
166.8228497214984
 31
0.0
  0
LINE
  5
10A
330
1F
100
AcDbEntity
  8
2
 62
     7
370
    60
100
AcDbLine
 10
105.3127334615954
 20
198.8938947214984
 30
0.0
 11
105.3127334615954
 21
258.1096537214984
 31
0.0
  0
ARC
  5
10B
330
1F
100
AcDbEntity
  8
2
 62
     7
370
    60
100
AcDbCircle
 10
115.3127334615954
 20
258.1096537214984
 30
0.0
 40
10.0
100
AcDbArc
 50
135.0
 51
180.000005
  0
LINE
  5
10C
330
1F
100
AcDbEntity
  8
2
 62
     7
370
    60
100
AcDbLine
 10
607.3127484615953
 20
173.8939257214984
 30
0.0
 11
607.3127484615953
 21
283.1096537214984
 31
0.0
  0
ARC
  5
10D
330
1F
100
AcDbEntity
  8
2
 62
     7
370
    60
100
AcDbCircle
 10
597.3127484615953
 20
283.1096537214984
 30
0.0
 40
10.0
100
AcDbArc
 50
0.0
 51
45.0
  0
ARC
  5
10E
330
1F
100
AcDbEntity
  8
2
 62
     7
370
    60
100
AcDbCircle
 10
597.3127484615953
 20
173.8939257214984
 30
0.0
 40
10.00000000000003
100
AcDbArc
 50
314.99999
 51
0.0
  0
LINE
  5
10F
330
1F
100
AcDbEntity
  8
2
 62
     7
 48
0.35
370
    60
100
AcDbLine
 10
166.8127334615954
 20
436.2518047214984
 30
0.0
 11
166.8127334615954
 21
450.2518047214984
 31
0.0
  0
LINE
  5
110
330
1F
100
AcDbEntity
  8
2
 62
     7
 48
0.35
370
    60
100
AcDbLine
 10
570.8127484615953
 20
436.2518047214984
 30
0.0
 11
570.8127484615953
 21
450.2518047214984
 31
0.0
  0
LINE
  5
111
330
1F
100
AcDbEntity
  8
2
 62
     7
370
    60
100
AcDbLine
 10
167.8127334615954
 20
451.2518047214984
 30
0.0
 11
569.8127484615953
 21
451.2518047214984
 31
0.0
  0
LINE
  5
112
330
1F
100
AcDbEntity
  8
2
 62
     7
370
    60
100
AcDbLine
 10
813.2418254615953
 20
430.1724597214985
 30
0.0
 11
1035.213932461595
 21
430.1724597214985
 31
0.0
  0
LINE
  5
113
330
1F
100
AcDbEntity
  8
2
 62
     7
370
    60
100
AcDbLine
 10
835.2139324615954
 20
130.1724597214984
 30
0.0
 11
881.1012004615953
 21
130.1724597214984
 31
0.0
  0
LINE
  5
114
330
1F
100
AcDbEntity
  8
2
 62
     7
370
    60
100
AcDbLine
 10
835.2139324615954
 20
314.6724597214984
 30
0.0
 11
835.2139324615954
 21
130.1724597214984
 31
0.0
  0
LINE
  5
115
330
1F
100
AcDbEntity
  8
2
 62
     7
370
    60
100
AcDbLine
 10
1035.213932461595
 20
430.1724597214985
 30
0.0
 11
1035.213932461595
 21
278.6724597214984
 31
0.0
  0
LINE
  5
116
330
1F
100
AcDbEntity
  8
2
 62
     7
 48
0.4625
370
    60
100
AcDbLine
 10
818.2139324615954
 20
314.6724597214984
 30
0.0
 11
835.2139324615954
 21
314.6724597214984
 31
0.0
  0
LINE
  5
117
330
1F
100
AcDbEntity
  8
2
 62
     7
370
    60
100
AcDbLine
 10
1035.213932461595
 20
278.6724597214984
 30
0.0
 11
888.1366624615954
 21
133.0659527214984
 31
0.0
  0
ARC
  5
118
330
1F
100
AcDbEntity
  8
2
 62
     7
370
    60
100
AcDbCircle
 10
818.2139324615954
 20
316.6724597214984
 30
0.0
 40
2.000000000000025
100
AcDbArc
 50
179.9999910000004
 51
270.0000010000004
  0
LINE
  5
119
330
1F
100
AcDbEntity
  8
2
 62
     7
 48
0.102819
370
    60
100
AcDbLine
 10
888.1366624615954
 20
133.0659527214984
 30
0.0
 11
885.2139324615954
 21
130.1724597214984
 31
0.0
  0
LINE
  5
11A
330
1F
100
AcDbEntity
  8
2
 62
     7
 48
0.102818
370
    60
100
AcDbLine
 10
881.1012004615953
 20
130.1724597214984
 30
0.0
 11
885.2139324615954
 21
130.1724597214984
 31
0.0
  0
LINE
  5
11B
330
1F
100
AcDbEntity
  8
2
 62
     7
 48
0.420421
370
    60
100
AcDbLine
 10
819.2139324615954
 20
449.4892927214984
 30
0.0
 11
819.2139324615954
 21
432.6724597214985
 31
0.0
  0
LINE
  5
11C
330
1F
100
AcDbEntity
  8
2
 62
     7
 48
0.420421
370
    60
100
AcDbLine
 10
820.7139324615954
 20
449.4892927214984
 30
0.0
 11
820.7139324615954
 21
432.6724597214985
 31
0.0
  0
LINE
  5
11D
330
1F
100
AcDbEntity
  8
2
 62
     7
 48
0.0375
370
    60
100
AcDbLine
 10
834.2139324615954
 20
431.6724597214985
 30
0.0
 11
834.2139324615954
 21
430.1724597214985
 31
0.0
  0
LINE
  5
11E
330
1F
100
AcDbEntity
  8
2
 62
     7
 48
0.3125
370
    60
100
AcDbLine
 10
821.7139324615954
 20
431.6724597214985
 30
0.0
 11
834.2139324615954
 21
431.6724597214985
 31
0.0
  0
LINE
  5
11F
330
1F
100
AcDbEntity
  8
2
 62
     7
 48
0.0375
370
    60
100
AcDbLine
 10
819.2139324615954
 20
449.4892927214984
 30
0.0
 11
820.7139324615954
 21
449.4892927214984
 31
0.0
  0
LINE
  5
120
330
1F
100
AcDbEntity
  8
2
 62
     7
370
    60
100
AcDbLine
 10
813.2418254615953
 20
430.1724597214985
 30
0.0
 11
816.2139324615954
 21
316.6724597214984
 31
0.0
  0
ARC
  5
121
330
1F
100
AcDbEntity
  8
2
 62
     7
370
    60
100
AcDbCircle
 10
821.7139324615954
 20
432.6724597214985
 30
0.0
 40
2.500000000000031
100
AcDbArc
 50
179.9999909999991
 51
270.0000009999991
  0
ARC
  5
122
330
1F
100
AcDbEntity
  8
2
 62
     7
370
    60
100
AcDbCircle
 10
821.7139324615954
 20
432.6724597214985
 30
0.0
 40
1.000000000000012
100
AcDbArc
 50
179.9999910000004
 51
270.0000010000004
  0
DIMENSION
  5
123
330
1F
100
AcDbEntity
  8
0
370
    25
100
AcDbDimension
  2
*D6
 10
573.8127484615953
 20
477.5858241026778
 30
0.0
 11
368.8127409615954
 21
489.5858241026778
 31
0.0
 70
    32
 71
     5
 41
2.5
 42
410.000015
  3
Standard
100
AcDbAlignedDimension
 13
163.8127334615954
 23
367.8041583203096
 33
0.0
 14
573.8127484615953
 24
367.8041583203096
 34
0.0
100
AcDbRotatedDimension
1001
ACAD
1000
DSTYLE
1002
{
1070
   171
1070
     3
1070
   143
1040
0.03937
1070
   274
1070
     3
1070
    41
1040
10.0
1070
   289
1070
     0
1070
   141
1040
2.5
1070
   176
1070
     7
1070
   177
1070
     7
1070
   271
1070
     2
1070
    43
1040
3.75
1070
   278
1070
    44
1070
    44
1040
1.25
1070
    42
1040
0.625
1070
   147
1040
5.0
1070
    77
1070
     1
1070
   272
1070
     2
1070
    73
1070
     0
1070
   172
1070
     1
1070
    74
1070
     0
1070
   283
1070
     0
1070
   140
1040
14.0
1070
   284
1070
     8
1070
    78
1070
     8
1002
}
  0
DIMENSION
  5
124
330
1F
100
AcDbEntity
  8
0
370
    25
100
AcDbDimension
  2
*D7
 10
607.3127484615953
 20
79.6344778254649
 30
0.0
 11
356.3127409615954
 21
91.6344778254649
 31
0.0
 70
    32
 71
     5
 41
2.5
 42
502.000015
  3
Standard
100
AcDbAlignedDimension
 13
105.3127334615954
 23
235.2518047214984
 33
0.0
 14
607.3127484615953
 24
235.2518047214984
 34
0.0
100
AcDbRotatedDimension
1001
ACAD
1000
DSTYLE
1002
{
1070
   171
1070
     3
1070
   143
1040
0.03937
1070
   274
1070
     3
1070
    41
1040
10.0
1070
   289
1070
     0
1070
   141
1040
2.5
1070
   176
1070
     7
1070
   177
1070
     7
1070
   271
1070
     2
1070
    43
1040
3.75
1070
   278
1070
    44
1070
    44
1040
1.25
1070
    42
1040
0.625
1070
   147
1040
5.0
1070
    77
1070
     1
1070
   272
1070
     2
1070
    73
1070
     0
1070
   172
1070
     1
1070
    74
1070
     0
1070
   283
1070
     0
1070
   140
1040
14.0
1070
   284
1070
     8
1070
    78
1070
     8
1002
}
  0
ARC
  5
125
330
1F
100
AcDbEntity
  8
2
 62
     7
370
    60
100
AcDbCircle
 10
115.3127334615954
 20
198.8938947214984
 30
0.0
 40
9.999999999999995
100
AcDbArc
 50
180.0000049999998
 51
224.9999949999998
  0
ARC
  5
126
330
1F
100
AcDbEntity
  8
2
 62
     7
370
    60
100
AcDbCircle
 10
115.3127334615954
 20
258.1096537214984
 30
0.0
 40
10.0
100
AcDbArc
 50
135.0
 51
180.000005
  0
ARC
  5
127
330
1F
100
AcDbEntity
  8
2
 62
     7
370
    60
100
AcDbCircle
 10
167.8127334615954
 20
450.2518047214984
 30
0.0
 40
1.000000000000001
100
AcDbArc
 50
90.00000299999769
 51
180.0000049999977
  0
ARC
  5
128
330
1F
100
AcDbEntity
  8
2
 62
     7
370
    60
100
AcDbCircle
 10
569.8127484615953
 20
450.2518047214984
 30
0.0
 40
1.0
100
AcDbArc
 50
0.0
 51
90.000003
  0
DIMENSION
  5
129
330
1F
100
AcDbEntity
  8
0
370
    25
100
AcDbDimension
  2
*D8
 10
632.5709917788786
 20
136.2517747214984
 30
0.0
 11
620.5709917788786
 21
228.5017897214984
 31
0.0
 70
    32
  1
185
 71
     5
 41
2.5
 42
184.50003
  3
Standard
100
AcDbAlignedDimension
 13
573.8127484615953
 23
320.7518047214984
 33
0.0
 14
573.8127484615953
 24
136.2517747214984
 34
0.0
 50
90.0
100
AcDbRotatedDimension
1001
ACAD
1000
DSTYLE
1002
{
1070
   171
1070
     3
1070
   143
1040
0.03937
1070
   274
1070
     3
1070
    41
1040
10.0
1070
   289
1070
     0
1070
   141
1040
2.5
1070
   176
1070
     7
1070
   177
1070
     7
1070
   271
1070
     2
1070
    43
1040
3.75
1070
   278
1070
    44
1070
    44
1040
1.25
1070
    42
1040
0.625
1070
   147
1040
5.0
1070
    77
1070
     1
1070
   272
1070
     2
1070
    73
1070
     0
1070
   172
1070
     1
1070
    74
1070
     0
1070
   283
1070
     0
1070
   140
1040
14.0
1070
   284
1070
     8
1070
    78
1070
     8
1002
}
  0
DIMENSION
  5
12A
330
1F
100
AcDbEntity
  8
0
370
    25
100
AcDbDimension
  2
*D9
 10
1035.213932461595
 20
477.5858241026778
 30
0.0
 11
924.3329258133074
 21
489.5858241026778
 31
0.0
 70
   160
  1
222
 71
     5
 41
2.5
 42
221.7620132965757
  3
Standard
100
AcDbAlignedDimension
 13
813.4519191650196
 23
422.1493181123132
 33
0.0
 14
1035.213932461595
 24
422.1493181123132
 34
0.0
100
AcDbRotatedDimension
1001
ACAD
1000
DSTYLE
1002
{
1070
   171
1070
     3
1070
   143
1040
0.03937
1070
   274
1070
     3
1070
    41
1040
10.0
1070
   289
1070
     0
1070
   141
1040
2.5
1070
   176
1070
     7
1070
   177
1070
     7
1070
   271
1070
     2
1070
    43
1040
3.75
1070
   278
1070
    44
1070
    44
1040
1.25
1070
    42
1040
0.625
1070
   147
1040
5.0
1070
    77
1070
     1
1070
   272
1070
     2
1070
    73
1070
     0
1070
   172
1070
     1
1070
    74
1070
     0
1070
   283
1070
     0
1070
   140
1040
14.0
1070
   284
1070
     8
1070
    78
1070
     8
1002
}
  0
DIMENSION
  5
12B
330
1F
100
AcDbEntity
  8
0
370
    25
100
AcDbDimension
  2
*D10
 10
783.0838809166436
 20
130.1724597214984
 30
0.0
 11
771.0838809166436
 21
289.8308762214984
 31
0.0
 70
    32
  1
320
 71
     5
 41
2.5
 42
319.316833
  3
Standard
100
AcDbAlignedDimension
 13
819.9639324615954
 23
449.4892927214984
 33
0.0
 14
858.1575664615954
 24
130.1724597214984
 34
0.0
 50
90.0
100
AcDbRotatedDimension
1001
ACAD
1000
DSTYLE
1002
{
1070
   171
1070
     3
1070
   143
1040
0.03937
1070
   274
1070
     3
1070
    41
1040
10.0
1070
   289
1070
     0
1070
   141
1040
2.5
1070
   176
1070
     7
1070
   177
1070
     7
1070
   271
1070
     2
1070
    43
1040
3.75
1070
   278
1070
    44
1070
    44
1040
1.25
1070
    42
1040
0.625
1070
   147
1040
5.0
1070
    77
1070
     1
1070
   272
1070
     2
1070
    73
1070
     0
1070
   172
1070
     1
1070
    74
1070
     0
1070
   283
1070
     0
1070
   140
1040
14.0
1070
   284
1070
     8
1070
    78
1070
     8
1002
}
  0
VIEWPORT
  5
BB
330
73
100
AcDbEntity
 67
     1
  8
0
100
AcDbViewport
 10
7.8
 20
4.5
 30
0.0
 40
15.64
 41
9.0
 68
     1
 69
     1
 12
6.0
 22
4.5
 13
0.0
 23
0.0
 14
0.5
 24
0.5
 15
0.5
 25
0.5
 16
0.0
 26
0.0
 36
1.0
 17
0.0
 27
0.0
 37
0.0
 42
50.0
 43
0.0
 44
0.0
 45
12.0
 50
0.0
 51
0.0
 72
   100
 90
   557152
  1

281
     0
 71
     1
 74
     0
110
0.0
120
0.0
130
0.0
111
1.0
121
0.0
131
0.0
112
0.0
122
1.0
132
0.0
 79
     0
146
0.0
  0
ENDSEC
  0
SECTION
  2
OBJECTS
  0
DICTIONARY
  5
C
330
0
100
AcDbDictionary
281
     1
  3
ACAD_COLOR
350
6C
  3
ACAD_GROUP
350
D
  3
ACAD_LAYOUT
350
1A
  3
ACAD_MATERIAL
350
6B
  3
ACAD_MLEADERSTYLE
350
1B6
  3
ACAD_MLINESTYLE
350
17
  3
ACAD_PLOTSETTINGS
350
19
  3
ACAD_PLOTSTYLENAME
350
E
  3
ACAD_SCALELIST
350
99
  3
ACAD_TABLESTYLE
350
92
  3
ACDBHEADERROUNDTRIPXREC
350
1B7
  3
AcDbVariableDictionary
350
59
  3
DWGPROPS
350
1BA
  0
DICTIONARY
  5
6C
102
{ACAD_REACTORS
330
C
102
}
330
C
100
AcDbDictionary
281
     1
  0
DICTIONARY
  5
D
102
{ACAD_REACTORS
330
C
102
}
330
C
100
AcDbDictionary
281
     1
  0
DICTIONARY
  5
1A
102
{ACAD_REACTORS
330
C
102
}
330
C
100
AcDbDictionary
281
     1
  3
Layout1
350
74
  3
Layout2
350
19E
  3
Model
350
22
  0
DICTIONARY
  5
6B
102
{ACAD_REACTORS
330
C
102
}
330
C
100
AcDbDictionary
281
     1
  0
DICTIONARY
  5
1B6
102
{ACAD_REACTORS
330
C
102
}
330
C
100
AcDbDictionary
281
     1
  0
DICTIONARY
  5
17
102
{ACAD_REACTORS
330
C
102
}
330
C
100
AcDbDictionary
281
     1
  3
Standard
350
18
  0
DICTIONARY
  5
19
102
{ACAD_REACTORS
330
C
102
}
330
C
100
AcDbDictionary
281
     1
  0
ACDBDICTIONARYWDFLT
  5
E
102
{ACAD_REACTORS
330
C
102
}
330
C
100
AcDbDictionary
281
     1
  3
Normal
350
F
100
AcDbDictionaryWithDefault
340
F
  0
DICTIONARY
  5
99
102
{ACAD_REACTORS
330
C
102
}
330
C
100
AcDbDictionary
281
     1
  3
A0
350
D5
  3
A1
350
D6
  3
A2
350
D7
  3
A3
350
D8
  3
A4
350
D9
  3
A5
350
DA
  3
A6
350
DB
  3
A7
350
DC
  3
A8
350
DD
  3
A9
350
DE
  3
B0
350
DF
  3
B1
350
E0
  3
B2
350
E1
  3
B3
350
E2
  3
B4
350
E3
  3
B5
350
E4
  3
B6
350
E5
  3
B7
350
E6
  3
B8
350
E7
  3
B9
350
E8
  3
C0
350
E9
  3
C1
350
EA
  3
C2
350
EB
  3
C3
350
EC
  3
C4
350
ED
  3
C5
350
EE
  3
C6
350
EF
  3
C7
350
F0
  3
C8
350
F1
  3
C9
350
F2
  3
D0
350
F3
  3
D1
350
F4
  3
D2
350
F5
  0
DICTIONARY
  5
92
102
{ACAD_REACTORS
330
C
102
}
330
C
100
AcDbDictionary
281
     1
  0
DICTIONARY
  5
1B7
102
{ACAD_REACTORS
330
C
102
}
330
C
100
AcDbDictionary
281
     1
  3
COLORDICT
350
1B8
  3
MATERIALDICT
350
1B9
  0
DICTIONARY
  5
59
102
{ACAD_REACTORS
330
C
102
}
330
C
100
AcDbDictionary
281
     1
  3
CTABLESTYLE
350
98
  3
DIMASSOC
350
5A
  3
HIDETEXT
350
5E
  0
XRECORD
  5
1BA
102
{ACAD_REACTORS
330
C
102
}
330
C
100
AcDbXrecord
280
     1
  1
DWGPROPS COOKIE
  2

  3

  4

  6

  7

  8
BelottiMc
  9

300
=
301
=
302
=
303
=
304
=
305
=
306
=
307
=
308
=
309
=
 40
0.0
 41
2455099.534146504
 42
2455099.575813171
  1

 90
        0
  0
LAYOUT
  5
74
102
{ACAD_REACTORS
330
1A
102
}
330
1A
100
AcDbPlotSettings
  1

  2
ProgeSOFT PDF Wizard
  4
A4
  6

 40
5.926666666666667
 41
6.011333333333317
 42
6.095999999999985
 43
5.926666666666667
 44
210.0
 45
297.0
 46
88.56200000000001
 47
136.531
 48
0.0
 49
0.0
140
0.0
141
0.0
142
1.0
143
1.0
 70
   692
 72
     1
 73
     0
 74
     0
  7

 75
    16
147
1.0
148
4.426666666666668
149
1.5
100
AcDbLayout
  1
Layout1
 70
     1
 71
     1
 10
0.0
 20
0.0
 11
0.0
 21
0.0
 12
0.0
 22
0.0
 32
0.0
 14
0.0
 24
0.0
 34
0.0
 15
0.0
 25
0.0
 35
0.0
146
0.0
 13
0.0
 23
0.0
 33
0.0
 16
1.0
 26
0.0
 36
0.0
 17
0.0
 27
1.0
 37
0.0
 76
     0
330
D1
331
1B5
1001
PROGE_PRINT_SETTINGS
1070
    73
1070
     1
  0
LAYOUT
  5
19E
102
{ACAD_REACTORS
330
1A
102
}
330
1A
100
AcDbPlotSettings
  1

  2
ProgeSOFT PDF Wizard
  4
A4
  6

 40
5.926666666666667
 41
6.011333333333317
 42
6.095999999999985
 43
5.926666666666667
 44
210.0
 45
297.0
 46
88.562
 47
136.531
 48
0.0
 49
0.0
140
0.0
141
0.0
142
1.0
143
1.0
 70
   692
 72
     1
 73
     0
 74
     0
  7

 75
    16
147
1.0
148
0.0
149
0.0
100
AcDbLayout
  1
Layout2
 70
     1
 71
     2
 10
0.0
 20
0.0
 11
12.0
 21
9.0
 12
0.0
 22
0.0
 32
0.0
 14
0.0
 24
0.0
 34
0.0
 15
12.0
 25
9.0
 35
0.0
146
0.0
 13
0.0
 23
0.0
 33
0.0
 16
1.0
 26
0.0
 36
0.0
 17
0.0
 27
1.0
 37
0.0
 76
     0
330
73
331
BB
1001
PROGE_PRINT_SETTINGS
1070
    73
1070
     1
  0
LAYOUT
  5
22
102
{ACAD_REACTORS
330
1A
102
}
330
1A
100
AcDbPlotSettings
  1

  2
none_device
  4
Letter_(8.50_x_11.00_Inches)
  6

 40
6.349999904632568
 41
6.349999904632568
 42
6.350006103515625
 43
6.350006103515625
 44
215.8999938964844
 45
279.3999938964844
 46
0.0
 47
0.0
 48
0.0
 49
0.0
140
0.0
141
0.0
142
1.0
143
7.721657901229294
 70
 11952
 72
     1
 73
     1
 74
     0
  7

 75
     0
147
0.1295058668476881
148
0.1311165230791651
149
0.096403374003771
100
AcDbLayout
  1
Model
 70
     1
 71
     0
 10
0.0
 20
0.0
 11
0.0
 21
0.0
 12
0.0
 22
0.0
 32
0.0
 14
105.3127334615954
 24
77.96781115879824
 34
0.0
 15
1035.213932461595
 25
496.5858241026778
 35
0.0
146
0.0
 13
0.0
 23
0.0
 33
0.0
 16
1.0
 26
0.0
 36
0.0
 17
0.0
 27
1.0
 37
0.0
 76
     0
330
1F
331
97
  0
MLINESTYLE
  5
18
102
{ACAD_REACTORS
330
17
102
}
330
17
100
AcDbMlineStyle
  2
STANDARD
 70
     0
  3

 62
   256
 51
90.0
 52
90.0
 71
     2
 49
0.5
 62
   256
  6
BYLAYER
 49
-0.5
 62
   256
  6
BYLAYER
  0
ACDBPLACEHOLDER
  5
F
102
{ACAD_REACTORS
330
E
102
}
330
E
  0
SCALE
  5
D5
102
{ACAD_REACTORS
330
99
102
}
330
99
100
AcDbScale
 70
     0
300
1:1
140
1.0
141
1.0
290
     1
  0
SCALE
  5
D6
102
{ACAD_REACTORS
330
99
102
}
330
99
100
AcDbScale
 70
     0
300
1:2
140
1.0
141
2.0
290
     0
  0
SCALE
  5
D7
102
{ACAD_REACTORS
330
99
102
}
330
99
100
AcDbScale
 70
     0
300
1:4
140
1.0
141
4.0
290
     0
  0
SCALE
  5
D8
102
{ACAD_REACTORS
330
99
102
}
330
99
100
AcDbScale
 70
     0
300
1:5
140
1.0
141
5.0
290
     0
  0
SCALE
  5
D9
102
{ACAD_REACTORS
330
99
102
}
330
99
100
AcDbScale
 70
     0
300
1:8
140
1.0
141
8.0
290
     0
  0
SCALE
  5
DA
102
{ACAD_REACTORS
330
99
102
}
330
99
100
AcDbScale
 70
     0
300
1:10
140
1.0
141
10.0
290
     0
  0
SCALE
  5
DB
102
{ACAD_REACTORS
330
99
102
}
330
99
100
AcDbScale
 70
     0
300
1:16
140
1.0
141
16.0
290
     0
  0
SCALE
  5
DC
102
{ACAD_REACTORS
330
99
102
}
330
99
100
AcDbScale
 70
     0
300
1:20
140
1.0
141
20.0
290
     0
  0
SCALE
  5
DD
102
{ACAD_REACTORS
330
99
102
}
330
99
100
AcDbScale
 70
     0
300
1:30
140
1.0
141
30.0
290
     0
  0
SCALE
  5
DE
102
{ACAD_REACTORS
330
99
102
}
330
99
100
AcDbScale
 70
     0
300
1:40
140
1.0
141
40.0
290
     0
  0
SCALE
  5
DF
102
{ACAD_REACTORS
330
99
102
}
330
99
100
AcDbScale
 70
     0
300
1:50
140
1.0
141
50.0
290
     0
  0
SCALE
  5
E0
102
{ACAD_REACTORS
330
99
102
}
330
99
100
AcDbScale
 70
     0
300
1:100
140
1.0
141
100.0
290
     0
  0
SCALE
  5
E1
102
{ACAD_REACTORS
330
99
102
}
330
99
100
AcDbScale
 70
     0
300
2:1
140
2.0
141
1.0
290
     0
  0
SCALE
  5
E2
102
{ACAD_REACTORS
330
99
102
}
330
99
100
AcDbScale
 70
     0
300
4:1
140
4.0
141
1.0
290
     0
  0
SCALE
  5
E3
102
{ACAD_REACTORS
330
99
102
}
330
99
100
AcDbScale
 70
     0
300
8:1
140
8.0
141
1.0
290
     0
  0
SCALE
  5
E4
102
{ACAD_REACTORS
330
99
102
}
330
99
100
AcDbScale
 70
     0
300
10:1
140
10.0
141
1.0
290
     0
  0
SCALE
  5
E5
102
{ACAD_REACTORS
330
99
102
}
330
99
100
AcDbScale
 70
     0
300
100:1
140
100.0
141
1.0
290
     0
  0
SCALE
  5
E6
102
{ACAD_REACTORS
330
99
102
}
330
99
100
AcDbScale
 70
     0
300
1/128" = 1'-0"
140
0.0078125
141
12.0
290
     0
  0
SCALE
  5
E7
102
{ACAD_REACTORS
330
99
102
}
330
99
100
AcDbScale
 70
     0
300
1/64" = 1'-0"
140
0.015625
141
12.0
290
     0
  0
SCALE
  5
E8
102
{ACAD_REACTORS
330
99
102
}
330
99
100
AcDbScale
 70
     0
300
1/32" = 1'-0"
140
0.03125
141
12.0
290
     0
  0
SCALE
  5
E9
102
{ACAD_REACTORS
330
99
102
}
330
99
100
AcDbScale
 70
     0
300
1/16" = 1'-0"
140
0.0625
141
12.0
290
     0
  0
SCALE
  5
EA
102
{ACAD_REACTORS
330
99
102
}
330
99
100
AcDbScale
 70
     0
300
3/32" = 1'-0"
140
0.09375
141
12.0
290
     0
  0
SCALE
  5
EB
102
{ACAD_REACTORS
330
99
102
}
330
99
100
AcDbScale
 70
     0
300
1/8" = 1'-0"
140
0.125
141
12.0
290
     0
  0
SCALE
  5
EC
102
{ACAD_REACTORS
330
99
102
}
330
99
100
AcDbScale
 70
     0
300
3/16" = 1'-0"
140
0.1875
141
12.0
290
     0
  0
SCALE
  5
ED
102
{ACAD_REACTORS
330
99
102
}
330
99
100
AcDbScale
 70
     0
300
1/4" = 1'-0"
140
0.25
141
12.0
290
     0
  0
SCALE
  5
EE
102
{ACAD_REACTORS
330
99
102
}
330
99
100
AcDbScale
 70
     0
300
3/8" = 1'-0"
140
0.375
141
12.0
290
     0
  0
SCALE
  5
EF
102
{ACAD_REACTORS
330
99
102
}
330
99
100
AcDbScale
 70
     0
300
1/2" = 1'-0"
140
0.5
141
12.0
290
     0
  0
SCALE
  5
F0
102
{ACAD_REACTORS
330
99
102
}
330
99
100
AcDbScale
 70
     0
300
3/4" = 1'-0"
140
0.75
141
12.0
290
     0
  0
SCALE
  5
F1
102
{ACAD_REACTORS
330
99
102
}
330
99
100
AcDbScale
 70
     0
300
1" = 1'-0"
140
1.0
141
12.0
290
     0
  0
SCALE
  5
F2
102
{ACAD_REACTORS
330
99
102
}
330
99
100
AcDbScale
 70
     0
300
1-1/2" = 1'-0"
140
1.5
141
12.0
290
     0
  0
SCALE
  5
F3
102
{ACAD_REACTORS
330
99
102
}
330
99
100
AcDbScale
 70
     0
300
3" = 1'-0"
140
3.0
141
12.0
290
     0
  0
SCALE
  5
F4
102
{ACAD_REACTORS
330
99
102
}
330
99
100
AcDbScale
 70
     0
300
6" = 1'-0"
140
6.0
141
12.0
290
     0
  0
SCALE
  5
F5
102
{ACAD_REACTORS
330
99
102
}
330
99
100
AcDbScale
 70
     0
300
1'-0" = 1'-0"
140
12.0
141
12.0
290
     0
  0
XRECORD
  5
1B8
102
{ACAD_REACTORS
330
1B7
102
}
330
1B7
100
AcDbXrecord
280
     1
340
6C
  0
XRECORD
  5
1B9
102
{ACAD_REACTORS
330
1B7
102
}
330
1B7
100
AcDbXrecord
280
     1
340
6B
  0
DICTIONARYVAR
  5
98
102
{ACAD_REACTORS
330
59
102
}
330
59
100
DictionaryVariables
280
     0
  1
Standard
  0
DICTIONARYVAR
  5
5A
102
{ACAD_REACTORS
330
59
102
}
330
59
100
DictionaryVariables
280
     0
  1
2
  0
DICTIONARYVAR
  5
5E
102
{ACAD_REACTORS
330
59
102
}
330
59
100
DictionaryVariables
280
     0
  1
1
  0
ENDSEC
  0
EOF
