  0
SECTION
  2
HEADER
  9
$ACADVER
  1
AC1015
  9
$ACADMAINTVER
 70
     6
  9
$DWGCODEPAGE
  3
ANSI_1252
  9
$INSBASE
 10
0.0
 20
0.0
 30
0.0
  9
$EXTMIN
 10
2409.914804829284
 20
996.4380665704
 30
0.0
  9
$EXTMAX
 10
2845.600682118663
 20
1529.6614762485
 30
0.0
  9
$LIMMIN
 10
0.0
 20
0.0
  9
$LIMMAX
 10
0.0
 20
0.0
  9
$ORTHOMODE
 70
     0
  9
$REGENMODE
 70
     1
  9
$FILLMODE
 70
     1
  9
$QTEXTMODE
 70
     0
  9
$MIRRTEXT
 70
     0
  9
$LTSCALE
 40
1.0
  9
$ATTMODE
 70
     1
  9
$TEXTSIZE
 40
2.5
  9
$TRACEWID
 40
1.0
  9
$TEXTSTYLE
  7
Standard
  9
$CLAYER
  8
0
  9
$CELTYPE
  6
ByLayer
  9
$CECOLOR
 62
   256
  9
$CELTSCALE
 40
1.0
  9
$DISPSILH
 70
     0
  9
$DIMSCALE
 40
1.0
  9
$DIMASZ
 40
2.5
  9
$DIMEXO
 40
0.625
  9
$DIMDLI
 40
3.75
  9
$DIMRND
 40
0.0
  9
$DIMDLE
 40
0.0
  9
$DIMEXE
 40
1.25
  9
$DIMTP
 40
0.0
  9
$DIMTM
 40
0.0
  9
$DIMTXT
 40
2.5
  9
$DIMCEN
 40
2.5
  9
$DIMTSZ
 40
0.0
  9
$DIMTOL
 70
     0
  9
$DIMLIM
 70
     0
  9
$DIMTIH
 70
     0
  9
$DIMTOH
 70
     0
  9
$DIMSE1
 70
     0
  9
$DIMSE2
 70
     0
  9
$DIMTAD
 70
     1
  9
$DIMZIN
 70
     8
  9
$DIMBLK
  1

  9
$DIMASO
 70
     1
  9
$DIMSHO
 70
     1
  9
$DIMPOST
  1

  9
$DIMAPOST
  1

  9
$DIMALT
 70
     0
  9
$DIMALTD
 70
     3
  9
$DIMALTF
 40
0.03937007874016
  9
$DIMLFAC
 40
1.0
  9
$DIMTOFL
 70
     1
  9
$DIMTVP
 40
0.0
  9
$DIMTIX
 70
     0
  9
$DIMSOXD
 70
     0
  9
$DIMSAH
 70
     0
  9
$DIMBLK1
  1

  9
$DIMBLK2
  1

  9
$DIMSTYLE
  2
ISO-25
  9
$DIMCLRD
 70
     0
  9
$DIMCLRE
 70
     0
  9
$DIMCLRT
 70
     0
  9
$DIMTFAC
 40
1.0
  9
$DIMGAP
 40
0.625
  9
$DIMJUST
 70
     0
  9
$DIMSD1
 70
     0
  9
$DIMSD2
 70
     0
  9
$DIMTOLJ
 70
     0
  9
$DIMTZIN
 70
     8
  9
$DIMALTZ
 70
     0
  9
$DIMALTTZ
 70
     0
  9
$DIMUPT
 70
     0
  9
$DIMDEC
 70
     2
  9
$DIMTDEC
 70
     2
  9
$DIMALTU
 70
     2
  9
$DIMALTTD
 70
     3
  9
$DIMTXSTY
  7
Standard
  9
$DIMAUNIT
 70
     0
  9
$DIMADEC
 70
     0
  9
$DIMALTRND
 40
0.0
  9
$DIMAZIN
 70
     0
  9
$DIMDSEP
 70
    44
  9
$DIMATFIT
 70
     3
  9
$DIMFRAC
 70
     0
  9
$DIMLDRBLK
  1

  9
$DIMLUNIT
 70
     2
  9
$DIMLWD
 70
    -2
  9
$DIMLWE
 70
    -2
  9
$DIMTMOVE
 70
     0
  9
$LUNITS
 70
     2
  9
$LUPREC
 70
     4
  9
$SKETCHINC
 40
1.0
  9
$FILLETRAD
 40
0.0
  9
$AUNITS
 70
     0
  9
$AUPREC
 70
     0
  9
$MENU
  1
.
  9
$ELEVATION
 40
0.0
  9
$PELEVATION
 40
0.0
  9
$THICKNESS
 40
0.0
  9
$LIMCHECK
 70
     0
  9
$CHAMFERA
 40
0.0
  9
$CHAMFERB
 40
0.0
  9
$CHAMFERC
 40
0.0
  9
$CHAMFERD
 40
0.0
  9
$SKPOLY
 70
     0
  9
$TDCREATE
 40
2455098.709276435
  9
$TDUCREATE
 40
2455098.625943102
  9
$TDUPDATE
 40
2455098.750943125
  9
$TDUUPDATE
 40
2455098.667609792
  9
$TDINDWG
 40
0.03483125
  9
$TDUSRTIMER
 40
0.0348288773
  9
$USRTIMER
 70
     1
  9
$ANGBASE
 50
0.0
  9
$ANGDIR
 70
     0
  9
$PDMODE
 70
     0
  9
$PDSIZE
 40
0.0
  9
$PLINEWID
 40
0.0
  9
$SPLFRAME
 70
     0
  9
$SPLINETYPE
 70
     6
  9
$SPLINESEGS
 70
     8
  9
$HANDSEED
  5
332
  9
$SURFTAB1
 70
     6
  9
$SURFTAB2
 70
     6
  9
$SURFTYPE
 70
     6
  9
$SURFU
 70
     6
  9
$SURFV
 70
     6
  9
$UCSBASE
  2

  9
$UCSNAME
  2

  9
$UCSORG
 10
0.0
 20
0.0
 30
0.0
  9
$UCSXDIR
 10
1.0
 20
0.0
 30
0.0
  9
$UCSYDIR
 10
0.0
 20
1.0
 30
0.0
  9
$UCSORTHOREF
  2

  9
$UCSORTHOVIEW
 70
     0
  9
$UCSORGTOP
 10
0.0
 20
0.0
 30
0.0
  9
$UCSORGBOTTOM
 10
0.0
 20
0.0
 30
0.0
  9
$UCSORGLEFT
 10
0.0
 20
0.0
 30
0.0
  9
$UCSORGRIGHT
 10
0.0
 20
0.0
 30
0.0
  9
$UCSORGFRONT
 10
0.0
 20
0.0
 30
0.0
  9
$UCSORGBACK
 10
0.0
 20
0.0
 30
0.0
  9
$PUCSBASE
  2

  9
$PUCSNAME
  2

  9
$PUCSORG
 10
0.0
 20
0.0
 30
0.0
  9
$PUCSXDIR
 10
1.0
 20
0.0
 30
0.0
  9
$PUCSYDIR
 10
0.0
 20
1.0
 30
0.0
  9
$PUCSORTHOREF
  2

  9
$PUCSORTHOVIEW
 70
     0
  9
$PUCSORGTOP
 10
0.0
 20
0.0
 30
0.0
  9
$PUCSORGBOTTOM
 10
0.0
 20
0.0
 30
0.0
  9
$PUCSORGLEFT
 10
0.0
 20
0.0
 30
0.0
  9
$PUCSORGRIGHT
 10
0.0
 20
0.0
 30
0.0
  9
$PUCSORGFRONT
 10
0.0
 20
0.0
 30
0.0
  9
$PUCSORGBACK
 10
0.0
 20
0.0
 30
0.0
  9
$USERI1
 70
     0
  9
$USERI2
 70
     0
  9
$USERI3
 70
     0
  9
$USERI4
 70
     0
  9
$USERI5
 70
     0
  9
$USERR1
 40
0.0
  9
$USERR2
 40
0.0
  9
$USERR3
 40
0.0
  9
$USERR4
 40
0.0
  9
$USERR5
 40
0.0
  9
$WORLDVIEW
 70
     1
  9
$SHADEDGE
 70
     3
  9
$SHADEDIF
 70
    70
  9
$TILEMODE
 70
     1
  9
$MAXACTVP
 70
    64
  9
$PINSBASE
 10
0.0
 20
0.0
 30
0.0
  9
$PLIMCHECK
 70
     0
  9
$PEXTMIN
 10
0.0
 20
0.0
 30
0.0
  9
$PEXTMAX
 10
12.0
 20
9.0
 30
0.0
  9
$PLIMMIN
 10
0.0
 20
0.0
  9
$PLIMMAX
 10
12.0
 20
9.0
  9
$UNITMODE
 70
     0
  9
$VISRETAIN
 70
     1
  9
$PLINEGEN
 70
     0
  9
$PSLTSCALE
 70
     1
  9
$TREEDEPTH
 70
  3020
  9
$CMLSTYLE
  2
Standard
  9
$CMLJUST
 70
     0
  9
$CMLSCALE
 40
20.0
  9
$PROXYGRAPHICS
 70
     1
  9
$MEASUREMENT
 70
     1
  9
$CELWEIGHT
370
    -1
  9
$ENDCAPS
280
     0
  9
$JOINSTYLE
280
     0
  9
$LWDISPLAY
290
     0
  9
$INSUNITS
 70
     4
  9
$HYPERLINKBASE
  1

  9
$STYLESHEET
  1

  9
$XEDIT
290
     1
  9
$CEPSNTYPE
380
     0
  9
$PSTYLEMODE
290
     1
  9
$FINGERPRINTGUID
  2
{5559452E-1E62-4159-8551-BF76FFF3E7E8}
  9
$VERSIONGUID
  2
{3CEB9EF8-4431-4551-B596-6734A9F966A9}
  9
$EXTNAMES
290
     1
  9
$PSVPSCALE
 40
0.0
  9
$OLESTARTUP
290
     0
  0
ENDSEC
  0
SECTION
  2
CLASSES
  0
CLASS
  1
ACDBDICTIONARYWDFLT
  2
AcDbDictionaryWithDefault
  3
ObjectDBX Classes
 90
        0
280
     0
281
     0
  0
CLASS
  1
ACDBPLACEHOLDER
  2
AcDbPlaceHolder
  3
ObjectDBX Classes
 90
        0
280
     0
281
     0
  0
CLASS
  1
LAYOUT
  2
AcDbLayout
  3
ObjectDBX Classes
 90
        0
280
     0
281
     0
  0
CLASS
  1
DICTIONARYVAR
  2
AcDbDictionaryVar
  3
ObjectDBX Classes
 90
        0
280
     0
281
     0
  0
CLASS
  1
TABLESTYLE
  2
AcDbTableStyle
  3
ObjectDBX Classes
 90
     4095
280
     0
281
     0
  0
CLASS
  1
SCALE
  2
AcDbScale
  3
ObjectDBX Classes
 90
     1153
280
     0
281
     0
  0
ENDSEC
  0
SECTION
  2
TABLES
  0
TABLE
  2
VPORT
  5
8
330
0
100
AcDbSymbolTable
 70
     2
  0
VPORT
  5
97
330
8
100
AcDbSymbolTableRecord
100
AcDbViewportTableRecord
  2
*Active
 70
     0
 10
0.0
 20
0.0
 11
1.0
 21
1.0
 12
2502.857848222865
 22
1269.381081531441
 13
0.0
 23
0.0
 14
10.0
 24
10.0
 15
10.0
 25
10.0
 16
0.0
 26
0.0
 36
1.0
 17
0.0
 27
0.0
 37
0.0
 40
1287.936690640982
 41
1.664827586206896
 42
50.0
 43
0.0
 44
0.0
 50
0.0
 51
0.0
 71
     0
 72
  1000
 73
     1
 74
     3
 75
     0
 76
     0
 77
     0
 78
     0
281
     0
 65
     1
110
0.0
120
0.0
130
0.0
111
1.0
121
0.0
131
0.0
112
0.0
122
1.0
132
0.0
 79
     0
146
0.0
  0
ENDTAB
  0
TABLE
  2
LTYPE
  5
5
330
0
100
AcDbSymbolTable
 70
     8
  0
LTYPE
  5
14
330
5
100
AcDbSymbolTableRecord
100
AcDbLinetypeTableRecord
  2
ByBlock
 70
     0
  3

 72
    65
 73
     0
 40
0.0
  0
LTYPE
  5
15
330
5
100
AcDbSymbolTableRecord
100
AcDbLinetypeTableRecord
  2
ByLayer
 70
     0
  3

 72
    65
 73
     0
 40
0.0
  0
LTYPE
  5
16
330
5
100
AcDbSymbolTableRecord
100
AcDbLinetypeTableRecord
  2
Continuous
 70
     0
  3
Solid line
 72
    65
 73
     0
 40
0.0
  0
LTYPE
  5
2DD
330
5
100
AcDbSymbolTableRecord
100
AcDbLinetypeTableRecord
  2
DASHED
 70
     0
  3
__ __ __ __ __ __ __ __ __ __ __ __ __ __ __ __
 72
    65
 73
     2
 40
15.0
 49
12.0
 74
     0
 49
-3.0
 74
     0
  0
LTYPE
  5
2DE
330
5
100
AcDbSymbolTableRecord
100
AcDbLinetypeTableRecord
  2
DASHDOT
 70
     0
  3
 __ . __ . __ . __ . __ . __ . __ . 
 72
    65
 73
     4
 40
18.5
 49
12.0
 74
     0
 49
-3.0
 74
     0
 49
0.5
 74
     0
 49
-3.0
 74
     0
  0
LTYPE
  5
2DF
330
5
100
AcDbSymbolTableRecord
100
AcDbLinetypeTableRecord
  2
DOT
 70
     0
  3
 . . . . . . . . . . . . . . . .
 72
    65
 73
     2
 40
3.5
 49
0.5
 74
     0
 49
-3.0
 74
     0
  0
LTYPE
  5
2E0
330
5
100
AcDbSymbolTableRecord
100
AcDbLinetypeTableRecord
  2
DASHSPACE
 70
     0
  3
__    __    __    __    __   
 72
    65
 73
     2
 40
30.0
 49
12.0
 74
     0
 49
-18.0
 74
     0
  0
LTYPE
  5
2E1
330
5
100
AcDbSymbolTableRecord
100
AcDbLinetypeTableRecord
  2
DASHDOT2
 70
     0
  3
__ . . __ . . __ . . __ 
 72
    65
 73
     6
 40
22.0
 49
12.0
 74
     0
 49
-3.0
 74
     0
 49
0.5
 74
     0
 49
-3.0
 74
     0
 49
0.5
 74
     0
 49
-3.0
 74
     0
  0
LTYPE
  5
2E2
330
5
100
AcDbSymbolTableRecord
100
AcDbLinetypeTableRecord
  2
PHANTOM
 70
     0
  3
____________    ____    ____   _
 72
    65
 73
     6
 40
20.0
 49
10.0
 74
     0
 49
-2.0
 74
     0
 49
2.0
 74
     0
 49
-2.0
 74
     0
 49
2.0
 74
     0
 49
-2.0
 74
     0
  0
LTYPE
  5
2E3
330
5
100
AcDbSymbolTableRecord
100
AcDbLinetypeTableRecord
  2
AXES
 70
     0
  3
________  __  ________  __  _____
 72
    65
 73
     4
 40
24.0
 49
15.0
 74
     0
 49
-3.0
 74
     0
 49
3.0
 74
     0
 49
-3.0
 74
     0
  0
ENDTAB
  0
TABLE
  2
LAYER
  5
2
330
0
100
AcDbSymbolTable
 70
     5
  0
LAYER
  5
10
330
2
100
AcDbSymbolTableRecord
100
AcDbLayerTableRecord
  2
0
 70
     0
 62
     7
  6
Continuous
370
    -3
390
F
  0
LAYER
  5
101
330
2
100
AcDbSymbolTableRecord
100
AcDbLayerTableRecord
  2
2
 70
     0
 62
     7
  6
Continuous
370
    13
390
F
  0
LAYER
  5
102
330
2
100
AcDbSymbolTableRecord
100
AcDbLayerTableRecord
  2
3
 70
     0
 62
     7
  6
Continuous
370
    13
390
F
  0
LAYER
  5
103
330
2
100
AcDbSymbolTableRecord
100
AcDbLayerTableRecord
  2
5
 70
     0
 62
     7
  6
Continuous
370
    13
390
F
  0
LAYER
  5
192
330
2
100
AcDbSymbolTableRecord
100
AcDbLayerTableRecord
  2
DEFPOINTS
 70
     0
 62
     7
  6
Continuous
290
     0
370
    -3
390
F
  0
ENDTAB
  0
TABLE
  2
STYLE
  5
3
330
0
100
AcDbSymbolTable
 70
     2
  0
STYLE
  5
11
330
3
100
AcDbSymbolTableRecord
100
AcDbTextStyleTableRecord
  2
Standard
 70
     0
 40
0.0
 41
1.0
 50
0.0
 71
     0
 42
2.5
  3
txt
  4

  0
STYLE
  5
F9
330
3
100
AcDbSymbolTableRecord
100
AcDbTextStyleTableRecord
  2
GDT
 70
     0
 40
0.0
 41
1.0
 50
0.0
 71
     0
 42
0.2
  3
amgdt.shx
  4

  0
ENDTAB
  0
TABLE
  2
VIEW
  5
6
330
0
100
AcDbSymbolTable
 70
     0
  0
ENDTAB
  0
TABLE
  2
UCS
  5
7
330
0
100
AcDbSymbolTable
 70
     0
  0
ENDTAB
  0
TABLE
  2
APPID
  5
9
330
0
100
AcDbSymbolTable
 70
     3
  0
APPID
  5
12
330
9
100
AcDbSymbolTableRecord
100
AcDbRegAppTableRecord
  2
ACAD
 70
     0
  0
APPID
  5
2DB
330
9
100
AcDbSymbolTableRecord
100
AcDbRegAppTableRecord
  2
PROGE_PRINT_SETTINGS
 70
     0
  0
APPID
  5
2DC
330
9
100
AcDbSymbolTableRecord
100
AcDbRegAppTableRecord
  2
Conv5506CA
 70
     0
  0
ENDTAB
  0
TABLE
  2
DIMSTYLE
  5
A
330
0
100
AcDbSymbolTable
 70
     2
100
AcDbDimStyleTable
  0
DIMSTYLE
105
27
330
A
100
AcDbSymbolTableRecord
100
AcDbDimStyleTableRecord
  2
Standard
 70
     0
278
     0
340
11
  0
DIMSTYLE
105
29
102
{ACAD_REACTORS
330
242
330
26F
330
29C
102
}
330
A
100
AcDbSymbolTableRecord
100
AcDbDimStyleTableRecord
  2
ISO-25
 70
     0
 41
2.5
 42
0.625
 43
3.75
 44
1.25
 73
     0
 74
     0
 77
     1
 78
     8
140
2.5
141
2.5
143
0.03937007874016
147
0.625
171
     3
172
     1
271
     2
272
     2
274
     3
278
    44
283
     0
284
     8
340
11
  0
ENDTAB
  0
TABLE
  2
BLOCK_RECORD
  5
1
330
0
100
AcDbSymbolTable
 70
    35
  0
BLOCK_RECORD
  5
1F
330
1
100
AcDbSymbolTableRecord
100
AcDbBlockTableRecord
  2
*Model_Space
340
22
  0
BLOCK_RECORD
  5
73
330
1
100
AcDbSymbolTableRecord
100
AcDbBlockTableRecord
  2
*Paper_Space
340
2E5
  0
BLOCK_RECORD
  5
D1
330
1
100
AcDbSymbolTableRecord
100
AcDbBlockTableRecord
  2
*Paper_Space0
340
74
  0
BLOCK_RECORD
  5
107
330
1
100
AcDbSymbolTableRecord
100
AcDbBlockTableRecord
  2
Block0
340
0
  0
BLOCK_RECORD
  5
10B
330
1
100
AcDbSymbolTableRecord
100
AcDbBlockTableRecord
  2
Block1
340
0
  0
BLOCK_RECORD
  5
10F
330
1
100
AcDbSymbolTableRecord
100
AcDbBlockTableRecord
  2
Block2
340
0
  0
BLOCK_RECORD
  5
11E
330
1
100
AcDbSymbolTableRecord
100
AcDbBlockTableRecord
  2
*D4
340
0
  0
BLOCK_RECORD
  5
12F
330
1
100
AcDbSymbolTableRecord
100
AcDbBlockTableRecord
  2
*D5
340
0
  0
BLOCK_RECORD
  5
13E
330
1
100
AcDbSymbolTableRecord
100
AcDbBlockTableRecord
  2
*D6
340
0
  0
BLOCK_RECORD
  5
14D
330
1
100
AcDbSymbolTableRecord
100
AcDbBlockTableRecord
  2
*D7
340
0
  0
BLOCK_RECORD
  5
15C
330
1
100
AcDbSymbolTableRecord
100
AcDbBlockTableRecord
  2
*D8
340
0
  0
BLOCK_RECORD
  5
16D
330
1
100
AcDbSymbolTableRecord
100
AcDbBlockTableRecord
  2
*D9
340
0
  0
BLOCK_RECORD
  5
19D
330
1
100
AcDbSymbolTableRecord
100
AcDbBlockTableRecord
  2
*D10
340
0
  0
BLOCK_RECORD
  5
1AA
330
1
100
AcDbSymbolTableRecord
100
AcDbBlockTableRecord
  2
*D11
340
0
  0
BLOCK_RECORD
  5
1B7
330
1
100
AcDbSymbolTableRecord
100
AcDbBlockTableRecord
  2
*D12
340
0
  0
BLOCK_RECORD
  5
1DE
330
1
100
AcDbSymbolTableRecord
100
AcDbBlockTableRecord
  2
*D13
340
0
  0
BLOCK_RECORD
  5
1EA
330
1
100
AcDbSymbolTableRecord
100
AcDbBlockTableRecord
  2
*D14
340
0
  0
BLOCK_RECORD
  5
1F7
330
1
100
AcDbSymbolTableRecord
100
AcDbBlockTableRecord
  2
*D15
340
0
  0
BLOCK_RECORD
  5
203
330
1
100
AcDbSymbolTableRecord
100
AcDbBlockTableRecord
  2
*D16
340
0
  0
BLOCK_RECORD
  5
20F
330
1
100
AcDbSymbolTableRecord
100
AcDbBlockTableRecord
  2
*D17
340
0
  0
BLOCK_RECORD
  5
21C
330
1
100
AcDbSymbolTableRecord
100
AcDbBlockTableRecord
  2
*D18
340
0
  0
BLOCK_RECORD
  5
229
330
1
100
AcDbSymbolTableRecord
100
AcDbBlockTableRecord
  2
*D19
340
0
  0
BLOCK_RECORD
  5
235
330
1
100
AcDbSymbolTableRecord
100
AcDbBlockTableRecord
  2
*D20
340
0
  0
BLOCK_RECORD
  5
241
330
1
100
AcDbSymbolTableRecord
100
AcDbBlockTableRecord
  2
*D21
340
0
  0
BLOCK_RECORD
  5
24D
330
1
100
AcDbSymbolTableRecord
100
AcDbBlockTableRecord
  2
*D22
340
0
  0
BLOCK_RECORD
  5
258
330
1
100
AcDbSymbolTableRecord
100
AcDbBlockTableRecord
  2
*D23
340
0
  0
BLOCK_RECORD
  5
263
330
1
100
AcDbSymbolTableRecord
100
AcDbBlockTableRecord
  2
*D24
340
0
  0
BLOCK_RECORD
  5
26E
330
1
100
AcDbSymbolTableRecord
100
AcDbBlockTableRecord
  2
*D25
340
0
  0
BLOCK_RECORD
  5
27A
330
1
100
AcDbSymbolTableRecord
100
AcDbBlockTableRecord
  2
*D26
340
0
  0
BLOCK_RECORD
  5
285
330
1
100
AcDbSymbolTableRecord
100
AcDbBlockTableRecord
  2
*D27
340
0
  0
BLOCK_RECORD
  5
290
330
1
100
AcDbSymbolTableRecord
100
AcDbBlockTableRecord
  2
*D28
340
0
  0
BLOCK_RECORD
  5
29B
330
1
100
AcDbSymbolTableRecord
100
AcDbBlockTableRecord
  2
*D29
340
0
  0
BLOCK_RECORD
  5
2A7
330
1
100
AcDbSymbolTableRecord
100
AcDbBlockTableRecord
  2
*D30
340
0
  0
BLOCK_RECORD
  5
2B2
330
1
100
AcDbSymbolTableRecord
100
AcDbBlockTableRecord
  2
*D31
340
0
  0
BLOCK_RECORD
  5
2BF
330
1
100
AcDbSymbolTableRecord
100
AcDbBlockTableRecord
  2
*D32
340
0
  0
BLOCK_RECORD
  5
2CC
330
1
100
AcDbSymbolTableRecord
100
AcDbBlockTableRecord
  2
*D33
340
0
  0
BLOCK_RECORD
  5
2D9
330
1
100
AcDbSymbolTableRecord
100
AcDbBlockTableRecord
  2
*D34
340
0
  0
ENDTAB
  0
ENDSEC
  0
SECTION
  2
BLOCKS
  0
BLOCK
  5
20
330
1F
100
AcDbEntity
  8
0
100
AcDbBlockBegin
  2
*Model_Space
 70
     0
 10
0.0
 20
0.0
 30
0.0
  3
*Model_Space
  1

  0
ENDBLK
  5
21
330
1F
100
AcDbEntity
  8
0
100
AcDbBlockEnd
  0
BLOCK
  5
75
330
73
100
AcDbEntity
 67
     1
  8
0
100
AcDbBlockBegin
  2
*Paper_Space
 70
     0
 10
0.0
 20
0.0
 30
0.0
  3
*Paper_Space
  1

  0
ENDBLK
  5
76
330
73
100
AcDbEntity
 67
     1
  8
0
100
AcDbBlockEnd
  0
BLOCK
  5
2E6
330
D1
100
AcDbEntity
  8
0
100
AcDbBlockBegin
  2
*Paper_Space0
 70
     0
 10
0.0
 20
0.0
 30
0.0
  3
*Paper_Space0
  1

  0
VIEWPORT
  5
32C
330
D1
100
AcDbEntity
  8
0
100
AcDbViewport
 10
7.8
 20
4.5
 30
0.0
 40
15.64
 41
9.0
 68
     1
 69
     1
 12
6.0
 22
4.5
 13
0.0
 23
0.0
 14
0.5
 24
0.5
 15
0.5
 25
0.5
 16
0.0
 26
0.0
 36
1.0
 17
0.0
 27
0.0
 37
0.0
 42
50.0
 43
0.0
 44
0.0
 45
12.0
 50
0.0
 51
0.0
 72
   100
 90
   557152
  1

281
     0
 71
     1
 74
     0
110
0.0
120
0.0
130
0.0
111
1.0
121
0.0
131
0.0
112
0.0
122
1.0
132
0.0
 79
     0
146
0.0
  0
ENDBLK
  5
2E7
330
D1
100
AcDbEntity
  8
0
100
AcDbBlockEnd
  0
BLOCK
  5
2E8
330
107
100
AcDbEntity
  8
0
100
AcDbBlockBegin
  2
Block0
 70
     0
 10
0.0
 20
0.0
 30
0.0
  3
Block0
  1

  0
TEXT
  5
105
330
107
100
AcDbEntity
  8
2
 62
     7
370
    13
390
F
100
AcDbText
 10
110.811104
 20
68.442245
 30
0.0
 40
1.5
  1
FRANGILUCE
 41
0.929394857142857
 72
     5
 11
123.822632
 21
68.442245
 31
0.0
100
AcDbText
  0
ENDBLK
  5
2E9
330
107
100
AcDbEntity
  8
0
100
AcDbBlockEnd
  0
BLOCK
  5
2EA
330
10B
100
AcDbEntity
  8
0
100
AcDbBlockBegin
  2
Block1
 70
     0
 10
0.0
 20
0.0
 30
0.0
  3
Block1
  1

  0
TEXT
  5
109
330
10B
100
AcDbEntity
  8
2
 62
     7
370
    13
390
F
100
AcDbText
 10
99.346741
 20
72.603539
 30
0.0
 40
1.75
  1
COMPLEMENTI TECNICI
 41
0.9329016388140167
 72
     5
 11
128.18895
 21
72.603539
 31
0.0
100
AcDbText
  0
ENDBLK
  5
2EB
330
10B
100
AcDbEntity
  8
0
100
AcDbBlockEnd
  0
BLOCK
  5
2EC
330
10F
100
AcDbEntity
  8
0
100
AcDbBlockBegin
  2
Block2
 70
     0
 10
0.0
 20
0.0
 30
0.0
  3
Block2
  1

  0
TEXT
  5
10D
330
10F
100
AcDbEntity
  8
2
 62
     7
370
    13
390
F
100
AcDbText
 10
141.655716
 20
68.442245
 30
0.0
 40
1.5
  1
GABBIA DI PROTEZIONE
 41
0.9293948571428571
 72
     5
 11
167.678772
 21
68.442245
 31
0.0
100
AcDbText
  0
ENDBLK
  5
2ED
330
10F
100
AcDbEntity
  8
0
100
AcDbBlockEnd
  0
BLOCK
  5
2EE
330
11E
100
AcDbEntity
  8
0
100
AcDbBlockBegin
  2
*D4
 70
     1
 10
0.0
 20
0.0
 30
0.0
  3
*D4
  1

  0
SOLID
  5
111
330
11E
100
AcDbEntity
  8
2
 62
     7
370
    13
390
F
100
AcDbTrace
 10
132.858469
 20
101.701645
 30
0.0
 11
132.34083
 21
103.633495
 31
0.0
 12
132.858469
 22
101.701645
 32
0.0
 13
131.823191
 23
101.701645
 33
0.0
  0
SOLID
  5
112
330
11E
100
AcDbEntity
  8
2
 62
     7
370
    13
390
F
100
AcDbTrace
 10
131.823191
 20
87.975773
 30
0.0
 11
132.34083
 21
86.043922
 31
0.0
 12
131.823191
 22
87.975773
 32
0.0
 13
132.858469
 23
87.975773
 33
0.0
  0
TEXT
  5
113
330
11E
100
AcDbEntity
  8
2
 62
     7
370
    13
390
F
100
AcDbText
 10
130.34083
 20
92.211693
 30
0.0
 40
1.75
  1
270
 50
90.0
 41
1.200922514285714
 72
     5
 11
130.34083
 21
97.465729
 31
0.0
100
AcDbText
  0
LINE
  5
114
330
11E
100
AcDbEntity
  8
2
 62
     7
 48
0.133904
370
    13
390
F
100
AcDbLine
 10
135.696978
 20
86.043922
 30
0.0
 11
130.34083
 21
86.043922
 31
0.0
  0
LINE
  5
115
330
11E
100
AcDbEntity
  8
2
 62
     7
 48
0.133293
370
    13
390
F
100
AcDbLine
 10
135.672564
 20
103.633495
 30
0.0
 11
130.34083
 21
103.633495
 31
0.0
  0
LINE
  5
116
330
11E
100
AcDbEntity
  8
2
 62
     7
 48
0.343147
370
    13
390
F
100
AcDbLine
 10
132.34083
 20
87.975773
 30
0.0
 11
132.34083
 21
101.701645
 31
0.0
  0
LINE
  5
117
330
11E
100
AcDbEntity
  8
2
 62
     7
 48
0.05
370
    13
390
F
100
AcDbLine
 10
132.858469
 20
101.701645
 30
0.0
 11
132.34083
 21
103.633495
 31
0.0
  0
LINE
  5
118
330
11E
100
AcDbEntity
  8
2
 62
     7
 48
0.05
370
    13
390
F
100
AcDbLine
 10
132.34083
 20
103.633495
 30
0.0
 11
131.823191
 21
101.701645
 31
0.0
  0
LINE
  5
119
330
11E
100
AcDbEntity
  8
2
 62
     7
 48
0.025882
370
    13
390
F
100
AcDbLine
 10
131.823191
 20
101.701645
 30
0.0
 11
132.858469
 21
101.701645
 31
0.0
  0
LINE
  5
11A
330
11E
100
AcDbEntity
  8
2
 62
     7
 48
0.05
370
    13
390
F
100
AcDbLine
 10
131.823191
 20
87.975773
 30
0.0
 11
132.34083
 21
86.043922
 31
0.0
  0
LINE
  5
11B
330
11E
100
AcDbEntity
  8
2
 62
     7
 48
0.05
370
    13
390
F
100
AcDbLine
 10
132.34083
 20
86.043922
 30
0.0
 11
132.858469
 21
87.975773
 31
0.0
  0
LINE
  5
11C
330
11E
100
AcDbEntity
  8
2
 62
     7
 48
0.025882
370
    13
390
F
100
AcDbLine
 10
132.858469
 20
87.975773
 30
0.0
 11
131.823191
 21
87.975773
 31
0.0
  0
ENDBLK
  5
2EF
330
11E
100
AcDbEntity
  8
0
100
AcDbBlockEnd
  0
BLOCK
  5
2F0
330
12F
100
AcDbEntity
  8
0
100
AcDbBlockBegin
  2
*D5
 70
     1
 10
0.0
 20
0.0
 30
0.0
  3
*D5
  1

  0
SOLID
  5
120
330
12F
100
AcDbEntity
  8
2
 62
     7
370
    13
390
F
100
AcDbTrace
 10
166.086039
 20
71.896175
 30
0.0
 11
166.603678
 21
69.964325
 31
0.0
 12
166.086039
 22
71.896175
 32
0.0
 13
167.121317
 23
71.896175
 33
0.0
  0
SOLID
  5
121
330
12F
100
AcDbEntity
  8
2
 62
     7
370
    13
390
F
100
AcDbTrace
 10
167.121317
 20
66.563999
 30
0.0
 11
166.603678
 21
68.49585
 31
0.0
 12
167.121317
 22
66.563999
 32
0.0
 13
166.086039
 23
66.563999
 33
0.0
  0
TEXT
  5
122
330
12F
100
AcDbEntity
  8
2
 62
     7
370
    13
390
F
100
AcDbText
 10
164.603678
 20
61.280045
 30
0.0
 40
1.75
  1
14
 50
90.0
 41
1.451153142857139
 72
     5
 11
164.603678
 21
64.666069
 31
0.0
100
AcDbText
  0
LINE
  5
123
330
12F
100
AcDbEntity
  8
2
 62
     7
 48
0.158508
370
    13
390
F
100
AcDbLine
 10
170.94401
 20
68.49585
 30
0.0
 11
164.603678
 21
68.49585
 31
0.0
  0
LINE
  5
124
330
12F
100
AcDbEntity
  8
2
 62
     7
 48
0.121796
370
    13
390
F
100
AcDbLine
 10
169.475535
 20
69.964325
 30
0.0
 11
164.603678
 21
69.964325
 31
0.0
  0
LINE
  5
125
330
12F
100
AcDbEntity
  8
2
 62
     7
 48
0.132099
370
    13
390
F
100
AcDbLine
 10
166.603678
 20
61.280045
 30
0.0
 11
166.603678
 21
66.563999
 31
0.0
  0
LINE
  5
126
330
12F
100
AcDbEntity
  8
2
 62
     7
 48
0.036712
370
    13
390
F
100
AcDbLine
 10
166.603678
 20
68.49585
 30
0.0
 11
166.603678
 21
69.964325
 31
0.0
  0
LINE
  5
127
330
12F
100
AcDbEntity
  8
2
 62
     7
 48
0.076704
370
    13
390
F
100
AcDbLine
 10
166.603678
 20
71.896175
 30
0.0
 11
166.603678
 21
74.964325
 31
0.0
  0
LINE
  5
128
330
12F
100
AcDbEntity
  8
2
 62
     7
 48
0.05
370
    13
390
F
100
AcDbLine
 10
166.086039
 20
71.896175
 30
0.0
 11
166.603678
 21
69.964325
 31
0.0
  0
LINE
  5
129
330
12F
100
AcDbEntity
  8
2
 62
     7
 48
0.05
370
    13
390
F
100
AcDbLine
 10
166.603678
 20
69.964325
 30
0.0
 11
167.121317
 21
71.896175
 31
0.0
  0
LINE
  5
12A
330
12F
100
AcDbEntity
  8
2
 62
     7
 48
0.025882
370
    13
390
F
100
AcDbLine
 10
167.121317
 20
71.896175
 30
0.0
 11
166.086039
 21
71.896175
 31
0.0
  0
LINE
  5
12B
330
12F
100
AcDbEntity
  8
2
 62
     7
 48
0.05
370
    13
390
F
100
AcDbLine
 10
167.121317
 20
66.563999
 30
0.0
 11
166.603678
 21
68.49585
 31
0.0
  0
LINE
  5
12C
330
12F
100
AcDbEntity
  8
2
 62
     7
 48
0.05
370
    13
390
F
100
AcDbLine
 10
166.603678
 20
68.49585
 30
0.0
 11
166.086039
 21
66.563999
 31
0.0
  0
LINE
  5
12D
330
12F
100
AcDbEntity
  8
2
 62
     7
 48
0.025882
370
    13
390
F
100
AcDbLine
 10
166.086039
 20
66.563999
 30
0.0
 11
167.121317
 21
66.563999
 31
0.0
  0
ENDBLK
  5
2F1
330
12F
100
AcDbEntity
  8
0
100
AcDbBlockEnd
  0
BLOCK
  5
2F2
330
13E
100
AcDbEntity
  8
0
100
AcDbBlockBegin
  2
*D6
 70
     1
 10
0.0
 20
0.0
 30
0.0
  3
*D6
  1

  0
SOLID
  5
131
330
13E
100
AcDbEntity
  8
2
 62
     7
370
    13
390
F
100
AcDbTrace
 10
172.485529
 20
80.950306
 30
0.0
 11
170.553675
 21
80.432667
 31
0.0
 12
172.485529
 22
80.950306
 32
0.0
 13
172.485529
 23
79.915028
 33
0.0
  0
SOLID
  5
132
330
13E
100
AcDbEntity
  8
2
 62
     7
370
    13
390
F
100
AcDbTrace
 10
189.914713
 20
79.915028
 30
0.0
 11
191.846568
 21
80.432667
 31
0.0
 12
189.914713
 22
79.915028
 32
0.0
 13
189.914713
 23
80.950306
 33
0.0
  0
TEXT
  5
133
330
13E
100
AcDbEntity
  8
2
 62
     7
370
    13
390
F
100
AcDbText
 10
178.5731
 20
82.432667
 30
0.0
 40
1.75
  1
310
 41
1.385677714285708
 72
     5
 11
183.827128
 21
82.432667
 31
0.0
100
AcDbText
  0
LINE
  5
134
330
13E
100
AcDbEntity
  8
2
 62
     7
 48
0.265436
370
    13
390
F
100
AcDbLine
 10
170.553675
 20
89.050102
 30
0.0
 11
170.553675
 21
78.432667
 31
0.0
  0
LINE
  5
135
330
13E
100
AcDbEntity
  8
2
 62
     7
 48
0.265436
370
    13
390
F
100
AcDbLine
 10
191.846568
 20
89.050102
 30
0.0
 11
191.846568
 21
78.432667
 31
0.0
  0
LINE
  5
136
330
13E
100
AcDbEntity
  8
2
 62
     7
 48
0.43573
370
    13
390
F
100
AcDbLine
 10
172.485529
 20
80.432667
 30
0.0
 11
189.914713
 21
80.432667
 31
0.0
  0
LINE
  5
137
330
13E
100
AcDbEntity
  8
2
 62
     7
 48
0.05
370
    13
390
F
100
AcDbLine
 10
172.485529
 20
80.950306
 30
0.0
 11
170.553675
 21
80.432667
 31
0.0
  0
LINE
  5
138
330
13E
100
AcDbEntity
  8
2
 62
     7
 48
0.05
370
    13
390
F
100
AcDbLine
 10
170.553675
 20
80.432667
 30
0.0
 11
172.485529
 21
79.915028
 31
0.0
  0
LINE
  5
139
330
13E
100
AcDbEntity
  8
2
 62
     7
 48
0.025882
370
    13
390
F
100
AcDbLine
 10
172.485529
 20
79.915028
 30
0.0
 11
172.485529
 21
80.950306
 31
0.0
  0
LINE
  5
13A
330
13E
100
AcDbEntity
  8
2
 62
     7
 48
0.05
370
    13
390
F
100
AcDbLine
 10
189.914713
 20
79.915028
 30
0.0
 11
191.846568
 21
80.432667
 31
0.0
  0
LINE
  5
13B
330
13E
100
AcDbEntity
  8
2
 62
     7
 48
0.05
370
    13
390
F
100
AcDbLine
 10
191.846568
 20
80.432667
 30
0.0
 11
189.914713
 21
80.950306
 31
0.0
  0
LINE
  5
13C
330
13E
100
AcDbEntity
  8
2
 62
     7
 48
0.025882
370
    13
390
F
100
AcDbLine
 10
189.914713
 20
80.950306
 30
0.0
 11
189.914713
 21
79.915028
 31
0.0
  0
ENDBLK
  5
2F3
330
13E
100
AcDbEntity
  8
0
100
AcDbBlockEnd
  0
BLOCK
  5
2F4
330
14D
100
AcDbEntity
  8
0
100
AcDbBlockBegin
  2
*D7
 70
     1
 10
0.0
 20
0.0
 30
0.0
  3
*D7
  1

  0
SOLID
  5
140
330
14D
100
AcDbEntity
  8
2
 62
     7
370
    13
390
F
100
AcDbTrace
 10
196.750956
 20
101.701645
 30
0.0
 11
196.233317
 21
103.633495
 31
0.0
 12
196.750956
 22
101.701645
 32
0.0
 13
195.715678
 23
101.701645
 33
0.0
  0
SOLID
  5
141
330
14D
100
AcDbEntity
  8
2
 62
     7
370
    13
390
F
100
AcDbTrace
 10
195.715678
 20
87.209404
 30
0.0
 11
196.233317
 21
85.27755
 31
0.0
 12
195.715678
 22
87.209404
 32
0.0
 13
196.750956
 23
87.209404
 33
0.0
  0
TEXT
  5
142
330
14D
100
AcDbEntity
  8
2
 62
     7
370
    13
390
F
100
AcDbText
 10
194.233317
 20
91.828506
 30
0.0
 40
1.75
  1
271
 50
90.0
 41
1.286702693877551
 72
     5
 11
194.233317
 21
97.082542
 31
0.0
100
AcDbText
  0
LINE
  5
143
330
14D
100
AcDbEntity
  8
2
 62
     7
 48
0.153025
370
    13
390
F
100
AcDbLine
 10
192.11233
 20
85.27755
 30
0.0
 11
198.233317
 21
85.27755
 31
0.0
  0
LINE
  5
144
330
14D
100
AcDbEntity
  8
2
 62
     7
 48
0.153025
370
    13
390
F
100
AcDbLine
 10
192.11233
 20
103.633495
 30
0.0
 11
198.233317
 21
103.633495
 31
0.0
  0
LINE
  5
145
330
14D
100
AcDbEntity
  8
2
 62
     7
 48
0.362306
370
    13
390
F
100
AcDbLine
 10
196.233317
 20
87.209404
 30
0.0
 11
196.233317
 21
101.701645
 31
0.0
  0
LINE
  5
146
330
14D
100
AcDbEntity
  8
2
 62
     7
 48
0.05
370
    13
390
F
100
AcDbLine
 10
196.750956
 20
101.701645
 30
0.0
 11
196.233317
 21
103.633495
 31
0.0
  0
LINE
  5
147
330
14D
100
AcDbEntity
  8
2
 62
     7
 48
0.05
370
    13
390
F
100
AcDbLine
 10
196.233317
 20
103.633495
 30
0.0
 11
195.715678
 21
101.701645
 31
0.0
  0
LINE
  5
148
330
14D
100
AcDbEntity
  8
2
 62
     7
 48
0.025882
370
    13
390
F
100
AcDbLine
 10
195.715678
 20
101.701645
 30
0.0
 11
196.750956
 21
101.701645
 31
0.0
  0
LINE
  5
149
330
14D
100
AcDbEntity
  8
2
 62
     7
 48
0.05
370
    13
390
F
100
AcDbLine
 10
195.715678
 20
87.209404
 30
0.0
 11
196.233317
 21
85.27755
 31
0.0
  0
LINE
  5
14A
330
14D
100
AcDbEntity
  8
2
 62
     7
 48
0.05
370
    13
390
F
100
AcDbLine
 10
196.233317
 20
85.27755
 30
0.0
 11
196.750956
 21
87.209404
 31
0.0
  0
LINE
  5
14B
330
14D
100
AcDbEntity
  8
2
 62
     7
 48
0.025882
370
    13
390
F
100
AcDbLine
 10
196.750956
 20
87.209404
 30
0.0
 11
195.715678
 21
87.209404
 31
0.0
  0
ENDBLK
  5
2F5
330
14D
100
AcDbEntity
  8
0
100
AcDbBlockEnd
  0
BLOCK
  5
2F6
330
15C
100
AcDbEntity
  8
0
100
AcDbBlockBegin
  2
*D8
 70
     1
 10
0.0
 20
0.0
 30
0.0
  3
*D8
  1

  0
SOLID
  5
14F
330
15C
100
AcDbEntity
  8
2
 62
     7
370
    13
390
F
100
AcDbTrace
 10
138.696612
 20
81.953659
 30
0.0
 11
136.764765
 21
81.43602
 31
0.0
 12
138.696612
 22
81.953659
 32
0.0
 13
138.696612
 23
80.918381
 33
0.0
  0
SOLID
  5
150
330
15C
100
AcDbEntity
  8
2
 62
     7
370
    13
390
F
100
AcDbTrace
 10
152.75162
 20
80.918381
 30
0.0
 11
154.683474
 21
81.43602
 31
0.0
 12
152.75162
 22
80.918381
 32
0.0
 13
152.75162
 23
81.953659
 33
0.0
  0
TEXT
  5
151
330
15C
100
AcDbEntity
  8
2
 62
     7
370
    13
390
F
100
AcDbText
 10
143.097102
 20
83.43602
 30
0.0
 40
1.75
  1
300
 41
1.286700734693879
 72
     5
 11
148.35113
 21
83.43602
 31
0.0
100
AcDbText
  0
LINE
  5
152
330
15C
100
AcDbEntity
  8
2
 62
     7
 48
0.143228
370
    13
390
F
100
AcDbLine
 10
136.764765
 20
85.165123
 30
0.0
 11
136.764765
 21
79.43602
 31
0.0
  0
LINE
  5
153
330
15C
100
AcDbEntity
  8
2
 62
     7
 48
0.143227
370
    13
390
F
100
AcDbLine
 10
154.683474
 20
85.165115
 30
0.0
 11
154.683474
 21
79.43602
 31
0.0
  0
LINE
  5
154
330
15C
100
AcDbEntity
  8
2
 62
     7
 48
0.351375
370
    13
390
F
100
AcDbLine
 10
138.696612
 20
81.43602
 30
0.0
 11
152.75162
 21
81.43602
 31
0.0
  0
LINE
  5
155
330
15C
100
AcDbEntity
  8
2
 62
     7
 48
0.05
370
    13
390
F
100
AcDbLine
 10
138.696612
 20
81.953659
 30
0.0
 11
136.764765
 21
81.43602
 31
0.0
  0
LINE
  5
156
330
15C
100
AcDbEntity
  8
2
 62
     7
 48
0.05
370
    13
390
F
100
AcDbLine
 10
136.764765
 20
81.43602
 30
0.0
 11
138.696612
 21
80.918381
 31
0.0
  0
LINE
  5
157
330
15C
100
AcDbEntity
  8
2
 62
     7
 48
0.025882
370
    13
390
F
100
AcDbLine
 10
138.696612
 20
80.918381
 30
0.0
 11
138.696612
 21
81.953659
 31
0.0
  0
LINE
  5
158
330
15C
100
AcDbEntity
  8
2
 62
     7
 48
0.05
370
    13
390
F
100
AcDbLine
 10
152.75162
 20
80.918381
 30
0.0
 11
154.683474
 21
81.43602
 31
0.0
  0
LINE
  5
159
330
15C
100
AcDbEntity
  8
2
 62
     7
 48
0.05
370
    13
390
F
100
AcDbLine
 10
154.683474
 20
81.43602
 30
0.0
 11
152.75162
 21
81.953659
 31
0.0
  0
LINE
  5
15A
330
15C
100
AcDbEntity
  8
2
 62
     7
 48
0.025882
370
    13
390
F
100
AcDbLine
 10
152.75162
 20
81.953659
 30
0.0
 11
152.75162
 21
80.918381
 31
0.0
  0
ENDBLK
  5
2F7
330
15C
100
AcDbEntity
  8
0
100
AcDbBlockEnd
  0
BLOCK
  5
2F8
330
16D
100
AcDbEntity
  8
0
100
AcDbBlockBegin
  2
*D9
 70
     1
 10
0.0
 20
0.0
 30
0.0
  3
*D9
  1

  0
SOLID
  5
15E
330
16D
100
AcDbEntity
  8
2
 62
     7
370
    13
390
F
100
AcDbTrace
 10
132.849322
 20
64.390049
 30
0.0
 11
132.33169
 21
66.321899
 31
0.0
 12
132.849322
 22
64.390049
 32
0.0
 13
131.814051
 23
64.390049
 33
0.0
  0
SOLID
  5
15F
330
16D
100
AcDbEntity
  8
2
 62
     7
370
    13
390
F
100
AcDbTrace
 10
131.814051
 20
71.944727
 30
0.0
 11
132.33169
 21
70.012877
 31
0.0
 12
131.814051
 22
71.944727
 32
0.0
 13
132.849322
 23
71.944727
 33
0.0
  0
TEXT
  5
160
330
16D
100
AcDbEntity
  8
2
 62
     7
370
    13
390
F
100
AcDbText
 10
130.33169
 20
73.737514
 30
0.0
 40
1.75
  1
44
 50
90.0
 41
1.160922857142854
 72
     5
 11
130.33169
 21
77.123539
 31
0.0
100
AcDbText
  0
LINE
  5
161
330
16D
100
AcDbEntity
  8
2
 62
     7
 48
0.154982
370
    13
390
F
100
AcDbLine
 10
136.530978
 20
66.321899
 30
0.0
 11
130.33169
 21
66.321899
 31
0.0
  0
LINE
  5
162
330
16D
100
AcDbEntity
  8
2
 62
     7
 48
0.135491
370
    13
390
F
100
AcDbLine
 10
135.75133
 20
70.012877
 30
0.0
 11
130.33169
 21
70.012877
 31
0.0
  0
LINE
  5
163
330
16D
100
AcDbEntity
  8
2
 62
     7
 48
0.076704
370
    13
390
F
100
AcDbLine
 10
132.33169
 20
61.321899
 30
0.0
 11
132.33169
 21
64.390049
 31
0.0
  0
LINE
  5
164
330
16D
100
AcDbEntity
  8
2
 62
     7
 48
0.092274
370
    13
390
F
100
AcDbLine
 10
132.33169
 20
66.321899
 30
0.0
 11
132.33169
 21
70.012877
 31
0.0
  0
LINE
  5
165
330
16D
100
AcDbEntity
  8
2
 62
     7
 48
0.12947
370
    13
390
F
100
AcDbLine
 10
132.33169
 20
71.944727
 30
0.0
 11
132.33169
 21
77.123539
 31
0.0
  0
LINE
  5
166
330
16D
100
AcDbEntity
  8
2
 62
     7
 48
0.05
370
    13
390
F
100
AcDbLine
 10
132.849322
 20
64.390049
 30
0.0
 11
132.33169
 21
66.321899
 31
0.0
  0
LINE
  5
167
330
16D
100
AcDbEntity
  8
2
 62
     7
 48
0.05
370
    13
390
F
100
AcDbLine
 10
132.33169
 20
66.321899
 30
0.0
 11
131.814051
 21
64.390049
 31
0.0
  0
LINE
  5
168
330
16D
100
AcDbEntity
  8
2
 62
     7
 48
0.025882
370
    13
390
F
100
AcDbLine
 10
131.814051
 20
64.390049
 30
0.0
 11
132.849322
 21
64.390049
 31
0.0
  0
LINE
  5
169
330
16D
100
AcDbEntity
  8
2
 62
     7
 48
0.05
370
    13
390
F
100
AcDbLine
 10
131.814051
 20
71.944727
 30
0.0
 11
132.33169
 21
70.012877
 31
0.0
  0
LINE
  5
16A
330
16D
100
AcDbEntity
  8
2
 62
     7
 48
0.05
370
    13
390
F
100
AcDbLine
 10
132.33169
 20
70.012877
 30
0.0
 11
132.849322
 21
71.944727
 31
0.0
  0
LINE
  5
16B
330
16D
100
AcDbEntity
  8
2
 62
     7
 48
0.025882
370
    13
390
F
100
AcDbLine
 10
132.849322
 20
71.944727
 30
0.0
 11
131.814051
 21
71.944727
 31
0.0
  0
ENDBLK
  5
2F9
330
16D
100
AcDbEntity
  8
0
100
AcDbBlockEnd
  0
BLOCK
  5
2FA
330
19D
100
AcDbEntity
  8
0
100
AcDbBlockBegin
  2
*D10
 70
     1
 10
0.0
 20
0.0
 30
0.0
  3
*D10
  1

  0
POINT
  5
191
330
19D
100
AcDbEntity
  8
DEFPOINTS
  6
ByBlock
 62
     0
380
     1
100
AcDbPoint
 10
2503.6423844904
 20
1011.019294755
 30
0.0
  0
POINT
  5
193
330
19D
100
AcDbEntity
  8
DEFPOINTS
  6
ByBlock
 62
     0
380
     1
100
AcDbPoint
 10
2482.2602137104
 20
1032.6944115372
 30
0.0
  0
LINE
  5
194
330
19D
100
AcDbEntity
  8
0
  6
ByBlock
 62
     0
370
    -2
380
     1
100
AcDbLine
 10
2503.579884490407
 20
1011.01929578862
 30
0.0
 11
2426.40515662177
 21
1011.020577946371
 31
0.0
  0
LINE
  5
195
330
19D
100
AcDbEntity
  8
0
  6
ByBlock
 62
     0
370
    -2
380
     1
100
AcDbLine
 10
2482.197713710406
 20
1032.69441257082
 30
0.0
 11
2426.405334630032
 21
1032.69534110905
 31
0.0
  0
LINE
  5
196
330
19D
100
AcDbEntity
  8
0
  6
ByBlock
 62
     0
370
    -2
380
     1
100
AcDbLine
 10
2426.467658100054
 20
1011.200577433071
 30
0.0
 11
2426.467833151733
 21
1032.515339097223
 31
0.0
  0
LINE
  5
197
330
19D
100
AcDbEntity
  8
0
  6
ByBlock
 62
     0
370
    -2
380
     1
100
AcDbLine
 10
2426.467656621768
 20
1011.020577433077
 30
0.0
 11
2426.466987127812
 21
929.5011984837603
 31
0.0
  0
SOLID
  5
198
330
19D
100
AcDbEntity
  8
0
  6
ByBlock
 62
     0
380
     1
100
AcDbTrace
 10
2426.467656621756
 20
1011.020575934537
 30
0.0
 11
2426.497658100041
 21
1011.20057568815
 31
0.0
 12
2426.437658100042
 22
1011.200576180912
 32
0.0
 13
2426.437658100042
 23
1011.200576180912
 33
0.0
  0
SOLID
  5
199
330
19D
100
AcDbEntity
  8
0
  6
ByBlock
 62
     0
380
     1
100
AcDbTrace
 10
2426.467834630018
 20
1032.695339097217
 30
0.0
 11
2426.497833151731
 21
1032.515338850842
 31
0.0
 12
2426.437833151733
 22
1032.515339343604
 32
0.0
 13
2426.437833151733
 23
1032.515339343604
 33
0.0
  0
LINE
  5
19A
330
19D
100
AcDbEntity
  8
0
  6
ByBlock
 62
     0
370
    -2
380
     1
100
AcDbLine
 10
2426.466987127812
 20
929.5011984837603
 30
0.0
 11
2426.286987127812
 21
929.5011984837603
 31
0.0
  0
MTEXT
  5
19B
330
19D
100
AcDbEntity
  8
0
  6
ByBlock
 62
     0
370
    -2
380
     1
100
AcDbMText
 10
2425.881987127811
 20
929.5011984837603
 30
0.0
 40
0.18
 41
0.0
 71
     5
 72
     1
  1
14,00
 73
     1
 44
1.0
  0
ENDBLK
  5
2FB
330
19D
100
AcDbEntity
  8
0
100
AcDbBlockEnd
  0
BLOCK
  5
2FC
330
1AA
100
AcDbEntity
  8
0
100
AcDbBlockBegin
  2
*D11
 70
     1
 10
0.0
 20
0.0
 30
0.0
  3
*D11
  1

  0
POINT
  5
1A0
330
1AA
100
AcDbEntity
  8
DEFPOINTS
  6
ByBlock
 62
     0
380
     1
100
AcDbPoint
 10
2793.4394345304
 20
1329.1665500712
 30
0.0
  0
POINT
  5
1A1
330
1AA
100
AcDbEntity
  8
DEFPOINTS
  6
ByBlock
 62
     0
380
     1
100
AcDbPoint
 10
2483.3980091832
 20
1329.1665500712
 30
0.0
  0
LINE
  5
1A2
330
1AA
100
AcDbEntity
  8
0
  6
ByBlock
 62
     0
370
    -2
380
     1
100
AcDbLine
 10
2793.439434010073
 20
1329.1040500712
 30
0.0
 11
2793.438251214606
 21
1187.0302799598
 31
0.0
  0
LINE
  5
1A3
330
1AA
100
AcDbEntity
  8
0
  6
ByBlock
 62
     0
370
    -2
380
     1
100
AcDbLine
 10
2483.398008662874
 20
1329.1040500712
 30
0.0
 11
2483.396825867406
 21
1187.0302799598
 31
0.0
  0
LINE
  5
1A4
330
1AA
100
AcDbEntity
  8
0
  6
ByBlock
 62
     0
370
    -2
380
     1
100
AcDbLine
 10
2793.258252713145
 20
1187.2102799598
 30
0.0
 11
2638.8987218568
 21
1187.2102799598
 31
0.0
  0
LINE
  5
1A5
330
1AA
100
AcDbEntity
  8
0
  6
ByBlock
 62
     0
370
    -2
380
     1
100
AcDbLine
 10
2483.576827365946
 20
1187.2102799598
 30
0.0
 11
2637.9387218568
 21
1187.2102799598
 31
0.0
  0
SOLID
  5
1A6
330
1AA
100
AcDbEntity
  8
0
  6
ByBlock
 62
     0
380
     1
100
AcDbTrace
 10
2793.438252713145
 20
1187.2102799598
 30
0.0
 11
2793.258252713145
 21
1187.2402799598
 31
0.0
 12
2793.258252713145
 22
1187.1802799598
 32
0.0
 13
2793.258252713145
 23
1187.1802799598
 33
0.0
  0
SOLID
  5
1A7
330
1AA
100
AcDbEntity
  8
0
  6
ByBlock
 62
     0
380
     1
100
AcDbTrace
 10
2483.396827365945
 20
1187.2102799598
 30
0.0
 11
2483.576827365946
 21
1187.2402799598
 31
0.0
 12
2483.576827365946
 22
1187.1802799598
 32
0.0
 13
2483.576827365946
 23
1187.1802799598
 33
0.0
  0
MTEXT
  5
1A8
330
1AA
100
AcDbEntity
  8
0
  6
ByBlock
 62
     0
370
    -2
380
     1
100
AcDbMText
 10
2638.4187218568
 20
1187.2102799598
 30
0.0
 40
0.18
 41
0.0
 71
     5
 72
     1
  1
310,00
 73
     1
 44
1.0
  0
ENDBLK
  5
2FD
330
1AA
100
AcDbEntity
  8
0
100
AcDbBlockEnd
  0
BLOCK
  5
2FE
330
1B7
100
AcDbEntity
  8
0
100
AcDbBlockBegin
  2
*D12
 70
     1
 10
0.0
 20
0.0
 30
0.0
  3
*D12
  1

  0
POINT
  5
1AD
330
1B7
100
AcDbEntity
  8
DEFPOINTS
  6
ByBlock
 62
     0
380
     1
100
AcDbPoint
 10
2782.7483564208
 20
1258.7222360253
 30
0.0
  0
POINT
  5
1AE
330
1B7
100
AcDbEntity
  8
DEFPOINTS
  6
ByBlock
 62
     0
380
     1
100
AcDbPoint
 10
2782.7483564208
 20
1529.6614910088
 30
0.0
  0
LINE
  5
1AF
330
1B7
100
AcDbEntity
  8
0
  6
ByBlock
 62
     0
370
    -2
380
     1
100
AcDbLine
 10
2782.8108564208
 20
1258.722236545626
 30
0.0
 11
2857.4940239304
 21
1258.722858299466
 31
0.0
  0
LINE
  5
1B0
330
1B7
100
AcDbEntity
  8
0
  6
ByBlock
 62
     0
370
    -2
380
     1
100
AcDbLine
 10
2782.8108564208
 20
1529.661491529126
 30
0.0
 11
2857.4940239304
 21
1529.662113282966
 31
0.0
  0
LINE
  5
1B1
330
1B7
100
AcDbEntity
  8
0
  6
ByBlock
 62
     0
370
    -2
380
     1
100
AcDbLine
 10
2857.3140239304
 20
1258.902856800926
 30
0.0
 11
2857.3140239304
 21
1393.6968561369
 31
0.0
  0
LINE
  5
1B2
330
1B7
100
AcDbEntity
  8
0
  6
ByBlock
 62
     0
370
    -2
380
     1
100
AcDbLine
 10
2857.3140239304
 20
1529.482111784426
 30
0.0
 11
2857.3140239304
 21
1394.6868561369
 31
0.0
  0
SOLID
  5
1B3
330
1B7
100
AcDbEntity
  8
0
  6
ByBlock
 62
     0
380
     1
100
AcDbTrace
 10
2857.3140239304
 20
1258.722856800926
 30
0.0
 11
2857.3440239304
 21
1258.902856800926
 31
0.0
 12
2857.2840239304
 22
1258.902856800926
 32
0.0
 13
2857.2840239304
 23
1258.902856800926
 33
0.0
  0
SOLID
  5
1B4
330
1B7
100
AcDbEntity
  8
0
  6
ByBlock
 62
     0
380
     1
100
AcDbTrace
 10
2857.3140239304
 20
1529.662111784426
 30
0.0
 11
2857.3440239304
 21
1529.482111784426
 31
0.0
 12
2857.2840239304
 22
1529.482111784426
 32
0.0
 13
2857.2840239304
 23
1529.482111784426
 33
0.0
  0
MTEXT
  5
1B5
330
1B7
100
AcDbEntity
  8
0
  6
ByBlock
 62
     0
370
    -2
380
     1
100
AcDbMText
 10
2857.3140239304
 20
1394.1918561369
 30
0.0
 40
0.18
 41
0.0
 71
     5
 72
     1
  1
271,00
 73
     1
 44
1.0
  0
ENDBLK
  5
2FF
330
1B7
100
AcDbEntity
  8
0
100
AcDbBlockEnd
  0
BLOCK
  5
300
330
1DE
100
AcDbEntity
  8
0
100
AcDbBlockBegin
  2
*D13
 70
     1
 10
0.0
 20
0.0
 30
0.0
  3
*D13
  1

  0
POINT
  5
1D4
330
1DE
100
AcDbEntity
  8
DEFPOINTS
  6
ByBlock
 62
     0
380
     1
100
AcDbPoint
 10
2782.7483564208
 20
1258.7222360253
 30
0.0
  0
POINT
  5
1D5
330
1DE
100
AcDbEntity
  8
DEFPOINTS
  6
ByBlock
 62
     0
380
     1
100
AcDbPoint
 10
2782.7483564208
 20
1529.6614910088
 30
0.0
  0
LINE
  5
1D6
330
1DE
100
AcDbEntity
  8
0
  6
ByBlock
 62
     0
370
    -2
380
     1
100
AcDbLine
 10
2782.8108564208
 20
1258.722236545626
 30
0.0
 11
2857.4940239304
 21
1258.722858299466
 31
0.0
  0
LINE
  5
1D7
330
1DE
100
AcDbEntity
  8
0
  6
ByBlock
 62
     0
370
    -2
380
     1
100
AcDbLine
 10
2782.8108564208
 20
1529.661491529126
 30
0.0
 11
2857.4940239304
 21
1529.662113282966
 31
0.0
  0
LINE
  5
1D8
330
1DE
100
AcDbEntity
  8
0
  6
ByBlock
 62
     0
370
    -2
380
     1
100
AcDbLine
 10
2857.3140239304
 20
1258.902856800926
 30
0.0
 11
2857.3140239304
 21
1393.6968561369
 31
0.0
  0
LINE
  5
1D9
330
1DE
100
AcDbEntity
  8
0
  6
ByBlock
 62
     0
370
    -2
380
     1
100
AcDbLine
 10
2857.3140239304
 20
1529.482111784426
 30
0.0
 11
2857.3140239304
 21
1394.6868561369
 31
0.0
  0
SOLID
  5
1DA
330
1DE
100
AcDbEntity
  8
0
  6
ByBlock
 62
     0
380
     1
100
AcDbTrace
 10
2857.3140239304
 20
1258.722856800926
 30
0.0
 11
2857.3440239304
 21
1258.902856800926
 31
0.0
 12
2857.2840239304
 22
1258.902856800926
 32
0.0
 13
2857.2840239304
 23
1258.902856800926
 33
0.0
  0
SOLID
  5
1DB
330
1DE
100
AcDbEntity
  8
0
  6
ByBlock
 62
     0
380
     1
100
AcDbTrace
 10
2857.3140239304
 20
1529.662111784426
 30
0.0
 11
2857.3440239304
 21
1529.482111784426
 31
0.0
 12
2857.2840239304
 22
1529.482111784426
 32
0.0
 13
2857.2840239304
 23
1529.482111784426
 33
0.0
  0
MTEXT
  5
1DC
330
1DE
100
AcDbEntity
  8
0
  6
ByBlock
 62
     0
370
    -2
380
     1
100
AcDbMText
 10
2857.3140239304
 20
1394.1918561369
 30
0.0
 40
0.18
 41
0.0
 71
     5
 72
     1
  1
271,00
 73
     1
 44
1.0
  0
ENDBLK
  5
301
330
1DE
100
AcDbEntity
  8
0
100
AcDbBlockEnd
  0
BLOCK
  5
302
330
1EA
100
AcDbEntity
  8
0
100
AcDbBlockBegin
  2
*D14
 70
     1
 10
0.0
 20
0.0
 30
0.0
  3
*D14
  1

  0
POINT
  5
1E0
330
1EA
100
AcDbEntity
  8
DEFPOINTS
  6
ByBlock
 62
     0
380
     1
100
AcDbPoint
 10
2793.4394345304
 20
1329.1665500712
 30
0.0
  0
POINT
  5
1E1
330
1EA
100
AcDbEntity
  8
DEFPOINTS
  6
ByBlock
 62
     0
380
     1
100
AcDbPoint
 10
2483.3980091832
 20
1329.1665500712
 30
0.0
  0
LINE
  5
1E2
330
1EA
100
AcDbEntity
  8
0
  6
ByBlock
 62
     0
370
    -2
380
     1
100
AcDbLine
 10
2793.439434010073
 20
1329.1040500712
 30
0.0
 11
2793.438251214606
 21
1187.0302799598
 31
0.0
  0
LINE
  5
1E3
330
1EA
100
AcDbEntity
  8
0
  6
ByBlock
 62
     0
370
    -2
380
     1
100
AcDbLine
 10
2483.398008662874
 20
1329.1040500712
 30
0.0
 11
2483.396825867406
 21
1187.0302799598
 31
0.0
  0
LINE
  5
1E4
330
1EA
100
AcDbEntity
  8
0
  6
ByBlock
 62
     0
370
    -2
380
     1
100
AcDbLine
 10
2793.258252713145
 20
1187.2102799598
 30
0.0
 11
2638.8987218568
 21
1187.2102799598
 31
0.0
  0
LINE
  5
1E5
330
1EA
100
AcDbEntity
  8
0
  6
ByBlock
 62
     0
370
    -2
380
     1
100
AcDbLine
 10
2483.576827365946
 20
1187.2102799598
 30
0.0
 11
2637.9387218568
 21
1187.2102799598
 31
0.0
  0
SOLID
  5
1E6
330
1EA
100
AcDbEntity
  8
0
  6
ByBlock
 62
     0
380
     1
100
AcDbTrace
 10
2793.438252713145
 20
1187.2102799598
 30
0.0
 11
2793.258252713145
 21
1187.2402799598
 31
0.0
 12
2793.258252713145
 22
1187.1802799598
 32
0.0
 13
2793.258252713145
 23
1187.1802799598
 33
0.0
  0
SOLID
  5
1E7
330
1EA
100
AcDbEntity
  8
0
  6
ByBlock
 62
     0
380
     1
100
AcDbTrace
 10
2483.396827365945
 20
1187.2102799598
 30
0.0
 11
2483.576827365946
 21
1187.2402799598
 31
0.0
 12
2483.576827365946
 22
1187.1802799598
 32
0.0
 13
2483.576827365946
 23
1187.1802799598
 33
0.0
  0
MTEXT
  5
1E8
330
1EA
100
AcDbEntity
  8
0
  6
ByBlock
 62
     0
370
    -2
380
     1
100
AcDbMText
 10
2638.4187218568
 20
1187.2102799598
 30
0.0
 40
0.18
 41
0.0
 71
     5
 72
     1
  1
310,00
 73
     1
 44
1.0
  0
ENDBLK
  5
303
330
1EA
100
AcDbEntity
  8
0
100
AcDbBlockEnd
  0
BLOCK
  5
304
330
1F7
100
AcDbEntity
  8
0
100
AcDbBlockBegin
  2
*D15
 70
     1
 10
0.0
 20
0.0
 30
0.0
  3
*D15
  1

  0
POINT
  5
1EC
330
1F7
100
AcDbEntity
  8
DEFPOINTS
  6
ByBlock
 62
     0
380
     1
100
AcDbPoint
 10
2503.6423844904
 20
1011.019294755
 30
0.0
  0
POINT
  5
1ED
330
1F7
100
AcDbEntity
  8
DEFPOINTS
  6
ByBlock
 62
     0
380
     1
100
AcDbPoint
 10
2482.2602137104
 20
1032.6944115372
 30
0.0
  0
LINE
  5
1EE
330
1F7
100
AcDbEntity
  8
0
  6
ByBlock
 62
     0
370
    -2
380
     1
100
AcDbLine
 10
2503.579884490407
 20
1011.01929578862
 30
0.0
 11
2426.990156621691
 21
1011.020568271689
 31
0.0
  0
LINE
  5
1EF
330
1F7
100
AcDbEntity
  8
0
  6
ByBlock
 62
     0
370
    -2
380
     1
100
AcDbLine
 10
2482.197713710406
 20
1032.69441257082
 30
0.0
 11
2426.990334629953
 21
1032.695331434368
 31
0.0
  0
LINE
  5
1F0
330
1F7
100
AcDbEntity
  8
0
  6
ByBlock
 62
     0
370
    -2
380
     1
100
AcDbLine
 10
2427.052658099974
 20
1011.200567758389
 30
0.0
 11
2427.052833151653
 21
1032.515329422541
 31
0.0
  0
LINE
  5
1F1
330
1F7
100
AcDbEntity
  8
0
  6
ByBlock
 62
     0
370
    -2
380
     1
100
AcDbLine
 10
2427.052656621689
 20
1011.020567758395
 30
0.0
 11
2427.051987127772
 21
929.5011936793326
 31
0.0
  0
SOLID
  5
1F2
330
1F7
100
AcDbEntity
  8
0
  6
ByBlock
 62
     0
380
     1
100
AcDbTrace
 10
2427.052656621677
 20
1011.020566259856
 30
0.0
 11
2427.082658099961
 21
1011.200566013468
 31
0.0
 12
2427.022658099963
 22
1011.20056650623
 32
0.0
 13
2427.022658099963
 23
1011.20056650623
 33
0.0
  0
SOLID
  5
1F3
330
1F7
100
AcDbEntity
  8
0
  6
ByBlock
 62
     0
380
     1
100
AcDbTrace
 10
2427.052834629938
 20
1032.695329422535
 30
0.0
 11
2427.082833151652
 21
1032.51532917616
 31
0.0
 12
2427.022833151654
 22
1032.515329668922
 32
0.0
 13
2427.022833151654
 23
1032.515329668922
 33
0.0
  0
LINE
  5
1F4
330
1F7
100
AcDbEntity
  8
0
  6
ByBlock
 62
     0
370
    -2
380
     1
100
AcDbLine
 10
2427.051987127772
 20
929.5011936793326
 30
0.0
 11
2426.871987127772
 21
929.5011936793326
 31
0.0
  0
MTEXT
  5
1F5
330
1F7
100
AcDbEntity
  8
0
  6
ByBlock
 62
     0
370
    -2
380
     1
100
AcDbMText
 10
2426.466987127772
 20
929.5011936793326
 30
0.0
 40
0.18
 41
0.0
 71
     5
 72
     1
  1
14,00
 73
     1
 44
1.0
  0
ENDBLK
  5
305
330
1F7
100
AcDbEntity
  8
0
100
AcDbBlockEnd
  0
BLOCK
  5
306
330
203
100
AcDbEntity
  8
0
100
AcDbBlockBegin
  2
*D16
 70
     1
 10
0.0
 20
0.0
 30
0.0
  3
*D16
  1

  0
POINT
  5
1F9
330
203
100
AcDbEntity
  8
DEFPOINTS
  6
ByBlock
 62
     0
380
     1
100
AcDbPoint
 10
2782.7483564208
 20
1258.7222360253
 30
0.0
  0
POINT
  5
1FA
330
203
100
AcDbEntity
  8
DEFPOINTS
  6
ByBlock
 62
     0
380
     1
100
AcDbPoint
 10
2782.7483564208
 20
1529.6614910088
 30
0.0
  0
LINE
  5
1FB
330
203
100
AcDbEntity
  8
0
  6
ByBlock
 62
     0
370
    -2
380
     1
100
AcDbLine
 10
2782.8108564208
 20
1258.722236545626
 30
0.0
 11
2857.4940239304
 21
1258.722858299466
 31
0.0
  0
LINE
  5
1FC
330
203
100
AcDbEntity
  8
0
  6
ByBlock
 62
     0
370
    -2
380
     1
100
AcDbLine
 10
2782.8108564208
 20
1529.661491529126
 30
0.0
 11
2857.4940239304
 21
1529.662113282966
 31
0.0
  0
LINE
  5
1FD
330
203
100
AcDbEntity
  8
0
  6
ByBlock
 62
     0
370
    -2
380
     1
100
AcDbLine
 10
2857.3140239304
 20
1258.902856800926
 30
0.0
 11
2857.3140239304
 21
1393.6968561369
 31
0.0
  0
LINE
  5
1FE
330
203
100
AcDbEntity
  8
0
  6
ByBlock
 62
     0
370
    -2
380
     1
100
AcDbLine
 10
2857.3140239304
 20
1529.482111784426
 30
0.0
 11
2857.3140239304
 21
1394.6868561369
 31
0.0
  0
SOLID
  5
1FF
330
203
100
AcDbEntity
  8
0
  6
ByBlock
 62
     0
380
     1
100
AcDbTrace
 10
2857.3140239304
 20
1258.722856800926
 30
0.0
 11
2857.3440239304
 21
1258.902856800926
 31
0.0
 12
2857.2840239304
 22
1258.902856800926
 32
0.0
 13
2857.2840239304
 23
1258.902856800926
 33
0.0
  0
SOLID
  5
200
330
203
100
AcDbEntity
  8
0
  6
ByBlock
 62
     0
380
     1
100
AcDbTrace
 10
2857.3140239304
 20
1529.662111784426
 30
0.0
 11
2857.3440239304
 21
1529.482111784426
 31
0.0
 12
2857.2840239304
 22
1529.482111784426
 32
0.0
 13
2857.2840239304
 23
1529.482111784426
 33
0.0
  0
MTEXT
  5
201
330
203
100
AcDbEntity
  8
0
  6
ByBlock
 62
     0
370
    -2
380
     1
100
AcDbMText
 10
2857.3140239304
 20
1394.1918561369
 30
0.0
 40
0.18
 41
0.0
 71
     5
 72
     1
  1
271,00
 73
     1
 44
1.0
  0
ENDBLK
  5
307
330
203
100
AcDbEntity
  8
0
100
AcDbBlockEnd
  0
BLOCK
  5
308
330
20F
100
AcDbEntity
  8
0
100
AcDbBlockBegin
  2
*D17
 70
     1
 10
0.0
 20
0.0
 30
0.0
  3
*D17
  1

  0
POINT
  5
205
330
20F
100
AcDbEntity
  8
DEFPOINTS
  6
ByBlock
 62
     0
380
     1
100
AcDbPoint
 10
2793.4394345304
 20
1329.1665500712
 30
0.0
  0
POINT
  5
206
330
20F
100
AcDbEntity
  8
DEFPOINTS
  6
ByBlock
 62
     0
380
     1
100
AcDbPoint
 10
2483.3980091832
 20
1329.1665500712
 30
0.0
  0
LINE
  5
207
330
20F
100
AcDbEntity
  8
0
  6
ByBlock
 62
     0
370
    -2
380
     1
100
AcDbLine
 10
2793.439434010073
 20
1329.1040500712
 30
0.0
 11
2793.438251214606
 21
1187.0302799598
 31
0.0
  0
LINE
  5
208
330
20F
100
AcDbEntity
  8
0
  6
ByBlock
 62
     0
370
    -2
380
     1
100
AcDbLine
 10
2483.398008662874
 20
1329.1040500712
 30
0.0
 11
2483.396825867406
 21
1187.0302799598
 31
0.0
  0
LINE
  5
209
330
20F
100
AcDbEntity
  8
0
  6
ByBlock
 62
     0
370
    -2
380
     1
100
AcDbLine
 10
2793.258252713145
 20
1187.2102799598
 30
0.0
 11
2638.8987218568
 21
1187.2102799598
 31
0.0
  0
LINE
  5
20A
330
20F
100
AcDbEntity
  8
0
  6
ByBlock
 62
     0
370
    -2
380
     1
100
AcDbLine
 10
2483.576827365946
 20
1187.2102799598
 30
0.0
 11
2637.9387218568
 21
1187.2102799598
 31
0.0
  0
SOLID
  5
20B
330
20F
100
AcDbEntity
  8
0
  6
ByBlock
 62
     0
380
     1
100
AcDbTrace
 10
2793.438252713145
 20
1187.2102799598
 30
0.0
 11
2793.258252713145
 21
1187.2402799598
 31
0.0
 12
2793.258252713145
 22
1187.1802799598
 32
0.0
 13
2793.258252713145
 23
1187.1802799598
 33
0.0
  0
SOLID
  5
20C
330
20F
100
AcDbEntity
  8
0
  6
ByBlock
 62
     0
380
     1
100
AcDbTrace
 10
2483.396827365945
 20
1187.2102799598
 30
0.0
 11
2483.576827365946
 21
1187.2402799598
 31
0.0
 12
2483.576827365946
 22
1187.1802799598
 32
0.0
 13
2483.576827365946
 23
1187.1802799598
 33
0.0
  0
MTEXT
  5
20D
330
20F
100
AcDbEntity
  8
0
  6
ByBlock
 62
     0
370
    -2
380
     1
100
AcDbMText
 10
2638.4187218568
 20
1187.2102799598
 30
0.0
 40
0.18
 41
0.0
 71
     5
 72
     1
  1
310,00
 73
     1
 44
1.0
  0
ENDBLK
  5
309
330
20F
100
AcDbEntity
  8
0
100
AcDbBlockEnd
  0
BLOCK
  5
30A
330
21C
100
AcDbEntity
  8
0
100
AcDbBlockBegin
  2
*D18
 70
     1
 10
0.0
 20
0.0
 30
0.0
  3
*D18
  1

  0
POINT
  5
211
330
21C
100
AcDbEntity
  8
DEFPOINTS
  6
ByBlock
 62
     0
380
     1
100
AcDbPoint
 10
2503.6423844904
 20
1011.019294755
 30
0.0
  0
POINT
  5
212
330
21C
100
AcDbEntity
  8
DEFPOINTS
  6
ByBlock
 62
     0
380
     1
100
AcDbPoint
 10
2482.2602137104
 20
1032.6944115372
 30
0.0
  0
LINE
  5
213
330
21C
100
AcDbEntity
  8
0
  6
ByBlock
 62
     0
370
    -2
380
     1
100
AcDbLine
 10
2503.579884490407
 20
1011.01929578862
 30
0.0
 11
2427.575156621612
 21
1011.020558597007
 31
0.0
  0
LINE
  5
214
330
21C
100
AcDbEntity
  8
0
  6
ByBlock
 62
     0
370
    -2
380
     1
100
AcDbLine
 10
2482.197713710406
 20
1032.69441257082
 30
0.0
 11
2427.575334629873
 21
1032.695321759687
 31
0.0
  0
LINE
  5
215
330
21C
100
AcDbEntity
  8
0
  6
ByBlock
 62
     0
370
    -2
380
     1
100
AcDbLine
 10
2427.637658099895
 20
1011.200558083707
 30
0.0
 11
2427.637833151573
 21
1032.515319747859
 31
0.0
  0
LINE
  5
216
330
21C
100
AcDbEntity
  8
0
  6
ByBlock
 62
     0
370
    -2
380
     1
100
AcDbLine
 10
2427.637656621609
 20
1011.020558083713
 30
0.0
 11
2427.636987127733
 21
929.5011888749049
 31
0.0
  0
SOLID
  5
217
330
21C
100
AcDbEntity
  8
0
  6
ByBlock
 62
     0
380
     1
100
AcDbTrace
 10
2427.637656621597
 20
1011.020556585174
 30
0.0
 11
2427.667658099881
 21
1011.200556338787
 31
0.0
 12
2427.607658099884
 22
1011.200556831549
 32
0.0
 13
2427.607658099884
 23
1011.200556831549
 33
0.0
  0
SOLID
  5
218
330
21C
100
AcDbEntity
  8
0
  6
ByBlock
 62
     0
380
     1
100
AcDbTrace
 10
2427.637834629859
 20
1032.695319747853
 30
0.0
 11
2427.667833151573
 21
1032.515319501478
 31
0.0
 12
2427.607833151575
 22
1032.51531999424
 32
0.0
 13
2427.607833151575
 23
1032.51531999424
 33
0.0
  0
LINE
  5
219
330
21C
100
AcDbEntity
  8
0
  6
ByBlock
 62
     0
370
    -2
380
     1
100
AcDbLine
 10
2427.636987127733
 20
929.5011888749049
 30
0.0
 11
2427.456987127733
 21
929.5011888749049
 31
0.0
  0
MTEXT
  5
21A
330
21C
100
AcDbEntity
  8
0
  6
ByBlock
 62
     0
370
    -2
380
     1
100
AcDbMText
 10
2427.051987127733
 20
929.5011888749049
 30
0.0
 40
0.18
 41
0.0
 71
     5
 72
     1
  1
14,00
 73
     1
 44
1.0
  0
ENDBLK
  5
30B
330
21C
100
AcDbEntity
  8
0
100
AcDbBlockEnd
  0
BLOCK
  5
30C
330
229
100
AcDbEntity
  8
0
100
AcDbBlockBegin
  2
*D19
 70
     1
 10
0.0
 20
0.0
 30
0.0
  3
*D19
  1

  0
POINT
  5
21E
330
229
100
AcDbEntity
  8
DEFPOINTS
  6
ByBlock
 62
     0
380
     1
100
AcDbPoint
 10
2503.6423844904
 20
1011.019294755
 30
0.0
  0
POINT
  5
21F
330
229
100
AcDbEntity
  8
DEFPOINTS
  6
ByBlock
 62
     0
380
     1
100
AcDbPoint
 10
2482.2602137104
 20
1032.6944115372
 30
0.0
  0
LINE
  5
220
330
229
100
AcDbEntity
  8
0
  6
ByBlock
 62
     0
370
    -2
380
     1
100
AcDbLine
 10
2503.579884490407
 20
1011.01929578862
 30
0.0
 11
2428.160156621532
 21
1011.020548922325
 31
0.0
  0
LINE
  5
221
330
229
100
AcDbEntity
  8
0
  6
ByBlock
 62
     0
370
    -2
380
     1
100
AcDbLine
 10
2482.197713710406
 20
1032.69441257082
 30
0.0
 11
2428.160334629794
 21
1032.695312085005
 31
0.0
  0
LINE
  5
222
330
229
100
AcDbEntity
  8
0
  6
ByBlock
 62
     0
370
    -2
380
     1
100
AcDbLine
 10
2428.222658099815
 20
1011.200548409026
 30
0.0
 11
2428.222833151494
 21
1032.515310073178
 31
0.0
  0
LINE
  5
223
330
229
100
AcDbEntity
  8
0
  6
ByBlock
 62
     0
370
    -2
380
     1
100
AcDbLine
 10
2428.22265662153
 20
1011.020548409032
 30
0.0
 11
2428.221987127693
 21
929.5011840704772
 31
0.0
  0
SOLID
  5
224
330
229
100
AcDbEntity
  8
0
  6
ByBlock
 62
     0
380
     1
100
AcDbTrace
 10
2428.222656621518
 20
1011.020546910492
 30
0.0
 11
2428.252658099802
 21
1011.200546664105
 31
0.0
 12
2428.192658099804
 22
1011.200547156867
 32
0.0
 13
2428.192658099804
 23
1011.200547156867
 33
0.0
  0
SOLID
  5
225
330
229
100
AcDbEntity
  8
0
  6
ByBlock
 62
     0
380
     1
100
AcDbTrace
 10
2428.222834629779
 20
1032.695310073172
 30
0.0
 11
2428.252833151493
 21
1032.515309826797
 31
0.0
 12
2428.192833151495
 22
1032.515310319558
 32
0.0
 13
2428.192833151495
 23
1032.515310319558
 33
0.0
  0
LINE
  5
226
330
229
100
AcDbEntity
  8
0
  6
ByBlock
 62
     0
370
    -2
380
     1
100
AcDbLine
 10
2428.221987127693
 20
929.5011840704772
 30
0.0
 11
2428.041987127693
 21
929.5011840704772
 31
0.0
  0
MTEXT
  5
227
330
229
100
AcDbEntity
  8
0
  6
ByBlock
 62
     0
370
    -2
380
     1
100
AcDbMText
 10
2427.636987127693
 20
929.5011840704772
 30
0.0
 40
0.18
 41
0.0
 71
     5
 72
     1
  1
14,00
 73
     1
 44
1.0
  0
ENDBLK
  5
30D
330
229
100
AcDbEntity
  8
0
100
AcDbBlockEnd
  0
BLOCK
  5
30E
330
235
100
AcDbEntity
  8
0
100
AcDbBlockBegin
  2
*D20
 70
     1
 10
0.0
 20
0.0
 30
0.0
  3
*D20
  1

  0
POINT
  5
22B
330
235
100
AcDbEntity
  8
DEFPOINTS
  6
ByBlock
 62
     0
380
     1
100
AcDbPoint
 10
2793.4394345304
 20
1329.1665500712
 30
0.0
  0
POINT
  5
22C
330
235
100
AcDbEntity
  8
DEFPOINTS
  6
ByBlock
 62
     0
380
     1
100
AcDbPoint
 10
2483.3980091832
 20
1329.1665500712
 30
0.0
  0
LINE
  5
22D
330
235
100
AcDbEntity
  8
0
  6
ByBlock
 62
     0
370
    -2
380
     1
100
AcDbLine
 10
2793.439434010073
 20
1329.1040500712
 30
0.0
 11
2793.438251214606
 21
1187.0302799598
 31
0.0
  0
LINE
  5
22E
330
235
100
AcDbEntity
  8
0
  6
ByBlock
 62
     0
370
    -2
380
     1
100
AcDbLine
 10
2483.398008662874
 20
1329.1040500712
 30
0.0
 11
2483.396825867406
 21
1187.0302799598
 31
0.0
  0
LINE
  5
22F
330
235
100
AcDbEntity
  8
0
  6
ByBlock
 62
     0
370
    -2
380
     1
100
AcDbLine
 10
2793.258252713145
 20
1187.2102799598
 30
0.0
 11
2638.8987218568
 21
1187.2102799598
 31
0.0
  0
LINE
  5
230
330
235
100
AcDbEntity
  8
0
  6
ByBlock
 62
     0
370
    -2
380
     1
100
AcDbLine
 10
2483.576827365946
 20
1187.2102799598
 30
0.0
 11
2637.9387218568
 21
1187.2102799598
 31
0.0
  0
SOLID
  5
231
330
235
100
AcDbEntity
  8
0
  6
ByBlock
 62
     0
380
     1
100
AcDbTrace
 10
2793.438252713145
 20
1187.2102799598
 30
0.0
 11
2793.258252713145
 21
1187.2402799598
 31
0.0
 12
2793.258252713145
 22
1187.1802799598
 32
0.0
 13
2793.258252713145
 23
1187.1802799598
 33
0.0
  0
SOLID
  5
232
330
235
100
AcDbEntity
  8
0
  6
ByBlock
 62
     0
380
     1
100
AcDbTrace
 10
2483.396827365945
 20
1187.2102799598
 30
0.0
 11
2483.576827365946
 21
1187.2402799598
 31
0.0
 12
2483.576827365946
 22
1187.1802799598
 32
0.0
 13
2483.576827365946
 23
1187.1802799598
 33
0.0
  0
MTEXT
  5
233
330
235
100
AcDbEntity
  8
0
  6
ByBlock
 62
     0
370
    -2
380
     1
100
AcDbMText
 10
2638.4187218568
 20
1187.2102799598
 30
0.0
 40
0.18
 41
0.0
 71
     5
 72
     1
  1
310,00
 73
     1
 44
1.0
  0
ENDBLK
  5
30F
330
235
100
AcDbEntity
  8
0
100
AcDbBlockEnd
  0
BLOCK
  5
310
330
241
100
AcDbEntity
  8
0
100
AcDbBlockBegin
  2
*D21
 70
     1
 10
0.0
 20
0.0
 30
0.0
  3
*D21
  1

  0
POINT
  5
237
330
241
100
AcDbEntity
  8
DEFPOINTS
  6
ByBlock
 62
     0
380
     1
100
AcDbPoint
 10
2782.7483564208
 20
1258.7222360253
 30
0.0
  0
POINT
  5
238
330
241
100
AcDbEntity
  8
DEFPOINTS
  6
ByBlock
 62
     0
380
     1
100
AcDbPoint
 10
2782.7483564208
 20
1529.6614910088
 30
0.0
  0
LINE
  5
239
330
241
100
AcDbEntity
  8
0
  6
ByBlock
 62
     0
370
    -2
380
     1
100
AcDbLine
 10
2782.8108564208
 20
1258.722236545626
 30
0.0
 11
2857.4940239304
 21
1258.722858299466
 31
0.0
  0
LINE
  5
23A
330
241
100
AcDbEntity
  8
0
  6
ByBlock
 62
     0
370
    -2
380
     1
100
AcDbLine
 10
2782.8108564208
 20
1529.661491529126
 30
0.0
 11
2857.4940239304
 21
1529.662113282966
 31
0.0
  0
LINE
  5
23B
330
241
100
AcDbEntity
  8
0
  6
ByBlock
 62
     0
370
    -2
380
     1
100
AcDbLine
 10
2857.3140239304
 20
1258.902856800926
 30
0.0
 11
2857.3140239304
 21
1393.6968561369
 31
0.0
  0
LINE
  5
23C
330
241
100
AcDbEntity
  8
0
  6
ByBlock
 62
     0
370
    -2
380
     1
100
AcDbLine
 10
2857.3140239304
 20
1529.482111784426
 30
0.0
 11
2857.3140239304
 21
1394.6868561369
 31
0.0
  0
SOLID
  5
23D
330
241
100
AcDbEntity
  8
0
  6
ByBlock
 62
     0
380
     1
100
AcDbTrace
 10
2857.3140239304
 20
1258.722856800926
 30
0.0
 11
2857.3440239304
 21
1258.902856800926
 31
0.0
 12
2857.2840239304
 22
1258.902856800926
 32
0.0
 13
2857.2840239304
 23
1258.902856800926
 33
0.0
  0
SOLID
  5
23E
330
241
100
AcDbEntity
  8
0
  6
ByBlock
 62
     0
380
     1
100
AcDbTrace
 10
2857.3140239304
 20
1529.662111784426
 30
0.0
 11
2857.3440239304
 21
1529.482111784426
 31
0.0
 12
2857.2840239304
 22
1529.482111784426
 32
0.0
 13
2857.2840239304
 23
1529.482111784426
 33
0.0
  0
MTEXT
  5
23F
330
241
100
AcDbEntity
  8
0
  6
ByBlock
 62
     0
370
    -2
380
     1
100
AcDbMText
 10
2857.3140239304
 20
1394.1918561369
 30
0.0
 40
0.18
 41
0.0
 71
     5
 72
     1
  1
271,00
 73
     1
 44
1.0
  0
ENDBLK
  5
311
330
241
100
AcDbEntity
  8
0
100
AcDbBlockEnd
  0
BLOCK
  5
312
330
24D
100
AcDbEntity
  8
0
100
AcDbBlockBegin
  2
*D22
 70
     1
 10
0.0
 20
0.0
 30
0.0
  3
*D22
  1

  0
POINT
  5
244
330
24D
100
AcDbEntity
  8
DEFPOINTS
  6
ByBlock
 62
     0
380
     1
100
AcDbPoint
 10
2676.417189420255
 20
1529.6614762485
 30
0.0
  0
POINT
  5
245
330
24D
100
AcDbEntity
  8
DEFPOINTS
  6
ByBlock
 62
     0
380
     1
100
AcDbPoint
 10
2676.417189420255
 20
1258.722221265
 30
0.0
  0
LINE
  5
246
330
24D
100
AcDbEntity
  8
0
  6
ByBlock
 62
     0
370
    -2
380
     1
100
AcDbLine
 10
2677.042189420255
 20
1529.6614762485
 30
0.0
 11
2845.184015451997
 21
1529.6614762485
 31
0.0
  0
LINE
  5
247
330
24D
100
AcDbEntity
  8
0
  6
ByBlock
 62
     0
370
    -2
380
     1
100
AcDbLine
 10
2677.042189420255
 20
1258.722221265
 30
0.0
 11
2845.184015451997
 21
1258.722221265
 31
0.0
  0
LINE
  5
248
330
24D
100
AcDbEntity
  8
0
  6
ByBlock
 62
     0
370
    -2
380
     1
100
AcDbLine
 10
2843.934015451997
 20
1527.1614762485
 30
0.0
 11
2843.934015451997
 21
1261.222221265
 31
0.0
  0
SOLID
  5
249
330
24D
100
AcDbEntity
  8
0
  6
ByBlock
 62
     0
380
     1
100
AcDbTrace
 10
2843.934015451997
 20
1529.6614762485
 30
0.0
 11
2843.51734878533
 21
1527.1614762485
 31
0.0
 12
2844.350682118663
 22
1527.1614762485
 32
0.0
 13
2844.350682118663
 23
1527.1614762485
 33
0.0
  0
SOLID
  5
24A
330
24D
100
AcDbEntity
  8
0
  6
ByBlock
 62
     0
380
     1
100
AcDbTrace
 10
2843.934015451997
 20
1258.722221265
 30
0.0
 11
2843.51734878533
 21
1261.222221265
 31
0.0
 12
2844.350682118663
 22
1261.222221265
 32
0.0
 13
2844.350682118663
 23
1261.222221265
 33
0.0
  0
MTEXT
  5
24B
330
24D
100
AcDbEntity
  8
0
  6
ByBlock
 62
     0
370
    -2
380
     1
100
AcDbMText
 10
2841.850682118663
 20
1394.19184875675
 30
0.0
 40
2.5
 41
0.0
 71
     5
 72
     1
  1
\A1;270,94
 11
6.123031769111886E-17
 21
1.0
 31
0.0
 73
     1
 44
1.0
  0
ENDBLK
  5
313
330
24D
100
AcDbEntity
  8
0
100
AcDbBlockEnd
  0
BLOCK
  5
314
330
258
100
AcDbEntity
  8
0
100
AcDbBlockBegin
  2
*D23
 70
     1
 10
0.0
 20
0.0
 30
0.0
  3
*D23
  1

  0
POINT
  5
24F
330
258
100
AcDbEntity
  8
DEFPOINTS
  6
ByBlock
 62
     0
380
     1
100
AcDbPoint
 10
2676.417189420255
 20
1529.6614762485
 30
0.0
  0
POINT
  5
250
330
258
100
AcDbEntity
  8
DEFPOINTS
  6
ByBlock
 62
     0
380
     1
100
AcDbPoint
 10
2676.417189420255
 20
1258.722221265
 30
0.0
  0
LINE
  5
251
330
258
100
AcDbEntity
  8
0
  6
ByBlock
 62
     0
370
    -2
380
     1
100
AcDbLine
 10
2677.042189420255
 20
1529.6614762485
 30
0.0
 11
2845.184015451997
 21
1529.6614762485
 31
0.0
  0
LINE
  5
252
330
258
100
AcDbEntity
  8
0
  6
ByBlock
 62
     0
370
    -2
380
     1
100
AcDbLine
 10
2677.042189420255
 20
1258.722221265
 30
0.0
 11
2845.184015451997
 21
1258.722221265
 31
0.0
  0
LINE
  5
253
330
258
100
AcDbEntity
  8
0
  6
ByBlock
 62
     0
370
    -2
380
     1
100
AcDbLine
 10
2843.934015451997
 20
1527.1614762485
 30
0.0
 11
2843.934015451997
 21
1261.222221265
 31
0.0
  0
SOLID
  5
254
330
258
100
AcDbEntity
  8
0
  6
ByBlock
 62
     0
380
     1
100
AcDbTrace
 10
2843.934015451997
 20
1529.6614762485
 30
0.0
 11
2843.51734878533
 21
1527.1614762485
 31
0.0
 12
2844.350682118663
 22
1527.1614762485
 32
0.0
 13
2844.350682118663
 23
1527.1614762485
 33
0.0
  0
SOLID
  5
255
330
258
100
AcDbEntity
  8
0
  6
ByBlock
 62
     0
380
     1
100
AcDbTrace
 10
2843.934015451997
 20
1258.722221265
 30
0.0
 11
2843.51734878533
 21
1261.222221265
 31
0.0
 12
2844.350682118663
 22
1261.222221265
 32
0.0
 13
2844.350682118663
 23
1261.222221265
 33
0.0
  0
MTEXT
  5
256
330
258
100
AcDbEntity
  8
0
  6
ByBlock
 62
     0
370
    -2
380
     1
100
AcDbMText
 10
2841.850682118663
 20
1394.19184875675
 30
0.0
 40
2.5
 41
0.0
 71
     5
 72
     1
  1
\A1;270,94
 11
6.123031769111886E-17
 21
1.0
 31
0.0
 73
     1
 44
1.0
  0
ENDBLK
  5
315
330
258
100
AcDbEntity
  8
0
100
AcDbBlockEnd
  0
BLOCK
  5
316
330
263
100
AcDbEntity
  8
0
100
AcDbBlockBegin
  2
*D24
 70
     1
 10
0.0
 20
0.0
 30
0.0
  3
*D24
  1

  0
POINT
  5
25A
330
263
100
AcDbEntity
  8
DEFPOINTS
  6
ByBlock
 62
     7
380
     1
100
AcDbPoint
 10
2676.417189420255
 20
1529.6614762485
 30
0.0
  0
POINT
  5
25B
330
263
100
AcDbEntity
  8
DEFPOINTS
  6
ByBlock
 62
     7
380
     1
100
AcDbPoint
 10
2676.417189420255
 20
1258.722221265
 30
0.0
  0
LINE
  5
25C
330
263
100
AcDbEntity
  8
0
  6
ByBlock
 62
     7
370
    -2
380
     1
100
AcDbLine
 10
2677.042189420255
 20
1529.6614762485
 30
0.0
 11
2845.184015451997
 21
1529.6614762485
 31
0.0
  0
LINE
  5
25D
330
263
100
AcDbEntity
  8
0
  6
ByBlock
 62
     7
370
    -2
380
     1
100
AcDbLine
 10
2677.042189420255
 20
1258.722221265
 30
0.0
 11
2845.184015451997
 21
1258.722221265
 31
0.0
  0
LINE
  5
25E
330
263
100
AcDbEntity
  8
0
  6
ByBlock
 62
     7
370
    -2
380
     1
100
AcDbLine
 10
2843.934015451997
 20
1519.6614762485
 30
0.0
 11
2843.934015451997
 21
1268.722221265
 31
0.0
  0
SOLID
  5
25F
330
263
100
AcDbEntity
  8
0
  6
ByBlock
 62
     7
380
     1
100
AcDbTrace
 10
2843.934015451997
 20
1529.6614762485
 30
0.0
 11
2842.26734878533
 21
1519.6614762485
 31
0.0
 12
2845.600682118663
 22
1519.6614762485
 32
0.0
 13
2845.600682118663
 23
1519.6614762485
 33
0.0
  0
SOLID
  5
260
330
263
100
AcDbEntity
  8
0
  6
ByBlock
 62
     7
380
     1
100
AcDbTrace
 10
2843.934015451997
 20
1258.722221265
 30
0.0
 11
2842.26734878533
 21
1268.722221265
 31
0.0
 12
2845.600682118663
 22
1268.722221265
 32
0.0
 13
2845.600682118663
 23
1268.722221265
 33
0.0
  0
MTEXT
  5
261
330
263
100
AcDbEntity
  8
0
  6
ByBlock
 62
     0
370
    -2
380
     1
100
AcDbMText
 10
2830.76734878533
 20
1394.19184875675
 30
0.0
 40
14.0
 41
0.0
 71
     5
 72
     1
  1
\A1;270,94
 11
6.123031769111886E-17
 21
1.0
 31
0.0
 73
     1
 44
1.0
  0
ENDBLK
  5
317
330
263
100
AcDbEntity
  8
0
100
AcDbBlockEnd
  0
BLOCK
  5
318
330
26E
100
AcDbEntity
  8
0
100
AcDbBlockBegin
  2
*D25
 70
     1
 10
0.0
 20
0.0
 30
0.0
  3
*D25
  1

  0
POINT
  5
265
330
26E
100
AcDbEntity
  8
DEFPOINTS
  6
ByBlock
 62
     7
380
     1
100
AcDbPoint
 10
2676.417189420255
 20
1529.6614762485
 30
0.0
  0
POINT
  5
266
330
26E
100
AcDbEntity
  8
DEFPOINTS
  6
ByBlock
 62
     7
380
     1
100
AcDbPoint
 10
2676.417189420255
 20
1258.722221265
 30
0.0
  0
LINE
  5
267
330
26E
100
AcDbEntity
  8
0
  6
ByBlock
 62
     7
370
    -2
380
     1
100
AcDbLine
 10
2677.042189420255
 20
1529.6614762485
 30
0.0
 11
2845.184015451997
 21
1529.6614762485
 31
0.0
  0
LINE
  5
268
330
26E
100
AcDbEntity
  8
0
  6
ByBlock
 62
     7
370
    -2
380
     1
100
AcDbLine
 10
2677.042189420255
 20
1258.722221265
 30
0.0
 11
2845.184015451997
 21
1258.722221265
 31
0.0
  0
LINE
  5
269
330
26E
100
AcDbEntity
  8
0
  6
ByBlock
 62
     7
370
    -2
380
     1
100
AcDbLine
 10
2843.934015451997
 20
1519.6614762485
 30
0.0
 11
2843.934015451997
 21
1268.722221265
 31
0.0
  0
SOLID
  5
26A
330
26E
100
AcDbEntity
  8
0
  6
ByBlock
 62
     7
380
     1
100
AcDbTrace
 10
2843.934015451997
 20
1529.6614762485
 30
0.0
 11
2842.26734878533
 21
1519.6614762485
 31
0.0
 12
2845.600682118663
 22
1519.6614762485
 32
0.0
 13
2845.600682118663
 23
1519.6614762485
 33
0.0
  0
SOLID
  5
26B
330
26E
100
AcDbEntity
  8
0
  6
ByBlock
 62
     7
380
     1
100
AcDbTrace
 10
2843.934015451997
 20
1258.722221265
 30
0.0
 11
2842.26734878533
 21
1268.722221265
 31
0.0
 12
2845.600682118663
 22
1268.722221265
 32
0.0
 13
2845.600682118663
 23
1268.722221265
 33
0.0
  0
MTEXT
  5
26C
330
26E
100
AcDbEntity
  8
0
  6
ByBlock
 62
     0
370
    -2
380
     1
100
AcDbMText
 10
2831.934015451997
 20
1394.19184875675
 30
0.0
 40
14.0
 41
0.0
 71
     5
 72
     1
  1
271
 11
6.123031769111886E-17
 21
1.0
 31
0.0
 73
     1
 44
1.0
  0
ENDBLK
  5
319
330
26E
100
AcDbEntity
  8
0
100
AcDbBlockEnd
  0
BLOCK
  5
31A
330
27A
100
AcDbEntity
  8
0
100
AcDbBlockBegin
  2
*D26
 70
     1
 10
0.0
 20
0.0
 30
0.0
  3
*D26
  1

  0
POINT
  5
271
330
27A
100
AcDbEntity
  8
DEFPOINTS
  6
ByBlock
 62
     0
380
     1
100
AcDbPoint
 10
2483.39795094
 20
1329.1665205506
 30
0.0
  0
POINT
  5
272
330
27A
100
AcDbEntity
  8
DEFPOINTS
  6
ByBlock
 62
     0
380
     1
100
AcDbPoint
 10
2793.4395073344
 20
1329.1665205506
 30
0.0
  0
LINE
  5
273
330
27A
100
AcDbEntity
  8
0
  6
ByBlock
 62
     0
370
    -2
380
     1
100
AcDbLine
 10
2483.39795094
 20
1328.5415205506
 30
0.0
 11
2483.39795094
 21
1193.777966691323
 31
0.0
  0
LINE
  5
274
330
27A
100
AcDbEntity
  8
0
  6
ByBlock
 62
     0
370
    -2
380
     1
100
AcDbLine
 10
2793.4395073344
 20
1328.5415205506
 30
0.0
 11
2793.4395073344
 21
1193.777966691323
 31
0.0
  0
LINE
  5
275
330
27A
100
AcDbEntity
  8
0
  6
ByBlock
 62
     0
370
    -2
380
     1
100
AcDbLine
 10
2485.89795094
 20
1195.027966691323
 30
0.0
 11
2790.9395073344
 21
1195.027966691323
 31
0.0
  0
SOLID
  5
276
330
27A
100
AcDbEntity
  8
0
  6
ByBlock
 62
     0
380
     1
100
AcDbTrace
 10
2483.39795094
 20
1195.027966691323
 30
0.0
 11
2485.89795094
 21
1194.611300024656
 31
0.0
 12
2485.89795094
 22
1195.44463335799
 32
0.0
 13
2485.89795094
 23
1195.44463335799
 33
0.0
  0
SOLID
  5
277
330
27A
100
AcDbEntity
  8
0
  6
ByBlock
 62
     0
380
     1
100
AcDbTrace
 10
2793.4395073344
 20
1195.027966691323
 30
0.0
 11
2790.9395073344
 21
1194.611300024656
 31
0.0
 12
2790.9395073344
 22
1195.44463335799
 32
0.0
 13
2790.9395073344
 23
1195.44463335799
 33
0.0
  0
MTEXT
  5
278
330
27A
100
AcDbEntity
  8
0
  6
ByBlock
 62
     0
370
    -2
380
     1
100
AcDbMText
 10
2638.4187291372
 20
1197.111300024656
 30
0.0
 40
2.5
 41
0.0
 71
     5
 72
     1
  1
\A1;310,04
 73
     1
 44
1.0
  0
ENDBLK
  5
31B
330
27A
100
AcDbEntity
  8
0
100
AcDbBlockEnd
  0
BLOCK
  5
31C
330
285
100
AcDbEntity
  8
0
100
AcDbBlockBegin
  2
*D27
 70
     1
 10
0.0
 20
0.0
 30
0.0
  3
*D27
  1

  0
POINT
  5
27C
330
285
100
AcDbEntity
  8
DEFPOINTS
  6
ByBlock
 62
     0
380
     1
100
AcDbPoint
 10
2483.39795094
 20
1329.1665205506
 30
0.0
  0
POINT
  5
27D
330
285
100
AcDbEntity
  8
DEFPOINTS
  6
ByBlock
 62
     0
380
     1
100
AcDbPoint
 10
2793.4395073344
 20
1329.1665205506
 30
0.0
  0
LINE
  5
27E
330
285
100
AcDbEntity
  8
0
  6
ByBlock
 62
     0
370
    -2
380
     1
100
AcDbLine
 10
2483.39795094
 20
1328.5415205506
 30
0.0
 11
2483.39795094
 21
1193.777966691323
 31
0.0
  0
LINE
  5
27F
330
285
100
AcDbEntity
  8
0
  6
ByBlock
 62
     0
370
    -2
380
     1
100
AcDbLine
 10
2793.4395073344
 20
1328.5415205506
 30
0.0
 11
2793.4395073344
 21
1193.777966691323
 31
0.0
  0
LINE
  5
280
330
285
100
AcDbEntity
  8
0
  6
ByBlock
 62
     0
370
    -2
380
     1
100
AcDbLine
 10
2485.89795094
 20
1195.027966691323
 30
0.0
 11
2790.9395073344
 21
1195.027966691323
 31
0.0
  0
SOLID
  5
281
330
285
100
AcDbEntity
  8
0
  6
ByBlock
 62
     0
380
     1
100
AcDbTrace
 10
2483.39795094
 20
1195.027966691323
 30
0.0
 11
2485.89795094
 21
1194.611300024656
 31
0.0
 12
2485.89795094
 22
1195.44463335799
 32
0.0
 13
2485.89795094
 23
1195.44463335799
 33
0.0
  0
SOLID
  5
282
330
285
100
AcDbEntity
  8
0
  6
ByBlock
 62
     0
380
     1
100
AcDbTrace
 10
2793.4395073344
 20
1195.027966691323
 30
0.0
 11
2790.9395073344
 21
1194.611300024656
 31
0.0
 12
2790.9395073344
 22
1195.44463335799
 32
0.0
 13
2790.9395073344
 23
1195.44463335799
 33
0.0
  0
MTEXT
  5
283
330
285
100
AcDbEntity
  8
0
  6
ByBlock
 62
     0
370
    -2
380
     1
100
AcDbMText
 10
2638.4187291372
 20
1197.111300024656
 30
0.0
 40
2.5
 41
0.0
 71
     5
 72
     1
  1
\A1;310,04
 73
     1
 44
1.0
  0
ENDBLK
  5
31D
330
285
100
AcDbEntity
  8
0
100
AcDbBlockEnd
  0
BLOCK
  5
31E
330
290
100
AcDbEntity
  8
0
100
AcDbBlockBegin
  2
*D28
 70
     1
 10
0.0
 20
0.0
 30
0.0
  3
*D28
  1

  0
POINT
  5
287
330
290
100
AcDbEntity
  8
DEFPOINTS
  6
ByBlock
 62
     7
380
     1
100
AcDbPoint
 10
2483.39795094
 20
1329.1665205506
 30
0.0
  0
POINT
  5
288
330
290
100
AcDbEntity
  8
DEFPOINTS
  6
ByBlock
 62
     7
380
     1
100
AcDbPoint
 10
2793.4395073344
 20
1329.1665205506
 30
0.0
  0
LINE
  5
289
330
290
100
AcDbEntity
  8
0
  6
ByBlock
 62
     7
370
    -2
380
     1
100
AcDbLine
 10
2483.39795094
 20
1328.5415205506
 30
0.0
 11
2483.39795094
 21
1193.777966691323
 31
0.0
  0
LINE
  5
28A
330
290
100
AcDbEntity
  8
0
  6
ByBlock
 62
     7
370
    -2
380
     1
100
AcDbLine
 10
2793.4395073344
 20
1328.5415205506
 30
0.0
 11
2793.4395073344
 21
1193.777966691323
 31
0.0
  0
LINE
  5
28B
330
290
100
AcDbEntity
  8
0
  6
ByBlock
 62
     7
370
    -2
380
     1
100
AcDbLine
 10
2493.39795094
 20
1195.027966691323
 30
0.0
 11
2783.4395073344
 21
1195.027966691323
 31
0.0
  0
SOLID
  5
28C
330
290
100
AcDbEntity
  8
0
  6
ByBlock
 62
     7
380
     1
100
AcDbTrace
 10
2483.39795094
 20
1195.027966691323
 30
0.0
 11
2493.39795094
 21
1193.361300024656
 31
0.0
 12
2493.39795094
 22
1196.69463335799
 32
0.0
 13
2493.39795094
 23
1196.69463335799
 33
0.0
  0
SOLID
  5
28D
330
290
100
AcDbEntity
  8
0
  6
ByBlock
 62
     7
380
     1
100
AcDbTrace
 10
2793.4395073344
 20
1195.027966691323
 30
0.0
 11
2783.4395073344
 21
1193.361300024656
 31
0.0
 12
2783.4395073344
 22
1196.69463335799
 32
0.0
 13
2783.4395073344
 23
1196.69463335799
 33
0.0
  0
MTEXT
  5
28E
330
290
100
AcDbEntity
  8
0
  6
ByBlock
 62
     0
370
    -2
380
     1
100
AcDbMText
 10
2638.4187291372
 20
1208.19463335799
 30
0.0
 40
14.0
 41
0.0
 71
     5
 72
     1
  1
\A1;310,04
 73
     1
 44
1.0
  0
ENDBLK
  5
31F
330
290
100
AcDbEntity
  8
0
100
AcDbBlockEnd
  0
BLOCK
  5
320
330
29B
100
AcDbEntity
  8
0
100
AcDbBlockBegin
  2
*D29
 70
     1
 10
0.0
 20
0.0
 30
0.0
  3
*D29
  1

  0
POINT
  5
292
330
29B
100
AcDbEntity
  8
DEFPOINTS
  6
ByBlock
 62
     7
380
     1
100
AcDbPoint
 10
2483.39795094
 20
1329.1665205506
 30
0.0
  0
POINT
  5
293
330
29B
100
AcDbEntity
  8
DEFPOINTS
  6
ByBlock
 62
     7
380
     1
100
AcDbPoint
 10
2793.4395073344
 20
1329.1665205506
 30
0.0
  0
LINE
  5
294
330
29B
100
AcDbEntity
  8
0
  6
ByBlock
 62
     7
370
    -2
380
     1
100
AcDbLine
 10
2483.39795094
 20
1328.5415205506
 30
0.0
 11
2483.39795094
 21
1193.777966691323
 31
0.0
  0
LINE
  5
295
330
29B
100
AcDbEntity
  8
0
  6
ByBlock
 62
     7
370
    -2
380
     1
100
AcDbLine
 10
2793.4395073344
 20
1328.5415205506
 30
0.0
 11
2793.4395073344
 21
1193.777966691323
 31
0.0
  0
LINE
  5
296
330
29B
100
AcDbEntity
  8
0
  6
ByBlock
 62
     7
370
    -2
380
     1
100
AcDbLine
 10
2493.39795094
 20
1195.027966691323
 30
0.0
 11
2783.4395073344
 21
1195.027966691323
 31
0.0
  0
SOLID
  5
297
330
29B
100
AcDbEntity
  8
0
  6
ByBlock
 62
     7
380
     1
100
AcDbTrace
 10
2483.39795094
 20
1195.027966691323
 30
0.0
 11
2493.39795094
 21
1193.361300024656
 31
0.0
 12
2493.39795094
 22
1196.69463335799
 32
0.0
 13
2493.39795094
 23
1196.69463335799
 33
0.0
  0
SOLID
  5
298
330
29B
100
AcDbEntity
  8
0
  6
ByBlock
 62
     7
380
     1
100
AcDbTrace
 10
2793.4395073344
 20
1195.027966691323
 30
0.0
 11
2783.4395073344
 21
1193.361300024656
 31
0.0
 12
2783.4395073344
 22
1196.69463335799
 32
0.0
 13
2783.4395073344
 23
1196.69463335799
 33
0.0
  0
MTEXT
  5
299
330
29B
100
AcDbEntity
  8
0
  6
ByBlock
 62
     0
370
    -2
380
     1
100
AcDbMText
 10
2638.4187291372
 20
1207.027966691323
 30
0.0
 40
14.0
 41
0.0
 71
     5
 72
     1
  1
310
 73
     1
 44
1.0
  0
ENDBLK
  5
321
330
29B
100
AcDbEntity
  8
0
100
AcDbBlockEnd
  0
BLOCK
  5
322
330
2A7
100
AcDbEntity
  8
0
100
AcDbBlockBegin
  2
*D30
 70
     1
 10
0.0
 20
0.0
 30
0.0
  3
*D30
  1

  0
POINT
  5
29E
330
2A7
100
AcDbEntity
  8
DEFPOINTS
  6
ByBlock
 62
     0
380
     1
100
AcDbPoint
 10
2487.6057163632
 20
1032.6944262975
 30
0.0
  0
POINT
  5
29F
330
2A7
100
AcDbEntity
  8
DEFPOINTS
  6
ByBlock
 62
     0
380
     1
100
AcDbPoint
 10
2561.6140565659
 20
1016.4380665704
 30
0.0
  0
LINE
  5
2A0
330
2A7
100
AcDbEntity
  8
0
  6
ByBlock
 62
     0
370
    -2
380
     1
100
AcDbLine
 10
2486.9807163632
 20
1032.6944262975
 30
0.0
 11
2411.372965594484
 21
1032.6944262975
 31
0.0
  0
LINE
  5
2A1
330
2A7
100
AcDbEntity
  8
0
  6
ByBlock
 62
     0
370
    -2
380
     1
100
AcDbLine
 10
2560.9890565659
 20
1016.4380665704
 30
0.0
 11
2411.372965594484
 21
1016.4380665704
 31
0.0
  0
LINE
  5
2A2
330
2A7
100
AcDbEntity
  8
0
  6
ByBlock
 62
     0
370
    -2
380
     1
100
AcDbLine
 10
2412.622965594484
 20
1030.1944262975
 30
0.0
 11
2412.622965594484
 21
1018.9380665704
 31
0.0
  0
SOLID
  5
2A3
330
2A7
100
AcDbEntity
  8
0
  6
ByBlock
 62
     0
380
     1
100
AcDbTrace
 10
2412.622965594484
 20
1032.6944262975
 30
0.0
 11
2412.206298927817
 21
1030.1944262975
 31
0.0
 12
2413.03963226115
 22
1030.1944262975
 32
0.0
 13
2413.03963226115
 23
1030.1944262975
 33
0.0
  0
SOLID
  5
2A4
330
2A7
100
AcDbEntity
  8
0
  6
ByBlock
 62
     0
380
     1
100
AcDbTrace
 10
2412.622965594484
 20
1016.4380665704
 30
0.0
 11
2412.206298927817
 21
1018.9380665704
 31
0.0
 12
2413.03963226115
 22
1018.9380665704
 32
0.0
 13
2413.03963226115
 23
1018.9380665704
 33
0.0
  0
MTEXT
  5
2A5
330
2A7
100
AcDbEntity
  8
0
  6
ByBlock
 62
     0
370
    -2
380
     1
100
AcDbMText
 10
2410.53963226115
 20
1024.56624643395
 30
0.0
 40
2.5
 41
0.0
 71
     5
 72
     1
  1
\A1;16,26
 11
6.123031769111886E-17
 21
1.0
 31
0.0
 73
     1
 44
1.0
  0
ENDBLK
  5
323
330
2A7
100
AcDbEntity
  8
0
100
AcDbBlockEnd
  0
BLOCK
  5
324
330
2B2
100
AcDbEntity
  8
0
100
AcDbBlockBegin
  2
*D31
 70
     1
 10
0.0
 20
0.0
 30
0.0
  3
*D31
  1

  0
POINT
  5
2A9
330
2B2
100
AcDbEntity
  8
DEFPOINTS
  6
ByBlock
 62
     0
380
     1
100
AcDbPoint
 10
2487.6057163632
 20
1032.6944262975
 30
0.0
  0
POINT
  5
2AA
330
2B2
100
AcDbEntity
  8
DEFPOINTS
  6
ByBlock
 62
     0
380
     1
100
AcDbPoint
 10
2561.6140565659
 20
1016.4380665704
 30
0.0
  0
LINE
  5
2AB
330
2B2
100
AcDbEntity
  8
0
  6
ByBlock
 62
     0
370
    -2
380
     1
100
AcDbLine
 10
2486.9807163632
 20
1032.6944262975
 30
0.0
 11
2411.372965594484
 21
1032.6944262975
 31
0.0
  0
LINE
  5
2AC
330
2B2
100
AcDbEntity
  8
0
  6
ByBlock
 62
     0
370
    -2
380
     1
100
AcDbLine
 10
2560.9890565659
 20
1016.4380665704
 30
0.0
 11
2411.372965594484
 21
1016.4380665704
 31
0.0
  0
LINE
  5
2AD
330
2B2
100
AcDbEntity
  8
0
  6
ByBlock
 62
     0
370
    -2
380
     1
100
AcDbLine
 10
2412.622965594484
 20
1030.1944262975
 30
0.0
 11
2412.622965594484
 21
1018.9380665704
 31
0.0
  0
SOLID
  5
2AE
330
2B2
100
AcDbEntity
  8
0
  6
ByBlock
 62
     0
380
     1
100
AcDbTrace
 10
2412.622965594484
 20
1032.6944262975
 30
0.0
 11
2412.206298927817
 21
1030.1944262975
 31
0.0
 12
2413.03963226115
 22
1030.1944262975
 32
0.0
 13
2413.03963226115
 23
1030.1944262975
 33
0.0
  0
SOLID
  5
2AF
330
2B2
100
AcDbEntity
  8
0
  6
ByBlock
 62
     0
380
     1
100
AcDbTrace
 10
2412.622965594484
 20
1016.4380665704
 30
0.0
 11
2412.206298927817
 21
1018.9380665704
 31
0.0
 12
2413.03963226115
 22
1018.9380665704
 32
0.0
 13
2413.03963226115
 23
1018.9380665704
 33
0.0
  0
MTEXT
  5
2B0
330
2B2
100
AcDbEntity
  8
0
  6
ByBlock
 62
     0
370
    -2
380
     1
100
AcDbMText
 10
2410.53963226115
 20
1024.56624643395
 30
0.0
 40
2.5
 41
0.0
 71
     5
 72
     1
  1
\A1;16,26
 11
6.123031769111886E-17
 21
1.0
 31
0.0
 73
     1
 44
1.0
  0
ENDBLK
  5
325
330
2B2
100
AcDbEntity
  8
0
100
AcDbBlockEnd
  0
BLOCK
  5
326
330
2BF
100
AcDbEntity
  8
0
100
AcDbBlockBegin
  2
*D32
 70
     1
 10
0.0
 20
0.0
 30
0.0
  3
*D32
  1

  0
POINT
  5
2B4
330
2BF
100
AcDbEntity
  8
DEFPOINTS
  6
ByBlock
 62
     7
380
     1
100
AcDbPoint
 10
2487.6057163632
 20
1032.6944262975
 30
0.0
  0
POINT
  5
2B5
330
2BF
100
AcDbEntity
  8
DEFPOINTS
  6
ByBlock
 62
     7
380
     1
100
AcDbPoint
 10
2561.6140565659
 20
1016.4380665704
 30
0.0
  0
LINE
  5
2B6
330
2BF
100
AcDbEntity
  8
0
  6
ByBlock
 62
     7
370
    -2
380
     1
100
AcDbLine
 10
2486.9807163632
 20
1032.6944262975
 30
0.0
 11
2411.372965594484
 21
1032.6944262975
 31
0.0
  0
LINE
  5
2B7
330
2BF
100
AcDbEntity
  8
0
  6
ByBlock
 62
     7
370
    -2
380
     1
100
AcDbLine
 10
2560.9890565659
 20
1016.4380665704
 30
0.0
 11
2411.372965594484
 21
1016.4380665704
 31
0.0
  0
LINE
  5
2B8
330
2BF
100
AcDbEntity
  8
0
  6
ByBlock
 62
     7
370
    -2
380
     1
100
AcDbLine
 10
2412.622965594484
 20
1042.6944262975
 30
0.0
 11
2412.622965594484
 21
1052.6944262975
 31
0.0
  0
LINE
  5
2B9
330
2BF
100
AcDbEntity
  8
0
  6
ByBlock
 62
     7
370
    -2
380
     1
100
AcDbLine
 10
2412.622965594484
 20
1006.4380665704
 30
0.0
 11
2412.622965594484
 21
970.1047332370665
 31
0.0
  0
SOLID
  5
2BA
330
2BF
100
AcDbEntity
  8
0
  6
ByBlock
 62
     7
380
     1
100
AcDbTrace
 10
2412.622965594484
 20
1032.6944262975
 30
0.0
 11
2410.956298927817
 21
1042.6944262975
 31
0.0
 12
2414.28963226115
 22
1042.6944262975
 32
0.0
 13
2414.28963226115
 23
1042.6944262975
 33
0.0
  0
SOLID
  5
2BB
330
2BF
100
AcDbEntity
  8
0
  6
ByBlock
 62
     7
380
     1
100
AcDbTrace
 10
2412.622965594484
 20
1016.4380665704
 30
0.0
 11
2410.956298927817
 21
1006.4380665704
 31
0.0
 12
2414.28963226115
 22
1006.4380665704
 32
0.0
 13
2414.28963226115
 23
1006.4380665704
 33
0.0
  0
LINE
  5
2BC
330
2BF
100
AcDbEntity
  8
0
  6
ByBlock
 62
     7
370
    -2
380
     1
100
AcDbLine
 10
2412.622965594484
 20
1032.6944262975
 30
0.0
 11
2412.622965594484
 21
1016.4380665704
 31
0.0
  0
MTEXT
  5
2BD
330
2BF
100
AcDbEntity
  8
0
  6
ByBlock
 62
     0
370
    -2
380
     1
100
AcDbMText
 10
2399.456298927817
 20
983.2713999037333
 30
0.0
 40
14.0
 41
0.0
 71
     5
 72
     1
  1
\A1;16,26
 11
6.123031769111886E-17
 21
1.0
 31
0.0
 73
     1
 44
1.0
  0
ENDBLK
  5
327
330
2BF
100
AcDbEntity
  8
0
100
AcDbBlockEnd
  0
BLOCK
  5
328
330
2CC
100
AcDbEntity
  8
0
100
AcDbBlockBegin
  2
*D33
 70
     1
 10
0.0
 20
0.0
 30
0.0
  3
*D33
  1

  0
POINT
  5
2C1
330
2CC
100
AcDbEntity
  8
DEFPOINTS
  6
ByBlock
 62
     7
380
     1
100
AcDbPoint
 10
2487.6057163632
 20
1032.6944262975
 30
0.0
  0
POINT
  5
2C2
330
2CC
100
AcDbEntity
  8
DEFPOINTS
  6
ByBlock
 62
     7
380
     1
100
AcDbPoint
 10
2561.6140565659
 20
1016.4380665704
 30
0.0
  0
LINE
  5
2C3
330
2CC
100
AcDbEntity
  8
0
  6
ByBlock
 62
     7
370
    -2
380
     1
100
AcDbLine
 10
2486.9807163632
 20
1032.6944262975
 30
0.0
 11
2411.372965594484
 21
1032.6944262975
 31
0.0
  0
LINE
  5
2C4
330
2CC
100
AcDbEntity
  8
0
  6
ByBlock
 62
     7
370
    -2
380
     1
100
AcDbLine
 10
2560.9890565659
 20
1016.4380665704
 30
0.0
 11
2411.372965594484
 21
1016.4380665704
 31
0.0
  0
LINE
  5
2C5
330
2CC
100
AcDbEntity
  8
0
  6
ByBlock
 62
     7
370
    -2
380
     1
100
AcDbLine
 10
2412.622965594484
 20
1042.6944262975
 30
0.0
 11
2412.622965594484
 21
1052.6944262975
 31
0.0
  0
LINE
  5
2C6
330
2CC
100
AcDbEntity
  8
0
  6
ByBlock
 62
     7
370
    -2
380
     1
100
AcDbLine
 10
2412.622965594484
 20
1006.4380665704
 30
0.0
 11
2412.622965594484
 21
972.4380665704
 31
0.0
  0
SOLID
  5
2C7
330
2CC
100
AcDbEntity
  8
0
  6
ByBlock
 62
     7
380
     1
100
AcDbTrace
 10
2412.622965594484
 20
1032.6944262975
 30
0.0
 11
2410.956298927817
 21
1042.6944262975
 31
0.0
 12
2414.28963226115
 22
1042.6944262975
 32
0.0
 13
2414.28963226115
 23
1042.6944262975
 33
0.0
  0
SOLID
  5
2C8
330
2CC
100
AcDbEntity
  8
0
  6
ByBlock
 62
     7
380
     1
100
AcDbTrace
 10
2412.622965594484
 20
1016.4380665704
 30
0.0
 11
2410.956298927817
 21
1006.4380665704
 31
0.0
 12
2414.28963226115
 22
1006.4380665704
 32
0.0
 13
2414.28963226115
 23
1006.4380665704
 33
0.0
  0
LINE
  5
2C9
330
2CC
100
AcDbEntity
  8
0
  6
ByBlock
 62
     7
370
    -2
380
     1
100
AcDbLine
 10
2412.622965594484
 20
1032.6944262975
 30
0.0
 11
2412.622965594484
 21
1016.4380665704
 31
0.0
  0
MTEXT
  5
2CA
330
2CC
100
AcDbEntity
  8
0
  6
ByBlock
 62
     0
370
    -2
380
     1
100
AcDbMText
 10
2400.622965594484
 20
984.4380665704
 30
0.0
 40
14.0
 41
0.0
 71
     5
 72
     1
  1
16
 11
6.123031769111886E-17
 21
1.0
 31
0.0
 73
     1
 44
1.0
  0
ENDBLK
  5
329
330
2CC
100
AcDbEntity
  8
0
100
AcDbBlockEnd
  0
BLOCK
  5
32A
330
2D9
100
AcDbEntity
  8
0
100
AcDbBlockBegin
  2
*D34
 70
     1
 10
0.0
 20
0.0
 30
0.0
  3
*D34
  1

  0
POINT
  5
2CE
330
2D9
100
AcDbEntity
  8
DEFPOINTS
  6
ByBlock
 62
     7
380
     1
100
AcDbPoint
 10
2487.6057163632
 20
1032.6944262975
 30
0.0
  0
POINT
  5
2CF
330
2D9
100
AcDbEntity
  8
DEFPOINTS
  6
ByBlock
 62
     7
380
     1
100
AcDbPoint
 10
2561.6140565659
 20
1016.4380665704
 30
0.0
  0
LINE
  5
2D0
330
2D9
100
AcDbEntity
  8
0
  6
ByBlock
 62
     7
370
    -2
380
     1
100
AcDbLine
 10
2486.9807163632
 20
1032.6944262975
 30
0.0
 11
2427.664804829284
 21
1032.6944262975
 31
0.0
  0
LINE
  5
2D1
330
2D9
100
AcDbEntity
  8
0
  6
ByBlock
 62
     7
370
    -2
380
     1
100
AcDbLine
 10
2560.9890565659
 20
1016.4380665704
 30
0.0
 11
2427.664804829284
 21
1016.4380665704
 31
0.0
  0
LINE
  5
2D2
330
2D9
100
AcDbEntity
  8
0
  6
ByBlock
 62
     7
370
    -2
380
     1
100
AcDbLine
 10
2428.914804829284
 20
1006.4380665704
 30
0.0
 11
2428.914804829284
 21
996.4380665704
 31
0.0
  0
LINE
  5
2D3
330
2D9
100
AcDbEntity
  8
0
  6
ByBlock
 62
     7
370
    -2
380
     1
100
AcDbLine
 10
2428.914804829284
 20
1042.6944262975
 30
0.0
 11
2428.914804829284
 21
1075.016404347192
 31
0.0
  0
SOLID
  5
2D4
330
2D9
100
AcDbEntity
  8
0
  6
ByBlock
 62
     7
380
     1
100
AcDbTrace
 10
2428.914804829284
 20
1032.6944262975
 30
0.0
 11
2427.248138162618
 21
1042.6944262975
 31
0.0
 12
2430.581471495951
 22
1042.6944262975
 32
0.0
 13
2430.581471495951
 23
1042.6944262975
 33
0.0
  0
SOLID
  5
2D5
330
2D9
100
AcDbEntity
  8
0
  6
ByBlock
 62
     7
380
     1
100
AcDbTrace
 10
2428.914804829284
 20
1016.4380665704
 30
0.0
 11
2427.248138162618
 21
1006.4380665704
 31
0.0
 12
2430.581471495951
 22
1006.4380665704
 32
0.0
 13
2430.581471495951
 23
1006.4380665704
 33
0.0
  0
LINE
  5
2D6
330
2D9
100
AcDbEntity
  8
0
  6
ByBlock
 62
     7
370
    -2
380
     1
100
AcDbLine
 10
2428.914804829284
 20
1032.6944262975
 30
0.0
 11
2428.914804829284
 21
1016.4380665704
 31
0.0
  0
MTEXT
  5
2D7
330
2D9
100
AcDbEntity
  8
0
  6
ByBlock
 62
     0
370
    -2
380
     1
100
AcDbMText
 10
2416.914804829284
 20
1063.016404347192
 30
0.0
 40
14.0
 41
0.0
 71
     5
 72
     1
  1
16
 11
6.123031769111886E-17
 21
1.0
 31
0.0
 73
     1
 44
1.0
  0
ENDBLK
  5
32B
330
2D9
100
AcDbEntity
  8
0
100
AcDbBlockEnd
  0
ENDSEC
  0
SECTION
  2
ENTITIES
  0
LINE
  5
1B8
330
1F
100
AcDbEntity
  8
5
 48
0.49561
370
    60
100
AcDbLine
 10
2492.9512626984
 20
1016.4380665704
 30
0.0
 11
2781.610633752
 21
1016.4380665704
 31
0.0
  0
LINE
  5
1B9
330
1F
100
AcDbEntity
  8
5
 48
0.49561
370
    60
100
AcDbLine
 10
2492.9512626984
 20
1029.9850403898
 30
0.0
 11
2781.610633752
 21
1029.9850403898
 31
0.0
  0
LINE
  5
1BA
330
1F
100
AcDbEntity
  8
5
 48
0.018356
370
    60
100
AcDbLine
 10
2482.260170028
 20
1032.6944262975
 30
0.0
 11
2492.9512626984
 21
1032.6944262975
 31
0.0
  0
LINE
  5
1BB
330
1F
100
AcDbEntity
  8
5
 48
0.027534
370
    60
100
AcDbLine
 10
2492.9512626984
 20
1032.6944262975
 30
0.0
 11
2492.9512626984
 21
1016.4380665704
 31
0.0
  0
LINE
  5
1BC
330
1F
100
AcDbEntity
  8
5
 48
0.032123
370
    60
100
AcDbLine
 10
2503.642340808
 20
1029.9850403898
 30
0.0
 11
2503.642340808
 21
1011.019294755
 31
0.0
  0
LINE
  5
1BD
330
1F
100
AcDbEntity
  8
5
 48
0.032123
370
    60
100
AcDbLine
 10
2541.8246752632
 20
1029.9850403898
 30
0.0
 11
2541.8246752632
 21
1011.019294755
 31
0.0
  0
LINE
  5
1BE
330
1F
100
AcDbEntity
  8
5
 48
0.032123
370
    60
100
AcDbLine
 10
2580.0067767456
 20
1029.9850403898
 30
0.0
 11
2580.0067767456
 21
1011.019294755
 31
0.0
  0
LINE
  5
1BF
330
1F
100
AcDbEntity
  8
5
 48
0.032123
370
    60
100
AcDbLine
 10
2618.1877716072
 20
1029.9850403898
 30
0.0
 11
2618.1877716072
 21
1011.019294755
 31
0.0
  0
LINE
  5
1C0
330
1F
100
AcDbEntity
  8
5
 48
0.032123
370
    60
100
AcDbLine
 10
2656.3701060624
 20
1029.9850403898
 30
0.0
 11
2656.3701060624
 21
1011.019294755
 31
0.0
  0
LINE
  5
1C1
330
1F
100
AcDbEntity
  8
5
 48
0.032123
370
    60
100
AcDbLine
 10
2694.5522221056
 20
1029.9850403898
 30
0.0
 11
2694.5522221056
 21
1011.019294755
 31
0.0
  0
LINE
  5
1C2
330
1F
100
AcDbEntity
  8
5
 48
0.018356
370
    60
100
AcDbLine
 10
2792.3017118616
 20
1032.6944262975
 30
0.0
 11
2781.610633752
 21
1032.6944262975
 31
0.0
  0
LINE
  5
1C3
330
1F
100
AcDbEntity
  8
5
 48
0.032123
370
    60
100
AcDbLine
 10
2732.734542
 20
1029.9850403898
 30
0.0
 11
2732.734542
 21
1011.019294755
 31
0.0
  0
LINE
  5
1C4
330
1F
100
AcDbEntity
  8
5
 48
0.032123
370
    60
100
AcDbLine
 10
2770.9195410816
 20
1029.9850403898
 30
0.0
 11
2770.9195410816
 21
1011.019294755
 31
0.0
  0
LINE
  5
1C5
330
1F
100
AcDbEntity
  8
5
 48
0.027534
370
    60
100
AcDbLine
 10
2781.610633752
 20
1032.6944262975
 30
0.0
 11
2781.610633752
 21
1016.4380665704
 31
0.0
  0
LINE
  5
1C6
330
1F
100
AcDbEntity
  8
5
 48
0.49561
370
    60
100
AcDbLine
 10
2494.0890436104
 20
1529.6614762485
 30
0.0
 11
2782.748414664
 21
1529.6614762485
 31
0.0
  0
LINE
  5
1C7
330
1F
100
AcDbEntity
  8
5
 48
0.49561
370
    60
100
AcDbLine
 10
2494.0890436104
 20
1258.722221265
 30
0.0
 11
2782.748414664
 21
1258.722221265
 31
0.0
  0
LINE
  5
1C8
330
1F
100
AcDbEntity
  8
5
370
    60
100
AcDbLine
 10
2483.39795094
 20
1459.2173393262
 30
0.0
 11
2793.4395073344
 21
1459.2173393262
 31
0.0
  0
LINE
  5
1C9
330
1F
100
AcDbEntity
  8
5
370
    60
100
AcDbLine
 10
2483.39795094
 20
1329.1665205506
 30
0.0
 11
2793.4395073344
 21
1329.1665205506
 31
0.0
  0
LINE
  5
1CA
330
1F
100
AcDbEntity
  8
5
 48
0.458899
370
    60
100
AcDbLine
 10
2695.6900030176
 20
1529.6614762485
 30
0.0
 11
2695.6900030176
 21
1258.722221265
 31
0.0
  0
LINE
  5
1CB
330
1F
100
AcDbEntity
  8
5
 48
0.458899
370
    60
100
AcDbLine
 10
2504.7801362808
 20
1529.6614762485
 30
0.0
 11
2504.7801362808
 21
1258.722221265
 31
0.0
  0
LINE
  5
1CC
330
1F
100
AcDbEntity
  8
5
 48
0.458899
370
    60
100
AcDbLine
 10
2542.9624561752
 20
1529.6614762485
 30
0.0
 11
2542.9624561752
 21
1258.722221265
 31
0.0
  0
LINE
  5
1CD
330
1F
100
AcDbEntity
  8
5
 48
0.458899
370
    60
100
AcDbLine
 10
2581.1445722184
 20
1529.6614762485
 30
0.0
 11
2581.1445722184
 21
1258.722221265
 31
0.0
  0
LINE
  5
1CE
330
1F
100
AcDbEntity
  8
5
 48
0.458899
370
    60
100
AcDbLine
 10
2619.32556708
 20
1529.6614762485
 30
0.0
 11
2619.32556708
 21
1258.722221265
 31
0.0
  0
LINE
  5
1CF
330
1F
100
AcDbEntity
  8
5
 48
0.458899
370
    60
100
AcDbLine
 10
2657.5078869744
 20
1529.6614762485
 30
0.0
 11
2657.5078869744
 21
1258.722221265
 31
0.0
  0
LINE
  5
1D0
330
1F
100
AcDbEntity
  8
5
 48
0.458899
370
    60
100
AcDbLine
 10
2772.0573219936
 20
1529.6614762485
 30
0.0
 11
2772.0573219936
 21
1258.722221265
 31
0.0
  0
LINE
  5
1D1
330
1F
100
AcDbEntity
  8
5
 48
0.458899
370
    60
100
AcDbLine
 10
2733.8723374728
 20
1529.6614762485
 30
0.0
 11
2733.8723374728
 21
1258.722221265
 31
0.0
  0
DIMENSION
  5
242
330
1F
100
AcDbEntity
  8
0
370
    25
100
AcDbDimension
  2
*D25
 10
2843.934015451997
 20
1258.722221265
 30
0.0
 11
2831.934015451997
 21
1394.19184875675
 31
0.0
 70
    32
  1
271
 71
     5
 41
2.5
 42
270.9392549834999
  3
ISO-25
100
AcDbAlignedDimension
 13
2676.417189420255
 23
1529.6614762485
 33
0.0
 14
2676.417189420255
 24
1258.722221265
 34
0.0
 50
90.0
100
AcDbRotatedDimension
1001
ACAD
1000
DSTYLE
1002
{
1070
    41
1040
10.0
1070
   140
1040
14.0
1070
   147
1040
5.0
1070
   176
1070
     7
1070
   177
1070
     7
1002
}
  0
DIMENSION
  5
26F
330
1F
100
AcDbEntity
  8
0
370
    25
100
AcDbDimension
  2
*D29
 10
2793.4395073344
 20
1195.027966691323
 30
0.0
 11
2638.4187291372
 21
1207.027966691323
 31
0.0
 70
    32
  1
310
 71
     5
 41
2.5
 42
310.0415563943998
  3
ISO-25
100
AcDbAlignedDimension
 13
2483.39795094
 23
1329.1665205506
 33
0.0
 14
2793.4395073344
 24
1329.1665205506
 34
0.0
100
AcDbRotatedDimension
1001
ACAD
1000
DSTYLE
1002
{
1070
    41
1040
10.0
1070
   140
1040
14.0
1070
   147
1040
5.0
1070
   176
1070
     7
1070
   177
1070
     7
1002
}
  0
DIMENSION
  5
29C
330
1F
100
AcDbEntity
  8
0
370
    25
100
AcDbDimension
  2
*D34
 10
2428.914804829284
 20
1016.4380665704
 30
0.0
 11
2416.914804829284
 21
1063.016404347192
 31
0.0
 70
   160
  1
16
 71
     5
 41
2.5
 42
16.25635972710006
  3
ISO-25
100
AcDbAlignedDimension
 13
2487.6057163632
 23
1032.6944262975
 33
0.0
 14
2561.6140565659
 24
1016.4380665704
 34
0.0
 50
90.0
100
AcDbRotatedDimension
1001
ACAD
1000
DSTYLE
1002
{
1070
    41
1040
10.0
1070
   140
1040
14.0
1070
   147
1040
5.0
1070
   176
1070
     7
1070
   177
1070
     7
1002
}
  0
VIEWPORT
  5
BB
330
73
100
AcDbEntity
 67
     1
  8
0
100
AcDbViewport
 10
7.8
 20
4.5
 30
0.0
 40
15.64
 41
9.0
 68
     1
 69
     1
 12
6.0
 22
4.5
 13
0.0
 23
0.0
 14
0.5
 24
0.5
 15
0.5
 25
0.5
 16
0.0
 26
0.0
 36
1.0
 17
0.0
 27
0.0
 37
0.0
 42
50.0
 43
0.0
 44
0.0
 45
12.0
 50
0.0
 51
0.0
 72
   100
 90
   557152
  1

281
     0
 71
     1
 74
     0
110
0.0
120
0.0
130
0.0
111
1.0
121
0.0
131
0.0
112
0.0
122
1.0
132
0.0
 79
     0
146
0.0
  0
ENDSEC
  0
SECTION
  2
OBJECTS
  0
DICTIONARY
  5
C
330
0
100
AcDbDictionary
281
     1
  3
ACAD_COLOR
350
6C
  3
ACAD_GROUP
350
D
  3
ACAD_LAYOUT
350
1A
  3
ACAD_MATERIAL
350
6B
  3
ACAD_MLEADERSTYLE
350
32D
  3
ACAD_MLINESTYLE
350
17
  3
ACAD_PLOTSETTINGS
350
19
  3
ACAD_PLOTSTYLENAME
350
E
  3
ACAD_SCALELIST
350
99
  3
ACAD_TABLESTYLE
350
92
  3
ACDBHEADERROUNDTRIPXREC
350
32E
  3
AcDbVariableDictionary
350
59
  3
DWGPROPS
350
331
  0
DICTIONARY
  5
6C
102
{ACAD_REACTORS
330
C
102
}
330
C
100
AcDbDictionary
281
     1
  0
DICTIONARY
  5
D
102
{ACAD_REACTORS
330
C
102
}
330
C
100
AcDbDictionary
281
     1
  0
DICTIONARY
  5
1A
102
{ACAD_REACTORS
330
C
102
}
330
C
100
AcDbDictionary
281
     1
  3
Layout1
350
74
  3
Layout2
350
2E5
  3
Model
350
22
  0
DICTIONARY
  5
6B
102
{ACAD_REACTORS
330
C
102
}
330
C
100
AcDbDictionary
281
     1
  0
DICTIONARY
  5
32D
102
{ACAD_REACTORS
330
C
102
}
330
C
100
AcDbDictionary
281
     1
  0
DICTIONARY
  5
17
102
{ACAD_REACTORS
330
C
102
}
330
C
100
AcDbDictionary
281
     1
  3
Standard
350
18
  0
DICTIONARY
  5
19
102
{ACAD_REACTORS
330
C
102
}
330
C
100
AcDbDictionary
281
     1
  0
ACDBDICTIONARYWDFLT
  5
E
102
{ACAD_REACTORS
330
C
102
}
330
C
100
AcDbDictionary
281
     1
  3
Normal
350
F
100
AcDbDictionaryWithDefault
340
F
  0
DICTIONARY
  5
99
102
{ACAD_REACTORS
330
C
102
}
330
C
100
AcDbDictionary
281
     1
  3
A0
350
D5
  3
A1
350
D6
  3
A2
350
D7
  3
A3
350
D8
  3
A4
350
D9
  3
A5
350
DA
  3
A6
350
DB
  3
A7
350
DC
  3
A8
350
DD
  3
A9
350
DE
  3
B0
350
DF
  3
B1
350
E0
  3
B2
350
E1
  3
B3
350
E2
  3
B4
350
E3
  3
B5
350
E4
  3
B6
350
E5
  3
B7
350
E6
  3
B8
350
E7
  3
B9
350
E8
  3
C0
350
E9
  3
C1
350
EA
  3
C2
350
EB
  3
C3
350
EC
  3
C4
350
ED
  3
C5
350
EE
  3
C6
350
EF
  3
C7
350
F0
  3
C8
350
F1
  3
C9
350
F2
  3
D0
350
F3
  3
D1
350
F4
  3
D2
350
F5
  0
DICTIONARY
  5
92
102
{ACAD_REACTORS
330
C
102
}
330
C
100
AcDbDictionary
281
     1
  0
DICTIONARY
  5
32E
102
{ACAD_REACTORS
330
C
102
}
330
C
100
AcDbDictionary
281
     1
  3
COLORDICT
350
32F
  3
MATERIALDICT
350
330
  0
DICTIONARY
  5
59
102
{ACAD_REACTORS
330
C
102
}
330
C
100
AcDbDictionary
281
     1
  3
CTABLESTYLE
350
98
  3
DIMASSOC
350
5A
  3
HIDETEXT
350
5E
  0
XRECORD
  5
331
102
{ACAD_REACTORS
330
C
102
}
330
C
100
AcDbXrecord
280
     1
  1
DWGPROPS COOKIE
  2

  3

  4

  6

  7

  8
BelottiMc
  9

300
=
301
=
302
=
303
=
304
=
305
=
306
=
307
=
308
=
309
=
 40
0.0
 41
2455098.625943102
 42
2455098.667609792
  1

 90
        0
  0
LAYOUT
  5
74
102
{ACAD_REACTORS
330
1A
102
}
330
1A
100
AcDbPlotSettings
  1

  2
ProgeSOFT PDF Wizard
  4
A4
  6

 40
5.926666666666667
 41
6.011333333333317
 42
6.095999999999985
 43
5.926666666666667
 44
210.0
 45
297.0
 46
88.56200000000001
 47
136.531
 48
0.0
 49
0.0
140
0.0
141
0.0
142
1.0
143
1.0
 70
   692
 72
     1
 73
     0
 74
     0
  7

 75
    16
147
1.0
148
4.426666666666668
149
1.5
100
AcDbLayout
  1
Layout1
 70
     1
 71
     1
 10
0.0
 20
0.0
 11
0.0
 21
0.0
 12
0.0
 22
0.0
 32
0.0
 14
0.0
 24
0.0
 34
0.0
 15
0.0
 25
0.0
 35
0.0
146
0.0
 13
0.0
 23
0.0
 33
0.0
 16
1.0
 26
0.0
 36
0.0
 17
0.0
 27
1.0
 37
0.0
 76
     0
330
D1
331
32C
1001
PROGE_PRINT_SETTINGS
1070
    73
1070
     1
  0
LAYOUT
  5
2E5
102
{ACAD_REACTORS
330
1A
102
}
330
1A
100
AcDbPlotSettings
  1

  2
ProgeSOFT PDF Wizard
  4
A4
  6

 40
5.926666666666667
 41
6.011333333333317
 42
6.095999999999985
 43
5.926666666666667
 44
210.0
 45
297.0
 46
88.562
 47
136.531
 48
0.0
 49
0.0
140
0.0
141
0.0
142
1.0
143
1.0
 70
   692
 72
     1
 73
     0
 74
     0
  7

 75
    16
147
1.0
148
0.0
149
0.0
100
AcDbLayout
  1
Layout2
 70
     1
 71
     2
 10
0.0
 20
0.0
 11
12.0
 21
9.0
 12
0.0
 22
0.0
 32
0.0
 14
0.0
 24
0.0
 34
0.0
 15
12.0
 25
9.0
 35
0.0
146
0.0
 13
0.0
 23
0.0
 33
0.0
 16
1.0
 26
0.0
 36
0.0
 17
0.0
 27
1.0
 37
0.0
 76
     0
330
73
331
BB
1001
PROGE_PRINT_SETTINGS
1070
    73
1070
     1
  0
LAYOUT
  5
22
102
{ACAD_REACTORS
330
1A
102
}
330
1A
100
AcDbPlotSettings
  1

  2
none_device
  4
Letter_(8.50_x_11.00_Inches)
  6

 40
6.349999904632568
 41
6.349999904632568
 42
6.350006103515625
 43
6.350006103515625
 44
215.8999938964844
 45
279.3999938964844
 46
0.0
 47
0.0
 48
0.0
 49
0.0
140
0.0
141
0.0
142
1.0
143
8.03971739498117
 70
 11952
 72
     1
 73
     1
 74
     0
  7

 75
     0
147
0.1243824814817812
148
0.1311165230791651
149
0.096403374003771
100
AcDbLayout
  1
Model
 70
     1
 71
     0
 10
0.0
 20
0.0
 11
0.0
 21
0.0
 12
0.0
 22
0.0
 32
0.0
 14
2409.914804829284
 24
996.4380665704
 34
0.0
 15
2845.600682118663
 25
1529.6614762485
 35
0.0
146
0.0
 13
0.0
 23
0.0
 33
0.0
 16
1.0
 26
0.0
 36
0.0
 17
0.0
 27
1.0
 37
0.0
 76
     0
330
1F
331
97
  0
MLINESTYLE
  5
18
102
{ACAD_REACTORS
330
17
102
}
330
17
100
AcDbMlineStyle
  2
STANDARD
 70
     0
  3

 62
   256
 51
90.0
 52
90.0
 71
     2
 49
0.5
 62
   256
  6
BYLAYER
 49
-0.5
 62
   256
  6
BYLAYER
  0
ACDBPLACEHOLDER
  5
F
102
{ACAD_REACTORS
330
E
102
}
330
E
  0
SCALE
  5
D5
102
{ACAD_REACTORS
330
99
102
}
330
99
100
AcDbScale
 70
     0
300
1:1
140
1.0
141
1.0
290
     1
  0
SCALE
  5
D6
102
{ACAD_REACTORS
330
99
102
}
330
99
100
AcDbScale
 70
     0
300
1:2
140
1.0
141
2.0
290
     0
  0
SCALE
  5
D7
102
{ACAD_REACTORS
330
99
102
}
330
99
100
AcDbScale
 70
     0
300
1:4
140
1.0
141
4.0
290
     0
  0
SCALE
  5
D8
102
{ACAD_REACTORS
330
99
102
}
330
99
100
AcDbScale
 70
     0
300
1:5
140
1.0
141
5.0
290
     0
  0
SCALE
  5
D9
102
{ACAD_REACTORS
330
99
102
}
330
99
100
AcDbScale
 70
     0
300
1:8
140
1.0
141
8.0
290
     0
  0
SCALE
  5
DA
102
{ACAD_REACTORS
330
99
102
}
330
99
100
AcDbScale
 70
     0
300
1:10
140
1.0
141
10.0
290
     0
  0
SCALE
  5
DB
102
{ACAD_REACTORS
330
99
102
}
330
99
100
AcDbScale
 70
     0
300
1:16
140
1.0
141
16.0
290
     0
  0
SCALE
  5
DC
102
{ACAD_REACTORS
330
99
102
}
330
99
100
AcDbScale
 70
     0
300
1:20
140
1.0
141
20.0
290
     0
  0
SCALE
  5
DD
102
{ACAD_REACTORS
330
99
102
}
330
99
100
AcDbScale
 70
     0
300
1:30
140
1.0
141
30.0
290
     0
  0
SCALE
  5
DE
102
{ACAD_REACTORS
330
99
102
}
330
99
100
AcDbScale
 70
     0
300
1:40
140
1.0
141
40.0
290
     0
  0
SCALE
  5
DF
102
{ACAD_REACTORS
330
99
102
}
330
99
100
AcDbScale
 70
     0
300
1:50
140
1.0
141
50.0
290
     0
  0
SCALE
  5
E0
102
{ACAD_REACTORS
330
99
102
}
330
99
100
AcDbScale
 70
     0
300
1:100
140
1.0
141
100.0
290
     0
  0
SCALE
  5
E1
102
{ACAD_REACTORS
330
99
102
}
330
99
100
AcDbScale
 70
     0
300
2:1
140
2.0
141
1.0
290
     0
  0
SCALE
  5
E2
102
{ACAD_REACTORS
330
99
102
}
330
99
100
AcDbScale
 70
     0
300
4:1
140
4.0
141
1.0
290
     0
  0
SCALE
  5
E3
102
{ACAD_REACTORS
330
99
102
}
330
99
100
AcDbScale
 70
     0
300
8:1
140
8.0
141
1.0
290
     0
  0
SCALE
  5
E4
102
{ACAD_REACTORS
330
99
102
}
330
99
100
AcDbScale
 70
     0
300
10:1
140
10.0
141
1.0
290
     0
  0
SCALE
  5
E5
102
{ACAD_REACTORS
330
99
102
}
330
99
100
AcDbScale
 70
     0
300
100:1
140
100.0
141
1.0
290
     0
  0
SCALE
  5
E6
102
{ACAD_REACTORS
330
99
102
}
330
99
100
AcDbScale
 70
     0
300
1/128" = 1'-0"
140
0.0078125
141
12.0
290
     0
  0
SCALE
  5
E7
102
{ACAD_REACTORS
330
99
102
}
330
99
100
AcDbScale
 70
     0
300
1/64" = 1'-0"
140
0.015625
141
12.0
290
     0
  0
SCALE
  5
E8
102
{ACAD_REACTORS
330
99
102
}
330
99
100
AcDbScale
 70
     0
300
1/32" = 1'-0"
140
0.03125
141
12.0
290
     0
  0
SCALE
  5
E9
102
{ACAD_REACTORS
330
99
102
}
330
99
100
AcDbScale
 70
     0
300
1/16" = 1'-0"
140
0.0625
141
12.0
290
     0
  0
SCALE
  5
EA
102
{ACAD_REACTORS
330
99
102
}
330
99
100
AcDbScale
 70
     0
300
3/32" = 1'-0"
140
0.09375
141
12.0
290
     0
  0
SCALE
  5
EB
102
{ACAD_REACTORS
330
99
102
}
330
99
100
AcDbScale
 70
     0
300
1/8" = 1'-0"
140
0.125
141
12.0
290
     0
  0
SCALE
  5
EC
102
{ACAD_REACTORS
330
99
102
}
330
99
100
AcDbScale
 70
     0
300
3/16" = 1'-0"
140
0.1875
141
12.0
290
     0
  0
SCALE
  5
ED
102
{ACAD_REACTORS
330
99
102
}
330
99
100
AcDbScale
 70
     0
300
1/4" = 1'-0"
140
0.25
141
12.0
290
     0
  0
SCALE
  5
EE
102
{ACAD_REACTORS
330
99
102
}
330
99
100
AcDbScale
 70
     0
300
3/8" = 1'-0"
140
0.375
141
12.0
290
     0
  0
SCALE
  5
EF
102
{ACAD_REACTORS
330
99
102
}
330
99
100
AcDbScale
 70
     0
300
1/2" = 1'-0"
140
0.5
141
12.0
290
     0
  0
SCALE
  5
F0
102
{ACAD_REACTORS
330
99
102
}
330
99
100
AcDbScale
 70
     0
300
3/4" = 1'-0"
140
0.75
141
12.0
290
     0
  0
SCALE
  5
F1
102
{ACAD_REACTORS
330
99
102
}
330
99
100
AcDbScale
 70
     0
300
1" = 1'-0"
140
1.0
141
12.0
290
     0
  0
SCALE
  5
F2
102
{ACAD_REACTORS
330
99
102
}
330
99
100
AcDbScale
 70
     0
300
1-1/2" = 1'-0"
140
1.5
141
12.0
290
     0
  0
SCALE
  5
F3
102
{ACAD_REACTORS
330
99
102
}
330
99
100
AcDbScale
 70
     0
300
3" = 1'-0"
140
3.0
141
12.0
290
     0
  0
SCALE
  5
F4
102
{ACAD_REACTORS
330
99
102
}
330
99
100
AcDbScale
 70
     0
300
6" = 1'-0"
140
6.0
141
12.0
290
     0
  0
SCALE
  5
F5
102
{ACAD_REACTORS
330
99
102
}
330
99
100
AcDbScale
 70
     0
300
1'-0" = 1'-0"
140
12.0
141
12.0
290
     0
  0
XRECORD
  5
32F
102
{ACAD_REACTORS
330
32E
102
}
330
32E
100
AcDbXrecord
280
     1
340
6C
  0
XRECORD
  5
330
102
{ACAD_REACTORS
330
32E
102
}
330
32E
100
AcDbXrecord
280
     1
340
6B
  0
DICTIONARYVAR
  5
98
102
{ACAD_REACTORS
330
59
102
}
330
59
100
DictionaryVariables
280
     0
  1
Standard
  0
DICTIONARYVAR
  5
5A
102
{ACAD_REACTORS
330
59
102
}
330
59
100
DictionaryVariables
280
     0
  1
2
  0
DICTIONARYVAR
  5
5E
102
{ACAD_REACTORS
330
59
102
}
330
59
100
DictionaryVariables
280
     0
  1
1
  0
ENDSEC
  0
EOF
