  0
SECTION
  2
HEADER
  9
$ACADVER
  1
AC1015
  9
$ACADMAINTVER
 70
     6
  9
$DWGCODEPAGE
  3
ANSI_1252
  9
$INSBASE
 10
0.0
 20
0.0
 30
0.0
  9
$EXTMIN
 10
92.56595234571556
 20
62.24678111587984
 30
0.0
  9
$EXTMAX
 10
974.4929801301942
 20
583.6895696353527
 30
0.0
  9
$LIMMIN
 10
0.0
 20
0.0
  9
$LIMMAX
 10
0.0
 20
0.0
  9
$ORTHOMODE
 70
     0
  9
$REGENMODE
 70
     1
  9
$FILLMODE
 70
     1
  9
$QTEXTMODE
 70
     0
  9
$MIRRTEXT
 70
     0
  9
$LTSCALE
 40
1.0
  9
$ATTMODE
 70
     1
  9
$TEXTSIZE
 40
2.5
  9
$TRACEWID
 40
1.0
  9
$TEXTSTYLE
  7
Standard
  9
$CLAYER
  8
0
  9
$CELTYPE
  6
ByLayer
  9
$CECOLOR
 62
   256
  9
$CELTSCALE
 40
1.0
  9
$DISPSILH
 70
     0
  9
$DIMSCALE
 40
1.0
  9
$DIMASZ
 40
2.5
  9
$DIMEXO
 40
0.625
  9
$DIMDLI
 40
3.75
  9
$DIMRND
 40
0.0
  9
$DIMDLE
 40
0.0
  9
$DIMEXE
 40
1.25
  9
$DIMTP
 40
0.0
  9
$DIMTM
 40
0.0
  9
$DIMTXT
 40
2.5
  9
$DIMCEN
 40
2.5
  9
$DIMTSZ
 40
0.0
  9
$DIMTOL
 70
     0
  9
$DIMLIM
 70
     0
  9
$DIMTIH
 70
     0
  9
$DIMTOH
 70
     0
  9
$DIMSE1
 70
     0
  9
$DIMSE2
 70
     0
  9
$DIMTAD
 70
     1
  9
$DIMZIN
 70
     8
  9
$DIMBLK
  1

  9
$DIMASO
 70
     1
  9
$DIMSHO
 70
     1
  9
$DIMPOST
  1

  9
$DIMAPOST
  1

  9
$DIMALT
 70
     0
  9
$DIMALTD
 70
     3
  9
$DIMALTF
 40
0.03937007874016
  9
$DIMLFAC
 40
1.0
  9
$DIMTOFL
 70
     1
  9
$DIMTVP
 40
0.0
  9
$DIMTIX
 70
     0
  9
$DIMSOXD
 70
     0
  9
$DIMSAH
 70
     0
  9
$DIMBLK1
  1

  9
$DIMBLK2
  1

  9
$DIMSTYLE
  2
ISO-25
  9
$DIMCLRD
 70
     0
  9
$DIMCLRE
 70
     0
  9
$DIMCLRT
 70
     0
  9
$DIMTFAC
 40
1.0
  9
$DIMGAP
 40
0.625
  9
$DIMJUST
 70
     0
  9
$DIMSD1
 70
     0
  9
$DIMSD2
 70
     0
  9
$DIMTOLJ
 70
     0
  9
$DIMTZIN
 70
     8
  9
$DIMALTZ
 70
     0
  9
$DIMALTTZ
 70
     0
  9
$DIMUPT
 70
     0
  9
$DIMDEC
 70
     2
  9
$DIMTDEC
 70
     2
  9
$DIMALTU
 70
     2
  9
$DIMALTTD
 70
     3
  9
$DIMTXSTY
  7
Standard
  9
$DIMAUNIT
 70
     0
  9
$DIMADEC
 70
     0
  9
$DIMALTRND
 40
0.0
  9
$DIMAZIN
 70
     0
  9
$DIMDSEP
 70
    44
  9
$DIMATFIT
 70
     3
  9
$DIMFRAC
 70
     0
  9
$DIMLDRBLK
  1

  9
$DIMLUNIT
 70
     2
  9
$DIMLWD
 70
    -2
  9
$DIMLWE
 70
    -2
  9
$DIMTMOVE
 70
     0
  9
$LUNITS
 70
     2
  9
$LUPREC
 70
     4
  9
$SKETCHINC
 40
1.0
  9
$FILLETRAD
 40
0.0
  9
$AUNITS
 70
     0
  9
$AUPREC
 70
     0
  9
$MENU
  1
.
  9
$ELEVATION
 40
0.0
  9
$PELEVATION
 40
0.0
  9
$THICKNESS
 40
0.0
  9
$LIMCHECK
 70
     0
  9
$CHAMFERA
 40
0.0
  9
$CHAMFERB
 40
0.0
  9
$CHAMFERC
 40
0.0
  9
$CHAMFERD
 40
0.0
  9
$SKPOLY
 70
     0
  9
$TDCREATE
 40
2455098.698113588
  9
$TDUCREATE
 40
2455098.614780255
  9
$TDUPDATE
 40
2455098.739780243
  9
$TDUUPDATE
 40
2455098.65644691
  9
$TDINDWG
 40
0.0309655093
  9
$TDUSRTIMER
 40
0.0309515625
  9
$USRTIMER
 70
     1
  9
$ANGBASE
 50
0.0
  9
$ANGDIR
 70
     0
  9
$PDMODE
 70
     0
  9
$PDSIZE
 40
0.0
  9
$PLINEWID
 40
0.0
  9
$SPLFRAME
 70
     0
  9
$SPLINETYPE
 70
     6
  9
$SPLINESEGS
 70
     8
  9
$HANDSEED
  5
3CB
  9
$SURFTAB1
 70
     6
  9
$SURFTAB2
 70
     6
  9
$SURFTYPE
 70
     6
  9
$SURFU
 70
     6
  9
$SURFV
 70
     6
  9
$UCSBASE
  2

  9
$UCSNAME
  2

  9
$UCSORG
 10
0.0
 20
0.0
 30
0.0
  9
$UCSXDIR
 10
1.0
 20
0.0
 30
0.0
  9
$UCSYDIR
 10
0.0
 20
1.0
 30
0.0
  9
$UCSORTHOREF
  2

  9
$UCSORTHOVIEW
 70
     0
  9
$UCSORGTOP
 10
0.0
 20
0.0
 30
0.0
  9
$UCSORGBOTTOM
 10
0.0
 20
0.0
 30
0.0
  9
$UCSORGLEFT
 10
0.0
 20
0.0
 30
0.0
  9
$UCSORGRIGHT
 10
0.0
 20
0.0
 30
0.0
  9
$UCSORGFRONT
 10
0.0
 20
0.0
 30
0.0
  9
$UCSORGBACK
 10
0.0
 20
0.0
 30
0.0
  9
$PUCSBASE
  2

  9
$PUCSNAME
  2

  9
$PUCSORG
 10
0.0
 20
0.0
 30
0.0
  9
$PUCSXDIR
 10
1.0
 20
0.0
 30
0.0
  9
$PUCSYDIR
 10
0.0
 20
1.0
 30
0.0
  9
$PUCSORTHOREF
  2

  9
$PUCSORTHOVIEW
 70
     0
  9
$PUCSORGTOP
 10
0.0
 20
0.0
 30
0.0
  9
$PUCSORGBOTTOM
 10
0.0
 20
0.0
 30
0.0
  9
$PUCSORGLEFT
 10
0.0
 20
0.0
 30
0.0
  9
$PUCSORGRIGHT
 10
0.0
 20
0.0
 30
0.0
  9
$PUCSORGFRONT
 10
0.0
 20
0.0
 30
0.0
  9
$PUCSORGBACK
 10
0.0
 20
0.0
 30
0.0
  9
$USERI1
 70
     0
  9
$USERI2
 70
     0
  9
$USERI3
 70
     0
  9
$USERI4
 70
     0
  9
$USERI5
 70
     0
  9
$USERR1
 40
0.0
  9
$USERR2
 40
0.0
  9
$USERR3
 40
0.0
  9
$USERR4
 40
0.0
  9
$USERR5
 40
0.0
  9
$WORLDVIEW
 70
     1
  9
$SHADEDGE
 70
     3
  9
$SHADEDIF
 70
    70
  9
$TILEMODE
 70
     1
  9
$MAXACTVP
 70
    64
  9
$PINSBASE
 10
0.0
 20
0.0
 30
0.0
  9
$PLIMCHECK
 70
     0
  9
$PEXTMIN
 10
0.0
 20
0.0
 30
0.0
  9
$PEXTMAX
 10
12.0
 20
9.0
 30
0.0
  9
$PLIMMIN
 10
0.0
 20
0.0
  9
$PLIMMAX
 10
12.0
 20
9.0
  9
$UNITMODE
 70
     0
  9
$VISRETAIN
 70
     1
  9
$PLINEGEN
 70
     0
  9
$PSLTSCALE
 70
     1
  9
$TREEDEPTH
 70
  3020
  9
$CMLSTYLE
  2
Standard
  9
$CMLJUST
 70
     0
  9
$CMLSCALE
 40
20.0
  9
$PROXYGRAPHICS
 70
     1
  9
$MEASUREMENT
 70
     1
  9
$CELWEIGHT
370
    -1
  9
$ENDCAPS
280
     0
  9
$JOINSTYLE
280
     0
  9
$LWDISPLAY
290
     0
  9
$INSUNITS
 70
     4
  9
$HYPERLINKBASE
  1

  9
$STYLESHEET
  1

  9
$XEDIT
290
     1
  9
$CEPSNTYPE
380
     0
  9
$PSTYLEMODE
290
     1
  9
$FINGERPRINTGUID
  2
{5559452E-1E62-4159-8551-BF76FFF3E7E8}
  9
$VERSIONGUID
  2
{3CEB9EF8-4431-4551-B596-6734A9F966A9}
  9
$EXTNAMES
290
     1
  9
$PSVPSCALE
 40
0.0
  9
$OLESTARTUP
290
     0
  0
ENDSEC
  0
SECTION
  2
CLASSES
  0
CLASS
  1
ACDBDICTIONARYWDFLT
  2
AcDbDictionaryWithDefault
  3
ObjectDBX Classes
 90
        0
280
     0
281
     0
  0
CLASS
  1
ACDBPLACEHOLDER
  2
AcDbPlaceHolder
  3
ObjectDBX Classes
 90
        0
280
     0
281
     0
  0
CLASS
  1
LAYOUT
  2
AcDbLayout
  3
ObjectDBX Classes
 90
        0
280
     0
281
     0
  0
CLASS
  1
DICTIONARYVAR
  2
AcDbDictionaryVar
  3
ObjectDBX Classes
 90
        0
280
     0
281
     0
  0
CLASS
  1
TABLESTYLE
  2
AcDbTableStyle
  3
ObjectDBX Classes
 90
     4095
280
     0
281
     0
  0
CLASS
  1
SCALE
  2
AcDbScale
  3
ObjectDBX Classes
 90
     1153
280
     0
281
     0
  0
ENDSEC
  0
SECTION
  2
TABLES
  0
TABLE
  2
VPORT
  5
8
330
0
100
AcDbSymbolTable
 70
     2
  0
VPORT
  5
97
330
8
100
AcDbSymbolTableRecord
100
AcDbViewportTableRecord
  2
*Active
 70
     0
 10
0.0
 20
0.0
 11
1.0
 21
1.0
 12
481.0551867626178
 22
324.215923597132
 13
0.0
 23
0.0
 14
10.0
 24
10.0
 15
10.0
 25
10.0
 16
0.0
 26
0.0
 36
1.0
 17
0.0
 27
0.0
 37
0.0
 40
986.1165415770641
 41
1.664827586206897
 42
50.0
 43
0.0
 44
0.0
 50
0.0
 51
0.0
 71
     0
 72
  1000
 73
     1
 74
     3
 75
     0
 76
     0
 77
     0
 78
     0
281
     0
 65
     1
110
0.0
120
0.0
130
0.0
111
1.0
121
0.0
131
0.0
112
0.0
122
1.0
132
0.0
 79
     0
146
0.0
  0
ENDTAB
  0
TABLE
  2
LTYPE
  5
5
330
0
100
AcDbSymbolTable
 70
     4
  0
LTYPE
  5
14
330
5
100
AcDbSymbolTableRecord
100
AcDbLinetypeTableRecord
  2
ByBlock
 70
     0
  3

 72
    65
 73
     0
 40
0.0
  0
LTYPE
  5
15
330
5
100
AcDbSymbolTableRecord
100
AcDbLinetypeTableRecord
  2
ByLayer
 70
     0
  3

 72
    65
 73
     0
 40
0.0
  0
LTYPE
  5
16
330
5
100
AcDbSymbolTableRecord
100
AcDbLinetypeTableRecord
  2
Continuous
 70
     0
  3
Solid line
 72
    65
 73
     0
 40
0.0
  0
LTYPE
  5
3AA
330
5
100
AcDbSymbolTableRecord
100
AcDbLinetypeTableRecord
  2
DASHDOT
 70
     0
  3
 __ . __ . __ . __ . __ . __ . __ . 
 72
    65
 73
     4
 40
18.5
 49
12.0
 74
     0
 49
-3.0
 74
     0
 49
0.5
 74
     0
 49
-3.0
 74
     0
  0
LTYPE
  5
3AB
330
5
100
AcDbSymbolTableRecord
100
AcDbLinetypeTableRecord
  2
DOT
 70
     0
  3
 . . . . . . . . . . . . . . . .
 72
    65
 73
     2
 40
3.5
 49
0.5
 74
     0
 49
-3.0
 74
     0
  0
LTYPE
  5
3AC
330
5
100
AcDbSymbolTableRecord
100
AcDbLinetypeTableRecord
  2
SOLID
 70
     0
  3

 72
    65
 73
     0
 40
0.0
  0
ENDTAB
  0
TABLE
  2
LAYER
  5
2
330
0
100
AcDbSymbolTable
 70
     3
  0
LAYER
  5
10
330
2
100
AcDbSymbolTableRecord
100
AcDbLayerTableRecord
  2
0
 70
     0
 62
     7
  6
Continuous
370
    -3
390
F
  0
LAYER
  5
FB
330
2
100
AcDbSymbolTableRecord
100
AcDbLayerTableRecord
  2
STANDARD_LAYER
 70
     0
 62
     7
  6
SOLID
370
    -3
390
F
  0
LAYER
  5
339
330
2
100
AcDbSymbolTableRecord
100
AcDbLayerTableRecord
  2
DEFPOINTS
 70
     0
 62
     7
  6
Continuous
290
     0
370
    -3
390
F
  0
ENDTAB
  0
TABLE
  2
STYLE
  5
3
330
0
100
AcDbSymbolTable
 70
     1
  0
STYLE
  5
11
330
3
100
AcDbSymbolTableRecord
100
AcDbTextStyleTableRecord
  2
Standard
 70
     0
 40
0.0
 41
1.0
 50
0.0
 71
     0
 42
2.5
  3
txt
  4

  0
ENDTAB
  0
TABLE
  2
VIEW
  5
6
330
0
100
AcDbSymbolTable
 70
     0
  0
ENDTAB
  0
TABLE
  2
UCS
  5
7
330
0
100
AcDbSymbolTable
 70
     0
  0
ENDTAB
  0
TABLE
  2
APPID
  5
9
330
0
100
AcDbSymbolTable
 70
     2
  0
APPID
  5
12
330
9
100
AcDbSymbolTableRecord
100
AcDbRegAppTableRecord
  2
ACAD
 70
     0
  0
APPID
  5
3A9
330
9
100
AcDbSymbolTableRecord
100
AcDbRegAppTableRecord
  2
PROGE_PRINT_SETTINGS
 70
     0
  0
ENDTAB
  0
TABLE
  2
DIMSTYLE
  5
A
330
0
100
AcDbSymbolTable
 70
     2
100
AcDbDimStyleTable
  0
DIMSTYLE
105
27
102
{ACAD_REACTORS
330
32E
330
32F
330
330
330
331
330
332
102
}
330
A
100
AcDbSymbolTableRecord
100
AcDbDimStyleTableRecord
  2
Standard
 70
     0
278
     0
340
11
  0
DIMSTYLE
105
29
330
A
100
AcDbSymbolTableRecord
100
AcDbDimStyleTableRecord
  2
ISO-25
 70
     0
 41
2.5
 42
0.625
 43
3.75
 44
1.25
 73
     0
 74
     0
 77
     1
 78
     8
140
2.5
141
2.5
143
0.03937007874016
147
0.625
171
     3
172
     1
271
     2
272
     2
274
     3
278
    44
283
     0
284
     8
340
11
  0
ENDTAB
  0
TABLE
  2
BLOCK_RECORD
  5
1
330
0
100
AcDbSymbolTable
 70
    11
  0
BLOCK_RECORD
  5
1F
330
1
100
AcDbSymbolTableRecord
100
AcDbBlockTableRecord
  2
*Model_Space
340
22
  0
BLOCK_RECORD
  5
73
330
1
100
AcDbSymbolTableRecord
100
AcDbBlockTableRecord
  2
*Paper_Space
340
3AE
  0
BLOCK_RECORD
  5
D1
330
1
100
AcDbSymbolTableRecord
100
AcDbBlockTableRecord
  2
*Paper_Space0
340
74
  0
BLOCK_RECORD
  5
344
330
1
100
AcDbSymbolTableRecord
100
AcDbBlockTableRecord
  2
*D1
340
0
  0
BLOCK_RECORD
  5
34F
330
1
100
AcDbSymbolTableRecord
100
AcDbBlockTableRecord
  2
*D2
340
0
  0
BLOCK_RECORD
  5
35A
330
1
100
AcDbSymbolTableRecord
100
AcDbBlockTableRecord
  2
*D3
340
0
  0
BLOCK_RECORD
  5
365
330
1
100
AcDbSymbolTableRecord
100
AcDbBlockTableRecord
  2
*D4
340
0
  0
BLOCK_RECORD
  5
370
330
1
100
AcDbSymbolTableRecord
100
AcDbBlockTableRecord
  2
*D5
340
0
  0
BLOCK_RECORD
  5
37B
330
1
100
AcDbSymbolTableRecord
100
AcDbBlockTableRecord
  2
*D6
340
0
  0
BLOCK_RECORD
  5
386
330
1
100
AcDbSymbolTableRecord
100
AcDbBlockTableRecord
  2
*D7
340
0
  0
BLOCK_RECORD
  5
391
330
1
100
AcDbSymbolTableRecord
100
AcDbBlockTableRecord
  2
*D8
340
0
  0
BLOCK_RECORD
  5
39C
330
1
100
AcDbSymbolTableRecord
100
AcDbBlockTableRecord
  2
*D9
340
0
  0
BLOCK_RECORD
  5
3A7
330
1
100
AcDbSymbolTableRecord
100
AcDbBlockTableRecord
  2
*D10
340
0
  0
ENDTAB
  0
ENDSEC
  0
SECTION
  2
BLOCKS
  0
BLOCK
  5
20
330
1F
100
AcDbEntity
  8
0
100
AcDbBlockBegin
  2
*Model_Space
 70
     0
 10
0.0
 20
0.0
 30
0.0
  3
*Model_Space
  1

  0
ENDBLK
  5
21
330
1F
100
AcDbEntity
  8
0
100
AcDbBlockEnd
  0
BLOCK
  5
75
330
73
100
AcDbEntity
 67
     1
  8
0
100
AcDbBlockBegin
  2
*Paper_Space
 70
     0
 10
0.0
 20
0.0
 30
0.0
  3
*Paper_Space
  1

  0
ENDBLK
  5
76
330
73
100
AcDbEntity
 67
     1
  8
0
100
AcDbBlockEnd
  0
BLOCK
  5
3AF
330
D1
100
AcDbEntity
  8
0
100
AcDbBlockBegin
  2
*Paper_Space0
 70
     0
 10
0.0
 20
0.0
 30
0.0
  3
*Paper_Space0
  1

  0
VIEWPORT
  5
3C5
330
D1
100
AcDbEntity
  8
0
100
AcDbViewport
 10
7.8
 20
4.5
 30
0.0
 40
15.64
 41
9.0
 68
     1
 69
     1
 12
6.0
 22
4.5
 13
0.0
 23
0.0
 14
0.5
 24
0.5
 15
0.5
 25
0.5
 16
0.0
 26
0.0
 36
1.0
 17
0.0
 27
0.0
 37
0.0
 42
50.0
 43
0.0
 44
0.0
 45
12.0
 50
0.0
 51
0.0
 72
   100
 90
   557152
  1

281
     0
 71
     1
 74
     0
110
0.0
120
0.0
130
0.0
111
1.0
121
0.0
131
0.0
112
0.0
122
1.0
132
0.0
 79
     0
146
0.0
  0
ENDBLK
  5
3B0
330
D1
100
AcDbEntity
  8
0
100
AcDbBlockEnd
  0
BLOCK
  5
3B1
330
344
100
AcDbEntity
  8
0
100
AcDbBlockBegin
  2
*D1
 70
     1
 10
0.0
 20
0.0
 30
0.0
  3
*D1
  1

  0
POINT
  5
33B
330
344
100
AcDbEntity
  8
DEFPOINTS
  6
ByBlock
 62
     7
380
     1
100
AcDbPoint
 10
937.664157
 20
615.980686
 30
0.0
  0
POINT
  5
33C
330
344
100
AcDbEntity
  8
DEFPOINTS
  6
ByBlock
 62
     7
380
     1
100
AcDbPoint
 10
936.6641569999999
 20
284.980682
 30
0.0
  0
LINE
  5
33D
330
344
100
AcDbEntity
  8
0
  6
ByBlock
 62
     7
370
    -2
380
     1
100
AcDbLine
 10
937.039157
 20
615.980686
 30
0.0
 11
691.2681455592877
 21
615.980686
 31
0.0
  0
LINE
  5
33E
330
344
100
AcDbEntity
  8
0
  6
ByBlock
 62
     7
370
    -2
380
     1
100
AcDbLine
 10
936.0391569999999
 20
284.980682
 30
0.0
 11
691.2681455592877
 21
284.980682
 31
0.0
  0
LINE
  5
33F
330
344
100
AcDbEntity
  8
0
  6
ByBlock
 62
     7
370
    -2
380
     1
100
AcDbLine
 10
692.5181455592877
 20
605.980686
 30
0.0
 11
692.5181455592877
 21
294.980682
 31
0.0
  0
SOLID
  5
340
330
344
100
AcDbEntity
  8
0
  6
ByBlock
 62
     7
380
     1
100
AcDbTrace
 10
692.5181455592877
 20
615.980686
 30
0.0
 11
690.8514788926211
 21
605.980686
 31
0.0
 12
694.1848122259544
 22
605.980686
 32
0.0
 13
694.1848122259544
 23
605.980686
 33
0.0
  0
SOLID
  5
341
330
344
100
AcDbEntity
  8
0
  6
ByBlock
 62
     7
380
     1
100
AcDbTrace
 10
692.5181455592877
 20
284.980682
 30
0.0
 11
690.8514788926211
 21
294.980682
 31
0.0
 12
694.1848122259544
 22
294.980682
 32
0.0
 13
694.1848122259544
 23
294.980682
 33
0.0
  0
MTEXT
  5
342
330
344
100
AcDbEntity
  8
0
  6
ByBlock
 62
     0
370
    -2
380
     1
100
AcDbMText
 10
680.5181455592877
 20
450.480684
 30
0.0
 40
14.0
 41
0.0
 71
     5
 72
     1
  1
\A1;331
 11
6.123031769111886E-17
 21
1.0
 31
0.0
 73
     1
 44
1.0
  0
ENDBLK
  5
3B2
330
344
100
AcDbEntity
  8
0
100
AcDbBlockEnd
  0
BLOCK
  5
3B3
330
34F
100
AcDbEntity
  8
0
100
AcDbBlockBegin
  2
*D2
 70
     1
 10
0.0
 20
0.0
 30
0.0
  3
*D2
  1

  0
POINT
  5
346
330
34F
100
AcDbEntity
  8
DEFPOINTS
  6
ByBlock
 62
     7
380
     1
100
AcDbPoint
 10
733.845369829872
 20
443.0497305580514
 30
0.0
  0
POINT
  5
347
330
34F
100
AcDbEntity
  8
DEFPOINTS
  6
ByBlock
 62
     7
380
     1
100
AcDbPoint
 10
989.7763089999999
 20
450.4806789999997
 30
0.0
  0
LINE
  5
348
330
34F
100
AcDbEntity
  8
0
  6
ByBlock
 62
     7
370
    -2
380
     1
100
AcDbLine
 10
733.845369829872
 20
443.6747305580514
 30
0.0
 11
733.845369829872
 21
644.5834186219262
 31
0.0
  0
LINE
  5
349
330
34F
100
AcDbEntity
  8
0
  6
ByBlock
 62
     7
370
    -2
380
     1
100
AcDbLine
 10
989.7763089999999
 20
451.1056789999997
 30
0.0
 11
989.7763089999999
 21
644.5834186219262
 31
0.0
  0
LINE
  5
34A
330
34F
100
AcDbEntity
  8
0
  6
ByBlock
 62
     7
370
    -2
380
     1
100
AcDbLine
 10
743.845369829872
 20
643.3334186219262
 30
0.0
 11
979.7763089999999
 21
643.3334186219262
 31
0.0
  0
SOLID
  5
34B
330
34F
100
AcDbEntity
  8
0
  6
ByBlock
 62
     7
380
     1
100
AcDbTrace
 10
733.845369829872
 20
643.3334186219262
 30
0.0
 11
743.845369829872
 21
641.6667519552595
 31
0.0
 12
743.845369829872
 22
645.0000852885928
 32
0.0
 13
743.845369829872
 23
645.0000852885928
 33
0.0
  0
SOLID
  5
34C
330
34F
100
AcDbEntity
  8
0
  6
ByBlock
 62
     7
380
     1
100
AcDbTrace
 10
989.7763089999999
 20
643.3334186219262
 30
0.0
 11
979.7763089999999
 21
641.6667519552595
 31
0.0
 12
979.7763089999999
 22
645.0000852885928
 32
0.0
 13
979.7763089999999
 23
645.0000852885928
 33
0.0
  0
MTEXT
  5
34D
330
34F
100
AcDbEntity
  8
0
  6
ByBlock
 62
     0
370
    -2
380
     1
100
AcDbMText
 10
861.8108394149359
 20
655.3334186219262
 30
0.0
 40
14.0
 41
0.0
 71
     5
 72
     1
  1
256
 73
     1
 44
1.0
  0
ENDBLK
  5
3B4
330
34F
100
AcDbEntity
  8
0
100
AcDbBlockEnd
  0
BLOCK
  5
3B5
330
35A
100
AcDbEntity
  8
0
100
AcDbBlockBegin
  2
*D3
 70
     1
 10
0.0
 20
0.0
 30
0.0
  3
*D3
  1

  0
POINT
  5
351
330
35A
100
AcDbEntity
  8
DEFPOINTS
  6
ByBlock
 62
     7
380
     1
100
AcDbPoint
 10
174.5586740632643
 20
231.4642638101388
 30
0.0
  0
POINT
  5
352
330
35A
100
AcDbEntity
  8
DEFPOINTS
  6
ByBlock
 62
     7
380
     1
100
AcDbPoint
 10
600.5586599999999
 20
237.0980328755255
 30
0.0
  0
LINE
  5
353
330
35A
100
AcDbEntity
  8
0
  6
ByBlock
 62
     7
370
    -2
380
     1
100
AcDbLine
 10
174.5586740632643
 20
230.8392638101388
 30
0.0
 11
174.5586740632643
 21
160.0874246971155
 31
0.0
  0
LINE
  5
354
330
35A
100
AcDbEntity
  8
0
  6
ByBlock
 62
     7
370
    -2
380
     1
100
AcDbLine
 10
600.5586599999999
 20
236.4730328755255
 30
0.0
 11
600.5586599999999
 21
160.0874246971155
 31
0.0
  0
LINE
  5
355
330
35A
100
AcDbEntity
  8
0
  6
ByBlock
 62
     7
370
    -2
380
     1
100
AcDbLine
 10
184.5586740632643
 20
161.3374246971155
 30
0.0
 11
590.5586599999999
 21
161.3374246971155
 31
0.0
  0
SOLID
  5
356
330
35A
100
AcDbEntity
  8
0
  6
ByBlock
 62
     7
380
     1
100
AcDbTrace
 10
174.5586740632643
 20
161.3374246971155
 30
0.0
 11
184.5586740632643
 21
159.6707580304488
 31
0.0
 12
184.5586740632643
 22
163.0040913637822
 32
0.0
 13
184.5586740632643
 23
163.0040913637822
 33
0.0
  0
SOLID
  5
357
330
35A
100
AcDbEntity
  8
0
  6
ByBlock
 62
     7
380
     1
100
AcDbTrace
 10
600.5586599999999
 20
161.3374246971155
 30
0.0
 11
590.5586599999999
 21
159.6707580304488
 31
0.0
 12
590.5586599999999
 22
163.0040913637822
 32
0.0
 13
590.5586599999999
 23
163.0040913637822
 33
0.0
  0
MTEXT
  5
358
330
35A
100
AcDbEntity
  8
0
  6
ByBlock
 62
     0
370
    -2
380
     1
100
AcDbMText
 10
387.5586670316321
 20
173.3374246971155
 30
0.0
 40
14.0
 41
0.0
 71
     5
 72
     1
  1
\A1;426
 73
     1
 44
1.0
  0
ENDBLK
  5
3B6
330
35A
100
AcDbEntity
  8
0
100
AcDbBlockEnd
  0
BLOCK
  5
3B7
330
365
100
AcDbEntity
  8
0
100
AcDbBlockBegin
  2
*D4
 70
     1
 10
0.0
 20
0.0
 30
0.0
  3
*D4
  1

  0
POINT
  5
35C
330
365
100
AcDbEntity
  8
DEFPOINTS
  6
ByBlock
 62
     7
380
     1
100
AcDbPoint
 10
185.5586500955045
 20
556.5454741311994
 30
0.0
  0
POINT
  5
35D
330
365
100
AcDbEntity
  8
DEFPOINTS
  6
ByBlock
 62
     7
380
     1
100
AcDbPoint
 10
589.5586599999999
 20
556.5454741311994
 30
0.0
  0
LINE
  5
35E
330
365
100
AcDbEntity
  8
0
  6
ByBlock
 62
     7
370
    -2
380
     1
100
AcDbLine
 10
185.5586500955045
 20
557.1704741311994
 30
0.0
 11
185.5586500955045
 21
663.3635465499217
 31
0.0
  0
LINE
  5
35F
330
365
100
AcDbEntity
  8
0
  6
ByBlock
 62
     7
370
    -2
380
     1
100
AcDbLine
 10
589.5586599999999
 20
557.1704741311994
 30
0.0
 11
589.5586599999999
 21
663.3635465499217
 31
0.0
  0
LINE
  5
360
330
365
100
AcDbEntity
  8
0
  6
ByBlock
 62
     7
370
    -2
380
     1
100
AcDbLine
 10
195.5586500955045
 20
662.1135465499217
 30
0.0
 11
579.5586599999999
 21
662.1135465499217
 31
0.0
  0
SOLID
  5
361
330
365
100
AcDbEntity
  8
0
  6
ByBlock
 62
     7
380
     1
100
AcDbTrace
 10
185.5586500955045
 20
662.1135465499217
 30
0.0
 11
195.5586500955045
 21
660.4468798832551
 31
0.0
 12
195.5586500955045
 22
663.7802132165883
 32
0.0
 13
195.5586500955045
 23
663.7802132165883
 33
0.0
  0
SOLID
  5
362
330
365
100
AcDbEntity
  8
0
  6
ByBlock
 62
     7
380
     1
100
AcDbTrace
 10
589.5586599999999
 20
662.1135465499217
 30
0.0
 11
579.5586599999999
 21
660.4468798832551
 31
0.0
 12
579.5586599999999
 22
663.7802132165883
 32
0.0
 13
579.5586599999999
 23
663.7802132165883
 33
0.0
  0
MTEXT
  5
363
330
365
100
AcDbEntity
  8
0
  6
ByBlock
 62
     0
370
    -2
380
     1
100
AcDbMText
 10
387.5586550477522
 20
674.1135465499217
 30
0.0
 40
14.0
 41
0.0
 71
     5
 72
     1
  1
\A1;404
 73
     1
 44
1.0
  0
ENDBLK
  5
3B8
330
365
100
AcDbEntity
  8
0
100
AcDbBlockEnd
  0
BLOCK
  5
3B9
330
370
100
AcDbEntity
  8
0
100
AcDbBlockBegin
  2
*D5
 70
     1
 10
0.0
 20
0.0
 30
0.0
  3
*D5
  1

  0
POINT
  5
367
330
370
100
AcDbEntity
  8
DEFPOINTS
  6
ByBlock
 62
     7
380
     1
100
AcDbPoint
 10
936.6641569999999
 20
615.9806860000001
 30
0.0
  0
POINT
  5
368
330
370
100
AcDbEntity
  8
DEFPOINTS
  6
ByBlock
 62
     7
380
     1
100
AcDbPoint
 10
850.004547
 20
193.447437
 30
0.0
  0
LINE
  5
369
330
370
100
AcDbEntity
  8
0
  6
ByBlock
 62
     7
370
    -2
380
     1
100
AcDbLine
 10
937.2891569999999
 20
615.9806860000001
 30
0.0
 11
1039.552313117812
 21
615.9806860000001
 31
0.0
  0
LINE
  5
36A
330
370
100
AcDbEntity
  8
0
  6
ByBlock
 62
     7
370
    -2
380
     1
100
AcDbLine
 10
850.629547
 20
193.447437
 30
0.0
 11
1039.552313117812
 21
193.447437
 31
0.0
  0
LINE
  5
36B
330
370
100
AcDbEntity
  8
0
  6
ByBlock
 62
     7
370
    -2
380
     1
100
AcDbLine
 10
1038.302313117812
 20
605.9806860000001
 30
0.0
 11
1038.302313117812
 21
203.447437
 31
0.0
  0
SOLID
  5
36C
330
370
100
AcDbEntity
  8
0
  6
ByBlock
 62
     7
380
     1
100
AcDbTrace
 10
1038.302313117812
 20
615.9806860000001
 30
0.0
 11
1036.635646451145
 21
605.9806860000001
 31
0.0
 12
1039.968979784479
 22
605.9806860000001
 32
0.0
 13
1039.968979784479
 23
605.9806860000001
 33
0.0
  0
SOLID
  5
36D
330
370
100
AcDbEntity
  8
0
  6
ByBlock
 62
     7
380
     1
100
AcDbTrace
 10
1038.302313117812
 20
193.447437
 30
0.0
 11
1036.635646451145
 21
203.447437
 31
0.0
 12
1039.968979784479
 22
203.447437
 32
0.0
 13
1039.968979784479
 23
203.447437
 33
0.0
  0
MTEXT
  5
36E
330
370
100
AcDbEntity
  8
0
  6
ByBlock
 62
     0
370
    -2
380
     1
100
AcDbMText
 10
1026.302313117812
 20
404.7140615000001
 30
0.0
 40
14.0
 41
0.0
 71
     5
 72
     1
  1
423
 11
6.123031769111886E-17
 21
1.0
 31
0.0
 73
     1
 44
1.0
  0
ENDBLK
  5
3BA
330
370
100
AcDbEntity
  8
0
100
AcDbBlockEnd
  0
BLOCK
  5
3BB
330
37B
100
AcDbEntity
  8
0
100
AcDbBlockBegin
  2
*D6
 70
     1
 10
0.0
 20
0.0
 30
0.0
  3
*D6
  1

  0
POINT
  5
372
330
37B
100
AcDbEntity
  8
DEFPOINTS
  6
ByBlock
 62
     7
380
     1
100
AcDbPoint
 10
120.0826504412201
 20
459.1214972166304
 30
0.0
  0
POINT
  5
373
330
37B
100
AcDbEntity
  8
DEFPOINTS
  6
ByBlock
 62
     7
380
     1
100
AcDbPoint
 10
524.0826603457155
 20
459.1214972166304
 30
0.0
  0
LINE
  5
374
330
37B
100
AcDbEntity
  8
0
  6
ByBlock
 62
     7
370
    -2
380
     1
100
AcDbLine
 10
120.0826504412201
 20
459.7464972166304
 30
0.0
 11
120.0826504412201
 21
565.9395696353527
 31
0.0
  0
LINE
  5
375
330
37B
100
AcDbEntity
  8
0
  6
ByBlock
 62
     7
370
    -2
380
     1
100
AcDbLine
 10
524.0826603457155
 20
459.7464972166304
 30
0.0
 11
524.0826603457155
 21
565.9395696353527
 31
0.0
  0
LINE
  5
376
330
37B
100
AcDbEntity
  8
0
  6
ByBlock
 62
     7
370
    -2
380
     1
100
AcDbLine
 10
130.08265044122
 20
564.6895696353527
 30
0.0
 11
514.0826603457155
 21
564.6895696353527
 31
0.0
  0
SOLID
  5
377
330
37B
100
AcDbEntity
  8
0
  6
ByBlock
 62
     7
380
     1
100
AcDbTrace
 10
120.0826504412201
 20
564.6895696353527
 30
0.0
 11
130.08265044122
 21
563.022902968686
 31
0.0
 12
130.08265044122
 22
566.3562363020193
 32
0.0
 13
130.08265044122
 23
566.3562363020193
 33
0.0
  0
SOLID
  5
378
330
37B
100
AcDbEntity
  8
0
  6
ByBlock
 62
     7
380
     1
100
AcDbTrace
 10
524.0826603457155
 20
564.6895696353527
 30
0.0
 11
514.0826603457155
 21
563.022902968686
 31
0.0
 12
514.0826603457155
 22
566.3562363020193
 32
0.0
 13
514.0826603457155
 23
566.3562363020193
 33
0.0
  0
MTEXT
  5
379
330
37B
100
AcDbEntity
  8
0
  6
ByBlock
 62
     0
370
    -2
380
     1
100
AcDbMText
 10
322.0826553934677
 20
576.6895696353527
 30
0.0
 40
14.0
 41
0.0
 71
     5
 72
     1
  1
\A1;404
 73
     1
 44
1.0
  0
ENDBLK
  5
3BC
330
37B
100
AcDbEntity
  8
0
100
AcDbBlockEnd
  0
BLOCK
  5
3BD
330
386
100
AcDbEntity
  8
0
100
AcDbBlockBegin
  2
*D7
 70
     1
 10
0.0
 20
0.0
 30
0.0
  3
*D7
  1

  0
POINT
  5
37D
330
386
100
AcDbEntity
  8
DEFPOINTS
  6
ByBlock
 62
     7
380
     1
100
AcDbPoint
 10
109.0826744089799
 20
134.0402868955698
 30
0.0
  0
POINT
  5
37E
330
386
100
AcDbEntity
  8
DEFPOINTS
  6
ByBlock
 62
     7
380
     1
100
AcDbPoint
 10
535.0826603457155
 20
139.6740559609565
 30
0.0
  0
LINE
  5
37F
330
386
100
AcDbEntity
  8
0
  6
ByBlock
 62
     7
370
    -2
380
     1
100
AcDbLine
 10
109.0826744089799
 20
133.4152868955698
 30
0.0
 11
109.0826744089799
 21
62.66344778254651
 31
0.0
  0
LINE
  5
380
330
386
100
AcDbEntity
  8
0
  6
ByBlock
 62
     7
370
    -2
380
     1
100
AcDbLine
 10
535.0826603457155
 20
139.0490559609565
 30
0.0
 11
535.0826603457155
 21
62.66344778254651
 31
0.0
  0
LINE
  5
381
330
386
100
AcDbEntity
  8
0
  6
ByBlock
 62
     7
370
    -2
380
     1
100
AcDbLine
 10
119.0826744089799
 20
63.91344778254651
 30
0.0
 11
525.0826603457155
 21
63.91344778254651
 31
0.0
  0
SOLID
  5
382
330
386
100
AcDbEntity
  8
0
  6
ByBlock
 62
     7
380
     1
100
AcDbTrace
 10
109.0826744089799
 20
63.91344778254651
 30
0.0
 11
119.0826744089799
 21
62.24678111587984
 31
0.0
 12
119.0826744089799
 22
65.58011444921318
 32
0.0
 13
119.0826744089799
 23
65.58011444921318
 33
0.0
  0
SOLID
  5
383
330
386
100
AcDbEntity
  8
0
  6
ByBlock
 62
     7
380
     1
100
AcDbTrace
 10
535.0826603457155
 20
63.91344778254651
 30
0.0
 11
525.0826603457155
 21
62.24678111587984
 31
0.0
 12
525.0826603457155
 22
65.58011444921318
 32
0.0
 13
525.0826603457155
 23
65.58011444921318
 33
0.0
  0
MTEXT
  5
384
330
386
100
AcDbEntity
  8
0
  6
ByBlock
 62
     0
370
    -2
380
     1
100
AcDbMText
 10
322.0826673773477
 20
75.91344778254651
 30
0.0
 40
14.0
 41
0.0
 71
     5
 72
     1
  1
\A1;426
 73
     1
 44
1.0
  0
ENDBLK
  5
3BE
330
386
100
AcDbEntity
  8
0
100
AcDbBlockEnd
  0
BLOCK
  5
3BF
330
391
100
AcDbEntity
  8
0
100
AcDbBlockBegin
  2
*D8
 70
     1
 10
0.0
 20
0.0
 30
0.0
  3
*D8
  1

  0
POINT
  5
388
330
391
100
AcDbEntity
  8
DEFPOINTS
  6
ByBlock
 62
     7
380
     1
100
AcDbPoint
 10
668.3693701755875
 20
345.6257536434824
 30
0.0
  0
POINT
  5
389
330
391
100
AcDbEntity
  8
DEFPOINTS
  6
ByBlock
 62
     7
380
     1
100
AcDbPoint
 10
924.3003093457154
 20
353.0567020854307
 30
0.0
  0
LINE
  5
38A
330
391
100
AcDbEntity
  8
0
  6
ByBlock
 62
     7
370
    -2
380
     1
100
AcDbLine
 10
668.3693701755875
 20
346.2507536434824
 30
0.0
 11
668.3693701755875
 21
547.1594417073572
 31
0.0
  0
LINE
  5
38B
330
391
100
AcDbEntity
  8
0
  6
ByBlock
 62
     7
370
    -2
380
     1
100
AcDbLine
 10
924.3003093457154
 20
353.6817020854307
 30
0.0
 11
924.3003093457154
 21
547.1594417073572
 31
0.0
  0
LINE
  5
38C
330
391
100
AcDbEntity
  8
0
  6
ByBlock
 62
     7
370
    -2
380
     1
100
AcDbLine
 10
678.3693701755875
 20
545.9094417073572
 30
0.0
 11
914.3003093457154
 21
545.9094417073572
 31
0.0
  0
SOLID
  5
38D
330
391
100
AcDbEntity
  8
0
  6
ByBlock
 62
     7
380
     1
100
AcDbTrace
 10
668.3693701755875
 20
545.9094417073572
 30
0.0
 11
678.3693701755875
 21
544.2427750406906
 31
0.0
 12
678.3693701755875
 22
547.5761083740239
 32
0.0
 13
678.3693701755875
 23
547.5761083740239
 33
0.0
  0
SOLID
  5
38E
330
391
100
AcDbEntity
  8
0
  6
ByBlock
 62
     7
380
     1
100
AcDbTrace
 10
924.3003093457154
 20
545.9094417073572
 30
0.0
 11
914.3003093457154
 21
544.2427750406906
 31
0.0
 12
914.3003093457154
 22
547.5761083740239
 32
0.0
 13
914.3003093457154
 23
547.5761083740239
 33
0.0
  0
MTEXT
  5
38F
330
391
100
AcDbEntity
  8
0
  6
ByBlock
 62
     0
370
    -2
380
     1
100
AcDbMText
 10
796.3348397606514
 20
557.9094417073572
 30
0.0
 40
14.0
 41
0.0
 71
     5
 72
     1
  1
256
 73
     1
 44
1.0
  0
ENDBLK
  5
3C0
330
391
100
AcDbEntity
  8
0
100
AcDbBlockEnd
  0
BLOCK
  5
3C1
330
39C
100
AcDbEntity
  8
0
100
AcDbBlockBegin
  2
*D9
 70
     1
 10
0.0
 20
0.0
 30
0.0
  3
*D9
  1

  0
POINT
  5
393
330
39C
100
AcDbEntity
  8
DEFPOINTS
  6
ByBlock
 62
     7
380
     1
100
AcDbPoint
 10
872.1881573457156
 20
518.5567090854311
 30
0.0
  0
POINT
  5
394
330
39C
100
AcDbEntity
  8
DEFPOINTS
  6
ByBlock
 62
     7
380
     1
100
AcDbPoint
 10
871.1881573457155
 20
187.556705085431
 30
0.0
  0
LINE
  5
395
330
39C
100
AcDbEntity
  8
0
  6
ByBlock
 62
     7
370
    -2
380
     1
100
AcDbLine
 10
871.5631573457156
 20
518.5567090854311
 30
0.0
 11
625.7921459050033
 21
518.5567090854311
 31
0.0
  0
LINE
  5
396
330
39C
100
AcDbEntity
  8
0
  6
ByBlock
 62
     7
370
    -2
380
     1
100
AcDbLine
 10
870.5631573457155
 20
187.556705085431
 30
0.0
 11
625.7921459050033
 21
187.556705085431
 31
0.0
  0
LINE
  5
397
330
39C
100
AcDbEntity
  8
0
  6
ByBlock
 62
     7
370
    -2
380
     1
100
AcDbLine
 10
627.0421459050033
 20
508.5567090854311
 30
0.0
 11
627.0421459050033
 21
197.556705085431
 31
0.0
  0
SOLID
  5
398
330
39C
100
AcDbEntity
  8
0
  6
ByBlock
 62
     7
380
     1
100
AcDbTrace
 10
627.0421459050033
 20
518.5567090854311
 30
0.0
 11
625.3754792383367
 21
508.5567090854311
 31
0.0
 12
628.7088125716699
 22
508.5567090854311
 32
0.0
 13
628.7088125716699
 23
508.5567090854311
 33
0.0
  0
SOLID
  5
399
330
39C
100
AcDbEntity
  8
0
  6
ByBlock
 62
     7
380
     1
100
AcDbTrace
 10
627.0421459050033
 20
187.556705085431
 30
0.0
 11
625.3754792383367
 21
197.556705085431
 31
0.0
 12
628.7088125716699
 22
197.556705085431
 32
0.0
 13
628.7088125716699
 23
197.556705085431
 33
0.0
  0
MTEXT
  5
39A
330
39C
100
AcDbEntity
  8
0
  6
ByBlock
 62
     0
370
    -2
380
     1
100
AcDbMText
 10
615.0421459050033
 20
353.0567070854311
 30
0.0
 40
14.0
 41
0.0
 71
     5
 72
     1
  1
\A1;331
 11
6.123031769111886E-17
 21
1.0
 31
0.0
 73
     1
 44
1.0
  0
ENDBLK
  5
3C2
330
39C
100
AcDbEntity
  8
0
100
AcDbBlockEnd
  0
BLOCK
  5
3C3
330
3A7
100
AcDbEntity
  8
0
100
AcDbBlockBegin
  2
*D10
 70
     1
 10
0.0
 20
0.0
 30
0.0
  3
*D10
  1

  0
POINT
  5
39E
330
3A7
100
AcDbEntity
  8
DEFPOINTS
  6
ByBlock
 62
     7
380
     1
100
AcDbPoint
 10
871.1881573457155
 20
518.5567090854311
 30
0.0
  0
POINT
  5
39F
330
3A7
100
AcDbEntity
  8
DEFPOINTS
  6
ByBlock
 62
     7
380
     1
100
AcDbPoint
 10
784.5285473457155
 20
96.02346008543103
 30
0.0
  0
LINE
  5
3A0
330
3A7
100
AcDbEntity
  8
0
  6
ByBlock
 62
     7
370
    -2
380
     1
100
AcDbLine
 10
871.8131573457155
 20
518.5567090854311
 30
0.0
 11
974.0763134635275
 21
518.5567090854311
 31
0.0
  0
LINE
  5
3A1
330
3A7
100
AcDbEntity
  8
0
  6
ByBlock
 62
     7
370
    -2
380
     1
100
AcDbLine
 10
785.1535473457155
 20
96.023460085431
 30
0.0
 11
974.0763134635275
 21
96.023460085431
 31
0.0
  0
LINE
  5
3A2
330
3A7
100
AcDbEntity
  8
0
  6
ByBlock
 62
     7
370
    -2
380
     1
100
AcDbLine
 10
972.8263134635275
 20
508.5567090854311
 30
0.0
 11
972.8263134635275
 21
106.023460085431
 31
0.0
  0
SOLID
  5
3A3
330
3A7
100
AcDbEntity
  8
0
  6
ByBlock
 62
     7
380
     1
100
AcDbTrace
 10
972.8263134635275
 20
518.5567090854311
 30
0.0
 11
971.1596467968609
 21
508.5567090854311
 31
0.0
 12
974.4929801301942
 22
508.5567090854311
 32
0.0
 13
974.4929801301942
 23
508.5567090854311
 33
0.0
  0
SOLID
  5
3A4
330
3A7
100
AcDbEntity
  8
0
  6
ByBlock
 62
     7
380
     1
100
AcDbTrace
 10
972.8263134635275
 20
96.023460085431
 30
0.0
 11
971.1596467968609
 21
106.023460085431
 31
0.0
 12
974.4929801301942
 22
106.023460085431
 32
0.0
 13
974.4929801301942
 23
106.023460085431
 33
0.0
  0
MTEXT
  5
3A5
330
3A7
100
AcDbEntity
  8
0
  6
ByBlock
 62
     0
370
    -2
380
     1
100
AcDbMText
 10
960.8263134635275
 20
307.290084585431
 30
0.0
 40
14.0
 41
0.0
 71
     5
 72
     1
  1
423
 11
6.123031769111886E-17
 21
1.0
 31
0.0
 73
     1
 44
1.0
  0
ENDBLK
  5
3C4
330
3A7
100
AcDbEntity
  8
0
100
AcDbBlockEnd
  0
ENDSEC
  0
SECTION
  2
ENTITIES
  0
LINE
  5
FC
330
1F
100
AcDbEntity
  8
0
  6
DASHDOT
 48
0.036233
370
    60
100
AcDbLine
 10
116.9838293457156
 20
323.256706085431
 30
0.0
 11
115.5345193457155
 21
323.256706085431
 31
0.0
  0
LINE
  5
FD
330
1F
100
AcDbEntity
  8
0
  6
DASHDOT
 48
0.002841
370
    60
100
AcDbLine
 10
119.9784893457155
 20
353.056709085431
 30
0.0
 11
120.0921363457156
 21
353.056709085431
 31
0.0
  0
LINE
  5
FE
330
1F
100
AcDbEntity
  8
0
  6
DOT
 48
0.1
370
    60
100
AcDbLine
 10
312.5826603457155
 20
100.023460085431
 30
0.0
 11
312.5826603457155
 21
96.02346008543103
 31
0.0
  0
LINE
  5
FF
330
1F
100
AcDbEntity
  8
0
  6
DOT
 48
0.1
370
    60
100
AcDbLine
 10
331.5826603457155
 20
100.023460085431
 30
0.0
 11
331.5826603457155
 21
96.02346008543103
 31
0.0
  0
LINE
  5
100
330
1F
100
AcDbEntity
  8
0
  6
DOT
 48
0.1
370
    60
100
AcDbLine
 10
375.7454073457155
 20
100.023460085431
 30
0.0
 11
375.7454073457155
 21
96.02346008543103
 31
0.0
  0
LINE
  5
101
330
1F
100
AcDbEntity
  8
0
  6
DOT
 48
0.1
370
    60
100
AcDbLine
 10
388.2454073457155
 20
100.023460085431
 30
0.0
 11
388.2454073457155
 21
96.02346008543103
 31
0.0
  0
LINE
  5
102
330
1F
100
AcDbEntity
  8
0
  6
DOT
 48
0.1
370
    60
100
AcDbLine
 10
268.4199103457156
 20
100.023460085431
 30
0.0
 11
268.4199103457156
 21
96.02346008543103
 31
0.0
  0
LINE
  5
103
330
1F
100
AcDbEntity
  8
0
  6
DOT
 48
0.1
370
    60
100
AcDbLine
 10
255.9199103457156
 20
100.023460085431
 30
0.0
 11
255.9199103457156
 21
96.02346008543103
 31
0.0
  0
LINE
  5
104
330
1F
100
AcDbEntity
  8
0
  6
DOT
 48
0.1
370
    60
100
AcDbLine
 10
410.7849083457155
 20
100.023460085431
 30
0.0
 11
410.7849083457155
 21
96.02346008543103
 31
0.0
  0
LINE
  5
105
330
1F
100
AcDbEntity
  8
0
  6
DOT
 48
0.1
370
    60
100
AcDbLine
 10
423.2849093457156
 20
100.023460085431
 30
0.0
 11
423.2849093457156
 21
96.02346008543103
 31
0.0
  0
LINE
  5
106
330
1F
100
AcDbEntity
  8
0
 48
0.1
370
    60
100
AcDbLine
 10
233.3804203457155
 20
100.023460085431
 30
0.0
 11
233.3804203457155
 21
96.02346008543103
 31
0.0
  0
LINE
  5
107
330
1F
100
AcDbEntity
  8
0
 48
0.1
370
    60
100
AcDbLine
 10
220.8804203457155
 20
100.023460085431
 30
0.0
 11
220.8804203457155
 21
96.02346008543103
 31
0.0
  0
POINT
  5
108
330
1F
100
AcDbEntity
  8
0
370
    60
100
AcDbPoint
 10
924.3003243457156
 20
353.056701085431
 30
0.0
  0
POINT
  5
109
330
1F
100
AcDbEntity
  8
0
370
    60
100
AcDbPoint
 10
871.1881573457156
 20
518.5567090854311
 30
0.0
  0
POINT
  5
10A
330
1F
100
AcDbEntity
  8
0
370
    60
100
AcDbPoint
 10
871.1881573457156
 20
187.556709085431
 30
0.0
  0
LINE
  5
10B
330
1F
100
AcDbEntity
  8
0
 48
0.043412
370
    60
100
AcDbLine
 10
109.0826453457156
 20
304.887123085431
 30
0.0
 11
109.0826453457156
 21
306.623604085431
 31
0.0
  0
LINE
  5
10C
330
1F
100
AcDbEntity
  8
0
 48
0.247139
370
    60
100
AcDbLine
 10
109.0826453457156
 20
295.001549085431
 30
0.0
 11
109.0826453457156
 21
304.887115085431
 31
0.0
  0
LINE
  5
10D
330
1F
100
AcDbEntity
  8
0
 48
0.043412
370
    60
100
AcDbLine
 10
535.0826603457155
 20
304.887123085431
 30
0.0
 11
535.0826603457155
 21
306.623611085431
 31
0.0
  0
LINE
  5
10E
330
1F
100
AcDbEntity
  8
0
 48
0.247139
370
    60
100
AcDbLine
 10
535.0826603457155
 20
295.001549085431
 30
0.0
 11
535.0826603457155
 21
304.887123085431
 31
0.0
  0
LINE
  5
10F
330
1F
100
AcDbEntity
  8
0
 48
0.182472
370
    60
100
AcDbLine
 10
116.3815343457155
 20
295.001549085431
 30
0.0
 11
109.0826453457156
 21
295.001549085431
 31
0.0
  0
LINE
  5
110
330
1F
100
AcDbEntity
  8
0
 48
0.17184
370
    60
100
AcDbLine
 10
115.9562413457156
 20
306.623604085431
 30
0.0
 11
109.0826453457156
 21
306.623604085431
 31
0.0
  0
LINE
  5
111
330
1F
100
AcDbEntity
  8
0
 48
0.182472
370
    60
100
AcDbLine
 10
527.7837793457155
 20
295.001549085431
 30
0.0
 11
535.0826603457155
 21
295.001549085431
 31
0.0
  0
LINE
  5
112
330
1F
100
AcDbEntity
  8
0
 48
0.17184
370
    60
100
AcDbLine
 10
528.2090793457155
 20
306.623611085431
 30
0.0
 11
535.0826603457155
 21
306.623611085431
 31
0.0
  0
LWPOLYLINE
  5
113
330
1F
100
AcDbEntity
  8
0
370
    60
100
AcDbPolyline
 90
       13
 70
     0
 43
0.0
 10
116.8628273457156
 20
323.256706085431
 10
116.8338353457155
 20
327.482696085431
 10
116.7669713457156
 20
330.756706085431
 10
116.6651653457156
 20
333.607895085431
 10
116.5623513457156
 20
335.475342085431
 10
116.4751933457155
 20
336.5892410854311
 10
116.3813513457155
 20
337.431717085431
 10
116.3160133457155
 20
337.833877085431
 10
116.2491493457155
 20
338.104027085431
 10
116.2153353457156
 20
338.188782085431
 10
116.1813693457155
 20
338.239715085431
 10
116.1598243457156
 20
338.254326085431
 10
116.1473423457156
 20
338.256706085431
  0
LWPOLYLINE
  5
114
330
1F
100
AcDbEntity
  8
0
370
    60
100
AcDbPolyline
 90
       10
 70
     0
 43
0.0
 10
116.1473423457156
 20
338.256706085431
 10
116.1339763457155
 20
338.254005085431
 10
116.1112103457155
 20
338.237594085431
 10
116.0751993457155
 20
338.180298085431
 10
116.0393713457155
 20
338.084961085431
 10
116.0038183457155
 20
337.951843085431
 10
115.9338723457156
 20
337.573669085431
 10
115.8332863457155
 20
336.734527085431
 10
115.7398723457155
 20
335.586761085431
 10
115.6557963457156
 20
334.156654085431
  0
LWPOLYLINE
  5
115
330
1F
100
AcDbEntity
  8
0
370
    60
100
AcDbPolyline
 90
       10
 70
     0
 43
0.0
 10
115.6557963457156
 20
312.356758085431
 10
115.7700843457155
 20
310.511253085431
 10
115.8661233457155
 20
309.463775085431
 10
115.9338723457156
 20
308.939743085431
 10
116.0038183457155
 20
308.561569085431
 10
116.0393713457155
 20
308.428451085431
 10
116.0751993457155
 20
308.333114085431
 10
116.1112103457155
 20
308.275818085431
 10
116.1339763457155
 20
308.259407085431
 10
116.1473423457156
 20
308.256706085431
  0
LWPOLYLINE
  5
116
330
1F
100
AcDbEntity
  8
0
370
    60
100
AcDbPolyline
 90
       13
 70
     0
 43
0.0
 10
116.1473423457156
 20
308.256706085431
 10
116.1602823457155
 20
308.259247085431
 10
116.1824383457155
 20
308.274772085431
 10
116.2174723457156
 20
308.328934085431
 10
116.2523233457155
 20
308.419060085431
 10
116.3211703457155
 20
308.706238085431
 10
116.3883703457156
 20
309.133545085431
 10
116.4846233457155
 20
310.027885085431
 10
116.6012303457155
 20
311.661552085431
 10
116.7004123457155
 20
313.7408060854311
 10
116.7941323457155
 20
316.843376085431
 10
116.8550753457155
 20
321.055748085431
 10
116.8628273457156
 20
323.256706085431
  0
ARC
  5
117
330
1F
100
AcDbEntity
  8
0
370
    60
100
AcDbCircle
 10
115.4266093457156
 20
293.555286085431
 30
0.0
 40
1.944163000000009
100
AcDbArc
 50
1.482107999999833
 51
6.644856999999834
  0
LWPOLYLINE
  5
118
330
1F
100
AcDbEntity
  8
0
370
    60
100
AcDbPolyline
 90
        8
 70
     0
 43
0.0
 10
117.3577003457155
 20
293.780254085431
 10
117.2930333457156
 20
294.097378085431
 10
117.1702613457156
 20
294.402798085431
 10
117.0352823457155
 20
294.614212085431
 10
116.8588903457156
 20
294.797588085431
 10
116.6392553457155
 20
294.934662085431
 10
116.4709203457156
 20
294.987827085431
 10
116.3815343457155
 20
294.999424085431
  0
LINE
  5
119
330
1F
100
AcDbEntity
  8
0
 48
0.00869
370
    60
100
AcDbLine
 10
117.3701213457156
 20
293.605572085431
 30
0.0
 11
117.3299603457155
 21
293.950825085431
 31
0.0
  0
LINE
  5
11A
330
1F
100
AcDbEntity
  8
0
 48
0.302328
370
    60
100
AcDbLine
 10
117.4718363457155
 20
305.698280085431
 30
0.0
 11
117.3701213457156
 21
293.605572085431
 31
0.0
  0
LINE
  5
11B
330
1F
100
AcDbEntity
  8
0
 48
0.001402
370
    60
100
AcDbLine
 10
116.9088473457156
 20
307.725998085431
 30
0.0
 11
116.9081463457155
 21
307.782059085431
 31
0.0
  0
LWPOLYLINE
  5
11C
330
1F
100
AcDbEntity
  8
0
370
    60
100
AcDbPolyline
 90
        8
 70
     0
 43
0.0
 10
116.9088473457156
 20
307.725998085431
 10
116.8718603457155
 20
307.427025085431
 10
116.7906223457156
 20
307.196495085431
 10
116.6596713457156
 20
306.983711085431
 10
116.4749183457156
 20
306.802528085431
 10
116.3007853457155
 20
306.699776085431
 10
116.1002233457155
 20
306.637527085431
 10
115.9561803457155
 20
306.623871085431
  0
LINE
  5
11D
330
1F
100
AcDbEntity
  8
0
 48
0.053967
370
    60
100
AcDbLine
 10
116.9081463457155
 20
307.782059085431
 30
0.0
 11
117.4718363457155
 21
305.698280085431
 31
0.0
  0
LINE
  5
11E
330
1F
100
AcDbEntity
  8
0
 48
0.002827
370
    60
100
AcDbLine
 10
116.9071693457156
 20
307.668991085431
 30
0.0
 11
116.9081463457155
 21
307.782059085431
 31
0.0
  0
ARC
  5
11F
330
1F
100
AcDbEntity
  8
0
370
    60
100
AcDbCircle
 10
528.7387123457155
 20
293.555286085431
 30
0.0
 40
1.944162999999988
100
AcDbArc
 50
173.3551459999994
 51
178.5178949999994
  0
LWPOLYLINE
  5
120
330
1F
100
AcDbEntity
  8
0
370
    60
100
AcDbPolyline
 90
        8
 70
     0
 43
0.0
 10
526.8076133457155
 20
293.780254085431
 10
526.8722803457155
 20
294.097378085431
 10
526.9950603457155
 20
294.402801085431
 10
527.1300313457156
 20
294.614216085431
 10
527.3064153457155
 20
294.797592085431
 10
527.5260503457155
 20
294.934666085431
 10
527.6944003457155
 20
294.987831085431
 10
527.7838023457156
 20
294.999428085431
  0
LINE
  5
121
330
1F
100
AcDbEntity
  8
0
 48
0.302328
370
    60
100
AcDbLine
 10
526.6934853457155
 20
305.698280085431
 30
0.0
 11
526.7952003457156
 21
293.605572085431
 31
0.0
  0
LINE
  5
122
330
1F
100
AcDbEntity
  8
0
 48
0.008689
370
    60
100
AcDbLine
 10
526.7952003457156
 20
293.605572085431
 30
0.0
 11
526.8353693457155
 21
293.950821085431
 31
0.0
  0
LINE
  5
123
330
1F
100
AcDbEntity
  8
0
 48
0.001402
370
    60
100
AcDbLine
 10
527.2564813457155
 20
307.726005085431
 30
0.0
 11
527.2571903457155
 21
307.782066085431
 31
0.0
  0
LWPOLYLINE
  5
124
330
1F
100
AcDbEntity
  8
0
370
    60
100
AcDbPolyline
 90
        8
 70
     0
 43
0.0
 10
527.2564813457155
 20
307.726005085431
 10
527.2934683457155
 20
307.427032085431
 10
527.3747063457155
 20
307.196503085431
 10
527.5056493457155
 20
306.983719085431
 10
527.6903873457155
 20
306.802528085431
 10
527.8645213457155
 20
306.699776085431
 10
528.0650823457155
 20
306.637535085431
 10
528.2091483457156
 20
306.623871085431
  0
LINE
  5
125
330
1F
100
AcDbEntity
  8
0
 48
0.002827
370
    60
100
AcDbLine
 10
527.2581363457156
 20
307.668999085431
 30
0.0
 11
527.2571903457155
 21
307.782066085431
 31
0.0
  0
LINE
  5
126
330
1F
100
AcDbEntity
  8
0
 48
0.053967
370
    60
100
AcDbLine
 10
527.2571903457155
 20
307.782066085431
 30
0.0
 11
526.6934853457155
 21
305.698280085431
 31
0.0
  0
ARC
  5
127
330
1F
100
AcDbEntity
  8
0
370
    60
100
AcDbCircle
 10
-25745.74950765428
 20
353.031326085431
 30
0.0
 40
25865.832031
100
AcDbArc
 50
359.8453720000001
 51
0.0000560000000179
  0
LINE
  5
128
330
1F
100
AcDbEntity
  8
0
 48
0.002969
370
    60
100
AcDbLine
 10
117.7671853457156
 20
281.478489085431
 30
0.0
 11
117.7645603457155
 21
281.597233085431
 31
0.0
  0
LWPOLYLINE
  5
129
330
1F
100
AcDbEntity
  8
0
370
    60
100
AcDbPolyline
 90
       11
 70
     0
 43
0.0
 10
117.7691383457155
 20
281.480968085431
 10
117.8131443457155
 20
281.092537085431
 10
117.9018593457156
 20
280.7069470854311
 10
118.0354343457156
 20
280.329365085431
 10
118.2132913457155
 20
279.965240085431
 10
118.4341473457155
 20
279.620155085431
 10
118.6959263457156
 20
279.299713085431
 10
118.9957623457156
 20
279.009346085431
 10
119.3298983457156
 20
278.754173085431
 10
119.6938513457155
 20
278.538830085431
 10
120.0824923457156
 20
278.367317085431
  0
LINE
  5
12A
330
1F
100
AcDbEntity
  8
0
 48
0.030015
370
    60
100
AcDbLine
 10
120.0829813457155
 20
429.7551190854311
 30
0.0
 11
118.8823893457155
 21
429.7551190854311
 31
0.0
  0
ARC
  5
12B
330
1F
100
AcDbEntity
  8
0
370
    60
100
AcDbCircle
 10
118.8806193457155
 20
426.258613085431
 30
0.0
 40
3.49636999999998
100
AcDbArc
 50
89.97578900000019
 51
179.9966720000002
  0
ARC
  5
12C
330
1F
100
AcDbEntity
  8
0
370
    60
100
AcDbCircle
 10
525.2846873457155
 20
426.258613085431
 30
0.0
 40
3.496369999999963
100
AcDbArc
 50
0.0033230000004259
 51
90.02421600000044
  0
LINE
  5
12D
330
1F
100
AcDbEntity
  8
0
 48
0.029997
370
    60
100
AcDbLine
 10
524.0830493457155
 20
429.7551190854311
 30
0.0
 11
525.2829243457155
 21
429.7551190854311
 31
0.0
  0
LWPOLYLINE
  5
12E
330
1F
100
AcDbEntity
  8
0
370
    60
100
AcDbPolyline
 90
       13
 70
     0
 43
0.0
 10
116.9105563457156
 20
293.006706085431
 10
116.9228863457156
 20
293.004959085431
 10
116.9450413457156
 20
292.993522085431
 10
116.9794963457156
 20
292.953888085431
 10
117.0138283457155
 20
292.887859085431
 10
117.0820653457155
 20
292.6770020854311
 10
117.1493563457156
 20
292.362083085431
 10
117.2478063457155
 20
291.698429085431
 10
117.3725623457155
 20
290.469658085431
 10
117.4874003457156
 20
288.872436085431
 10
117.6133463457156
 20
286.410564085431
 10
117.7331883457156
 20
282.8844950854311
 10
117.7645603457155
 20
281.597233085431
  0
LINE
  5
12F
330
1F
100
AcDbEntity
  8
0
370
    60
100
AcDbLine
 10
115.3842503457156
 20
426.258812085431
 30
0.0
 11
115.3842503457156
 21
334.156692085431
 31
0.0
  0
LINE
  5
130
330
1F
100
AcDbEntity
  8
0
 48
0.143328
370
    60
100
AcDbLine
 10
115.3842503457156
 20
312.356689085431
 30
0.0
 11
115.3842503457156
 21
306.623581085431
 31
0.0
  0
LINE
  5
131
330
1F
100
AcDbEntity
  8
0
 48
0.049871
370
    60
100
AcDbLine
 10
115.3842503457156
 20
295.001518085431
 30
0.0
 11
115.3842503457156
 21
293.006683085431
 31
0.0
  0
LINE
  5
132
330
1F
100
AcDbEntity
  8
0
 48
0.002969
370
    60
100
AcDbLine
 10
526.3981283457155
 20
281.478493085431
 30
0.0
 11
526.4007453457156
 21
281.597236085431
 31
0.0
  0
LWPOLYLINE
  5
133
330
1F
100
AcDbEntity
  8
0
370
    60
100
AcDbPolyline
 90
       13
 70
     0
 43
0.0
 10
527.2547493457155
 20
293.006710085431
 10
527.2424353457155
 20
293.004959085431
 10
527.2202723457156
 20
292.993522085431
 10
527.1858333457155
 20
292.953892085431
 10
527.1514933457155
 20
292.887859085431
 10
527.0832713457155
 20
292.677006085431
 10
527.0159643457155
 20
292.362087085431
 10
526.9175143457155
 20
291.698433085431
 10
526.7927743457155
 20
290.469658085431
 10
526.6779133457155
 20
288.872440085431
 10
526.5519673457155
 20
286.410568085431
 10
526.4321403457155
 20
282.884498085431
 10
526.4007453457156
 20
281.597236085431
  0
LINE
  5
134
330
1F
100
AcDbEntity
  8
0
370
    60
100
AcDbLine
 10
528.7810783457155
 20
426.258812085431
 30
0.0
 11
528.7810783457155
 21
306.623588085431
 31
0.0
  0
LINE
  5
135
330
1F
100
AcDbEntity
  8
0
 48
0.049871
370
    60
100
AcDbLine
 10
528.7810783457155
 20
295.001526085431
 30
0.0
 11
528.7810783457155
 21
293.006691085431
 31
0.0
  0
LINE
  5
136
330
1F
100
AcDbEntity
  8
0
 48
0.49375
370
    60
100
AcDbLine
 10
531.0826603457155
 20
293.006710085431
 30
0.0
 11
531.0826603457155
 21
273.256710085431
 31
0.0
  0
LINE
  5
137
330
1F
100
AcDbEntity
  8
0
 48
0.49375
370
    60
100
AcDbLine
 10
531.0826603457155
 20
273.256710085431
 30
0.0
 11
531.0826603457155
 21
253.506710085431
 31
0.0
  0
LWPOLYLINE
  5
138
330
1F
100
AcDbEntity
  8
0
370
    60
100
AcDbPolyline
 90
       11
 70
     0
 43
0.0
 10
526.3961903457155
 20
281.480968085431
 10
526.3521843457155
 20
281.092544085431
 10
526.2634543457156
 20
280.706962085431
 10
526.1298943457156
 20
280.329388085431
 10
525.9520533457155
 20
279.965263085431
 10
525.7312053457155
 20
279.620186085431
 10
525.4694253457155
 20
279.299743085431
 10
525.1696133457156
 20
279.009380085431
 10
524.8354763457155
 20
278.754207085431
 10
524.4715083457155
 20
278.538860085431
 10
524.0828893457156
 20
278.367344085431
  0
LINE
  5
139
330
1F
100
AcDbEntity
  8
0
 48
0.095701
370
    60
100
AcDbLine
 10
113.0826453457156
 20
293.006706085431
 30
0.0
 11
116.9106793457155
 21
293.006706085431
 31
0.0
  0
LINE
  5
13A
330
1F
100
AcDbEntity
  8
0
 48
0.175002
370
    60
100
AcDbLine
 10
113.0826453457156
 20
253.506706085431
 30
0.0
 11
120.0827063457156
 21
253.506706085431
 31
0.0
  0
LINE
  5
13B
330
1F
100
AcDbEntity
  8
0
 48
0.174999
370
    60
100
AcDbLine
 10
524.0827063457156
 20
253.506710085431
 30
0.0
 11
531.0826603457155
 21
253.506710085431
 31
0.0
  0
LINE
  5
13C
330
1F
100
AcDbEntity
  8
0
 48
0.0957
370
    60
100
AcDbLine
 10
527.2546423457155
 20
293.006710085431
 30
0.0
 11
531.0826603457155
 21
293.006710085431
 31
0.0
  0
LINE
  5
13D
330
1F
100
AcDbEntity
  8
0
370
    60
100
AcDbLine
 10
535.0826603457155
 20
269.349624085431
 30
0.0
 11
535.0826603457155
 21
295.001488085431
 31
0.0
  0
LINE
  5
13E
330
1F
100
AcDbEntity
  8
0
370
    60
100
AcDbLine
 10
535.0826603457155
 20
269.349624085431
 30
0.0
 11
535.0826603457155
 21
125.023460085431
 31
0.0
  0
LINE
  5
13F
330
1F
100
AcDbEntity
  8
0
370
    60
100
AcDbLine
 10
531.0826603457155
 20
269.349624085431
 30
0.0
 11
531.0826603457155
 21
295.001488085431
 31
0.0
  0
LINE
  5
140
330
1F
100
AcDbEntity
  8
0
 48
0.1
370
    60
100
AcDbLine
 10
531.0826603457155
 20
269.349624085431
 30
0.0
 11
535.0826603457155
 21
269.349624085431
 31
0.0
  0
LINE
  5
141
330
1F
100
AcDbEntity
  8
0
370
    60
100
AcDbLine
 10
506.0826603457155
 20
96.02346008543103
 30
0.0
 11
138.0826763457155
 21
96.02346008543103
 31
0.0
  0
ARC
  5
142
330
1F
100
AcDbEntity
  8
0
370
    60
100
AcDbCircle
 10
138.0826763457155
 20
125.023460085431
 30
0.0
 40
28.99999999999998
100
AcDbArc
 50
179.999995
 51
269.999997
  0
LINE
  5
143
330
1F
100
AcDbEntity
  8
0
370
    60
100
AcDbLine
 10
109.0826453457156
 20
269.349621085431
 30
0.0
 11
109.0826763457155
 21
125.023460085431
 31
0.0
  0
LINE
  5
144
330
1F
100
AcDbEntity
  8
0
 48
0.1
370
    60
100
AcDbLine
 10
113.0826453457156
 20
269.349621085431
 30
0.0
 11
109.0826453457156
 21
269.349621085431
 31
0.0
  0
LINE
  5
145
330
1F
100
AcDbEntity
  8
0
370
    60
100
AcDbLine
 10
113.0826453457156
 20
269.349621085431
 30
0.0
 11
113.0826763457155
 21
125.023460085431
 31
0.0
  0
ARC
  5
146
330
1F
100
AcDbEntity
  8
0
370
    60
100
AcDbCircle
 10
138.0826763457155
 20
125.023460085431
 30
0.0
 40
25.0
100
AcDbArc
 50
179.999995
 51
269.9999970000001
  0
LINE
  5
147
330
1F
100
AcDbEntity
  8
0
370
    60
100
AcDbLine
 10
138.0826763457155
 20
100.023460085431
 30
0.0
 11
506.0826603457155
 21
100.023460085431
 31
0.0
  0
ARC
  5
148
330
1F
100
AcDbEntity
  8
0
370
    60
100
AcDbCircle
 10
506.0826603457155
 20
125.023460085431
 30
0.0
 40
25.00000000000001
100
AcDbArc
 50
269.999997
 51
359.9999999999999
  0
LINE
  5
149
330
1F
100
AcDbEntity
  8
0
370
    60
100
AcDbLine
 10
531.0826603457155
 20
269.349624085431
 30
0.0
 11
531.0826603457155
 21
125.023460085431
 31
0.0
  0
ARC
  5
14A
330
1F
100
AcDbEntity
  8
0
370
    60
100
AcDbCircle
 10
506.0826603457155
 20
125.023460085431
 30
0.0
 40
29.00000000000001
100
AcDbArc
 50
269.9999970000001
 51
0.0000000000000509
  0
LINE
  5
14B
330
1F
100
AcDbEntity
  8
0
370
    60
100
AcDbLine
 10
109.0826453457156
 20
269.349621085431
 30
0.0
 11
109.0826453457156
 21
295.756706085431
 31
0.0
  0
LINE
  5
14C
330
1F
100
AcDbEntity
  8
0
370
    60
100
AcDbLine
 10
113.0826453457156
 20
269.349621085431
 30
0.0
 11
113.0826453457156
 21
295.001484085431
 31
0.0
  0
LWPOLYLINE
  5
14D
330
1F
100
AcDbEntity
  8
0
370
    60
100
AcDbPolyline
 90
        7
 70
     0
 43
0.0
 10
182.5826603457156
 20
187.609966085431
 10
182.5814243457156
 20
187.607315085431
 10
182.5777163457155
 20
187.604671085431
 10
182.5518223457156
 20
187.596840085431
 10
182.4082683457156
 20
187.579914085431
 10
181.8871653457156
 20
187.559234085431
 10
181.5826603457156
 20
187.556705085431
  0
LWPOLYLINE
  5
14E
330
1F
100
AcDbEntity
  8
0
370
    60
100
AcDbPolyline
 90
       19
 70
     0
 43
0.0
 10
127.5208773457156
 20
187.556705085431
 10
126.8483923457155
 20
187.586246085431
 10
126.1818273457155
 20
187.677360085431
 10
125.5267983457156
 20
187.828640085431
 10
124.8887973457156
 20
188.038360085431
 10
124.2729833457156
 20
188.304478085431
 10
123.6842693457155
 20
188.624641085431
 10
123.1273533457155
 20
188.996170085431
 10
122.6065713457156
 20
189.416073085431
 10
122.1259503457155
 20
189.881016085431
 10
121.6891823457155
 20
190.387359085431
 10
121.2995953457156
 20
190.931114085431
 10
120.9601783457156
 20
191.507973085431
 10
120.6734963457155
 20
192.113289085431
 10
120.4416543457155
 20
192.742073085431
 10
120.2663613457155
 20
193.389000085431
 10
120.1488993457155
 20
194.048405085431
 10
120.0900303457156
 20
194.714271085431
 10
120.0826763457155
 20
195.047657085431
  0
LINE
  5
14F
330
1F
100
AcDbEntity
  8
0
 48
0.047362
370
    60
100
AcDbLine
 10
182.5826603457156
 20
187.609966085431
 30
0.0
 11
182.5826603457156
 21
189.504433085431
 31
0.0
  0
ELLIPSE
  5
150
330
1F
100
AcDbEntity
  8
0
370
    60
100
AcDbEllipse
 10
212.5826603457155
 20
189.504433085431
 30
0.0
 11
-1.0
 21
-8.742279078433057E-8
 31
0.0
210
0.0
220
0.0
230
1.0
 40
0.052336
 41
3.141592741012573
 42
4.71238899230957
  0
LINE
  5
151
330
1F
100
AcDbEntity
  8
0
370
    60
100
AcDbLine
 10
212.5826603457155
 20
189.556766085431
 30
0.0
 11
183.5826603457156
 21
189.556766085431
 31
0.0
  0
LINE
  5
152
330
1F
100
AcDbEntity
  8
0
370
    60
100
AcDbLine
 10
462.5826573457156
 20
518.5567090854311
 30
0.0
 11
516.6444583457155
 21
518.5567090854311
 31
0.0
  0
LWPOLYLINE
  5
153
330
1F
100
AcDbEntity
  8
0
370
    60
100
AcDbPolyline
 90
       19
 70
     0
 43
0.0
 10
524.0826603457155
 20
511.065773085431
 10
524.0534403457156
 20
511.7330700854311
 10
523.9655723457155
 20
512.397194085431
 10
523.8194163457155
 20
513.050636085431
 10
523.6160473457155
 20
513.6873550854309
 10
523.3571663457155
 20
514.302315085431
 10
523.0448803457156
 20
514.8912120854311
 10
522.6816363457156
 20
515.450172085431
 10
522.2700003457155
 20
515.975319085431
 10
521.8125493457155
 20
516.4625930854311
 10
521.3117183457156
 20
516.9072950854311
 10
520.7708553457155
 20
517.3043590854311
 10
520.1980703457156
 20
517.6508560854311
 10
519.5986743457155
 20
517.9445570854309
 10
518.9745983457155
 20
518.183204085431
 10
518.3273203457155
 20
518.3646620854311
 10
517.6607853457155
 20
518.487068085431
 10
516.9843173457156
 20
518.548866085431
 10
516.6474643457155
 20
518.5567090854311
  0
LINE
  5
154
330
1F
100
AcDbEntity
  8
0
370
    60
100
AcDbLine
 10
524.0826603457155
 20
195.047657085431
 30
0.0
 11
524.0826603457155
 21
511.065773085431
 31
0.0
  0
LWPOLYLINE
  5
155
330
1F
100
AcDbEntity
  8
0
370
    60
100
AcDbPolyline
 90
       19
 70
     0
 43
0.0
 10
516.6444583457155
 20
187.556709085431
 10
517.3169363457155
 20
187.586250085431
 10
517.9835013457155
 20
187.677364085431
 10
518.6385153457155
 20
187.828644085431
 10
519.2765313457155
 20
188.038364085431
 10
519.8923533457155
 20
188.304481085431
 10
520.4810523457155
 20
188.624645085431
 10
521.0379673457155
 20
188.996174085431
 10
521.5587573457155
 20
189.416073085431
 10
522.0393793457155
 20
189.881019085431
 10
522.4761463457155
 20
190.387359085431
 10
522.8657183457155
 20
190.931118085431
 10
523.2051353457156
 20
191.507976085431
 10
523.4918323457155
 20
192.113293085431
 10
523.7236743457155
 20
192.742073085431
 10
523.8989603457155
 20
193.389004085431
 10
524.0164223457156
 20
194.048408085431
 10
524.0752983457155
 20
194.714275085431
 10
524.0826603457155
 20
195.047657085431
  0
LINE
  5
156
330
1F
100
AcDbEntity
  8
0
370
    60
100
AcDbLine
 10
462.5826603457156
 20
187.556709085431
 30
0.0
 11
516.6444583457155
 21
187.556709085431
 31
0.0
  0
LWPOLYLINE
  5
157
330
1F
100
AcDbEntity
  8
0
370
    60
100
AcDbPolyline
 90
        7
 70
     0
 43
0.0
 10
214.5826603457155
 20
518.5567090854311
 10
182.5814243457156
 20
518.506111085431
 10
182.5777013457155
 20
518.508735085431
 10
182.5518223457156
 20
518.516579085431
 10
182.4082683457156
 20
518.533485085431
 10
181.8871653457156
 20
518.554176085431
 10
181.5826603457156
 20
518.5567090854311
  0
LWPOLYLINE
  5
158
330
1F
100
AcDbEntity
  8
0
370
    60
100
AcDbPolyline
 90
        7
 70
     0
 43
0.0
 10
213.5826603457155
 20
518.503456085431
 10
213.5838963457155
 20
518.506111085431
 10
213.5876043457154
 20
518.508735085431
 10
213.6134983457155
 20
518.516579085431
 10
213.7570533457155
 20
518.533485085431
 10
214.2781563457156
 20
518.554176085431
 10
214.5826603457155
 20
518.5567090854311
  0
LINE
  5
159
330
1F
100
AcDbEntity
  8
0
370
    60
100
AcDbLine
 10
214.5826603457155
 20
518.5567090854311
 30
0.0
 11
322.0826603457155
 21
518.5567090854311
 31
0.0
  0
LINE
  5
15A
330
1F
100
AcDbEntity
  8
0
370
    60
100
AcDbLine
 10
322.0826603457155
 20
518.5567090854311
 30
0.0
 11
429.5826583457155
 21
518.5567090854311
 31
0.0
  0
LWPOLYLINE
  5
15B
330
1F
100
AcDbEntity
  8
0
370
    60
100
AcDbPolyline
 90
        7
 70
     0
 43
0.0
 10
462.5826573457156
 20
518.5567090854311
 10
430.5814203457155
 20
518.506111085431
 10
430.5777083457155
 20
518.508735085431
 10
430.5518163457155
 20
518.516579085431
 10
430.4082623457155
 20
518.5335160854311
 10
429.8871623457155
 20
518.554176085431
 10
429.5826583457155
 20
518.5567090854311
  0
ELLIPSE
  5
15C
330
1F
100
AcDbEntity
  8
0
370
    60
100
AcDbEllipse
 10
460.5826603457156
 20
189.504433085431
 30
0.0
 11
-1.0
 21
-8.742279078433057E-8
 31
0.0
210
0.0
220
0.0
230
1.0
 40
0.052336
 41
3.141592741012573
 42
4.71238899230957
  0
LINE
  5
15D
330
1F
100
AcDbEntity
  8
0
 48
0.047362
370
    60
100
AcDbLine
 10
461.5826603457156
 20
187.609966085431
 30
0.0
 11
461.5826603457156
 21
189.504433085431
 31
0.0
  0
ELLIPSE
  5
15E
330
1F
100
AcDbEntity
  8
0
370
    60
100
AcDbEllipse
 10
431.5826613457155
 20
189.504433085431
 30
0.0
 11
-1.0
 21
-8.742279078433057E-8
 31
0.0
210
0.0
220
0.0
230
1.0
 40
0.052336
 41
4.71238899230957
 42
6.283185482025146
  0
LWPOLYLINE
  5
15F
330
1F
100
AcDbEntity
  8
0
370
    60
100
AcDbPolyline
 90
       27
 70
     0
 43
0.0
 10
202.5826603457155
 20
209.997883085431
 10
201.7730143457155
 20
210.027849085431
 10
200.9646493457155
 20
210.117981085431
 10
200.1599003457155
 20
210.269008085431
 10
199.3607673457155
 20
210.482166085431
 10
198.5692173457155
 20
210.759230085431
 10
197.7874493457155
 20
211.102560085431
 10
197.0182073457156
 20
211.515161085431
 10
196.2650643457154
 20
212.000723085431
 10
195.5327183457155
 20
212.5636650854311
 10
195.1761973457155
 20
212.875746085431
 10
194.8273043457156
 20
213.209184085431
 10
194.4870493457155
 20
213.564749085431
 10
194.1563153457154
 20
213.943109085431
 10
193.8360943457155
 20
214.344978085431
 10
193.5278203457156
 20
214.771168085431
 10
193.2332653457156
 20
215.222481085431
 10
192.9545323457156
 20
215.699592085431
 10
192.6939123457155
 20
216.202911085431
 10
192.4539683457155
 20
216.732475085431
 10
192.2373843457156
 20
217.287817085431
 10
192.0468943457155
 20
217.867847085431
 10
191.8853343457154
 20
218.470728085431
 10
191.7554813457155
 20
219.093754085431
 10
191.6600533457154
 20
219.733226085431
 10
191.6016423457156
 20
220.384332085431
 10
191.5826603457155
 20
221.041020085431
  0
LINE
  5
160
330
1F
100
AcDbEntity
  8
0
370
    60
100
AcDbLine
 10
191.5826603457155
 20
221.041035085431
 30
0.0
 11
191.5826603457155
 21
485.072380085431
 31
0.0
  0
LWPOLYLINE
  5
161
330
1F
100
AcDbEntity
  8
0
370
    60
100
AcDbPolyline
 90
       27
 70
     0
 43
0.0
 10
191.5826603457155
 20
485.0723950854311
 10
191.6016273457155
 20
485.729088085431
 10
191.6600533457154
 20
486.380180085431
 10
191.7554813457155
 20
487.019661085431
 10
191.8853343457154
 20
487.6426920854311
 10
192.0468943457155
 20
488.2455670854311
 10
192.2373843457156
 20
488.8256000854311
 10
192.4539683457155
 20
489.380928085431
 10
192.6939123457155
 20
489.910499085431
 10
192.9545173457155
 20
490.413826085431
 10
193.2332653457156
 20
490.8909380854311
 10
193.5278203457156
 20
491.342232085431
 10
193.8360943457155
 20
491.768440085431
 10
194.1563153457154
 20
492.1702960854311
 10
194.4870493457155
 20
492.5486520854311
 10
194.8273043457156
 20
492.9042430854311
 10
195.1761973457155
 20
493.237678085431
 10
195.5327183457155
 20
493.549751085431
 10
196.2650643457154
 20
494.112678085431
 10
197.0182073457156
 20
494.598244085431
 10
197.7874493457155
 20
495.010841085431
 10
198.5692173457155
 20
495.3541940854311
 10
199.3607673457155
 20
495.631233085431
 10
200.1598853457155
 20
495.8443980854311
 10
200.9646493457155
 20
495.9954300854311
 10
201.7730143457155
 20
496.085579085431
 10
202.5826603457155
 20
496.1155170854311
  0
LINE
  5
162
330
1F
100
AcDbEntity
  8
0
370
    60
100
AcDbLine
 10
137.0826763457155
 20
216.556705085431
 30
0.0
 11
184.0826603457156
 21
216.556707085431
 31
0.0
  0
LINE
  5
163
330
1F
100
AcDbEntity
  8
0
 48
0.0375
370
    60
100
AcDbLine
 10
137.0826763457155
 20
215.056705085431
 30
0.0
 11
137.0826763457155
 21
216.556705085431
 31
0.0
  0
LINE
  5
164
330
1F
100
AcDbEntity
  8
0
370
    60
100
AcDbLine
 10
184.0826603457156
 20
215.056707085431
 30
0.0
 11
137.0826763457155
 21
215.056705085431
 31
0.0
  0
LINE
  5
165
330
1F
100
AcDbEntity
  8
0
370
    60
100
AcDbLine
 10
187.0826603457156
 20
218.056706085431
 30
0.0
 11
187.0826603457156
 21
245.056706085431
 31
0.0
  0
LINE
  5
166
330
1F
100
AcDbEntity
  8
0
 48
0.0375
370
    60
100
AcDbLine
 10
185.5826603457156
 20
245.056706085431
 30
0.0
 11
187.0826603457156
 21
245.056706085431
 31
0.0
  0
LINE
  5
167
330
1F
100
AcDbEntity
  8
0
370
    60
100
AcDbLine
 10
185.5826603457156
 20
218.056706085431
 30
0.0
 11
185.5826603457156
 21
245.056706085431
 31
0.0
  0
ARC
  5
168
330
1F
100
AcDbEntity
  8
0
370
    60
100
AcDbCircle
 10
184.0826603457156
 20
218.056706085431
 30
0.0
 40
1.500000000000002
100
AcDbArc
 50
269.9999970000001
 51
0.0000000000001018
  0
ARC
  5
169
330
1F
100
AcDbEntity
  8
0
370
    60
100
AcDbCircle
 10
184.0826603457156
 20
218.056706085431
 30
0.0
 40
3.000000000000004
100
AcDbArc
 50
269.9999970000001
 51
0.0000000000001018
  0
ARC
  5
16A
330
1F
100
AcDbEntity
  8
0
370
    60
100
AcDbCircle
 10
491.5183603457156
 20
485.076530085431
 30
0.0
 40
11.06421899999999
100
AcDbArc
 50
359.9785790000003
 51
51.00686100000016
  0
ARC
  5
16B
330
1F
100
AcDbEntity
  8
0
370
    60
100
AcDbCircle
 10
491.5794103457155
 20
485.140922085431
 30
0.0
 40
10.974801
100
AcDbArc
 50
51.04307099999991
 51
89.9830429999999
  0
LINE
  5
16C
330
1F
100
AcDbEntity
  8
0
370
    60
100
AcDbLine
 10
491.5826603457155
 20
209.997885085431
 30
0.0
 11
322.0826603457155
 21
209.997885085431
 31
0.0
  0
LWPOLYLINE
  5
16D
330
1F
100
AcDbEntity
  8
0
370
    60
100
AcDbPolyline
 90
       27
 70
     0
 43
0.0
 10
502.5826603457155
 20
221.041023085431
 10
502.5636863457155
 20
220.384333085431
 10
502.5052683457155
 20
219.733228085431
 10
502.4098393457156
 20
219.093756085431
 10
502.2799793457156
 20
218.470730085431
 10
502.1184193457156
 20
217.867849085431
 10
501.9279363457155
 20
217.287821085431
 10
501.7113453457155
 20
216.732477085431
 10
501.4714083457155
 20
216.202913085431
 10
501.2107963457155
 20
215.699594085431
 10
500.9320483457155
 20
215.222484085431
 10
500.6375003457155
 20
214.771170085431
 10
500.3292273457155
 20
214.344980085431
 10
500.0090143457155
 20
213.943111085431
 10
499.6782723457155
 20
213.564751085431
 10
499.3380163457156
 20
213.209186085431
 10
498.9891163457155
 20
212.875748085431
 10
498.6325953457155
 20
212.563667085431
 10
497.9002573457155
 20
212.000725085431
 10
497.1471133457155
 20
211.515163085431
 10
496.3778723457156
 20
211.102562085431
 10
495.5961033457155
 20
210.759231085431
 10
494.8045613457156
 20
210.482170085431
 10
494.0054283457155
 20
210.269010085431
 10
493.2006723457155
 20
210.117983085431
 10
492.3922993457155
 20
210.027851085431
 10
491.5826603457155
 20
209.997885085431
  0
LINE
  5
16E
330
1F
100
AcDbEntity
  8
0
370
    60
100
AcDbLine
 10
502.5826603457155
 20
221.041063085431
 30
0.0
 11
502.5826603457155
 21
485.072380085431
 31
0.0
  0
LINE
  5
16F
330
1F
100
AcDbEntity
  8
0
370
    60
100
AcDbLine
 10
322.0826603457155
 20
496.1155170854311
 30
0.0
 11
491.5826603457155
 21
496.115547085431
 31
0.0
  0
LINE
  5
170
330
1F
100
AcDbEntity
  8
0
370
    60
100
AcDbLine
 10
202.5826603457155
 20
496.1155170854311
 30
0.0
 11
322.0826603457155
 21
496.1155170854311
 31
0.0
  0
LINE
  5
171
330
1F
100
AcDbEntity
  8
0
370
    60
100
AcDbLine
 10
322.0826603457155
 20
209.997885085431
 30
0.0
 11
202.5826603457155
 21
209.997883085431
 31
0.0
  0
LINE
  5
172
330
1F
100
AcDbEntity
  8
0
370
    60
100
AcDbLine
 10
460.5826603457156
 20
189.556770085431
 30
0.0
 11
431.5826613457155
 21
189.556770085431
 31
0.0
  0
LINE
  5
173
330
1F
100
AcDbEntity
  8
0
 48
0.047362
370
    60
100
AcDbLine
 10
430.5826613457155
 20
187.609966085431
 30
0.0
 11
430.5826613457155
 21
189.504433085431
 31
0.0
  0
LWPOLYLINE
  5
174
330
1F
100
AcDbEntity
  8
0
370
    60
100
AcDbPolyline
 90
        7
 70
     0
 43
0.0
 10
430.5826613457155
 20
187.609966085431
 10
430.5814233457155
 20
187.607319085431
 10
430.5777113457156
 20
187.604675085431
 10
430.5518193457156
 20
187.596844085431
 10
430.4082653457156
 20
187.579914085431
 10
429.8871643457155
 20
187.559238085431
 10
429.5826613457155
 20
187.556709085431
  0
LINE
  5
175
330
1F
100
AcDbEntity
  8
0
370
    60
100
AcDbLine
 10
322.0826603457155
 20
187.556709085431
 30
0.0
 11
429.5826613457155
 21
187.556709085431
 31
0.0
  0
LWPOLYLINE
  5
176
330
1F
100
AcDbEntity
  8
0
370
    60
100
AcDbPolyline
 90
        7
 70
     0
 43
0.0
 10
461.5826603457156
 20
187.609966085431
 10
461.5839003457155
 20
187.607319085431
 10
461.5876123457155
 20
187.604675085431
 10
461.6135023457156
 20
187.596844085431
 10
461.7570573457156
 20
187.579918085431
 10
462.2781563457155
 20
187.559238085431
 10
462.5826603457156
 20
187.556709085431
  0
LINE
  5
177
330
1F
100
AcDbEntity
  8
0
370
    60
100
AcDbLine
 10
127.5208473457156
 20
518.5567090854311
 30
0.0
 11
181.5826603457156
 21
518.5567090854311
 31
0.0
  0
LINE
  5
178
330
1F
100
AcDbEntity
  8
0
370
    60
100
AcDbLine
 10
215.0826603457155
 20
187.556705085431
 30
0.0
 11
322.0826603457155
 21
187.556709085431
 31
0.0
  0
ELLIPSE
  5
179
330
1F
100
AcDbEntity
  8
0
370
    60
100
AcDbEllipse
 10
183.5826603457156
 20
189.504433085431
 30
0.0
 11
-1.0
 21
-8.742279078433057E-8
 31
0.0
210
0.0
220
0.0
230
1.0
 40
0.052336
 41
4.71238899230957
 42
6.283185482025146
  0
LINE
  5
17A
330
1F
100
AcDbEntity
  8
0
370
    60
100
AcDbLine
 10
120.0826763457155
 20
195.047657085431
 30
0.0
 11
120.0826453457156
 21
511.0657420854311
 31
0.0
  0
LINE
  5
17B
330
1F
100
AcDbEntity
  8
0
370
    60
100
AcDbLine
 10
127.5208773457156
 20
187.556705085431
 30
0.0
 11
181.5826603457156
 21
187.556705085431
 31
0.0
  0
LWPOLYLINE
  5
17C
330
1F
100
AcDbEntity
  8
0
370
    60
100
AcDbPolyline
 90
       19
 70
     0
 43
0.0
 10
120.0826453457156
 20
511.0657420854311
 10
120.1118813457156
 20
511.7330700854311
 10
120.1997413457155
 20
512.397194085431
 10
120.3458903457155
 20
513.050636085431
 10
120.5492593457156
 20
513.6873550854309
 10
120.8081393457156
 20
514.302315085431
 10
121.1204263457156
 20
514.8912120854311
 10
121.4836773457155
 20
515.450142085431
 10
121.8952983457155
 20
515.975319085431
 10
122.3527563457155
 20
516.462562085431
 10
122.8536113457155
 20
516.9072950854311
 10
123.3944433457155
 20
517.3043590854311
 10
123.9672283457156
 20
517.6508560854311
 10
124.5666233457155
 20
517.9445570854309
 10
125.1907083457155
 20
518.183204085431
 10
125.8379863457155
 20
518.3646620854311
 10
126.5045203457156
 20
518.4870380854311
 10
127.1809733457155
 20
518.548836085431
 10
127.5178563457155
 20
518.5567090854311
  0
LINE
  5
17D
330
1F
100
AcDbEntity
  8
0
 48
0.000068
370
    60
100
AcDbLine
 10
461.0826603457156
 20
187.441612085431
 30
0.0
 11
461.0826603457156
 21
187.444351085431
 31
0.0
  0
LINE
  5
17E
330
1F
100
AcDbEntity
  8
0
 48
0.175
370
    60
100
AcDbLine
 10
454.0826603457156
 20
187.444351085431
 30
0.0
 11
461.0826603457156
 21
187.444351085431
 31
0.0
  0
LINE
  5
17F
330
1F
100
AcDbEntity
  8
0
 48
0.25
370
    60
100
AcDbLine
 10
441.0826603457155
 20
187.444351085431
 30
0.0
 11
451.0826603457156
 21
187.444351085431
 31
0.0
  0
LINE
  5
180
330
1F
100
AcDbEntity
  8
0
 48
0.000068
370
    60
100
AcDbLine
 10
441.0826603457155
 20
187.441612085431
 30
0.0
 11
441.0826603457155
 21
187.444351085431
 31
0.0
  0
LINE
  5
181
330
1F
100
AcDbEntity
  8
0
 48
0.022098
370
    60
100
AcDbLine
 10
461.0826603457156
 20
188.665802085431
 30
0.0
 11
461.0826603457156
 21
189.5497050854311
 31
0.0
  0
LINE
  5
182
330
1F
100
AcDbEntity
  8
0
 48
0.030536
370
    60
100
AcDbLine
 10
461.0826603457156
 20
187.444351085431
 30
0.0
 11
461.0826603457156
 21
188.665802085431
 31
0.0
  0
LINE
  5
183
330
1F
100
AcDbEntity
  8
0
 48
0.022099
370
    60
100
AcDbLine
 10
431.0826613457155
 20
188.665802085431
 30
0.0
 11
431.0826613457155
 21
189.549766085431
 31
0.0
  0
LINE
  5
184
330
1F
100
AcDbEntity
  8
0
 48
0.000068
370
    60
100
AcDbLine
 10
431.0826613457155
 20
187.441612085431
 30
0.0
 11
431.0826613457155
 21
187.444351085431
 31
0.0
  0
LINE
  5
185
330
1F
100
AcDbEntity
  8
0
 48
0.030536
370
    60
100
AcDbLine
 10
431.0826613457155
 20
187.444351085431
 30
0.0
 11
431.0826613457155
 21
188.665802085431
 31
0.0
  0
LINE
  5
186
330
1F
100
AcDbEntity
  8
0
 48
0.175
370
    60
100
AcDbLine
 10
431.0826613457155
 20
187.444351085431
 30
0.0
 11
438.0826603457155
 21
187.444351085431
 31
0.0
  0
LINE
  5
187
330
1F
100
AcDbEntity
  8
0
 48
0.008651
370
    60
100
AcDbLine
 10
438.0826603457155
 20
187.444351085431
 30
0.0
 11
438.2558663457156
 21
187.144764085431
 31
0.0
  0
ELLIPSE
  5
188
330
1F
100
AcDbEntity
  8
0
370
    60
100
AcDbEllipse
 10
438.4290713457156
 20
187.244625085431
 30
0.0
 11
0.2000000029802322
 21
1.481907929701265E-9
 31
0.0
210
0.0
220
0.0
230
1.0
 40
0.9986300000000001
 41
3.665191411972046
 42
4.71238899230957
  0
LINE
  5
189
330
1F
100
AcDbEntity
  8
0
 48
0.000079
370
    60
100
AcDbLine
 10
440.9094563457155
 20
187.144764085431
 30
0.0
 11
440.9094563457155
 21
187.141613085431
 31
0.0
  0
LINE
  5
18A
330
1F
100
AcDbEntity
  8
0
 48
0.008651
370
    60
100
AcDbLine
 10
441.0826603457155
 20
187.444351085431
 30
0.0
 11
440.9094563457155
 21
187.144764085431
 31
0.0
  0
LINE
  5
18B
330
1F
100
AcDbEntity
  8
0
 48
0.057679
370
    60
100
AcDbLine
 10
440.7362513457155
 20
187.044899085431
 30
0.0
 11
438.4290713457156
 21
187.044899085431
 31
0.0
  0
ELLIPSE
  5
18C
330
1F
100
AcDbEntity
  8
0
370
    60
100
AcDbEllipse
 10
440.7362513457155
 20
187.244625085431
 30
0.0
 11
0.2000000029802322
 21
1.481964773120126E-9
 31
0.0
210
0.0
220
0.0
230
1.0
 40
0.9986300000000001
 41
4.71238899230957
 42
5.759586334228516
  0
LINE
  5
18D
330
1F
100
AcDbEntity
  8
0
 48
0.029359
370
    60
100
AcDbLine
 10
438.0826603457155
 20
188.618717085431
 30
0.0
 11
438.0826603457155
 21
187.444351085431
 31
0.0
  0
LINE
  5
18E
330
1F
100
AcDbEntity
  8
0
 48
0.029359
370
    60
100
AcDbLine
 10
441.0826603457155
 20
188.618717085431
 30
0.0
 11
441.0826603457155
 21
187.444351085431
 31
0.0
  0
LINE
  5
18F
330
1F
100
AcDbEntity
  8
0
 48
0.063453
370
    60
100
AcDbLine
 10
438.3136013457155
 20
188.6291810854311
 30
0.0
 11
440.8517203457155
 21
188.6291810854311
 31
0.0
  0
LWPOLYLINE
  5
190
330
1F
100
AcDbEntity
  8
0
370
    60
100
AcDbPolyline
 90
        4
 70
     0
 43
0.0
 10
438.3136013457155
 20
188.6291810854311
 10
438.1105083457155
 20
188.623699085431
 10
438.0867403457156
 20
188.620674085431
 10
438.0826603457155
 20
188.618717085431
  0
LWPOLYLINE
  5
191
330
1F
100
AcDbEntity
  8
0
370
    60
100
AcDbPolyline
 90
        4
 70
     0
 43
0.0
 10
440.8517203457155
 20
188.6291810854311
 10
441.0548133457156
 20
188.623699085431
 10
441.0785813457155
 20
188.620674085431
 10
441.0826603457155
 20
188.618717085431
  0
LINE
  5
192
330
1F
100
AcDbEntity
  8
0
 48
0.008651
370
    60
100
AcDbLine
 10
451.0826603457156
 20
187.444351085431
 30
0.0
 11
451.2558673457155
 21
187.144764085431
 31
0.0
  0
LINE
  5
193
330
1F
100
AcDbEntity
  8
0
 48
0.029359
370
    60
100
AcDbLine
 10
451.0826603457156
 20
188.618717085431
 30
0.0
 11
451.0826603457156
 21
187.444351085431
 31
0.0
  0
ELLIPSE
  5
194
330
1F
100
AcDbEntity
  8
0
370
    60
100
AcDbEllipse
 10
451.4290713457156
 20
187.244625085431
 30
0.0
 11
0.2000000029802322
 21
1.481907929701265E-9
 31
0.0
210
0.0
220
0.0
230
1.0
 40
0.9986300000000001
 41
3.665191411972046
 42
4.71238899230957
  0
LWPOLYLINE
  5
195
330
1F
100
AcDbEntity
  8
0
370
    60
100
AcDbPolyline
 90
        4
 70
     0
 43
0.0
 10
451.3136003457155
 20
188.6291810854311
 10
451.1105083457155
 20
188.623699085431
 10
451.0867403457155
 20
188.620674085431
 10
451.0826603457156
 20
188.618717085431
  0
LINE
  5
196
330
1F
100
AcDbEntity
  8
0
 48
0.029359
370
    60
100
AcDbLine
 10
454.0826603457156
 20
188.618717085431
 30
0.0
 11
454.0826603457156
 21
187.444351085431
 31
0.0
  0
LINE
  5
197
330
1F
100
AcDbEntity
  8
0
 48
0.063453
370
    60
100
AcDbLine
 10
451.3136003457155
 20
188.6291810854311
 30
0.0
 11
453.8517203457155
 21
188.6291810854311
 31
0.0
  0
LWPOLYLINE
  5
198
330
1F
100
AcDbEntity
  8
0
370
    60
100
AcDbPolyline
 90
        4
 70
     0
 43
0.0
 10
453.8517203457155
 20
188.6291810854311
 10
454.0548133457155
 20
188.623699085431
 10
454.0785813457155
 20
188.620674085431
 10
454.0826603457156
 20
188.618717085431
  0
LINE
  5
199
330
1F
100
AcDbEntity
  8
0
 48
0.008651
370
    60
100
AcDbLine
 10
454.0826603457156
 20
187.444351085431
 30
0.0
 11
453.9094563457155
 21
187.144764085431
 31
0.0
  0
LINE
  5
19A
330
1F
100
AcDbEntity
  8
0
 48
0.057679
370
    60
100
AcDbLine
 10
451.4290713457156
 20
187.044899085431
 30
0.0
 11
453.7362503457155
 21
187.044899085431
 31
0.0
  0
ELLIPSE
  5
19B
330
1F
100
AcDbEntity
  8
0
370
    60
100
AcDbEllipse
 10
453.7362503457155
 20
187.244625085431
 30
0.0
 11
0.2000000029802322
 21
1.481964773120126E-9
 31
0.0
210
0.0
220
0.0
230
1.0
 40
0.9986300000000001
 41
4.71238899230957
 42
5.759586334228516
  0
LINE
  5
19C
330
1F
100
AcDbEntity
  8
0
 48
0.175
370
    60
100
AcDbLine
 10
185.0826603457156
 20
187.444351085431
 30
0.0
 11
192.0826603457155
 21
187.444351085431
 31
0.0
  0
LINE
  5
19D
330
1F
100
AcDbEntity
  8
0
 48
0.25
370
    60
100
AcDbLine
 10
195.0826603457155
 20
187.444351085431
 30
0.0
 11
205.0826603457155
 21
187.444351085431
 31
0.0
  0
LINE
  5
19E
330
1F
100
AcDbEntity
  8
0
 48
0.030536
370
    60
100
AcDbLine
 10
185.0826603457156
 20
187.444351085431
 30
0.0
 11
185.0826603457156
 21
188.665802085431
 31
0.0
  0
LINE
  5
19F
330
1F
100
AcDbEntity
  8
0
 48
0.022274
370
    60
100
AcDbLine
 10
185.0826603457156
 20
188.665802085431
 30
0.0
 11
185.0826603457156
 21
189.556774085431
 31
0.0
  0
LINE
  5
1A0
330
1F
100
AcDbEntity
  8
0
370
    60
100
AcDbLine
 10
185.0826603457156
 20
188.665802085431
 30
0.0
 11
215.0826603457155
 21
188.665802085431
 31
0.0
  0
LINE
  5
1A1
330
1F
100
AcDbEntity
  8
0
 48
0.030536
370
    60
100
AcDbLine
 10
215.0826603457155
 20
187.444351085431
 30
0.0
 11
215.0826603457155
 21
188.665802085431
 31
0.0
  0
LINE
  5
1A2
330
1F
100
AcDbEntity
  8
0
 48
0.175
370
    60
100
AcDbLine
 10
208.0826603457155
 20
187.444351085431
 30
0.0
 11
215.0826603457155
 21
187.444351085431
 31
0.0
  0
LINE
  5
1A3
330
1F
100
AcDbEntity
  8
0
 48
0.008651
370
    60
100
AcDbLine
 10
208.0826603457155
 20
187.444351085431
 30
0.0
 11
207.9094583457156
 21
187.144760085431
 31
0.0
  0
ELLIPSE
  5
1A4
330
1F
100
AcDbEntity
  8
0
370
    60
100
AcDbEllipse
 10
207.7362553457156
 20
187.244625085431
 30
0.0
 11
-0.2000000029802323
 21
-1.748458089423366E-8
 31
0.0
210
0.0
220
0.0
230
1.0
 40
0.9986299999999998
 41
1.570796370506287
 42
2.617993831634521
  0
LINE
  5
1A5
330
1F
100
AcDbEntity
  8
0
 48
0.008651
370
    60
100
AcDbLine
 10
205.0826603457155
 20
187.444351085431
 30
0.0
 11
205.2558633457155
 21
187.144760085431
 31
0.0
  0
LINE
  5
1A6
330
1F
100
AcDbEntity
  8
0
 48
0.05768
370
    60
100
AcDbLine
 10
207.7362553457156
 20
187.044899085431
 30
0.0
 11
205.4290653457155
 21
187.044899085431
 31
0.0
  0
ELLIPSE
  5
1A7
330
1F
100
AcDbEntity
  8
0
370
    60
100
AcDbEllipse
 10
205.4290653457155
 20
187.244625085431
 30
0.0
 11
-0.2000000029802323
 21
-1.748458089423366E-8
 31
0.0
210
0.0
220
0.0
230
1.0
 40
0.9986299999999998
 41
0.5235987901687622
 42
1.570796370506287
  0
LINE
  5
1A8
330
1F
100
AcDbEntity
  8
0
 48
0.029359
370
    60
100
AcDbLine
 10
208.0826603457155
 20
188.618713085431
 30
0.0
 11
208.0826603457155
 21
187.444351085431
 31
0.0
  0
LINE
  5
1A9
330
1F
100
AcDbEntity
  8
0
 48
0.029359
370
    60
100
AcDbLine
 10
205.0826603457155
 20
188.618713085431
 30
0.0
 11
205.0826603457155
 21
187.444351085431
 31
0.0
  0
LINE
  5
1AA
330
1F
100
AcDbEntity
  8
0
 48
0.063453
370
    60
100
AcDbLine
 10
205.3136023457154
 20
188.629177085431
 30
0.0
 11
207.8517193457155
 21
188.629177085431
 31
0.0
  0
LWPOLYLINE
  5
1AB
330
1F
100
AcDbEntity
  8
0
370
    60
100
AcDbPolyline
 90
        4
 70
     0
 43
0.0
 10
207.8517193457155
 20
188.629177085431
 10
208.0548133457156
 20
188.623695085431
 10
208.0785863457155
 20
188.620670085431
 10
208.0826603457155
 20
188.618713085431
  0
LWPOLYLINE
  5
1AC
330
1F
100
AcDbEntity
  8
0
370
    60
100
AcDbPolyline
 90
        4
 70
     0
 43
0.0
 10
205.3136023457154
 20
188.629177085431
 10
205.1105083457155
 20
188.623695085431
 10
205.0867343457155
 20
188.620670085431
 10
205.0826603457155
 20
188.618713085431
  0
LINE
  5
1AD
330
1F
100
AcDbEntity
  8
0
 48
0.008651
370
    60
100
AcDbLine
 10
195.0826603457155
 20
187.444351085431
 30
0.0
 11
194.9094583457156
 21
187.144760085431
 31
0.0
  0
LINE
  5
1AE
330
1F
100
AcDbEntity
  8
0
 48
0.000079
370
    60
100
AcDbLine
 10
194.9094583457156
 20
187.144760085431
 30
0.0
 11
194.9094583457156
 21
187.1416090854311
 31
0.0
  0
LINE
  5
1AF
330
1F
100
AcDbEntity
  8
0
 48
0.029359
370
    60
100
AcDbLine
 10
195.0826603457155
 20
188.618713085431
 30
0.0
 11
195.0826603457155
 21
187.444351085431
 31
0.0
  0
ELLIPSE
  5
1B0
330
1F
100
AcDbEntity
  8
0
370
    60
100
AcDbEllipse
 10
194.7362553457156
 20
187.244625085431
 30
0.0
 11
-0.2000000029802323
 21
-1.748458089423366E-8
 31
0.0
210
0.0
220
0.0
230
1.0
 40
0.9986299999999998
 41
1.570796370506287
 42
2.617993831634521
  0
LWPOLYLINE
  5
1B1
330
1F
100
AcDbEntity
  8
0
370
    60
100
AcDbPolyline
 90
        4
 70
     0
 43
0.0
 10
194.8517193457155
 20
188.629177085431
 10
195.0548133457156
 20
188.623695085431
 10
195.0785863457155
 20
188.620670085431
 10
195.0826603457155
 20
188.618713085431
  0
LWPOLYLINE
  5
1B2
330
1F
100
AcDbEntity
  8
0
370
    60
100
AcDbPolyline
 90
        4
 70
     0
 43
0.0
 10
192.3136023457154
 20
188.629177085431
 10
192.1105083457155
 20
188.623695085431
 10
192.0867343457155
 20
188.620670085431
 10
192.0826603457155
 20
188.618713085431
  0
LINE
  5
1B3
330
1F
100
AcDbEntity
  8
0
 48
0.063453
370
    60
100
AcDbLine
 10
192.3136023457154
 20
188.629177085431
 30
0.0
 11
194.8517193457155
 21
188.629177085431
 31
0.0
  0
LINE
  5
1B4
330
1F
100
AcDbEntity
  8
0
 48
0.029359
370
    60
100
AcDbLine
 10
192.0826603457155
 20
188.618713085431
 30
0.0
 11
192.0826603457155
 21
187.444351085431
 31
0.0
  0
LINE
  5
1B5
330
1F
100
AcDbEntity
  8
0
 48
0.008651
370
    60
100
AcDbLine
 10
192.0826603457155
 20
187.444351085431
 30
0.0
 11
192.2558633457155
 21
187.144760085431
 31
0.0
  0
LINE
  5
1B6
330
1F
100
AcDbEntity
  8
0
 48
0.000079
370
    60
100
AcDbLine
 10
192.2558633457155
 20
187.144760085431
 30
0.0
 11
192.2558633457155
 21
187.1416090854311
 31
0.0
  0
LINE
  5
1B7
330
1F
100
AcDbEntity
  8
0
 48
0.05768
370
    60
100
AcDbLine
 10
192.4290653457155
 20
187.044899085431
 30
0.0
 11
194.7362553457156
 21
187.044899085431
 31
0.0
  0
ELLIPSE
  5
1B8
330
1F
100
AcDbEntity
  8
0
370
    60
100
AcDbEllipse
 10
192.4290653457155
 20
187.244625085431
 30
0.0
 11
-0.2000000029802323
 21
-1.748458089423366E-8
 31
0.0
210
0.0
220
0.0
230
1.0
 40
0.9986299999999998
 41
0.5235987901687622
 42
1.570796370506287
  0
LINE
  5
1B9
330
1F
100
AcDbEntity
  8
0
 48
0.00866
370
    60
100
AcDbLine
 10
441.0826603457155
 20
187.441612085431
 30
0.0
 11
440.9094563457155
 21
187.141613085431
 31
0.0
  0
LINE
  5
1BA
330
1F
100
AcDbEntity
  8
0
 48
0.028741
370
    60
100
AcDbLine
 10
94.63400634571555
 20
271.756706085431
 30
0.0
 11
95.78363434571556
 21
271.756706085431
 31
0.0
  0
LWPOLYLINE
  5
1BB
330
1F
100
AcDbEntity
  8
0
370
    60
100
AcDbPolyline
 90
       16
 70
     0
 43
0.0
 10
94.63400634571555
 20
271.756706085431
 10
94.47156134571556
 20
271.783096085431
 10
94.33719234571554
 20
271.845287085431
 10
94.16302834571555
 20
271.986355085431
 10
94.00268934571555
 20
272.194469085431
 10
93.86981534571554
 20
272.461437085431
 10
93.77365534571554
 20
272.783958085431
 10
93.72668834571554
 20
273.162563085431
 10
93.74200834571555
 20
273.539360085431
 10
93.82391734571554
 20
273.921787085431
 10
93.92810434571554
 20
274.184139085431
 10
94.04800834571556
 20
274.387390085431
 10
94.16290634571554
 20
274.526935085431
 10
94.33691834571555
 20
274.667953085431
 10
94.47171434571554
 20
274.730366085431
 10
94.63400634571555
 20
274.756706085431
  0
LINE
  5
1BC
330
1F
100
AcDbEntity
  8
0
 48
0.028741
370
    60
100
AcDbLine
 10
94.63400634571555
 20
274.756706085431
 30
0.0
 11
95.78363434571556
 21
274.756706085431
 31
0.0
  0
LINE
  5
1BD
330
1F
100
AcDbEntity
  8
0
 48
0.028854
370
    60
100
AcDbLine
 10
94.59561534571556
 20
272.756706085431
 30
0.0
 11
95.74975934571556
 21
272.756706085431
 31
0.0
  0
LWPOLYLINE
  5
1BE
330
1F
100
AcDbEntity
  8
0
370
    60
100
AcDbPolyline
 90
       10
 70
     0
 43
0.0
 10
95.74975934571556
 20
272.756706085431
 10
95.83035634571554
 20
272.776771085431
 10
95.91971234571555
 20
272.854500085431
 10
95.99017734571554
 20
272.988071085431
 10
96.03223034571555
 20
273.197861085431
 10
96.01617834571555
 20
273.432911085431
 10
95.96081934571556
 20
273.593372085431
 10
95.88214534571556
 20
273.700176085431
 10
95.79471234571555
 20
273.750568085431
 10
95.74975934571556
 20
273.756706085431
  0
LINE
  5
1BF
330
1F
100
AcDbEntity
  8
0
 48
0.028854
370
    60
100
AcDbLine
 10
94.59561534571556
 20
273.756706085431
 30
0.0
 11
95.74975934571556
 21
273.756706085431
 31
0.0
  0
LWPOLYLINE
  5
1C0
330
1F
100
AcDbEntity
  8
0
370
    60
100
AcDbPolyline
 90
       10
 70
     0
 43
0.0
 10
94.59561534571556
 20
272.756706085431
 10
94.50329934571555
 20
272.782707085431
 10
94.41186934571554
 20
272.868458085431
 10
94.33636834571554
 20
273.024048085431
 10
94.30221934571556
 20
273.245857085431
 10
94.32992934571554
 20
273.467510085431
 10
94.39691534571556
 20
273.622925085431
 10
94.47348434571556
 20
273.710380085431
 10
94.54330834571554
 20
273.748470085431
 10
94.59561534571556
 20
273.756706085431
  0
LWPOLYLINE
  5
1C1
330
1F
100
AcDbEntity
  8
0
370
    60
100
AcDbPolyline
 90
        7
 70
     0
 43
0.0
 10
94.82342934571555
 20
288.256706085431
 10
94.37732334571554
 20
287.5097200854311
 10
94.05389834571555
 20
287.0317840854311
 10
93.90210334571556
 20
286.837993085431
 10
93.83597134571555
 20
286.770698085431
 10
93.81653234571554
 20
286.758228085431
 10
93.80984834571554
 20
286.756706085431
  0
LWPOLYLINE
  5
1C2
330
1F
100
AcDbEntity
  8
0
370
    60
100
AcDbPolyline
 90
       10
 70
     0
 43
0.0
 10
93.80984834571554
 20
286.756706085431
 10
93.80658334571554
 20
286.757339085431
 10
93.80402034571556
 20
286.759350085431
 10
93.80240234571555
 20
286.762440085431
 10
93.80142634571554
 20
286.769546085431
 10
93.80493534571555
 20
286.792217085431
 10
93.84683634571554
 20
286.900604085431
 10
94.00510034571555
 20
287.211708085431
 10
94.44519434571556
 20
287.995197085431
 10
94.59561534571556
 20
288.256706085431
  0
LINE
  5
1C3
330
1F
100
AcDbEntity
  8
0
 48
0.057728
370
    60
100
AcDbLine
 10
94.59561534571556
 20
288.256706085431
 30
0.0
 11
95.74975934571556
 21
290.256706085431
 31
0.0
  0
LWPOLYLINE
  5
1C4
330
1F
100
AcDbEntity
  8
0
370
    60
100
AcDbPolyline
 90
       10
 70
     0
 43
0.0
 10
95.95135834571555
 20
290.256706085431
 10
96.42215334571556
 20
291.142887085431
 10
96.61447534571555
 20
291.556522085431
 10
96.67136034571554
 20
291.707107085431
 10
96.67865334571555
 20
291.738811085431
 10
96.67914234571556
 20
291.7487330854311
 10
96.67847034571555
 20
291.752899085431
 10
96.67752434571555
 20
291.754707085431
 10
96.67520534571555
 20
291.756439085431
 10
96.67377134571554
 20
291.756706085431
  0
LWPOLYLINE
  5
1C5
330
1F
100
AcDbEntity
  8
0
370
    60
100
AcDbPolyline
 90
        8
 70
     0
 43
0.0
 10
96.67377134571554
 20
291.756706085431
 10
96.67172634571556
 20
291.756424085431
 10
96.66791134571555
 20
291.754707085431
 10
96.64969234571554
 20
291.738521085431
 10
96.58548334571556
 20
291.654136085431
 10
96.40216434571555
 20
291.366974085431
 10
95.89371134571554
 20
290.505531085431
 10
95.74975934571556
 20
290.256706085431
  0
LINE
  5
1C6
330
1F
100
AcDbEntity
  8
0
 48
0.057403
370
    60
100
AcDbLine
 10
94.82342934571555
 20
288.256706085431
 30
0.0
 11
95.95135834571555
 21
290.256706085431
 31
0.0
  0
LINE
  5
1C7
330
1F
100
AcDbEntity
  8
0
 48
0.02335
370
    60
100
AcDbLine
 10
108.1486853457155
 20
266.892120085431
 30
0.0
 11
109.0826763457155
 21
266.892120085431
 31
0.0
  0
LINE
  5
1C8
330
1F
100
AcDbEntity
  8
0
 48
0.02335
370
    60
100
AcDbLine
 10
108.1486853457155
 20
273.092121085431
 30
0.0
 11
109.0826763457155
 21
273.092121085431
 31
0.0
  0
LINE
  5
1C9
330
1F
100
AcDbEntity
  8
0
370
    60
100
AcDbLine
 10
108.1486853457155
 20
296.256706085431
 30
0.0
 11
108.1486853457155
 21
250.256706085431
 31
0.0
  0
LINE
  5
1CA
330
1F
100
AcDbEntity
  8
0
 48
0.210001
370
    60
100
AcDbLine
 10
108.1486853457155
 20
296.256706085431
 30
0.0
 11
99.74866134571555
 21
296.256706085431
 31
0.0
  0
LINE
  5
1CB
330
1F
100
AcDbEntity
  8
0
 48
0.210001
370
    60
100
AcDbLine
 10
108.1486853457155
 20
250.256706085431
 30
0.0
 11
99.74866134571555
 21
250.256706085431
 31
0.0
  0
LINE
  5
1CC
330
1F
100
AcDbEntity
  8
0
370
    60
100
AcDbLine
 10
99.74866134571555
 20
296.256706085431
 30
0.0
 11
99.74866134571555
 21
250.256706085431
 31
0.0
  0
LINE
  5
1CD
330
1F
100
AcDbEntity
  8
0
 48
0.030758
370
    60
100
AcDbLine
 10
94.26382834571554
 20
286.756706085431
 30
0.0
 11
93.64868534571555
 21
285.691196085431
 31
0.0
  0
LINE
  5
1CE
330
1F
100
AcDbEntity
  8
0
 48
0.129904
370
    60
100
AcDbLine
 10
99.74866134571555
 20
296.256706085431
 30
0.0
 11
97.15060834571555
 21
291.756706085431
 31
0.0
  0
LINE
  5
1CF
330
1F
100
AcDbEntity
  8
0
 48
0.030759
370
    60
100
AcDbLine
 10
94.26385834571555
 20
259.756704085431
 30
0.0
 11
93.64868534571555
 21
260.822216085431
 31
0.0
  0
LINE
  5
1D0
330
1F
100
AcDbEntity
  8
0
 48
0.129903
370
    60
100
AcDbLine
 10
99.74866134571555
 20
250.256706085431
 30
0.0
 11
97.15060834571555
 21
254.756704085431
 31
0.0
  0
LINE
  5
1D1
330
1F
100
AcDbEntity
  8
0
370
    60
100
AcDbLine
 10
93.64868534571555
 20
285.691196085431
 30
0.0
 11
93.64868534571555
 21
260.822216085431
 31
0.0
  0
LWPOLYLINE
  5
1D2
330
1F
100
AcDbEntity
  8
0
370
    60
100
AcDbPolyline
 90
       16
 70
     0
 43
0.0
 10
96.32269634571556
 20
271.756706085431
 10
96.44687234571556
 20
271.772522085431
 10
96.62573634571554
 20
271.855366085431
 10
96.75207934571556
 20
271.965172085431
 10
96.88998834571554
 20
272.152057085431
 10
97.01544534571555
 20
272.422840085431
 10
97.10919534571555
 20
272.779659085431
 10
97.15036434571554
 20
273.220096085431
 10
97.12103634571555
 20
273.661541085431
 10
97.03894434571556
 20
274.021046085431
 10
96.92624234571555
 20
274.296070085431
 10
96.80307434571556
 20
274.488739085431
 10
96.69299734571554
 20
274.605678085431
 10
96.54489534571555
 20
274.704929085431
 10
96.44626234571554
 20
274.741043085431
 10
96.32269634571556
 20
274.756706085431
  0
LWPOLYLINE
  5
1D3
330
1F
100
AcDbEntity
  8
0
370
    60
100
AcDbPolyline
 90
        7
 70
     0
 43
0.0
 10
95.36249134571555
 20
288.256706085431
 10
94.91638534571554
 20
287.5097200854311
 10
94.59292934571555
 20
287.0317840854311
 10
94.44116634571556
 20
286.837993085431
 10
94.37503434571555
 20
286.770698085431
 10
94.35559434571555
 20
286.758228085431
 10
94.34891134571554
 20
286.756706085431
  0
LWPOLYLINE
  5
1D4
330
1F
100
AcDbEntity
  8
0
370
    60
100
AcDbPolyline
 90
       10
 70
     0
 43
0.0
 10
96.49042134571555
 20
290.256706085431
 10
96.96121634571556
 20
291.142887085431
 10
97.15353734571555
 20
291.556522085431
 10
97.21039234571556
 20
291.707107085431
 10
97.21771634571554
 20
291.738811085431
 10
97.21820434571556
 20
291.7487330854311
 10
97.21753334571555
 20
291.752899085431
 10
97.21658734571555
 20
291.754707085431
 10
97.21426734571556
 20
291.756439085431
 10
97.21283334571554
 20
291.756706085431
  0
LINE
  5
1D5
330
1F
100
AcDbEntity
  8
0
 48
0.057403
370
    60
100
AcDbLine
 10
95.36249134571555
 20
288.256706085431
 30
0.0
 11
96.49042134571555
 21
290.256706085431
 31
0.0
  0
LWPOLYLINE
  5
1D6
330
1F
100
AcDbEntity
  8
0
370
    60
100
AcDbPolyline
 90
        7
 70
     0
 43
0.0
 10
95.36249134571555
 20
258.256706085431
 10
94.91638534571554
 20
259.003692085431
 10
94.59292934571555
 20
259.481626085431
 10
94.44116634571556
 20
259.675417085431
 10
94.37503434571555
 20
259.742714085431
 10
94.35559434571555
 20
259.755186085431
 10
94.34891134571554
 20
259.756706085431
  0
LINE
  5
1D7
330
1F
100
AcDbEntity
  8
0
 48
0.014406
370
    60
100
AcDbLine
 10
95.46014834571555
 20
257.757057085431
 30
0.0
 11
95.17306934571555
 21
258.256706085431
 31
0.0
  0
LWPOLYLINE
  5
1D8
330
1F
100
AcDbEntity
  8
0
370
    60
100
AcDbPolyline
 90
       15
 70
     0
 43
0.0
 10
95.49274034571555
 20
257.756706085431
 10
95.49814234571555
 20
257.755417085431
 10
95.51398134571555
 20
257.744905085431
 10
95.58627734571554
 20
257.667089085431
 10
95.79901534571555
 20
257.377975085431
 10
96.15118834571554
 20
256.832908085431
 10
96.70477634571556
 20
255.867576085431
 10
97.05820034571555
 20
255.169281085431
 10
97.18848034571555
 20
254.870130085431
 10
97.21588534571556
 20
254.785028085431
 10
97.21814334571555
 20
254.763813085431
 10
97.21713634571556
 20
254.759588085431
 10
97.21585434571556
 20
254.757902085431
 10
97.21445034571555
 20
254.757034085431
 10
97.21283334571554
 20
254.756706085431
  0
LINE
  5
1D9
330
1F
100
AcDbEntity
  8
0
 48
0.057728
370
    60
100
AcDbLine
 10
94.59561534571556
 20
288.256706085431
 30
0.0
 11
95.74975934571556
 21
290.256706085431
 31
0.0
  0
LINE
  5
1DA
330
1F
100
AcDbEntity
  8
0
 48
0.000181
370
    60
100
AcDbLine
 10
96.66699634571556
 20
291.754154085431
 30
0.0
 11
96.67377134571554
 21
291.756706085431
 31
0.0
  0
LWPOLYLINE
  5
1DB
330
1F
100
AcDbEntity
  8
0
370
    60
100
AcDbPolyline
 90
        8
 70
     0
 43
0.0
 10
96.67377134571554
 20
291.756706085431
 10
96.67172634571556
 20
291.756424085431
 10
96.66791134571555
 20
291.754711085431
 10
96.64969234571554
 20
291.738525085431
 10
96.58548334571556
 20
291.654140085431
 10
96.40231734571556
 20
291.367180085431
 10
95.89365034571556
 20
290.505455085431
 10
95.74975934571556
 20
290.256706085431
  0
LINE
  5
1DC
330
1F
100
AcDbEntity
  8
0
 48
0.000161
370
    60
100
AcDbLine
 10
96.66769834571555
 20
254.758829085431
 30
0.0
 11
96.67377134571554
 21
254.756706085431
 31
0.0
  0
LWPOLYLINE
  5
1DD
330
1F
100
AcDbEntity
  8
0
370
    60
100
AcDbPolyline
 90
        5
 70
     0
 43
0.0
 10
96.66620234571555
 20
254.759771085431
 10
96.64722034571555
 20
254.777613085431
 10
96.55929934571556
 20
254.897852085431
 10
96.30347034571555
 20
255.309759085431
 10
95.74975934571556
 20
256.256706085431
  0
LINE
  5
1DE
330
1F
100
AcDbEntity
  8
0
 48
0.057728
370
    60
100
AcDbLine
 10
95.74975934571556
 20
256.256706085431
 30
0.0
 11
94.59561534571556
 21
258.256706085431
 31
0.0
  0
LWPOLYLINE
  5
1DF
330
1F
100
AcDbEntity
  8
0
370
    60
100
AcDbPolyline
 90
       10
 70
     0
 43
0.0
 10
93.80984834571554
 20
259.756706085431
 10
93.80658334571554
 20
259.7560730854311
 10
93.80402034571556
 20
259.754061085431
 10
93.80240234571555
 20
259.750974085431
 10
93.80142634571554
 20
259.743864085431
 10
93.80493534571555
 20
259.721193085431
 10
93.84683634571554
 20
259.612808085431
 10
94.00510034571555
 20
259.301706085431
 10
94.44519434571556
 20
258.518215085431
 10
94.59561534571556
 20
258.256706085431
  0
LINE
  5
1E0
330
1F
100
AcDbEntity
  8
0
 48
0.013477
370
    60
100
AcDbLine
 10
96.32269634571556
 20
274.756706085431
 30
0.0
 11
95.78363434571556
 21
274.756706085431
 31
0.0
  0
LINE
  5
1E1
330
1F
100
AcDbEntity
  8
0
 48
0.013477
370
    60
100
AcDbLine
 10
96.32269634571556
 20
271.756706085431
 30
0.0
 11
95.78363434571556
 21
271.756706085431
 31
0.0
  0
LINE
  5
1E2
330
1F
100
AcDbEntity
  8
0
 48
0.057728
370
    60
100
AcDbLine
 10
95.74975934571556
 20
256.256706085431
 30
0.0
 11
94.59561534571556
 21
258.256706085431
 31
0.0
  0
LWPOLYLINE
  5
1E3
330
1F
100
AcDbEntity
  8
0
370
    60
100
AcDbPolyline
 90
        7
 70
     0
 43
0.0
 10
94.97058534571555
 20
257.670919085431
 10
94.94992434571556
 20
257.728815085431
 10
94.94754434571554
 20
257.740990085431
 10
94.94736134571555
 20
257.749698085431
 10
94.94836834571554
 20
257.753420085431
 10
94.95132834571554
 20
257.756237085431
 10
94.95367834571555
 20
257.756706085431
  0
LWPOLYLINE
  5
1E4
330
1F
100
AcDbEntity
  8
0
370
    60
100
AcDbPolyline
 90
       15
 70
     0
 43
0.0
 10
94.95367834571555
 20
257.756706085431
 10
94.95907934571555
 20
257.755417085431
 10
94.97491834571555
 20
257.744905085431
 10
95.04721434571555
 20
257.667089085431
 10
95.25995234571555
 20
257.377975085431
 10
95.61212534571554
 20
256.832908085431
 10
96.16571434571556
 20
255.867576085431
 10
96.51916934571555
 20
255.169281085431
 10
96.64941834571555
 20
254.870130085431
 10
96.67682234571554
 20
254.785028085431
 10
96.67908134571555
 20
254.763813085431
 10
96.67807434571556
 20
254.759588085431
 10
96.67679234571555
 20
254.757902085431
 10
96.67538834571555
 20
254.757034085431
 10
96.67377134571554
 20
254.756706085431
  0
LINE
  5
1E5
330
1F
100
AcDbEntity
  8
0
 48
0.001907
370
    60
100
AcDbLine
 10
94.71027034571556
 20
258.256706085431
 30
0.0
 11
94.63400634571555
 21
258.256706085431
 31
0.0
  0
LINE
  5
1E6
330
1F
100
AcDbEntity
  8
0
 48
0.01689
370
    60
100
AcDbLine
 10
94.97058534571555
 20
257.670919085431
 30
0.0
 11
94.63400634571555
 21
258.256706085431
 31
0.0
  0
LINE
  5
1E7
330
1F
100
AcDbEntity
  8
0
 48
0.013477
370
    60
100
AcDbLine
 10
95.36249134571555
 20
258.256706085431
 30
0.0
 11
94.82342934571555
 21
258.256706085431
 31
0.0
  0
LINE
  5
1E8
330
1F
100
AcDbEntity
  8
0
 48
0.002829
370
    60
100
AcDbLine
 10
94.71027034571556
 20
258.256706085431
 30
0.0
 11
94.82342934571555
 21
258.256706085431
 31
0.0
  0
LWPOLYLINE
  5
1E9
330
1F
100
AcDbEntity
  8
0
370
    60
100
AcDbPolyline
 90
        7
 70
     0
 43
0.0
 10
94.82342934571555
 20
258.256706085431
 10
94.34320434571556
 20
259.056911085431
 10
94.01932134571554
 20
259.528305085431
 10
93.87366134571555
 20
259.706880085431
 10
93.82742734571555
 20
259.749098085431
 10
93.81738634571555
 20
259.754825085431
 10
93.80984834571554
 20
259.756706085431
  0
LWPOLYLINE
  5
1EA
330
1F
100
AcDbEntity
  8
0
370
    60
100
AcDbPolyline
 90
        9
 70
     0
 43
0.0
 10
93.80984834571554
 20
259.756706085431
 10
93.80716334571555
 20
259.756277085431
 10
93.80362334571554
 20
259.753565085431
 10
93.80209734571555
 20
259.749939085431
 10
93.80145634571555
 20
259.741548085431
 10
93.81253434571555
 20
259.696274085431
 10
93.87750634571556
 20
259.547836085431
 10
94.10919534571555
 20
259.111688085431
 10
94.59561534571556
 20
258.256706085431
  0
LINE
  5
1EB
330
1F
100
AcDbEntity
  8
0
 48
0.028741
370
    60
100
AcDbLine
 10
548.5136983457155
 20
274.756710085431
 30
0.0
 11
549.6633413457155
 21
274.756710085431
 31
0.0
  0
LWPOLYLINE
  5
1EC
330
1F
100
AcDbEntity
  8
0
370
    60
100
AcDbPolyline
 90
       16
 70
     0
 43
0.0
 10
549.6633413457155
 20
271.756710085431
 10
549.8257863457155
 20
271.783096085431
 10
549.9601403457156
 20
271.845291085431
 10
550.1343113457156
 20
271.986358085431
 10
550.2946663457155
 20
272.194469085431
 10
550.4275393457156
 20
272.461441085431
 10
550.5236703457155
 20
272.783962085431
 10
550.5706593457155
 20
273.162567085431
 10
550.5553393457155
 20
273.539364085431
 10
550.4734303457155
 20
273.921791085431
 10
550.3692433457155
 20
274.184143085431
 10
550.2493173457156
 20
274.387394085431
 10
550.1344263457155
 20
274.526939085431
 10
549.9604223457155
 20
274.667957085431
 10
549.8256263457155
 20
274.730369085431
 10
549.6633413457155
 20
274.756710085431
  0
LINE
  5
1ED
330
1F
100
AcDbEntity
  8
0
 48
0.028741
370
    60
100
AcDbLine
 10
548.5136983457155
 20
271.756710085431
 30
0.0
 11
549.6633413457155
 21
271.756710085431
 31
0.0
  0
LWPOLYLINE
  5
1EE
330
1F
100
AcDbEntity
  8
0
370
    60
100
AcDbPolyline
 90
       10
 70
     0
 43
0.0
 10
549.7017253457155
 20
272.756710085431
 10
549.7940403457155
 20
272.782711085431
 10
549.8854713457155
 20
272.868461085431
 10
549.9609793457155
 20
273.024048085431
 10
549.9951363457155
 20
273.245861085431
 10
549.9674183457155
 20
273.467514085431
 10
549.9004323457156
 20
273.622928085431
 10
549.8238713457155
 20
273.710384085431
 10
549.7540323457155
 20
273.748474085431
 10
549.7017253457155
 20
273.756710085431
  0
LINE
  5
1EF
330
1F
100
AcDbEntity
  8
0
 48
0.028853
370
    60
100
AcDbLine
 10
548.5475883457156
 20
273.756710085431
 30
0.0
 11
549.7017253457155
 21
273.756710085431
 31
0.0
  0
LWPOLYLINE
  5
1F0
330
1F
100
AcDbEntity
  8
0
370
    60
100
AcDbPolyline
 90
       10
 70
     0
 43
0.0
 10
548.5475883457156
 20
272.756710085431
 10
548.4669913457155
 20
272.776775085431
 10
548.3776363457155
 20
272.854503085431
 10
548.3071633457155
 20
272.988075085431
 10
548.2651103457155
 20
273.197861085431
 10
548.2811623457155
 20
273.432915085431
 10
548.3365213457155
 20
273.593376085431
 10
548.4152033457156
 20
273.700180085431
 10
548.5026283457155
 20
273.750572085431
 10
548.5475883457156
 20
273.756710085431
  0
LINE
  5
1F1
330
1F
100
AcDbEntity
  8
0
 48
0.028853
370
    60
100
AcDbLine
 10
548.5475883457156
 20
272.756710085431
 30
0.0
 11
549.7017253457155
 21
272.756710085431
 31
0.0
  0
LINE
  5
1F2
330
1F
100
AcDbEntity
  8
0
 48
0.057403
370
    60
100
AcDbLine
 10
549.4739033457155
 20
288.256710085431
 30
0.0
 11
548.3459743457155
 21
290.256710085431
 31
0.0
  0
LWPOLYLINE
  5
1F3
330
1F
100
AcDbEntity
  8
0
370
    60
100
AcDbPolyline
 90
       10
 70
     0
 43
0.0
 10
548.3459743457155
 20
290.256710085431
 10
547.8751873457155
 20
291.142887085431
 10
547.6828653457155
 20
291.556526085431
 10
547.6259953457155
 20
291.707111085431
 10
547.6186793457156
 20
291.738815085431
 10
547.6181983457155
 20
291.748737085431
 10
547.6188543457155
 20
291.752903085431
 10
547.6198233457155
 20
291.754711085431
 10
547.6221203457155
 20
291.756443085431
 10
547.6235693457155
 20
291.756710085431
  0
LWPOLYLINE
  5
1F4
330
1F
100
AcDbEntity
  8
0
370
    60
100
AcDbPolyline
 90
        8
 70
     0
 43
0.0
 10
547.6235693457155
 20
291.756710085431
 10
547.6256143457155
 20
291.756428085431
 10
547.6294293457155
 20
291.754711085431
 10
547.6476403457156
 20
291.738525085431
 10
547.7118643457155
 20
291.654140085431
 10
547.8951683457155
 20
291.366974085431
 10
548.4036373457155
 20
290.505535085431
 10
548.5475883457156
 20
290.256710085431
  0
LINE
  5
1F5
330
1F
100
AcDbEntity
  8
0
 48
0.057728
370
    60
100
AcDbLine
 10
549.7017253457155
 20
288.256710085431
 30
0.0
 11
548.5475883457156
 21
290.256710085431
 31
0.0
  0
LWPOLYLINE
  5
1F6
330
1F
100
AcDbEntity
  8
0
370
    60
100
AcDbPolyline
 90
        7
 70
     0
 43
0.0
 10
549.4739033457155
 20
288.256710085431
 10
549.9200253457155
 20
287.509724085431
 10
550.2434573457155
 20
287.031788085431
 10
550.3952373457155
 20
286.837997085431
 10
550.4613613457155
 20
286.770702085431
 10
550.4808163457155
 20
286.758228085431
 10
550.4874913457155
 20
286.756710085431
  0
LWPOLYLINE
  5
1F7
330
1F
100
AcDbEntity
  8
0
370
    60
100
AcDbPolyline
 90
       10
 70
     0
 43
0.0
 10
550.4874913457155
 20
286.756710085431
 10
550.4907493457155
 20
286.757343085431
 10
550.4933353457155
 20
286.759353085431
 10
550.4949383457155
 20
286.762440085431
 10
550.4959143457155
 20
286.769550085431
 10
550.4924053457155
 20
286.792221085431
 10
550.4505043457156
 20
286.900608085431
 10
550.2922253457156
 20
287.211708085431
 10
549.8521613457156
 20
287.995201085431
 10
549.7017253457155
 20
288.256710085431
  0
LINE
  5
1F8
330
1F
100
AcDbEntity
  8
0
 48
0.02665
370
    60
100
AcDbLine
 10
535.0826683457155
 20
273.092125085431
 30
0.0
 11
536.1486703457155
 21
273.092125085431
 31
0.0
  0
LINE
  5
1F9
330
1F
100
AcDbEntity
  8
0
 48
0.026649
370
    60
100
AcDbLine
 10
535.0826913457155
 20
266.892124085431
 30
0.0
 11
536.1486703457155
 21
266.892124085431
 31
0.0
  0
LINE
  5
1FA
330
1F
100
AcDbEntity
  8
0
370
    60
100
AcDbLine
 10
536.1486703457155
 20
296.256710085431
 30
0.0
 11
536.1486703457155
 21
250.256710085431
 31
0.0
  0
LINE
  5
1FB
330
1F
100
AcDbEntity
  8
0
 48
0.21
370
    60
100
AcDbLine
 10
536.1486703457155
 20
250.256710085431
 30
0.0
 11
544.5486713457155
 21
250.256710085431
 31
0.0
  0
LINE
  5
1FC
330
1F
100
AcDbEntity
  8
0
 48
0.21
370
    60
100
AcDbLine
 10
536.1486703457155
 20
296.256710085431
 30
0.0
 11
544.5486713457155
 21
296.256710085431
 31
0.0
  0
LINE
  5
1FD
330
1F
100
AcDbEntity
  8
0
370
    60
100
AcDbLine
 10
544.5486713457155
 20
296.256710085431
 30
0.0
 11
544.5486713457155
 21
250.256710085431
 31
0.0
  0
LINE
  5
1FE
330
1F
100
AcDbEntity
  8
0
 48
0.030759
370
    60
100
AcDbLine
 10
550.0334973457155
 20
259.756708085431
 30
0.0
 11
550.6486703457155
 21
260.822220085431
 31
0.0
  0
LINE
  5
1FF
330
1F
100
AcDbEntity
  8
0
 48
0.129904
370
    60
100
AcDbLine
 10
544.5486713457155
 20
250.256710085431
 30
0.0
 11
547.1467473457155
 21
254.756708085431
 31
0.0
  0
LINE
  5
200
330
1F
100
AcDbEntity
  8
0
 48
0.030759
370
    60
100
AcDbLine
 10
550.0334973457155
 20
286.756706085431
 30
0.0
 11
550.6486703457155
 21
285.691200085431
 31
0.0
  0
LINE
  5
201
330
1F
100
AcDbEntity
  8
0
 48
0.129904
370
    60
100
AcDbLine
 10
544.5486713457155
 20
296.256710085431
 30
0.0
 11
547.1467473457155
 21
291.756706085431
 31
0.0
  0
LINE
  5
202
330
1F
100
AcDbEntity
  8
0
370
    60
100
AcDbLine
 10
550.6486703457155
 20
285.691200085431
 30
0.0
 11
550.6486703457155
 21
260.822220085431
 31
0.0
  0
LWPOLYLINE
  5
203
330
1F
100
AcDbEntity
  8
0
370
    60
100
AcDbPolyline
 90
       16
 70
     0
 43
0.0
 10
547.9746363457156
 20
271.756710085431
 10
547.8504753457155
 20
271.772526085431
 10
547.6716043457155
 20
271.855369085431
 10
547.5452693457155
 20
271.965175085431
 10
547.4073603457156
 20
272.152061085431
 10
547.2819023457155
 20
272.422844085431
 10
547.1881443457155
 20
272.779663085431
 10
547.1469843457155
 20
273.220100085431
 10
547.1763193457156
 20
273.661545085431
 10
547.2583963457155
 20
274.021046085431
 10
547.3711123457155
 20
274.296074085431
 10
547.4942663457156
 20
274.488743085431
 10
547.6043513457155
 20
274.605682085431
 10
547.7524453457155
 20
274.704933085431
 10
547.8510783457156
 20
274.741047085431
 10
547.9746363457156
 20
274.756710085431
  0
LINE
  5
204
330
1F
100
AcDbEntity
  8
0
 48
0.057403
370
    60
100
AcDbLine
 10
548.9348483457155
 20
288.256710085431
 30
0.0
 11
547.8069193457155
 21
290.256710085431
 31
0.0
  0
LWPOLYLINE
  5
205
330
1F
100
AcDbEntity
  8
0
370
    60
100
AcDbPolyline
 90
       10
 70
     0
 43
0.0
 10
547.8069193457155
 20
290.256710085431
 10
547.3361243457156
 20
291.142887085431
 10
547.1438103457155
 20
291.556526085431
 10
547.0869333457155
 20
291.707111085431
 10
547.0796163457155
 20
291.738815085431
 10
547.0791363457155
 20
291.748737085431
 10
547.0797993457155
 20
291.752903085431
 10
547.0807683457155
 20
291.754711085431
 10
547.0830653457155
 20
291.756443085431
 10
547.0845143457155
 20
291.756710085431
  0
LWPOLYLINE
  5
206
330
1F
100
AcDbEntity
  8
0
370
    60
100
AcDbPolyline
 90
        7
 70
     0
 43
0.0
 10
548.9348483457155
 20
288.256710085431
 10
549.3809623457155
 20
287.509724085431
 10
549.7043953457155
 20
287.031788085431
 10
549.8561743457155
 20
286.837997085431
 10
549.9222983457155
 20
286.770702085431
 10
549.9417533457155
 20
286.758228085431
 10
549.9484293457155
 20
286.756710085431
  0
LWPOLYLINE
  5
207
330
1F
100
AcDbEntity
  8
0
370
    60
100
AcDbPolyline
 90
       15
 70
     0
 43
0.0
 10
548.8046073457155
 20
257.756710085431
 10
548.7992053457156
 20
257.755421085431
 10
548.7833523457156
 20
257.744909085431
 10
548.7110783457155
 20
257.667091085431
 10
548.4983403457155
 20
257.377979085431
 10
548.1461523457156
 20
256.832912085431
 10
547.5925793457155
 20
255.867580085431
 10
547.2391323457156
 20
255.169283085431
 10
547.1088603457155
 20
254.870132085431
 10
547.0814473457156
 20
254.785032085431
 10
547.0792123457155
 20
254.763817085431
 10
547.0802043457155
 20
254.759592085431
 10
547.0814933457156
 20
254.757906085431
 10
547.0828823457156
 20
254.757038085431
 10
547.0845143457155
 20
254.756710085431
  0
LINE
  5
208
330
1F
100
AcDbEntity
  8
0
 48
0.014406
370
    60
100
AcDbLine
 10
548.8371923457155
 20
257.757061085431
 30
0.0
 11
549.1242793457155
 21
258.256710085431
 31
0.0
  0
LWPOLYLINE
  5
209
330
1F
100
AcDbEntity
  8
0
370
    60
100
AcDbPolyline
 90
        7
 70
     0
 43
0.0
 10
548.9348483457155
 20
258.256710085431
 10
549.3809623457155
 20
259.003696085431
 10
549.7043953457155
 20
259.481630085431
 10
549.8561743457155
 20
259.675421085431
 10
549.9222983457155
 20
259.742718085431
 10
549.9417533457155
 20
259.755188085431
 10
549.9484293457155
 20
259.756710085431
  0
LINE
  5
20A
330
1F
100
AcDbEntity
  8
0
 48
0.057728
370
    60
100
AcDbLine
 10
549.7017253457155
 20
288.256710085431
 30
0.0
 11
548.5475883457156
 21
290.256710085431
 31
0.0
  0
LINE
  5
20B
330
1F
100
AcDbEntity
  8
0
 48
0.000046
370
    60
100
AcDbLine
 10
547.6302833457155
 20
291.754200085431
 30
0.0
 11
547.6318323457155
 21
291.753174085431
 31
0.0
  0
LINE
  5
20C
330
1F
100
AcDbEntity
  8
0
 48
0.000163
370
    60
100
AcDbLine
 10
547.6235693457155
 20
254.756710085431
 30
0.0
 11
547.6297033457155
 21
254.7588650854311
 31
0.0
  0
LINE
  5
20D
330
1F
100
AcDbEntity
  8
0
 48
0.057728
370
    60
100
AcDbLine
 10
548.5475883457156
 20
256.256710085431
 30
0.0
 11
549.7017253457155
 21
258.256710085431
 31
0.0
  0
LINE
  5
20E
330
1F
100
AcDbEntity
  8
0
 48
0.013477
370
    60
100
AcDbLine
 10
548.5136983457155
 20
274.756710085431
 30
0.0
 11
547.9746363457156
 21
274.756710085431
 31
0.0
  0
LINE
  5
20F
330
1F
100
AcDbEntity
  8
0
 48
0.013477
370
    60
100
AcDbLine
 10
548.5136983457155
 20
271.756710085431
 30
0.0
 11
547.9746363457156
 21
271.756710085431
 31
0.0
  0
LINE
  5
210
330
1F
100
AcDbEntity
  8
0
 48
0.013476
370
    60
100
AcDbLine
 10
548.3459743457155
 20
290.256710085431
 30
0.0
 11
547.8069193457155
 21
290.256710085431
 31
0.0
  0
LINE
  5
211
330
1F
100
AcDbEntity
  8
0
 48
0.013476
370
    60
100
AcDbLine
 10
549.4739033457155
 20
288.256710085431
 30
0.0
 11
548.9348483457155
 21
288.256710085431
 31
0.0
  0
LINE
  5
212
330
1F
100
AcDbEntity
  8
0
 48
0.057728
370
    60
100
AcDbLine
 10
548.5475883457156
 20
256.256710085431
 30
0.0
 11
549.7017253457155
 21
258.256710085431
 31
0.0
  0
LWPOLYLINE
  5
213
330
1F
100
AcDbEntity
  8
0
370
    60
100
AcDbPolyline
 90
        7
 70
     0
 43
0.0
 10
549.3267553457155
 20
257.670923085431
 10
549.3474233457155
 20
257.728819085431
 10
549.3498043457155
 20
257.740993085431
 10
549.3499713457155
 20
257.749702085431
 10
549.3489723457155
 20
257.753424085431
 10
549.3460273457155
 20
257.756241085431
 10
549.3436703457155
 20
257.756710085431
  0
LWPOLYLINE
  5
214
330
1F
100
AcDbEntity
  8
0
370
    60
100
AcDbPolyline
 90
       15
 70
     0
 43
0.0
 10
549.3436703457155
 20
257.756710085431
 10
549.3382683457155
 20
257.755421085431
 10
549.3224063457155
 20
257.744909085431
 10
549.2501413457155
 20
257.667091085431
 10
549.0374033457155
 20
257.377979085431
 10
548.6852153457155
 20
256.832912085431
 10
548.1316333457155
 20
255.867580085431
 10
547.7781863457155
 20
255.169283085431
 10
547.6479223457155
 20
254.870132085431
 10
547.6205103457155
 20
254.785032085431
 10
547.6182743457156
 20
254.763817085431
 10
547.6192593457155
 20
254.759592085431
 10
547.6205483457155
 20
254.757906085431
 10
547.6219443457155
 20
254.757038085431
 10
547.6235693457155
 20
254.756710085431
  0
LWPOLYLINE
  5
215
330
1F
100
AcDbEntity
  8
0
370
    60
100
AcDbPolyline
 90
        8
 70
     0
 43
0.0
 10
547.6235693457155
 20
254.756710085431
 10
547.6256143457155
 20
254.756990085431
 10
547.6294293457155
 20
254.758705085431
 10
547.6476403457156
 20
254.774889085431
 10
547.7118643457155
 20
254.859274085431
 10
547.8950383457155
 20
255.146236085431
 10
548.4036823457155
 20
256.007959085431
 10
548.5475883457156
 20
256.256710085431
  0
LINE
  5
216
330
1F
100
AcDbEntity
  8
0
 48
0.01689
370
    60
100
AcDbLine
 10
549.3267553457155
 20
257.670923085431
 30
0.0
 11
549.6633413457155
 21
258.256710085431
 31
0.0
  0
LINE
  5
217
330
1F
100
AcDbEntity
  8
0
 48
0.001907
370
    60
100
AcDbLine
 10
549.6633413457155
 20
258.256710085431
 30
0.0
 11
549.5870783457156
 21
258.256710085431
 31
0.0
  0
LINE
  5
218
330
1F
100
AcDbEntity
  8
0
 48
0.002829
370
    60
100
AcDbLine
 10
549.4739033457155
 20
258.256710085431
 30
0.0
 11
549.5870783457156
 21
258.256710085431
 31
0.0
  0
LINE
  5
219
330
1F
100
AcDbEntity
  8
0
 48
0.013476
370
    60
100
AcDbLine
 10
549.4739033457155
 20
258.256710085431
 30
0.0
 11
548.9348483457155
 21
258.256710085431
 31
0.0
  0
LWPOLYLINE
  5
21A
330
1F
100
AcDbEntity
  8
0
370
    60
100
AcDbPolyline
 90
        7
 70
     0
 43
0.0
 10
549.4739033457155
 20
258.256710085431
 10
549.9541203457155
 20
259.056915085431
 10
550.2780193457155
 20
259.528309085431
 10
550.4236943457155
 20
259.706884085431
 10
550.4699133457156
 20
259.749101085431
 10
550.4799463457156
 20
259.754829085431
 10
550.4874913457155
 20
259.756710085431
  0
LWPOLYLINE
  5
21B
330
1F
100
AcDbEntity
  8
0
370
    60
100
AcDbPolyline
 90
        9
 70
     0
 43
0.0
 10
550.4874913457155
 20
259.756710085431
 10
550.4901773457156
 20
259.756281085431
 10
550.4937023457155
 20
259.753568085431
 10
550.4952433457155
 20
259.749943085431
 10
550.4958683457155
 20
259.741552085431
 10
550.4848063457155
 20
259.696276085431
 10
550.4198413457156
 20
259.547838085431
 10
550.1881443457155
 20
259.111692085431
 10
549.7017253457155
 20
258.256710085431
  0
LINE
  5
21C
330
1F
100
AcDbEntity
  8
0
 48
0.011921
370
    60
100
AcDbLine
 10
97.15060834571555
 20
291.756706085431
 30
0.0
 11
96.67377134571554
 21
291.756706085431
 31
0.0
  0
LINE
  5
21D
330
1F
100
AcDbEntity
  8
0
 48
0.01135
370
    60
100
AcDbLine
 10
94.26385834571555
 20
259.756706085431
 30
0.0
 11
93.80984834571554
 21
259.756706085431
 31
0.0
  0
LINE
  5
21E
330
1F
100
AcDbEntity
  8
0
 48
0.013477
370
    60
100
AcDbLine
 10
97.21283334571554
 20
291.756706085431
 30
0.0
 11
96.67377134571554
 21
291.756706085431
 31
0.0
  0
LINE
  5
21F
330
1F
100
AcDbEntity
  8
0
 48
0.013477
370
    60
100
AcDbLine
 10
94.34891134571554
 20
286.756706085431
 30
0.0
 11
93.80984834571554
 21
286.756706085431
 31
0.0
  0
LINE
  5
220
330
1F
100
AcDbEntity
  8
0
 48
0.013477
370
    60
100
AcDbLine
 10
97.21283334571554
 20
254.756706085431
 30
0.0
 11
96.67377134571554
 21
254.756706085431
 31
0.0
  0
LINE
  5
221
330
1F
100
AcDbEntity
  8
0
 48
0.013477
370
    60
100
AcDbLine
 10
95.49274034571555
 20
257.756706085431
 30
0.0
 11
94.95367834571555
 21
257.756706085431
 31
0.0
  0
LINE
  5
222
330
1F
100
AcDbEntity
  8
0
 48
0.013477
370
    60
100
AcDbLine
 10
94.34891134571554
 20
259.756706085431
 30
0.0
 11
93.80984834571554
 21
259.756706085431
 31
0.0
  0
LINE
  5
223
330
1F
100
AcDbEntity
  8
0
 48
0.011921
370
    60
100
AcDbLine
 10
547.6235693457155
 20
291.756710085431
 30
0.0
 11
547.1467473457155
 21
291.756710085431
 31
0.0
  0
LINE
  5
224
330
1F
100
AcDbEntity
  8
0
 48
0.01135
370
    60
100
AcDbLine
 10
550.4874913457155
 20
259.756710085431
 30
0.0
 11
550.0335043457155
 21
259.756710085431
 31
0.0
  0
LINE
  5
225
330
1F
100
AcDbEntity
  8
0
 48
0.013476
370
    60
100
AcDbLine
 10
547.6235693457155
 20
291.756710085431
 30
0.0
 11
547.0845143457155
 21
291.756710085431
 31
0.0
  0
LINE
  5
226
330
1F
100
AcDbEntity
  8
0
 48
0.013477
370
    60
100
AcDbLine
 10
550.4874913457155
 20
286.756710085431
 30
0.0
 11
549.9484293457155
 21
286.756710085431
 31
0.0
  0
LINE
  5
227
330
1F
100
AcDbEntity
  8
0
 48
0.013476
370
    60
100
AcDbLine
 10
547.6235693457155
 20
254.756710085431
 30
0.0
 11
547.0845143457155
 21
254.756710085431
 31
0.0
  0
LINE
  5
228
330
1F
100
AcDbEntity
  8
0
 48
0.013477
370
    60
100
AcDbLine
 10
549.3436703457155
 20
257.756710085431
 30
0.0
 11
548.8046073457155
 21
257.756710085431
 31
0.0
  0
LINE
  5
229
330
1F
100
AcDbEntity
  8
0
 48
0.013477
370
    60
100
AcDbLine
 10
550.4874913457155
 20
259.756710085431
 30
0.0
 11
549.9484293457155
 21
259.756710085431
 31
0.0
  0
LINE
  5
22A
330
1F
100
AcDbEntity
  8
0
 48
0.1675
370
    60
100
AcDbLine
 10
92.56595234571556
 20
329.956703085431
 30
0.0
 11
92.56595234571556
 21
323.256706085431
 31
0.0
  0
LINE
  5
22B
330
1F
100
AcDbEntity
  8
0
 48
0.146995
370
    60
100
AcDbLine
 10
92.56595234571556
 20
323.256706085431
 30
0.0
 11
92.56595234571556
 21
329.136513085431
 31
0.0
  0
LINE
  5
22C
330
1F
100
AcDbEntity
  8
0
 48
0.1675
370
    60
100
AcDbLine
 10
92.56595234571556
 20
323.256706085431
 30
0.0
 11
92.56595234571556
 21
316.556709085431
 31
0.0
  0
LINE
  5
22D
330
1F
100
AcDbEntity
  8
0
 48
0.146995
370
    60
100
AcDbLine
 10
92.56595234571556
 20
317.376900085431
 30
0.0
 11
92.56595234571556
 21
323.256706085431
 31
0.0
  0
LINE
  5
22E
330
1F
100
AcDbEntity
  8
0
 48
0.031752
370
    60
100
AcDbLine
 10
97.15283534571556
 20
314.151787085431
 30
0.0
 11
97.15283534571556
 21
312.881706085431
 31
0.0
  0
LINE
  5
22F
330
1F
100
AcDbEntity
  8
0
 48
0.486998
370
    60
100
AcDbLine
 10
97.15283534571556
 20
333.631706085431
 30
0.0
 11
97.15283534571556
 21
314.151787085431
 31
0.0
  0
LINE
  5
230
330
1F
100
AcDbEntity
  8
0
 48
0.094401
370
    60
100
AcDbLine
 10
116.6388583457155
 20
334.156708085431
 30
0.0
 11
112.8628273457156
 21
334.156708085431
 31
0.0
  0
LINE
  5
231
330
1F
100
AcDbEntity
  8
0
 48
0.094401
370
    60
100
AcDbLine
 10
116.6388583457155
 20
312.356705085431
 30
0.0
 11
112.8628273457156
 21
312.356705085431
 31
0.0
  0
LINE
  5
232
330
1F
100
AcDbEntity
  8
0
 48
0.1
370
    60
100
AcDbLine
 10
116.8628273457156
 20
323.256706085431
 30
0.0
 11
112.8628273457156
 21
323.256706085431
 31
0.0
  0
LINE
  5
233
330
1F
100
AcDbEntity
  8
0
 48
0.2725
370
    60
100
AcDbLine
 10
112.8628273457156
 20
312.356705085431
 30
0.0
 11
112.8628273457156
 21
323.256706085431
 31
0.0
  0
LINE
  5
234
330
1F
100
AcDbEntity
  8
0
 48
0.2725
370
    60
100
AcDbLine
 10
112.8628273457156
 20
323.256706085431
 30
0.0
 11
112.8628273457156
 21
334.156708085431
 31
0.0
  0
LINE
  5
235
330
1F
100
AcDbEntity
  8
0
 48
0.2725
370
    60
100
AcDbLine
 10
110.4528233457155
 20
312.356705085431
 30
0.0
 11
110.4528233457155
 21
323.256706085431
 31
0.0
  0
LINE
  5
236
330
1F
100
AcDbEntity
  8
0
 48
0.2725
370
    60
100
AcDbLine
 10
110.4528233457155
 20
323.256706085431
 30
0.0
 11
110.4528233457155
 21
334.156708085431
 31
0.0
  0
LWPOLYLINE
  5
237
330
1F
100
AcDbEntity
  8
0
370
    60
100
AcDbPolyline
 90
        9
 70
     0
 43
0.0
 10
98.45282334571554
 20
318.494087085431
 10
98.46100234571556
 20
319.758957085431
 10
98.49881334571556
 20
320.716514085431
 10
98.55798734571555
 20
321.3590540854311
 10
98.66119734571554
 20
322.002151085431
 10
98.73511134571554
 20
322.322121085431
 10
98.82754934571555
 20
322.639328085431
 10
98.94174534571555
 20
322.951805085431
 10
99.08118034571554
 20
323.256706085431
  0
LINE
  5
238
330
1F
100
AcDbEntity
  8
0
 48
0.034372
370
    60
100
AcDbLine
 10
98.45282334571554
 20
317.119224085431
 30
0.0
 11
98.45282334571554
 21
318.494087085431
 31
0.0
  0
LINE
  5
239
330
1F
100
AcDbEntity
  8
0
 48
0.284293
370
    60
100
AcDbLine
 10
110.4528233457155
 20
312.356705085431
 30
0.0
 11
99.08111934571555
 21
312.356705085431
 31
0.0
  0
LINE
  5
23A
330
1F
100
AcDbEntity
  8
0
 48
0.284291
370
    60
100
AcDbLine
 10
110.4528233457155
 20
323.256706085431
 30
0.0
 11
99.08118034571554
 21
323.256706085431
 31
0.0
  0
LINE
  5
23B
330
1F
100
AcDbEntity
  8
0
 48
0.034372
370
    60
100
AcDbLine
 10
98.45282334571554
 20
328.019325085431
 30
0.0
 11
98.45282334571554
 21
329.394188085431
 31
0.0
  0
LWPOLYLINE
  5
23C
330
1F
100
AcDbEntity
  8
0
370
    60
100
AcDbPolyline
 90
        9
 70
     0
 43
0.0
 10
98.45282334571554
 20
328.019325085431
 10
98.46100234571556
 20
326.754455085431
 10
98.49881334571556
 20
325.796898085431
 10
98.55798734571555
 20
325.154358085431
 10
98.66119734571554
 20
324.511261085431
 10
98.73511134571554
 20
324.191292085431
 10
98.82754934571555
 20
323.874084085431
 10
98.94174534571555
 20
323.561607085431
 10
99.08118034571554
 20
323.256706085431
  0
LINE
  5
23D
330
1F
100
AcDbEntity
  8
0
 48
0.284293
370
    60
100
AcDbLine
 10
110.4528233457155
 20
334.156708085431
 30
0.0
 11
99.08111934571555
 21
334.156708085431
 31
0.0
  0
LINE
  5
23E
330
1F
100
AcDbEntity
  8
0
 48
0.015707
370
    60
100
AcDbLine
 10
98.45282334571554
 20
334.156708085431
 30
0.0
 11
99.08111934571555
 21
334.156708085431
 31
0.0
  0
LINE
  5
23F
330
1F
100
AcDbEntity
  8
0
 48
0.015707
370
    60
100
AcDbLine
 10
98.45282334571554
 20
312.356705085431
 30
0.0
 11
99.08111934571555
 21
312.356705085431
 31
0.0
  0
LINE
  5
240
330
1F
100
AcDbEntity
  8
0
 48
0.238131
370
    60
100
AcDbLine
 10
98.45282334571554
 20
328.019325085431
 30
0.0
 11
98.45282334571554
 21
318.494087085431
 31
0.0
  0
LINE
  5
241
330
1F
100
AcDbEntity
  8
0
 48
0.119063
370
    60
100
AcDbLine
 10
98.45282334571554
 20
317.119224085431
 30
0.0
 11
98.45282334571554
 21
312.356705085431
 31
0.0
  0
LINE
  5
242
330
1F
100
AcDbEntity
  8
0
 48
0.119063
370
    60
100
AcDbLine
 10
98.45282334571554
 20
334.156708085431
 30
0.0
 11
98.45282334571554
 21
329.394188085431
 31
0.0
  0
ARC
  5
243
330
1F
100
AcDbEntity
  8
0
370
    60
100
AcDbCircle
 10
97.15283534571556
 20
317.581703085431
 30
0.0
 40
4.700000000000007
100
AcDbArc
 50
192.5965860000002
 51
269.9999970000002
  0
ARC
  5
244
330
1F
100
AcDbEntity
  8
0
370
    60
100
AcDbCircle
 10
97.15283534571556
 20
328.931709085431
 30
0.0
 40
4.699999999999995
100
AcDbArc
 50
90.00000299999992
 51
167.4034139999999
  0
LINE
  5
245
330
1F
100
AcDbEntity
  8
0
 48
0.0325
370
    60
100
AcDbLine
 10
98.45282334571554
 20
312.881706085431
 30
0.0
 11
97.15283534571556
 21
312.881706085431
 31
0.0
  0
LINE
  5
246
330
1F
100
AcDbEntity
  8
0
 48
0.0325
370
    60
100
AcDbLine
 10
98.45282334571554
 20
333.631706085431
 30
0.0
 11
97.15283534571556
 21
333.631706085431
 31
0.0
  0
LINE
  5
247
330
1F
100
AcDbEntity
  8
0
 48
0.06025
370
    60
100
AcDbLine
 10
112.8628273457156
 20
332.356705085431
 30
0.0
 11
110.4528233457155
 21
332.356705085431
 31
0.0
  0
LINE
  5
248
330
1F
100
AcDbEntity
  8
0
 48
0.06025
370
    60
100
AcDbLine
 10
112.8628273457156
 20
314.156708085431
 30
0.0
 11
110.4528233457155
 21
314.156708085431
 31
0.0
  0
LINE
  5
249
330
1F
100
AcDbEntity
  8
0
 48
0.1
370
    60
100
AcDbLine
 10
771.3003253457155
 20
274.056709085431
 30
0.0
 11
771.3003253457155
 21
270.056709085431
 31
0.0
  0
LINE
  5
24A
330
1F
100
AcDbEntity
  8
0
 48
0.025635
370
    60
100
AcDbLine
 10
771.3003253457155
 20
270.056709085431
 30
0.0
 11
771.3003253457155
 21
269.031307085431
 31
0.0
  0
LINE
  5
24B
330
1F
100
AcDbEntity
  8
0
 48
0.187303
370
    60
100
AcDbLine
 10
818.0141803457155
 20
304.432731085431
 30
0.0
 11
820.5547083457155
 21
297.384498085431
 31
0.0
  0
LINE
  5
24C
330
1F
100
AcDbEntity
  8
0
 48
0.187303
370
    60
100
AcDbLine
 10
825.3526553457154
 20
303.138763085431
 30
0.0
 11
820.5547083457155
 21
297.384498085431
 31
0.0
  0
LINE
  5
24D
330
1F
100
AcDbEntity
  8
0
 48
0.186292
370
    60
100
AcDbLine
 10
818.0141803457155
 20
304.432731085431
 30
0.0
 11
825.3526553457154
 21
303.138763085431
 31
0.0
  0
LINE
  5
24E
330
1F
100
AcDbEntity
  8
0
 48
0.001921
370
    60
100
AcDbLine
 10
874.3756193457154
 20
492.9094920854311
 30
0.0
 11
874.2988903457154
 21
492.905495085431
 31
0.0
  0
LINE
  5
24F
330
1F
100
AcDbEntity
  8
0
 48
0.004319
370
    60
100
AcDbLine
 10
874.2989133457155
 20
492.905495085431
 30
0.0
 11
874.3579113457155
 21
493.0678790854311
 31
0.0
  0
ARC
  5
250
330
1F
100
AcDbEntity
  8
0
370
    60
100
AcDbCircle
 10
901.0534073457155
 20
348.846634085431
 30
0.0
 40
150.0
100
AcDbArc
 50
100.399894
 51
147.114871
  0
CIRCLE
  5
251
330
1F
100
AcDbEntity
  8
0
370
    60
100
AcDbCircle
 10
800.2980553457155
 20
323.256706085431
 30
0.0
 40
15.0
  0
LINE
  5
252
330
1F
100
AcDbEntity
  8
0
 48
0.294388
370
    60
100
AcDbLine
 10
828.0655643457155
 20
305.698280085431
 30
0.0
 11
826.0207683457155
 21
294.101673085431
 31
0.0
  0
LINE
  5
253
330
1F
100
AcDbEntity
  8
0
 48
0.3
370
    60
100
AcDbLine
 10
816.2478723457155
 20
307.782059085431
 30
0.0
 11
828.0655643457155
 21
305.698280085431
 31
0.0
  0
LINE
  5
254
330
1F
100
AcDbEntity
  8
0
 48
0.295022
370
    60
100
AcDbLine
 10
814.1986703457155
 20
296.160473085431
 30
0.0
 11
816.2478723457155
 21
307.782059085431
 31
0.0
  0
LINE
  5
255
330
1F
100
AcDbEntity
  8
0
370
    60
100
AcDbLine
 10
880.1253443457155
 20
279.704574085431
 30
0.0
 11
838.7496123457155
 21
278.259701085431
 31
0.0
  0
LINE
  5
256
330
1F
100
AcDbEntity
  8
0
370
    60
100
AcDbLine
 10
880.8252883457155
 20
283.225326085431
 30
0.0
 11
837.6870363457155
 21
281.718906085431
 31
0.0
  0
ARC
  5
257
330
1F
100
AcDbEntity
  8
0
370
    60
100
AcDbCircle
 10
779.6128643457155
 20
440.262459085431
 30
0.0
 40
2.002446999999977
100
AcDbArc
 50
270.0556979999998
 51
323.0284599999999
  0
ARC
  5
258
330
1F
100
AcDbEntity
  8
0
370
    60
100
AcDbCircle
 10
773.4097723457155
 20
431.3760300854311
 30
0.0
 40
2.000000000000007
100
AcDbArc
 50
271.9999889999997
 51
327.1148609999998
  0
LINE
  5
259
330
1F
100
AcDbEntity
  8
0
370
    60
100
AcDbLine
 10
784.3003253457155
 20
429.7551190854311
 30
0.0
 11
880.1253443457155
 21
426.408836085431
 31
0.0
  0
ARC
  5
25A
330
1F
100
AcDbEntity
  8
0
370
    60
100
AcDbCircle
 10
445.1427783457156
 20
427.999763085431
 30
0.0
 40
339.161957
100
AcDbArc
 50
359.705894
 51
0.2959459999999818
  0
ARC
  5
25B
330
1F
100
AcDbEntity
  8
0
370
    60
100
AcDbCircle
 10
779.6128643457155
 20
440.262459085431
 30
0.0
 40
2.002446999999977
100
AcDbArc
 50
270.0556979999998
 51
323.0284599999999
  0
LINE
  5
25C
330
1F
100
AcDbEntity
  8
0
370
    60
100
AcDbLine
 10
784.3003253457155
 20
426.258812085431
 30
0.0
 11
784.3003253457155
 21
279.854606085431
 31
0.0
  0
LINE
  5
25D
330
1F
100
AcDbEntity
  8
0
 48
0.252031
370
    60
100
AcDbLine
 10
794.3754403457154
 20
280.206432085431
 30
0.0
 11
784.3003253457155
 21
279.854599085431
 31
0.0
  0
LINE
  5
25E
330
1F
100
AcDbEntity
  8
0
 48
0.178865
370
    60
100
AcDbLine
 10
764.3003253457155
 20
431.102104085431
 30
0.0
 11
764.3003253457155
 21
438.2567060854311
 31
0.0
  0
LINE
  5
25F
330
1F
100
AcDbEntity
  8
0
 48
0.051135
370
    60
100
AcDbLine
 10
764.3003253457155
 20
429.056709085431
 30
0.0
 11
764.3003253457155
 21
431.102104085431
 31
0.0
  0
LINE
  5
260
330
1F
100
AcDbEntity
  8
0
370
    60
100
AcDbLine
 10
784.3003153457155
 20
429.7551190854311
 30
0.0
 11
764.3003253457155
 21
429.056709085431
 31
0.0
  0
LINE
  5
261
330
1F
100
AcDbEntity
  8
0
 48
0.087447
370
    60
100
AcDbLine
 10
764.3003253457155
 20
425.5588450854311
 30
0.0
 11
764.3003253457155
 21
429.056709085431
 31
0.0
  0
LINE
  5
262
330
1F
100
AcDbEntity
  8
0
370
    60
100
AcDbLine
 10
764.3003253457155
 20
280.554573085431
 30
0.0
 11
764.3003253457155
 21
425.5588450854311
 31
0.0
  0
LINE
  5
263
330
1F
100
AcDbEntity
  8
0
370
    60
100
AcDbLine
 10
784.3003803457154
 20
279.856155085431
 30
0.0
 11
764.3003253457155
 21
280.554573085431
 31
0.0
  0
ARC
  5
264
330
1F
100
AcDbEntity
  8
0
370
    60
100
AcDbCircle
 10
445.1397873457155
 20
278.113643085431
 30
0.0
 40
339.164978
100
AcDbArc
 50
359.704058
 51
0.2941039999999757
  0
LINE
  5
265
330
1F
100
AcDbEntity
  8
0
 48
0.231038
370
    60
100
AcDbLine
 10
793.5362333457155
 20
276.680816085431
 30
0.0
 11
784.3003253457155
 21
276.358291085431
 31
0.0
  0
LINE
  5
266
330
1F
100
AcDbEntity
  8
0
 48
0.019782
370
    60
100
AcDbLine
 10
766.3003253457155
 20
253.856706085431
 30
0.0
 11
766.3003253457155
 21
254.647981085431
 31
0.0
  0
LINE
  5
267
330
1F
100
AcDbEntity
  8
0
 48
0.019785
370
    60
100
AcDbLine
 10
766.3003253457155
 20
268.065319085431
 30
0.0
 11
766.3003253457155
 21
268.856705085431
 31
0.0
  0
LINE
  5
268
330
1F
100
AcDbEntity
  8
0
 48
0.087447
370
    60
100
AcDbLine
 10
764.3003253457155
 20
277.056705085431
 30
0.0
 11
764.3003253457155
 21
280.554573085431
 31
0.0
  0
LINE
  5
269
330
1F
100
AcDbEntity
  8
0
370
    60
100
AcDbLine
 10
784.3003153457155
 20
276.358291085431
 30
0.0
 11
764.3003253457155
 21
277.056705085431
 31
0.0
  0
LINE
  5
26A
330
1F
100
AcDbEntity
  8
0
370
    60
100
AcDbLine
 10
766.8483473457155
 20
254.836960085431
 30
0.0
 11
789.5448603457155
 21
254.044380085431
 31
0.0
  0
LINE
  5
26B
330
1F
100
AcDbEntity
  8
0
370
    60
100
AcDbLine
 10
766.3003253457155
 20
253.856706085431
 30
0.0
 11
789.3697203457155
 21
253.051105085431
 31
0.0
  0
LINE
  5
26C
330
1F
100
AcDbEntity
  8
0
 48
0.284658
370
    60
100
AcDbLine
 10
777.6797003457154
 20
269.254082085431
 30
0.0
 11
766.3003253457155
 21
268.856705085431
 31
0.0
  0
LINE
  5
26D
330
1F
100
AcDbEntity
  8
0
 48
0.00192
370
    60
100
AcDbLine
 10
874.2989053457155
 20
213.207926085431
 30
0.0
 11
874.3756193457154
 21
213.203905085431
 31
0.0
  0
ARC
  5
26E
330
1F
100
AcDbEntity
  8
0
370
    60
100
AcDbCircle
 10
774.0790603457154
 20
275.914738085431
 30
0.0
 40
0.7999999999999735
100
AcDbArc
 50
32.64755199999993
 51
87.99999999999993
  0
ARC
  5
26F
330
1F
100
AcDbEntity
  8
0
370
    60
100
AcDbCircle
 10
777.6448003457155
 20
270.253475085431
 30
0.0
 40
1.000000000000006
100
AcDbArc
 50
271.999989000003
 51
35.187014000003
  0
LINE
  5
270
330
1F
100
AcDbEntity
  8
0
 48
0.00432
370
    60
100
AcDbLine
 10
874.3579043457155
 20
213.045523085431
 30
0.0
 11
874.2989133457155
 21
213.207924085431
 31
0.0
  0
ARC
  5
271
330
1F
100
AcDbEntity
  8
0
370
    60
100
AcDbCircle
 10
901.0534073457155
 20
357.266777085431
 30
0.0
 40
150.0
100
AcDbArc
 50
212.647547
 51
222.222203
  0
ARC
  5
272
330
1F
100
AcDbEntity
  8
0
370
    60
100
AcDbCircle
 10
901.0534073457155
 20
357.266785085431
 30
0.0
 40
150.0
100
AcDbArc
 50
241.78396
 51
259.600106
  0
LINE
  5
273
330
1F
100
AcDbEntity
  8
0
 48
0.382777
370
    60
100
AcDbLine
 10
764.3003253457155
 20
438.256767085431
 30
0.0
 11
779.6113913457154
 21
438.256767085431
 31
0.0
  0
LINE
  5
274
330
1F
100
AcDbEntity
  8
0
 48
0.382777
370
    60
100
AcDbLine
 10
764.3003253457155
 20
438.256767085431
 30
0.0
 11
779.6113913457154
 21
438.256767085431
 31
0.0
  0
LINE
  5
275
330
1F
100
AcDbEntity
  8
0
 48
0.123723
370
    60
100
AcDbLine
 10
776.2492283457154
 20
274.056709085431
 30
0.0
 11
771.3003253457155
 21
274.056709085431
 31
0.0
  0
LINE
  5
276
330
1F
100
AcDbEntity
  8
0
370
    60
100
AcDbLine
 10
793.6213753457155
 20
277.163791085431
 30
0.0
 11
766.7949303457154
 21
125.023460085431
 31
0.0
  0
LINE
  5
277
330
1F
100
AcDbEntity
  8
0
370
    60
100
AcDbLine
 10
761.6814483457155
 20
96.02346008543103
 30
0.0
 11
766.7949303457154
 21
125.023460085431
 31
0.0
  0
LINE
  5
278
330
1F
100
AcDbEntity
  8
0
370
    60
100
AcDbLine
 10
807.3756463457155
 20
96.02346008543103
 30
0.0
 11
812.4891293457155
 21
125.023460085431
 31
0.0
  0
LINE
  5
279
330
1F
100
AcDbEntity
  8
0
370
    60
100
AcDbLine
 10
836.7812513457155
 20
262.790954085431
 30
0.0
 11
812.4891293457155
 21
125.023460085431
 31
0.0
  0
LINE
  5
27A
330
1F
100
AcDbEntity
  8
0
370
    60
100
AcDbLine
 10
761.6814483457155
 20
96.02346008543103
 30
0.0
 11
807.3756463457155
 21
96.02346008543103
 31
0.0
  0
ARC
  5
27B
330
1F
100
AcDbEntity
  8
0
370
    60
100
AcDbCircle
 10
815.7795503457155
 20
273.256706085431
 30
0.0
 40
22.50000000000005
100
AcDbArc
 50
163.574029
 51
169.999993
  0
LINE
  5
27C
330
1F
100
AcDbEntity
  8
0
370
    60
100
AcDbLine
 10
766.7949303457154
 20
125.023460085431
 30
0.0
 11
812.4891293457155
 21
125.023460085431
 31
0.0
  0
CIRCLE
  5
27D
330
1F
100
AcDbEntity
  8
0
370
    60
100
AcDbCircle
 10
815.7795503457155
 20
273.256706085431
 30
0.0
 40
5.25
  0
ARC
  5
27E
330
1F
100
AcDbEntity
  8
0
370
    60
100
AcDbCircle
 10
764.3020503457155
 20
261.365799085431
 30
0.0
 40
6.990891000000018
100
AcDbArc
 50
73.38969299999997
 51
89.87112399999998
  0
LINE
  5
27F
330
1F
100
AcDbEntity
  8
0
370
    60
100
AcDbLine
 10
755.3701243457155
 20
286.159031085431
 30
0.0
 11
676.3427213457155
 21
288.918728085431
 31
0.0
  0
LINE
  5
280
330
1F
100
AcDbEntity
  8
0
 48
0.163378
370
    60
100
AcDbLine
 10
757.7741583457155
 20
277.398727085431
 30
0.0
 11
764.3003253457155
 21
277.056705085431
 31
0.0
  0
ELLIPSE
  5
281
330
1F
100
AcDbEntity
  8
0
370
    60
100
AcDbEllipse
 10
755.3003253457155
 20
284.1602510854311
 30
0.0
 11
0.06979899108409883
 21
1.998781681060791
 31
0.0
210
0.0
220
0.0
230
1.0
 40
0.034878
 41
4.713606834411621
 42
6.283185482025146
  0
LINE
  5
282
330
1F
100
AcDbEntity
  8
0
 48
0.393487
370
    60
100
AcDbLine
 10
739.6402413457155
 20
284.709549085431
 30
0.0
 11
755.3701243457155
 21
284.1602510854311
 31
0.0
  0
LINE
  5
283
330
1F
100
AcDbEntity
  8
0
 48
0.015495
370
    60
100
AcDbLine
 10
739.6402433457155
 20
284.709549085431
 30
0.0
 11
739.2617183457155
 21
285.200344085431
 31
0.0
  0
ELLIPSE
  5
284
330
1F
100
AcDbEntity
  8
0
370
    60
100
AcDbEllipse
 10
735.8349333457155
 20
283.010280085431
 30
0.0
 11
4.193836212158203
 21
-0.1421097815036773
 31
0.0
210
0.0
220
0.0
230
1.0
 40
0.9123869999999997
 41
0.6459956169128418
 42
1.565877914428711
  0
ARC
  5
285
330
1F
100
AcDbEntity
  8
0
370
    60
100
AcDbCircle
 10
755.3003253457155
 20
284.160248085431
 30
0.0
 40
2.0
100
AcDbArc
 50
0.0
 51
88.0
  0
LWPOLYLINE
  5
286
330
1F
100
AcDbEntity
  8
0
370
    60
100
AcDbPolyline
 90
        7
 70
     0
 43
0.0
 10
755.3701243457155
 20
286.159031085431
 10
755.3731773457155
 20
286.162445085431
 10
755.3760843457155
 20
286.172901085431
 10
755.3861473457155
 20
286.284485085431
 10
755.3969743457155
 20
286.736568085431
 10
755.3934513457154
 20
288.138092085431
 10
755.3701243457155
 20
289.656898085431
  0
ARC
  5
287
330
1F
100
AcDbEntity
  8
0
370
    60
100
AcDbCircle
 10
676.4648683457154
 20
292.416595085431
 30
0.0
 40
3.49999999999998
100
AcDbArc
 50
188.7972609999999
 51
268.000012
  0
LINE
  5
288
330
1F
100
AcDbEntity
  8
0
 48
0.049977
370
    60
100
AcDbLine
 10
762.3003253457155
 20
275.162433085431
 30
0.0
 11
762.3003253457155
 21
277.161522085431
 31
0.0
  0
LINE
  5
289
330
1F
100
AcDbEntity
  8
0
 48
0.120143
370
    60
100
AcDbLine
 10
762.3003253457155
 20
270.356705085431
 30
0.0
 11
762.3003253457155
 21
275.162433085431
 31
0.0
  0
LINE
  5
28A
330
1F
100
AcDbEntity
  8
0
 48
0.114183
370
    60
100
AcDbLine
 10
757.7392853457155
 20
275.401470085431
 30
0.0
 11
762.3003253457155
 21
275.162433085431
 31
0.0
  0
ARC
  5
28B
330
1F
100
AcDbEntity
  8
0
370
    60
100
AcDbCircle
 10
757.8003253457155
 20
277.898044085431
 30
0.0
 40
0.5000000000000019
100
AcDbArc
 50
180.0000050000005
 51
266.9999900000005
  0
LINE
  5
28C
330
1F
100
AcDbEntity
  8
0
 48
0.163378
370
    60
100
AcDbLine
 10
757.7741583457155
 20
280.893932085431
 30
0.0
 11
764.3003253457155
 21
280.551910085431
 31
0.0
  0
LINE
  5
28D
330
1F
100
AcDbEntity
  8
0
 48
0.08738
370
    60
100
AcDbLine
 10
764.3003253457155
 20
277.056705085431
 30
0.0
 11
764.3003253457155
 21
280.551910085431
 31
0.0
  0
LINE
  5
28E
330
1F
100
AcDbEntity
  8
0
370
    60
100
AcDbLine
 10
764.3003253457155
 20
425.5615000854311
 30
0.0
 11
764.3003253457155
 21
280.551910085431
 31
0.0
  0
LINE
  5
28F
330
1F
100
AcDbEntity
  8
0
 48
0.08738
370
    60
100
AcDbLine
 10
764.3003253457155
 20
425.5615000854311
 30
0.0
 11
764.3003253457155
 21
429.056709085431
 31
0.0
  0
LINE
  5
290
330
1F
100
AcDbEntity
  8
0
 48
0.051164
370
    60
100
AcDbLine
 10
764.3003253457155
 20
429.056709085431
 30
0.0
 11
764.3003253457155
 21
431.1032790854311
 31
0.0
  0
LINE
  5
291
330
1F
100
AcDbEntity
  8
0
 48
0.178836
370
    60
100
AcDbLine
 10
764.3003253457155
 20
438.2567060854311
 30
0.0
 11
764.3003253457155
 21
431.1032790854311
 31
0.0
  0
LINE
  5
292
330
1F
100
AcDbEntity
  8
0
 48
0.048255
370
    60
100
AcDbLine
 10
757.3003253457155
 20
284.1602510854311
 30
0.0
 11
755.3701243457155
 21
284.1602510854311
 31
0.0
  0
LINE
  5
293
330
1F
100
AcDbEntity
  8
0
370
    60
100
AcDbLine
 10
739.6402413457155
 20
284.709549085431
 30
0.0
 11
758.644131794311
 21
257.5691819976005
 31
0.0
  0
LINE
  5
294
330
1F
100
AcDbEntity
  8
0
 48
0.344992
370
    60
100
AcDbLine
 10
764.3003253457155
 20
254.557012085431
 30
0.0
 11
764.3003253457155
 21
268.356705085431
 31
0.0
  0
ARC
  5
295
330
1F
100
AcDbEntity
  8
0
370
    60
100
AcDbCircle
 10
764.3003253457155
 20
270.356705085431
 30
0.0
 40
2.000000000000008
100
AcDbArc
 50
179.9999949999995
 51
269.9999969999995
  0
ARC
  5
296
330
1F
100
AcDbEntity
  8
0
370
    60
100
AcDbCircle
 10
757.8700843457154
 20
277.898006085431
 30
0.0
 40
2.499948000000042
100
AcDbArc
 50
179.9991310000003
 51
267.0008650000003
  0
LINE
  5
297
330
1F
100
AcDbEntity
  8
0
 48
0.156555
370
    60
100
AcDbLine
 10
755.3701243457155
 20
284.1602510854311
 30
0.0
 11
755.3701243457155
 21
277.898044085431
 31
0.0
  0
LINE
  5
298
330
1F
100
AcDbEntity
  8
0
 48
0.074897
370
    60
100
AcDbLine
 10
757.3003253457155
 20
277.898044085431
 30
0.0
 11
757.3003253457155
 21
280.893932085431
 31
0.0
  0
LINE
  5
299
330
1F
100
AcDbEntity
  8
0
 48
0.074897
370
    60
100
AcDbLine
 10
757.3003253457155
 20
421.9531630854311
 30
0.0
 11
757.3003253457155
 21
428.2153700854311
 31
0.0
  0
LINE
  5
29A
330
1F
100
AcDbEntity
  8
0
 48
0.066321
370
    60
100
AcDbLine
 10
757.3003253457155
 20
428.2153700854311
 30
0.0
 11
757.3003253457155
 21
430.868217085431
 31
0.0
  0
LINE
  5
29B
330
1F
100
AcDbEntity
  8
0
 48
0.172206
370
    60
100
AcDbLine
 10
757.3003253457155
 20
430.868477085431
 30
0.0
 11
757.3003253457155
 21
437.7567060854311
 31
0.0
  0
LINE
  5
29C
330
1F
100
AcDbEntity
  8
0
370
    60
100
AcDbLine
 10
755.3701243457155
 20
289.656898085431
 30
0.0
 11
755.3701243457155
 21
416.456520085431
 31
0.0
  0
ARC
  5
29D
330
1F
100
AcDbEntity
  8
0
370
    60
100
AcDbCircle
 10
1068.300340345716
 20
353.056709085431
 30
0.0
 40
400.0000000000002
100
AcDbArc
 50
171.202749
 51
188.797234
  0
LINE
  5
29E
330
1F
100
AcDbEntity
  8
0
 48
0.011846
370
    60
100
AcDbLine
 10
757.7741583457155
 20
280.893932085431
 30
0.0
 11
757.3003253457155
 21
280.893932085431
 31
0.0
  0
LINE
  5
29F
330
1F
100
AcDbEntity
  8
0
 48
0.163378
370
    60
100
AcDbLine
 10
764.3003253457155
 20
429.056709085431
 30
0.0
 11
757.7741583457155
 21
428.7146830854311
 31
0.0
  0
LINE
  5
2A0
330
1F
100
AcDbEntity
  8
0
 48
0.1625
370
    60
100
AcDbLine
 10
764.3003253457155
 20
438.2567060854311
 30
0.0
 11
757.8003253457155
 21
438.2567060854311
 31
0.0
  0
LINE
  5
2A1
330
1F
100
AcDbEntity
  8
0
 48
0.1625
370
    60
100
AcDbLine
 10
764.3003253457155
 20
438.2567060854311
 30
0.0
 11
757.8003253457155
 21
438.2567060854311
 31
0.0
  0
ARC
  5
2A2
330
1F
100
AcDbEntity
  8
0
370
    60
100
AcDbCircle
 10
764.3003253457155
 20
261.356706085431
 30
0.0
 40
7.000000000000021
100
AcDbArc
 50
217.2557260000002
 51
243.7153870000001
  0
ARC
  5
2A3
330
1F
100
AcDbEntity
  8
0
370
    60
100
AcDbCircle
 10
764.3002423457154
 20
261.356676085431
 30
0.0
 40
7.000112000000011
100
AcDbArc
 50
269.9999970000001
 51
89.99863600000005
  0
ARC
  5
2A4
330
1F
100
AcDbEntity
  8
0
370
    60
100
AcDbCircle
 10
755.3003253457155
 20
421.9531630854311
 30
0.0
 40
2.000000000000007
100
AcDbArc
 50
271.9999889999997
 51
0.0000099999997342
  0
LWPOLYLINE
  5
2A5
330
1F
100
AcDbEntity
  8
0
370
    60
100
AcDbPolyline
 90
        7
 70
     0
 43
0.0
 10
755.3701243457155
 20
416.456520085431
 10
755.3987503457155
 20
418.7591780854311
 10
755.3918983457155
 20
419.6737440854311
 10
755.3814413457155
 20
419.898582085431
 10
755.3760843457155
 20
419.9405130854311
 10
755.3731773457155
 20
419.950966085431
 10
755.3701243457155
 20
419.9543840854311
  0
ARC
  5
2A6
330
1F
100
AcDbEntity
  8
0
370
    60
100
AcDbCircle
 10
757.8003253457155
 20
428.2153700854311
 30
0.0
 40
0.4999999999999873
100
AcDbArc
 50
92.99999899999519
 51
180.0000049999952
  0
ARC
  5
2A7
330
1F
100
AcDbEntity
  8
0
370
    60
100
AcDbCircle
 10
757.8003143457155
 20
437.756721085431
 30
0.0
 40
0.499996000000031
100
AcDbArc
 50
89.99865700000133
 51
180.0013440000014
  0
ARC
  5
2A8
330
1F
100
AcDbEntity
  8
0
370
    60
100
AcDbCircle
 10
757.8003143457155
 20
437.756721085431
 30
0.0
 40
0.499996000000031
100
AcDbArc
 50
89.99865700000133
 51
180.0013440000014
  0
LINE
  5
2A9
330
1F
100
AcDbEntity
  8
0
370
    60
100
AcDbLine
 10
676.3427213457155
 20
417.194679085431
 30
0.0
 11
755.3701243457155
 21
419.9543840854311
 31
0.0
  0
ARC
  5
2AA
330
1F
100
AcDbEntity
  8
0
370
    60
100
AcDbCircle
 10
676.4648683457154
 20
413.6968150854311
 30
0.0
 40
3.500000000000023
100
AcDbArc
 50
91.99999799999964
 51
171.2027629999996
  0
ARC
  5
2AB
330
1F
100
AcDbEntity
  8
0
370
    60
100
AcDbCircle
 10
758.9944734017125
 20
257.3989036384294
 30
0.0
 40
0.3895304371659724
100
AcDbArc
 50
154.0786158660262
 51
226.0063434857159
  0
ARC
  5
2AC
330
1F
100
AcDbEntity
  8
0
370
    60
100
AcDbCircle
 10
764.3266453457155
 20
261.442190085431
 30
0.0
 40
7.087347999999984
100
AcDbArc
 50
243.8267330000001
 51
269.7871280000002
  0
LINE
  5
2AD
330
1F
100
AcDbEntity
  8
0
 48
0.025431
370
    60
100
AcDbLine
 10
871.4585353457155
 20
189.573623085431
 30
0.0
 11
871.5924543457155
 21
190.582012085431
 31
0.0
  0
ARC
  5
2AE
330
1F
100
AcDbEntity
  8
0
370
    60
100
AcDbCircle
 10
-355.6990796542844
 20
353.056625085431
 30
0.0
 40
1237.99939
100
AcDbArc
 50
352.317508
 51
7.332803999999995
  0
LINE
  5
2AF
330
1F
100
AcDbEntity
  8
0
370
    60
100
AcDbLine
 10
871.1881573457155
 20
187.556705085431
 30
0.0
 11
909.6730363457154
 21
189.573612085431
 31
0.0
  0
LINE
  5
2B0
330
1F
100
AcDbEntity
  8
0
 48
0.025431
370
    60
100
AcDbLine
 10
871.4585353457155
 20
189.573623085431
 30
0.0
 11
871.5924543457155
 21
190.582012085431
 31
0.0
  0
LINE
  5
2B1
330
1F
100
AcDbEntity
  8
0
 48
0.050874
370
    60
100
AcDbLine
 10
871.1881573457155
 20
187.556705085431
 30
0.0
 11
871.4585433457155
 21
189.573620085431
 31
0.0
  0
LINE
  5
2B2
330
1F
100
AcDbEntity
  8
0
 48
0.003184
370
    60
100
AcDbLine
 10
871.4585433457155
 20
189.573623085431
 30
0.0
 11
871.4753503457155
 21
189.699863085431
 31
0.0
  0
LINE
  5
2B3
330
1F
100
AcDbEntity
  8
0
 48
0.005316
370
    60
100
AcDbLine
 10
871.5645693457155
 20
190.371483085431
 30
0.0
 11
871.5924923457155
 21
190.582268085431
 31
0.0
  0
LINE
  5
2B4
330
1F
100
AcDbEntity
  8
0
 48
0.043067
370
    60
100
AcDbLine
 10
871.9567963457155
 20
193.358284085431
 30
0.0
 11
872.1778353457155
 21
195.066742085431
 31
0.0
  0
ARC
  5
2B5
330
1F
100
AcDbEntity
  8
0
370
    60
100
AcDbCircle
 10
-355.6995686542845
 20
353.056702085431
 30
0.0
 40
1237.999878
100
AcDbArc
 50
352.668084
 51
353.351838
  0
ARC
  5
2B6
330
1F
100
AcDbEntity
  8
0
370
    60
100
AcDbCircle
 10
-355.6996906542846
 20
353.056709085431
 30
0.0
 40
1238.0
100
AcDbArc
 50
6.648138999999997
 51
7.331915999999999
  0
LINE
  5
2B7
330
1F
100
AcDbEntity
  8
0
 48
0.002848
370
    60
100
AcDbLine
 10
871.4735733457155
 20
516.426887085431
 30
0.0
 11
871.4585353457155
 21
516.5398020854311
 31
0.0
  0
LINE
  5
2B8
330
1F
100
AcDbEntity
  8
0
 48
0.036866
370
    60
100
AcDbLine
 10
871.7666333457155
 20
514.2102430854311
 30
0.0
 11
871.5738083457155
 21
515.672218085431
 31
0.0
  0
LINE
  5
2B9
330
1F
100
AcDbEntity
  8
0
 48
0.009612
370
    60
100
AcDbLine
 10
872.1778353457155
 20
511.046669085431
 30
0.0
 11
872.1287093457155
 21
511.4279860854311
 31
0.0
  0
LINE
  5
2BA
330
1F
100
AcDbEntity
  8
0
 48
0.050874
370
    60
100
AcDbLine
 10
871.4585353457155
 20
516.5398020854311
 30
0.0
 11
871.1881573457155
 21
518.5567090854311
 31
0.0
  0
LINE
  5
2BB
330
1F
100
AcDbEntity
  8
0
 48
0.050874
370
    60
100
AcDbLine
 10
871.1881573457155
 20
187.556709085431
 30
0.0
 11
871.4585433457155
 21
189.573623085431
 31
0.0
  0
LINE
  5
2BC
330
1F
100
AcDbEntity
  8
0
 48
0.025431
370
    60
100
AcDbLine
 10
871.4585353457155
 20
189.573623085431
 30
0.0
 11
871.5924543457155
 21
190.582016085431
 31
0.0
  0
LINE
  5
2BD
330
1F
100
AcDbEntity
  8
0
 48
0.050874
370
    60
100
AcDbLine
 10
871.4585353457155
 20
516.5398020854311
 30
0.0
 11
871.1881573457155
 21
518.5567090854311
 31
0.0
  0
LINE
  5
2BE
330
1F
100
AcDbEntity
  8
0
 48
0.025431
370
    60
100
AcDbLine
 10
871.5924543457155
 20
515.5314100854309
 30
0.0
 11
871.4585353457155
 21
516.5398020854311
 31
0.0
  0
LINE
  5
2BF
330
1F
100
AcDbEntity
  8
0
 48
0.025431
370
    60
100
AcDbLine
 10
871.4585353457155
 20
189.573623085431
 30
0.0
 11
871.5924543457155
 21
190.582016085431
 31
0.0
  0
ARC
  5
2C0
330
1F
100
AcDbEntity
  8
0
370
    60
100
AcDbCircle
 10
909.4113633457155
 20
511.546638085431
 30
0.0
 40
4.999999999999963
100
AcDbArc
 50
7.140671000000674
 51
86.99999900000068
  0
LINE
  5
2C1
330
1F
100
AcDbEntity
  8
0
 48
0.063132
370
    60
100
AcDbLine
 10
914.3725903457155
 20
193.945232085431
 30
0.0
 11
914.6840223457154
 21
196.451229085431
 31
0.0
  0
ARC
  5
2C2
330
1F
100
AcDbEntity
  8
0
370
    60
100
AcDbCircle
 10
-355.6996906542846
 20
353.056702085431
 30
0.0
 40
1280.0
100
AcDbArc
 50
352.972368
 51
7.027633
  0
LINE
  5
2C3
330
1F
100
AcDbEntity
  8
0
 48
0.063132
370
    60
100
AcDbLine
 10
914.6840223457154
 20
509.662178085431
 30
0.0
 11
914.3725753457155
 21
512.168190085431
 31
0.0
  0
ARC
  5
2C4
330
1F
100
AcDbEntity
  8
0
370
    60
100
AcDbCircle
 10
909.4113633457155
 20
194.566761085431
 30
0.0
 40
4.999999999999977
100
AcDbArc
 50
273.0000109999999
 51
352.8593209999999
  0
LINE
  5
2C5
330
1F
100
AcDbEntity
  8
0
 48
0.025431
370
    60
100
AcDbLine
 10
871.5924543457155
 20
515.5314100854309
 30
0.0
 11
871.4585353457155
 21
516.5398020854311
 31
0.0
  0
LINE
  5
2C6
330
1F
100
AcDbEntity
  8
0
 48
0.025431
370
    60
100
AcDbLine
 10
871.5924543457155
 20
515.5314100854309
 30
0.0
 11
871.4585353457155
 21
516.5398020854311
 31
0.0
  0
LINE
  5
2C7
330
1F
100
AcDbEntity
  8
0
 48
0.025431
370
    60
100
AcDbLine
 10
871.5924543457155
 20
515.5314100854309
 30
0.0
 11
871.4585353457155
 21
516.5398020854311
 31
0.0
  0
LINE
  5
2C8
330
1F
100
AcDbEntity
  8
0
370
    60
100
AcDbLine
 10
909.6730363457154
 20
516.5398020854311
 30
0.0
 11
871.1881573457155
 21
518.5567090854311
 31
0.0
  0
ARC
  5
2C9
330
1F
100
AcDbEntity
  8
0
370
    60
100
AcDbCircle
 10
-355.7003006542845
 20
353.056633085431
 30
0.0
 40
1238.00061
100
AcDbArc
 50
7.332805999999999
 51
7.682491999999999
  0
LINE
  5
2CA
330
1F
100
AcDbEntity
  8
0
 48
0.036223
370
    60
100
AcDbLine
 10
759.7003263457154
 20
255.106706085431
 30
0.0
 11
761.1492633457154
 21
255.106706085431
 31
0.0
  0
LINE
  5
2CB
330
1F
100
AcDbEntity
  8
0
 48
0.03358
370
    60
100
AcDbLine
 10
758.0019724094946
 20
258.4862806032757
 30
0.0
 11
758.0003253457155
 21
256.806707085431
 31
0.0
  0
ARC
  5
2CC
330
1F
100
AcDbEntity
  8
0
370
    60
100
AcDbCircle
 10
759.7003263457154
 20
256.806707085431
 30
0.0
 40
1.700000000000052
100
AcDbArc
 50
180.0000049999994
 51
270.0000009999994
  0
ELLIPSE
  5
2CD
330
1F
100
AcDbEntity
  8
0
370
    60
100
AcDbEllipse
 10
865.3415613457155
 20
206.176044085431
 30
0.0
 11
0.07662014663219452
 21
-0.1847413182258606
 31
0.0
210
0.0
220
0.0
230
1.0
 40
0.4999999999999999
 41
3.141592741012573
 42
3.193293571472168
  0
ELLIPSE
  5
2CE
330
1F
100
AcDbEntity
  8
0
370
    60
100
AcDbEllipse
 10
865.3415613457155
 20
206.176044085431
 30
0.0
 11
-0.07662010937929153
 21
0.1847413331270218
 31
0.0
210
0.0
220
0.0
230
1.0
 40
0.4999999999999999
 41
0.0000000079033144
 42
0.0102871684357524
  0
ARC
  5
2CF
330
1F
100
AcDbEntity
  8
0
370
    60
100
AcDbCircle
 10
866.6460583457155
 20
209.034378085431
 30
0.0
 40
1.099999999999983
100
AcDbArc
 50
260.6912719999972
 51
202.5258549999973
  0
LINE
  5
2D0
330
1F
100
AcDbEntity
  8
0
 48
0.05
370
    60
100
AcDbLine
 10
866.9325273457155
 20
205.472364085431
 30
0.0
 11
867.6987243457155
 21
203.624950085431
 31
0.0
  0
LINE
  5
2D1
330
1F
100
AcDbEntity
  8
0
 48
0.05
370
    60
100
AcDbLine
 10
866.0088133457155
 20
205.089264085431
 30
0.0
 11
866.7750183457155
 21
203.241850085431
 31
0.0
  0
LINE
  5
2D2
330
1F
100
AcDbEntity
  8
0
 48
0.05
370
    60
100
AcDbLine
 10
866.7750183457155
 20
203.241850085431
 30
0.0
 11
867.5412233457155
 21
201.394438085431
 31
0.0
  0
LINE
  5
2D3
330
1F
100
AcDbEntity
  8
0
 48
0.05
370
    60
100
AcDbLine
 10
867.6987243457155
 20
203.624950085431
 30
0.0
 11
868.4649293457155
 21
201.777538085431
 31
0.0
  0
LINE
  5
2D4
330
1F
100
AcDbEntity
  8
0
 48
0.271198
370
    60
100
AcDbLine
 10
871.6970613457155
 20
191.374142085431
 30
0.0
 11
867.5412233457155
 21
201.394438085431
 31
0.0
  0
LINE
  5
2D5
330
1F
100
AcDbEntity
  8
0
 48
0.227869
370
    60
100
AcDbLine
 10
871.9567963457155
 20
193.358177085431
 30
0.0
 11
868.4649293457155
 21
201.777538085431
 31
0.0
  0
LINE
  5
2D6
330
1F
100
AcDbEntity
  8
0
 48
0.085
370
    60
100
AcDbLine
 10
866.0088133457155
 20
205.089264085431
 30
0.0
 11
864.7062773457155
 21
208.2298660854311
 31
0.0
  0
LINE
  5
2D7
330
1F
100
AcDbEntity
  8
0
 48
0.005
370
    60
100
AcDbLine
 10
865.4496853457155
 20
206.4374040854311
 30
0.0
 11
865.2649473457155
 21
206.360784085431
 31
0.0
  0
LINE
  5
2D8
330
1F
100
AcDbEntity
  8
0
 48
0.419972
370
    60
100
AcDbLine
 10
865.1568233457155
 20
206.099422085431
 30
0.0
 11
871.5924853457155
 21
190.582191085431
 31
0.0
  0
ARC
  5
2D9
330
1F
100
AcDbEntity
  8
0
370
    60
100
AcDbCircle
 10
865.3415613457155
 20
206.176042085431
 30
0.0
 40
0.1999999999999981
100
AcDbArc
 50
112.525869999997
 51
202.5258729999969
  0
LINE
  5
2DA
330
1F
100
AcDbEntity
  8
0
 48
0.085
370
    60
100
AcDbLine
 10
866.9325273457155
 20
205.472364085431
 30
0.0
 11
865.6299833457155
 21
208.612966085431
 31
0.0
  0
ARC
  5
2DB
330
1F
100
AcDbEntity
  8
0
370
    60
100
AcDbCircle
 10
866.8143023457155
 20
207.141842085431
 30
0.0
 40
0.200000000000047
100
AcDbArc
 50
190.0517490000056
 51
275.0800500000057
  0
ARC
  5
2DC
330
1F
100
AcDbEntity
  8
0
370
    60
100
AcDbCircle
 10
866.6460583457155
 20
209.034378085431
 30
0.0
 40
2.100000000000011
100
AcDbArc
 50
275.0800499999991
 51
202.5258549999991
  0
LINE
  5
2DD
330
1F
100
AcDbEntity
  8
0
 48
0.021376
370
    60
100
AcDbLine
 10
866.6173723457155
 20
207.106933085431
 30
0.0
 11
866.4681333457155
 21
207.948864085431
 31
0.0
  0
ARC
  5
2DE
330
1F
100
AcDbEntity
  8
0
370
    60
100
AcDbCircle
 10
866.6460583457155
 20
495.3369520854311
 30
0.0
 40
1.100000000000034
100
AcDbArc
 50
157.4741220000031
 51
219.0980700000031
  0
ARC
  5
2DF
330
1F
100
AcDbEntity
  8
0
370
    60
100
AcDbCircle
 10
866.6460583457155
 20
495.3369520854311
 30
0.0
 40
1.099999999999981
100
AcDbArc
 50
347.3377950000017
 51
99.30869300000161
  0
LINE
  5
2E0
330
1F
100
AcDbEntity
  8
0
 48
0.05
370
    60
100
AcDbLine
 10
866.0088133457155
 20
499.2820510854311
 30
0.0
 11
866.7750183457155
 21
501.129463085431
 31
0.0
  0
LINE
  5
2E1
330
1F
100
AcDbEntity
  8
0
 48
0.05
370
    60
100
AcDbLine
 10
866.9325273457155
 20
498.898964085431
 30
0.0
 11
867.6987243457155
 21
500.746376085431
 31
0.0
  0
LINE
  5
2E2
330
1F
100
AcDbEntity
  8
0
 48
0.05
370
    60
100
AcDbLine
 10
867.6987243457155
 20
500.746376085431
 30
0.0
 11
868.4649293457155
 21
502.5937880854311
 31
0.0
  0
LINE
  5
2E3
330
1F
100
AcDbEntity
  8
0
 48
0.05
370
    60
100
AcDbLine
 10
866.7750183457155
 20
501.129463085431
 30
0.0
 11
867.5412233457155
 21
502.976875085431
 31
0.0
  0
LINE
  5
2E4
330
1F
100
AcDbEntity
  8
0
 48
0.239091
370
    60
100
AcDbLine
 10
872.1287703457155
 20
511.427803085431
 30
0.0
 11
868.4649293457155
 21
502.5937880854311
 31
0.0
  0
LINE
  5
2E5
330
1F
100
AcDbEntity
  8
0
 48
0.282528
370
    60
100
AcDbLine
 10
871.8706753457155
 20
513.415779085431
 30
0.0
 11
867.5412233457155
 21
502.976875085431
 31
0.0
  0
LINE
  5
2E6
330
1F
100
AcDbEntity
  8
0
 48
0.085
370
    60
100
AcDbLine
 10
866.0088133457155
 20
499.2820510854311
 30
0.0
 11
864.7062773457155
 21
496.141456085431
 31
0.0
  0
LINE
  5
2E7
330
1F
100
AcDbEntity
  8
0
 48
0.005
370
    60
100
AcDbLine
 10
865.4496853457155
 20
497.933906085431
 30
0.0
 11
865.2649473457155
 21
498.0105360854311
 31
0.0
  0
LINE
  5
2E8
330
1F
100
AcDbEntity
  8
0
 48
0.431345
370
    60
100
AcDbLine
 10
865.1568233457155
 20
498.271889085431
 30
0.0
 11
871.7667553457155
 21
514.209328085431
 31
0.0
  0
ARC
  5
2E9
330
1F
100
AcDbEntity
  8
0
370
    60
100
AcDbCircle
 10
865.3415613457155
 20
498.1952890854311
 30
0.0
 40
0.2000000000000214
100
AcDbArc
 50
157.4741220000081
 51
247.4741190000081
  0
LINE
  5
2EA
330
1F
100
AcDbEntity
  8
0
 48
0.085
370
    60
100
AcDbLine
 10
866.9325273457155
 20
498.898964085431
 30
0.0
 11
865.6299833457155
 21
495.7583690854311
 31
0.0
  0
LINE
  5
2EB
330
1F
100
AcDbEntity
  8
0
 48
0.021376
370
    60
100
AcDbLine
 10
866.6173723457155
 20
497.264381085431
 30
0.0
 11
866.4681333457155
 21
496.4224620854311
 31
0.0
  0
ARC
  5
2EC
330
1F
100
AcDbEntity
  8
0
370
    60
100
AcDbCircle
 10
866.6460583457155
 20
495.3369520854311
 30
0.0
 40
2.099999999999975
100
AcDbArc
 50
157.4741220000002
 51
206.7329830000002
  0
ARC
  5
2ED
330
1F
100
AcDbEntity
  8
0
370
    60
100
AcDbCircle
 10
866.6460583457155
 20
495.3369520854311
 30
0.0
 40
2.099999999999978
100
AcDbArc
 50
359.7028969999996
 51
84.91997099999962
  0
ARC
  5
2EE
330
1F
100
AcDbEntity
  8
0
370
    60
100
AcDbCircle
 10
866.8143023457155
 20
497.229469085431
 30
0.0
 40
0.1999999999999622
100
AcDbArc
 50
84.91995999999756
 51
169.9482619999976
  0
ARC
  5
2EF
330
1F
100
AcDbEntity
  8
0
370
    60
100
AcDbCircle
 10
814.3003253457155
 20
256.256706085431
 30
0.0
 40
0.5000000000000062
100
AcDbArc
 50
180.0000089999996
 51
359.9999959999996
  0
LINE
  5
2F0
330
1F
100
AcDbEntity
  8
0
 48
0.05
370
    60
100
AcDbLine
 10
813.8003253457155
 20
256.256706085431
 30
0.0
 11
813.8003253457155
 21
258.256706085431
 31
0.0
  0
ARC
  5
2F1
330
1F
100
AcDbEntity
  8
0
370
    60
100
AcDbCircle
 10
814.3003253457155
 20
258.256706085431
 30
0.0
 40
0.5000000000000019
100
AcDbArc
 50
359.9999949999995
 51
180.0000049999995
  0
LINE
  5
2F2
330
1F
100
AcDbEntity
  8
0
 48
0.05
370
    60
100
AcDbLine
 10
814.8003253457155
 20
256.256706085431
 30
0.0
 11
814.8003253457155
 21
258.256706085431
 31
0.0
  0
ARC
  5
2F3
330
1F
100
AcDbEntity
  8
0
370
    60
100
AcDbCircle
 10
833.3003253457155
 20
273.256706085431
 30
0.0
 40
1.500000000000002
100
AcDbArc
 50
269.999996999998
 51
90.000002999998
  0
LINE
  5
2F4
330
1F
100
AcDbEntity
  8
0
 48
0.05
370
    60
100
AcDbLine
 10
831.3003253457155
 20
271.756706085431
 30
0.0
 11
833.3003253457155
 21
271.756706085431
 31
0.0
  0
ARC
  5
2F5
330
1F
100
AcDbEntity
  8
0
370
    60
100
AcDbCircle
 10
831.3003253457155
 20
273.256706085431
 30
0.0
 40
1.500000000000002
100
AcDbArc
 50
90.00000300000205
 51
270.000001000002
  0
LINE
  5
2F6
330
1F
100
AcDbEntity
  8
0
 48
0.05
370
    60
100
AcDbLine
 10
831.3003253457155
 20
274.756706085431
 30
0.0
 11
833.3003253457155
 21
274.756706085431
 31
0.0
  0
LINE
  5
2F7
330
1F
100
AcDbEntity
  8
0
 48
0.05
370
    60
100
AcDbLine
 10
831.3003253457155
 20
272.756706085431
 30
0.0
 11
833.3003253457155
 21
272.756706085431
 31
0.0
  0
ARC
  5
2F8
330
1F
100
AcDbEntity
  8
0
370
    60
100
AcDbCircle
 10
833.3003253457155
 20
273.256706085431
 30
0.0
 40
0.5000000000000007
100
AcDbArc
 50
269.9999970000023
 51
90.00000300000232
  0
LINE
  5
2F9
330
1F
100
AcDbEntity
  8
0
 48
0.05
370
    60
100
AcDbLine
 10
831.3003253457155
 20
273.756706085431
 30
0.0
 11
833.3003253457155
 21
273.756706085431
 31
0.0
  0
ARC
  5
2FA
330
1F
100
AcDbEntity
  8
0
370
    60
100
AcDbCircle
 10
831.3003253457155
 20
273.256706085431
 30
0.0
 40
0.5000000000000007
100
AcDbArc
 50
90.00000299999769
 51
270.0000009999976
  0
ARC
  5
2FB
330
1F
100
AcDbEntity
  8
0
370
    60
100
AcDbCircle
 10
818.3003253457155
 20
288.256706085431
 30
0.0
 40
1.500000000000006
100
AcDbArc
 50
179.9999949999995
 51
359.9999979999995
  0
LINE
  5
2FC
330
1F
100
AcDbEntity
  8
0
 48
0.05
370
    60
100
AcDbLine
 10
816.8003253457155
 20
288.256706085431
 30
0.0
 11
816.8003253457155
 21
290.256706085431
 31
0.0
  0
ARC
  5
2FD
330
1F
100
AcDbEntity
  8
0
370
    60
100
AcDbCircle
 10
818.3003253457155
 20
290.256706085431
 30
0.0
 40
1.5
100
AcDbArc
 50
359.9999990000008
 51
180.0000050000007
  0
LINE
  5
2FE
330
1F
100
AcDbEntity
  8
0
 48
0.05
370
    60
100
AcDbLine
 10
819.8003253457155
 20
288.256706085431
 30
0.0
 11
819.8003253457155
 21
290.256706085431
 31
0.0
  0
LINE
  5
2FF
330
1F
100
AcDbEntity
  8
0
 48
0.05
370
    60
100
AcDbLine
 10
818.8003253457155
 20
288.256706085431
 30
0.0
 11
818.8003253457155
 21
290.256706085431
 31
0.0
  0
ARC
  5
300
330
1F
100
AcDbEntity
  8
0
370
    60
100
AcDbCircle
 10
818.3003253457155
 20
290.256706085431
 30
0.0
 40
0.5000000000000012
100
AcDbArc
 50
359.9999960000009
 51
180.0000050000009
  0
LINE
  5
301
330
1F
100
AcDbEntity
  8
0
 48
0.05
370
    60
100
AcDbLine
 10
817.8003253457155
 20
288.256706085431
 30
0.0
 11
817.8003253457155
 21
290.256706085431
 31
0.0
  0
ARC
  5
302
330
1F
100
AcDbEntity
  8
0
370
    60
100
AcDbCircle
 10
818.3003253457155
 20
288.256706085431
 30
0.0
 40
0.5000000000000062
100
AcDbArc
 50
180.0000089999996
 51
359.9999949999996
  0
CIRCLE
  5
303
330
1F
100
AcDbEntity
  8
0
370
    60
100
AcDbCircle
 10
816.3003253457155
 20
273.256706085431
 30
0.0
 40
23.0
  0
CIRCLE
  5
304
330
1F
100
AcDbEntity
  8
0
370
    60
100
AcDbCircle
 10
816.3003253457155
 20
273.256706085431
 30
0.0
 40
9.0
  0
CIRCLE
  5
305
330
1F
100
AcDbEntity
  8
0
370
    60
100
AcDbCircle
 10
816.3003253457155
 20
273.256706085431
 30
0.0
 40
12.43448999999998
  0
LINE
  5
306
330
1F
100
AcDbEntity
  8
0
 48
0.05
370
    60
100
AcDbLine
 10
799.3003253457155
 20
274.756706085431
 30
0.0
 11
801.3003253457155
 21
274.756706085431
 31
0.0
  0
ARC
  5
307
330
1F
100
AcDbEntity
  8
0
370
    60
100
AcDbCircle
 10
799.3003253457155
 20
273.256706085431
 30
0.0
 40
1.500000000000002
100
AcDbArc
 50
90.00000300000205
 51
270.000001000002
  0
LINE
  5
308
330
1F
100
AcDbEntity
  8
0
 48
0.05
370
    60
100
AcDbLine
 10
799.3003253457155
 20
271.756706085431
 30
0.0
 11
801.3003253457155
 21
271.756706085431
 31
0.0
  0
ARC
  5
309
330
1F
100
AcDbEntity
  8
0
370
    60
100
AcDbCircle
 10
801.3003253457155
 20
273.256706085431
 30
0.0
 40
1.500000000000002
100
AcDbArc
 50
269.999996999998
 51
90.000002999998
  0
LINE
  5
30A
330
1F
100
AcDbEntity
  8
0
 48
0.05
370
    60
100
AcDbLine
 10
815.8003253457155
 20
288.256706085431
 30
0.0
 11
815.8003253457155
 21
290.256706085431
 31
0.0
  0
ARC
  5
30B
330
1F
100
AcDbEntity
  8
0
370
    60
100
AcDbCircle
 10
814.3003253457155
 20
290.256706085431
 30
0.0
 40
1.5
100
AcDbArc
 50
359.9999990000008
 51
289.4712300000007
  0
LINE
  5
30C
330
1F
100
AcDbEntity
  8
0
 48
0.014645
370
    60
100
AcDbLine
 10
814.8003253457155
 20
288.256706085431
 30
0.0
 11
814.8003253457155
 21
288.842491085431
 31
0.0
  0
ARC
  5
30D
330
1F
100
AcDbEntity
  8
0
370
    60
100
AcDbCircle
 10
814.3003253457155
 20
288.256706085431
 30
0.0
 40
0.5000000000000062
100
AcDbArc
 50
180.0000089999996
 51
359.9999949999996
  0
LINE
  5
30E
330
1F
100
AcDbEntity
  8
0
 48
0.025
370
    60
100
AcDbLine
 10
812.8003253457155
 20
288.256706085431
 30
0.0
 11
813.8003253457155
 21
288.256706085431
 31
0.0
  0
ARC
  5
30F
330
1F
100
AcDbEntity
  8
0
370
    60
100
AcDbCircle
 10
814.3003253457155
 20
288.256706085431
 30
0.0
 40
1.500000000000006
100
AcDbArc
 50
179.9999949999995
 51
359.9999979999995
  0
LINE
  5
310
330
1F
100
AcDbEntity
  8
0
 48
0.05
370
    60
100
AcDbLine
 10
812.8003253457155
 20
256.256706085431
 30
0.0
 11
812.8003253457155
 21
258.256706085431
 31
0.0
  0
ARC
  5
311
330
1F
100
AcDbEntity
  8
0
370
    60
100
AcDbCircle
 10
814.3003253457155
 20
256.256706085431
 30
0.0
 40
1.500000000000006
100
AcDbArc
 50
179.9999949999995
 51
359.9999989999995
  0
LINE
  5
312
330
1F
100
AcDbEntity
  8
0
 48
0.05
370
    60
100
AcDbLine
 10
815.8003253457155
 20
256.256706085431
 30
0.0
 11
815.8003253457155
 21
258.256706085431
 31
0.0
  0
ARC
  5
313
330
1F
100
AcDbEntity
  8
0
370
    60
100
AcDbCircle
 10
814.3003253457155
 20
258.256706085431
 30
0.0
 40
1.500000000000001
100
AcDbArc
 50
359.9999979999994
 51
180.0000049999994
  0
LINE
  5
314
330
1F
100
AcDbEntity
  8
0
 48
0.05
370
    60
100
AcDbLine
 10
816.8003253457155
 20
256.256706085431
 30
0.0
 11
816.8003253457155
 21
258.256706085431
 31
0.0
  0
ARC
  5
315
330
1F
100
AcDbEntity
  8
0
370
    60
100
AcDbCircle
 10
818.3003253457155
 20
256.256706085431
 30
0.0
 40
1.500000000000006
100
AcDbArc
 50
179.9999949999995
 51
109.4712189999995
  0
LINE
  5
316
330
1F
100
AcDbEntity
  8
0
 48
0.014645
370
    60
100
AcDbLine
 10
817.8003253457155
 20
257.670919085431
 30
0.0
 11
817.8003253457155
 21
258.256706085431
 31
0.0
  0
ARC
  5
317
330
1F
100
AcDbEntity
  8
0
370
    60
100
AcDbCircle
 10
818.3003253457155
 20
258.256706085431
 30
0.0
 40
0.5000000000000019
100
AcDbArc
 50
359.9999949999995
 51
180.0000049999995
  0
LINE
  5
318
330
1F
100
AcDbEntity
  8
0
 48
0.025
370
    60
100
AcDbLine
 10
818.8003253457155
 20
258.256706085431
 30
0.0
 11
819.8003253457155
 21
258.256706085431
 31
0.0
  0
ARC
  5
319
330
1F
100
AcDbEntity
  8
0
370
    60
100
AcDbCircle
 10
818.3003253457155
 20
258.256706085431
 30
0.0
 40
1.500000000000001
100
AcDbArc
 50
359.9999979999994
 51
180.0000049999994
  0
CIRCLE
  5
31A
330
1F
100
AcDbEntity
  8
0
370
    60
100
AcDbCircle
 10
818.3003253457155
 20
256.256706085431
 30
0.0
 40
0.5
  0
ARC
  5
31B
330
1F
100
AcDbEntity
  8
0
370
    60
100
AcDbCircle
 10
799.3003253457155
 20
273.256706085431
 30
0.0
 40
0.5000000000000007
100
AcDbArc
 50
90.00000299999769
 51
270.0000009999976
  0
LINE
  5
31C
330
1F
100
AcDbEntity
  8
0
 48
0.05
370
    60
100
AcDbLine
 10
799.3003253457155
 20
273.756706085431
 30
0.0
 11
801.3003253457155
 21
273.756706085431
 31
0.0
  0
ARC
  5
31D
330
1F
100
AcDbEntity
  8
0
370
    60
100
AcDbCircle
 10
801.3003253457155
 20
273.256706085431
 30
0.0
 40
0.5000000000000007
100
AcDbArc
 50
269.9999970000023
 51
90.00000300000232
  0
LINE
  5
31E
330
1F
100
AcDbEntity
  8
0
 48
0.05
370
    60
100
AcDbLine
 10
799.3003253457155
 20
272.756706085431
 30
0.0
 11
801.3003253457155
 21
272.756706085431
 31
0.0
  0
CIRCLE
  5
31F
330
1F
100
AcDbEntity
  8
0
370
    60
100
AcDbCircle
 10
814.3003253457155
 20
290.256706085431
 30
0.0
 40
0.5
  0
CIRCLE
  5
320
330
1F
100
AcDbEntity
  8
0
370
    60
100
AcDbCircle
 10
800.2980553457155
 20
323.256706085431
 30
0.0
 40
6.700000000000045
  0
LINE
  5
321
330
1F
100
AcDbEntity
  8
0
 48
0.039689
370
    60
100
AcDbLine
 10
809.3409323457155
 20
317.119224085431
 30
0.0
 11
810.1347093457155
 21
318.494087085431
 31
0.0
  0
LINE
  5
322
330
1F
100
AcDbEntity
  8
0
 48
0.039689
370
    60
100
AcDbLine
 10
810.1347093457155
 20
328.019325085431
 30
0.0
 11
809.3409323457155
 21
329.394188085431
 31
0.0
  0
LINE
  5
323
330
1F
100
AcDbEntity
  8
0
 48
0.039759
370
    60
100
AcDbLine
 10
801.0932323457155
 20
334.156708085431
 30
0.0
 11
799.5028743457154
 21
334.156708085431
 31
0.0
  0
LINE
  5
324
330
1F
100
AcDbEntity
  8
0
 48
0.039829
370
    60
100
AcDbLine
 10
791.2567553457155
 20
329.396515085431
 30
0.0
 11
790.4601763457155
 21
328.016800085431
 31
0.0
  0
LINE
  5
325
330
1F
100
AcDbEntity
  8
0
 48
0.039829
370
    60
100
AcDbLine
 10
790.4601763457155
 20
318.496612085431
 30
0.0
 11
791.2567553457155
 21
317.116897085431
 31
0.0
  0
LINE
  5
326
330
1F
100
AcDbEntity
  8
0
 48
0.039759
370
    60
100
AcDbLine
 10
799.5028743457154
 20
312.356705085431
 30
0.0
 11
801.0932323457155
 21
312.356705085431
 31
0.0
  0
ARC
  5
327
330
1F
100
AcDbEntity
  8
0
370
    60
100
AcDbCircle
 10
800.2980553457155
 20
323.256706085431
 30
0.0
 40
10.92896700000003
100
AcDbArc
 50
334.1650920000002
 51
25.83490000000016
  0
ARC
  5
328
330
1F
100
AcDbEntity
  8
0
370
    60
100
AcDbCircle
 10
800.2980553457155
 20
323.256706085431
 30
0.0
 40
10.92896700000001
100
AcDbArc
 50
274.1724539999999
 51
325.8349129999999
  0
ARC
  5
329
330
1F
100
AcDbEntity
  8
0
370
    60
100
AcDbCircle
 10
800.2980553457155
 20
323.256706085431
 30
0.0
 40
10.92896700000001
100
AcDbArc
 50
214.179814
 51
265.827547
  0
ARC
  5
32A
330
1F
100
AcDbEntity
  8
0
370
    60
100
AcDbCircle
 10
800.2980553457155
 20
323.256706085431
 30
0.0
 40
10.92896699999999
100
AcDbArc
 50
34.1650989999999
 51
85.82753599999991
  0
ARC
  5
32B
330
1F
100
AcDbEntity
  8
0
370
    60
100
AcDbCircle
 10
800.2980553457155
 20
323.256706085431
 30
0.0
 40
10.92896699999999
100
AcDbArc
 50
94.17246300000008
 51
145.8201810000001
  0
ARC
  5
32C
330
1F
100
AcDbEntity
  8
0
370
    60
100
AcDbCircle
 10
800.2980553457155
 20
323.256706085431
 30
0.0
 40
10.92896700000004
100
AcDbArc
 50
154.1798130000001
 51
205.8201830000001
  0
LINE
  5
32D
330
1F
100
AcDbEntity
  8
0
370
    60
100
AcDbLine
 10
213.5826603457155
 20
189.5044331774292
 30
0.0
 11
215.0826603457155
 21
188.665802085431
 31
0.0
  0
DIMENSION
  5
32E
330
1F
100
AcDbEntity
  8
0
370
    25
100
AcDbDimension
  2
*D6
 10
524.0826603457155
 20
564.6895696353527
 30
0.0
 11
322.0826553934677
 21
576.6895696353527
 31
0.0
 70
    32
 71
     5
 41
2.5
 42
404.0000099044954
  3
Standard
100
AcDbAlignedDimension
 13
120.0826504412201
 23
459.1214972166304
 33
0.0
 14
524.0826603457155
 24
459.1214972166304
 34
0.0
100
AcDbRotatedDimension
1001
ACAD
1000
DSTYLE
1002
{
1070
   171
1070
     3
1070
   143
1040
0.03937
1070
   274
1070
     3
1070
    41
1040
10.0
1070
   289
1070
     0
1070
   141
1040
2.5
1070
   176
1070
     7
1070
   177
1070
     7
1070
   271
1070
     2
1070
    43
1040
3.75
1070
   278
1070
    44
1070
    44
1040
1.25
1070
    42
1040
0.625
1070
   147
1040
5.0
1070
    77
1070
     1
1070
   272
1070
     2
1070
    73
1070
     0
1070
   172
1070
     1
1070
    74
1070
     0
1070
   283
1070
     0
1070
   140
1040
14.0
1070
   284
1070
     8
1070
    78
1070
     8
1002
}
  0
DIMENSION
  5
32F
330
1F
100
AcDbEntity
  8
0
370
    25
100
AcDbDimension
  2
*D7
 10
535.0826603457155
 20
63.91344778254651
 30
0.0
 11
322.0826673773477
 21
75.91344778254651
 31
0.0
 70
    32
 71
     5
 41
2.5
 42
425.9999859367356
  3
Standard
100
AcDbAlignedDimension
 13
109.0826744089799
 23
134.0402868955698
 33
0.0
 14
535.0826603457155
 24
139.6740559609565
 34
0.0
100
AcDbRotatedDimension
1001
ACAD
1000
DSTYLE
1002
{
1070
   171
1070
     3
1070
   143
1040
0.03937
1070
   274
1070
     3
1070
    41
1040
10.0
1070
   289
1070
     0
1070
   141
1040
2.5
1070
   176
1070
     7
1070
   177
1070
     7
1070
   271
1070
     2
1070
    43
1040
3.75
1070
   278
1070
    44
1070
    44
1040
1.25
1070
    42
1040
0.625
1070
   147
1040
5.0
1070
    77
1070
     1
1070
   272
1070
     2
1070
    73
1070
     0
1070
   172
1070
     1
1070
    74
1070
     0
1070
   283
1070
     0
1070
   140
1040
14.0
1070
   284
1070
     8
1070
    78
1070
     8
1002
}
  0
DIMENSION
  5
330
330
1F
100
AcDbEntity
  8
0
370
    25
100
AcDbDimension
  2
*D8
 10
924.3003093457154
 20
545.9094417073572
 30
0.0
 11
796.3348397606514
 21
557.9094417073572
 31
0.0
 70
    32
  1
256
 71
     5
 41
2.5
 42
255.9309391701279
  3
Standard
100
AcDbAlignedDimension
 13
668.3693701755875
 23
345.6257536434824
 33
0.0
 14
924.3003093457154
 24
353.0567020854307
 34
0.0
100
AcDbRotatedDimension
1001
ACAD
1000
DSTYLE
1002
{
1070
   171
1070
     3
1070
   143
1040
0.03937
1070
   274
1070
     3
1070
    41
1040
10.0
1070
   289
1070
     0
1070
   141
1040
2.5
1070
   176
1070
     7
1070
   177
1070
     7
1070
   271
1070
     2
1070
    43
1040
3.75
1070
   278
1070
    44
1070
    44
1040
1.25
1070
    42
1040
0.625
1070
   147
1040
5.0
1070
    77
1070
     1
1070
   272
1070
     2
1070
    73
1070
     0
1070
   172
1070
     1
1070
    74
1070
     0
1070
   283
1070
     0
1070
   140
1040
14.0
1070
   284
1070
     8
1070
    78
1070
     8
1002
}
  0
DIMENSION
  5
331
330
1F
100
AcDbEntity
  8
0
370
    25
100
AcDbDimension
  2
*D9
 10
627.0421459050033
 20
187.556705085431
 30
0.0
 11
615.0421459050033
 21
353.0567070854311
 31
0.0
 70
    32
 71
     5
 41
2.5
 42
331.000004
  3
Standard
100
AcDbAlignedDimension
 13
872.1881573457156
 23
518.5567090854311
 33
0.0
 14
871.1881573457155
 24
187.556705085431
 34
0.0
 50
90.0
100
AcDbRotatedDimension
1001
ACAD
1000
DSTYLE
1002
{
1070
   171
1070
     3
1070
   143
1040
0.03937
1070
   274
1070
     3
1070
    41
1040
10.0
1070
   289
1070
     0
1070
   141
1040
2.5
1070
   176
1070
     7
1070
   177
1070
     7
1070
   271
1070
     2
1070
    43
1040
3.75
1070
   278
1070
    44
1070
    44
1040
1.25
1070
    42
1040
0.625
1070
   147
1040
5.0
1070
    77
1070
     1
1070
   272
1070
     2
1070
    73
1070
     0
1070
   172
1070
     1
1070
    74
1070
     0
1070
   283
1070
     0
1070
   140
1040
14.0
1070
   284
1070
     8
1070
    78
1070
     8
1002
}
  0
DIMENSION
  5
332
330
1F
100
AcDbEntity
  8
0
370
    25
100
AcDbDimension
  2
*D10
 10
972.8263134635275
 20
96.02346008543101
 30
0.0
 11
960.8263134635275
 21
307.290084585431
 31
0.0
 70
    32
  1
423
 71
     5
 41
2.5
 42
422.5332490000001
  3
Standard
100
AcDbAlignedDimension
 13
871.1881573457155
 23
518.5567090854311
 33
0.0
 14
784.5285473457155
 24
96.02346008543103
 34
0.0
 50
90.0
100
AcDbRotatedDimension
1001
ACAD
1000
DSTYLE
1002
{
1070
   171
1070
     3
1070
   143
1040
0.03937
1070
   274
1070
     3
1070
    41
1040
10.0
1070
   289
1070
     0
1070
   141
1040
2.5
1070
   176
1070
     7
1070
   177
1070
     7
1070
   271
1070
     2
1070
    43
1040
3.75
1070
   278
1070
    44
1070
    44
1040
1.25
1070
    42
1040
0.625
1070
   147
1040
5.0
1070
    77
1070
     1
1070
   272
1070
     2
1070
    73
1070
     0
1070
   172
1070
     1
1070
    74
1070
     0
1070
   283
1070
     0
1070
   140
1040
14.0
1070
   284
1070
     8
1070
    78
1070
     8
1002
}
  0
LINE
  5
333
330
1F
100
AcDbEntity
  8
STANDARD_LAYER
370
    60
100
AcDbLine
 10
334.9502124211739
 20
368.0726463397169
 30
0.0
 11
355.6318941811735
 21
395.9852630197159
 31
0.0
  0
LINE
  5
334
330
1F
100
AcDbEntity
  8
STANDARD_LAYER
370
    60
100
AcDbLine
 10
323.7220237411738
 20
338.9842681197168
 30
0.0
 11
344.4049478611735
 21
366.8970723597159
 31
0.0
  0
LINE
  5
335
330
1F
100
AcDbEntity
  8
STANDARD_LAYER
370
    60
100
AcDbLine
 10
318.6997991011738
 20
359.5506805997168
 30
0.0
 11
339.3819193411736
 21
387.4638286997168
 31
0.0
  0
LINE
  5
336
330
1F
100
AcDbEntity
  8
STANDARD_LAYER
370
    60
100
AcDbLine
 10
352.3820579011738
 20
326.9373726797169
 30
0.0
 11
373.0645435411737
 21
354.8501560797159
 31
0.0
  0
LINE
  5
337
330
1F
100
AcDbEntity
  8
STANDARD_LAYER
370
    60
100
AcDbLine
 10
369.5191508611736
 20
338.3962362597158
 30
0.0
 11
390.2013755011739
 21
366.3084882397168
 31
0.0
  0
POINT
  5
338
330
1F
100
AcDbEntity
  8
0
370
    60
100
AcDbPoint
 10
668.3003243457156
 20
353.056701085431
 30
0.0
  0
VIEWPORT
  5
BB
330
73
100
AcDbEntity
 67
     1
  8
0
100
AcDbViewport
 10
7.8
 20
4.5
 30
0.0
 40
15.64
 41
9.0
 68
     1
 69
     1
 12
6.0
 22
4.5
 13
0.0
 23
0.0
 14
0.5
 24
0.5
 15
0.5
 25
0.5
 16
0.0
 26
0.0
 36
1.0
 17
0.0
 27
0.0
 37
0.0
 42
50.0
 43
0.0
 44
0.0
 45
12.0
 50
0.0
 51
0.0
 72
   100
 90
   557152
  1

281
     0
 71
     1
 74
     0
110
0.0
120
0.0
130
0.0
111
1.0
121
0.0
131
0.0
112
0.0
122
1.0
132
0.0
 79
     0
146
0.0
  0
ENDSEC
  0
SECTION
  2
OBJECTS
  0
DICTIONARY
  5
C
330
0
100
AcDbDictionary
281
     1
  3
ACAD_COLOR
350
6C
  3
ACAD_GROUP
350
D
  3
ACAD_LAYOUT
350
1A
  3
ACAD_MATERIAL
350
6B
  3
ACAD_MLEADERSTYLE
350
3C6
  3
ACAD_MLINESTYLE
350
17
  3
ACAD_PLOTSETTINGS
350
19
  3
ACAD_PLOTSTYLENAME
350
E
  3
ACAD_SCALELIST
350
99
  3
ACAD_TABLESTYLE
350
92
  3
ACDBHEADERROUNDTRIPXREC
350
3C7
  3
AcDbVariableDictionary
350
59
  3
DWGPROPS
350
3CA
  0
DICTIONARY
  5
6C
102
{ACAD_REACTORS
330
C
102
}
330
C
100
AcDbDictionary
281
     1
  0
DICTIONARY
  5
D
102
{ACAD_REACTORS
330
C
102
}
330
C
100
AcDbDictionary
281
     1
  0
DICTIONARY
  5
1A
102
{ACAD_REACTORS
330
C
102
}
330
C
100
AcDbDictionary
281
     1
  3
Layout1
350
74
  3
Layout2
350
3AE
  3
Model
350
22
  0
DICTIONARY
  5
6B
102
{ACAD_REACTORS
330
C
102
}
330
C
100
AcDbDictionary
281
     1
  0
DICTIONARY
  5
3C6
102
{ACAD_REACTORS
330
C
102
}
330
C
100
AcDbDictionary
281
     1
  0
DICTIONARY
  5
17
102
{ACAD_REACTORS
330
C
102
}
330
C
100
AcDbDictionary
281
     1
  3
Standard
350
18
  0
DICTIONARY
  5
19
102
{ACAD_REACTORS
330
C
102
}
330
C
100
AcDbDictionary
281
     1
  0
ACDBDICTIONARYWDFLT
  5
E
102
{ACAD_REACTORS
330
C
102
}
330
C
100
AcDbDictionary
281
     1
  3
Normal
350
F
100
AcDbDictionaryWithDefault
340
F
  0
DICTIONARY
  5
99
102
{ACAD_REACTORS
330
C
102
}
330
C
100
AcDbDictionary
281
     1
  3
A0
350
D5
  3
A1
350
D6
  3
A2
350
D7
  3
A3
350
D8
  3
A4
350
D9
  3
A5
350
DA
  3
A6
350
DB
  3
A7
350
DC
  3
A8
350
DD
  3
A9
350
DE
  3
B0
350
DF
  3
B1
350
E0
  3
B2
350
E1
  3
B3
350
E2
  3
B4
350
E3
  3
B5
350
E4
  3
B6
350
E5
  3
B7
350
E6
  3
B8
350
E7
  3
B9
350
E8
  3
C0
350
E9
  3
C1
350
EA
  3
C2
350
EB
  3
C3
350
EC
  3
C4
350
ED
  3
C5
350
EE
  3
C6
350
EF
  3
C7
350
F0
  3
C8
350
F1
  3
C9
350
F2
  3
D0
350
F3
  3
D1
350
F4
  3
D2
350
F5
  0
DICTIONARY
  5
92
102
{ACAD_REACTORS
330
C
102
}
330
C
100
AcDbDictionary
281
     1
  0
DICTIONARY
  5
3C7
102
{ACAD_REACTORS
330
C
102
}
330
C
100
AcDbDictionary
281
     1
  3
COLORDICT
350
3C8
  3
MATERIALDICT
350
3C9
  0
DICTIONARY
  5
59
102
{ACAD_REACTORS
330
C
102
}
330
C
100
AcDbDictionary
281
     1
  3
CTABLESTYLE
350
98
  3
DIMASSOC
350
5A
  3
HIDETEXT
350
5E
  0
XRECORD
  5
3CA
102
{ACAD_REACTORS
330
C
102
}
330
C
100
AcDbXrecord
280
     1
  1
DWGPROPS COOKIE
  2

  3

  4

  6

  7

  8
BelottiMc
  9

300
=
301
=
302
=
303
=
304
=
305
=
306
=
307
=
308
=
309
=
 40
0.0
 41
2455098.614780255
 42
2455098.65644691
  1

 90
        0
  0
LAYOUT
  5
74
102
{ACAD_REACTORS
330
1A
102
}
330
1A
100
AcDbPlotSettings
  1

  2
ProgeSOFT PDF Wizard
  4
A4
  6

 40
5.926666666666667
 41
6.011333333333317
 42
6.095999999999985
 43
5.926666666666667
 44
210.0
 45
297.0
 46
88.56200000000001
 47
136.531
 48
0.0
 49
0.0
140
0.0
141
0.0
142
1.0
143
1.0
 70
   692
 72
     1
 73
     0
 74
     0
  7

 75
    16
147
1.0
148
4.426666666666668
149
1.5
100
AcDbLayout
  1
Layout1
 70
     1
 71
     1
 10
0.0
 20
0.0
 11
0.0
 21
0.0
 12
0.0
 22
0.0
 32
0.0
 14
0.0
 24
0.0
 34
0.0
 15
0.0
 25
0.0
 35
0.0
146
0.0
 13
0.0
 23
0.0
 33
0.0
 16
1.0
 26
0.0
 36
0.0
 17
0.0
 27
1.0
 37
0.0
 76
     0
330
D1
331
3C5
1001
PROGE_PRINT_SETTINGS
1070
    73
1070
     1
  0
LAYOUT
  5
3AE
102
{ACAD_REACTORS
330
1A
102
}
330
1A
100
AcDbPlotSettings
  1

  2
ProgeSOFT PDF Wizard
  4
A4
  6

 40
5.926666666666667
 41
6.011333333333317
 42
6.095999999999985
 43
5.926666666666667
 44
210.0
 45
297.0
 46
88.562
 47
136.531
 48
0.0
 49
0.0
140
0.0
141
0.0
142
1.0
143
1.0
 70
   692
 72
     1
 73
     0
 74
     0
  7

 75
    16
147
1.0
148
0.0
149
0.0
100
AcDbLayout
  1
Layout2
 70
     1
 71
     2
 10
0.0
 20
0.0
 11
12.0
 21
9.0
 12
0.0
 22
0.0
 32
0.0
 14
0.0
 24
0.0
 34
0.0
 15
12.0
 25
9.0
 35
0.0
146
0.0
 13
0.0
 23
0.0
 33
0.0
 16
1.0
 26
0.0
 36
0.0
 17
0.0
 27
1.0
 37
0.0
 76
     0
330
73
331
BB
1001
PROGE_PRINT_SETTINGS
1070
    73
1070
     1
  0
LAYOUT
  5
22
102
{ACAD_REACTORS
330
1A
102
}
330
1A
100
AcDbPlotSettings
  1

  2
none_device
  4
Letter_(8.50_x_11.00_Inches)
  6

 40
6.349999904632568
 41
6.349999904632568
 42
6.350006103515625
 43
6.350006103515625
 44
215.8999938964844
 45
279.3999938964844
 46
0.0
 47
0.0
 48
0.0
 49
0.0
140
0.0
141
0.0
142
1.0
143
6.155658403403455
 70
 11952
 72
     1
 73
     1
 74
     0
  7

 75
     0
147
0.16245215937374
148
0.1311165230791651
149
0.096403374003771
100
AcDbLayout
  1
Model
 70
     1
 71
     0
 10
0.0
 20
0.0
 11
0.0
 21
0.0
 12
0.0
 22
0.0
 32
0.0
 14
92.56595234571556
 24
62.24678111587984
 34
0.0
 15
974.4929801301942
 25
583.6895696353527
 35
0.0
146
0.0
 13
0.0
 23
0.0
 33
0.0
 16
1.0
 26
0.0
 36
0.0
 17
0.0
 27
1.0
 37
0.0
 76
     0
330
1F
331
97
  0
MLINESTYLE
  5
18
102
{ACAD_REACTORS
330
17
102
}
330
17
100
AcDbMlineStyle
  2
STANDARD
 70
     0
  3

 62
   256
 51
90.0
 52
90.0
 71
     2
 49
0.5
 62
   256
  6
BYLAYER
 49
-0.5
 62
   256
  6
BYLAYER
  0
ACDBPLACEHOLDER
  5
F
102
{ACAD_REACTORS
330
E
102
}
330
E
  0
SCALE
  5
D5
102
{ACAD_REACTORS
330
99
102
}
330
99
100
AcDbScale
 70
     0
300
1:1
140
1.0
141
1.0
290
     1
  0
SCALE
  5
D6
102
{ACAD_REACTORS
330
99
102
}
330
99
100
AcDbScale
 70
     0
300
1:2
140
1.0
141
2.0
290
     0
  0
SCALE
  5
D7
102
{ACAD_REACTORS
330
99
102
}
330
99
100
AcDbScale
 70
     0
300
1:4
140
1.0
141
4.0
290
     0
  0
SCALE
  5
D8
102
{ACAD_REACTORS
330
99
102
}
330
99
100
AcDbScale
 70
     0
300
1:5
140
1.0
141
5.0
290
     0
  0
SCALE
  5
D9
102
{ACAD_REACTORS
330
99
102
}
330
99
100
AcDbScale
 70
     0
300
1:8
140
1.0
141
8.0
290
     0
  0
SCALE
  5
DA
102
{ACAD_REACTORS
330
99
102
}
330
99
100
AcDbScale
 70
     0
300
1:10
140
1.0
141
10.0
290
     0
  0
SCALE
  5
DB
102
{ACAD_REACTORS
330
99
102
}
330
99
100
AcDbScale
 70
     0
300
1:16
140
1.0
141
16.0
290
     0
  0
SCALE
  5
DC
102
{ACAD_REACTORS
330
99
102
}
330
99
100
AcDbScale
 70
     0
300
1:20
140
1.0
141
20.0
290
     0
  0
SCALE
  5
DD
102
{ACAD_REACTORS
330
99
102
}
330
99
100
AcDbScale
 70
     0
300
1:30
140
1.0
141
30.0
290
     0
  0
SCALE
  5
DE
102
{ACAD_REACTORS
330
99
102
}
330
99
100
AcDbScale
 70
     0
300
1:40
140
1.0
141
40.0
290
     0
  0
SCALE
  5
DF
102
{ACAD_REACTORS
330
99
102
}
330
99
100
AcDbScale
 70
     0
300
1:50
140
1.0
141
50.0
290
     0
  0
SCALE
  5
E0
102
{ACAD_REACTORS
330
99
102
}
330
99
100
AcDbScale
 70
     0
300
1:100
140
1.0
141
100.0
290
     0
  0
SCALE
  5
E1
102
{ACAD_REACTORS
330
99
102
}
330
99
100
AcDbScale
 70
     0
300
2:1
140
2.0
141
1.0
290
     0
  0
SCALE
  5
E2
102
{ACAD_REACTORS
330
99
102
}
330
99
100
AcDbScale
 70
     0
300
4:1
140
4.0
141
1.0
290
     0
  0
SCALE
  5
E3
102
{ACAD_REACTORS
330
99
102
}
330
99
100
AcDbScale
 70
     0
300
8:1
140
8.0
141
1.0
290
     0
  0
SCALE
  5
E4
102
{ACAD_REACTORS
330
99
102
}
330
99
100
AcDbScale
 70
     0
300
10:1
140
10.0
141
1.0
290
     0
  0
SCALE
  5
E5
102
{ACAD_REACTORS
330
99
102
}
330
99
100
AcDbScale
 70
     0
300
100:1
140
100.0
141
1.0
290
     0
  0
SCALE
  5
E6
102
{ACAD_REACTORS
330
99
102
}
330
99
100
AcDbScale
 70
     0
300
1/128" = 1'-0"
140
0.0078125
141
12.0
290
     0
  0
SCALE
  5
E7
102
{ACAD_REACTORS
330
99
102
}
330
99
100
AcDbScale
 70
     0
300
1/64" = 1'-0"
140
0.015625
141
12.0
290
     0
  0
SCALE
  5
E8
102
{ACAD_REACTORS
330
99
102
}
330
99
100
AcDbScale
 70
     0
300
1/32" = 1'-0"
140
0.03125
141
12.0
290
     0
  0
SCALE
  5
E9
102
{ACAD_REACTORS
330
99
102
}
330
99
100
AcDbScale
 70
     0
300
1/16" = 1'-0"
140
0.0625
141
12.0
290
     0
  0
SCALE
  5
EA
102
{ACAD_REACTORS
330
99
102
}
330
99
100
AcDbScale
 70
     0
300
3/32" = 1'-0"
140
0.09375
141
12.0
290
     0
  0
SCALE
  5
EB
102
{ACAD_REACTORS
330
99
102
}
330
99
100
AcDbScale
 70
     0
300
1/8" = 1'-0"
140
0.125
141
12.0
290
     0
  0
SCALE
  5
EC
102
{ACAD_REACTORS
330
99
102
}
330
99
100
AcDbScale
 70
     0
300
3/16" = 1'-0"
140
0.1875
141
12.0
290
     0
  0
SCALE
  5
ED
102
{ACAD_REACTORS
330
99
102
}
330
99
100
AcDbScale
 70
     0
300
1/4" = 1'-0"
140
0.25
141
12.0
290
     0
  0
SCALE
  5
EE
102
{ACAD_REACTORS
330
99
102
}
330
99
100
AcDbScale
 70
     0
300
3/8" = 1'-0"
140
0.375
141
12.0
290
     0
  0
SCALE
  5
EF
102
{ACAD_REACTORS
330
99
102
}
330
99
100
AcDbScale
 70
     0
300
1/2" = 1'-0"
140
0.5
141
12.0
290
     0
  0
SCALE
  5
F0
102
{ACAD_REACTORS
330
99
102
}
330
99
100
AcDbScale
 70
     0
300
3/4" = 1'-0"
140
0.75
141
12.0
290
     0
  0
SCALE
  5
F1
102
{ACAD_REACTORS
330
99
102
}
330
99
100
AcDbScale
 70
     0
300
1" = 1'-0"
140
1.0
141
12.0
290
     0
  0
SCALE
  5
F2
102
{ACAD_REACTORS
330
99
102
}
330
99
100
AcDbScale
 70
     0
300
1-1/2" = 1'-0"
140
1.5
141
12.0
290
     0
  0
SCALE
  5
F3
102
{ACAD_REACTORS
330
99
102
}
330
99
100
AcDbScale
 70
     0
300
3" = 1'-0"
140
3.0
141
12.0
290
     0
  0
SCALE
  5
F4
102
{ACAD_REACTORS
330
99
102
}
330
99
100
AcDbScale
 70
     0
300
6" = 1'-0"
140
6.0
141
12.0
290
     0
  0
SCALE
  5
F5
102
{ACAD_REACTORS
330
99
102
}
330
99
100
AcDbScale
 70
     0
300
1'-0" = 1'-0"
140
12.0
141
12.0
290
     0
  0
XRECORD
  5
3C8
102
{ACAD_REACTORS
330
3C7
102
}
330
3C7
100
AcDbXrecord
280
     1
340
6C
  0
XRECORD
  5
3C9
102
{ACAD_REACTORS
330
3C7
102
}
330
3C7
100
AcDbXrecord
280
     1
340
6B
  0
DICTIONARYVAR
  5
98
102
{ACAD_REACTORS
330
59
102
}
330
59
100
DictionaryVariables
280
     0
  1
Standard
  0
DICTIONARYVAR
  5
5A
102
{ACAD_REACTORS
330
59
102
}
330
59
100
DictionaryVariables
280
     0
  1
2
  0
DICTIONARYVAR
  5
5E
102
{ACAD_REACTORS
330
59
102
}
330
59
100
DictionaryVariables
280
     0
  1
1
  0
ENDSEC
  0
EOF
