  0
SECTION
  2
HEADER
  9
$ACADVER
  1
AC1015
  9
$ACADMAINTVER
 70
     6
  9
$DWGCODEPAGE
  3
ANSI_1252
  9
$INSBASE
 10
0.0
 20
0.0
 30
0.0
  9
$EXTMIN
 10
139.3041497706083
 20
65.64592274678112
 30
0.0
  9
$EXTMAX
 10
520.3505585120834
 20
484.8868785202736
 30
0.0
  9
$LIMMIN
 10
0.0
 20
0.0
  9
$LIMMAX
 10
0.0
 20
0.0
  9
$ORTHOMODE
 70
     0
  9
$REGENMODE
 70
     1
  9
$FILLMODE
 70
     1
  9
$QTEXTMODE
 70
     0
  9
$MIRRTEXT
 70
     0
  9
$LTSCALE
 40
1.0
  9
$ATTMODE
 70
     1
  9
$TEXTSIZE
 40
2.5
  9
$TRACEWID
 40
1.0
  9
$TEXTSTYLE
  7
Standard
  9
$CLAYER
  8
0
  9
$CELTYPE
  6
ByLayer
  9
$CECOLOR
 62
   256
  9
$CELTSCALE
 40
1.0
  9
$DISPSILH
 70
     0
  9
$DIMSCALE
 40
1.0
  9
$DIMASZ
 40
2.5
  9
$DIMEXO
 40
0.625
  9
$DIMDLI
 40
3.75
  9
$DIMRND
 40
0.0
  9
$DIMDLE
 40
0.0
  9
$DIMEXE
 40
1.25
  9
$DIMTP
 40
0.0
  9
$DIMTM
 40
0.0
  9
$DIMTXT
 40
2.5
  9
$DIMCEN
 40
2.5
  9
$DIMTSZ
 40
0.0
  9
$DIMTOL
 70
     0
  9
$DIMLIM
 70
     0
  9
$DIMTIH
 70
     0
  9
$DIMTOH
 70
     0
  9
$DIMSE1
 70
     0
  9
$DIMSE2
 70
     0
  9
$DIMTAD
 70
     1
  9
$DIMZIN
 70
     8
  9
$DIMBLK
  1

  9
$DIMASO
 70
     1
  9
$DIMSHO
 70
     1
  9
$DIMPOST
  1

  9
$DIMAPOST
  1

  9
$DIMALT
 70
     0
  9
$DIMALTD
 70
     3
  9
$DIMALTF
 40
0.03937007874016
  9
$DIMLFAC
 40
1.0
  9
$DIMTOFL
 70
     1
  9
$DIMTVP
 40
0.0
  9
$DIMTIX
 70
     0
  9
$DIMSOXD
 70
     0
  9
$DIMSAH
 70
     0
  9
$DIMBLK1
  1

  9
$DIMBLK2
  1

  9
$DIMSTYLE
  2
ISO-25
  9
$DIMCLRD
 70
     0
  9
$DIMCLRE
 70
     0
  9
$DIMCLRT
 70
     0
  9
$DIMTFAC
 40
1.0
  9
$DIMGAP
 40
0.625
  9
$DIMJUST
 70
     0
  9
$DIMSD1
 70
     0
  9
$DIMSD2
 70
     0
  9
$DIMTOLJ
 70
     0
  9
$DIMTZIN
 70
     8
  9
$DIMALTZ
 70
     0
  9
$DIMALTTZ
 70
     0
  9
$DIMUPT
 70
     0
  9
$DIMDEC
 70
     2
  9
$DIMTDEC
 70
     2
  9
$DIMALTU
 70
     2
  9
$DIMALTTD
 70
     3
  9
$DIMTXSTY
  7
Standard
  9
$DIMAUNIT
 70
     0
  9
$DIMADEC
 70
     0
  9
$DIMALTRND
 40
0.0
  9
$DIMAZIN
 70
     0
  9
$DIMDSEP
 70
    44
  9
$DIMATFIT
 70
     3
  9
$DIMFRAC
 70
     0
  9
$DIMLDRBLK
  1

  9
$DIMLUNIT
 70
     2
  9
$DIMLWD
 70
    -2
  9
$DIMLWE
 70
    -2
  9
$DIMTMOVE
 70
     0
  9
$LUNITS
 70
     2
  9
$LUPREC
 70
     4
  9
$SKETCHINC
 40
1.0
  9
$FILLETRAD
 40
0.0
  9
$AUNITS
 70
     0
  9
$AUPREC
 70
     0
  9
$MENU
  1
.
  9
$ELEVATION
 40
0.0
  9
$PELEVATION
 40
0.0
  9
$THICKNESS
 40
0.0
  9
$LIMCHECK
 70
     0
  9
$CHAMFERA
 40
0.0
  9
$CHAMFERB
 40
0.0
  9
$CHAMFERC
 40
0.0
  9
$CHAMFERD
 40
0.0
  9
$SKPOLY
 70
     0
  9
$TDCREATE
 40
2455098.464393727
  9
$TDUCREATE
 40
2455098.381060394
  9
$TDUPDATE
 40
2455098.506060382
  9
$TDUUPDATE
 40
2455098.422727048
  9
$TDINDWG
 40
0.0317641204
  9
$TDUSRTIMER
 40
0.0317617593
  9
$USRTIMER
 70
     1
  9
$ANGBASE
 50
0.0
  9
$ANGDIR
 70
     0
  9
$PDMODE
 70
     0
  9
$PDSIZE
 40
0.0
  9
$PLINEWID
 40
0.0
  9
$SPLFRAME
 70
     0
  9
$SPLINETYPE
 70
     6
  9
$SPLINESEGS
 70
     8
  9
$HANDSEED
  5
2BA
  9
$SURFTAB1
 70
     6
  9
$SURFTAB2
 70
     6
  9
$SURFTYPE
 70
     6
  9
$SURFU
 70
     6
  9
$SURFV
 70
     6
  9
$UCSBASE
  2

  9
$UCSNAME
  2

  9
$UCSORG
 10
0.0
 20
0.0
 30
0.0
  9
$UCSXDIR
 10
1.0
 20
0.0
 30
0.0
  9
$UCSYDIR
 10
0.0
 20
1.0
 30
0.0
  9
$UCSORTHOREF
  2

  9
$UCSORTHOVIEW
 70
     0
  9
$UCSORGTOP
 10
0.0
 20
0.0
 30
0.0
  9
$UCSORGBOTTOM
 10
0.0
 20
0.0
 30
0.0
  9
$UCSORGLEFT
 10
0.0
 20
0.0
 30
0.0
  9
$UCSORGRIGHT
 10
0.0
 20
0.0
 30
0.0
  9
$UCSORGFRONT
 10
0.0
 20
0.0
 30
0.0
  9
$UCSORGBACK
 10
0.0
 20
0.0
 30
0.0
  9
$PUCSBASE
  2

  9
$PUCSNAME
  2

  9
$PUCSORG
 10
0.0
 20
0.0
 30
0.0
  9
$PUCSXDIR
 10
1.0
 20
0.0
 30
0.0
  9
$PUCSYDIR
 10
0.0
 20
1.0
 30
0.0
  9
$PUCSORTHOREF
  2

  9
$PUCSORTHOVIEW
 70
     0
  9
$PUCSORGTOP
 10
0.0
 20
0.0
 30
0.0
  9
$PUCSORGBOTTOM
 10
0.0
 20
0.0
 30
0.0
  9
$PUCSORGLEFT
 10
0.0
 20
0.0
 30
0.0
  9
$PUCSORGRIGHT
 10
0.0
 20
0.0
 30
0.0
  9
$PUCSORGFRONT
 10
0.0
 20
0.0
 30
0.0
  9
$PUCSORGBACK
 10
0.0
 20
0.0
 30
0.0
  9
$USERI1
 70
     0
  9
$USERI2
 70
     0
  9
$USERI3
 70
     0
  9
$USERI4
 70
     0
  9
$USERI5
 70
     0
  9
$USERR1
 40
0.0
  9
$USERR2
 40
0.0
  9
$USERR3
 40
0.0
  9
$USERR4
 40
0.0
  9
$USERR5
 40
0.0
  9
$WORLDVIEW
 70
     1
  9
$SHADEDGE
 70
     3
  9
$SHADEDIF
 70
    70
  9
$TILEMODE
 70
     1
  9
$MAXACTVP
 70
    64
  9
$PINSBASE
 10
0.0
 20
0.0
 30
0.0
  9
$PLIMCHECK
 70
     0
  9
$PEXTMIN
 10
0.0
 20
0.0
 30
0.0
  9
$PEXTMAX
 10
12.0
 20
9.0
 30
0.0
  9
$PLIMMIN
 10
0.0
 20
0.0
  9
$PLIMMAX
 10
12.0
 20
9.0
  9
$UNITMODE
 70
     0
  9
$VISRETAIN
 70
     1
  9
$PLINEGEN
 70
     0
  9
$PSLTSCALE
 70
     1
  9
$TREEDEPTH
 70
  3020
  9
$CMLSTYLE
  2
Standard
  9
$CMLJUST
 70
     0
  9
$CMLSCALE
 40
20.0
  9
$PROXYGRAPHICS
 70
     1
  9
$MEASUREMENT
 70
     1
  9
$CELWEIGHT
370
    -1
  9
$ENDCAPS
280
     0
  9
$JOINSTYLE
280
     0
  9
$LWDISPLAY
290
     0
  9
$INSUNITS
 70
     4
  9
$HYPERLINKBASE
  1

  9
$STYLESHEET
  1

  9
$XEDIT
290
     1
  9
$CEPSNTYPE
380
     0
  9
$PSTYLEMODE
290
     1
  9
$FINGERPRINTGUID
  2
{5559452E-1E62-4159-8551-BF76FFF3E7E8}
  9
$VERSIONGUID
  2
{3CEB9EF8-4431-4551-B596-6734A9F966A9}
  9
$EXTNAMES
290
     1
  9
$PSVPSCALE
 40
0.0
  9
$OLESTARTUP
290
     0
  0
ENDSEC
  0
SECTION
  2
CLASSES
  0
CLASS
  1
ACDBDICTIONARYWDFLT
  2
AcDbDictionaryWithDefault
  3
ObjectDBX Classes
 90
        0
280
     0
281
     0
  0
CLASS
  1
ACDBPLACEHOLDER
  2
AcDbPlaceHolder
  3
ObjectDBX Classes
 90
        0
280
     0
281
     0
  0
CLASS
  1
LAYOUT
  2
AcDbLayout
  3
ObjectDBX Classes
 90
        0
280
     0
281
     0
  0
CLASS
  1
DICTIONARYVAR
  2
AcDbDictionaryVar
  3
ObjectDBX Classes
 90
        0
280
     0
281
     0
  0
CLASS
  1
TABLESTYLE
  2
AcDbTableStyle
  3
ObjectDBX Classes
 90
     4095
280
     0
281
     0
  0
CLASS
  1
SCALE
  2
AcDbScale
  3
ObjectDBX Classes
 90
     1153
280
     0
281
     0
  0
ENDSEC
  0
SECTION
  2
TABLES
  0
TABLE
  2
VPORT
  5
8
330
0
100
AcDbSymbolTable
 70
     2
  0
VPORT
  5
97
330
8
100
AcDbSymbolTableRecord
100
AcDbViewportTableRecord
  2
*Active
 70
     0
 10
0.0
 20
0.0
 11
1.0
 21
1.0
 12
357.550349047376
 22
206.5306810645779
 13
0.0
 23
0.0
 14
10.0
 24
10.0
 15
10.0
 25
10.0
 16
0.0
 26
0.0
 36
1.0
 17
0.0
 27
0.0
 37
0.0
 40
773.1153685964182
 41
1.664827586206897
 42
50.0
 43
0.0
 44
0.0
 50
0.0
 51
0.0
 71
     0
 72
  1000
 73
     1
 74
     3
 75
     0
 76
     0
 77
     0
 78
     0
281
     0
 65
     1
110
0.0
120
0.0
130
0.0
111
1.0
121
0.0
131
0.0
112
0.0
122
1.0
132
0.0
 79
     0
146
0.0
  0
ENDTAB
  0
TABLE
  2
LTYPE
  5
5
330
0
100
AcDbSymbolTable
 70
     2
  0
LTYPE
  5
14
330
5
100
AcDbSymbolTableRecord
100
AcDbLinetypeTableRecord
  2
ByBlock
 70
     0
  3

 72
    65
 73
     0
 40
0.0
  0
LTYPE
  5
15
330
5
100
AcDbSymbolTableRecord
100
AcDbLinetypeTableRecord
  2
ByLayer
 70
     0
  3

 72
    65
 73
     0
 40
0.0
  0
LTYPE
  5
16
330
5
100
AcDbSymbolTableRecord
100
AcDbLinetypeTableRecord
  2
Continuous
 70
     0
  3
Solid line
 72
    65
 73
     0
 40
0.0
  0
LTYPE
  5
295
330
5
100
AcDbSymbolTableRecord
100
AcDbLinetypeTableRecord
  2
SOLID
 70
     0
  3

 72
    65
 73
     0
 40
0.0
  0
ENDTAB
  0
TABLE
  2
LAYER
  5
2
330
0
100
AcDbSymbolTable
 70
     3
  0
LAYER
  5
10
330
2
100
AcDbSymbolTableRecord
100
AcDbLayerTableRecord
  2
0
 70
     0
 62
     7
  6
Continuous
370
    -3
390
F
  0
LAYER
  5
1F4
330
2
100
AcDbSymbolTableRecord
100
AcDbLayerTableRecord
  2
DEFPOINTS
 70
     0
 62
     7
  6
Continuous
290
     0
370
    -3
390
F
  0
LAYER
  5
282
330
2
100
AcDbSymbolTableRecord
100
AcDbLayerTableRecord
  2
STANDARD_LAYER
 70
     0
 62
     7
  6
SOLID
370
    -3
390
F
  0
ENDTAB
  0
TABLE
  2
STYLE
  5
3
330
0
100
AcDbSymbolTable
 70
     1
  0
STYLE
  5
11
330
3
100
AcDbSymbolTableRecord
100
AcDbTextStyleTableRecord
  2
Standard
 70
     0
 40
0.0
 41
1.0
 50
0.0
 71
     0
 42
2.5
  3
txt
  4

  0
ENDTAB
  0
TABLE
  2
VIEW
  5
6
330
0
100
AcDbSymbolTable
 70
     0
  0
ENDTAB
  0
TABLE
  2
UCS
  5
7
330
0
100
AcDbSymbolTable
 70
     0
  0
ENDTAB
  0
TABLE
  2
APPID
  5
9
330
0
100
AcDbSymbolTable
 70
     2
  0
APPID
  5
12
330
9
100
AcDbSymbolTableRecord
100
AcDbRegAppTableRecord
  2
ACAD
 70
     0
  0
APPID
  5
294
330
9
100
AcDbSymbolTableRecord
100
AcDbRegAppTableRecord
  2
PROGE_PRINT_SETTINGS
 70
     0
  0
ENDTAB
  0
TABLE
  2
DIMSTYLE
  5
A
330
0
100
AcDbSymbolTable
 70
     2
100
AcDbDimStyleTable
  0
DIMSTYLE
105
27
102
{ACAD_REACTORS
330
1BE
330
1BF
330
1C0
330
1C1
330
1C2
330
1C3
102
}
330
A
100
AcDbSymbolTableRecord
100
AcDbDimStyleTableRecord
  2
Standard
 70
     0
278
     0
340
11
  0
DIMSTYLE
105
29
330
A
100
AcDbSymbolTableRecord
100
AcDbDimStyleTableRecord
  2
ISO-25
 70
     0
 41
2.5
 42
0.625
 43
3.75
 44
1.25
 73
     0
 74
     0
 77
     1
 78
     8
140
2.5
141
2.5
143
0.03937007874016
147
0.625
171
     3
172
     1
271
     2
272
     2
274
     3
278
    44
283
     0
284
     8
340
11
  0
ENDTAB
  0
TABLE
  2
BLOCK_RECORD
  5
1
330
0
100
AcDbSymbolTable
 70
    14
  0
BLOCK_RECORD
  5
1F
330
1
100
AcDbSymbolTableRecord
100
AcDbBlockTableRecord
  2
*Model_Space
340
22
  0
BLOCK_RECORD
  5
73
330
1
100
AcDbSymbolTableRecord
100
AcDbBlockTableRecord
  2
*Paper_Space
340
297
  0
BLOCK_RECORD
  5
D1
330
1
100
AcDbSymbolTableRecord
100
AcDbBlockTableRecord
  2
*Paper_Space0
340
74
  0
BLOCK_RECORD
  5
1FF
330
1
100
AcDbSymbolTableRecord
100
AcDbBlockTableRecord
  2
*D1
340
0
  0
BLOCK_RECORD
  5
20C
330
1
100
AcDbSymbolTableRecord
100
AcDbBlockTableRecord
  2
*D2
340
0
  0
BLOCK_RECORD
  5
217
330
1
100
AcDbSymbolTableRecord
100
AcDbBlockTableRecord
  2
*D3
340
0
  0
BLOCK_RECORD
  5
224
330
1
100
AcDbSymbolTableRecord
100
AcDbBlockTableRecord
  2
*D4
340
0
  0
BLOCK_RECORD
  5
22F
330
1
100
AcDbSymbolTableRecord
100
AcDbBlockTableRecord
  2
*D5
340
0
  0
BLOCK_RECORD
  5
23A
330
1
100
AcDbSymbolTableRecord
100
AcDbBlockTableRecord
  2
*D6
340
0
  0
BLOCK_RECORD
  5
247
330
1
100
AcDbSymbolTableRecord
100
AcDbBlockTableRecord
  2
*D7
340
0
  0
BLOCK_RECORD
  5
252
330
1
100
AcDbSymbolTableRecord
100
AcDbBlockTableRecord
  2
*D8
340
0
  0
BLOCK_RECORD
  5
25F
330
1
100
AcDbSymbolTableRecord
100
AcDbBlockTableRecord
  2
*D9
340
0
  0
BLOCK_RECORD
  5
26A
330
1
100
AcDbSymbolTableRecord
100
AcDbBlockTableRecord
  2
*D10
340
0
  0
BLOCK_RECORD
  5
275
330
1
100
AcDbSymbolTableRecord
100
AcDbBlockTableRecord
  2
*D11
340
0
  0
BLOCK_RECORD
  5
280
330
1
100
AcDbSymbolTableRecord
100
AcDbBlockTableRecord
  2
*D12
340
0
  0
BLOCK_RECORD
  5
292
330
1
100
AcDbSymbolTableRecord
100
AcDbBlockTableRecord
  2
*D13
340
0
  0
ENDTAB
  0
ENDSEC
  0
SECTION
  2
BLOCKS
  0
BLOCK
  5
20
330
1F
100
AcDbEntity
  8
0
100
AcDbBlockBegin
  2
*Model_Space
 70
     0
 10
0.0
 20
0.0
 30
0.0
  3
*Model_Space
  1

  0
ENDBLK
  5
21
330
1F
100
AcDbEntity
  8
0
100
AcDbBlockEnd
  0
BLOCK
  5
75
330
73
100
AcDbEntity
 67
     1
  8
0
100
AcDbBlockBegin
  2
*Paper_Space
 70
     0
 10
0.0
 20
0.0
 30
0.0
  3
*Paper_Space
  1

  0
ENDBLK
  5
76
330
73
100
AcDbEntity
 67
     1
  8
0
100
AcDbBlockEnd
  0
BLOCK
  5
298
330
D1
100
AcDbEntity
  8
0
100
AcDbBlockBegin
  2
*Paper_Space0
 70
     0
 10
0.0
 20
0.0
 30
0.0
  3
*Paper_Space0
  1

  0
VIEWPORT
  5
2B4
330
D1
100
AcDbEntity
  8
0
100
AcDbViewport
 10
7.8
 20
4.5
 30
0.0
 40
15.64
 41
9.0
 68
     1
 69
     1
 12
6.0
 22
4.5
 13
0.0
 23
0.0
 14
0.5
 24
0.5
 15
0.5
 25
0.5
 16
0.0
 26
0.0
 36
1.0
 17
0.0
 27
0.0
 37
0.0
 42
50.0
 43
0.0
 44
0.0
 45
12.0
 50
0.0
 51
0.0
 72
   100
 90
   557152
  1

281
     0
 71
     1
 74
     0
110
0.0
120
0.0
130
0.0
111
1.0
121
0.0
131
0.0
112
0.0
122
1.0
132
0.0
 79
     0
146
0.0
  0
ENDBLK
  5
299
330
D1
100
AcDbEntity
  8
0
100
AcDbBlockEnd
  0
BLOCK
  5
29A
330
1FF
100
AcDbEntity
  8
0
100
AcDbBlockBegin
  2
*D1
 70
     1
 10
0.0
 20
0.0
 30
0.0
  3
*D1
  1

  0
POINT
  5
1F6
330
1FF
100
AcDbEntity
  8
DEFPOINTS
  6
ByBlock
 62
     0
380
     1
100
AcDbPoint
 10
246.0573686547284
 20
398.4527976995708
 30
0.0
  0
POINT
  5
1F7
330
1FF
100
AcDbEntity
  8
DEFPOINTS
  6
ByBlock
 62
     0
380
     1
100
AcDbPoint
 10
246.0573686547284
 20
38.45279069957081
 30
0.0
  0
LINE
  5
1F8
330
1FF
100
AcDbEntity
  8
0
  6
ByBlock
 62
     0
370
    -2
380
     1
100
AcDbLine
 10
246.6823686547284
 20
398.4527976995708
 30
0.0
 11
422.3009039547212
 21
398.4527976995708
 31
0.0
  0
LINE
  5
1F9
330
1FF
100
AcDbEntity
  8
0
  6
ByBlock
 62
     0
370
    -2
380
     1
100
AcDbLine
 10
246.6823686547284
 20
38.45279069957081
 30
0.0
 11
422.3009039547212
 21
38.45279069957081
 31
0.0
  0
LINE
  5
1FA
330
1FF
100
AcDbEntity
  8
0
  6
ByBlock
 62
     7
370
    -2
380
     1
100
AcDbLine
 10
421.0509039547212
 20
388.4527976995708
 30
0.0
 11
421.0509039547212
 21
48.45279069957081
 31
0.0
  0
SOLID
  5
1FB
330
1FF
100
AcDbEntity
  8
0
  6
ByBlock
 62
     7
380
     1
100
AcDbTrace
 10
421.0509039547212
 20
398.4527976995708
 30
0.0
 11
419.3842372880546
 21
388.4527976995708
 31
0.0
 12
422.7175706213878
 22
388.4527976995708
 32
0.0
 13
422.7175706213878
 23
388.4527976995708
 33
0.0
  0
SOLID
  5
1FC
330
1FF
100
AcDbEntity
  8
0
  6
ByBlock
 62
     7
380
     1
100
AcDbTrace
 10
421.0509039547212
 20
38.45279069957081
 30
0.0
 11
419.3842372880546
 21
48.45279069957081
 31
0.0
 12
422.7175706213878
 22
48.45279069957081
 32
0.0
 13
422.7175706213878
 23
48.45279069957081
 33
0.0
  0
MTEXT
  5
1FD
330
1FF
100
AcDbEntity
  8
0
  6
ByBlock
 62
     0
370
    -2
380
     1
100
AcDbMText
 10
409.0509039547212
 20
218.4527941995708
 30
0.0
 40
14.0
 41
0.0
 71
     5
 72
     1
  1
\A1;360
 11
6.123031769111886E-17
 21
1.0
 31
0.0
 73
     1
 44
1.0
  0
ENDBLK
  5
29B
330
1FF
100
AcDbEntity
  8
0
100
AcDbBlockEnd
  0
BLOCK
  5
29C
330
20C
100
AcDbEntity
  8
0
100
AcDbBlockBegin
  2
*D2
 70
     1
 10
0.0
 20
0.0
 30
0.0
  3
*D2
  1

  0
POINT
  5
201
330
20C
100
AcDbEntity
  8
DEFPOINTS
  6
ByBlock
 62
     7
380
     1
100
AcDbPoint
 10
244.7984458879963
 20
398.4527976995708
 30
0.0
  0
POINT
  5
202
330
20C
100
AcDbEntity
  8
DEFPOINTS
  6
ByBlock
 62
     7
380
     1
100
AcDbPoint
 10
244.7984463879963
 20
383.6005336995708
 30
0.0
  0
LINE
  5
203
330
20C
100
AcDbEntity
  8
0
  6
ByBlock
 62
     7
370
    -2
380
     1
100
AcDbLine
 10
245.4234458879963
 20
398.4527976995708
 30
0.0
 11
394.6323711451022
 21
398.4527976995708
 31
0.0
  0
LINE
  5
204
330
20C
100
AcDbEntity
  8
0
  6
ByBlock
 62
     7
370
    -2
380
     1
100
AcDbLine
 10
245.4234463879963
 20
383.6005336995708
 30
0.0
 11
394.6323711451022
 21
383.6005336995708
 31
0.0
  0
LINE
  5
205
330
20C
100
AcDbEntity
  8
0
  6
ByBlock
 62
     7
370
    -2
380
     1
100
AcDbLine
 10
393.3823711451022
 20
373.6005336995708
 30
0.0
 11
393.3823711451022
 21
363.6005336995708
 31
0.0
  0
LINE
  5
206
330
20C
100
AcDbEntity
  8
0
  6
ByBlock
 62
     7
370
    -2
380
     1
100
AcDbLine
 10
393.3823711451022
 20
408.4527976995708
 30
0.0
 11
393.3823711451022
 21
434.7861310329041
 31
0.0
  0
SOLID
  5
207
330
20C
100
AcDbEntity
  8
0
  6
ByBlock
 62
     7
380
     1
100
AcDbTrace
 10
393.3823711451022
 20
398.4527976995708
 30
0.0
 11
391.7157044784356
 21
408.4527976995708
 31
0.0
 12
395.0490378117688
 22
408.4527976995708
 32
0.0
 13
395.0490378117688
 23
408.4527976995708
 33
0.0
  0
SOLID
  5
208
330
20C
100
AcDbEntity
  8
0
  6
ByBlock
 62
     7
380
     1
100
AcDbTrace
 10
393.3823711451022
 20
383.6005336995708
 30
0.0
 11
391.7157044784356
 21
373.6005336995708
 31
0.0
 12
395.0490378117688
 22
373.6005336995708
 32
0.0
 13
395.0490378117688
 23
373.6005336995708
 33
0.0
  0
LINE
  5
209
330
20C
100
AcDbEntity
  8
0
  6
ByBlock
 62
     7
370
    -2
380
     1
100
AcDbLine
 10
393.3823711451022
 20
398.4527976995708
 30
0.0
 11
393.3823711451022
 21
383.6005336995708
 31
0.0
  0
MTEXT
  5
20A
330
20C
100
AcDbEntity
  8
0
  6
ByBlock
 62
     0
370
    -2
380
     1
100
AcDbMText
 10
381.3823711451022
 20
422.7861310329041
 30
0.0
 40
14.0
 41
0.0
 71
     5
 72
     1
  1
15
 11
6.123031769111886E-17
 21
1.0
 31
0.0
 73
     1
 44
1.0
  0
ENDBLK
  5
29D
330
20C
100
AcDbEntity
  8
0
100
AcDbBlockEnd
  0
BLOCK
  5
29E
330
217
100
AcDbEntity
  8
0
100
AcDbBlockBegin
  2
*D3
 70
     1
 10
0.0
 20
0.0
 30
0.0
  3
*D3
  1

  0
POINT
  5
20E
330
217
100
AcDbEntity
  8
DEFPOINTS
  6
ByBlock
 62
     7
380
     1
100
AcDbPoint
 10
230.3451715537653
 20
383.6005336995708
 30
0.0
  0
POINT
  5
20F
330
217
100
AcDbEntity
  8
DEFPOINTS
  6
ByBlock
 62
     7
380
     1
100
AcDbPoint
 10
230.3451715537653
 20
175.5586406995708
 30
0.0
  0
LINE
  5
210
330
217
100
AcDbEntity
  8
0
  6
ByBlock
 62
     7
370
    -2
380
     1
100
AcDbLine
 10
230.9701715537653
 20
383.6005336995708
 30
0.0
 11
394.6412939118345
 21
383.6005336995708
 31
0.0
  0
LINE
  5
211
330
217
100
AcDbEntity
  8
0
  6
ByBlock
 62
     7
370
    -2
380
     1
100
AcDbLine
 10
230.9701715537653
 20
175.5586406995708
 30
0.0
 11
394.6412939118345
 21
175.5586406995708
 31
0.0
  0
LINE
  5
212
330
217
100
AcDbEntity
  8
0
  6
ByBlock
 62
     7
370
    -2
380
     1
100
AcDbLine
 10
393.3912939118345
 20
373.6005336995708
 30
0.0
 11
393.3912939118345
 21
185.5586406995708
 31
0.0
  0
SOLID
  5
213
330
217
100
AcDbEntity
  8
0
  6
ByBlock
 62
     7
380
     1
100
AcDbTrace
 10
393.3912939118345
 20
383.6005336995708
 30
0.0
 11
391.7246272451679
 21
373.6005336995708
 31
0.0
 12
395.0579605785011
 22
373.6005336995708
 32
0.0
 13
395.0579605785011
 23
373.6005336995708
 33
0.0
  0
SOLID
  5
214
330
217
100
AcDbEntity
  8
0
  6
ByBlock
 62
     7
380
     1
100
AcDbTrace
 10
393.3912939118345
 20
175.5586406995708
 30
0.0
 11
391.7246272451679
 21
185.5586406995708
 31
0.0
 12
395.0579605785011
 22
185.5586406995708
 32
0.0
 13
395.0579605785011
 23
185.5586406995708
 33
0.0
  0
MTEXT
  5
215
330
217
100
AcDbEntity
  8
0
  6
ByBlock
 62
     0
370
    -2
380
     1
100
AcDbMText
 10
380.2246272451679
 20
279.5795871995708
 30
0.0
 40
14.0
 41
0.0
 71
     5
 72
     1
  1
\A1;208,04
 11
6.123031769111886E-17
 21
1.0
 31
0.0
 73
     1
 44
1.0
  0
ENDBLK
  5
29F
330
217
100
AcDbEntity
  8
0
100
AcDbBlockEnd
  0
BLOCK
  5
2A0
330
224
100
AcDbEntity
  8
0
100
AcDbBlockBegin
  2
*D4
 70
     1
 10
0.0
 20
0.0
 30
0.0
  3
*D4
  1

  0
POINT
  5
219
330
224
100
AcDbEntity
  8
DEFPOINTS
  6
ByBlock
 62
     7
380
     1
100
AcDbPoint
 10
464.2704440628702
 20
377.604296096366
 30
0.0
  0
POINT
  5
21A
330
224
100
AcDbEntity
  8
DEFPOINTS
  6
ByBlock
 62
     7
380
     1
100
AcDbPoint
 10
468.2704440628702
 20
377.604296096366
 30
0.0
  0
LINE
  5
21B
330
224
100
AcDbEntity
  8
0
  6
ByBlock
 62
     7
370
    -2
380
     1
100
AcDbLine
 10
464.2704440628702
 20
378.229296096366
 30
0.0
 11
464.2704440628702
 21
412.3792453451319
 31
0.0
  0
LINE
  5
21C
330
224
100
AcDbEntity
  8
0
  6
ByBlock
 62
     7
370
    -2
380
     1
100
AcDbLine
 10
468.2704440628702
 20
378.229296096366
 30
0.0
 11
468.2704440628702
 21
412.3792453451319
 31
0.0
  0
LINE
  5
21D
330
224
100
AcDbEntity
  8
0
  6
ByBlock
 62
     7
370
    -2
380
     1
100
AcDbLine
 10
454.2704440628702
 20
411.1292453451319
 30
0.0
 11
444.2704440628702
 21
411.1292453451319
 31
0.0
  0
LINE
  5
21E
330
224
100
AcDbEntity
  8
0
  6
ByBlock
 62
     7
370
    -2
380
     1
100
AcDbLine
 10
478.2704440628702
 20
411.1292453451319
 30
0.0
 11
507.6037773962035
 21
411.1292453451319
 31
0.0
  0
SOLID
  5
21F
330
224
100
AcDbEntity
  8
0
  6
ByBlock
 62
     7
380
     1
100
AcDbTrace
 10
464.2704440628702
 20
411.1292453451319
 30
0.0
 11
454.2704440628702
 21
409.4625786784652
 31
0.0
 12
454.2704440628702
 22
412.7959120117986
 32
0.0
 13
454.2704440628702
 23
412.7959120117986
 33
0.0
  0
SOLID
  5
220
330
224
100
AcDbEntity
  8
0
  6
ByBlock
 62
     7
380
     1
100
AcDbTrace
 10
468.2704440628702
 20
411.1292453451319
 30
0.0
 11
478.2704440628702
 21
409.4625786784652
 31
0.0
 12
478.2704440628702
 22
412.7959120117986
 32
0.0
 13
478.2704440628702
 23
412.7959120117986
 33
0.0
  0
LINE
  5
221
330
224
100
AcDbEntity
  8
0
  6
ByBlock
 62
     7
370
    -2
380
     1
100
AcDbLine
 10
464.2704440628702
 20
411.1292453451319
 30
0.0
 11
468.2704440628702
 21
411.1292453451319
 31
0.0
  0
MTEXT
  5
222
330
224
100
AcDbEntity
  8
0
  6
ByBlock
 62
     0
370
    -2
380
     1
100
AcDbMText
 10
497.9371107295368
 20
423.1292453451319
 30
0.0
 40
14.0
 41
0.0
 71
     5
 72
     1
  1
\A1;4
 73
     1
 44
1.0
  0
ENDBLK
  5
2A1
330
224
100
AcDbEntity
  8
0
100
AcDbBlockEnd
  0
BLOCK
  5
2A2
330
22F
100
AcDbEntity
  8
0
100
AcDbBlockBegin
  2
*D5
 70
     1
 10
0.0
 20
0.0
 30
0.0
  3
*D5
  1

  0
POINT
  5
226
330
22F
100
AcDbEntity
  8
DEFPOINTS
  6
ByBlock
 62
     7
380
     1
100
AcDbPoint
 10
177.4882078062805
 20
383.6005351405997
 30
0.0
  0
POINT
  5
227
330
22F
100
AcDbEntity
  8
DEFPOINTS
  6
ByBlock
 62
     7
380
     1
100
AcDbPoint
 10
314.6265308137604
 20
383.6005332031185
 30
0.0
  0
LINE
  5
228
330
22F
100
AcDbEntity
  8
0
  6
ByBlock
 62
     7
370
    -2
380
     1
100
AcDbLine
 10
177.4882078062805
 20
384.2255351405997
 30
0.0
 11
177.4882078062805
 21
412.3792453451319
 31
0.0
  0
LINE
  5
229
330
22F
100
AcDbEntity
  8
0
  6
ByBlock
 62
     7
370
    -2
380
     1
100
AcDbLine
 10
314.6265308137604
 20
384.2255332031185
 30
0.0
 11
314.6265308137604
 21
412.3792453451319
 31
0.0
  0
LINE
  5
22A
330
22F
100
AcDbEntity
  8
0
  6
ByBlock
 62
     7
370
    -2
380
     1
100
AcDbLine
 10
187.4882078062805
 20
411.1292453451319
 30
0.0
 11
304.6265308137604
 21
411.1292453451319
 31
0.0
  0
SOLID
  5
22B
330
22F
100
AcDbEntity
  8
0
  6
ByBlock
 62
     7
380
     1
100
AcDbTrace
 10
177.4882078062805
 20
411.1292453451319
 30
0.0
 11
187.4882078062805
 21
409.4625786784652
 31
0.0
 12
187.4882078062805
 22
412.7959120117986
 32
0.0
 13
187.4882078062805
 23
412.7959120117986
 33
0.0
  0
SOLID
  5
22C
330
22F
100
AcDbEntity
  8
0
  6
ByBlock
 62
     7
380
     1
100
AcDbTrace
 10
314.6265308137604
 20
411.1292453451319
 30
0.0
 11
304.6265308137604
 21
409.4625786784652
 31
0.0
 12
304.6265308137604
 22
412.7959120117986
 32
0.0
 13
304.6265308137604
 23
412.7959120117986
 33
0.0
  0
MTEXT
  5
22D
330
22F
100
AcDbEntity
  8
0
  6
ByBlock
 62
     0
370
    -2
380
     1
100
AcDbMText
 10
249.5206064998717
 20
423.1292453451319
 30
0.0
 40
14.0
 41
0.0
 71
     5
 72
     1
  1
137
 73
     1
 44
1.0
  0
ENDBLK
  5
2A3
330
22F
100
AcDbEntity
  8
0
100
AcDbBlockEnd
  0
BLOCK
  5
2A4
330
23A
100
AcDbEntity
  8
0
100
AcDbBlockBegin
  2
*D6
 70
     1
 10
0.0
 20
0.0
 30
0.0
  3
*D6
  1

  0
POINT
  5
231
330
23A
100
AcDbEntity
  8
DEFPOINTS
  6
ByBlock
 62
     7
380
     1
100
AcDbPoint
 10
126.5573686547284
 20
355.5104590092826
 30
0.0
  0
POINT
  5
232
330
23A
100
AcDbEntity
  8
DEFPOINTS
  6
ByBlock
 62
     7
380
     1
100
AcDbPoint
 10
365.5573686547285
 20
355.5104590092826
 30
0.0
  0
LINE
  5
233
330
23A
100
AcDbEntity
  8
0
  6
ByBlock
 62
     7
370
    -2
380
     1
100
AcDbLine
 10
126.5573686547284
 20
356.1354590092826
 30
0.0
 11
126.5573686547284
 21
439.9437454730633
 31
0.0
  0
LINE
  5
234
330
23A
100
AcDbEntity
  8
0
  6
ByBlock
 62
     7
370
    -2
380
     1
100
AcDbLine
 10
365.5573686547285
 20
356.1354590092826
 30
0.0
 11
365.5573686547285
 21
439.9437454730633
 31
0.0
  0
LINE
  5
235
330
23A
100
AcDbEntity
  8
0
  6
ByBlock
 62
     7
370
    -2
380
     1
100
AcDbLine
 10
136.5573686547284
 20
438.6937454730633
 30
0.0
 11
355.5573686547285
 21
438.6937454730633
 31
0.0
  0
SOLID
  5
236
330
23A
100
AcDbEntity
  8
0
  6
ByBlock
 62
     7
380
     1
100
AcDbTrace
 10
126.5573686547284
 20
438.6937454730633
 30
0.0
 11
136.5573686547284
 21
437.0270788063966
 31
0.0
 12
136.5573686547284
 22
440.36041213973
 32
0.0
 13
136.5573686547284
 23
440.36041213973
 33
0.0
  0
SOLID
  5
237
330
23A
100
AcDbEntity
  8
0
  6
ByBlock
 62
     7
380
     1
100
AcDbTrace
 10
365.5573686547285
 20
438.6937454730633
 30
0.0
 11
355.5573686547285
 21
437.0270788063966
 31
0.0
 12
355.5573686547285
 22
440.36041213973
 32
0.0
 13
355.5573686547285
 23
440.36041213973
 33
0.0
  0
MTEXT
  5
238
330
23A
100
AcDbEntity
  8
0
  6
ByBlock
 62
     0
370
    -2
380
     1
100
AcDbMText
 10
246.0573686547284
 20
450.6937454730633
 30
0.0
 40
14.0
 41
0.0
 71
     5
 72
     1
  1
\A1;239
 73
     1
 44
1.0
  0
ENDBLK
  5
2A5
330
23A
100
AcDbEntity
  8
0
100
AcDbBlockEnd
  0
BLOCK
  5
2A6
330
247
100
AcDbEntity
  8
0
100
AcDbBlockBegin
  2
*D7
 70
     1
 10
0.0
 20
0.0
 30
0.0
  3
*D7
  1

  0
POINT
  5
23C
330
247
100
AcDbEntity
  8
DEFPOINTS
  6
ByBlock
 62
     7
380
     1
100
AcDbPoint
 10
477.01722517875
 20
404.7974291435763
 30
0.0
  0
POINT
  5
23D
330
247
100
AcDbEntity
  8
DEFPOINTS
  6
ByBlock
 62
     7
380
     1
100
AcDbPoint
 10
481.01722517875
 20
404.7974291435763
 30
0.0
  0
LINE
  5
23E
330
247
100
AcDbEntity
  8
0
  6
ByBlock
 62
     7
370
    -2
380
     1
100
AcDbLine
 10
477.01722517875
 20
405.4224291435763
 30
0.0
 11
477.01722517875
 21
439.5723783923422
 31
0.0
  0
LINE
  5
23F
330
247
100
AcDbEntity
  8
0
  6
ByBlock
 62
     7
370
    -2
380
     1
100
AcDbLine
 10
481.01722517875
 20
405.4224291435763
 30
0.0
 11
481.01722517875
 21
439.5723783923422
 31
0.0
  0
LINE
  5
240
330
247
100
AcDbEntity
  8
0
  6
ByBlock
 62
     7
370
    -2
380
     1
100
AcDbLine
 10
467.01722517875
 20
438.3223783923422
 30
0.0
 11
457.01722517875
 21
438.3223783923422
 31
0.0
  0
LINE
  5
241
330
247
100
AcDbEntity
  8
0
  6
ByBlock
 62
     7
370
    -2
380
     1
100
AcDbLine
 10
491.01722517875
 20
438.3223783923422
 30
0.0
 11
520.3505585120834
 21
438.3223783923422
 31
0.0
  0
SOLID
  5
242
330
247
100
AcDbEntity
  8
0
  6
ByBlock
 62
     7
380
     1
100
AcDbTrace
 10
477.01722517875
 20
438.3223783923422
 30
0.0
 11
467.01722517875
 21
436.6557117256755
 31
0.0
 12
467.01722517875
 22
439.9890450590089
 32
0.0
 13
467.01722517875
 23
439.9890450590089
 33
0.0
  0
SOLID
  5
243
330
247
100
AcDbEntity
  8
0
  6
ByBlock
 62
     7
380
     1
100
AcDbTrace
 10
481.01722517875
 20
438.3223783923422
 30
0.0
 11
491.01722517875
 21
436.6557117256755
 31
0.0
 12
491.01722517875
 22
439.9890450590089
 32
0.0
 13
491.01722517875
 23
439.9890450590089
 33
0.0
  0
LINE
  5
244
330
247
100
AcDbEntity
  8
0
  6
ByBlock
 62
     7
370
    -2
380
     1
100
AcDbLine
 10
477.01722517875
 20
438.3223783923422
 30
0.0
 11
481.01722517875
 21
438.3223783923422
 31
0.0
  0
MTEXT
  5
245
330
247
100
AcDbEntity
  8
0
  6
ByBlock
 62
     0
370
    -2
380
     1
100
AcDbMText
 10
510.6838918454167
 20
450.3223783923422
 30
0.0
 40
14.0
 41
0.0
 71
     5
 72
     1
  1
\A1;4
 73
     1
 44
1.0
  0
ENDBLK
  5
2A7
330
247
100
AcDbEntity
  8
0
100
AcDbBlockEnd
  0
BLOCK
  5
2A8
330
252
100
AcDbEntity
  8
0
100
AcDbBlockBegin
  2
*D8
 70
     1
 10
0.0
 20
0.0
 30
0.0
  3
*D8
  1

  0
POINT
  5
249
330
252
100
AcDbEntity
  8
DEFPOINTS
  6
ByBlock
 62
     7
380
     1
100
AcDbPoint
 10
243.0919526696452
 20
410.7936667467811
 30
0.0
  0
POINT
  5
24A
330
252
100
AcDbEntity
  8
DEFPOINTS
  6
ByBlock
 62
     7
380
     1
100
AcDbPoint
 10
243.0919526696452
 20
202.7517737467811
 30
0.0
  0
LINE
  5
24B
330
252
100
AcDbEntity
  8
0
  6
ByBlock
 62
     7
370
    -2
380
     1
100
AcDbLine
 10
243.7169526696452
 20
410.7936667467811
 30
0.0
 11
407.3880750277144
 21
410.7936667467811
 31
0.0
  0
LINE
  5
24C
330
252
100
AcDbEntity
  8
0
  6
ByBlock
 62
     7
370
    -2
380
     1
100
AcDbLine
 10
243.7169526696452
 20
202.7517737467811
 30
0.0
 11
407.3880750277144
 21
202.7517737467811
 31
0.0
  0
LINE
  5
24D
330
252
100
AcDbEntity
  8
0
  6
ByBlock
 62
     7
370
    -2
380
     1
100
AcDbLine
 10
406.1380750277144
 20
400.7936667467811
 30
0.0
 11
406.1380750277144
 21
212.7517737467811
 31
0.0
  0
SOLID
  5
24E
330
252
100
AcDbEntity
  8
0
  6
ByBlock
 62
     7
380
     1
100
AcDbTrace
 10
406.1380750277144
 20
410.7936667467811
 30
0.0
 11
404.4714083610477
 21
400.7936667467811
 31
0.0
 12
407.8047416943811
 22
400.7936667467811
 32
0.0
 13
407.8047416943811
 23
400.7936667467811
 33
0.0
  0
SOLID
  5
24F
330
252
100
AcDbEntity
  8
0
  6
ByBlock
 62
     7
380
     1
100
AcDbTrace
 10
406.1380750277144
 20
202.7517737467811
 30
0.0
 11
404.4714083610477
 21
212.7517737467811
 31
0.0
 12
407.8047416943811
 22
212.7517737467811
 32
0.0
 13
407.8047416943811
 23
212.7517737467811
 33
0.0
  0
MTEXT
  5
250
330
252
100
AcDbEntity
  8
0
  6
ByBlock
 62
     0
370
    -2
380
     1
100
AcDbMText
 10
392.9714083610477
 20
306.7727202467811
 30
0.0
 40
14.0
 41
0.0
 71
     5
 72
     1
  1
\A1;208,04
 11
6.123031769111886E-17
 21
1.0
 31
0.0
 73
     1
 44
1.0
  0
ENDBLK
  5
2A9
330
252
100
AcDbEntity
  8
0
100
AcDbBlockEnd
  0
BLOCK
  5
2AA
330
25F
100
AcDbEntity
  8
0
100
AcDbBlockBegin
  2
*D9
 70
     1
 10
0.0
 20
0.0
 30
0.0
  3
*D9
  1

  0
POINT
  5
254
330
25F
100
AcDbEntity
  8
DEFPOINTS
  6
ByBlock
 62
     7
380
     1
100
AcDbPoint
 10
257.5452270038762
 20
425.6459307467811
 30
0.0
  0
POINT
  5
255
330
25F
100
AcDbEntity
  8
DEFPOINTS
  6
ByBlock
 62
     7
380
     1
100
AcDbPoint
 10
257.5452275038762
 20
410.7936667467811
 30
0.0
  0
LINE
  5
256
330
25F
100
AcDbEntity
  8
0
  6
ByBlock
 62
     7
370
    -2
380
     1
100
AcDbLine
 10
258.1702270038762
 20
425.6459307467811
 30
0.0
 11
407.379152260982
 21
425.6459307467811
 31
0.0
  0
LINE
  5
257
330
25F
100
AcDbEntity
  8
0
  6
ByBlock
 62
     7
370
    -2
380
     1
100
AcDbLine
 10
258.1702275038762
 20
410.7936667467811
 30
0.0
 11
407.379152260982
 21
410.7936667467811
 31
0.0
  0
LINE
  5
258
330
25F
100
AcDbEntity
  8
0
  6
ByBlock
 62
     7
370
    -2
380
     1
100
AcDbLine
 10
406.129152260982
 20
400.7936667467811
 30
0.0
 11
406.129152260982
 21
390.7936667467811
 31
0.0
  0
LINE
  5
259
330
25F
100
AcDbEntity
  8
0
  6
ByBlock
 62
     7
370
    -2
380
     1
100
AcDbLine
 10
406.129152260982
 20
435.6459307467811
 30
0.0
 11
406.129152260982
 21
461.9792640801145
 31
0.0
  0
SOLID
  5
25A
330
25F
100
AcDbEntity
  8
0
  6
ByBlock
 62
     7
380
     1
100
AcDbTrace
 10
406.129152260982
 20
425.6459307467811
 30
0.0
 11
404.4624855943154
 21
435.6459307467811
 31
0.0
 12
407.7958189276487
 22
435.6459307467811
 32
0.0
 13
407.7958189276487
 23
435.6459307467811
 33
0.0
  0
SOLID
  5
25B
330
25F
100
AcDbEntity
  8
0
  6
ByBlock
 62
     7
380
     1
100
AcDbTrace
 10
406.129152260982
 20
410.7936667467811
 30
0.0
 11
404.4624855943154
 21
400.7936667467811
 31
0.0
 12
407.7958189276487
 22
400.7936667467811
 32
0.0
 13
407.7958189276487
 23
400.7936667467811
 33
0.0
  0
LINE
  5
25C
330
25F
100
AcDbEntity
  8
0
  6
ByBlock
 62
     7
370
    -2
380
     1
100
AcDbLine
 10
406.129152260982
 20
425.6459307467811
 30
0.0
 11
406.129152260982
 21
410.7936667467811
 31
0.0
  0
MTEXT
  5
25D
330
25F
100
AcDbEntity
  8
0
  6
ByBlock
 62
     0
370
    -2
380
     1
100
AcDbMText
 10
394.129152260982
 20
449.9792640801145
 30
0.0
 40
14.0
 41
0.0
 71
     5
 72
     1
  1
15
 11
6.123031769111886E-17
 21
1.0
 31
0.0
 73
     1
 44
1.0
  0
ENDBLK
  5
2AB
330
25F
100
AcDbEntity
  8
0
100
AcDbBlockEnd
  0
BLOCK
  5
2AC
330
26A
100
AcDbEntity
  8
0
100
AcDbBlockBegin
  2
*D10
 70
     1
 10
0.0
 20
0.0
 30
0.0
  3
*D10
  1

  0
POINT
  5
261
330
26A
100
AcDbEntity
  8
DEFPOINTS
  6
ByBlock
 62
     0
380
     1
100
AcDbPoint
 10
258.8041497706083
 20
425.6459307467811
 30
0.0
  0
POINT
  5
262
330
26A
100
AcDbEntity
  8
DEFPOINTS
  6
ByBlock
 62
     0
380
     1
100
AcDbPoint
 10
258.8041497706083
 20
65.64592374678111
 30
0.0
  0
LINE
  5
263
330
26A
100
AcDbEntity
  8
0
  6
ByBlock
 62
     0
370
    -2
380
     1
100
AcDbLine
 10
259.4291497706083
 20
425.6459307467811
 30
0.0
 11
435.0476850706011
 21
425.6459307467811
 31
0.0
  0
LINE
  5
264
330
26A
100
AcDbEntity
  8
0
  6
ByBlock
 62
     0
370
    -2
380
     1
100
AcDbLine
 10
259.4291497706083
 20
65.64592374678114
 30
0.0
 11
435.0476850706011
 21
65.64592374678114
 31
0.0
  0
LINE
  5
265
330
26A
100
AcDbEntity
  8
0
  6
ByBlock
 62
     7
370
    -2
380
     1
100
AcDbLine
 10
433.7976850706011
 20
415.6459307467811
 30
0.0
 11
433.7976850706011
 21
75.64592374678114
 31
0.0
  0
SOLID
  5
266
330
26A
100
AcDbEntity
  8
0
  6
ByBlock
 62
     7
380
     1
100
AcDbTrace
 10
433.7976850706011
 20
425.6459307467811
 30
0.0
 11
432.1310184039344
 21
415.6459307467811
 31
0.0
 12
435.4643517372677
 22
415.6459307467811
 32
0.0
 13
435.4643517372677
 23
415.6459307467811
 33
0.0
  0
SOLID
  5
267
330
26A
100
AcDbEntity
  8
0
  6
ByBlock
 62
     7
380
     1
100
AcDbTrace
 10
433.7976850706011
 20
65.64592374678114
 30
0.0
 11
432.1310184039344
 21
75.64592374678114
 31
0.0
 12
435.4643517372677
 22
75.64592374678114
 32
0.0
 13
435.4643517372677
 23
75.64592374678114
 33
0.0
  0
MTEXT
  5
268
330
26A
100
AcDbEntity
  8
0
  6
ByBlock
 62
     0
370
    -2
380
     1
100
AcDbMText
 10
421.7976850706011
 20
245.6459272467811
 30
0.0
 40
14.0
 41
0.0
 71
     5
 72
     1
  1
\A1;360
 11
6.123031769111886E-17
 21
1.0
 31
0.0
 73
     1
 44
1.0
  0
ENDBLK
  5
2AD
330
26A
100
AcDbEntity
  8
0
100
AcDbBlockEnd
  0
BLOCK
  5
2AE
330
275
100
AcDbEntity
  8
0
100
AcDbBlockBegin
  2
*D11
 70
     1
 10
0.0
 20
0.0
 30
0.0
  3
*D11
  1

  0
POINT
  5
26C
330
275
100
AcDbEntity
  8
DEFPOINTS
  6
ByBlock
 62
     7
380
     1
100
AcDbPoint
 10
190.2349889221604
 20
410.79366818781
 30
0.0
  0
POINT
  5
26D
330
275
100
AcDbEntity
  8
DEFPOINTS
  6
ByBlock
 62
     7
380
     1
100
AcDbPoint
 10
327.3733119296402
 20
410.7936662503288
 30
0.0
  0
LINE
  5
26E
330
275
100
AcDbEntity
  8
0
  6
ByBlock
 62
     7
370
    -2
380
     1
100
AcDbLine
 10
190.2349889221604
 20
411.41866818781
 30
0.0
 11
190.2349889221604
 21
439.5723783923422
 31
0.0
  0
LINE
  5
26F
330
275
100
AcDbEntity
  8
0
  6
ByBlock
 62
     7
370
    -2
380
     1
100
AcDbLine
 10
327.3733119296402
 20
411.4186662503288
 30
0.0
 11
327.3733119296402
 21
439.5723783923422
 31
0.0
  0
LINE
  5
270
330
275
100
AcDbEntity
  8
0
  6
ByBlock
 62
     7
370
    -2
380
     1
100
AcDbLine
 10
200.2349889221604
 20
438.3223783923422
 30
0.0
 11
317.3733119296402
 21
438.3223783923422
 31
0.0
  0
SOLID
  5
271
330
275
100
AcDbEntity
  8
0
  6
ByBlock
 62
     7
380
     1
100
AcDbTrace
 10
190.2349889221604
 20
438.3223783923422
 30
0.0
 11
200.2349889221604
 21
436.6557117256755
 31
0.0
 12
200.2349889221604
 22
439.9890450590089
 32
0.0
 13
200.2349889221604
 23
439.9890450590089
 33
0.0
  0
SOLID
  5
272
330
275
100
AcDbEntity
  8
0
  6
ByBlock
 62
     7
380
     1
100
AcDbTrace
 10
327.3733119296402
 20
438.3223783923422
 30
0.0
 11
317.3733119296402
 21
436.6557117256755
 31
0.0
 12
317.3733119296402
 22
439.9890450590089
 32
0.0
 13
317.3733119296402
 23
439.9890450590089
 33
0.0
  0
MTEXT
  5
273
330
275
100
AcDbEntity
  8
0
  6
ByBlock
 62
     0
370
    -2
380
     1
100
AcDbMText
 10
262.2673876157515
 20
450.3223783923422
 30
0.0
 40
14.0
 41
0.0
 71
     5
 72
     1
  1
137
 73
     1
 44
1.0
  0
ENDBLK
  5
2AF
330
275
100
AcDbEntity
  8
0
100
AcDbBlockEnd
  0
BLOCK
  5
2B0
330
280
100
AcDbEntity
  8
0
100
AcDbBlockBegin
  2
*D12
 70
     1
 10
0.0
 20
0.0
 30
0.0
  3
*D12
  1

  0
POINT
  5
277
330
280
100
AcDbEntity
  8
DEFPOINTS
  6
ByBlock
 62
     7
380
     1
100
AcDbPoint
 10
139.3041497706083
 20
382.7035920564929
 30
0.0
  0
POINT
  5
278
330
280
100
AcDbEntity
  8
DEFPOINTS
  6
ByBlock
 62
     7
380
     1
100
AcDbPoint
 10
378.3041497706084
 20
382.7035920564929
 30
0.0
  0
LINE
  5
279
330
280
100
AcDbEntity
  8
0
  6
ByBlock
 62
     7
370
    -2
380
     1
100
AcDbLine
 10
139.3041497706083
 20
383.3285920564929
 30
0.0
 11
139.3041497706083
 21
467.1368785202736
 31
0.0
  0
LINE
  5
27A
330
280
100
AcDbEntity
  8
0
  6
ByBlock
 62
     7
370
    -2
380
     1
100
AcDbLine
 10
378.3041497706084
 20
383.3285920564929
 30
0.0
 11
378.3041497706084
 21
467.1368785202736
 31
0.0
  0
LINE
  5
27B
330
280
100
AcDbEntity
  8
0
  6
ByBlock
 62
     7
370
    -2
380
     1
100
AcDbLine
 10
149.3041497706083
 20
465.8868785202736
 30
0.0
 11
368.3041497706084
 21
465.8868785202736
 31
0.0
  0
SOLID
  5
27C
330
280
100
AcDbEntity
  8
0
  6
ByBlock
 62
     7
380
     1
100
AcDbTrace
 10
139.3041497706083
 20
465.8868785202736
 30
0.0
 11
149.3041497706083
 21
464.2202118536069
 31
0.0
 12
149.3041497706083
 22
467.5535451869403
 32
0.0
 13
149.3041497706083
 23
467.5535451869403
 33
0.0
  0
SOLID
  5
27D
330
280
100
AcDbEntity
  8
0
  6
ByBlock
 62
     7
380
     1
100
AcDbTrace
 10
378.3041497706084
 20
465.8868785202736
 30
0.0
 11
368.3041497706084
 21
464.2202118536069
 31
0.0
 12
368.3041497706084
 22
467.5535451869403
 32
0.0
 13
368.3041497706084
 23
467.5535451869403
 33
0.0
  0
MTEXT
  5
27E
330
280
100
AcDbEntity
  8
0
  6
ByBlock
 62
     0
370
    -2
380
     1
100
AcDbMText
 10
258.8041497706083
 20
477.8868785202736
 30
0.0
 40
14.0
 41
0.0
 71
     5
 72
     1
  1
\A1;239
 73
     1
 44
1.0
  0
ENDBLK
  5
2B1
330
280
100
AcDbEntity
  8
0
100
AcDbBlockEnd
  0
BLOCK
  5
2B2
330
292
100
AcDbEntity
  8
0
100
AcDbBlockBegin
  2
*D13
 70
     1
 10
0.0
 20
0.0
 30
0.0
  3
*D13
  1

  0
POINT
  5
289
330
292
100
AcDbEntity
  8
DEFPOINTS
  6
ByBlock
 62
     7
380
     1
100
AcDbPoint
 10
243.0919526696452
 20
410.7936667467811
 30
0.0
  0
POINT
  5
28A
330
292
100
AcDbEntity
  8
DEFPOINTS
  6
ByBlock
 62
     7
380
     1
100
AcDbPoint
 10
243.0919526696452
 20
202.7517737467811
 30
0.0
  0
LINE
  5
28B
330
292
100
AcDbEntity
  8
0
  6
ByBlock
 62
     7
370
    -2
380
     1
100
AcDbLine
 10
243.7169526696452
 20
410.7936667467811
 30
0.0
 11
407.3880750277144
 21
410.7936667467811
 31
0.0
  0
LINE
  5
28C
330
292
100
AcDbEntity
  8
0
  6
ByBlock
 62
     7
370
    -2
380
     1
100
AcDbLine
 10
243.7169526696452
 20
202.7517737467811
 30
0.0
 11
407.3880750277144
 21
202.7517737467811
 31
0.0
  0
LINE
  5
28D
330
292
100
AcDbEntity
  8
0
  6
ByBlock
 62
     7
370
    -2
380
     1
100
AcDbLine
 10
406.1380750277144
 20
400.7936667467811
 30
0.0
 11
406.1380750277144
 21
212.7517737467811
 31
0.0
  0
SOLID
  5
28E
330
292
100
AcDbEntity
  8
0
  6
ByBlock
 62
     7
380
     1
100
AcDbTrace
 10
406.1380750277144
 20
410.7936667467811
 30
0.0
 11
404.4714083610477
 21
400.7936667467811
 31
0.0
 12
407.8047416943811
 22
400.7936667467811
 32
0.0
 13
407.8047416943811
 23
400.7936667467811
 33
0.0
  0
SOLID
  5
28F
330
292
100
AcDbEntity
  8
0
  6
ByBlock
 62
     7
380
     1
100
AcDbTrace
 10
406.1380750277144
 20
202.7517737467811
 30
0.0
 11
404.4714083610477
 21
212.7517737467811
 31
0.0
 12
407.8047416943811
 22
212.7517737467811
 32
0.0
 13
407.8047416943811
 23
212.7517737467811
 33
0.0
  0
MTEXT
  5
290
330
292
100
AcDbEntity
  8
0
  6
ByBlock
 62
     0
370
    -2
380
     1
100
AcDbMText
 10
394.1380750277144
 20
306.7727202467811
 30
0.0
 40
14.0
 41
0.0
 71
     5
 72
     1
  1
208
 11
6.123031769111886E-17
 21
1.0
 31
0.0
 73
     1
 44
1.0
  0
ENDBLK
  5
2B3
330
292
100
AcDbEntity
  8
0
100
AcDbBlockEnd
  0
ENDSEC
  0
SECTION
  2
ENTITIES
  0
LINE
  5
F8
330
1F
100
AcDbEntity
  8
0
 62
     7
 48
0.106066
370
    60
100
AcDbLine
 10
375.3041497706084
 20
65.64592374678111
 30
0.0
 11
378.3041497706084
 21
68.64592374678111
 31
0.0
  0
LINE
  5
F9
330
1F
100
AcDbEntity
  8
0
 62
     7
 48
0.106066
370
    60
100
AcDbLine
 10
139.3041497706083
 20
68.64592374678111
 30
0.0
 11
142.3041497706083
 21
65.64592374678111
 31
0.0
  0
LINE
  5
FA
330
1F
100
AcDbEntity
  8
0
 62
     7
 48
0.106066
370
    60
100
AcDbLine
 10
139.3041497706083
 20
422.6459307467811
 30
0.0
 11
142.3041497706083
 21
425.6459307467811
 31
0.0
  0
LINE
  5
FB
330
1F
100
AcDbEntity
  8
0
 62
     7
 48
0.106066
370
    60
100
AcDbLine
 10
375.3041497706084
 20
425.6459307467811
 30
0.0
 11
378.3041497706084
 21
422.6459307467811
 31
0.0
  0
CIRCLE
  5
FC
330
1F
100
AcDbEntity
  8
0
 62
     7
370
    60
100
AcDbCircle
 10
222.8041497706083
 20
77.89592374678111
 30
0.0
 40
4.300000000000011
  0
CIRCLE
  5
FD
330
1F
100
AcDbEntity
  8
0
 62
     7
370
    60
100
AcDbCircle
 10
294.8041497706083
 20
77.89592374678111
 30
0.0
 40
4.300000000000011
  0
LINE
  5
FE
330
1F
100
AcDbEntity
  8
0
 62
     7
370
    60
100
AcDbLine
 10
142.3041497706083
 20
65.64592374678111
 30
0.0
 11
375.3041497706084
 21
65.64592374678111
 31
0.0
  0
LINE
  5
FF
330
1F
100
AcDbEntity
  8
0
 62
     7
370
    60
100
AcDbLine
 10
142.3041497706083
 20
425.6459307467811
 30
0.0
 11
375.3041497706084
 21
425.6459307467811
 31
0.0
  0
LINE
  5
100
330
1F
100
AcDbEntity
  8
0
 62
     7
370
    60
100
AcDbLine
 10
139.3041497706083
 20
68.64592374678111
 30
0.0
 11
139.3041497706083
 21
422.6459307467811
 31
0.0
  0
LINE
  5
101
330
1F
100
AcDbEntity
  8
0
 62
     7
370
    60
100
AcDbLine
 10
378.3041497706084
 20
68.64592374678111
 30
0.0
 11
378.3041497706084
 21
422.6459307467811
 31
0.0
  0
LINE
  5
102
330
1F
100
AcDbEntity
  8
0
 62
     7
370
    60
100
AcDbLine
 10
190.2349897706084
 20
410.7936667467811
 30
0.0
 11
327.3733107706083
 21
410.7936667467811
 31
0.0
  0
SPLINE
  5
103
330
1F
100
AcDbEntity
  8
0
 62
     7
370
    60
100
AcDbSpline
210
0.0
220
0.0
230
1.0
 70
     8
 71
     4
 72
    14
 73
     9
 74
     0
 42
0.0
 43
0.0
 40
0.0
 40
0.0
 40
0.0
 40
0.0
 40
0.0
 40
70.26682775688148
 40
70.26682775688148
 40
145.608109693142
 40
145.608109693142
 40
211.8447370356912
 40
211.8447370356912
 40
211.8447370356912
 40
211.8447370356912
 40
211.8447370356912
 10
317.2061093211722
 20
202.7517740973101
 30
0.0
 10
323.8272939250061
 20
219.0011858326311
 30
0.0
 10
329.0538398941288
 20
235.8214452781527
 30
0.0
 10
336.8952228972099
 20
271.4409518341264
 30
0.0
 10
339.0448034980707
 20
307.8523687591386
 30
0.0
 10
338.5518443292872
 20
343.2786600119042
 30
0.0
 10
333.9276617605116
 20
378.3676869949845
 30
0.0
 10
330.9848674214489
 20
394.6581109454715
 30
0.0
 10
327.3733119296402
 20
410.7936662503288
 30
0.0
  0
LINE
  5
104
330
1F
100
AcDbEntity
  8
0
 62
     7
370
    60
100
AcDbLine
 10
200.4021917706083
 20
202.7517737467811
 30
0.0
 11
317.2061087706082
 21
202.7517737467811
 31
0.0
  0
SPLINE
  5
105
330
1F
100
AcDbEntity
  8
0
 62
     7
370
    60
100
AcDbSpline
210
0.0
220
0.0
230
1.0
 70
     8
 71
     4
 72
    14
 73
     9
 74
     0
 42
0.0
 43
0.0
 40
0.0
 40
0.0
 40
0.0
 40
0.0
 40
0.0
 40
70.26682934582443
 40
70.26682934582443
 40
145.6081112844528
 40
145.6081112844528
 40
211.8447406175331
 40
211.8447406175331
 40
211.8447406175331
 40
211.8447406175331
 40
211.8447406175331
 10
200.4021916950286
 20
202.7517726295577
 30
0.0
 10
193.7810068473254
 20
219.0011846931649
 30
0.0
 10
188.5544606948777
 20
235.8214445018166
 30
0.0
 10
180.7130775444477
 20
271.4409514373834
 30
0.0
 10
178.5634969200609
 20
307.8523687590906
 30
0.0
 10
179.0564560958803
 20
343.2786605095856
 30
0.0
 10
183.6806387874714
 20
378.3676879804784
 30
0.0
 10
186.6234332618774
 20
394.6581124128524
 30
0.0
 10
190.2349889221604
 20
410.79366818781
 30
0.0
  0
POINT
  5
106
330
1F
100
AcDbEntity
  8
0
 62
     7
370
    60
100
AcDbPoint
 10
306.1747767706083
 20
167.7872017467811
 30
0.0
  0
POINT
  5
107
330
1F
100
AcDbEntity
  8
0
 62
     7
370
    60
100
AcDbPoint
 10
306.1747767706083
 20
139.6272017467811
 30
0.0
  0
POINT
  5
108
330
1F
100
AcDbEntity
  8
0
 62
     7
370
    60
100
AcDbPoint
 10
330.9747737706082
 20
153.7072027467811
 30
0.0
  0
POINT
  5
109
330
1F
100
AcDbEntity
  8
0
 62
     7
370
    60
100
AcDbPoint
 10
193.8547787706082
 20
153.7072027467811
 30
0.0
  0
POINT
  5
10A
330
1F
100
AcDbEntity
  8
0
 62
     7
370
    60
100
AcDbPoint
 10
314.5186577706082
 20
139.1472027467811
 30
0.0
  0
LINE
  5
10B
330
1F
100
AcDbEntity
  8
0
 62
     7
370
    60
100
AcDbLine
 10
272.4078217706083
 20
159.8969437467811
 30
0.0
 11
267.6217307706082
 21
139.5174607467811
 31
0.0
  0
ARC
  5
10C
330
1F
100
AcDbEntity
  8
0
 62
     7
370
    60
100
AcDbCircle
 10
226.6547757706083
 20
147.6272027467811
 30
0.0
 40
0.4800000000000182
100
AcDbArc
 50
180.0
 51
270.000003
  0
ARC
  5
10D
330
1F
100
AcDbEntity
  8
0
 62
     7
370
    60
100
AcDbCircle
 10
208.4147767706083
 20
153.7072027467811
 30
0.0
 40
14.56000100000002
100
AcDbArc
 50
89.99999699999992
 51
270.0000029999999
  0
LINE
  5
10E
330
1F
100
AcDbEntity
  8
0
 62
     7
 48
0.304
370
    60
100
AcDbLine
 10
205.0547787706083
 20
159.7872017467811
 30
0.0
 11
205.0547787706083
 21
147.6272027467811
 31
0.0
  0
LINE
  5
10F
330
1F
100
AcDbEntity
  8
0
 62
     7
 48
0.24
370
    60
100
AcDbLine
 10
207.6147767706082
 20
157.2272027467811
 30
0.0
 11
207.6147767706082
 21
147.6272027467811
 31
0.0
  0
ARC
  5
110
330
1F
100
AcDbEntity
  8
0
 62
     7
370
    60
100
AcDbCircle
 10
205.5347777706083
 20
147.6272027467811
 30
0.0
 40
0.4799999999999613
100
AcDbArc
 50
180.0
 51
270.000003
  0
LINE
  5
111
330
1F
100
AcDbEntity
  8
0
 62
     7
 48
0.44
370
    60
100
AcDbLine
 10
215.6147767706082
 20
157.2272027467811
 30
0.0
 11
215.6147767706082
 21
139.6272017467811
 31
0.0
  0
LINE
  5
112
330
1F
100
AcDbEntity
  8
0
 62
     7
370
    60
100
AcDbLine
 10
218.1747767706082
 20
167.7872017467811
 30
0.0
 11
218.1747767706082
 21
139.6272017467811
 31
0.0
  0
ARC
  5
113
330
1F
100
AcDbEntity
  8
0
 62
     7
370
    60
100
AcDbCircle
 10
207.1347777706084
 20
147.6272027467811
 30
0.0
 40
0.4800000000000189
100
AcDbArc
 50
270.000003000001
 51
0.0000090000009261
  0
ARC
  5
114
330
1F
100
AcDbEntity
  8
0
 62
     7
370
    60
100
AcDbCircle
 10
215.1347777706084
 20
157.2272027467811
 30
0.0
 40
0.4799999999999673
100
AcDbArc
 50
0.0000089999960747
 51
89.99999699999611
  0
LINE
  5
115
330
1F
100
AcDbEntity
  8
0
 62
     7
 48
0.176
370
    60
100
AcDbLine
 10
215.1347777706084
 20
157.7072027467811
 30
0.0
 11
208.0947747706083
 21
157.7072027467811
 31
0.0
  0
ARC
  5
116
330
1F
100
AcDbEntity
  8
0
 62
     7
370
    60
100
AcDbCircle
 10
208.0947747706083
 20
157.2272027467811
 30
0.0
 40
0.4799999999999904
100
AcDbArc
 50
89.99999699999904
 51
179.999999999999
  0
LINE
  5
117
330
1F
100
AcDbEntity
  8
0
 62
     7
 48
0.04
370
    60
100
AcDbLine
 10
207.1347777706084
 20
147.1472017467811
 30
0.0
 11
205.5347777706083
 21
147.1472017467811
 31
0.0
  0
LINE
  5
118
330
1F
100
AcDbEntity
  8
0
 62
     7
 48
0.24
370
    60
100
AcDbLine
 10
215.1347777706084
 20
160.2672027467811
 30
0.0
 11
205.5347777706083
 21
160.2672027467811
 31
0.0
  0
ARC
  5
119
330
1F
100
AcDbEntity
  8
0
 62
     7
370
    60
100
AcDbCircle
 10
215.1347777706084
 20
160.7472027467811
 30
0.0
 40
0.4800000000000189
100
AcDbArc
 50
270.000003000001
 51
0.0000090000009261
  0
LINE
  5
11A
330
1F
100
AcDbEntity
  8
0
 62
     7
 48
0.176
370
    60
100
AcDbLine
 10
215.6147767706082
 20
167.7872017467811
 30
0.0
 11
215.6147767706082
 21
160.7472027467811
 31
0.0
  0
ARC
  5
11B
330
1F
100
AcDbEntity
  8
0
 62
     7
370
    60
100
AcDbCircle
 10
215.1347777706084
 20
167.7872017467811
 30
0.0
 40
0.4799999999999673
100
AcDbArc
 50
0.0000089999994673
 51
89.99999699999948
  0
LINE
  5
11C
330
1F
100
AcDbEntity
  8
0
 62
     7
 48
0.168
370
    60
100
AcDbLine
 10
215.1347777706084
 20
168.2672027467811
 30
0.0
 11
208.4147767706083
 21
168.2672027467811
 31
0.0
  0
ARC
  5
11D
330
1F
100
AcDbEntity
  8
0
 62
     7
370
    60
100
AcDbCircle
 10
205.5347777706083
 20
159.7872017467811
 30
0.0
 40
0.4799999999999904
100
AcDbArc
 50
89.99999699999904
 51
179.999999999999
  0
LINE
  5
11E
330
1F
100
AcDbEntity
  8
0
 62
     7
 48
0.276
370
    60
100
AcDbLine
 10
229.6947747706083
 20
168.2672027467811
 30
0.0
 11
218.6547757706083
 21
168.2672027467811
 31
0.0
  0
ARC
  5
11F
330
1F
100
AcDbEntity
  8
0
 62
     7
370
    60
100
AcDbCircle
 10
218.6547757706083
 20
167.7872017467811
 30
0.0
 40
0.4799999999999904
100
AcDbArc
 50
89.99999699999904
 51
179.999999999999
  0
ARC
  5
120
330
1F
100
AcDbEntity
  8
0
 62
     7
370
    60
100
AcDbCircle
 10
233.2147767706083
 20
167.7872017467811
 30
0.0
 40
0.4799999999999904
100
AcDbArc
 50
89.99999699999904
 51
179.999999999999
  0
ARC
  5
121
330
1F
100
AcDbEntity
  8
0
 62
     7
370
    60
100
AcDbCircle
 10
229.6947747706083
 20
160.7472027467811
 30
0.0
 40
0.4800000000000189
100
AcDbArc
 50
270.000003000001
 51
0.0000090000009261
  0
LINE
  5
122
330
1F
100
AcDbEntity
  8
0
 62
     7
 48
0.04
370
    60
100
AcDbLine
 10
226.1747767706082
 20
159.7872017467811
 30
0.0
 11
226.1747767706082
 21
158.1872017467811
 31
0.0
  0
ARC
  5
123
330
1F
100
AcDbEntity
  8
0
 62
     7
370
    60
100
AcDbCircle
 10
226.6547757706083
 20
159.7872017467811
 30
0.0
 40
0.4799999999999904
100
AcDbArc
 50
89.99999699999904
 51
179.999999999999
  0
ARC
  5
124
330
1F
100
AcDbEntity
  8
0
 62
     7
370
    60
100
AcDbCircle
 10
229.6947747706083
 20
167.7872017467811
 30
0.0
 40
0.4800000000000241
100
AcDbArc
 50
0.0000089999994673
 51
89.99999699999948
  0
LINE
  5
125
330
1F
100
AcDbEntity
  8
0
 62
     7
 48
0.34
370
    60
100
AcDbLine
 10
240.2547757706083
 20
157.7072027467811
 30
0.0
 11
226.6547757706083
 21
157.7072027467811
 31
0.0
  0
LINE
  5
126
330
1F
100
AcDbEntity
  8
0
 62
     7
370
    60
100
AcDbLine
 10
246.6478227706083
 20
139.5174607467811
 30
0.0
 11
241.8617307706083
 21
159.8969437467811
 31
0.0
  0
LINE
  5
127
330
1F
100
AcDbEntity
  8
0
 62
     7
 48
0.176
370
    60
100
AcDbLine
 10
240.7347757706083
 20
157.2272027467811
 30
0.0
 11
240.7347757706083
 21
150.1872017467811
 31
0.0
  0
ARC
  5
128
330
1F
100
AcDbEntity
  8
0
 62
     7
370
    60
100
AcDbCircle
 10
240.2547757706083
 20
157.2272027467811
 30
0.0
 40
0.4800000000000241
100
AcDbArc
 50
0.0000089999960747
 51
89.99999699999611
  0
LINE
  5
129
330
1F
100
AcDbEntity
  8
0
 62
     7
 48
0.34
370
    60
100
AcDbLine
 10
240.2547757706083
 20
149.7072027467811
 30
0.0
 11
226.6547757706083
 21
149.7072027467811
 31
0.0
  0
LINE
  5
12A
330
1F
100
AcDbEntity
  8
0
 62
     7
 48
0.34
370
    60
100
AcDbLine
 10
240.2547757706083
 20
147.1472017467811
 30
0.0
 11
226.6547757706083
 21
147.1472017467811
 31
0.0
  0
ARC
  5
12B
330
1F
100
AcDbEntity
  8
0
 62
     7
370
    60
100
AcDbCircle
 10
226.6547757706083
 20
149.2272027467811
 30
0.0
 40
0.4799999999999904
100
AcDbArc
 50
89.99999699999904
 51
179.999999999999
  0
LINE
  5
12C
330
1F
100
AcDbEntity
  8
0
 62
     7
 48
0.04
370
    60
100
AcDbLine
 10
226.1747767706082
 20
149.2272027467811
 30
0.0
 11
226.1747767706082
 21
147.6272027467811
 31
0.0
  0
LINE
  5
12D
330
1F
100
AcDbEntity
  8
0
 62
     7
 48
0.168
370
    60
100
AcDbLine
 10
215.1347777706084
 20
139.1472027467811
 30
0.0
 11
208.4147767706083
 21
139.1472027467811
 31
0.0
  0
LINE
  5
12E
330
1F
100
AcDbEntity
  8
0
 62
     7
370
    60
100
AcDbLine
 10
240.2547757706083
 20
139.1472027467811
 30
0.0
 11
218.6547757706083
 21
139.1472027467811
 31
0.0
  0
ARC
  5
12F
330
1F
100
AcDbEntity
  8
0
 62
     7
370
    60
100
AcDbCircle
 10
218.6547757706083
 20
139.6272017467811
 30
0.0
 40
0.4800000000000182
100
AcDbArc
 50
180.0
 51
270.000003
  0
LINE
  5
130
330
1F
100
AcDbEntity
  8
0
 62
     7
 48
0.176
370
    60
100
AcDbLine
 10
240.7347757706083
 20
146.6672027467811
 30
0.0
 11
240.7347757706083
 21
139.6272017467811
 31
0.0
  0
ARC
  5
131
330
1F
100
AcDbEntity
  8
0
 62
     7
370
    60
100
AcDbCircle
 10
240.2547757706083
 20
150.1872017467811
 30
0.0
 40
0.4800000000000189
100
AcDbArc
 50
270.000003000001
 51
0.0000090000009261
  0
ARC
  5
132
330
1F
100
AcDbEntity
  8
0
 62
     7
370
    60
100
AcDbCircle
 10
240.2547757706083
 20
146.6672027467811
 30
0.0
 40
0.4800000000000241
100
AcDbArc
 50
0.0000089999960747
 51
89.99999699999611
  0
LINE
  5
133
330
1F
100
AcDbEntity
  8
0
 62
     7
 48
0.204492
370
    60
100
AcDbLine
 10
241.3944437706083
 20
160.2672027467811
 30
0.0
 11
233.2147767706083
 21
160.2672027467811
 31
0.0
  0
ARC
  5
134
330
1F
100
AcDbEntity
  8
0
 62
     7
370
    60
100
AcDbCircle
 10
233.2147767706083
 20
160.7472027467811
 30
0.0
 40
0.4800000000000182
100
AcDbArc
 50
180.0
 51
270.000003
  0
LINE
  5
135
330
1F
100
AcDbEntity
  8
0
 62
     7
 48
0.176
370
    60
100
AcDbLine
 10
232.7347777706082
 20
167.7872017467811
 30
0.0
 11
232.7347777706082
 21
160.7472027467811
 31
0.0
  0
LINE
  5
136
330
1F
100
AcDbEntity
  8
0
 62
     7
 48
0.301823
370
    60
100
AcDbLine
 10
252.9093407706084
 20
167.8641167467811
 30
0.0
 11
250.9747767706083
 21
155.9472027467811
 31
0.0
  0
LINE
  5
137
330
1F
100
AcDbEntity
  8
0
 62
     7
 48
0.093791
370
    60
100
AcDbLine
 10
257.1347767706084
 20
168.2672027467811
 30
0.0
 11
253.3831377706082
 21
168.2672027467811
 31
0.0
  0
LINE
  5
138
330
1F
100
AcDbEntity
  8
0
 62
     7
 48
0.093791
370
    60
100
AcDbLine
 10
260.8864147706083
 20
168.2672027467811
 30
0.0
 11
257.1347767706084
 21
168.2672027467811
 31
0.0
  0
LINE
  5
139
330
1F
100
AcDbEntity
  8
0
 62
     7
 48
0.301823
370
    60
100
AcDbLine
 10
263.2947767706082
 20
155.9472027467811
 30
0.0
 11
261.3602117706083
 21
167.8641167467811
 31
0.0
  0
LINE
  5
13A
330
1F
100
AcDbEntity
  8
0
 62
     7
 48
0.306785
370
    60
100
AcDbLine
 10
266.0881107706083
 20
167.8964647467811
 30
0.0
 11
263.2947767706082
 21
155.9472027467811
 31
0.0
  0
LINE
  5
13B
330
1F
100
AcDbEntity
  8
0
 62
     7
 48
0.362482
370
    60
100
AcDbLine
 10
281.0547757706083
 20
168.2672027467811
 30
0.0
 11
266.5555097706083
 21
168.2672027467811
 31
0.0
  0
LINE
  5
13C
330
1F
100
AcDbEntity
  8
0
 62
     7
 48
0.176
370
    60
100
AcDbLine
 10
281.5347757706082
 20
167.7872017467811
 30
0.0
 11
281.5347757706082
 21
160.7472027467811
 31
0.0
  0
LINE
  5
13D
330
1F
100
AcDbEntity
  8
0
 62
     7
 48
0.204492
370
    60
100
AcDbLine
 10
281.0547757706083
 20
160.2672027467811
 30
0.0
 11
272.8751077706083
 21
160.2672027467811
 31
0.0
  0
LINE
  5
13E
330
1F
100
AcDbEntity
  8
0
 62
     7
 48
0.180654
370
    60
100
AcDbLine
 10
267.1544447706083
 20
139.1472027467811
 30
0.0
 11
259.9282827706082
 21
139.1472027467811
 31
0.0
  0
LINE
  5
13F
330
1F
100
AcDbEntity
  8
0
 62
     7
 48
0.296104
370
    60
100
AcDbLine
 10
259.4576037706082
 20
139.5330667467811
 30
0.0
 11
257.1347767706084
 21
151.1472027467811
 31
0.0
  0
LINE
  5
140
330
1F
100
AcDbEntity
  8
0
 62
     7
 48
0.44
370
    60
100
AcDbLine
 10
281.5347757706082
 20
157.2272027467811
 30
0.0
 11
281.5347757706082
 21
139.6272017467811
 31
0.0
  0
LINE
  5
141
330
1F
100
AcDbEntity
  8
0
 62
     7
 48
0.176
370
    60
100
AcDbLine
 10
281.0547757706083
 20
157.7072027467811
 30
0.0
 11
274.0147767706084
 21
157.7072027467811
 31
0.0
  0
LINE
  5
142
330
1F
100
AcDbEntity
  8
0
 62
     7
 48
0.44
370
    60
100
AcDbLine
 10
273.5347757706082
 20
157.2272027467811
 30
0.0
 11
273.5347757706082
 21
139.6272017467811
 31
0.0
  0
LINE
  5
143
330
1F
100
AcDbEntity
  8
0
 62
     7
 48
0.176
370
    60
100
AcDbLine
 10
281.0547757706083
 20
139.1472027467811
 30
0.0
 11
274.0147767706084
 21
139.1472027467811
 31
0.0
  0
LINE
  5
144
330
1F
100
AcDbEntity
  8
0
 62
     7
 48
0.176
370
    60
100
AcDbLine
 10
284.0947767706082
 20
146.6672027467811
 30
0.0
 11
284.0947767706082
 21
139.6272017467811
 31
0.0
  0
LINE
  5
145
330
1F
100
AcDbEntity
  8
0
 62
     7
 48
0.176
370
    60
100
AcDbLine
 10
306.6547757706082
 20
167.7872017467811
 30
0.0
 11
306.6547757706082
 21
160.7472027467811
 31
0.0
  0
LINE
  5
146
330
1F
100
AcDbEntity
  8
0
 62
     7
370
    60
100
AcDbLine
 10
306.1747767706083
 20
168.2672027467811
 30
0.0
 11
284.5747767706084
 21
168.2672027467811
 31
0.0
  0
LINE
  5
147
330
1F
100
AcDbEntity
  8
0
 62
     7
370
    60
100
AcDbLine
 10
306.1747767706083
 20
139.1472027467811
 30
0.0
 11
284.5747767706084
 21
139.1472027467811
 31
0.0
  0
LINE
  5
148
330
1F
100
AcDbEntity
  8
0
 62
     7
 48
0.04
370
    60
100
AcDbLine
 10
292.0947747706082
 20
159.7872017467811
 30
0.0
 11
292.0947747706082
 21
158.1872017467811
 31
0.0
  0
LINE
  5
149
330
1F
100
AcDbEntity
  8
0
 62
     7
 48
0.34
370
    60
100
AcDbLine
 10
306.1747767706083
 20
160.2672027467811
 30
0.0
 11
292.5747767706084
 21
160.2672027467811
 31
0.0
  0
LINE
  5
14A
330
1F
100
AcDbEntity
  8
0
 62
     7
 48
0.34
370
    60
100
AcDbLine
 10
306.1747767706083
 20
157.7072027467811
 30
0.0
 11
292.5747767706084
 21
157.7072027467811
 31
0.0
  0
LINE
  5
14B
330
1F
100
AcDbEntity
  8
0
 62
     7
 48
0.34
370
    60
100
AcDbLine
 10
298.1747767706083
 20
147.1472017467811
 30
0.0
 11
284.5747767706084
 21
147.1472017467811
 31
0.0
  0
LINE
  5
14C
330
1F
100
AcDbEntity
  8
0
 62
     7
 48
0.34
370
    60
100
AcDbLine
 10
298.1747767706083
 20
149.7072027467811
 30
0.0
 11
284.5747767706084
 21
149.7072027467811
 31
0.0
  0
LINE
  5
14D
330
1F
100
AcDbEntity
  8
0
 62
     7
 48
0.44
370
    60
100
AcDbLine
 10
306.6547757706082
 20
157.2272027467811
 30
0.0
 11
306.6547757706082
 21
139.6272017467811
 31
0.0
  0
LINE
  5
14E
330
1F
100
AcDbEntity
  8
0
 62
     7
 48
0.44
370
    60
100
AcDbLine
 10
284.0947767706082
 20
167.7872017467811
 30
0.0
 11
284.0947767706082
 21
150.1872017467811
 31
0.0
  0
LINE
  5
14F
330
1F
100
AcDbEntity
  8
0
 62
     7
 48
0.04
370
    60
100
AcDbLine
 10
298.6547757706082
 20
149.2272027467811
 30
0.0
 11
298.6547757706082
 21
147.6272027467811
 31
0.0
  0
LINE
  5
150
330
1F
100
AcDbEntity
  8
0
 62
     7
 48
0.176
370
    60
100
AcDbLine
 10
309.2147767706082
 20
146.6672027467811
 30
0.0
 11
309.2147767706082
 21
139.6272017467811
 31
0.0
  0
LINE
  5
151
330
1F
100
AcDbEntity
  8
0
 62
     7
 48
0.272841
370
    60
100
AcDbLine
 10
328.6084167706082
 20
160.2672027467811
 30
0.0
 11
317.6947747706083
 21
160.2672027467811
 31
0.0
  0
LINE
  5
152
330
1F
100
AcDbEntity
  8
0
 62
     7
 48
0.04
370
    60
100
AcDbLine
 10
317.2147767706082
 20
159.7872017467811
 30
0.0
 11
317.2147767706082
 21
158.1872017467811
 31
0.0
  0
LINE
  5
153
330
1F
100
AcDbEntity
  8
0
 62
     7
 48
0.308823
370
    60
100
AcDbLine
 10
330.0476807706083
 20
157.7072027467811
 30
0.0
 11
317.6947747706083
 21
157.7072027467811
 31
0.0
  0
ARC
  5
154
330
1F
100
AcDbEntity
  8
0
 62
     7
370
    60
100
AcDbCircle
 10
317.6947747706083
 20
158.1872017467811
 30
0.0
 40
0.4799999999999613
100
AcDbArc
 50
180.0
 51
270.000003
  0
ARC
  5
155
330
1F
100
AcDbEntity
  8
0
 62
     7
370
    60
100
AcDbCircle
 10
323.2947747706082
 20
149.2272027467811
 30
0.0
 40
0.4800000000000241
100
AcDbArc
 50
0.0000089999960747
 51
89.99999699999611
  0
ARC
  5
156
330
1F
100
AcDbEntity
  8
0
 62
     7
370
    60
100
AcDbCircle
 10
323.2947747706082
 20
147.6272027467811
 30
0.0
 40
0.4800000000000189
100
AcDbArc
 50
270.000003000001
 51
0.0000090000009261
  0
ARC
  5
157
330
1F
100
AcDbEntity
  8
0
 62
     7
370
    60
100
AcDbCircle
 10
316.4147767706082
 20
153.7072027467811
 30
0.0
 40
14.56000100000002
100
AcDbArc
 50
30.00001600000003
 51
89.99999700000004
  0
ARC
  5
158
330
1F
100
AcDbEntity
  8
0
 62
     7
370
    60
100
AcDbCircle
 10
328.6084167706082
 20
160.7472027467811
 30
0.0
 40
0.4800000000000189
100
AcDbArc
 50
270.000003000001
 51
30.00001600000089
  0
ARC
  5
159
330
1F
100
AcDbEntity
  8
0
 62
     7
370
    60
100
AcDbCircle
 10
330.0476807706083
 20
157.2272027467811
 30
0.0
 40
0.4800000000000423
100
AcDbArc
 50
14.47752399999882
 51
89.99999699999884
  0
ARC
  5
15A
330
1F
100
AcDbEntity
  8
0
 62
     7
370
    60
100
AcDbCircle
 10
309.6947747706083
 20
150.1872017467811
 30
0.0
 40
0.4799999999999613
100
AcDbArc
 50
180.0
 51
270.000003
  0
ARC
  5
15B
330
1F
100
AcDbEntity
  8
0
 62
     7
370
    60
100
AcDbCircle
 10
309.6947747706083
 20
146.6672027467811
 30
0.0
 40
0.4799999999999904
100
AcDbArc
 50
89.99999699999904
 51
179.999999999999
  0
POINT
  5
15C
330
1F
100
AcDbEntity
  8
0
 62
     7
370
    25
100
AcDbPoint
 10
279.5336577706083
 20
117.3270737467811
 30
0.0
  0
POINT
  5
15D
330
1F
100
AcDbEntity
  8
0
 62
     7
370
    25
100
AcDbPoint
 10
276.5336577706083
 20
117.4008957467811
 30
0.0
  0
POINT
  5
15E
330
1F
100
AcDbEntity
  8
0
 62
     7
370
    25
100
AcDbPoint
 10
281.6169937706082
 20
117.3270737467811
 30
0.0
  0
ARC
  5
15F
330
1F
100
AcDbEntity
  8
0
 62
     7
370
    25
100
AcDbCircle
 10
279.0753297706083
 20
117.3270737467811
 30
0.0
 40
2.541667000000008
100
AcDbArc
 50
79.6111409999993
 51
280.3888859999993
  0
LINE
  5
160
330
1F
100
AcDbEntity
  8
0
 62
     7
 48
0.125
370
    25
100
AcDbLine
 10
324.7298627706082
 20
115.0060597467811
 30
0.0
 11
324.7298627706082
 21
120.0060597467811
 31
0.0
  0
LINE
  5
161
330
1F
100
AcDbEntity
  8
0
 62
     7
 48
0.125
370
    25
100
AcDbLine
 10
311.6311157706082
 20
115.0060597467811
 30
0.0
 11
311.6311157706082
 21
120.0060597467811
 31
0.0
  0
LINE
  5
162
330
1F
100
AcDbEntity
  8
0
 62
     7
 48
0.0375
370
    25
100
AcDbLine
 10
310.1311157706082
 20
115.0060597467811
 30
0.0
 11
311.6311157706082
 21
115.0060597467811
 31
0.0
  0
LINE
  5
163
330
1F
100
AcDbEntity
  8
0
 62
     7
 48
0.160031
370
    25
100
AcDbLine
 10
303.7298627706082
 20
114.0060597467811
 30
0.0
 11
310.1311157706082
 21
114.0060597467811
 31
0.0
  0
LINE
  5
164
330
1F
100
AcDbEntity
  8
0
 62
     7
 48
0.026452
370
    25
100
AcDbLine
 10
303.7298627706082
 20
114.0060597467811
 30
0.0
 11
304.2701387706082
 21
114.9158227467811
 31
0.0
  0
LINE
  5
165
330
1F
100
AcDbEntity
  8
0
 62
     7
 48
0.020784
370
    25
100
AcDbLine
 10
304.2701387706082
 20
114.9158227467811
 30
0.0
 11
305.0261807706083
 21
115.2615527467811
 31
0.0
  0
LINE
  5
166
330
1F
100
AcDbEntity
  8
0
 62
     7
 48
0.015371
370
    25
100
AcDbLine
 10
305.0261807706083
 20
115.2615527467811
 30
0.0
 11
305.4212917706083
 21
115.7326527467811
 31
0.0
  0
LINE
  5
167
330
1F
100
AcDbEntity
  8
0
 62
     7
 48
0.018979
370
    25
100
AcDbLine
 10
304.4259077706083
 20
115.5654887467811
 30
0.0
 11
305.0831647706083
 21
115.9454097467811
 31
0.0
  0
LINE
  5
168
330
1F
100
AcDbEntity
  8
0
 62
     7
 48
0.0375
370
    25
100
AcDbLine
 10
302.2298627706082
 20
115.0060597467811
 30
0.0
 11
303.7298627706082
 21
115.0060597467811
 31
0.0
  0
LINE
  5
169
330
1F
100
AcDbEntity
  8
0
 62
     7
 48
0.125
370
    25
100
AcDbLine
 10
302.2298627706082
 20
115.0060597467811
 30
0.0
 11
302.2298627706082
 21
120.0060597467811
 31
0.0
  0
LINE
  5
16A
330
1F
100
AcDbEntity
  8
0
 62
     7
 48
0.0375
370
    25
100
AcDbLine
 10
302.2298627706082
 20
120.0060597467811
 30
0.0
 11
303.7298627706082
 21
120.0060597467811
 31
0.0
  0
LINE
  5
16B
330
1F
100
AcDbEntity
  8
0
 62
     7
 48
0.026452
370
    25
100
AcDbLine
 10
303.7298627706082
 20
121.0060597467811
 30
0.0
 11
304.2701387706082
 21
120.0962927467811
 31
0.0
  0
LINE
  5
16C
330
1F
100
AcDbEntity
  8
0
 62
     7
 48
0.020784
370
    25
100
AcDbLine
 10
304.2701387706082
 20
120.0962927467811
 30
0.0
 11
305.0261807706083
 21
119.7505627467811
 31
0.0
  0
LINE
  5
16D
330
1F
100
AcDbEntity
  8
0
 62
     7
 48
0.015371
370
    25
100
AcDbLine
 10
305.0261807706083
 20
119.7505627467811
 30
0.0
 11
305.4212917706083
 21
119.2794627467811
 31
0.0
  0
LINE
  5
16E
330
1F
100
AcDbEntity
  8
0
 62
     7
 48
0.013289
370
    25
100
AcDbLine
 10
305.4212917706083
 20
119.2794627467811
 30
0.0
 11
305.4820827706084
 21
118.7513747467811
 31
0.0
  0
LINE
  5
16F
330
1F
100
AcDbEntity
  8
0
 62
     7
 48
0.022941
370
    25
100
AcDbLine
 10
305.4820827706084
 20
118.7513747467811
 30
0.0
 11
306.3103067706082
 21
118.3562557467811
 31
0.0
  0
LINE
  5
170
330
1F
100
AcDbEntity
  8
0
 62
     7
 48
0.026309
370
    25
100
AcDbLine
 10
306.3103067706082
 20
118.3562557467811
 30
0.0
 11
306.9304857706082
 21
117.5060597467811
 31
0.0
  0
LINE
  5
171
330
1F
100
AcDbEntity
  8
0
 62
     7
 48
0.026309
370
    25
100
AcDbLine
 10
306.3103067706082
 20
116.6558587467811
 30
0.0
 11
306.9304857706082
 21
117.5060597467811
 31
0.0
  0
LINE
  5
172
330
1F
100
AcDbEntity
  8
0
 62
     7
 48
0.024633
370
    25
100
AcDbLine
 10
305.6986357706082
 20
116.7546367467811
 30
0.0
 11
306.3360027706083
 21
117.5060597467811
 31
0.0
  0
LINE
  5
173
330
1F
100
AcDbEntity
  8
0
 62
     7
 48
0.022941
370
    25
100
AcDbLine
 10
305.4820827706084
 20
116.2607437467811
 30
0.0
 11
306.3103067706082
 21
116.6558587467811
 31
0.0
  0
LINE
  5
174
330
1F
100
AcDbEntity
  8
0
 62
     7
 48
0.019027
370
    25
100
AcDbLine
 10
305.0413787706083
 20
116.3709197467811
 30
0.0
 11
305.6986357706082
 21
116.7546367467811
 31
0.0
  0
LINE
  5
175
330
1F
100
AcDbEntity
  8
0
 62
     7
 48
0.024633
370
    25
100
AcDbLine
 10
305.6986357706082
 20
118.2574787467811
 30
0.0
 11
306.3360027706083
 21
117.5060597467811
 31
0.0
  0
LINE
  5
176
330
1F
100
AcDbEntity
  8
0
 62
     7
 48
0.019027
370
    25
100
AcDbLine
 10
305.0413787706083
 20
118.6411987467811
 30
0.0
 11
305.6986357706082
 21
118.2574787467811
 31
0.0
  0
LINE
  5
177
330
1F
100
AcDbEntity
  8
0
 62
     7
 48
0.010689
370
    25
100
AcDbLine
 10
305.0413787706083
 20
118.6411987467811
 30
0.0
 11
305.0831647706083
 21
119.0667097467811
 31
0.0
  0
LINE
  5
178
330
1F
100
AcDbEntity
  8
0
 62
     7
 48
0.018979
370
    25
100
AcDbLine
 10
304.4259077706083
 20
119.4466267467811
 30
0.0
 11
305.0831647706083
 21
119.0667097467811
 31
0.0
  0
LINE
  5
179
330
1F
100
AcDbEntity
  8
0
 62
     7
 48
0.022325
370
    25
100
AcDbLine
 10
303.7298627706082
 20
120.0060597467811
 30
0.0
 11
304.4259077706083
 21
119.4466267467811
 31
0.0
  0
LINE
  5
17A
330
1F
100
AcDbEntity
  8
0
 62
     7
 48
0.022325
370
    25
100
AcDbLine
 10
303.7298627706082
 20
115.0060597467811
 30
0.0
 11
304.4259077706083
 21
115.5654887467811
 31
0.0
  0
LINE
  5
17B
330
1F
100
AcDbEntity
  8
0
 62
     7
 48
0.013289
370
    25
100
AcDbLine
 10
305.4212917706083
 20
115.7326527467811
 30
0.0
 11
305.4820827706084
 21
116.2607437467811
 31
0.0
  0
LINE
  5
17C
330
1F
100
AcDbEntity
  8
0
 62
     7
 48
0.010689
370
    25
100
AcDbLine
 10
305.0413787706083
 20
116.3709197467811
 30
0.0
 11
305.0831647706083
 21
115.9454097467811
 31
0.0
  0
LINE
  5
17D
330
1F
100
AcDbEntity
  8
0
 62
     7
 48
0.026309
370
    25
100
AcDbLine
 10
306.9304857706082
 20
117.5060597467811
 30
0.0
 11
307.5506707706082
 21
116.6558587467811
 31
0.0
  0
LINE
  5
17E
330
1F
100
AcDbEntity
  8
0
 62
     7
 48
0.024633
370
    25
100
AcDbLine
 10
307.5249757706084
 20
117.5060597467811
 30
0.0
 11
308.1623427706082
 21
116.7546367467811
 31
0.0
  0
LINE
  5
17F
330
1F
100
AcDbEntity
  8
0
 62
     7
 48
0.022941
370
    25
100
AcDbLine
 10
307.5506707706082
 20
116.6558587467811
 30
0.0
 11
308.3788957706083
 21
116.2607437467811
 31
0.0
  0
LINE
  5
180
330
1F
100
AcDbEntity
  8
0
 62
     7
 48
0.013289
370
    25
100
AcDbLine
 10
308.3788957706083
 20
116.2607437467811
 30
0.0
 11
308.4396787706083
 21
115.7326527467811
 31
0.0
  0
LINE
  5
181
330
1F
100
AcDbEntity
  8
0
 62
     7
 48
0.019027
370
    25
100
AcDbLine
 10
308.1623427706082
 20
116.7546367467811
 30
0.0
 11
308.8195997706084
 21
116.3709197467811
 31
0.0
  0
LINE
  5
182
330
1F
100
AcDbEntity
  8
0
 62
     7
 48
0.010689
370
    25
100
AcDbLine
 10
308.7778137706082
 20
115.9454097467811
 30
0.0
 11
308.8195997706084
 21
116.3709197467811
 31
0.0
  0
LINE
  5
183
330
1F
100
AcDbEntity
  8
0
 62
     7
 48
0.018979
370
    25
100
AcDbLine
 10
308.7778137706082
 20
115.9454097467811
 30
0.0
 11
309.4350707706083
 21
115.5654887467811
 31
0.0
  0
LINE
  5
184
330
1F
100
AcDbEntity
  8
0
 62
     7
 48
0.022325
370
    25
100
AcDbLine
 10
309.4350707706083
 20
115.5654887467811
 30
0.0
 11
310.1311157706082
 21
115.0060597467811
 31
0.0
  0
LINE
  5
185
330
1F
100
AcDbEntity
  8
0
 62
     7
 48
0.020784
370
    25
100
AcDbLine
 10
308.8347977706082
 20
115.2615527467811
 30
0.0
 11
309.5908397706083
 21
114.9158227467811
 31
0.0
  0
LINE
  5
186
330
1F
100
AcDbEntity
  8
0
 62
     7
 48
0.026452
370
    25
100
AcDbLine
 10
309.5908397706083
 20
114.9158227467811
 30
0.0
 11
310.1311157706082
 21
114.0060597467811
 31
0.0
  0
LINE
  5
187
330
1F
100
AcDbEntity
  8
0
 62
     7
 48
0.026309
370
    25
100
AcDbLine
 10
306.9304857706082
 20
117.5060597467811
 30
0.0
 11
307.5506707706082
 21
118.3562557467811
 31
0.0
  0
LINE
  5
188
330
1F
100
AcDbEntity
  8
0
 62
     7
 48
0.024633
370
    25
100
AcDbLine
 10
307.5249757706084
 20
117.5060597467811
 30
0.0
 11
308.1623427706082
 21
118.2574787467811
 31
0.0
  0
LINE
  5
189
330
1F
100
AcDbEntity
  8
0
 62
     7
 48
0.022941
370
    25
100
AcDbLine
 10
307.5506707706082
 20
118.3562557467811
 30
0.0
 11
308.3788957706083
 21
118.7513747467811
 31
0.0
  0
LINE
  5
18A
330
1F
100
AcDbEntity
  8
0
 62
     7
 48
0.019027
370
    25
100
AcDbLine
 10
308.1623427706082
 20
118.2574787467811
 30
0.0
 11
308.8195997706084
 21
118.6411987467811
 31
0.0
  0
LINE
  5
18B
330
1F
100
AcDbEntity
  8
0
 62
     7
 48
0.010689
370
    25
100
AcDbLine
 10
308.7778137706082
 20
119.0667097467811
 30
0.0
 11
308.8195997706084
 21
118.6411987467811
 31
0.0
  0
LINE
  5
18C
330
1F
100
AcDbEntity
  8
0
 62
     7
 48
0.018979
370
    25
100
AcDbLine
 10
308.7778137706082
 20
119.0667097467811
 30
0.0
 11
309.4350707706083
 21
119.4466267467811
 31
0.0
  0
LINE
  5
18D
330
1F
100
AcDbEntity
  8
0
 62
     7
 48
0.022325
370
    25
100
AcDbLine
 10
309.4350707706083
 20
119.4466267467811
 30
0.0
 11
310.1311157706082
 21
120.0060597467811
 31
0.0
  0
LINE
  5
18E
330
1F
100
AcDbEntity
  8
0
 62
     7
 48
0.0375
370
    25
100
AcDbLine
 10
310.1311157706082
 20
120.0060597467811
 30
0.0
 11
311.6311157706082
 21
120.0060597467811
 31
0.0
  0
LINE
  5
18F
330
1F
100
AcDbEntity
  8
0
 62
     7
 48
0.015372
370
    25
100
AcDbLine
 10
308.4396787706083
 20
119.2794627467811
 30
0.0
 11
308.8347977706082
 21
119.7505627467811
 31
0.0
  0
LINE
  5
190
330
1F
100
AcDbEntity
  8
0
 62
     7
 48
0.020784
370
    25
100
AcDbLine
 10
308.8347977706082
 20
119.7505627467811
 30
0.0
 11
309.5908397706083
 21
120.0962927467811
 31
0.0
  0
LINE
  5
191
330
1F
100
AcDbEntity
  8
0
 62
     7
 48
0.013289
370
    25
100
AcDbLine
 10
308.3788957706083
 20
118.7513747467811
 30
0.0
 11
308.4396787706083
 21
119.2794627467811
 31
0.0
  0
LINE
  5
192
330
1F
100
AcDbEntity
  8
0
 62
     7
 48
0.026452
370
    25
100
AcDbLine
 10
309.5908397706083
 20
120.0962927467811
 30
0.0
 11
310.1311157706082
 21
121.0060597467811
 31
0.0
  0
LINE
  5
193
330
1F
100
AcDbEntity
  8
0
 62
     7
 48
0.160031
370
    25
100
AcDbLine
 10
303.7298627706082
 20
121.0060597467811
 30
0.0
 11
310.1311157706082
 21
121.0060597467811
 31
0.0
  0
LINE
  5
194
330
1F
100
AcDbEntity
  8
0
 62
     7
 48
0.125
370
    25
100
AcDbLine
 10
293.2298627706082
 20
120.0060597467811
 30
0.0
 11
298.2298627706082
 21
120.0060597467811
 31
0.0
  0
LINE
  5
195
330
1F
100
AcDbEntity
  8
0
 62
     7
 48
0.139754
370
    25
100
AcDbLine
 10
293.2298627706082
 20
120.0060597467811
 30
0.0
 11
295.7298627706082
 21
115.0060597467811
 31
0.0
  0
LINE
  5
196
330
1F
100
AcDbEntity
  8
0
 62
     7
 48
0.139754
370
    25
100
AcDbLine
 10
295.7298627706082
 20
115.0060597467811
 30
0.0
 11
298.2298627706082
 21
120.0060597467811
 31
0.0
  0
LINE
  5
197
330
1F
100
AcDbEntity
  8
0
 62
     7
 48
0.018885
370
    25
100
AcDbLine
 10
331.4798627706082
 20
115.0185907467811
 30
0.0
 11
331.4798627706082
 21
115.7740077467811
 31
0.0
  0
ARC
  5
198
330
1F
100
AcDbEntity
  8
0
 62
     7
370
    25
100
AcDbCircle
 10
335.4798627706082
 20
117.5060597467811
 30
0.0
 40
1.750000000000001
100
AcDbArc
 50
81.78678900000018
 51
167.6263800000002
  0
LINE
  5
199
330
1F
100
AcDbEntity
  8
0
 62
     7
 48
0.036484
370
    25
100
AcDbLine
 10
333.7705157706084
 20
117.8810597467811
 30
0.0
 11
335.2298627706082
 21
117.8810597467811
 31
0.0
  0
LINE
  5
19A
330
1F
100
AcDbEntity
  8
0
 62
     7
 48
0.036484
370
    25
100
AcDbLine
 10
333.7705157706084
 20
117.1310597467811
 30
0.0
 11
335.2298627706082
 21
117.1310597467811
 31
0.0
  0
ARC
  5
19B
330
1F
100
AcDbEntity
  8
0
 62
     7
370
    25
100
AcDbCircle
 10
335.4798627706082
 20
117.5060597467811
 30
0.0
 40
2.499999999999983
100
AcDbArc
 50
84.26082700000033
 51
275.7391870000003
  0
LINE
  5
19C
330
1F
100
AcDbEntity
  8
0
 62
     7
 48
0.018886
370
    25
100
AcDbLine
 10
335.7298627706082
 20
119.2381077467811
 30
0.0
 11
335.7298627706082
 21
119.9935277467811
 31
0.0
  0
LINE
  5
19D
330
1F
100
AcDbEntity
  8
0
 62
     7
 48
0.018885
370
    25
100
AcDbLine
 10
335.7298627706082
 20
115.0185907467811
 30
0.0
 11
335.7298627706082
 21
115.7740077467811
 31
0.0
  0
ARC
  5
19E
330
1F
100
AcDbEntity
  8
0
 62
     7
370
    25
100
AcDbCircle
 10
335.4798627706082
 20
117.5060597467811
 30
0.0
 40
1.750000000000001
100
AcDbArc
 50
192.3736340000001
 51
278.213218
  0
ARC
  5
19F
330
1F
100
AcDbEntity
  8
0
 62
     7
370
    25
100
AcDbCircle
 10
331.2298627706082
 20
117.5060597467811
 30
0.0
 40
1.750000000000001
100
AcDbArc
 50
81.78678900000018
 51
278.2132180000002
  0
ARC
  5
1A0
330
1F
100
AcDbEntity
  8
0
 62
     7
370
    25
100
AcDbCircle
 10
331.2298627706082
 20
117.5060597467811
 30
0.0
 40
2.499999999999983
100
AcDbArc
 50
84.26082700000033
 51
275.7391870000003
  0
LINE
  5
1A1
330
1F
100
AcDbEntity
  8
0
 62
     7
 48
0.018886
370
    25
100
AcDbLine
 10
331.4798627706082
 20
119.2381077467811
 30
0.0
 11
331.4798627706082
 21
119.9935277467811
 31
0.0
  0
LINE
  5
1A2
330
1F
100
AcDbEntity
  8
0
 62
     7
 48
0.25
370
    25
100
AcDbLine
 10
314.7298627706082
 20
120.0060597467811
 30
0.0
 11
324.7298627706082
 21
120.0060597467811
 31
0.0
  0
LINE
  5
1A3
330
1F
100
AcDbEntity
  8
0
 62
     7
 48
0.25
370
    25
100
AcDbLine
 10
314.7298627706082
 20
115.0060597467811
 30
0.0
 11
324.7298627706082
 21
115.0060597467811
 31
0.0
  0
LINE
  5
1A4
330
1F
100
AcDbEntity
  8
0
 62
     7
 48
0.125
370
    25
100
AcDbLine
 10
314.7298627706082
 20
115.0060597467811
 30
0.0
 11
314.7298627706082
 21
120.0060597467811
 31
0.0
  0
LINE
  5
1A5
330
1F
100
AcDbEntity
  8
0
 62
     7
 48
0.0375
370
    25
100
AcDbLine
 10
283.5336577706083
 20
117.3270737467811
 30
0.0
 11
285.0336577706083
 21
117.3270737467811
 31
0.0
  0
LINE
  5
1A6
330
1F
100
AcDbEntity
  8
0
 62
     7
 48
0.125
370
    25
100
AcDbLine
 10
288.5336577706083
 20
114.8270737467811
 30
0.0
 11
288.5336577706083
 21
119.8270737467811
 31
0.0
  0
LINE
  5
1A7
330
1F
100
AcDbEntity
  8
0
 62
     7
 48
0.0375
370
    25
100
AcDbLine
 10
280.0338257706082
 20
117.3500647467811
 30
0.0
 11
281.5336727706082
 21
117.3282867467811
 31
0.0
  0
LINE
  5
1A8
330
1F
100
AcDbEntity
  8
0
 62
     7
 48
0.125
370
    25
100
AcDbLine
 10
279.5336577706083
 20
114.8270737467811
 30
0.0
 11
279.5336577706083
 21
119.8270737467811
 31
0.0
  0
LINE
  5
1A9
330
1F
100
AcDbEntity
  8
0
 62
     7
 48
0.015372
370
    25
100
AcDbLine
 10
308.4396787706083
 20
115.7326527467811
 30
0.0
 11
308.8347977706082
 21
115.2615527467811
 31
0.0
  0
LINE
  5
1AA
330
1F
100
AcDbEntity
  8
0
 62
     7
 48
0.01875
370
    25
100
AcDbLine
 10
335.2298627706082
 20
117.1310597467811
 30
0.0
 11
335.2298627706082
 21
117.8810597467811
 31
0.0
  0
LINE
  5
1AB
330
1F
100
AcDbEntity
  8
0
 62
     7
370
    60
100
AcDbLine
 10
477.01722517875
 20
68.64592274678112
 30
0.0
 11
477.01722517875
 21
422.6459307467811
 31
0.0
  0
LINE
  5
1AC
330
1F
100
AcDbEntity
  8
0
 62
     7
370
    60
100
AcDbLine
 10
481.01722517875
 20
68.64592274678112
 30
0.0
 11
481.01722517875
 21
422.6459307467811
 31
0.0
  0
LINE
  5
1AD
330
1F
100
AcDbEntity
  8
0
 62
     7
 48
0.075
370
    60
100
AcDbLine
 10
477.01722517875
 20
422.6459307467811
 30
0.0
 11
477.01722517875
 21
425.6459307467811
 31
0.0
  0
LINE
  5
1AE
330
1F
100
AcDbEntity
  8
0
 62
     7
 48
0.1
370
    60
100
AcDbLine
 10
477.01722517875
 20
425.6459307467811
 30
0.0
 11
481.01722517875
 21
425.6459307467811
 31
0.0
  0
LINE
  5
1AF
330
1F
100
AcDbEntity
  8
0
 62
     7
 48
0.075
370
    60
100
AcDbLine
 10
481.01722517875
 20
422.6459307467811
 30
0.0
 11
481.01722517875
 21
425.6459307467811
 31
0.0
  0
LINE
  5
1B0
330
1F
100
AcDbEntity
  8
0
 62
     7
 48
0.075
370
    60
100
AcDbLine
 10
477.01722517875
 20
65.64592274678112
 30
0.0
 11
477.01722517875
 21
68.64592274678112
 31
0.0
  0
LINE
  5
1B1
330
1F
100
AcDbEntity
  8
0
 62
     7
 48
0.1
370
    60
100
AcDbLine
 10
477.01722517875
 20
65.64592274678112
 30
0.0
 11
481.01722517875
 21
65.64592274678112
 31
0.0
  0
LINE
  5
1B2
330
1F
100
AcDbEntity
  8
0
 62
     7
 48
0.075
370
    60
100
AcDbLine
 10
481.01722517875
 20
65.64592274678112
 30
0.0
 11
481.01722517875
 21
68.64592274678112
 31
0.0
  0
LINE
  5
1B3
330
1F
100
AcDbEntity
  8
0
 62
     7
 48
0.06611
370
    25
100
AcDbLine
 10
314.5801047706083
 20
116.9905467467811
 30
0.0
 11
311.9357107706082
 21
116.9905467467811
 31
0.0
  0
TEXT
  5
1B4
330
1F
100
AcDbEntity
  8
0
 62
     7
370
    25
100
AcDbText
 10
295.3347437706083
 20
117.2954687467811
 30
0.0
 40
2.0
  1
F
 41
1.100000249999979
 72
     5
 11
296.8014107706082
 21
117.2954687467811
 31
0.0
100
AcDbText
  0
TEXT
  5
1B5
330
1F
100
AcDbEntity
  8
0
 62
     7
370
    25
100
AcDbText
 10
281.3779797706084
 20
116.1454557467811
 30
0.0
 40
3.0
  1
1
 41
2.199996999999883
 72
     5
 11
283.5779767706082
 21
116.1454557467811
 31
0.0
100
AcDbText
  0
TEXT
  5
1B6
330
1F
100
AcDbEntity
  8
0
 62
     7
370
    25
100
AcDbText
 10
285.6151997706082
 20
116.7263047467811
 30
0.0
 40
2.0
  1
m
 41
1.100001000000105
 72
     5
 11
287.0818677706084
 21
116.7263047467811
 31
0.0
100
AcDbText
  0
TEXT
  5
1B7
330
1F
100
AcDbEntity
  8
0
 62
     7
370
    25
100
AcDbText
 10
338.7633477706083
 20
115.1277447467811
 30
0.0
 40
5.0
  1
IP 66
 41
1.030769353846158
 72
     5
 11
361.0966837706084
 21
115.1277447467811
 31
0.0
100
AcDbText
  0
LINE
  5
1B8
330
1F
100
AcDbEntity
  8
0
 62
     7
 48
0.028253
370
    25
100
AcDbLine
 10
289.2345387706084
 20
114.8270737467811
 30
0.0
 11
290.0336577706083
 21
115.6261997467811
 31
0.0
  0
LINE
  5
1B9
330
1F
100
AcDbEntity
  8
0
 62
     7
 48
0.053033
370
    25
100
AcDbLine
 10
288.5336577706083
 20
116.9546257467811
 30
0.0
 11
290.0336577706083
 21
118.4546257467811
 31
0.0
  0
LINE
  5
1BA
330
1F
100
AcDbEntity
  8
0
 62
     7
 48
0.001556
370
    25
100
AcDbLine
 10
288.5336577706083
 20
119.7830557467811
 30
0.0
 11
288.5776787706084
 21
119.8270737467811
 31
0.0
  0
LINE
  5
1BB
330
1F
100
AcDbEntity
  8
0
 62
     7
370
    25
100
AcDbLine
 10
312.6482547706083
 20
116.4729077467811
 30
0.0
 11
314.5801047706083
 21
116.9905467467811
 31
0.0
  0
LINE
  5
1BC
330
1F
100
AcDbEntity
  8
0
 62
     7
370
    25
100
AcDbLine
 10
314.5801047706083
 20
116.9905467467811
 30
0.0
 11
312.6482547706083
 21
117.5081857467811
 31
0.0
  0
LINE
  5
1BD
330
1F
100
AcDbEntity
  8
0
 62
     7
370
    25
100
AcDbLine
 10
312.6482547706083
 20
116.4729077467811
 30
0.0
 11
312.6482547706083
 21
117.5081857467811
 31
0.0
  0
DIMENSION
  5
1BE
330
1F
100
AcDbEntity
  8
0
370
    25
100
AcDbDimension
  2
*D7
 10
481.01722517875
 20
438.3223783923422
 30
0.0
 11
510.6838918454167
 21
450.3223783923422
 31
0.0
 70
    32
 71
     5
 41
2.5
 42
4.0
  3
Standard
100
AcDbAlignedDimension
 13
477.01722517875
 23
404.7974291435763
 33
0.0
 14
481.01722517875
 24
404.7974291435763
 34
0.0
100
AcDbRotatedDimension
1001
ACAD
1000
DSTYLE
1002
{
1070
   171
1070
     3
1070
   143
1040
0.03937
1070
   274
1070
     3
1070
    41
1040
10.0
1070
   289
1070
     0
1070
   141
1040
2.5
1070
   176
1070
     7
1070
   177
1070
     7
1070
   271
1070
     2
1070
    43
1040
3.75
1070
   278
1070
    44
1070
    44
1040
1.25
1070
    42
1040
0.625
1070
   147
1040
5.0
1070
    77
1070
     1
1070
   272
1070
     2
1070
    73
1070
     0
1070
   172
1070
     1
1070
    74
1070
     0
1070
   283
1070
     0
1070
   140
1040
14.0
1070
   284
1070
     8
1070
    78
1070
     8
1002
}
  0
DIMENSION
  5
1BF
330
1F
100
AcDbEntity
  8
0
370
    25
100
AcDbDimension
  2
*D13
 10
406.1380750277144
 20
202.7517737467811
 30
0.0
 11
394.1380750277144
 21
306.7727202467811
 31
0.0
 70
    32
  1
208
 71
     5
 41
2.5
 42
208.041893
  3
Standard
100
AcDbAlignedDimension
 13
243.0919526696452
 23
410.7936667467811
 33
0.0
 14
243.0919526696452
 24
202.7517737467811
 34
0.0
 50
90.0
100
AcDbRotatedDimension
1001
ACAD
1000
DSTYLE
1002
{
1070
   171
1070
     3
1070
   143
1040
0.03937
1070
   274
1070
     3
1070
    41
1040
10.0
1070
   289
1070
     0
1070
   141
1040
2.5
1070
   176
1070
     7
1070
   177
1070
     7
1070
   271
1070
     2
1070
    43
1040
3.75
1070
   278
1070
    44
1070
    44
1040
1.25
1070
    42
1040
0.625
1070
   147
1040
5.0
1070
    77
1070
     1
1070
   272
1070
     2
1070
    73
1070
     0
1070
   172
1070
     1
1070
    74
1070
     0
1070
   283
1070
     0
1070
   140
1040
14.0
1070
   284
1070
     8
1070
    78
1070
     8
1002
}
  0
DIMENSION
  5
1C0
330
1F
100
AcDbEntity
  8
0
100
AcDbDimension
  2
*D9
 10
406.129152260982
 20
410.7936667467811
 30
0.0
 11
394.129152260982
 21
449.9792640801145
 31
0.0
 70
   160
  1
15
 71
     5
 41
2.5
 42
14.85226399999999
  3
Standard
100
AcDbAlignedDimension
 13
257.5452270038762
 23
425.6459307467811
 33
0.0
 14
257.5452275038762
 24
410.7936667467811
 34
0.0
 50
90.0
100
AcDbRotatedDimension
1001
ACAD
1000
DSTYLE
1002
{
1070
   171
1070
     3
1070
   143
1040
0.03937
1070
   274
1070
     3
1070
    41
1040
10.0
1070
   289
1070
     0
1070
   141
1040
2.5
1070
   176
1070
     7
1070
   177
1070
     7
1070
   271
1070
     2
1070
    43
1040
3.75
1070
   278
1070
    44
1070
    44
1040
1.25
1070
    42
1040
0.625
1070
   147
1040
5.0
1070
    77
1070
     1
1070
   272
1070
     2
1070
    73
1070
     0
1070
   172
1070
     1
1070
    74
1070
     0
1070
   283
1070
     0
1070
   140
1040
14.0
1070
   284
1070
     8
1070
    78
1070
     8
1002
}
  0
DIMENSION
  5
1C1
330
1F
100
AcDbEntity
  8
0
370
    25
100
AcDbDimension
  2
*D10
 10
433.7976850706011
 20
65.6459237467811
 30
0.0
 11
421.7976850706011
 21
245.6459272467811
 31
0.0
 70
    32
 71
     5
 41
2.5
 42
360.000007
  3
Standard
100
AcDbAlignedDimension
 13
258.8041497706083
 23
425.6459307467811
 33
0.0
 14
258.8041497706083
 24
65.64592374678111
 34
0.0
 50
90.0
100
AcDbRotatedDimension
1001
ACAD
1000
DSTYLE
1002
{
1070
   171
1070
     3
1070
   143
1040
0.03937
1070
   274
1070
     3
1070
    41
1040
10.0
1070
   289
1070
     0
1070
   141
1040
2.5
1070
   176
1070
     7
1070
   271
1070
     2
1070
    43
1040
3.75
1070
   278
1070
    44
1070
    44
1040
1.25
1070
    42
1040
0.625
1070
   147
1040
5.0
1070
    77
1070
     1
1070
   272
1070
     2
1070
    73
1070
     0
1070
   172
1070
     1
1070
    74
1070
     0
1070
   283
1070
     0
1070
   140
1040
14.0
1070
   284
1070
     8
1070
    78
1070
     8
1002
}
  0
DIMENSION
  5
1C2
330
1F
100
AcDbEntity
  8
0
370
    25
100
AcDbDimension
  2
*D11
 10
327.3733119296402
 20
438.3223783923422
 30
0.0
 11
262.2673876157515
 21
450.3223783923422
 31
0.0
 70
   160
  1
137
 71
     5
 41
2.5
 42
137.1383230074799
  3
Standard
100
AcDbAlignedDimension
 13
190.2349889221604
 23
410.79366818781
 33
0.0
 14
327.3733119296402
 24
410.7936662503288
 34
0.0
100
AcDbRotatedDimension
1001
ACAD
1000
DSTYLE
1002
{
1070
   171
1070
     3
1070
   143
1040
0.03937
1070
   274
1070
     3
1070
    41
1040
10.0
1070
   289
1070
     0
1070
   141
1040
2.5
1070
   176
1070
     7
1070
   177
1070
     7
1070
   271
1070
     2
1070
    43
1040
3.75
1070
   278
1070
    44
1070
    44
1040
1.25
1070
    42
1040
0.625
1070
   147
1040
5.0
1070
    77
1070
     1
1070
   272
1070
     2
1070
    73
1070
     0
1070
   172
1070
     1
1070
    74
1070
     0
1070
   283
1070
     0
1070
   140
1040
14.0
1070
   284
1070
     8
1070
    78
1070
     8
1002
}
  0
DIMENSION
  5
1C3
330
1F
100
AcDbEntity
  8
0
370
    25
100
AcDbDimension
  2
*D12
 10
378.3041497706084
 20
465.8868785202736
 30
0.0
 11
258.8041497706083
 21
477.8868785202736
 31
0.0
 70
   160
 71
     5
 41
2.5
 42
239.0000000000001
  3
Standard
100
AcDbAlignedDimension
 13
139.3041497706083
 23
382.7035920564929
 33
0.0
 14
378.3041497706084
 24
382.7035920564929
 34
0.0
100
AcDbRotatedDimension
1001
ACAD
1000
DSTYLE
1002
{
1070
   171
1070
     3
1070
   143
1040
0.03937
1070
   274
1070
     3
1070
    41
1040
10.0
1070
   289
1070
     0
1070
   141
1040
2.5
1070
   176
1070
     7
1070
   177
1070
     7
1070
   271
1070
     2
1070
    43
1040
3.75
1070
   278
1070
    44
1070
    44
1040
1.25
1070
    42
1040
0.625
1070
   147
1040
5.0
1070
    77
1070
     1
1070
   272
1070
     2
1070
    73
1070
     0
1070
   172
1070
     1
1070
    74
1070
     0
1070
   283
1070
     0
1070
   140
1040
14.0
1070
   284
1070
     8
1070
    78
1070
     8
1002
}
  0
POINT
  5
1C4
330
1F
100
AcDbEntity
  8
0
 62
     7
370
    60
100
AcDbPoint
 10
317.2061087706082
 20
202.7517737467811
 30
0.0
  0
LINE
  5
1C5
330
1F
100
AcDbEntity
  8
0
 62
     7
 48
0.176
370
    60
100
AcDbLine
 10
230.1747767706082
 20
167.7872017467811
 30
0.0
 11
230.1747767706082
 21
160.7472027467811
 31
0.0
  0
LINE
  5
1C6
330
1F
100
AcDbEntity
  8
0
 62
     7
 48
0.076
370
    60
100
AcDbLine
 10
229.6947747706083
 20
160.2672027467811
 30
0.0
 11
226.6547757706083
 21
160.2672027467811
 31
0.0
  0
ARC
  5
1C7
330
1F
100
AcDbEntity
  8
0
 62
     7
370
    60
100
AcDbCircle
 10
226.6547757706083
 20
158.1872017467811
 30
0.0
 40
0.4800000000000182
100
AcDbArc
 50
180.0
 51
270.000003
  0
ARC
  5
1C8
330
1F
100
AcDbEntity
  8
0
 62
     7
370
    60
100
AcDbCircle
 10
215.1347777706084
 20
139.6272017467811
 30
0.0
 40
0.4800000000000189
100
AcDbArc
 50
270.000003000001
 51
0.0000090000009261
  0
ARC
  5
1C9
330
1F
100
AcDbEntity
  8
0
 62
     7
370
    60
100
AcDbCircle
 10
240.2547757706083
 20
139.6272017467811
 30
0.0
 40
0.4800000000000189
100
AcDbArc
 50
270.000003000001
 51
0.0000090000009261
  0
LINE
  5
1CA
330
1F
100
AcDbEntity
  8
0
 62
     7
 48
0.362482
370
    60
100
AcDbLine
 10
247.7140437706082
 20
168.2672027467811
 30
0.0
 11
233.2147767706083
 21
168.2672027467811
 31
0.0
  0
LINE
  5
1CB
330
1F
100
AcDbEntity
  8
0
 62
     7
 48
0.180654
370
    60
100
AcDbLine
 10
254.3412697706082
 20
139.1472027467811
 30
0.0
 11
247.1151087706083
 21
139.1472027467811
 31
0.0
  0
LINE
  5
1CC
330
1F
100
AcDbEntity
  8
0
 62
     7
 48
0.296104
370
    60
100
AcDbLine
 10
257.1347767706084
 20
151.1472027467811
 30
0.0
 11
254.8119487706083
 21
139.5330667467811
 31
0.0
  0
LINE
  5
1CD
330
1F
100
AcDbEntity
  8
0
 62
     7
 48
0.306785
370
    60
100
AcDbLine
 10
250.9747767706083
 20
155.9472027467811
 30
0.0
 11
248.1814417706082
 21
167.8964647467811
 31
0.0
  0
LINE
  5
1CE
330
1F
100
AcDbEntity
  8
0
 62
     7
 48
0.168
370
    60
100
AcDbLine
 10
316.4147767706082
 20
168.2672027467811
 30
0.0
 11
309.6947747706083
 21
168.2672027467811
 31
0.0
  0
LINE
  5
1CF
330
1F
100
AcDbEntity
  8
0
 62
     7
 48
0.168
370
    60
100
AcDbLine
 10
316.4147767706082
 20
139.1472027467811
 30
0.0
 11
309.6947747706083
 21
139.1472027467811
 31
0.0
  0
LINE
  5
1D0
330
1F
100
AcDbEntity
  8
0
 62
     7
 48
0.34
370
    60
100
AcDbLine
 10
323.2947747706082
 20
149.7072027467811
 30
0.0
 11
309.6947747706083
 21
149.7072027467811
 31
0.0
  0
LINE
  5
1D1
330
1F
100
AcDbEntity
  8
0
 62
     7
 48
0.34
370
    60
100
AcDbLine
 10
323.2947747706082
 20
147.1472017467811
 30
0.0
 11
309.6947747706083
 21
147.1472017467811
 31
0.0
  0
LINE
  5
1D2
330
1F
100
AcDbEntity
  8
0
 62
     7
 48
0.04
370
    60
100
AcDbLine
 10
323.7747737706084
 20
149.2272027467811
 30
0.0
 11
323.7747737706084
 21
147.6272027467811
 31
0.0
  0
LINE
  5
1D3
330
1F
100
AcDbEntity
  8
0
 62
     7
 48
0.44
370
    60
100
AcDbLine
 10
309.2147767706082
 20
167.7872017467811
 30
0.0
 11
309.2147767706082
 21
150.1872017467811
 31
0.0
  0
ARC
  5
1D4
330
1F
100
AcDbEntity
  8
0
 62
     7
370
    60
100
AcDbCircle
 10
316.4147767706082
 20
153.7072027467811
 30
0.0
 40
14.56000099999999
100
AcDbArc
 50
270.0000030000001
 51
14.4775240000001
  0
ARC
  5
1D5
330
1F
100
AcDbEntity
  8
0
 62
     7
370
    60
100
AcDbCircle
 10
241.3944437706083
 20
159.7872017467811
 30
0.0
 40
0.4799999999999737
100
AcDbArc
 50
13.21634300000075
 51
89.99999700000076
  0
ARC
  5
1D6
330
1F
100
AcDbEntity
  8
0
 62
     7
370
    60
100
AcDbCircle
 10
247.1151087706083
 20
139.6272017467811
 30
0.0
 40
0.4799999999999993
100
AcDbArc
 50
193.2163240000025
 51
270.0000030000025
  0
ARC
  5
1D7
330
1F
100
AcDbEntity
  8
0
 62
     7
370
    60
100
AcDbCircle
 10
254.3412697706082
 20
139.6272017467811
 30
0.0
 40
0.4800000000000189
100
AcDbArc
 50
270.000003000001
 51
348.690072000001
  0
ARC
  5
1D8
330
1F
100
AcDbEntity
  8
0
 62
     7
370
    60
100
AcDbCircle
 10
247.7140437706082
 20
167.7872017467811
 30
0.0
 40
0.4800000000000124
100
AcDbArc
 50
13.15756199999974
 51
89.99999699999975
  0
ARC
  5
1D9
330
1F
100
AcDbEntity
  8
0
 62
     7
370
    60
100
AcDbCircle
 10
253.3831377706082
 20
167.7872017467811
 30
0.0
 40
0.4799999999999904
100
AcDbArc
 50
89.99999699999904
 51
170.779171999999
  0
ARC
  5
1DA
330
1F
100
AcDbEntity
  8
0
 62
     7
370
    60
100
AcDbCircle
 10
260.8864147706083
 20
167.7872017467811
 30
0.0
 40
0.479999999999997
100
AcDbArc
 50
9.220831999998252
 51
89.99999699999827
  0
ARC
  5
1DB
330
1F
100
AcDbEntity
  8
0
 62
     7
370
    60
100
AcDbCircle
 10
266.5555097706083
 20
167.7872017467811
 30
0.0
 40
0.4799999999999904
100
AcDbArc
 50
89.99999699999904
 51
166.842469999999
  0
ARC
  5
1DC
330
1F
100
AcDbEntity
  8
0
 62
     7
370
    60
100
AcDbCircle
 10
281.0547757706083
 20
167.7872017467811
 30
0.0
 40
0.4800000000000241
100
AcDbArc
 50
0.0000089999994673
 51
89.99999699999948
  0
ARC
  5
1DD
330
1F
100
AcDbEntity
  8
0
 62
     7
370
    60
100
AcDbCircle
 10
281.0547757706083
 20
160.7472027467811
 30
0.0
 40
0.4800000000000189
100
AcDbArc
 50
270.000003000001
 51
0.0000090000009261
  0
ARC
  5
1DE
330
1F
100
AcDbEntity
  8
0
 62
     7
370
    60
100
AcDbCircle
 10
272.8751077706083
 20
159.7872017467811
 30
0.0
 40
0.4799999999999904
100
AcDbArc
 50
89.99999699999904
 51
166.783674999999
  0
ARC
  5
1DF
330
1F
100
AcDbEntity
  8
0
 62
     7
370
    60
100
AcDbCircle
 10
267.1544447706083
 20
139.6272017467811
 30
0.0
 40
0.4800000000000189
100
AcDbArc
 50
270.000003000001
 51
346.7836710000009
  0
ARC
  5
1E0
330
1F
100
AcDbEntity
  8
0
 62
     7
370
    60
100
AcDbCircle
 10
259.9282827706082
 20
139.6272017467811
 30
0.0
 40
0.480000000000008
100
AcDbArc
 50
191.3099330000023
 51
270.0000030000023
  0
ARC
  5
1E1
330
1F
100
AcDbEntity
  8
0
 62
     7
370
    60
100
AcDbCircle
 10
274.0147767706084
 20
157.2272027467811
 30
0.0
 40
0.4799999999999904
100
AcDbArc
 50
89.99999699999904
 51
179.999999999999
  0
ARC
  5
1E2
330
1F
100
AcDbEntity
  8
0
 62
     7
370
    60
100
AcDbCircle
 10
274.0147767706084
 20
139.6272017467811
 30
0.0
 40
0.4800000000000182
100
AcDbArc
 50
180.0
 51
270.000003
  0
ARC
  5
1E3
330
1F
100
AcDbEntity
  8
0
 62
     7
370
    60
100
AcDbCircle
 10
281.0547757706083
 20
139.6272017467811
 30
0.0
 40
0.4800000000000189
100
AcDbArc
 50
270.000003000001
 51
0.0000090000009261
  0
ARC
  5
1E4
330
1F
100
AcDbEntity
  8
0
 62
     7
370
    60
100
AcDbCircle
 10
281.0547757706083
 20
157.2272027467811
 30
0.0
 40
0.4800000000000241
100
AcDbArc
 50
0.0000089999960747
 51
89.99999699999611
  0
ARC
  5
1E5
330
1F
100
AcDbEntity
  8
0
 62
     7
370
    60
100
AcDbCircle
 10
284.5747767706084
 20
167.7872017467811
 30
0.0
 40
0.4799999999999904
100
AcDbArc
 50
89.99999699999904
 51
179.999999999999
  0
ARC
  5
1E6
330
1F
100
AcDbEntity
  8
0
 62
     7
370
    60
100
AcDbCircle
 10
306.1747767706083
 20
167.7872017467811
 30
0.0
 40
0.4800000000000241
100
AcDbArc
 50
0.0000089999994673
 51
89.99999699999948
  0
ARC
  5
1E7
330
1F
100
AcDbEntity
  8
0
 62
     7
370
    60
100
AcDbCircle
 10
306.1747767706083
 20
160.7472027467811
 30
0.0
 40
0.4800000000000189
100
AcDbArc
 50
270.000003000001
 51
0.0000090000009261
  0
ARC
  5
1E8
330
1F
100
AcDbEntity
  8
0
 62
     7
370
    60
100
AcDbCircle
 10
292.5747767706084
 20
159.7872017467811
 30
0.0
 40
0.4799999999999904
100
AcDbArc
 50
89.99999699999904
 51
179.999999999999
  0
ARC
  5
1E9
330
1F
100
AcDbEntity
  8
0
 62
     7
370
    60
100
AcDbCircle
 10
292.5747767706084
 20
158.1872017467811
 30
0.0
 40
0.4800000000000182
100
AcDbArc
 50
180.0
 51
270.000003
  0
ARC
  5
1EA
330
1F
100
AcDbEntity
  8
0
 62
     7
370
    60
100
AcDbCircle
 10
284.5747767706084
 20
139.6272017467811
 30
0.0
 40
0.4800000000000182
100
AcDbArc
 50
180.0
 51
270.000003
  0
ARC
  5
1EB
330
1F
100
AcDbEntity
  8
0
 62
     7
370
    60
100
AcDbCircle
 10
284.5747767706084
 20
146.6672027467811
 30
0.0
 40
0.4799999999999904
100
AcDbArc
 50
89.99999699999904
 51
179.999999999999
  0
ARC
  5
1EC
330
1F
100
AcDbEntity
  8
0
 62
     7
370
    60
100
AcDbCircle
 10
298.1747767706083
 20
147.6272027467811
 30
0.0
 40
0.4800000000000189
100
AcDbArc
 50
270.000003000001
 51
0.0000090000009261
  0
ARC
  5
1ED
330
1F
100
AcDbEntity
  8
0
 62
     7
370
    60
100
AcDbCircle
 10
306.1747767706083
 20
157.2272027467811
 30
0.0
 40
0.4800000000000241
100
AcDbArc
 50
0.0000089999960747
 51
89.99999699999611
  0
ARC
  5
1EE
330
1F
100
AcDbEntity
  8
0
 62
     7
370
    60
100
AcDbCircle
 10
306.1747767706083
 20
139.6272017467811
 30
0.0
 40
0.4800000000000189
100
AcDbArc
 50
270.000003000001
 51
0.0000090000009261
  0
ARC
  5
1EF
330
1F
100
AcDbEntity
  8
0
 62
     7
370
    60
100
AcDbCircle
 10
284.5747767706084
 20
150.1872017467811
 30
0.0
 40
0.4800000000000182
100
AcDbArc
 50
180.0
 51
270.000003
  0
ARC
  5
1F0
330
1F
100
AcDbEntity
  8
0
 62
     7
370
    60
100
AcDbCircle
 10
298.1747767706083
 20
149.2272027467811
 30
0.0
 40
0.4800000000000241
100
AcDbArc
 50
0.0000089999960747
 51
89.99999699999611
  0
ARC
  5
1F1
330
1F
100
AcDbEntity
  8
0
 62
     7
370
    60
100
AcDbCircle
 10
309.6947747706083
 20
167.7872017467811
 30
0.0
 40
0.4799999999999904
100
AcDbArc
 50
89.99999699999904
 51
179.999999999999
  0
ARC
  5
1F2
330
1F
100
AcDbEntity
  8
0
 62
     7
370
    60
100
AcDbCircle
 10
309.6947747706083
 20
139.6272017467811
 30
0.0
 40
0.4799999999999613
100
AcDbArc
 50
180.0
 51
270.000003
  0
ARC
  5
1F3
330
1F
100
AcDbEntity
  8
0
 62
     7
370
    60
100
AcDbCircle
 10
317.6947747706083
 20
159.7872017467811
 30
0.0
 40
0.4799999999999904
100
AcDbArc
 50
89.99999699999904
 51
179.999999999999
  0
LINE
  5
283
330
1F
100
AcDbEntity
  8
STANDARD_LAYER
370
    60
100
AcDbLine
 10
243.2891550792825
 20
327.3001557817196
 30
0.0
 11
263.9708368392823
 21
355.2127724617185
 31
0.0
  0
LINE
  5
284
330
1F
100
AcDbEntity
  8
STANDARD_LAYER
370
    60
100
AcDbLine
 10
232.0609663992824
 20
298.2117775617195
 30
0.0
 11
252.7438905192822
 21
326.1245818017186
 31
0.0
  0
LINE
  5
285
330
1F
100
AcDbEntity
  8
STANDARD_LAYER
370
    60
100
AcDbLine
 10
227.0387417592825
 20
318.7781900417195
 30
0.0
 11
247.7208619992822
 21
346.6913381417195
 31
0.0
  0
LINE
  5
286
330
1F
100
AcDbEntity
  8
STANDARD_LAYER
370
    60
100
AcDbLine
 10
260.7210005592825
 20
286.1648821217196
 30
0.0
 11
281.4034861992824
 21
314.0776655217186
 31
0.0
  0
LINE
  5
287
330
1F
100
AcDbEntity
  8
STANDARD_LAYER
370
    60
100
AcDbLine
 10
277.8580935192823
 20
297.6237457017186
 30
0.0
 11
298.5403181592825
 21
325.5359976817196
 31
0.0
  0
VIEWPORT
  5
BB
330
73
100
AcDbEntity
 67
     1
  8
0
100
AcDbViewport
 10
7.8
 20
4.5
 30
0.0
 40
15.64
 41
9.0
 68
     1
 69
     1
 12
6.0
 22
4.5
 13
0.0
 23
0.0
 14
0.5
 24
0.5
 15
0.5
 25
0.5
 16
0.0
 26
0.0
 36
1.0
 17
0.0
 27
0.0
 37
0.0
 42
50.0
 43
0.0
 44
0.0
 45
12.0
 50
0.0
 51
0.0
 72
   100
 90
   557152
  1

281
     0
 71
     1
 74
     0
110
0.0
120
0.0
130
0.0
111
1.0
121
0.0
131
0.0
112
0.0
122
1.0
132
0.0
 79
     0
146
0.0
  0
ENDSEC
  0
SECTION
  2
OBJECTS
  0
DICTIONARY
  5
C
330
0
100
AcDbDictionary
281
     1
  3
ACAD_COLOR
350
6C
  3
ACAD_GROUP
350
D
  3
ACAD_LAYOUT
350
1A
  3
ACAD_MATERIAL
350
6B
  3
ACAD_MLEADERSTYLE
350
2B5
  3
ACAD_MLINESTYLE
350
17
  3
ACAD_PLOTSETTINGS
350
19
  3
ACAD_PLOTSTYLENAME
350
E
  3
ACAD_SCALELIST
350
99
  3
ACAD_TABLESTYLE
350
92
  3
ACDBHEADERROUNDTRIPXREC
350
2B6
  3
AcDbVariableDictionary
350
59
  3
DWGPROPS
350
2B9
  0
DICTIONARY
  5
6C
102
{ACAD_REACTORS
330
C
102
}
330
C
100
AcDbDictionary
281
     1
  0
DICTIONARY
  5
D
102
{ACAD_REACTORS
330
C
102
}
330
C
100
AcDbDictionary
281
     1
  0
DICTIONARY
  5
1A
102
{ACAD_REACTORS
330
C
102
}
330
C
100
AcDbDictionary
281
     1
  3
Layout1
350
74
  3
Layout2
350
297
  3
Model
350
22
  0
DICTIONARY
  5
6B
102
{ACAD_REACTORS
330
C
102
}
330
C
100
AcDbDictionary
281
     1
  0
DICTIONARY
  5
2B5
102
{ACAD_REACTORS
330
C
102
}
330
C
100
AcDbDictionary
281
     1
  0
DICTIONARY
  5
17
102
{ACAD_REACTORS
330
C
102
}
330
C
100
AcDbDictionary
281
     1
  3
Standard
350
18
  0
DICTIONARY
  5
19
102
{ACAD_REACTORS
330
C
102
}
330
C
100
AcDbDictionary
281
     1
  0
ACDBDICTIONARYWDFLT
  5
E
102
{ACAD_REACTORS
330
C
102
}
330
C
100
AcDbDictionary
281
     1
  3
Normal
350
F
100
AcDbDictionaryWithDefault
340
F
  0
DICTIONARY
  5
99
102
{ACAD_REACTORS
330
C
102
}
330
C
100
AcDbDictionary
281
     1
  3
A0
350
D5
  3
A1
350
D6
  3
A2
350
D7
  3
A3
350
D8
  3
A4
350
D9
  3
A5
350
DA
  3
A6
350
DB
  3
A7
350
DC
  3
A8
350
DD
  3
A9
350
DE
  3
B0
350
DF
  3
B1
350
E0
  3
B2
350
E1
  3
B3
350
E2
  3
B4
350
E3
  3
B5
350
E4
  3
B6
350
E5
  3
B7
350
E6
  3
B8
350
E7
  3
B9
350
E8
  3
C0
350
E9
  3
C1
350
EA
  3
C2
350
EB
  3
C3
350
EC
  3
C4
350
ED
  3
C5
350
EE
  3
C6
350
EF
  3
C7
350
F0
  3
C8
350
F1
  3
C9
350
F2
  3
D0
350
F3
  3
D1
350
F4
  3
D2
350
F5
  0
DICTIONARY
  5
92
102
{ACAD_REACTORS
330
C
102
}
330
C
100
AcDbDictionary
281
     1
  0
DICTIONARY
  5
2B6
102
{ACAD_REACTORS
330
C
102
}
330
C
100
AcDbDictionary
281
     1
  3
COLORDICT
350
2B7
  3
MATERIALDICT
350
2B8
  0
DICTIONARY
  5
59
102
{ACAD_REACTORS
330
C
102
}
330
C
100
AcDbDictionary
281
     1
  3
CTABLESTYLE
350
98
  3
DIMASSOC
350
5A
  3
HIDETEXT
350
5E
  0
XRECORD
  5
2B9
102
{ACAD_REACTORS
330
C
102
}
330
C
100
AcDbXrecord
280
     1
  1
DWGPROPS COOKIE
  2

  3

  4

  6

  7

  8
BelottiMc
  9

300
=
301
=
302
=
303
=
304
=
305
=
306
=
307
=
308
=
309
=
 40
0.0
 41
2455098.381060394
 42
2455098.422727048
  1

 90
        0
  0
LAYOUT
  5
74
102
{ACAD_REACTORS
330
1A
102
}
330
1A
100
AcDbPlotSettings
  1

  2
ProgeSOFT PDF Wizard
  4
A4
  6

 40
5.926666666666667
 41
6.011333333333317
 42
6.095999999999985
 43
5.926666666666667
 44
210.0
 45
297.0
 46
88.56200000000001
 47
136.531
 48
0.0
 49
0.0
140
0.0
141
0.0
142
1.0
143
1.0
 70
   692
 72
     1
 73
     0
 74
     0
  7

 75
    16
147
1.0
148
4.426666666666668
149
1.5
100
AcDbLayout
  1
Layout1
 70
     1
 71
     1
 10
0.0
 20
0.0
 11
0.0
 21
0.0
 12
0.0
 22
0.0
 32
0.0
 14
0.0
 24
0.0
 34
0.0
 15
0.0
 25
0.0
 35
0.0
146
0.0
 13
0.0
 23
0.0
 33
0.0
 16
1.0
 26
0.0
 36
0.0
 17
0.0
 27
1.0
 37
0.0
 76
     0
330
D1
331
2B4
1001
PROGE_PRINT_SETTINGS
1070
    73
1070
     1
  0
LAYOUT
  5
297
102
{ACAD_REACTORS
330
1A
102
}
330
1A
100
AcDbPlotSettings
  1

  2
ProgeSOFT PDF Wizard
  4
A4
  6

 40
5.926666666666667
 41
6.011333333333317
 42
6.095999999999985
 43
5.926666666666667
 44
210.0
 45
297.0
 46
88.562
 47
136.531
 48
0.0
 49
0.0
140
0.0
141
0.0
142
1.0
143
1.0
 70
   692
 72
     1
 73
     0
 74
     0
  7

 75
    16
147
1.0
148
0.0
149
0.0
100
AcDbLayout
  1
Layout2
 70
     1
 71
     2
 10
0.0
 20
0.0
 11
12.0
 21
9.0
 12
0.0
 22
0.0
 32
0.0
 14
0.0
 24
0.0
 34
0.0
 15
12.0
 25
9.0
 35
0.0
146
0.0
 13
0.0
 23
0.0
 33
0.0
 16
1.0
 26
0.0
 36
0.0
 17
0.0
 27
1.0
 37
0.0
 76
     0
330
73
331
BB
1001
PROGE_PRINT_SETTINGS
1070
    73
1070
     1
  0
LAYOUT
  5
22
102
{ACAD_REACTORS
330
1A
102
}
330
1A
100
AcDbPlotSettings
  1

  2
none_device
  4
Letter_(8.50_x_11.00_Inches)
  6

 40
6.349999904632568
 41
6.349999904632568
 42
6.350006103515625
 43
6.350006103515625
 44
215.8999938964844
 45
279.3999938964844
 46
0.0
 47
0.0
 48
0.0
 49
0.0
140
0.0
141
0.0
142
1.0
143
4.826036188268309
 70
 11952
 72
     1
 73
     1
 74
     0
  7

 75
     0
147
0.207209386956301
148
0.1311165230791651
149
0.096403374003771
100
AcDbLayout
  1
Model
 70
     1
 71
     0
 10
0.0
 20
0.0
 11
0.0
 21
0.0
 12
0.0
 22
0.0
 32
0.0
 14
139.3041497706083
 24
65.64592274678112
 34
0.0
 15
520.3505585120834
 25
484.8868785202736
 35
0.0
146
0.0
 13
0.0
 23
0.0
 33
0.0
 16
1.0
 26
0.0
 36
0.0
 17
0.0
 27
1.0
 37
0.0
 76
     0
330
1F
331
97
  0
MLINESTYLE
  5
18
102
{ACAD_REACTORS
330
17
102
}
330
17
100
AcDbMlineStyle
  2
STANDARD
 70
     0
  3

 62
   256
 51
90.0
 52
90.0
 71
     2
 49
0.5
 62
   256
  6
BYLAYER
 49
-0.5
 62
   256
  6
BYLAYER
  0
ACDBPLACEHOLDER
  5
F
102
{ACAD_REACTORS
330
E
102
}
330
E
  0
SCALE
  5
D5
102
{ACAD_REACTORS
330
99
102
}
330
99
100
AcDbScale
 70
     0
300
1:1
140
1.0
141
1.0
290
     1
  0
SCALE
  5
D6
102
{ACAD_REACTORS
330
99
102
}
330
99
100
AcDbScale
 70
     0
300
1:2
140
1.0
141
2.0
290
     0
  0
SCALE
  5
D7
102
{ACAD_REACTORS
330
99
102
}
330
99
100
AcDbScale
 70
     0
300
1:4
140
1.0
141
4.0
290
     0
  0
SCALE
  5
D8
102
{ACAD_REACTORS
330
99
102
}
330
99
100
AcDbScale
 70
     0
300
1:5
140
1.0
141
5.0
290
     0
  0
SCALE
  5
D9
102
{ACAD_REACTORS
330
99
102
}
330
99
100
AcDbScale
 70
     0
300
1:8
140
1.0
141
8.0
290
     0
  0
SCALE
  5
DA
102
{ACAD_REACTORS
330
99
102
}
330
99
100
AcDbScale
 70
     0
300
1:10
140
1.0
141
10.0
290
     0
  0
SCALE
  5
DB
102
{ACAD_REACTORS
330
99
102
}
330
99
100
AcDbScale
 70
     0
300
1:16
140
1.0
141
16.0
290
     0
  0
SCALE
  5
DC
102
{ACAD_REACTORS
330
99
102
}
330
99
100
AcDbScale
 70
     0
300
1:20
140
1.0
141
20.0
290
     0
  0
SCALE
  5
DD
102
{ACAD_REACTORS
330
99
102
}
330
99
100
AcDbScale
 70
     0
300
1:30
140
1.0
141
30.0
290
     0
  0
SCALE
  5
DE
102
{ACAD_REACTORS
330
99
102
}
330
99
100
AcDbScale
 70
     0
300
1:40
140
1.0
141
40.0
290
     0
  0
SCALE
  5
DF
102
{ACAD_REACTORS
330
99
102
}
330
99
100
AcDbScale
 70
     0
300
1:50
140
1.0
141
50.0
290
     0
  0
SCALE
  5
E0
102
{ACAD_REACTORS
330
99
102
}
330
99
100
AcDbScale
 70
     0
300
1:100
140
1.0
141
100.0
290
     0
  0
SCALE
  5
E1
102
{ACAD_REACTORS
330
99
102
}
330
99
100
AcDbScale
 70
     0
300
2:1
140
2.0
141
1.0
290
     0
  0
SCALE
  5
E2
102
{ACAD_REACTORS
330
99
102
}
330
99
100
AcDbScale
 70
     0
300
4:1
140
4.0
141
1.0
290
     0
  0
SCALE
  5
E3
102
{ACAD_REACTORS
330
99
102
}
330
99
100
AcDbScale
 70
     0
300
8:1
140
8.0
141
1.0
290
     0
  0
SCALE
  5
E4
102
{ACAD_REACTORS
330
99
102
}
330
99
100
AcDbScale
 70
     0
300
10:1
140
10.0
141
1.0
290
     0
  0
SCALE
  5
E5
102
{ACAD_REACTORS
330
99
102
}
330
99
100
AcDbScale
 70
     0
300
100:1
140
100.0
141
1.0
290
     0
  0
SCALE
  5
E6
102
{ACAD_REACTORS
330
99
102
}
330
99
100
AcDbScale
 70
     0
300
1/128" = 1'-0"
140
0.0078125
141
12.0
290
     0
  0
SCALE
  5
E7
102
{ACAD_REACTORS
330
99
102
}
330
99
100
AcDbScale
 70
     0
300
1/64" = 1'-0"
140
0.015625
141
12.0
290
     0
  0
SCALE
  5
E8
102
{ACAD_REACTORS
330
99
102
}
330
99
100
AcDbScale
 70
     0
300
1/32" = 1'-0"
140
0.03125
141
12.0
290
     0
  0
SCALE
  5
E9
102
{ACAD_REACTORS
330
99
102
}
330
99
100
AcDbScale
 70
     0
300
1/16" = 1'-0"
140
0.0625
141
12.0
290
     0
  0
SCALE
  5
EA
102
{ACAD_REACTORS
330
99
102
}
330
99
100
AcDbScale
 70
     0
300
3/32" = 1'-0"
140
0.09375
141
12.0
290
     0
  0
SCALE
  5
EB
102
{ACAD_REACTORS
330
99
102
}
330
99
100
AcDbScale
 70
     0
300
1/8" = 1'-0"
140
0.125
141
12.0
290
     0
  0
SCALE
  5
EC
102
{ACAD_REACTORS
330
99
102
}
330
99
100
AcDbScale
 70
     0
300
3/16" = 1'-0"
140
0.1875
141
12.0
290
     0
  0
SCALE
  5
ED
102
{ACAD_REACTORS
330
99
102
}
330
99
100
AcDbScale
 70
     0
300
1/4" = 1'-0"
140
0.25
141
12.0
290
     0
  0
SCALE
  5
EE
102
{ACAD_REACTORS
330
99
102
}
330
99
100
AcDbScale
 70
     0
300
3/8" = 1'-0"
140
0.375
141
12.0
290
     0
  0
SCALE
  5
EF
102
{ACAD_REACTORS
330
99
102
}
330
99
100
AcDbScale
 70
     0
300
1/2" = 1'-0"
140
0.5
141
12.0
290
     0
  0
SCALE
  5
F0
102
{ACAD_REACTORS
330
99
102
}
330
99
100
AcDbScale
 70
     0
300
3/4" = 1'-0"
140
0.75
141
12.0
290
     0
  0
SCALE
  5
F1
102
{ACAD_REACTORS
330
99
102
}
330
99
100
AcDbScale
 70
     0
300
1" = 1'-0"
140
1.0
141
12.0
290
     0
  0
SCALE
  5
F2
102
{ACAD_REACTORS
330
99
102
}
330
99
100
AcDbScale
 70
     0
300
1-1/2" = 1'-0"
140
1.5
141
12.0
290
     0
  0
SCALE
  5
F3
102
{ACAD_REACTORS
330
99
102
}
330
99
100
AcDbScale
 70
     0
300
3" = 1'-0"
140
3.0
141
12.0
290
     0
  0
SCALE
  5
F4
102
{ACAD_REACTORS
330
99
102
}
330
99
100
AcDbScale
 70
     0
300
6" = 1'-0"
140
6.0
141
12.0
290
     0
  0
SCALE
  5
F5
102
{ACAD_REACTORS
330
99
102
}
330
99
100
AcDbScale
 70
     0
300
1'-0" = 1'-0"
140
12.0
141
12.0
290
     0
  0
XRECORD
  5
2B7
102
{ACAD_REACTORS
330
2B6
102
}
330
2B6
100
AcDbXrecord
280
     1
340
6C
  0
XRECORD
  5
2B8
102
{ACAD_REACTORS
330
2B6
102
}
330
2B6
100
AcDbXrecord
280
     1
340
6B
  0
DICTIONARYVAR
  5
98
102
{ACAD_REACTORS
330
59
102
}
330
59
100
DictionaryVariables
280
     0
  1
Standard
  0
DICTIONARYVAR
  5
5A
102
{ACAD_REACTORS
330
59
102
}
330
59
100
DictionaryVariables
280
     0
  1
2
  0
DICTIONARYVAR
  5
5E
102
{ACAD_REACTORS
330
59
102
}
330
59
100
DictionaryVariables
280
     0
  1
1
  0
ENDSEC
  0
EOF
