  0
SECTION
  2
HEADER
  9
$ACADVER
  1
AC1015
  9
$ACADMAINTVER
 70
     6
  9
$DWGCODEPAGE
  3
ANSI_1252
  9
$INSBASE
 10
0.0
 20
0.0
 30
0.0
  9
$EXTMIN
 10
106.1625188693207
 20
61.39699570815451
 30
0.0
  9
$EXTMAX
 10
639.2259171467668
 20
459.3276181024398
 30
0.0
  9
$LIMMIN
 10
0.0
 20
0.0
  9
$LIMMAX
 10
0.0
 20
0.0
  9
$ORTHOMODE
 70
     0
  9
$REGENMODE
 70
     1
  9
$FILLMODE
 70
     1
  9
$QTEXTMODE
 70
     0
  9
$MIRRTEXT
 70
     0
  9
$LTSCALE
 40
1.0
  9
$ATTMODE
 70
     1
  9
$TEXTSIZE
 40
2.5
  9
$TRACEWID
 40
1.0
  9
$TEXTSTYLE
  7
Standard
  9
$CLAYER
  8
0
  9
$CELTYPE
  6
ByLayer
  9
$CECOLOR
 62
   256
  9
$CELTSCALE
 40
1.0
  9
$DISPSILH
 70
     0
  9
$DIMSCALE
 40
1.0
  9
$DIMASZ
 40
2.5
  9
$DIMEXO
 40
0.625
  9
$DIMDLI
 40
3.75
  9
$DIMRND
 40
0.0
  9
$DIMDLE
 40
0.0
  9
$DIMEXE
 40
1.25
  9
$DIMTP
 40
0.0
  9
$DIMTM
 40
0.0
  9
$DIMTXT
 40
2.5
  9
$DIMCEN
 40
2.5
  9
$DIMTSZ
 40
0.0
  9
$DIMTOL
 70
     0
  9
$DIMLIM
 70
     0
  9
$DIMTIH
 70
     0
  9
$DIMTOH
 70
     0
  9
$DIMSE1
 70
     0
  9
$DIMSE2
 70
     0
  9
$DIMTAD
 70
     1
  9
$DIMZIN
 70
     8
  9
$DIMBLK
  1

  9
$DIMASO
 70
     1
  9
$DIMSHO
 70
     1
  9
$DIMPOST
  1

  9
$DIMAPOST
  1

  9
$DIMALT
 70
     0
  9
$DIMALTD
 70
     3
  9
$DIMALTF
 40
0.03937007874016
  9
$DIMLFAC
 40
1.0
  9
$DIMTOFL
 70
     1
  9
$DIMTVP
 40
0.0
  9
$DIMTIX
 70
     0
  9
$DIMSOXD
 70
     0
  9
$DIMSAH
 70
     0
  9
$DIMBLK1
  1

  9
$DIMBLK2
  1

  9
$DIMSTYLE
  2
ISO-25
  9
$DIMCLRD
 70
     0
  9
$DIMCLRE
 70
     0
  9
$DIMCLRT
 70
     0
  9
$DIMTFAC
 40
1.0
  9
$DIMGAP
 40
0.625
  9
$DIMJUST
 70
     0
  9
$DIMSD1
 70
     0
  9
$DIMSD2
 70
     0
  9
$DIMTOLJ
 70
     0
  9
$DIMTZIN
 70
     8
  9
$DIMALTZ
 70
     0
  9
$DIMALTTZ
 70
     0
  9
$DIMUPT
 70
     0
  9
$DIMDEC
 70
     2
  9
$DIMTDEC
 70
     2
  9
$DIMALTU
 70
     2
  9
$DIMALTTD
 70
     3
  9
$DIMTXSTY
  7
Standard
  9
$DIMAUNIT
 70
     0
  9
$DIMADEC
 70
     0
  9
$DIMALTRND
 40
0.0
  9
$DIMAZIN
 70
     0
  9
$DIMDSEP
 70
    44
  9
$DIMATFIT
 70
     3
  9
$DIMFRAC
 70
     0
  9
$DIMLDRBLK
  1

  9
$DIMLUNIT
 70
     2
  9
$DIMLWD
 70
    -2
  9
$DIMLWE
 70
    -2
  9
$DIMTMOVE
 70
     0
  9
$LUNITS
 70
     2
  9
$LUPREC
 70
     4
  9
$SKETCHINC
 40
1.0
  9
$FILLETRAD
 40
0.0
  9
$AUNITS
 70
     0
  9
$AUPREC
 70
     0
  9
$MENU
  1
.
  9
$ELEVATION
 40
0.0
  9
$PELEVATION
 40
0.0
  9
$THICKNESS
 40
0.0
  9
$LIMCHECK
 70
     0
  9
$CHAMFERA
 40
0.0
  9
$CHAMFERB
 40
0.0
  9
$CHAMFERC
 40
0.0
  9
$CHAMFERD
 40
0.0
  9
$SKPOLY
 70
     0
  9
$TDCREATE
 40
2455098.460962963
  9
$TDUCREATE
 40
2455098.37762963
  9
$TDUPDATE
 40
2455098.502629653
  9
$TDUUPDATE
 40
2455098.41929632
  9
$TDINDWG
 40
0.0310928241
  9
$TDUSRTIMER
 40
0.0310904514
  9
$USRTIMER
 70
     1
  9
$ANGBASE
 50
0.0
  9
$ANGDIR
 70
     0
  9
$PDMODE
 70
     0
  9
$PDSIZE
 40
0.0
  9
$PLINEWID
 40
0.0
  9
$SPLFRAME
 70
     0
  9
$SPLINETYPE
 70
     6
  9
$SPLINESEGS
 70
     8
  9
$HANDSEED
  5
334
  9
$SURFTAB1
 70
     6
  9
$SURFTAB2
 70
     6
  9
$SURFTYPE
 70
     6
  9
$SURFU
 70
     6
  9
$SURFV
 70
     6
  9
$UCSBASE
  2

  9
$UCSNAME
  2

  9
$UCSORG
 10
0.0
 20
0.0
 30
0.0
  9
$UCSXDIR
 10
1.0
 20
0.0
 30
0.0
  9
$UCSYDIR
 10
0.0
 20
1.0
 30
0.0
  9
$UCSORTHOREF
  2

  9
$UCSORTHOVIEW
 70
     0
  9
$UCSORGTOP
 10
0.0
 20
0.0
 30
0.0
  9
$UCSORGBOTTOM
 10
0.0
 20
0.0
 30
0.0
  9
$UCSORGLEFT
 10
0.0
 20
0.0
 30
0.0
  9
$UCSORGRIGHT
 10
0.0
 20
0.0
 30
0.0
  9
$UCSORGFRONT
 10
0.0
 20
0.0
 30
0.0
  9
$UCSORGBACK
 10
0.0
 20
0.0
 30
0.0
  9
$PUCSBASE
  2

  9
$PUCSNAME
  2

  9
$PUCSORG
 10
0.0
 20
0.0
 30
0.0
  9
$PUCSXDIR
 10
1.0
 20
0.0
 30
0.0
  9
$PUCSYDIR
 10
0.0
 20
1.0
 30
0.0
  9
$PUCSORTHOREF
  2

  9
$PUCSORTHOVIEW
 70
     0
  9
$PUCSORGTOP
 10
0.0
 20
0.0
 30
0.0
  9
$PUCSORGBOTTOM
 10
0.0
 20
0.0
 30
0.0
  9
$PUCSORGLEFT
 10
0.0
 20
0.0
 30
0.0
  9
$PUCSORGRIGHT
 10
0.0
 20
0.0
 30
0.0
  9
$PUCSORGFRONT
 10
0.0
 20
0.0
 30
0.0
  9
$PUCSORGBACK
 10
0.0
 20
0.0
 30
0.0
  9
$USERI1
 70
     0
  9
$USERI2
 70
     0
  9
$USERI3
 70
     0
  9
$USERI4
 70
     0
  9
$USERI5
 70
     0
  9
$USERR1
 40
0.0
  9
$USERR2
 40
0.0
  9
$USERR3
 40
0.0
  9
$USERR4
 40
0.0
  9
$USERR5
 40
0.0
  9
$WORLDVIEW
 70
     1
  9
$SHADEDGE
 70
     3
  9
$SHADEDIF
 70
    70
  9
$TILEMODE
 70
     1
  9
$MAXACTVP
 70
    64
  9
$PINSBASE
 10
0.0
 20
0.0
 30
0.0
  9
$PLIMCHECK
 70
     0
  9
$PEXTMIN
 10
0.0
 20
0.0
 30
0.0
  9
$PEXTMAX
 10
12.0
 20
9.0
 30
0.0
  9
$PLIMMIN
 10
0.0
 20
0.0
  9
$PLIMMAX
 10
12.0
 20
9.0
  9
$UNITMODE
 70
     0
  9
$VISRETAIN
 70
     1
  9
$PLINEGEN
 70
     0
  9
$PSLTSCALE
 70
     1
  9
$TREEDEPTH
 70
  3020
  9
$CMLSTYLE
  2
Standard
  9
$CMLJUST
 70
     0
  9
$CMLSCALE
 40
20.0
  9
$PROXYGRAPHICS
 70
     1
  9
$MEASUREMENT
 70
     1
  9
$CELWEIGHT
370
    -1
  9
$ENDCAPS
280
     0
  9
$JOINSTYLE
280
     0
  9
$LWDISPLAY
290
     0
  9
$INSUNITS
 70
     4
  9
$HYPERLINKBASE
  1

  9
$STYLESHEET
  1

  9
$XEDIT
290
     1
  9
$CEPSNTYPE
380
     0
  9
$PSTYLEMODE
290
     1
  9
$FINGERPRINTGUID
  2
{5559452E-1E62-4159-8551-BF76FFF3E7E8}
  9
$VERSIONGUID
  2
{3CEB9EF8-4431-4551-B596-6734A9F966A9}
  9
$EXTNAMES
290
     1
  9
$PSVPSCALE
 40
0.0
  9
$OLESTARTUP
290
     0
  0
ENDSEC
  0
SECTION
  2
CLASSES
  0
CLASS
  1
ACDBDICTIONARYWDFLT
  2
AcDbDictionaryWithDefault
  3
ObjectDBX Classes
 90
        0
280
     0
281
     0
  0
CLASS
  1
ACDBPLACEHOLDER
  2
AcDbPlaceHolder
  3
ObjectDBX Classes
 90
        0
280
     0
281
     0
  0
CLASS
  1
LAYOUT
  2
AcDbLayout
  3
ObjectDBX Classes
 90
        0
280
     0
281
     0
  0
CLASS
  1
DICTIONARYVAR
  2
AcDbDictionaryVar
  3
ObjectDBX Classes
 90
        0
280
     0
281
     0
  0
CLASS
  1
TABLESTYLE
  2
AcDbTableStyle
  3
ObjectDBX Classes
 90
     4095
280
     0
281
     0
  0
CLASS
  1
SCALE
  2
AcDbScale
  3
ObjectDBX Classes
 90
     1153
280
     0
281
     0
  0
ENDSEC
  0
SECTION
  2
TABLES
  0
TABLE
  2
VPORT
  5
8
330
0
100
AcDbSymbolTable
 70
     2
  0
VPORT
  5
97
330
8
100
AcDbSymbolTableRecord
100
AcDbViewportTableRecord
  2
*Active
 70
     0
 10
0.0
 20
0.0
 11
1.0
 21
1.0
 12
334.5432992541912
 22
245.4434557622999
 13
0.0
 23
0.0
 14
10.0
 24
10.0
 15
10.0
 25
10.0
 16
0.0
 26
0.0
 36
1.0
 17
0.0
 27
0.0
 37
0.0
 40
491.3287934356385
 41
1.664827586206897
 42
50.0
 43
0.0
 44
0.0
 50
0.0
 51
0.0
 71
     0
 72
  1000
 73
     1
 74
     3
 75
     0
 76
     0
 77
     0
 78
     0
281
     0
 65
     1
110
0.0
120
0.0
130
0.0
111
1.0
121
0.0
131
0.0
112
0.0
122
1.0
132
0.0
 79
     0
146
0.0
  0
ENDTAB
  0
TABLE
  2
LTYPE
  5
5
330
0
100
AcDbSymbolTable
 70
     1
  0
LTYPE
  5
14
330
5
100
AcDbSymbolTableRecord
100
AcDbLinetypeTableRecord
  2
ByBlock
 70
     0
  3

 72
    65
 73
     0
 40
0.0
  0
LTYPE
  5
15
330
5
100
AcDbSymbolTableRecord
100
AcDbLinetypeTableRecord
  2
ByLayer
 70
     0
  3

 72
    65
 73
     0
 40
0.0
  0
LTYPE
  5
16
330
5
100
AcDbSymbolTableRecord
100
AcDbLinetypeTableRecord
  2
Continuous
 70
     0
  3
Solid line
 72
    65
 73
     0
 40
0.0
  0
ENDTAB
  0
TABLE
  2
LAYER
  5
2
330
0
100
AcDbSymbolTable
 70
     2
  0
LAYER
  5
10
330
2
100
AcDbSymbolTableRecord
100
AcDbLayerTableRecord
  2
0
 70
     0
 62
     7
  6
Continuous
370
    -3
390
F
  0
LAYER
  5
2F3
330
2
100
AcDbSymbolTableRecord
100
AcDbLayerTableRecord
  2
DEFPOINTS
 70
     0
 62
     7
  6
Continuous
290
     0
370
    -3
390
F
  0
ENDTAB
  0
TABLE
  2
STYLE
  5
3
330
0
100
AcDbSymbolTable
 70
     1
  0
STYLE
  5
11
330
3
100
AcDbSymbolTableRecord
100
AcDbTextStyleTableRecord
  2
Standard
 70
     0
 40
0.0
 41
1.0
 50
0.0
 71
     0
 42
2.5
  3
txt
  4

  0
ENDTAB
  0
TABLE
  2
VIEW
  5
6
330
0
100
AcDbSymbolTable
 70
     0
  0
ENDTAB
  0
TABLE
  2
UCS
  5
7
330
0
100
AcDbSymbolTable
 70
     0
  0
ENDTAB
  0
TABLE
  2
APPID
  5
9
330
0
100
AcDbSymbolTable
 70
     2
  0
APPID
  5
12
330
9
100
AcDbSymbolTableRecord
100
AcDbRegAppTableRecord
  2
ACAD
 70
     0
  0
APPID
  5
321
330
9
100
AcDbSymbolTableRecord
100
AcDbRegAppTableRecord
  2
PROGE_PRINT_SETTINGS
 70
     0
  0
ENDTAB
  0
TABLE
  2
DIMSTYLE
  5
A
330
0
100
AcDbSymbolTable
 70
     2
100
AcDbDimStyleTable
  0
DIMSTYLE
105
27
330
A
100
AcDbSymbolTableRecord
100
AcDbDimStyleTableRecord
  2
Standard
 70
     0
278
     0
340
11
  0
DIMSTYLE
105
29
102
{ACAD_REACTORS
330
2F1
330
2F2
102
}
330
A
100
AcDbSymbolTableRecord
100
AcDbDimStyleTableRecord
  2
ISO-25
 70
     0
 41
2.5
 42
0.625
 43
3.75
 44
1.25
 73
     0
 74
     0
 77
     1
 78
     8
140
2.5
141
2.5
143
0.03937007874016
147
0.625
171
     3
172
     1
271
     2
272
     2
274
     3
278
    44
283
     0
284
     8
340
11
  0
ENDTAB
  0
TABLE
  2
BLOCK_RECORD
  5
1
330
0
100
AcDbSymbolTable
 70
     5
  0
BLOCK_RECORD
  5
1F
330
1
100
AcDbSymbolTableRecord
100
AcDbBlockTableRecord
  2
*Model_Space
340
22
  0
BLOCK_RECORD
  5
73
330
1
100
AcDbSymbolTableRecord
100
AcDbBlockTableRecord
  2
*Paper_Space
340
323
  0
BLOCK_RECORD
  5
D1
330
1
100
AcDbSymbolTableRecord
100
AcDbBlockTableRecord
  2
*Paper_Space0
340
74
  0
BLOCK_RECORD
  5
2FE
330
1
100
AcDbSymbolTableRecord
100
AcDbBlockTableRecord
  2
*D1
340
0
  0
BLOCK_RECORD
  5
309
330
1
100
AcDbSymbolTableRecord
100
AcDbBlockTableRecord
  2
*D2
340
0
  0
BLOCK_RECORD
  5
314
330
1
100
AcDbSymbolTableRecord
100
AcDbBlockTableRecord
  2
*D3
340
0
  0
BLOCK_RECORD
  5
31F
330
1
100
AcDbSymbolTableRecord
100
AcDbBlockTableRecord
  2
*D4
340
0
  0
ENDTAB
  0
ENDSEC
  0
SECTION
  2
BLOCKS
  0
BLOCK
  5
20
330
1F
100
AcDbEntity
  8
0
100
AcDbBlockBegin
  2
*Model_Space
 70
     0
 10
0.0
 20
0.0
 30
0.0
  3
*Model_Space
  1

  0
ENDBLK
  5
21
330
1F
100
AcDbEntity
  8
0
100
AcDbBlockEnd
  0
BLOCK
  5
75
330
73
100
AcDbEntity
 67
     1
  8
0
100
AcDbBlockBegin
  2
*Paper_Space
 70
     0
 10
0.0
 20
0.0
 30
0.0
  3
*Paper_Space
  1

  0
ENDBLK
  5
76
330
73
100
AcDbEntity
 67
     1
  8
0
100
AcDbBlockEnd
  0
BLOCK
  5
324
330
D1
100
AcDbEntity
  8
0
100
AcDbBlockBegin
  2
*Paper_Space0
 70
     0
 10
0.0
 20
0.0
 30
0.0
  3
*Paper_Space0
  1

  0
VIEWPORT
  5
32E
330
D1
100
AcDbEntity
  8
0
100
AcDbViewport
 10
7.8
 20
4.5
 30
0.0
 40
15.64
 41
9.0
 68
     1
 69
     1
 12
6.0
 22
4.5
 13
0.0
 23
0.0
 14
0.5
 24
0.5
 15
0.5
 25
0.5
 16
0.0
 26
0.0
 36
1.0
 17
0.0
 27
0.0
 37
0.0
 42
50.0
 43
0.0
 44
0.0
 45
12.0
 50
0.0
 51
0.0
 72
   100
 90
   557152
  1

281
     0
 71
     1
 74
     0
110
0.0
120
0.0
130
0.0
111
1.0
121
0.0
131
0.0
112
0.0
122
1.0
132
0.0
 79
     0
146
0.0
  0
ENDBLK
  5
325
330
D1
100
AcDbEntity
  8
0
100
AcDbBlockEnd
  0
BLOCK
  5
326
330
2FE
100
AcDbEntity
  8
0
100
AcDbBlockBegin
  2
*D1
 70
     1
 10
0.0
 20
0.0
 30
0.0
  3
*D1
  1

  0
POINT
  5
2F5
330
2FE
100
AcDbEntity
  8
DEFPOINTS
  6
ByBlock
 62
     7
380
     1
100
AcDbPoint
 10
550.7076215388486
 20
359.6266094420601
 30
0.0
  0
POINT
  5
2F6
330
2FE
100
AcDbEntity
  8
DEFPOINTS
  6
ByBlock
 62
     7
380
     1
100
AcDbPoint
 10
544.4084115388487
 20
106.6266124420601
 30
0.0
  0
LINE
  5
2F7
330
2FE
100
AcDbEntity
  8
0
  6
ByBlock
 62
     7
370
    -2
380
     1
100
AcDbLine
 10
551.3326215388486
 20
359.6266094420601
 30
0.0
 11
646.4573191496281
 21
359.6266094420601
 31
0.0
  0
LINE
  5
2F8
330
2FE
100
AcDbEntity
  8
0
  6
ByBlock
 62
     7
370
    -2
380
     1
100
AcDbLine
 10
545.0334115388487
 20
106.6266124420601
 30
0.0
 11
646.4573191496281
 21
106.6266124420601
 31
0.0
  0
LINE
  5
2F9
330
2FE
100
AcDbEntity
  8
0
  6
ByBlock
 62
     7
370
    -2
380
     1
100
AcDbLine
 10
645.2073191496281
 20
349.6266094420601
 30
0.0
 11
645.2073191496281
 21
116.6266124420601
 31
0.0
  0
SOLID
  5
2FA
330
2FE
100
AcDbEntity
  8
0
  6
ByBlock
 62
     7
380
     1
100
AcDbTrace
 10
645.2073191496281
 20
359.6266094420601
 30
0.0
 11
643.5406524829615
 21
349.6266094420601
 31
0.0
 12
646.8739858162947
 22
349.6266094420601
 32
0.0
 13
646.8739858162947
 23
349.6266094420601
 33
0.0
  0
SOLID
  5
2FB
330
2FE
100
AcDbEntity
  8
0
  6
ByBlock
 62
     7
380
     1
100
AcDbTrace
 10
645.2073191496281
 20
106.6266124420601
 30
0.0
 11
643.5406524829615
 21
116.6266124420601
 31
0.0
 12
646.8739858162947
 22
116.6266124420601
 32
0.0
 13
646.8739858162947
 23
116.6266124420601
 33
0.0
  0
MTEXT
  5
2FC
330
2FE
100
AcDbEntity
  8
0
  6
ByBlock
 62
     0
370
    -2
380
     1
100
AcDbMText
 10
633.2073191496281
 20
233.1266109420601
 30
0.0
 40
14.0
 41
0.0
 71
     5
 72
     1
  1
\A1;253
 11
6.123031769111886E-17
 21
1.0
 31
0.0
 73
     1
 44
1.0
  0
ENDBLK
  5
327
330
2FE
100
AcDbEntity
  8
0
100
AcDbBlockEnd
  0
BLOCK
  5
328
330
309
100
AcDbEntity
  8
0
100
AcDbBlockBegin
  2
*D2
 70
     1
 10
0.0
 20
0.0
 30
0.0
  3
*D2
  1

  0
POINT
  5
300
330
309
100
AcDbEntity
  8
DEFPOINTS
  6
ByBlock
 62
     7
380
     1
100
AcDbPoint
 10
113.8105875388486
 20
276.103507881978
 30
0.0
  0
POINT
  5
301
330
309
100
AcDbEntity
  8
DEFPOINTS
  6
ByBlock
 62
     7
380
     1
100
AcDbPoint
 10
603.8105875388486
 20
276.103507881978
 30
0.0
  0
LINE
  5
302
330
309
100
AcDbEntity
  8
0
  6
ByBlock
 62
     7
370
    -2
380
     1
100
AcDbLine
 10
113.8105875388486
 20
276.728507881978
 30
0.0
 11
113.8105875388486
 21
423.3072318363454
 31
0.0
  0
LINE
  5
303
330
309
100
AcDbEntity
  8
0
  6
ByBlock
 62
     7
370
    -2
380
     1
100
AcDbLine
 10
603.8105875388486
 20
276.728507881978
 30
0.0
 11
603.8105875388486
 21
423.3072318363454
 31
0.0
  0
LINE
  5
304
330
309
100
AcDbEntity
  8
0
  6
ByBlock
 62
     7
370
    -2
380
     1
100
AcDbLine
 10
123.8105875388486
 20
422.0572318363454
 30
0.0
 11
593.8105875388486
 21
422.0572318363454
 31
0.0
  0
SOLID
  5
305
330
309
100
AcDbEntity
  8
0
  6
ByBlock
 62
     7
380
     1
100
AcDbTrace
 10
113.8105875388486
 20
422.0572318363454
 30
0.0
 11
123.8105875388486
 21
420.3905651696788
 31
0.0
 12
123.8105875388486
 22
423.723898503012
 32
0.0
 13
123.8105875388486
 23
423.723898503012
 33
0.0
  0
SOLID
  5
306
330
309
100
AcDbEntity
  8
0
  6
ByBlock
 62
     7
380
     1
100
AcDbTrace
 10
603.8105875388486
 20
422.0572318363454
 30
0.0
 11
593.8105875388486
 21
420.3905651696788
 31
0.0
 12
593.8105875388486
 22
423.723898503012
 32
0.0
 13
593.8105875388486
 23
423.723898503012
 33
0.0
  0
MTEXT
  5
307
330
309
100
AcDbEntity
  8
0
  6
ByBlock
 62
     0
370
    -2
380
     1
100
AcDbMText
 10
358.8105875388486
 20
434.0572318363454
 30
0.0
 40
14.0
 41
0.0
 71
     5
 72
     1
  1
\A1;490
 73
     1
 44
1.0
  0
ENDBLK
  5
329
330
309
100
AcDbEntity
  8
0
100
AcDbBlockEnd
  0
BLOCK
  5
32A
330
314
100
AcDbEntity
  8
0
100
AcDbBlockBegin
  2
*D3
 70
     1
 10
0.0
 20
0.0
 30
0.0
  3
*D3
  1

  0
POINT
  5
30B
330
314
100
AcDbEntity
  8
DEFPOINTS
  6
ByBlock
 62
     7
380
     1
100
AcDbPoint
 10
106.1625188693207
 20
294.3738941480724
 30
0.0
  0
POINT
  5
30C
330
314
100
AcDbEntity
  8
DEFPOINTS
  6
ByBlock
 62
     7
380
     1
100
AcDbPoint
 10
596.1625188693207
 20
294.3738941480724
 30
0.0
  0
LINE
  5
30D
330
314
100
AcDbEntity
  8
0
  6
ByBlock
 62
     7
370
    -2
380
     1
100
AcDbLine
 10
106.1625188693207
 20
294.9988941480724
 30
0.0
 11
106.1625188693207
 21
441.5776181024398
 31
0.0
  0
LINE
  5
30E
330
314
100
AcDbEntity
  8
0
  6
ByBlock
 62
     7
370
    -2
380
     1
100
AcDbLine
 10
596.1625188693207
 20
294.9988941480724
 30
0.0
 11
596.1625188693207
 21
441.5776181024398
 31
0.0
  0
LINE
  5
30F
330
314
100
AcDbEntity
  8
0
  6
ByBlock
 62
     7
370
    -2
380
     1
100
AcDbLine
 10
116.1625188693207
 20
440.3276181024398
 30
0.0
 11
586.1625188693207
 21
440.3276181024398
 31
0.0
  0
SOLID
  5
310
330
314
100
AcDbEntity
  8
0
  6
ByBlock
 62
     7
380
     1
100
AcDbTrace
 10
106.1625188693207
 20
440.3276181024398
 30
0.0
 11
116.1625188693207
 21
438.6609514357732
 31
0.0
 12
116.1625188693207
 22
441.9942847691065
 32
0.0
 13
116.1625188693207
 23
441.9942847691065
 33
0.0
  0
SOLID
  5
311
330
314
100
AcDbEntity
  8
0
  6
ByBlock
 62
     7
380
     1
100
AcDbTrace
 10
596.1625188693207
 20
440.3276181024398
 30
0.0
 11
586.1625188693207
 21
438.6609514357732
 31
0.0
 12
586.1625188693207
 22
441.9942847691065
 32
0.0
 13
586.1625188693207
 23
441.9942847691065
 33
0.0
  0
MTEXT
  5
312
330
314
100
AcDbEntity
  8
0
  6
ByBlock
 62
     0
370
    -2
380
     1
100
AcDbMText
 10
351.1625188693207
 20
452.3276181024398
 30
0.0
 40
14.0
 41
0.0
 71
     5
 72
     1
  1
\A1;490
 73
     1
 44
1.0
  0
ENDBLK
  5
32B
330
314
100
AcDbEntity
  8
0
100
AcDbBlockEnd
  0
BLOCK
  5
32C
330
31F
100
AcDbEntity
  8
0
100
AcDbBlockBegin
  2
*D4
 70
     1
 10
0.0
 20
0.0
 30
0.0
  3
*D4
  1

  0
POINT
  5
316
330
31F
100
AcDbEntity
  8
DEFPOINTS
  6
ByBlock
 62
     7
380
     1
100
AcDbPoint
 10
543.0595528693207
 20
377.8969957081545
 30
0.0
  0
POINT
  5
317
330
31F
100
AcDbEntity
  8
DEFPOINTS
  6
ByBlock
 62
     7
380
     1
100
AcDbPoint
 10
536.7603428693208
 20
124.8969987081545
 30
0.0
  0
LINE
  5
318
330
31F
100
AcDbEntity
  8
0
  6
ByBlock
 62
     7
370
    -2
380
     1
100
AcDbLine
 10
543.6845528693207
 20
377.8969957081545
 30
0.0
 11
638.8092504801002
 21
377.8969957081545
 31
0.0
  0
LINE
  5
319
330
31F
100
AcDbEntity
  8
0
  6
ByBlock
 62
     7
370
    -2
380
     1
100
AcDbLine
 10
537.3853428693208
 20
124.8969987081545
 30
0.0
 11
638.8092504801002
 21
124.8969987081545
 31
0.0
  0
LINE
  5
31A
330
31F
100
AcDbEntity
  8
0
  6
ByBlock
 62
     7
370
    -2
380
     1
100
AcDbLine
 10
637.5592504801002
 20
367.8969957081545
 30
0.0
 11
637.5592504801002
 21
134.8969987081545
 31
0.0
  0
SOLID
  5
31B
330
31F
100
AcDbEntity
  8
0
  6
ByBlock
 62
     7
380
     1
100
AcDbTrace
 10
637.5592504801002
 20
377.8969957081545
 30
0.0
 11
635.8925838134336
 21
367.8969957081545
 31
0.0
 12
639.2259171467668
 22
367.8969957081545
 32
0.0
 13
639.2259171467668
 23
367.8969957081545
 33
0.0
  0
SOLID
  5
31C
330
31F
100
AcDbEntity
  8
0
  6
ByBlock
 62
     7
380
     1
100
AcDbTrace
 10
637.5592504801002
 20
124.8969987081545
 30
0.0
 11
635.8925838134336
 21
134.8969987081545
 31
0.0
 12
639.2259171467668
 22
134.8969987081545
 32
0.0
 13
639.2259171467668
 23
134.8969987081545
 33
0.0
  0
MTEXT
  5
31D
330
31F
100
AcDbEntity
  8
0
  6
ByBlock
 62
     0
370
    -2
380
     1
100
AcDbMText
 10
625.5592504801002
 20
251.3969972081545
 30
0.0
 40
14.0
 41
0.0
 71
     5
 72
     1
  1
\A1;253
 11
6.123031769111886E-17
 21
1.0
 31
0.0
 73
     1
 44
1.0
  0
ENDBLK
  5
32D
330
31F
100
AcDbEntity
  8
0
100
AcDbBlockEnd
  0
ENDSEC
  0
SECTION
  2
ENTITIES
  0
LINE
  5
F8
330
1F
100
AcDbEntity
  8
0
 62
     7
370
    60
100
AcDbLine
 10
419.1625188693207
 20
396.3969957081545
 30
0.0
 11
382.6625168693207
 21
396.3969957081545
 31
0.0
  0
LINE
  5
F9
330
1F
100
AcDbEntity
  8
0
 62
     7
370
    60
100
AcDbLine
 10
319.6625168693207
 20
396.3969957081545
 30
0.0
 11
382.6625168693207
 21
396.3969957081545
 31
0.0
  0
LINE
  5
FA
330
1F
100
AcDbEntity
  8
0
 62
     7
370
    60
100
AcDbLine
 10
319.6625168693207
 20
396.3969957081545
 30
0.0
 11
283.1625188693207
 21
396.3969957081545
 31
0.0
  0
LINE
  5
FB
330
1F
100
AcDbEntity
  8
0
 62
     7
 48
0.075
370
    60
100
AcDbLine
 10
283.1625188693207
 20
393.3969957081545
 30
0.0
 11
283.1625188693207
 21
396.3969957081545
 31
0.0
  0
LINE
  5
FC
330
1F
100
AcDbEntity
  8
0
 62
     7
 48
0.05
370
    60
100
AcDbLine
 10
283.1625188693207
 20
393.3969957081545
 30
0.0
 11
281.1625188693207
 21
393.3969957081545
 31
0.0
  0
LINE
  5
FD
330
1F
100
AcDbEntity
  8
0
 62
     7
 48
0.0125
370
    60
100
AcDbLine
 10
281.1625188693207
 20
393.8969957081545
 30
0.0
 11
281.1625188693207
 21
393.3969957081545
 31
0.0
  0
LINE
  5
FE
330
1F
100
AcDbEntity
  8
0
 62
     7
370
    60
100
AcDbLine
 10
281.1625188693207
 20
393.8969957081545
 30
0.0
 11
234.6625188693207
 21
393.8969957081545
 31
0.0
  0
LINE
  5
FF
330
1F
100
AcDbEntity
  8
0
 62
     7
 48
0.421446
370
    60
100
AcDbLine
 10
234.6625188693207
 20
377.0391467081545
 30
0.0
 11
234.6625188693207
 21
393.8969957081545
 31
0.0
  0
LINE
  5
100
330
1F
100
AcDbEntity
  8
0
 62
     7
370
    60
100
AcDbLine
 10
234.6625188693207
 20
128.9882907081545
 30
0.0
 11
234.6625188693207
 21
373.8057177081545
 31
0.0
  0
LINE
  5
101
330
1F
100
AcDbEntity
  8
0
 62
     7
370
    60
100
AcDbLine
 10
234.6625188693207
 20
70.89699570815453
 30
0.0
 11
234.6625188693207
 21
125.7548687081545
 31
0.0
  0
LINE
  5
102
330
1F
100
AcDbEntity
  8
0
 62
     7
370
    60
100
AcDbLine
 10
234.6625188693207
 20
70.89699570815453
 30
0.0
 11
325.1625168693207
 21
70.89699570815453
 31
0.0
  0
LINE
  5
103
330
1F
100
AcDbEntity
  8
0
 62
     7
 48
0.0125
370
    60
100
AcDbLine
 10
325.1625168693207
 20
70.89699570815453
 30
0.0
 11
325.1625168693207
 21
71.39699570815453
 31
0.0
  0
LINE
  5
104
330
1F
100
AcDbEntity
  8
0
 62
     7
 48
0.05
370
    60
100
AcDbLine
 10
327.1625168693207
 20
71.39699570815453
 30
0.0
 11
325.1625168693207
 21
71.39699570815453
 31
0.0
  0
LINE
  5
105
330
1F
100
AcDbEntity
  8
0
 62
     7
 48
0.25
370
    60
100
AcDbLine
 10
327.1625168693207
 20
71.39699570815453
 30
0.0
 11
327.1625168693207
 21
61.39699570815451
 31
0.0
  0
LINE
  5
106
330
1F
100
AcDbEntity
  8
0
 62
     7
370
    60
100
AcDbLine
 10
375.1625168693207
 20
61.39699570815451
 30
0.0
 11
327.1625168693207
 21
61.39699570815451
 31
0.0
  0
LINE
  5
107
330
1F
100
AcDbEntity
  8
0
 62
     7
 48
0.25
370
    60
100
AcDbLine
 10
375.1625168693207
 20
61.39699570815451
 30
0.0
 11
375.1625168693207
 21
71.39699570815453
 31
0.0
  0
LINE
  5
108
330
1F
100
AcDbEntity
  8
0
 62
     7
 48
0.05
370
    60
100
AcDbLine
 10
375.1625168693207
 20
71.39699570815453
 30
0.0
 11
377.1625168693207
 21
71.39699570815453
 31
0.0
  0
LINE
  5
109
330
1F
100
AcDbEntity
  8
0
 62
     7
 48
0.0125
370
    60
100
AcDbLine
 10
377.1625168693207
 20
70.89699570815453
 30
0.0
 11
377.1625168693207
 21
71.39699570815453
 31
0.0
  0
LINE
  5
10A
330
1F
100
AcDbEntity
  8
0
 62
     7
370
    60
100
AcDbLine
 10
377.1625168693207
 20
70.89699570815453
 30
0.0
 11
467.6625188693207
 21
70.89699570815453
 31
0.0
  0
LINE
  5
10B
330
1F
100
AcDbEntity
  8
0
 62
     7
 48
0.421446
370
    60
100
AcDbLine
 10
467.6625188693207
 20
377.0391467081545
 30
0.0
 11
467.6625188693207
 21
393.8969957081545
 31
0.0
  0
LINE
  5
10C
330
1F
100
AcDbEntity
  8
0
 62
     7
370
    60
100
AcDbLine
 10
467.6625188693207
 20
128.9882977081545
 30
0.0
 11
467.6625188693207
 21
373.8057177081545
 31
0.0
  0
LINE
  5
10D
330
1F
100
AcDbEntity
  8
0
 62
     7
370
    60
100
AcDbLine
 10
467.6625188693207
 20
70.89699570815453
 30
0.0
 11
467.6625188693207
 21
125.7548737081545
 31
0.0
  0
LINE
  5
10E
330
1F
100
AcDbEntity
  8
0
 62
     7
370
    60
100
AcDbLine
 10
467.6625188693207
 20
393.8969957081545
 30
0.0
 11
421.1625188693207
 21
393.8969957081545
 31
0.0
  0
LINE
  5
10F
330
1F
100
AcDbEntity
  8
0
 62
     7
 48
0.0125
370
    60
100
AcDbLine
 10
421.1625188693207
 20
393.8969957081545
 30
0.0
 11
421.1625188693207
 21
393.3969957081545
 31
0.0
  0
LINE
  5
110
330
1F
100
AcDbEntity
  8
0
 62
     7
 48
0.05
370
    60
100
AcDbLine
 10
419.1625188693207
 20
393.3969957081545
 30
0.0
 11
421.1625188693207
 21
393.3969957081545
 31
0.0
  0
LINE
  5
111
330
1F
100
AcDbEntity
  8
0
 62
     7
 48
0.075
370
    60
100
AcDbLine
 10
419.1625188693207
 20
393.3969957081545
 30
0.0
 11
419.1625188693207
 21
396.3969957081545
 31
0.0
  0
LINE
  5
112
330
1F
100
AcDbEntity
  8
0
 62
     7
370
    60
100
AcDbLine
 10
409.6625148693207
 20
106.4969977081545
 30
0.0
 11
292.6625148693207
 21
106.4969977081545
 31
0.0
  0
ARC
  5
113
330
1F
100
AcDbEntity
  8
0
 62
     7
370
    60
100
AcDbCircle
 10
292.6625148693207
 20
132.9969987081545
 30
0.0
 40
26.50000000000001
100
AcDbArc
 50
90.00000299999991
 51
191.0959479999999
  0
ARC
  5
114
330
1F
100
AcDbEntity
  8
0
 62
     7
370
    60
100
AcDbCircle
 10
292.6625148693207
 20
132.9969987081545
 30
0.0
 40
26.49999999999993
100
AcDbArc
 50
197.79788
 51
270.000001
  0
LINE
  5
115
330
1F
100
AcDbEntity
  8
0
 62
     7
370
    60
100
AcDbLine
 10
292.6625148693207
 20
159.4969977081545
 30
0.0
 11
409.6625148693207
 21
159.4969977081545
 31
0.0
  0
ARC
  5
116
330
1F
100
AcDbEntity
  8
0
 62
     7
370
    60
100
AcDbCircle
 10
409.6625148693207
 20
132.9969987081545
 30
0.0
 40
26.5
100
AcDbArc
 50
270.0000010000002
 51
342.2021219999999
  0
ARC
  5
117
330
1F
100
AcDbEntity
  8
0
 62
     7
370
    60
100
AcDbCircle
 10
409.6625148693207
 20
132.9969987081545
 30
0.0
 40
26.50000000000001
100
AcDbArc
 50
348.904067
 51
89.99999200000002
  0
LINE
  5
118
330
1F
100
AcDbEntity
  8
0
 62
     7
370
    60
100
AcDbLine
 10
454.1625188693207
 20
188.8969997081545
 30
0.0
 11
454.1625188693207
 21
374.8970107081545
 31
0.0
  0
LINE
  5
119
330
1F
100
AcDbEntity
  8
0
 62
     7
 48
0.1375
370
    60
100
AcDbLine
 10
454.1625188693207
 20
377.8970107081545
 30
0.0
 11
454.1625188693207
 21
383.3969957081545
 31
0.0
  0
LINE
  5
11A
330
1F
100
AcDbEntity
  8
0
 62
     7
370
    60
100
AcDbLine
 10
454.1625188693207
 20
188.8969997081545
 30
0.0
 11
248.1625188693207
 21
188.8969997081545
 31
0.0
  0
LINE
  5
11B
330
1F
100
AcDbEntity
  8
0
 62
     7
 48
0.1375
370
    60
100
AcDbLine
 10
248.1625188693207
 20
383.3969957081545
 30
0.0
 11
248.1625188693207
 21
377.8970107081545
 31
0.0
  0
LINE
  5
11C
330
1F
100
AcDbEntity
  8
0
 62
     7
370
    60
100
AcDbLine
 10
248.1625188693207
 20
374.8970107081545
 30
0.0
 11
248.1625188693207
 21
188.8969997081545
 31
0.0
  0
LINE
  5
11D
330
1F
100
AcDbEntity
  8
0
 62
     7
370
    60
100
AcDbLine
 10
357.9999078693207
 20
383.3969957081545
 30
0.0
 11
454.1625188693207
 21
383.3969957081545
 31
0.0
  0
LINE
  5
11E
330
1F
100
AcDbEntity
  8
0
 62
     7
370
    60
100
AcDbLine
 10
248.1625188693207
 20
383.3969957081545
 30
0.0
 11
344.3251098693207
 21
383.3969957081545
 31
0.0
  0
LINE
  5
11F
330
1F
100
AcDbEntity
  8
0
 62
     7
370
    60
100
AcDbLine
 10
319.6625168693207
 20
407.3551257081545
 30
0.0
 11
382.6625168693207
 21
407.3551257081545
 31
0.0
  0
LINE
  5
120
330
1F
100
AcDbEntity
  8
0
 62
     7
 48
0.273953
370
    60
100
AcDbLine
 10
319.6625168693207
 20
407.3551257081545
 30
0.0
 11
319.6625168693207
 21
396.3969957081545
 31
0.0
  0
LINE
  5
121
330
1F
100
AcDbEntity
  8
0
 62
     7
 48
0.273953
370
    60
100
AcDbLine
 10
382.6625168693207
 20
407.3551257081545
 30
0.0
 11
382.6625168693207
 21
396.3969957081545
 31
0.0
  0
LINE
  5
122
330
1F
100
AcDbEntity
  8
0
 62
     7
 48
0.003268
370
    60
100
AcDbLine
 10
319.6625168693207
 20
407.4858627081545
 30
0.0
 11
319.6625168693207
 21
407.3551257081545
 31
0.0
  0
LINE
  5
123
330
1F
100
AcDbEntity
  8
0
 62
     7
370
    60
100
AcDbLine
 10
319.6625168693207
 20
407.4858627081545
 30
0.0
 11
382.6625168693207
 21
407.4858627081545
 31
0.0
  0
LINE
  5
124
330
1F
100
AcDbEntity
  8
0
 62
     7
 48
0.0625
370
    60
100
AcDbLine
 10
468.6625188693207
 20
276.3969957081545
 30
0.0
 11
471.1625188693207
 21
276.3969957081545
 31
0.0
  0
LINE
  5
125
330
1F
100
AcDbEntity
  8
0
 62
     7
370
    60
100
AcDbLine
 10
468.6625188693207
 20
226.3969957081545
 30
0.0
 11
468.6625188693207
 21
276.3969957081545
 31
0.0
  0
LINE
  5
126
330
1F
100
AcDbEntity
  8
0
 62
     7
 48
0.0625
370
    60
100
AcDbLine
 10
471.1625188693207
 20
226.3969957081545
 30
0.0
 11
468.6625188693207
 21
226.3969957081545
 31
0.0
  0
LINE
  5
127
330
1F
100
AcDbEntity
  8
0
 62
     7
370
    60
100
AcDbLine
 10
471.1625188693207
 20
226.3969957081545
 30
0.0
 11
471.1625188693207
 21
276.3969957081545
 31
0.0
  0
CIRCLE
  5
128
330
1F
100
AcDbEntity
  8
0
 62
     7
370
    60
100
AcDbCircle
 10
481.6625188693207
 20
251.3969957081545
 30
0.0
 40
2.5
  0
CIRCLE
  5
129
330
1F
100
AcDbEntity
  8
0
 62
     7
370
    60
100
AcDbCircle
 10
220.6625188693207
 20
251.3969957081545
 30
0.0
 40
2.5
  0
LINE
  5
12A
330
1F
100
AcDbEntity
  8
0
 62
     7
 48
0.0625
370
    60
100
AcDbLine
 10
231.1625188693207
 20
276.3969957081545
 30
0.0
 11
233.6625188693207
 21
276.3969957081545
 31
0.0
  0
LINE
  5
12B
330
1F
100
AcDbEntity
  8
0
 62
     7
370
    60
100
AcDbLine
 10
231.1625188693207
 20
226.3969957081545
 30
0.0
 11
231.1625188693207
 21
276.3969957081545
 31
0.0
  0
LINE
  5
12C
330
1F
100
AcDbEntity
  8
0
 62
     7
 48
0.0625
370
    60
100
AcDbLine
 10
233.6625188693207
 20
226.3969957081545
 30
0.0
 11
231.1625188693207
 21
226.3969957081545
 31
0.0
  0
LINE
  5
12D
330
1F
100
AcDbEntity
  8
0
 62
     7
370
    60
100
AcDbLine
 10
233.6625188693207
 20
226.3969957081545
 30
0.0
 11
233.6625188693207
 21
276.3969957081545
 31
0.0
  0
LINE
  5
12E
330
1F
100
AcDbEntity
  8
0
 62
     7
 48
0.003268
370
    60
100
AcDbLine
 10
382.6625168693207
 20
407.4858627081545
 30
0.0
 11
382.6625168693207
 21
407.3551257081545
 31
0.0
  0
LINE
  5
12F
330
1F
100
AcDbEntity
  8
0
 62
     7
 48
0.07
370
    60
100
AcDbLine
 10
231.1625188693207
 20
226.3969957081545
 30
0.0
 11
228.3625158693207
 21
226.3969957081545
 31
0.0
  0
LINE
  5
130
330
1F
100
AcDbEntity
  8
0
 62
     7
 48
0.005
370
    60
100
AcDbLine
 10
217.3625158693207
 20
226.3969957081545
 30
0.0
 11
217.1625188693207
 21
226.3969957081545
 31
0.0
  0
ARC
  5
131
330
1F
100
AcDbEntity
  8
0
 62
     7
370
    60
100
AcDbCircle
 10
217.1625188693207
 20
228.3969957081545
 30
0.0
 40
2.000000000000008
100
AcDbArc
 50
180.0000049999997
 51
270.0000009999997
  0
LINE
  5
132
330
1F
100
AcDbEntity
  8
0
 62
     7
 48
0.07
370
    60
100
AcDbLine
 10
231.1625188693207
 20
276.3969957081545
 30
0.0
 11
228.3625158693207
 21
276.3969957081545
 31
0.0
  0
LINE
  5
133
330
1F
100
AcDbEntity
  8
0
 62
     7
 48
0.005
370
    60
100
AcDbLine
 10
217.3625158693207
 20
276.3969957081545
 30
0.0
 11
217.1625188693207
 21
276.3969957081545
 31
0.0
  0
LINE
  5
134
330
1F
100
AcDbEntity
  8
0
 62
     7
 48
0.466747
370
    60
100
AcDbLine
 10
215.1625188693207
 20
228.3969957081545
 30
0.0
 11
215.1625188693207
 21
247.0668717081545
 31
0.0
  0
LINE
  5
135
330
1F
100
AcDbEntity
  8
0
 62
     7
 48
0.466747
370
    60
100
AcDbLine
 10
215.1625188693207
 20
255.7271267081545
 30
0.0
 11
215.1625188693207
 21
274.3969957081545
 31
0.0
  0
ARC
  5
136
330
1F
100
AcDbEntity
  8
0
 62
     7
370
    60
100
AcDbCircle
 10
217.1625188693207
 20
274.3969957081545
 30
0.0
 40
2.000000000000003
100
AcDbArc
 50
90.00000299999932
 51
180.0000049999993
  0
LINE
  5
137
330
1F
100
AcDbEntity
  8
0
 62
     7
 48
0.07
370
    60
100
AcDbLine
 10
471.1625188693207
 20
276.3969957081545
 30
0.0
 11
473.9625138693207
 21
276.3969957081545
 31
0.0
  0
LINE
  5
138
330
1F
100
AcDbEntity
  8
0
 62
     7
 48
0.005
370
    60
100
AcDbLine
 10
484.9625218693206
 20
276.3969957081545
 30
0.0
 11
485.1625188693207
 21
276.3969957081545
 31
0.0
  0
ARC
  5
139
330
1F
100
AcDbEntity
  8
0
 62
     7
370
    60
100
AcDbCircle
 10
485.1625188693207
 20
274.3969957081545
 30
0.0
 40
2.0
100
AcDbArc
 50
0.0
 51
90.000003
  0
LINE
  5
13A
330
1F
100
AcDbEntity
  8
0
 62
     7
 48
0.07
370
    60
100
AcDbLine
 10
471.1625188693207
 20
226.3969957081545
 30
0.0
 11
473.9625138693207
 21
226.3969957081545
 31
0.0
  0
LINE
  5
13B
330
1F
100
AcDbEntity
  8
0
 62
     7
 48
0.005
370
    60
100
AcDbLine
 10
484.9625218693206
 20
226.3969957081545
 30
0.0
 11
485.1625188693207
 21
226.3969957081545
 31
0.0
  0
LINE
  5
13C
330
1F
100
AcDbEntity
  8
0
 62
     7
 48
0.466747
370
    60
100
AcDbLine
 10
487.1625188693207
 20
228.3969957081545
 30
0.0
 11
487.1625188693207
 21
247.0668717081545
 31
0.0
  0
LINE
  5
13D
330
1F
100
AcDbEntity
  8
0
 62
     7
 48
0.466747
370
    60
100
AcDbLine
 10
487.1625188693207
 20
255.7271267081545
 30
0.0
 11
487.1625188693207
 21
274.3969957081545
 31
0.0
  0
ARC
  5
13E
330
1F
100
AcDbEntity
  8
0
 62
     7
370
    60
100
AcDbCircle
 10
485.1625188693207
 20
228.3969957081545
 30
0.0
 40
2.0
100
AcDbArc
 50
270.0000010000014
 51
0.0000100000014135
  0
LINE
  5
13F
330
1F
100
AcDbEntity
  8
0
 62
     7
 48
0.039587
370
    60
100
AcDbLine
 10
467.6625188693207
 20
68.44750970815453
 30
0.0
 11
467.6625188693207
 21
70.03097570815451
 31
0.0
  0
LINE
  5
140
330
1F
100
AcDbEntity
  8
0
 62
     7
 48
0.021651
370
    60
100
AcDbLine
 10
467.6625188693207
 20
70.89699570815453
 30
0.0
 11
467.6625188693207
 21
70.03097570815451
 31
0.0
  0
LINE
  5
141
330
1F
100
AcDbEntity
  8
0
 62
     7
 48
0.073951
370
    60
100
AcDbLine
 10
467.6205568693207
 20
68.39699570815453
 30
0.0
 11
464.6625188693207
 21
68.39699570815453
 31
0.0
  0
ARC
  5
142
330
1F
100
AcDbEntity
  8
0
 62
     7
370
    60
100
AcDbCircle
 10
467.6216028693207
 20
68.43785070815453
 30
0.0
 40
0.0411829999999959
100
AcDbArc
 50
268.5294300000282
 51
13.28426700002833
  0
LINE
  5
143
330
1F
100
AcDbEntity
  8
0
 62
     7
370
    60
100
AcDbLine
 10
470.1625188693207
 20
73.89699970815452
 30
0.0
 11
470.1625188693207
 21
126.9066267081545
 31
0.0
  0
LINE
  5
144
330
1F
100
AcDbEntity
  8
0
 62
     7
370
    60
100
AcDbLine
 10
470.1625188693207
 20
130.5295117081545
 30
0.0
 11
470.1625188693207
 21
226.3969957081545
 31
0.0
  0
LINE
  5
145
330
1F
100
AcDbEntity
  8
0
 62
     7
 48
0.021651
370
    60
100
AcDbLine
 10
467.6625188693207
 20
70.89699570815453
 30
0.0
 11
468.5285388693207
 21
70.89699570815453
 31
0.0
  0
LINE
  5
146
330
1F
100
AcDbEntity
  8
0
 62
     7
 48
0.039587
370
    60
100
AcDbLine
 10
470.1120048693207
 20
70.89699570815453
 30
0.0
 11
468.5285388693207
 21
70.89699570815453
 31
0.0
  0
ARC
  5
147
330
1F
100
AcDbEntity
  8
0
 62
     7
370
    60
100
AcDbCircle
 10
470.1217637908758
 20
70.9374755832246
 30
0.0
 40
0.0407819831556183
100
AcDbArc
 50
256.438316296752
 51
2.081332675725582
  0
LINE
  5
148
330
1F
100
AcDbEntity
  8
0
 62
     7
 48
0.073951
370
    60
100
AcDbLine
 10
470.1625188693207
 20
70.9389567081545
 30
0.0
 11
470.1625188693207
 21
73.89699970815452
 31
0.0
  0
LINE
  5
149
330
1F
100
AcDbEntity
  8
0
 62
     7
370
    60
100
AcDbLine
 10
232.1625188693207
 20
73.89699970815452
 30
0.0
 11
232.1625188693207
 21
126.9066197081545
 31
0.0
  0
LINE
  5
14A
330
1F
100
AcDbEntity
  8
0
 62
     7
370
    60
100
AcDbLine
 10
232.1625188693207
 20
130.5295037081545
 30
0.0
 11
232.1625188693207
 21
226.3969957081545
 31
0.0
  0
LINE
  5
14B
330
1F
100
AcDbEntity
  8
0
 62
     7
 48
0.021651
370
    60
100
AcDbLine
 10
233.7964908693207
 20
70.89699570815453
 30
0.0
 11
234.6625188693207
 21
70.89699570815453
 31
0.0
  0
LINE
  5
14C
330
1F
100
AcDbEntity
  8
0
 62
     7
 48
0.039587
370
    60
100
AcDbLine
 10
233.7964908693207
 20
70.89699570815453
 30
0.0
 11
232.2130258693207
 21
70.89699570815453
 31
0.0
  0
LINE
  5
14D
330
1F
100
AcDbEntity
  8
0
 62
     7
 48
0.073951
370
    60
100
AcDbLine
 10
232.1625188693207
 20
73.89699970815452
 30
0.0
 11
232.1625188693207
 21
70.9389567081545
 31
0.0
  0
ARC
  5
14E
330
1F
100
AcDbEntity
  8
0
 62
     7
370
    60
100
AcDbCircle
 10
232.2033668693207
 20
70.93791170815452
 30
0.0
 40
0.0411829999999726
100
AcDbArc
 50
178.5294239999775
 51
283.2842539999775
  0
LINE
  5
14F
330
1F
100
AcDbEntity
  8
0
 62
     7
 48
0.021651
370
    60
100
AcDbLine
 10
234.6625188693207
 20
70.89699570815453
 30
0.0
 11
234.6625188693207
 21
70.03097570815451
 31
0.0
  0
LINE
  5
150
330
1F
100
AcDbEntity
  8
0
 62
     7
 48
0.039587
370
    60
100
AcDbLine
 10
234.6625188693207
 20
68.44750970815453
 30
0.0
 11
234.6625188693207
 21
70.03097570815451
 31
0.0
  0
ARC
  5
151
330
1F
100
AcDbEntity
  8
0
 62
     7
370
    60
100
AcDbCircle
 10
234.7034278693207
 20
68.43785070815453
 30
0.0
 40
0.0411829999999831
100
AcDbArc
 50
166.7157379999781
 51
271.4705679999781
  0
LINE
  5
152
330
1F
100
AcDbEntity
  8
0
 62
     7
 48
0.073951
370
    60
100
AcDbLine
 10
237.6625188693207
 20
68.39699570815453
 30
0.0
 11
234.7044728693207
 21
68.39699570815453
 31
0.0
  0
LWPOLYLINE
  5
153
330
1F
100
AcDbEntity
  8
0
 62
     7
370
    60
100
AcDbPolyline
 90
        5
 70
     0
 43
0.0
 10
234.7044728693207
 20
69.89699570815453
 10
234.6900608693207
 20
69.90146670815453
 10
234.6787468693207
 20
69.91489370815454
 10
234.6675468693207
 20
69.95174370815452
 10
234.6625188693207
 20
70.03097570815451
  0
LINE
  5
154
330
1F
100
AcDbEntity
  8
0
 62
     7
 48
0.039587
370
    60
100
AcDbLine
 10
325.1625168693207
 20
68.44750970815453
 30
0.0
 11
325.1625168693207
 21
70.03097570815451
 31
0.0
  0
LINE
  5
155
330
1F
100
AcDbEntity
  8
0
 62
     7
 48
0.021651
370
    60
100
AcDbLine
 10
325.1625168693207
 20
70.89699570815453
 30
0.0
 11
325.1625168693207
 21
70.03097570815451
 31
0.0
  0
LINE
  5
156
330
1F
100
AcDbEntity
  8
0
 62
     7
370
    60
100
AcDbLine
 10
322.1625168693207
 20
68.39699570815453
 30
0.0
 11
237.6625188693207
 21
68.39699570815453
 31
0.0
  0
LINE
  5
157
330
1F
100
AcDbEntity
  8
0
 62
     7
 48
0.073951
370
    60
100
AcDbLine
 10
325.1205548693207
 20
68.39699570815453
 30
0.0
 11
322.1625168693207
 21
68.39699570815453
 31
0.0
  0
ARC
  5
158
330
1F
100
AcDbEntity
  8
0
 62
     7
370
    60
100
AcDbCircle
 10
325.1216038693208
 20
68.43785070815453
 30
0.0
 40
0.0411829999999959
100
AcDbArc
 50
268.5294300000282
 51
13.28426700002833
  0
LINE
  5
159
330
1F
100
AcDbEntity
  8
0
 62
     7
 48
0.021651
370
    60
100
AcDbLine
 10
377.1625168693207
 20
70.89699570815453
 30
0.0
 11
377.1625168693207
 21
70.03097570815451
 31
0.0
  0
LINE
  5
15A
330
1F
100
AcDbEntity
  8
0
 62
     7
 48
0.039587
370
    60
100
AcDbLine
 10
377.1625168693207
 20
68.39699570815453
 30
0.0
 11
377.1625168693207
 21
70.03097570815451
 31
0.0
  0
LINE
  5
15B
330
1F
100
AcDbEntity
  8
0
 62
     7
 48
0.073951
370
    60
100
AcDbLine
 10
380.1625168693207
 20
68.39699570815453
 30
0.0
 11
377.1625168693207
 21
68.39699570815453
 31
0.0
  0
LINE
  5
15C
330
1F
100
AcDbEntity
  8
0
 62
     7
370
    60
100
AcDbLine
 10
464.6625188693207
 20
68.39699570815453
 30
0.0
 11
380.1625168693207
 21
68.39699570815453
 31
0.0
  0
LINE
  5
15D
330
1F
100
AcDbEntity
  8
0
 62
     7
 48
0.021651
370
    60
100
AcDbLine
 10
421.1625188693207
 20
394.7630237081545
 30
0.0
 11
421.1625188693207
 21
393.8969957081545
 31
0.0
  0
LINE
  5
15E
330
1F
100
AcDbEntity
  8
0
 62
     7
 48
0.039587
370
    60
100
AcDbLine
 10
421.1625188693207
 20
394.7630237081545
 30
0.0
 11
421.1625188693207
 21
396.3464887081545
 31
0.0
  0
LINE
  5
15F
330
1F
100
AcDbEntity
  8
0
 62
     7
 48
0.073951
370
    60
100
AcDbLine
 10
421.2044728693207
 20
396.3969957081545
 30
0.0
 11
424.1625188693207
 21
396.3969957081545
 31
0.0
  0
ARC
  5
160
330
1F
100
AcDbEntity
  8
0
 62
     7
370
    60
100
AcDbCircle
 10
421.2030027620049
 20
396.3562301053887
 30
0.0
 40
0.0407921019853169
100
AcDbArc
 50
87.934669101632
 51
193.5546172434261
  0
LINE
  5
161
330
1F
100
AcDbEntity
  8
0
 62
     7
 48
0.039587
370
    60
100
AcDbLine
 10
467.6625188693207
 20
394.7630237081545
 30
0.0
 11
467.6625188693207
 21
396.3464887081545
 31
0.0
  0
LINE
  5
162
330
1F
100
AcDbEntity
  8
0
 62
     7
 48
0.021651
370
    60
100
AcDbLine
 10
467.6625188693207
 20
394.7630237081545
 30
0.0
 11
467.6625188693207
 21
393.8969957081545
 31
0.0
  0
LINE
  5
163
330
1F
100
AcDbEntity
  8
0
 62
     7
370
    60
100
AcDbLine
 10
424.1625188693207
 20
396.3969957081545
 30
0.0
 11
464.6625188693207
 21
396.3969957081545
 31
0.0
  0
LINE
  5
164
330
1F
100
AcDbEntity
  8
0
 62
     7
 48
0.073951
370
    60
100
AcDbLine
 10
464.6625188693207
 20
396.3969957081545
 30
0.0
 11
467.6205568693207
 21
396.3969957081545
 31
0.0
  0
ARC
  5
165
330
1F
100
AcDbEntity
  8
0
 62
     7
370
    60
100
AcDbCircle
 10
467.6220273834618
 20
396.3562299695124
 30
0.0
 40
0.0407926467767048
100
AcDbArc
 50
346.445768602685
 51
92.08119301762102
  0
LINE
  5
166
330
1F
100
AcDbEntity
  8
0
 62
     7
 48
0.37524
370
    60
100
AcDbLine
 10
470.1625188693207
 20
390.8969957081545
 30
0.0
 11
470.1625188693207
 21
375.8873827081545
 31
0.0
  0
LINE
  5
167
330
1F
100
AcDbEntity
  8
0
 62
     7
370
    60
100
AcDbLine
 10
470.1625188693207
 20
372.2645037081545
 30
0.0
 11
470.1625188693207
 21
276.3969957081545
 31
0.0
  0
LINE
  5
168
330
1F
100
AcDbEntity
  8
0
 62
     7
 48
0.039587
370
    60
100
AcDbLine
 10
470.1120048693207
 20
393.8969957081545
 30
0.0
 11
468.5285388693207
 21
393.8969957081545
 31
0.0
  0
LINE
  5
169
330
1F
100
AcDbEntity
  8
0
 62
     7
 48
0.021651
370
    60
100
AcDbLine
 10
467.6625188693207
 20
393.8969957081545
 30
0.0
 11
468.5285388693207
 21
393.8969957081545
 31
0.0
  0
LINE
  5
16A
330
1F
100
AcDbEntity
  8
0
 62
     7
 48
0.073951
370
    60
100
AcDbLine
 10
470.1625188693207
 20
390.8969957081545
 30
0.0
 11
470.1625188693207
 21
393.8550337081545
 31
0.0
  0
ARC
  5
16B
330
1F
100
AcDbEntity
  8
0
 62
     7
370
    60
100
AcDbCircle
 10
470.1206129750128
 20
393.855617947655
 30
0.0
 40
0.0422242202073611
100
AcDbArc
 50
359.2222613328377
 51
101.4918025367984
  0
LINE
  5
16C
330
1F
100
AcDbEntity
  8
0
 62
     7
 48
0.039587
370
    60
100
AcDbLine
 10
281.1625188693207
 20
394.7630237081545
 30
0.0
 11
281.1625188693207
 21
396.3464887081545
 31
0.0
  0
LINE
  5
16D
330
1F
100
AcDbEntity
  8
0
 62
     7
 48
0.021651
370
    60
100
AcDbLine
 10
281.1625188693207
 20
394.7630237081545
 30
0.0
 11
281.1625188693207
 21
393.8969957081545
 31
0.0
  0
ARC
  5
16E
330
1F
100
AcDbEntity
  8
0
 62
     7
370
    60
100
AcDbCircle
 10
281.1216028693207
 20
396.3561327081545
 30
0.0
 40
0.0411829999999734
100
AcDbArc
 50
346.7157329999916
 51
91.47056999999147
  0
LINE
  5
16F
330
1F
100
AcDbEntity
  8
0
 62
     7
 48
0.073951
370
    60
100
AcDbLine
 10
278.1625188693207
 20
396.3969957081545
 30
0.0
 11
281.1205568693207
 21
396.3969957081545
 31
0.0
  0
LINE
  5
170
330
1F
100
AcDbEntity
  8
0
 62
     7
 48
0.021651
370
    60
100
AcDbLine
 10
234.6625188693207
 20
394.7630237081545
 30
0.0
 11
234.6625188693207
 21
393.8969957081545
 31
0.0
  0
LINE
  5
171
330
1F
100
AcDbEntity
  8
0
 62
     7
 48
0.039587
370
    60
100
AcDbLine
 10
234.6625188693207
 20
394.7630237081545
 30
0.0
 11
234.6625188693207
 21
396.3464887081545
 31
0.0
  0
LINE
  5
172
330
1F
100
AcDbEntity
  8
0
 62
     7
370
    60
100
AcDbLine
 10
237.6625188693207
 20
396.3969957081545
 30
0.0
 11
278.1625188693207
 21
396.3969957081545
 31
0.0
  0
LINE
  5
173
330
1F
100
AcDbEntity
  8
0
 62
     7
 48
0.073951
370
    60
100
AcDbLine
 10
234.7044728693207
 20
396.3969957081545
 30
0.0
 11
237.6625188693207
 21
396.3969957081545
 31
0.0
  0
ARC
  5
174
330
1F
100
AcDbEntity
  8
0
 62
     7
370
    60
100
AcDbCircle
 10
234.7034278693207
 20
396.3561327081545
 30
0.0
 40
0.0411829999999969
100
AcDbArc
 50
88.52942900000676
 51
193.2842720000067
  0
LINE
  5
175
330
1F
100
AcDbEntity
  8
0
 62
     7
 48
0.37524
370
    60
100
AcDbLine
 10
232.1625188693207
 20
390.8969957081545
 30
0.0
 11
232.1625188693207
 21
375.8873827081545
 31
0.0
  0
LINE
  5
176
330
1F
100
AcDbEntity
  8
0
 62
     7
370
    60
100
AcDbLine
 10
232.1625188693207
 20
372.2645037081545
 30
0.0
 11
232.1625188693207
 21
276.3969957081545
 31
0.0
  0
LINE
  5
177
330
1F
100
AcDbEntity
  8
0
 62
     7
 48
0.039587
370
    60
100
AcDbLine
 10
233.7964908693207
 20
393.8969957081545
 30
0.0
 11
232.2130258693207
 21
393.8969957081545
 31
0.0
  0
LINE
  5
178
330
1F
100
AcDbEntity
  8
0
 62
     7
 48
0.021651
370
    60
100
AcDbLine
 10
233.7964908693207
 20
393.8969957081545
 30
0.0
 11
234.6625188693207
 21
393.8969957081545
 31
0.0
  0
LINE
  5
179
330
1F
100
AcDbEntity
  8
0
 62
     7
 48
0.073951
370
    60
100
AcDbLine
 10
232.1625188693207
 20
393.8550337081545
 30
0.0
 11
232.1625188693207
 21
390.8969957081545
 31
0.0
  0
ARC
  5
17A
330
1F
100
AcDbEntity
  8
0
 62
     7
370
    60
100
AcDbCircle
 10
232.2033668693207
 20
393.8561017081544
 30
0.0
 40
0.0411829999999837
100
AcDbArc
 50
76.71573600002559
 51
181.4705720000256
  0
ARC
  5
17B
330
1F
100
AcDbEntity
  8
0
 62
     7
370
    60
100
AcDbCircle
 10
220.6520058693207
 20
251.3992917081545
 30
0.0
 40
2.76054600000001
100
AcDbArc
 50
335.4276449999999
 51
359.9523769999997
  0
LINE
  5
17C
330
1F
100
AcDbEntity
  8
0
 62
     7
 48
0.146359
370
    60
100
AcDbLine
 10
223.1625188693207
 20
244.3969957081545
 30
0.0
 11
223.1625188693207
 21
250.2513577081545
 31
0.0
  0
ARC
  5
17D
330
1F
100
AcDbEntity
  8
0
 62
     7
370
    60
100
AcDbCircle
 10
220.6625188693207
 20
251.3969957081545
 30
0.0
 40
2.750000000000007
100
AcDbArc
 50
24.61997599999979
 51
335.3800189999998
  0
LINE
  5
17E
330
1F
100
AcDbEntity
  8
0
 62
     7
 48
0.146359
370
    60
100
AcDbLine
 10
223.1625188693207
 20
252.5426407081545
 30
0.0
 11
223.1625188693207
 21
258.3969957081545
 31
0.0
  0
LINE
  5
17F
330
1F
100
AcDbEntity
  8
0
 62
     7
 48
0.125
370
    60
100
AcDbLine
 10
228.1625188693207
 20
258.3969957081545
 30
0.0
 11
223.1625188693207
 21
258.3969957081545
 31
0.0
  0
LINE
  5
180
330
1F
100
AcDbEntity
  8
0
 62
     7
 48
0.35
370
    60
100
AcDbLine
 10
228.1625188693207
 20
244.3969957081545
 30
0.0
 11
228.1625188693207
 21
258.3969957081545
 31
0.0
  0
LINE
  5
181
330
1F
100
AcDbEntity
  8
0
 62
     7
 48
0.125
370
    60
100
AcDbLine
 10
228.1625188693207
 20
244.3969957081545
 30
0.0
 11
223.1625188693207
 21
244.3969957081545
 31
0.0
  0
ARC
  5
182
330
1F
100
AcDbEntity
  8
0
 62
     7
370
    60
100
AcDbCircle
 10
220.6525698693207
 20
251.3948287081545
 30
0.0
 40
2.75996600000001
100
AcDbArc
 50
0.0450569999998693
 51
24.57492099999987
  0
LINE
  5
183
330
1F
100
AcDbEntity
  8
0
 62
     7
 48
0.0625
370
    60
100
AcDbLine
 10
223.1625188693207
 20
258.3969957081545
 30
0.0
 11
220.6625188693207
 21
258.3969957081545
 31
0.0
  0
ARC
  5
184
330
1F
100
AcDbEntity
  8
0
 62
     7
370
    60
100
AcDbCircle
 10
220.6625188693207
 20
251.3969957081545
 30
0.0
 40
7.00000000000001
100
AcDbArc
 50
90.00000300000002
 51
270.000001
  0
LINE
  5
185
330
1F
100
AcDbEntity
  8
0
 62
     7
 48
0.0625
370
    60
100
AcDbLine
 10
220.6625188693207
 20
244.3969957081545
 30
0.0
 11
223.1625188693207
 21
244.3969957081545
 31
0.0
  0
ARC
  5
186
330
1F
100
AcDbEntity
  8
0
 62
     7
370
    60
100
AcDbCircle
 10
351.1603458693207
 20
120.8870527081545
 30
0.0
 40
2.759966000000003
100
AcDbArc
 50
65.42507699999956
 51
89.95494399999956
  0
LINE
  5
187
330
1F
100
AcDbEntity
  8
0
 62
     7
 48
0.146359
370
    60
100
AcDbLine
 10
358.1625168693207
 20
123.3969987081545
 30
0.0
 11
352.3081598693208
 21
123.3969987081545
 31
0.0
  0
ARC
  5
188
330
1F
100
AcDbEntity
  8
0
 62
     7
370
    60
100
AcDbCircle
 10
351.1625158693207
 20
120.8969987081545
 30
0.0
 40
2.750000000000012
100
AcDbArc
 50
114.6199729999995
 51
65.3800279999995
  0
LINE
  5
189
330
1F
100
AcDbEntity
  8
0
 62
     7
 48
0.146359
370
    60
100
AcDbLine
 10
350.0168728693207
 20
123.3969987081545
 30
0.0
 11
344.1625168693207
 21
123.3969987081545
 31
0.0
  0
LINE
  5
18A
330
1F
100
AcDbEntity
  8
0
 62
     7
 48
0.125
370
    60
100
AcDbLine
 10
344.1625168693207
 20
123.3969987081545
 30
0.0
 11
344.1625168693207
 21
128.3969987081545
 31
0.0
  0
LINE
  5
18B
330
1F
100
AcDbEntity
  8
0
 62
     7
 48
0.35
370
    60
100
AcDbLine
 10
358.1625168693207
 20
128.3969987081545
 30
0.0
 11
344.1625168693207
 21
128.3969987081545
 31
0.0
  0
LINE
  5
18C
330
1F
100
AcDbEntity
  8
0
 62
     7
 48
0.125
370
    60
100
AcDbLine
 10
358.1625168693207
 20
128.3969987081545
 30
0.0
 11
358.1625168693207
 21
123.3969987081545
 31
0.0
  0
ARC
  5
18D
330
1F
100
AcDbEntity
  8
0
 62
     7
370
    60
100
AcDbCircle
 10
351.1646868693207
 20
120.8870527081545
 30
0.0
 40
2.759966000000001
100
AcDbArc
 50
90.04505400000056
 51
114.5749210000006
  0
ARC
  5
18E
330
1F
100
AcDbEntity
  8
0
 62
     7
370
    60
100
AcDbCircle
 10
351.1625158693207
 20
120.8969987081545
 30
0.0
 40
7.000000000000027
100
AcDbArc
 50
180.0000049999998
 51
0.0000099999997851
  0
LINE
  5
18F
330
1F
100
AcDbEntity
  8
0
 62
     7
 48
0.0625
370
    60
100
AcDbLine
 10
344.1625168693207
 20
123.3969987081545
 30
0.0
 11
344.1625168693207
 21
120.8969987081545
 31
0.0
  0
LINE
  5
190
330
1F
100
AcDbEntity
  8
0
 62
     7
 48
0.0625
370
    60
100
AcDbLine
 10
358.1625168693207
 20
120.8969987081545
 30
0.0
 11
358.1625168693207
 21
123.3969987081545
 31
0.0
  0
ARC
  5
191
330
1F
100
AcDbEntity
  8
0
 62
     7
370
    60
100
AcDbCircle
 10
481.6730318693207
 20
251.3947067081545
 30
0.0
 40
2.760545999999957
100
AcDbArc
 50
155.4276479999993
 51
179.9523709999993
  0
LINE
  5
192
330
1F
100
AcDbEntity
  8
0
 62
     7
 48
0.146359
370
    60
100
AcDbLine
 10
479.1625188693207
 20
258.3969957081545
 30
0.0
 11
479.1625188693207
 21
252.5426407081545
 31
0.0
  0
ARC
  5
193
330
1F
100
AcDbEntity
  8
0
 62
     7
370
    60
100
AcDbCircle
 10
481.6625188693207
 20
251.3969957081545
 30
0.0
 40
2.749999999999955
100
AcDbArc
 50
204.6199820000003
 51
155.3800100000003
  0
LINE
  5
194
330
1F
100
AcDbEntity
  8
0
 62
     7
 48
0.146359
370
    60
100
AcDbLine
 10
479.1625188693207
 20
250.2513577081545
 30
0.0
 11
479.1625188693207
 21
244.3969957081545
 31
0.0
  0
LINE
  5
195
330
1F
100
AcDbEntity
  8
0
 62
     7
 48
0.125
370
    60
100
AcDbLine
 10
479.1625188693207
 20
244.3969957081545
 30
0.0
 11
474.1625188693207
 21
244.3969957081545
 31
0.0
  0
LINE
  5
196
330
1F
100
AcDbEntity
  8
0
 62
     7
 48
0.35
370
    60
100
AcDbLine
 10
474.1625188693207
 20
258.3969957081545
 30
0.0
 11
474.1625188693207
 21
244.3969957081545
 31
0.0
  0
LINE
  5
197
330
1F
100
AcDbEntity
  8
0
 62
     7
 48
0.125
370
    60
100
AcDbLine
 10
474.1625188693207
 20
258.3969957081545
 30
0.0
 11
479.1625188693207
 21
258.3969957081545
 31
0.0
  0
ARC
  5
198
330
1F
100
AcDbEntity
  8
0
 62
     7
370
    60
100
AcDbCircle
 10
481.6730318693207
 20
251.3992917081545
 30
0.0
 40
2.760545999999992
100
AcDbArc
 50
180.0476290000002
 51
204.5723520000003
  0
ARC
  5
199
330
1F
100
AcDbEntity
  8
0
 62
     7
370
    60
100
AcDbCircle
 10
481.6625188693207
 20
251.3969957081545
 30
0.0
 40
7.000000000000001
100
AcDbArc
 50
270.0000009999995
 51
89.99999199999966
  0
LINE
  5
19A
330
1F
100
AcDbEntity
  8
0
 62
     7
 48
0.0625
370
    60
100
AcDbLine
 10
479.1625188693207
 20
244.3969957081545
 30
0.0
 11
481.6625188693207
 21
244.3969957081545
 31
0.0
  0
LINE
  5
19B
330
1F
100
AcDbEntity
  8
0
 62
     7
 48
0.0625
370
    60
100
AcDbLine
 10
481.6625188693207
 20
258.3969957081545
 30
0.0
 11
479.1625188693207
 21
258.3969957081545
 31
0.0
  0
ARC
  5
19C
330
1F
100
AcDbEntity
  8
0
 62
     7
370
    60
100
AcDbCircle
 10
351.1648108693207
 20
381.9075087081545
 30
0.0
 40
2.760545999999997
100
AcDbArc
 50
245.4276480000003
 51
269.9523770000003
  0
LINE
  5
19D
330
1F
100
AcDbEntity
  8
0
 62
     7
 48
0.146359
370
    60
100
AcDbLine
 10
344.1625168693207
 20
379.3969957081545
 30
0.0
 11
350.0168728693207
 21
379.3969957081545
 31
0.0
  0
ARC
  5
19E
330
1F
100
AcDbEntity
  8
0
 62
     7
370
    60
100
AcDbCircle
 10
351.1625158693207
 20
381.8969957081545
 30
0.0
 40
2.749999999999971
100
AcDbArc
 50
294.6199639999996
 51
245.3800479999997
  0
LINE
  5
19F
330
1F
100
AcDbEntity
  8
0
 62
     7
 48
0.146359
370
    60
100
AcDbLine
 10
352.3081598693208
 20
379.3969957081545
 30
0.0
 11
358.1625168693207
 21
379.3969957081545
 31
0.0
  0
LINE
  5
1A0
330
1F
100
AcDbEntity
  8
0
 62
     7
 48
0.125
370
    60
100
AcDbLine
 10
358.1625168693207
 20
374.3969957081545
 30
0.0
 11
358.1625168693207
 21
379.3969957081545
 31
0.0
  0
LINE
  5
1A1
330
1F
100
AcDbEntity
  8
0
 62
     7
 48
0.35
370
    60
100
AcDbLine
 10
344.1625168693207
 20
374.3969957081545
 30
0.0
 11
358.1625168693207
 21
374.3969957081545
 31
0.0
  0
LINE
  5
1A2
330
1F
100
AcDbEntity
  8
0
 62
     7
 48
0.125
370
    60
100
AcDbLine
 10
344.1625168693207
 20
374.3969957081545
 30
0.0
 11
344.1625168693207
 21
379.3969957081545
 31
0.0
  0
ARC
  5
1A3
330
1F
100
AcDbEntity
  8
0
 62
     7
370
    60
100
AcDbCircle
 10
351.1602218693207
 20
381.9075087081545
 30
0.0
 40
2.760546000000003
100
AcDbArc
 50
270.0476239999995
 51
294.5723539999998
  0
LINE
  5
1A4
330
1F
100
AcDbEntity
  8
0
 62
     7
 48
0.0625
370
    60
100
AcDbLine
 10
358.1625168693207
 20
379.3969957081545
 30
0.0
 11
358.1625168693207
 21
381.8969957081545
 31
0.0
  0
ARC
  5
1A5
330
1F
100
AcDbEntity
  8
0
 62
     7
370
    60
100
AcDbCircle
 10
351.1625158693207
 20
381.8969957081545
 30
0.0
 40
7.0
100
AcDbArc
 50
0.0
 51
180.000005
  0
LINE
  5
1A6
330
1F
100
AcDbEntity
  8
0
 62
     7
 48
0.0625
370
    60
100
AcDbLine
 10
344.1625168693207
 20
381.8969957081545
 30
0.0
 11
344.1625168693207
 21
379.3969957081545
 31
0.0
  0
ARC
  5
1A7
330
1F
100
AcDbEntity
  8
0
 62
     7
370
    60
100
AcDbCircle
 10
462.6625188693207
 20
362.8969957081545
 30
0.0
 40
15.0
100
AcDbArc
 50
0.0
 51
90.000003
  0
ARC
  5
1A8
330
1F
100
AcDbEntity
  8
0
 62
     7
370
    60
100
AcDbCircle
 10
239.6625188693207
 20
362.8969957081545
 30
0.0
 40
15.00000000000002
100
AcDbArc
 50
90.00000300000009
 51
180.000005
  0
ARC
  5
1A9
330
1F
100
AcDbEntity
  8
0
 62
     7
370
    60
100
AcDbCircle
 10
239.6625188693207
 20
139.8969987081545
 30
0.0
 40
15.0
100
AcDbArc
 50
179.9999950000002
 51
269.9999970000001
  0
ARC
  5
1AA
330
1F
100
AcDbEntity
  8
0
 62
     7
370
    60
100
AcDbCircle
 10
462.6625188693207
 20
139.8969987081545
 30
0.0
 40
15.00000000000002
100
AcDbArc
 50
269.9999970000001
 51
0.0000000000001018
  0
ARC
  5
1AB
330
1F
100
AcDbEntity
  8
0
 62
     7
370
    60
100
AcDbCircle
 10
462.6625188693207
 20
362.8969957081545
 30
0.0
 40
12.0
100
AcDbArc
 50
0.0
 51
90.000003
  0
LINE
  5
1AC
330
1F
100
AcDbEntity
  8
0
 62
     7
370
    60
100
AcDbLine
 10
239.6625188693207
 20
374.8969957081545
 30
0.0
 11
344.1625138693207
 21
374.8969957081545
 31
0.0
  0
LINE
  5
1AD
330
1F
100
AcDbEntity
  8
0
 62
     7
370
    60
100
AcDbLine
 10
358.1625138693207
 20
374.8969957081545
 30
0.0
 11
462.6625188693207
 21
374.8969957081545
 31
0.0
  0
ARC
  5
1AE
330
1F
100
AcDbEntity
  8
0
 62
     7
370
    60
100
AcDbCircle
 10
239.6625188693207
 20
362.8969957081545
 30
0.0
 40
12.00000000000002
100
AcDbArc
 50
90.00000300000013
 51
180.0000050000001
  0
LINE
  5
1AF
330
1F
100
AcDbEntity
  8
0
 62
     7
 48
0.2875
370
    60
100
AcDbLine
 10
227.6625188693207
 20
139.8969987081545
 30
0.0
 11
227.6625188693207
 21
151.3970007081545
 31
0.0
  0
LINE
  5
1B0
330
1F
100
AcDbEntity
  8
0
 62
     7
 48
0.2
370
    60
100
AcDbLine
 10
227.6625188693207
 20
236.3970027081545
 30
0.0
 11
227.6625188693207
 21
244.3970027081545
 31
0.0
  0
LINE
  5
1B1
330
1F
100
AcDbEntity
  8
0
 62
     7
 48
0.2
370
    60
100
AcDbLine
 10
227.6625188693207
 20
258.3970027081546
 30
0.0
 11
227.6625188693207
 21
266.3969957081545
 31
0.0
  0
LINE
  5
1B2
330
1F
100
AcDbEntity
  8
0
 62
     7
 48
0.2875
370
    60
100
AcDbLine
 10
227.6625188693207
 20
351.3969957081545
 30
0.0
 11
227.6625188693207
 21
362.8969957081545
 31
0.0
  0
ARC
  5
1B3
330
1F
100
AcDbEntity
  8
0
 62
     7
370
    60
100
AcDbCircle
 10
239.6625188693207
 20
139.8969987081545
 30
0.0
 40
11.99999999999999
100
AcDbArc
 50
180.0000049999998
 51
270.0000009999999
  0
LINE
  5
1B4
330
1F
100
AcDbEntity
  8
0
 62
     7
370
    60
100
AcDbLine
 10
462.6625188693207
 20
127.8969987081545
 30
0.0
 11
358.1625138693207
 21
127.8969987081545
 31
0.0
  0
LINE
  5
1B5
330
1F
100
AcDbEntity
  8
0
 62
     7
370
    60
100
AcDbLine
 10
344.1625138693207
 20
127.8969987081545
 30
0.0
 11
239.6625188693207
 21
127.8969987081545
 31
0.0
  0
ARC
  5
1B6
330
1F
100
AcDbEntity
  8
0
 62
     7
370
    60
100
AcDbCircle
 10
462.6625188693207
 20
139.8969987081545
 30
0.0
 40
12.00000000000002
100
AcDbArc
 50
269.9999970000001
 51
0.0000000000001018
  0
LINE
  5
1B7
330
1F
100
AcDbEntity
  8
0
 62
     7
 48
0.2875
370
    60
100
AcDbLine
 10
474.6625188693207
 20
362.8969957081545
 30
0.0
 11
474.6625188693207
 21
351.3969957081545
 31
0.0
  0
LINE
  5
1B8
330
1F
100
AcDbEntity
  8
0
 62
     7
 48
0.2
370
    60
100
AcDbLine
 10
474.6625188693207
 20
266.3969957081545
 30
0.0
 11
474.6625188693207
 21
258.3970027081546
 31
0.0
  0
LINE
  5
1B9
330
1F
100
AcDbEntity
  8
0
 62
     7
 48
0.2
370
    60
100
AcDbLine
 10
474.6625188693207
 20
244.3970027081545
 30
0.0
 11
474.6625188693207
 21
236.3969957081545
 31
0.0
  0
LINE
  5
1BA
330
1F
100
AcDbEntity
  8
0
 62
     7
 48
0.2875
370
    60
100
AcDbLine
 10
474.6625188693207
 20
151.3969987081545
 30
0.0
 11
474.6625188693207
 21
139.8969987081545
 31
0.0
  0
LINE
  5
1BB
330
1F
100
AcDbEntity
  8
0
 62
     7
370
    60
100
AcDbLine
 10
239.6625188693207
 20
377.8969957081545
 30
0.0
 11
344.1625138693207
 21
377.8969957081545
 31
0.0
  0
LINE
  5
1BC
330
1F
100
AcDbEntity
  8
0
 62
     7
370
    60
100
AcDbLine
 10
358.1625138693207
 20
377.8969957081545
 30
0.0
 11
462.6625188693207
 21
377.8969957081545
 31
0.0
  0
LINE
  5
1BD
330
1F
100
AcDbEntity
  8
0
 62
     7
 48
0.2875
370
    60
100
AcDbLine
 10
224.6625188693207
 20
139.8969987081545
 30
0.0
 11
224.6625188693207
 21
151.3970007081545
 31
0.0
  0
LINE
  5
1BE
330
1F
100
AcDbEntity
  8
0
 62
     7
 48
0.2
370
    60
100
AcDbLine
 10
224.6625188693207
 20
236.3970027081545
 30
0.0
 11
224.6625188693207
 21
244.3970027081545
 31
0.0
  0
LINE
  5
1BF
330
1F
100
AcDbEntity
  8
0
 62
     7
 48
0.2
370
    60
100
AcDbLine
 10
224.6625188693207
 20
258.3970027081546
 30
0.0
 11
224.6625188693207
 21
266.3969957081545
 31
0.0
  0
LINE
  5
1C0
330
1F
100
AcDbEntity
  8
0
 62
     7
 48
0.2875
370
    60
100
AcDbLine
 10
224.6625188693207
 20
351.3969957081545
 30
0.0
 11
224.6625188693207
 21
362.8969957081545
 31
0.0
  0
LINE
  5
1C1
330
1F
100
AcDbEntity
  8
0
 62
     7
370
    60
100
AcDbLine
 10
462.6625188693207
 20
124.8969987081545
 30
0.0
 11
358.1625138693207
 21
124.8969987081545
 31
0.0
  0
LINE
  5
1C2
330
1F
100
AcDbEntity
  8
0
 62
     7
370
    60
100
AcDbLine
 10
344.1625138693207
 20
124.8969987081545
 30
0.0
 11
239.6625188693207
 21
124.8969987081545
 31
0.0
  0
LINE
  5
1C3
330
1F
100
AcDbEntity
  8
0
 62
     7
 48
0.2875
370
    60
100
AcDbLine
 10
477.6625188693207
 20
362.8969957081545
 30
0.0
 11
477.6625188693207
 21
351.3969957081545
 31
0.0
  0
LINE
  5
1C4
330
1F
100
AcDbEntity
  8
0
 62
     7
 48
0.2
370
    60
100
AcDbLine
 10
477.6625188693207
 20
266.3969957081545
 30
0.0
 11
477.6625188693207
 21
258.3970027081546
 31
0.0
  0
LINE
  5
1C5
330
1F
100
AcDbEntity
  8
0
 62
     7
 48
0.2
370
    60
100
AcDbLine
 10
477.6625188693207
 20
244.3970027081545
 30
0.0
 11
477.6625188693207
 21
236.3970027081545
 31
0.0
  0
LINE
  5
1C6
330
1F
100
AcDbEntity
  8
0
 62
     7
 48
0.2875
370
    60
100
AcDbLine
 10
477.6625188693207
 20
151.3970007081545
 30
0.0
 11
477.6625188693207
 21
139.8969987081545
 31
0.0
  0
LINE
  5
1C7
330
1F
100
AcDbEntity
  8
0
 62
     7
370
    60
100
AcDbLine
 10
206.3625158693207
 20
266.3969957081545
 30
0.0
 11
206.3625158693207
 21
236.3969957081545
 31
0.0
  0
LINE
  5
1C8
330
1F
100
AcDbEntity
  8
0
 62
     7
 48
0.108699
370
    60
100
AcDbLine
 10
224.0145548693207
 20
266.3969957081545
 30
0.0
 11
228.3625158693207
 21
266.3969957081545
 31
0.0
  0
LINE
  5
1C9
330
1F
100
AcDbEntity
  8
0
 62
     7
 48
0.036613
370
    60
100
AcDbLine
 10
222.5500308693207
 20
266.3969957081545
 30
0.0
 11
224.0145548693207
 21
266.3969957081545
 31
0.0
  0
LINE
  5
1CA
330
1F
100
AcDbEntity
  8
0
 62
     7
 48
0.129688
370
    60
100
AcDbLine
 10
222.5500308693207
 20
266.3969957081545
 30
0.0
 11
217.3625158693207
 21
266.3969957081545
 31
0.0
  0
LINE
  5
1CB
330
1F
100
AcDbEntity
  8
0
 62
     7
 48
0.275
370
    60
100
AcDbLine
 10
217.3625158693207
 20
266.3969957081545
 30
0.0
 11
206.3625158693207
 21
266.3969957081545
 31
0.0
  0
LINE
  5
1CC
330
1F
100
AcDbEntity
  8
0
 62
     7
 48
0.047721
370
    60
100
AcDbLine
 10
190.7615028693207
 20
124.8969987081545
 30
0.0
 11
192.6703618693207
 21
124.8969987081545
 31
0.0
  0
LINE
  5
1CD
330
1F
100
AcDbEntity
  8
0
 62
     7
 48
0.047721
370
    60
100
AcDbLine
 10
190.7615028693207
 20
377.8969957081545
 30
0.0
 11
192.6703618693207
 21
377.8969957081545
 31
0.0
  0
LINE
  5
1CE
330
1F
100
AcDbEntity
  8
0
 62
     7
 48
0.031019
370
    60
100
AcDbLine
 10
189.5207498693207
 20
124.8969987081545
 30
0.0
 11
190.7615028693207
 21
124.8969987081545
 31
0.0
  0
LINE
  5
1CF
330
1F
100
AcDbEntity
  8
0
 62
     7
 48
0.031019
370
    60
100
AcDbLine
 10
189.5207498693207
 20
377.8969957081545
 30
0.0
 11
190.7615028693207
 21
377.8969957081545
 31
0.0
  0
LINE
  5
1D0
330
1F
100
AcDbEntity
  8
0
 62
     7
 48
0.047721
370
    60
100
AcDbLine
 10
187.6119058693207
 20
124.8969987081545
 30
0.0
 11
189.5207498693207
 21
124.8969987081545
 31
0.0
  0
LINE
  5
1D1
330
1F
100
AcDbEntity
  8
0
 62
     7
 48
0.047721
370
    60
100
AcDbLine
 10
187.6119058693207
 20
377.8969957081545
 30
0.0
 11
189.5207498693207
 21
377.8969957081545
 31
0.0
  0
LINE
  5
1D2
330
1F
100
AcDbEntity
  8
0
 62
     7
 48
0.031019
370
    60
100
AcDbLine
 10
186.3711518693207
 20
124.8969987081545
 30
0.0
 11
187.6119058693207
 21
124.8969987081545
 31
0.0
  0
LINE
  5
1D3
330
1F
100
AcDbEntity
  8
0
 62
     7
 48
0.031019
370
    60
100
AcDbLine
 10
186.3711518693207
 20
377.8969957081545
 30
0.0
 11
187.6119058693207
 21
377.8969957081545
 31
0.0
  0
LINE
  5
1D4
330
1F
100
AcDbEntity
  8
0
 62
     7
 48
0.047721
370
    60
100
AcDbLine
 10
184.4623078693207
 20
124.8969987081545
 30
0.0
 11
186.3711518693207
 21
124.8969987081545
 31
0.0
  0
LINE
  5
1D5
330
1F
100
AcDbEntity
  8
0
 62
     7
 48
0.047721
370
    60
100
AcDbLine
 10
184.4623078693207
 20
377.8969957081545
 30
0.0
 11
186.3711518693207
 21
377.8969957081545
 31
0.0
  0
LINE
  5
1D6
330
1F
100
AcDbEntity
  8
0
 62
     7
 48
0.031019
370
    60
100
AcDbLine
 10
183.2215548693207
 20
124.8969987081545
 30
0.0
 11
184.4623078693207
 21
124.8969987081545
 31
0.0
  0
LINE
  5
1D7
330
1F
100
AcDbEntity
  8
0
 62
     7
 48
0.031019
370
    60
100
AcDbLine
 10
183.2215548693207
 20
377.8969957081545
 30
0.0
 11
184.4623078693207
 21
377.8969957081545
 31
0.0
  0
LINE
  5
1D8
330
1F
100
AcDbEntity
  8
0
 62
     7
 48
0.047721
370
    60
100
AcDbLine
 10
181.3126958693207
 20
124.8969987081545
 30
0.0
 11
183.2215548693207
 21
124.8969987081545
 31
0.0
  0
LINE
  5
1D9
330
1F
100
AcDbEntity
  8
0
 62
     7
 48
0.047721
370
    60
100
AcDbLine
 10
181.3126958693207
 20
377.8969957081545
 30
0.0
 11
183.2215548693207
 21
377.8969957081545
 31
0.0
  0
LINE
  5
1DA
330
1F
100
AcDbEntity
  8
0
 62
     7
 48
0.031019
370
    60
100
AcDbLine
 10
180.0719428693207
 20
124.8969987081545
 30
0.0
 11
181.3126958693207
 21
124.8969987081545
 31
0.0
  0
LINE
  5
1DB
330
1F
100
AcDbEntity
  8
0
 62
     7
 48
0.031019
370
    60
100
AcDbLine
 10
180.0719428693207
 20
377.8969957081545
 30
0.0
 11
181.3126958693207
 21
377.8969957081545
 31
0.0
  0
LINE
  5
1DC
330
1F
100
AcDbEntity
  8
0
 62
     7
 48
0.047721
370
    60
100
AcDbLine
 10
178.1630988693207
 20
124.8969987081545
 30
0.0
 11
180.0719428693207
 21
124.8969987081545
 31
0.0
  0
LINE
  5
1DD
330
1F
100
AcDbEntity
  8
0
 62
     7
 48
0.047721
370
    60
100
AcDbLine
 10
178.1630988693207
 20
377.8969957081545
 30
0.0
 11
180.0719428693207
 21
377.8969957081545
 31
0.0
  0
LINE
  5
1DE
330
1F
100
AcDbEntity
  8
0
 62
     7
 48
0.031019
370
    60
100
AcDbLine
 10
176.9223458693207
 20
124.8969987081545
 30
0.0
 11
178.1630988693207
 21
124.8969987081545
 31
0.0
  0
LINE
  5
1DF
330
1F
100
AcDbEntity
  8
0
 62
     7
 48
0.031019
370
    60
100
AcDbLine
 10
176.9223458693207
 20
377.8969957081545
 30
0.0
 11
178.1630988693207
 21
377.8969957081545
 31
0.0
  0
LINE
  5
1E0
330
1F
100
AcDbEntity
  8
0
 62
     7
 48
0.047721
370
    60
100
AcDbLine
 10
175.0135018693207
 20
124.8969987081545
 30
0.0
 11
176.9223458693207
 21
124.8969987081545
 31
0.0
  0
LINE
  5
1E1
330
1F
100
AcDbEntity
  8
0
 62
     7
 48
0.047721
370
    60
100
AcDbLine
 10
175.0135018693207
 20
377.8969957081545
 30
0.0
 11
176.9223458693207
 21
377.8969957081545
 31
0.0
  0
LINE
  5
1E2
330
1F
100
AcDbEntity
  8
0
 62
     7
 48
0.031019
370
    60
100
AcDbLine
 10
173.7727488693207
 20
124.8969987081545
 30
0.0
 11
175.0135018693207
 21
124.8969987081545
 31
0.0
  0
LINE
  5
1E3
330
1F
100
AcDbEntity
  8
0
 62
     7
 48
0.031019
370
    60
100
AcDbLine
 10
173.7727488693207
 20
377.8969957081545
 30
0.0
 11
175.0135018693207
 21
377.8969957081545
 31
0.0
  0
LINE
  5
1E4
330
1F
100
AcDbEntity
  8
0
 62
     7
 48
0.047721
370
    60
100
AcDbLine
 10
171.8638888693207
 20
124.8969987081545
 30
0.0
 11
173.7727488693207
 21
124.8969987081545
 31
0.0
  0
LINE
  5
1E5
330
1F
100
AcDbEntity
  8
0
 62
     7
 48
0.047721
370
    60
100
AcDbLine
 10
171.8638888693207
 20
377.8969957081545
 30
0.0
 11
173.7727488693207
 21
377.8969957081545
 31
0.0
  0
LINE
  5
1E6
330
1F
100
AcDbEntity
  8
0
 62
     7
 48
0.031019
370
    60
100
AcDbLine
 10
170.6231358693207
 20
124.8969987081545
 30
0.0
 11
171.8638888693207
 21
124.8969987081545
 31
0.0
  0
LINE
  5
1E7
330
1F
100
AcDbEntity
  8
0
 62
     7
 48
0.031019
370
    60
100
AcDbLine
 10
170.6231358693207
 20
377.8969957081545
 30
0.0
 11
171.8638888693207
 21
377.8969957081545
 31
0.0
  0
LINE
  5
1E8
330
1F
100
AcDbEntity
  8
0
 62
     7
 48
0.047721
370
    60
100
AcDbLine
 10
168.7142918693207
 20
124.8969987081545
 30
0.0
 11
170.6231358693207
 21
124.8969987081545
 31
0.0
  0
LINE
  5
1E9
330
1F
100
AcDbEntity
  8
0
 62
     7
 48
0.047721
370
    60
100
AcDbLine
 10
168.7142918693207
 20
377.8969957081545
 30
0.0
 11
170.6231358693207
 21
377.8969957081545
 31
0.0
  0
LINE
  5
1EA
330
1F
100
AcDbEntity
  8
0
 62
     7
 48
0.031019
370
    60
100
AcDbLine
 10
167.4735388693207
 20
124.8969987081545
 30
0.0
 11
168.7142918693207
 21
124.8969987081545
 31
0.0
  0
LINE
  5
1EB
330
1F
100
AcDbEntity
  8
0
 62
     7
 48
0.031019
370
    60
100
AcDbLine
 10
167.4735388693207
 20
377.8969957081545
 30
0.0
 11
168.7142918693207
 21
377.8969957081545
 31
0.0
  0
LINE
  5
1EC
330
1F
100
AcDbEntity
  8
0
 62
     7
 48
0.047721
370
    60
100
AcDbLine
 10
165.5646798693207
 20
124.8969987081545
 30
0.0
 11
167.4735388693207
 21
124.8969987081545
 31
0.0
  0
LINE
  5
1ED
330
1F
100
AcDbEntity
  8
0
 62
     7
 48
0.047721
370
    60
100
AcDbLine
 10
165.5646798693207
 20
377.8969957081545
 30
0.0
 11
167.4735388693207
 21
377.8969957081545
 31
0.0
  0
LINE
  5
1EE
330
1F
100
AcDbEntity
  8
0
 62
     7
 48
0.031019
370
    60
100
AcDbLine
 10
164.3239258693207
 20
124.8969987081545
 30
0.0
 11
165.5646798693207
 21
124.8969987081545
 31
0.0
  0
LINE
  5
1EF
330
1F
100
AcDbEntity
  8
0
 62
     7
 48
0.031019
370
    60
100
AcDbLine
 10
164.3239258693207
 20
377.8969957081545
 30
0.0
 11
165.5646798693207
 21
377.8969957081545
 31
0.0
  0
LINE
  5
1F0
330
1F
100
AcDbEntity
  8
0
 62
     7
 48
0.047721
370
    60
100
AcDbLine
 10
162.4150828693207
 20
124.8969987081545
 30
0.0
 11
164.3239258693207
 21
124.8969987081545
 31
0.0
  0
LINE
  5
1F1
330
1F
100
AcDbEntity
  8
0
 62
     7
 48
0.047721
370
    60
100
AcDbLine
 10
162.4150828693207
 20
377.8969957081545
 30
0.0
 11
164.3239258693207
 21
377.8969957081545
 31
0.0
  0
LINE
  5
1F2
330
1F
100
AcDbEntity
  8
0
 62
     7
 48
0.031019
370
    60
100
AcDbLine
 10
161.1743288693207
 20
124.8969987081545
 30
0.0
 11
162.4150828693207
 21
124.8969987081545
 31
0.0
  0
LINE
  5
1F3
330
1F
100
AcDbEntity
  8
0
 62
     7
 48
0.031019
370
    60
100
AcDbLine
 10
161.1743288693207
 20
377.8969957081545
 30
0.0
 11
162.4150828693207
 21
377.8969957081545
 31
0.0
  0
LINE
  5
1F4
330
1F
100
AcDbEntity
  8
0
 62
     7
 48
0.047721
370
    60
100
AcDbLine
 10
159.2654848693207
 20
124.8969987081545
 30
0.0
 11
161.1743288693207
 21
124.8969987081545
 31
0.0
  0
LINE
  5
1F5
330
1F
100
AcDbEntity
  8
0
 62
     7
 48
0.047721
370
    60
100
AcDbLine
 10
159.2654848693207
 20
377.8969957081545
 30
0.0
 11
161.1743288693207
 21
377.8969957081545
 31
0.0
  0
LINE
  5
1F6
330
1F
100
AcDbEntity
  8
0
 62
     7
 48
0.031019
370
    60
100
AcDbLine
 10
158.0247318693207
 20
124.8969987081545
 30
0.0
 11
159.2654848693207
 21
124.8969987081545
 31
0.0
  0
LINE
  5
1F7
330
1F
100
AcDbEntity
  8
0
 62
     7
 48
0.031019
370
    60
100
AcDbLine
 10
158.0247318693207
 20
377.8969957081545
 30
0.0
 11
159.2654848693207
 21
377.8969957081545
 31
0.0
  0
LINE
  5
1F8
330
1F
100
AcDbEntity
  8
0
 62
     7
 48
0.047721
370
    60
100
AcDbLine
 10
156.1158728693207
 20
124.8969987081545
 30
0.0
 11
158.0247318693207
 21
124.8969987081545
 31
0.0
  0
LINE
  5
1F9
330
1F
100
AcDbEntity
  8
0
 62
     7
 48
0.047721
370
    60
100
AcDbLine
 10
156.1158728693207
 20
377.8969957081545
 30
0.0
 11
158.0247318693207
 21
377.8969957081545
 31
0.0
  0
LINE
  5
1FA
330
1F
100
AcDbEntity
  8
0
 62
     7
 48
0.031019
370
    60
100
AcDbLine
 10
154.8751198693207
 20
124.8969987081545
 30
0.0
 11
156.1158728693207
 21
124.8969987081545
 31
0.0
  0
LINE
  5
1FB
330
1F
100
AcDbEntity
  8
0
 62
     7
 48
0.031019
370
    60
100
AcDbLine
 10
154.8751198693207
 20
377.8969957081545
 30
0.0
 11
156.1158728693207
 21
377.8969957081545
 31
0.0
  0
LINE
  5
1FC
330
1F
100
AcDbEntity
  8
0
 62
     7
 48
0.047721
370
    60
100
AcDbLine
 10
152.9662758693207
 20
124.8969987081545
 30
0.0
 11
154.8751198693207
 21
124.8969987081545
 31
0.0
  0
LINE
  5
1FD
330
1F
100
AcDbEntity
  8
0
 62
     7
 48
0.047721
370
    60
100
AcDbLine
 10
152.9662758693207
 20
377.8969957081545
 30
0.0
 11
154.8751198693207
 21
377.8969957081545
 31
0.0
  0
LINE
  5
1FE
330
1F
100
AcDbEntity
  8
0
 62
     7
 48
0.031019
370
    60
100
AcDbLine
 10
151.7255228693207
 20
124.8969987081545
 30
0.0
 11
152.9662758693207
 21
124.8969987081545
 31
0.0
  0
LINE
  5
1FF
330
1F
100
AcDbEntity
  8
0
 62
     7
 48
0.031019
370
    60
100
AcDbLine
 10
151.7255228693207
 20
377.8969957081545
 30
0.0
 11
152.9662758693207
 21
377.8969957081545
 31
0.0
  0
LINE
  5
200
330
1F
100
AcDbEntity
  8
0
 62
     7
 48
0.047721
370
    60
100
AcDbLine
 10
149.8166628693207
 20
124.8969987081545
 30
0.0
 11
151.7255228693207
 21
124.8969987081545
 31
0.0
  0
LINE
  5
201
330
1F
100
AcDbEntity
  8
0
 62
     7
 48
0.047721
370
    60
100
AcDbLine
 10
149.8166628693207
 20
377.8969957081545
 30
0.0
 11
151.7255228693207
 21
377.8969957081545
 31
0.0
  0
LINE
  5
202
330
1F
100
AcDbEntity
  8
0
 62
     7
 48
0.031019
370
    60
100
AcDbLine
 10
148.5759098693207
 20
124.8969987081545
 30
0.0
 11
149.8166628693207
 21
124.8969987081545
 31
0.0
  0
LINE
  5
203
330
1F
100
AcDbEntity
  8
0
 62
     7
 48
0.031019
370
    60
100
AcDbLine
 10
148.5759098693207
 20
377.8969957081545
 30
0.0
 11
149.8166628693207
 21
377.8969957081545
 31
0.0
  0
LINE
  5
204
330
1F
100
AcDbEntity
  8
0
 62
     7
 48
0.047721
370
    60
100
AcDbLine
 10
146.6670658693207
 20
124.8969987081545
 30
0.0
 11
148.5759098693207
 21
124.8969987081545
 31
0.0
  0
LINE
  5
205
330
1F
100
AcDbEntity
  8
0
 62
     7
 48
0.047721
370
    60
100
AcDbLine
 10
146.6670658693207
 20
377.8969957081545
 30
0.0
 11
148.5759098693207
 21
377.8969957081545
 31
0.0
  0
LINE
  5
206
330
1F
100
AcDbEntity
  8
0
 62
     7
 48
0.031019
370
    60
100
AcDbLine
 10
145.4263128693207
 20
124.8969987081545
 30
0.0
 11
146.6670658693207
 21
124.8969987081545
 31
0.0
  0
LINE
  5
207
330
1F
100
AcDbEntity
  8
0
 62
     7
 48
0.031019
370
    60
100
AcDbLine
 10
145.4263128693207
 20
377.8969957081545
 30
0.0
 11
146.6670658693207
 21
377.8969957081545
 31
0.0
  0
LINE
  5
208
330
1F
100
AcDbEntity
  8
0
 62
     7
 48
0.047721
370
    60
100
AcDbLine
 10
143.5174688693207
 20
124.8969987081545
 30
0.0
 11
145.4263128693207
 21
124.8969987081545
 31
0.0
  0
LINE
  5
209
330
1F
100
AcDbEntity
  8
0
 62
     7
 48
0.047721
370
    60
100
AcDbLine
 10
143.5174688693207
 20
377.8969957081545
 30
0.0
 11
145.4263128693207
 21
377.8969957081545
 31
0.0
  0
LINE
  5
20A
330
1F
100
AcDbEntity
  8
0
 62
     7
 48
0.031019
370
    60
100
AcDbLine
 10
142.2767158693207
 20
124.8969987081545
 30
0.0
 11
143.5174688693207
 21
124.8969987081545
 31
0.0
  0
LINE
  5
20B
330
1F
100
AcDbEntity
  8
0
 62
     7
 48
0.031019
370
    60
100
AcDbLine
 10
142.2767158693207
 20
377.8969957081545
 30
0.0
 11
143.5174688693207
 21
377.8969957081545
 31
0.0
  0
LINE
  5
20C
330
1F
100
AcDbEntity
  8
0
 62
     7
 48
0.047721
370
    60
100
AcDbLine
 10
140.3678568693207
 20
124.8969987081545
 30
0.0
 11
142.2767158693207
 21
124.8969987081545
 31
0.0
  0
LINE
  5
20D
330
1F
100
AcDbEntity
  8
0
 62
     7
 48
0.047721
370
    60
100
AcDbLine
 10
140.3678568693207
 20
377.8969957081545
 30
0.0
 11
142.2767158693207
 21
377.8969957081545
 31
0.0
  0
LINE
  5
20E
330
1F
100
AcDbEntity
  8
0
 62
     7
 48
0.031019
370
    60
100
AcDbLine
 10
139.1271028693207
 20
124.8969987081545
 30
0.0
 11
140.3678568693207
 21
124.8969987081545
 31
0.0
  0
LINE
  5
20F
330
1F
100
AcDbEntity
  8
0
 62
     7
 48
0.031019
370
    60
100
AcDbLine
 10
139.1271028693207
 20
377.8969957081545
 30
0.0
 11
140.3678568693207
 21
377.8969957081545
 31
0.0
  0
LINE
  5
210
330
1F
100
AcDbEntity
  8
0
 62
     7
 48
0.047721
370
    60
100
AcDbLine
 10
137.2182588693207
 20
124.8969987081545
 30
0.0
 11
139.1271028693207
 21
124.8969987081545
 31
0.0
  0
LINE
  5
211
330
1F
100
AcDbEntity
  8
0
 62
     7
 48
0.047721
370
    60
100
AcDbLine
 10
137.2182588693207
 20
377.8969957081545
 30
0.0
 11
139.1271028693207
 21
377.8969957081545
 31
0.0
  0
LINE
  5
212
330
1F
100
AcDbEntity
  8
0
 62
     7
 48
0.031019
370
    60
100
AcDbLine
 10
135.9775058693207
 20
124.8969987081545
 30
0.0
 11
137.2182588693207
 21
124.8969987081545
 31
0.0
  0
LINE
  5
213
330
1F
100
AcDbEntity
  8
0
 62
     7
 48
0.031019
370
    60
100
AcDbLine
 10
135.9775058693207
 20
377.8969957081545
 30
0.0
 11
137.2182588693207
 21
377.8969957081545
 31
0.0
  0
LINE
  5
214
330
1F
100
AcDbEntity
  8
0
 62
     7
 48
0.047721
370
    60
100
AcDbLine
 10
134.0686468693207
 20
124.8969987081545
 30
0.0
 11
135.9775058693207
 21
124.8969987081545
 31
0.0
  0
LINE
  5
215
330
1F
100
AcDbEntity
  8
0
 62
     7
 48
0.047721
370
    60
100
AcDbLine
 10
134.0686468693207
 20
377.8969957081545
 30
0.0
 11
135.9775058693207
 21
377.8969957081545
 31
0.0
  0
LINE
  5
216
330
1F
100
AcDbEntity
  8
0
 62
     7
 48
0.031019
370
    60
100
AcDbLine
 10
132.8278938693207
 20
124.8969987081545
 30
0.0
 11
134.0686468693207
 21
124.8969987081545
 31
0.0
  0
LINE
  5
217
330
1F
100
AcDbEntity
  8
0
 62
     7
 48
0.031019
370
    60
100
AcDbLine
 10
132.8278938693207
 20
377.8969957081545
 30
0.0
 11
134.0686468693207
 21
377.8969957081545
 31
0.0
  0
LINE
  5
218
330
1F
100
AcDbEntity
  8
0
 62
     7
 48
0.047721
370
    60
100
AcDbLine
 10
130.9190498693207
 20
124.8969987081545
 30
0.0
 11
132.8278938693207
 21
124.8969987081545
 31
0.0
  0
LINE
  5
219
330
1F
100
AcDbEntity
  8
0
 62
     7
 48
0.047721
370
    60
100
AcDbLine
 10
130.9190498693207
 20
377.8969957081545
 30
0.0
 11
132.8278938693207
 21
377.8969957081545
 31
0.0
  0
LINE
  5
21A
330
1F
100
AcDbEntity
  8
0
 62
     7
 48
0.031019
370
    60
100
AcDbLine
 10
129.6782968693207
 20
124.8969987081545
 30
0.0
 11
130.9190498693207
 21
124.8969987081545
 31
0.0
  0
LINE
  5
21B
330
1F
100
AcDbEntity
  8
0
 62
     7
 48
0.031019
370
    60
100
AcDbLine
 10
129.6782968693207
 20
377.8969957081545
 30
0.0
 11
130.9190498693207
 21
377.8969957081545
 31
0.0
  0
LINE
  5
21C
330
1F
100
AcDbEntity
  8
0
 62
     7
 48
0.047721
370
    60
100
AcDbLine
 10
127.7694528693207
 20
124.8969987081545
 30
0.0
 11
129.6782968693207
 21
124.8969987081545
 31
0.0
  0
LINE
  5
21D
330
1F
100
AcDbEntity
  8
0
 62
     7
 48
0.047721
370
    60
100
AcDbLine
 10
127.7694528693207
 20
377.8969957081545
 30
0.0
 11
129.6782968693207
 21
377.8969957081545
 31
0.0
  0
LINE
  5
21E
330
1F
100
AcDbEntity
  8
0
 62
     7
 48
0.031019
370
    60
100
AcDbLine
 10
126.5286988693207
 20
124.8969987081545
 30
0.0
 11
127.7694528693207
 21
124.8969987081545
 31
0.0
  0
LINE
  5
21F
330
1F
100
AcDbEntity
  8
0
 62
     7
 48
0.031019
370
    60
100
AcDbLine
 10
126.5286988693207
 20
377.8969957081545
 30
0.0
 11
127.7694528693207
 21
377.8969957081545
 31
0.0
  0
LINE
  5
220
330
1F
100
AcDbEntity
  8
0
 62
     7
 48
0.047721
370
    60
100
AcDbLine
 10
124.6198398693207
 20
124.8969987081545
 30
0.0
 11
126.5286988693207
 21
124.8969987081545
 31
0.0
  0
LINE
  5
221
330
1F
100
AcDbEntity
  8
0
 62
     7
 48
0.047721
370
    60
100
AcDbLine
 10
124.6198398693207
 20
377.8969957081545
 30
0.0
 11
126.5286988693207
 21
377.8969957081545
 31
0.0
  0
LINE
  5
222
330
1F
100
AcDbEntity
  8
0
 62
     7
 48
0.031019
370
    60
100
AcDbLine
 10
123.3790868693207
 20
124.8969987081545
 30
0.0
 11
124.6198398693207
 21
124.8969987081545
 31
0.0
  0
LINE
  5
223
330
1F
100
AcDbEntity
  8
0
 62
     7
 48
0.031019
370
    60
100
AcDbLine
 10
123.3790868693207
 20
377.8969957081545
 30
0.0
 11
124.6198398693207
 21
377.8969957081545
 31
0.0
  0
LINE
  5
224
330
1F
100
AcDbEntity
  8
0
 62
     7
 48
0.047721
370
    60
100
AcDbLine
 10
121.4702428693207
 20
124.8969987081545
 30
0.0
 11
123.3790868693207
 21
124.8969987081545
 31
0.0
  0
LINE
  5
225
330
1F
100
AcDbEntity
  8
0
 62
     7
 48
0.047721
370
    60
100
AcDbLine
 10
121.4702428693207
 20
377.8969957081545
 30
0.0
 11
123.3790868693207
 21
377.8969957081545
 31
0.0
  0
LINE
  5
226
330
1F
100
AcDbEntity
  8
0
 62
     7
 48
0.031019
370
    60
100
AcDbLine
 10
120.2294898693207
 20
124.8969987081545
 30
0.0
 11
121.4702428693207
 21
124.8969987081545
 31
0.0
  0
LINE
  5
227
330
1F
100
AcDbEntity
  8
0
 62
     7
 48
0.031019
370
    60
100
AcDbLine
 10
120.2294898693207
 20
377.8969957081545
 30
0.0
 11
121.4702428693207
 21
377.8969957081545
 31
0.0
  0
LINE
  5
228
330
1F
100
AcDbEntity
  8
0
 62
     7
 48
0.047721
370
    60
100
AcDbLine
 10
118.3206308693207
 20
124.8969987081545
 30
0.0
 11
120.2294898693207
 21
124.8969987081545
 31
0.0
  0
LINE
  5
229
330
1F
100
AcDbEntity
  8
0
 62
     7
 48
0.047721
370
    60
100
AcDbLine
 10
118.3206308693207
 20
377.8969957081545
 30
0.0
 11
120.2294898693207
 21
377.8969957081545
 31
0.0
  0
LINE
  5
22A
330
1F
100
AcDbEntity
  8
0
 62
     7
 48
0.031019
370
    60
100
AcDbLine
 10
117.0798768693207
 20
124.8969987081545
 30
0.0
 11
118.3206308693207
 21
124.8969987081545
 31
0.0
  0
LINE
  5
22B
330
1F
100
AcDbEntity
  8
0
 62
     7
 48
0.031019
370
    60
100
AcDbLine
 10
117.0798768693207
 20
377.8969957081545
 30
0.0
 11
118.3206308693207
 21
377.8969957081545
 31
0.0
  0
LINE
  5
22C
330
1F
100
AcDbEntity
  8
0
 62
     7
 48
0.047721
370
    60
100
AcDbLine
 10
115.1710328693207
 20
124.8969987081545
 30
0.0
 11
117.0798768693207
 21
124.8969987081545
 31
0.0
  0
LINE
  5
22D
330
1F
100
AcDbEntity
  8
0
 62
     7
 48
0.047721
370
    60
100
AcDbLine
 10
115.1710328693207
 20
377.8969957081545
 30
0.0
 11
117.0798768693207
 21
377.8969957081545
 31
0.0
  0
LINE
  5
22E
330
1F
100
AcDbEntity
  8
0
 62
     7
 48
0.275
370
    60
100
AcDbLine
 10
217.3625158693207
 20
236.3969957081545
 30
0.0
 11
206.3625158693207
 21
236.3969957081545
 31
0.0
  0
LINE
  5
22F
330
1F
100
AcDbEntity
  8
0
 62
     7
 48
0.129688
370
    60
100
AcDbLine
 10
222.5500308693207
 20
236.3969957081545
 30
0.0
 11
217.3625158693207
 21
236.3969957081545
 31
0.0
  0
LINE
  5
230
330
1F
100
AcDbEntity
  8
0
 62
     7
 48
0.036613
370
    60
100
AcDbLine
 10
224.0145548693207
 20
236.3969957081545
 30
0.0
 11
222.5500308693207
 21
236.3969957081545
 31
0.0
  0
LINE
  5
231
330
1F
100
AcDbEntity
  8
0
 62
     7
 48
0.108699
370
    60
100
AcDbLine
 10
228.3625158693207
 20
236.3969957081545
 30
0.0
 11
224.0145548693207
 21
236.3969957081545
 31
0.0
  0
LINE
  5
232
330
1F
100
AcDbEntity
  8
0
 62
     7
370
    60
100
AcDbLine
 10
224.0145548693207
 20
236.3969957081545
 30
0.0
 11
224.0145548693207
 21
151.3969987081545
 31
0.0
  0
LINE
  5
233
330
1F
100
AcDbEntity
  8
0
 62
     7
 48
0.108699
370
    60
100
AcDbLine
 10
224.0145548693207
 20
151.3969987081545
 30
0.0
 11
228.3625158693207
 21
151.3969987081545
 31
0.0
  0
LINE
  5
234
330
1F
100
AcDbEntity
  8
0
 62
     7
370
    60
100
AcDbLine
 10
222.5500308693207
 20
236.3969957081545
 30
0.0
 11
222.5500308693207
 21
151.3969987081545
 31
0.0
  0
LINE
  5
235
330
1F
100
AcDbEntity
  8
0
 62
     7
 48
0.036613
370
    60
100
AcDbLine
 10
222.5500308693207
 20
151.3969987081545
 30
0.0
 11
224.0145548693207
 21
151.3969987081545
 31
0.0
  0
LINE
  5
236
330
1F
100
AcDbEntity
  8
0
 62
     7
370
    60
100
AcDbLine
 10
217.3625158693207
 20
236.3969957081545
 30
0.0
 11
217.3625158693207
 21
151.3969987081545
 31
0.0
  0
LINE
  5
237
330
1F
100
AcDbEntity
  8
0
 62
     7
 48
0.129688
370
    60
100
AcDbLine
 10
222.5500308693207
 20
151.3969987081545
 30
0.0
 11
217.3625158693207
 21
151.3969987081545
 31
0.0
  0
LINE
  5
238
330
1F
100
AcDbEntity
  8
0
 62
     7
370
    60
100
AcDbLine
 10
224.0145548693207
 20
351.3969957081545
 30
0.0
 11
224.0145548693207
 21
266.3969957081545
 31
0.0
  0
LINE
  5
239
330
1F
100
AcDbEntity
  8
0
 62
     7
 48
0.108699
370
    60
100
AcDbLine
 10
224.0145548693207
 20
351.3969957081545
 30
0.0
 11
228.3625158693207
 21
351.3969957081545
 31
0.0
  0
LINE
  5
23A
330
1F
100
AcDbEntity
  8
0
 62
     7
370
    60
100
AcDbLine
 10
222.5500308693207
 20
351.3969957081545
 30
0.0
 11
222.5500308693207
 21
266.3969957081545
 31
0.0
  0
LINE
  5
23B
330
1F
100
AcDbEntity
  8
0
 62
     7
 48
0.036613
370
    60
100
AcDbLine
 10
222.5500308693207
 20
351.3969957081545
 30
0.0
 11
224.0145548693207
 21
351.3969957081545
 31
0.0
  0
LINE
  5
23C
330
1F
100
AcDbEntity
  8
0
 62
     7
370
    60
100
AcDbLine
 10
217.3625158693207
 20
351.3969957081545
 30
0.0
 11
217.3625158693207
 21
266.3969957081545
 31
0.0
  0
LINE
  5
23D
330
1F
100
AcDbEntity
  8
0
 62
     7
 48
0.129688
370
    60
100
AcDbLine
 10
222.5500308693207
 20
351.3969957081545
 30
0.0
 11
217.3625158693207
 21
351.3969957081545
 31
0.0
  0
LINE
  5
23E
330
1F
100
AcDbEntity
  8
0
 62
     7
 48
0.03283
370
    60
100
AcDbLine
 10
192.6703618693207
 20
124.8969987081545
 30
0.0
 11
193.9835638693207
 21
124.8969987081545
 31
0.0
  0
LINE
  5
23F
330
1F
100
AcDbEntity
  8
0
 62
     7
370
    60
100
AcDbLine
 10
193.9835638693207
 20
377.8969957081545
 30
0.0
 11
193.9835638693207
 21
124.8969987081545
 31
0.0
  0
LINE
  5
240
330
1F
100
AcDbEntity
  8
0
 62
     7
 48
0.03283
370
    60
100
AcDbLine
 10
192.6703618693207
 20
377.8969957081545
 30
0.0
 11
193.9835638693207
 21
377.8969957081545
 31
0.0
  0
LINE
  5
241
330
1F
100
AcDbEntity
  8
0
 62
     7
 48
0.086541
370
    60
100
AcDbLine
 10
226.1625188693207
 20
372.8969957081545
 30
0.0
 11
226.1625188693207
 21
369.4353557081545
 31
0.0
  0
ARC
  5
242
330
1F
100
AcDbEntity
  8
0
 62
     7
370
    60
100
AcDbCircle
 10
221.1625188693207
 20
372.8969957081545
 30
0.0
 40
5.0
100
AcDbArc
 50
0.0
 51
90.000003
  0
LINE
  5
243
330
1F
100
AcDbEntity
  8
0
 62
     7
 48
0.086541
370
    60
100
AcDbLine
 10
226.1625188693207
 20
129.8969987081545
 30
0.0
 11
226.1625188693207
 21
133.3586497081545
 31
0.0
  0
LINE
  5
244
330
1F
100
AcDbEntity
  8
0
 62
     7
370
    60
100
AcDbLine
 10
193.9835638693207
 20
377.8969957081545
 30
0.0
 11
221.1625188693207
 21
377.8969957081545
 31
0.0
  0
LINE
  5
245
330
1F
100
AcDbEntity
  8
0
 62
     7
370
    60
100
AcDbLine
 10
193.9835638693207
 20
124.8969987081545
 30
0.0
 11
221.1625188693207
 21
124.8969987081545
 31
0.0
  0
ARC
  5
246
330
1F
100
AcDbEntity
  8
0
 62
     7
370
    60
100
AcDbCircle
 10
221.1625188693207
 20
129.8969987081545
 30
0.0
 40
5.000000000000001
100
AcDbArc
 50
270.0000010000001
 51
0.0000099999999887
  0
CIRCLE
  5
247
330
1F
100
AcDbEntity
  8
0
 62
     7
370
    60
100
AcDbCircle
 10
220.3625158693207
 20
335.3969957081545
 30
0.0
 40
1.5
  0
CIRCLE
  5
248
330
1F
100
AcDbEntity
  8
0
 62
     7
370
    60
100
AcDbCircle
 10
220.3625158693207
 20
282.3969957081545
 30
0.0
 40
1.5
  0
CIRCLE
  5
249
330
1F
100
AcDbEntity
  8
0
 62
     7
370
    60
100
AcDbCircle
 10
220.3625158693207
 20
220.3969957081545
 30
0.0
 40
1.5
  0
CIRCLE
  5
24A
330
1F
100
AcDbEntity
  8
0
 62
     7
370
    60
100
AcDbCircle
 10
220.3625158693207
 20
167.3969997081545
 30
0.0
 40
1.5
  0
LINE
  5
24B
330
1F
100
AcDbEntity
  8
0
 62
     7
 48
0.025213
370
    60
100
AcDbLine
 10
114.1625188693207
 20
377.8969957081545
 30
0.0
 11
115.1710328693207
 21
377.8969957081545
 31
0.0
  0
LINE
  5
24C
330
1F
100
AcDbEntity
  8
0
 62
     7
 48
0.051921
370
    60
100
AcDbLine
 10
106.1625188693207
 20
369.8969957081545
 30
0.0
 11
107.6310708693207
 21
371.3655627081545
 31
0.0
  0
LINE
  5
24D
330
1F
100
AcDbEntity
  8
0
 62
     7
 48
0.043867
370
    60
100
AcDbLine
 10
107.6310708693207
 20
371.3655627081545
 30
0.0
 11
108.8718238693207
 21
372.6063157081545
 31
0.0
  0
LINE
  5
24E
330
1F
100
AcDbEntity
  8
0
 62
     7
 48
0.067488
370
    60
100
AcDbLine
 10
108.8718238693207
 20
372.6063157081545
 30
0.0
 11
110.7806828693207
 21
374.5151597081545
 31
0.0
  0
LINE
  5
24F
330
1F
100
AcDbEntity
  8
0
 62
     7
 48
0.043867
370
    60
100
AcDbLine
 10
110.7806828693207
 20
374.5151597081545
 30
0.0
 11
112.0214358693207
 21
375.7559127081544
 31
0.0
  0
LINE
  5
250
330
1F
100
AcDbEntity
  8
0
 62
     7
 48
0.067488
370
    60
100
AcDbLine
 10
112.0214358693207
 20
375.7559127081544
 30
0.0
 11
113.9302798693207
 21
377.6647567081545
 31
0.0
  0
LINE
  5
251
330
1F
100
AcDbEntity
  8
0
 62
     7
 48
0.008211
370
    60
100
AcDbLine
 10
113.9302798693207
 20
377.6647567081545
 30
0.0
 11
114.1625188693207
 21
377.8969957081545
 31
0.0
  0
LINE
  5
252
330
1F
100
AcDbEntity
  8
0
 62
     7
 48
0.025213
370
    60
100
AcDbLine
 10
114.1625188693207
 20
124.8969987081545
 30
0.0
 11
115.1710328693207
 21
124.8969987081545
 31
0.0
  0
LINE
  5
253
330
1F
100
AcDbEntity
  8
0
 62
     7
370
    60
100
AcDbLine
 10
106.1625188693207
 20
369.8969957081545
 30
0.0
 11
106.1625188693207
 21
132.8969987081545
 31
0.0
  0
LINE
  5
254
330
1F
100
AcDbEntity
  8
0
 62
     7
 48
0.008211
370
    60
100
AcDbLine
 10
114.1625188693207
 20
124.8969987081545
 30
0.0
 11
113.9302798693207
 21
125.1292337081545
 31
0.0
  0
LINE
  5
255
330
1F
100
AcDbEntity
  8
0
 62
     7
 48
0.067488
370
    60
100
AcDbLine
 10
112.0214358693207
 20
127.0380837081545
 30
0.0
 11
113.9302798693207
 21
125.1292337081545
 31
0.0
  0
LINE
  5
256
330
1F
100
AcDbEntity
  8
0
 62
     7
 48
0.043867
370
    60
100
AcDbLine
 10
110.7806828693207
 20
128.2788367081545
 30
0.0
 11
112.0214358693207
 21
127.0380837081545
 31
0.0
  0
LINE
  5
257
330
1F
100
AcDbEntity
  8
0
 62
     7
 48
0.067488
370
    60
100
AcDbLine
 10
108.8718238693207
 20
130.1876867081545
 30
0.0
 11
110.7806828693207
 21
128.2788367081545
 31
0.0
  0
LINE
  5
258
330
1F
100
AcDbEntity
  8
0
 62
     7
 48
0.043867
370
    60
100
AcDbLine
 10
107.6310708693207
 20
131.4284397081545
 30
0.0
 11
108.8718238693207
 21
130.1876867081545
 31
0.0
  0
LINE
  5
259
330
1F
100
AcDbEntity
  8
0
 62
     7
 48
0.051921
370
    60
100
AcDbLine
 10
106.1625188693207
 20
132.8969987081545
 30
0.0
 11
107.6310708693207
 21
131.4284397081545
 31
0.0
  0
LINE
  5
25A
330
1F
100
AcDbEntity
  8
0
 62
     7
370
    60
100
AcDbLine
 10
495.9625218693206
 20
266.3969957081545
 30
0.0
 11
495.9625218693206
 21
236.3969957081545
 31
0.0
  0
LINE
  5
25B
330
1F
100
AcDbEntity
  8
0
 62
     7
 48
0.275
370
    60
100
AcDbLine
 10
495.9625218693206
 20
266.3969957081545
 30
0.0
 11
484.9625218693206
 21
266.3969957081545
 31
0.0
  0
LINE
  5
25C
330
1F
100
AcDbEntity
  8
0
 62
     7
 48
0.129688
370
    60
100
AcDbLine
 10
484.9625218693206
 20
266.3969957081545
 30
0.0
 11
479.7749918693207
 21
266.3969957081545
 31
0.0
  0
LINE
  5
25D
330
1F
100
AcDbEntity
  8
0
 62
     7
 48
0.036613
370
    60
100
AcDbLine
 10
478.3104758693207
 20
266.3969957081545
 30
0.0
 11
479.7749918693207
 21
266.3969957081545
 31
0.0
  0
LINE
  5
25E
330
1F
100
AcDbEntity
  8
0
 62
     7
 48
0.108699
370
    60
100
AcDbLine
 10
473.9625138693207
 20
266.3969957081545
 30
0.0
 11
478.3104758693207
 21
266.3969957081545
 31
0.0
  0
LINE
  5
25F
330
1F
100
AcDbEntity
  8
0
 62
     7
 48
0.047721
370
    60
100
AcDbLine
 10
509.6546758693207
 20
377.8969957081545
 30
0.0
 11
511.5635198693208
 21
377.8969957081545
 31
0.0
  0
LINE
  5
260
330
1F
100
AcDbEntity
  8
0
 62
     7
 48
0.047721
370
    60
100
AcDbLine
 10
509.6546758693207
 20
124.8969987081545
 30
0.0
 11
511.5635198693208
 21
124.8969987081545
 31
0.0
  0
LINE
  5
261
330
1F
100
AcDbEntity
  8
0
 62
     7
 48
0.031019
370
    60
100
AcDbLine
 10
511.5635198693208
 20
377.8969957081545
 30
0.0
 11
512.8042728693207
 21
377.8969957081545
 31
0.0
  0
LINE
  5
262
330
1F
100
AcDbEntity
  8
0
 62
     7
 48
0.031019
370
    60
100
AcDbLine
 10
511.5635198693208
 20
124.8969987081545
 30
0.0
 11
512.8042728693207
 21
124.8969987081545
 31
0.0
  0
LINE
  5
263
330
1F
100
AcDbEntity
  8
0
 62
     7
 48
0.047721
370
    60
100
AcDbLine
 10
512.8042728693207
 20
377.8969957081545
 30
0.0
 11
514.7131318693207
 21
377.8969957081545
 31
0.0
  0
LINE
  5
264
330
1F
100
AcDbEntity
  8
0
 62
     7
 48
0.047721
370
    60
100
AcDbLine
 10
512.8042728693207
 20
124.8969987081545
 30
0.0
 11
514.7131318693207
 21
124.8969987081545
 31
0.0
  0
LINE
  5
265
330
1F
100
AcDbEntity
  8
0
 62
     7
 48
0.031019
370
    60
100
AcDbLine
 10
514.7131318693207
 20
377.8969957081545
 30
0.0
 11
515.9538858693207
 21
377.8969957081545
 31
0.0
  0
LINE
  5
266
330
1F
100
AcDbEntity
  8
0
 62
     7
 48
0.031019
370
    60
100
AcDbLine
 10
514.7131318693207
 20
124.8969987081545
 30
0.0
 11
515.9538858693207
 21
124.8969987081545
 31
0.0
  0
LINE
  5
267
330
1F
100
AcDbEntity
  8
0
 62
     7
 48
0.047721
370
    60
100
AcDbLine
 10
515.9538858693207
 20
377.8969957081545
 30
0.0
 11
517.8627298693207
 21
377.8969957081545
 31
0.0
  0
LINE
  5
268
330
1F
100
AcDbEntity
  8
0
 62
     7
 48
0.047721
370
    60
100
AcDbLine
 10
515.9538858693207
 20
124.8969987081545
 30
0.0
 11
517.8627298693207
 21
124.8969987081545
 31
0.0
  0
LINE
  5
269
330
1F
100
AcDbEntity
  8
0
 62
     7
 48
0.031019
370
    60
100
AcDbLine
 10
517.8627298693207
 20
377.8969957081545
 30
0.0
 11
519.1034828693207
 21
377.8969957081545
 31
0.0
  0
LINE
  5
26A
330
1F
100
AcDbEntity
  8
0
 62
     7
 48
0.031019
370
    60
100
AcDbLine
 10
517.8627298693207
 20
124.8969987081545
 30
0.0
 11
519.1034828693207
 21
124.8969987081545
 31
0.0
  0
LINE
  5
26B
330
1F
100
AcDbEntity
  8
0
 62
     7
 48
0.047721
370
    60
100
AcDbLine
 10
519.1034828693207
 20
377.8969957081545
 30
0.0
 11
521.0123268693208
 21
377.8969957081545
 31
0.0
  0
LINE
  5
26C
330
1F
100
AcDbEntity
  8
0
 62
     7
 48
0.047721
370
    60
100
AcDbLine
 10
519.1034828693207
 20
124.8969987081545
 30
0.0
 11
521.0123268693208
 21
124.8969987081545
 31
0.0
  0
LINE
  5
26D
330
1F
100
AcDbEntity
  8
0
 62
     7
 48
0.031019
370
    60
100
AcDbLine
 10
521.0123268693208
 20
377.8969957081545
 30
0.0
 11
522.2530798693207
 21
377.8969957081545
 31
0.0
  0
LINE
  5
26E
330
1F
100
AcDbEntity
  8
0
 62
     7
 48
0.031019
370
    60
100
AcDbLine
 10
521.0123268693208
 20
124.8969987081545
 30
0.0
 11
522.2530798693207
 21
124.8969987081545
 31
0.0
  0
LINE
  5
26F
330
1F
100
AcDbEntity
  8
0
 62
     7
 48
0.047721
370
    60
100
AcDbLine
 10
522.2530798693207
 20
377.8969957081545
 30
0.0
 11
524.1619388693207
 21
377.8969957081545
 31
0.0
  0
LINE
  5
270
330
1F
100
AcDbEntity
  8
0
 62
     7
 48
0.047721
370
    60
100
AcDbLine
 10
522.2530798693207
 20
124.8969987081545
 30
0.0
 11
524.1619388693207
 21
124.8969987081545
 31
0.0
  0
LINE
  5
271
330
1F
100
AcDbEntity
  8
0
 62
     7
 48
0.031019
370
    60
100
AcDbLine
 10
524.1619388693207
 20
377.8969957081545
 30
0.0
 11
525.4026918693207
 21
377.8969957081545
 31
0.0
  0
LINE
  5
272
330
1F
100
AcDbEntity
  8
0
 62
     7
 48
0.031019
370
    60
100
AcDbLine
 10
524.1619388693207
 20
124.8969987081545
 30
0.0
 11
525.4026918693207
 21
124.8969987081545
 31
0.0
  0
LINE
  5
273
330
1F
100
AcDbEntity
  8
0
 62
     7
 48
0.047721
370
    60
100
AcDbLine
 10
525.4026918693207
 20
377.8969957081545
 30
0.0
 11
527.3115358693207
 21
377.8969957081545
 31
0.0
  0
LINE
  5
274
330
1F
100
AcDbEntity
  8
0
 62
     7
 48
0.047721
370
    60
100
AcDbLine
 10
525.4026918693207
 20
124.8969987081545
 30
0.0
 11
527.3115358693207
 21
124.8969987081545
 31
0.0
  0
LINE
  5
275
330
1F
100
AcDbEntity
  8
0
 62
     7
 48
0.031019
370
    60
100
AcDbLine
 10
527.3115358693207
 20
377.8969957081545
 30
0.0
 11
528.5522898693207
 21
377.8969957081545
 31
0.0
  0
LINE
  5
276
330
1F
100
AcDbEntity
  8
0
 62
     7
 48
0.031019
370
    60
100
AcDbLine
 10
527.3115358693207
 20
124.8969987081545
 30
0.0
 11
528.5522898693207
 21
124.8969987081545
 31
0.0
  0
LINE
  5
277
330
1F
100
AcDbEntity
  8
0
 62
     7
 48
0.047721
370
    60
100
AcDbLine
 10
528.5522898693207
 20
377.8969957081545
 30
0.0
 11
530.4611488693207
 21
377.8969957081545
 31
0.0
  0
LINE
  5
278
330
1F
100
AcDbEntity
  8
0
 62
     7
 48
0.047721
370
    60
100
AcDbLine
 10
528.5522898693207
 20
124.8969987081545
 30
0.0
 11
530.4611488693207
 21
124.8969987081545
 31
0.0
  0
LINE
  5
279
330
1F
100
AcDbEntity
  8
0
 62
     7
 48
0.031019
370
    60
100
AcDbLine
 10
530.4611488693207
 20
377.8969957081545
 30
0.0
 11
531.7019018693206
 21
377.8969957081545
 31
0.0
  0
LINE
  5
27A
330
1F
100
AcDbEntity
  8
0
 62
     7
 48
0.031019
370
    60
100
AcDbLine
 10
530.4611488693207
 20
124.8969987081545
 30
0.0
 11
531.7019018693206
 21
124.8969987081545
 31
0.0
  0
LINE
  5
27B
330
1F
100
AcDbEntity
  8
0
 62
     7
 48
0.047721
370
    60
100
AcDbLine
 10
531.7019018693206
 20
377.8969957081545
 30
0.0
 11
533.6107458693207
 21
377.8969957081545
 31
0.0
  0
LINE
  5
27C
330
1F
100
AcDbEntity
  8
0
 62
     7
 48
0.047721
370
    60
100
AcDbLine
 10
531.7019018693206
 20
124.8969987081545
 30
0.0
 11
533.6107458693207
 21
124.8969987081545
 31
0.0
  0
LINE
  5
27D
330
1F
100
AcDbEntity
  8
0
 62
     7
 48
0.031019
370
    60
100
AcDbLine
 10
533.6107458693207
 20
377.8969957081545
 30
0.0
 11
534.8514988693207
 21
377.8969957081545
 31
0.0
  0
LINE
  5
27E
330
1F
100
AcDbEntity
  8
0
 62
     7
 48
0.031019
370
    60
100
AcDbLine
 10
533.6107458693207
 20
124.8969987081545
 30
0.0
 11
534.8514988693207
 21
124.8969987081545
 31
0.0
  0
LINE
  5
27F
330
1F
100
AcDbEntity
  8
0
 62
     7
 48
0.047721
370
    60
100
AcDbLine
 10
534.8514988693207
 20
377.8969957081545
 30
0.0
 11
536.7603428693208
 21
377.8969957081545
 31
0.0
  0
LINE
  5
280
330
1F
100
AcDbEntity
  8
0
 62
     7
 48
0.047721
370
    60
100
AcDbLine
 10
534.8514988693207
 20
124.8969987081545
 30
0.0
 11
536.7603428693208
 21
124.8969987081545
 31
0.0
  0
LINE
  5
281
330
1F
100
AcDbEntity
  8
0
 62
     7
 48
0.031019
370
    60
100
AcDbLine
 10
536.7603428693208
 20
377.8969957081545
 30
0.0
 11
538.0010958693207
 21
377.8969957081545
 31
0.0
  0
LINE
  5
282
330
1F
100
AcDbEntity
  8
0
 62
     7
 48
0.031019
370
    60
100
AcDbLine
 10
536.7603428693208
 20
124.8969987081545
 30
0.0
 11
538.0010958693207
 21
124.8969987081545
 31
0.0
  0
LINE
  5
283
330
1F
100
AcDbEntity
  8
0
 62
     7
 48
0.047721
370
    60
100
AcDbLine
 10
538.0010958693207
 20
377.8969957081545
 30
0.0
 11
539.9099558693207
 21
377.8969957081545
 31
0.0
  0
LINE
  5
284
330
1F
100
AcDbEntity
  8
0
 62
     7
 48
0.047721
370
    60
100
AcDbLine
 10
538.0010958693207
 20
124.8969987081545
 30
0.0
 11
539.9099558693207
 21
124.8969987081545
 31
0.0
  0
LINE
  5
285
330
1F
100
AcDbEntity
  8
0
 62
     7
 48
0.031019
370
    60
100
AcDbLine
 10
539.9099558693207
 20
377.8969957081545
 30
0.0
 11
541.1507088693207
 21
377.8969957081545
 31
0.0
  0
LINE
  5
286
330
1F
100
AcDbEntity
  8
0
 62
     7
 48
0.031019
370
    60
100
AcDbLine
 10
539.9099558693207
 20
124.8969987081545
 30
0.0
 11
541.1507088693207
 21
124.8969987081545
 31
0.0
  0
LINE
  5
287
330
1F
100
AcDbEntity
  8
0
 62
     7
 48
0.047721
370
    60
100
AcDbLine
 10
541.1507088693207
 20
377.8969957081545
 30
0.0
 11
543.0595528693207
 21
377.8969957081545
 31
0.0
  0
LINE
  5
288
330
1F
100
AcDbEntity
  8
0
 62
     7
 48
0.047721
370
    60
100
AcDbLine
 10
541.1507088693207
 20
124.8969987081545
 30
0.0
 11
543.0595528693207
 21
124.8969987081545
 31
0.0
  0
LINE
  5
289
330
1F
100
AcDbEntity
  8
0
 62
     7
 48
0.031019
370
    60
100
AcDbLine
 10
543.0595528693207
 20
377.8969957081545
 30
0.0
 11
544.3003058693207
 21
377.8969957081545
 31
0.0
  0
LINE
  5
28A
330
1F
100
AcDbEntity
  8
0
 62
     7
 48
0.031019
370
    60
100
AcDbLine
 10
543.0595528693207
 20
124.8969987081545
 30
0.0
 11
544.3003058693207
 21
124.8969987081545
 31
0.0
  0
LINE
  5
28B
330
1F
100
AcDbEntity
  8
0
 62
     7
 48
0.047721
370
    60
100
AcDbLine
 10
544.3003058693207
 20
377.8969957081545
 30
0.0
 11
546.2091648693207
 21
377.8969957081545
 31
0.0
  0
LINE
  5
28C
330
1F
100
AcDbEntity
  8
0
 62
     7
 48
0.047721
370
    60
100
AcDbLine
 10
544.3003058693207
 20
124.8969987081545
 30
0.0
 11
546.2091648693207
 21
124.8969987081545
 31
0.0
  0
LINE
  5
28D
330
1F
100
AcDbEntity
  8
0
 62
     7
 48
0.031018
370
    60
100
AcDbLine
 10
546.2091648693207
 20
377.8969957081545
 30
0.0
 11
547.4499028693207
 21
377.8969957081545
 31
0.0
  0
LINE
  5
28E
330
1F
100
AcDbEntity
  8
0
 62
     7
 48
0.031018
370
    60
100
AcDbLine
 10
546.2091648693207
 20
124.8969987081545
 30
0.0
 11
547.4499028693207
 21
124.8969987081545
 31
0.0
  0
LINE
  5
28F
330
1F
100
AcDbEntity
  8
0
 62
     7
 48
0.047721
370
    60
100
AcDbLine
 10
547.4499028693207
 20
377.8969957081545
 30
0.0
 11
549.3587618693207
 21
377.8969957081545
 31
0.0
  0
LINE
  5
290
330
1F
100
AcDbEntity
  8
0
 62
     7
 48
0.047721
370
    60
100
AcDbLine
 10
547.4499028693207
 20
124.8969987081545
 30
0.0
 11
549.3587618693207
 21
124.8969987081545
 31
0.0
  0
LINE
  5
291
330
1F
100
AcDbEntity
  8
0
 62
     7
 48
0.031019
370
    60
100
AcDbLine
 10
549.3587618693207
 20
377.8969957081545
 30
0.0
 11
550.5995148693207
 21
377.8969957081545
 31
0.0
  0
LINE
  5
292
330
1F
100
AcDbEntity
  8
0
 62
     7
 48
0.031019
370
    60
100
AcDbLine
 10
549.3587618693207
 20
124.8969987081545
 30
0.0
 11
550.5995148693207
 21
124.8969987081545
 31
0.0
  0
LINE
  5
293
330
1F
100
AcDbEntity
  8
0
 62
     7
 48
0.047721
370
    60
100
AcDbLine
 10
550.5995148693207
 20
377.8969957081545
 30
0.0
 11
552.5083588693208
 21
377.8969957081545
 31
0.0
  0
LINE
  5
294
330
1F
100
AcDbEntity
  8
0
 62
     7
 48
0.047721
370
    60
100
AcDbLine
 10
550.5995148693207
 20
124.8969987081545
 30
0.0
 11
552.5083588693208
 21
124.8969987081545
 31
0.0
  0
LINE
  5
295
330
1F
100
AcDbEntity
  8
0
 62
     7
 48
0.031019
370
    60
100
AcDbLine
 10
552.5083588693208
 20
377.8969957081545
 30
0.0
 11
553.7491128693207
 21
377.8969957081545
 31
0.0
  0
LINE
  5
296
330
1F
100
AcDbEntity
  8
0
 62
     7
 48
0.031019
370
    60
100
AcDbLine
 10
552.5083588693208
 20
124.8969987081545
 30
0.0
 11
553.7491128693207
 21
124.8969987081545
 31
0.0
  0
LINE
  5
297
330
1F
100
AcDbEntity
  8
0
 62
     7
 48
0.047721
370
    60
100
AcDbLine
 10
553.7491128693207
 20
377.8969957081545
 30
0.0
 11
555.6579718693207
 21
377.8969957081545
 31
0.0
  0
LINE
  5
298
330
1F
100
AcDbEntity
  8
0
 62
     7
 48
0.047721
370
    60
100
AcDbLine
 10
553.7491128693207
 20
124.8969987081545
 30
0.0
 11
555.6579718693207
 21
124.8969987081545
 31
0.0
  0
LINE
  5
299
330
1F
100
AcDbEntity
  8
0
 62
     7
 48
0.031019
370
    60
100
AcDbLine
 10
555.6579718693207
 20
377.8969957081545
 30
0.0
 11
556.8987248693207
 21
377.8969957081545
 31
0.0
  0
LINE
  5
29A
330
1F
100
AcDbEntity
  8
0
 62
     7
 48
0.031019
370
    60
100
AcDbLine
 10
555.6579718693207
 20
124.8969987081545
 30
0.0
 11
556.8987248693207
 21
124.8969987081545
 31
0.0
  0
LINE
  5
29B
330
1F
100
AcDbEntity
  8
0
 62
     7
 48
0.047721
370
    60
100
AcDbLine
 10
556.8987248693207
 20
377.8969957081545
 30
0.0
 11
558.8075688693207
 21
377.8969957081545
 31
0.0
  0
LINE
  5
29C
330
1F
100
AcDbEntity
  8
0
 62
     7
 48
0.047721
370
    60
100
AcDbLine
 10
556.8987248693207
 20
124.8969987081545
 30
0.0
 11
558.8075688693207
 21
124.8969987081545
 31
0.0
  0
LINE
  5
29D
330
1F
100
AcDbEntity
  8
0
 62
     7
 48
0.031019
370
    60
100
AcDbLine
 10
558.8075688693207
 20
377.8969957081545
 30
0.0
 11
560.0483218693207
 21
377.8969957081545
 31
0.0
  0
LINE
  5
29E
330
1F
100
AcDbEntity
  8
0
 62
     7
 48
0.031019
370
    60
100
AcDbLine
 10
558.8075688693207
 20
124.8969987081545
 30
0.0
 11
560.0483218693207
 21
124.8969987081545
 31
0.0
  0
LINE
  5
29F
330
1F
100
AcDbEntity
  8
0
 62
     7
 48
0.047721
370
    60
100
AcDbLine
 10
560.0483218693207
 20
377.8969957081545
 30
0.0
 11
561.9571658693208
 21
377.8969957081545
 31
0.0
  0
LINE
  5
2A0
330
1F
100
AcDbEntity
  8
0
 62
     7
 48
0.047721
370
    60
100
AcDbLine
 10
560.0483218693207
 20
124.8969987081545
 30
0.0
 11
561.9571658693208
 21
124.8969987081545
 31
0.0
  0
LINE
  5
2A1
330
1F
100
AcDbEntity
  8
0
 62
     7
 48
0.031019
370
    60
100
AcDbLine
 10
561.9571658693208
 20
377.8969957081545
 30
0.0
 11
563.1979188693207
 21
377.8969957081545
 31
0.0
  0
LINE
  5
2A2
330
1F
100
AcDbEntity
  8
0
 62
     7
 48
0.031019
370
    60
100
AcDbLine
 10
561.9571658693208
 20
124.8969987081545
 30
0.0
 11
563.1979188693207
 21
124.8969987081545
 31
0.0
  0
LINE
  5
2A3
330
1F
100
AcDbEntity
  8
0
 62
     7
 48
0.047721
370
    60
100
AcDbLine
 10
563.1979188693207
 20
377.8969957081545
 30
0.0
 11
565.1067788693207
 21
377.8969957081545
 31
0.0
  0
LINE
  5
2A4
330
1F
100
AcDbEntity
  8
0
 62
     7
 48
0.047721
370
    60
100
AcDbLine
 10
563.1979188693207
 20
124.8969987081545
 30
0.0
 11
565.1067788693207
 21
124.8969987081545
 31
0.0
  0
LINE
  5
2A5
330
1F
100
AcDbEntity
  8
0
 62
     7
 48
0.031019
370
    60
100
AcDbLine
 10
565.1067788693207
 20
377.8969957081545
 30
0.0
 11
566.3475318693207
 21
377.8969957081545
 31
0.0
  0
LINE
  5
2A6
330
1F
100
AcDbEntity
  8
0
 62
     7
 48
0.031019
370
    60
100
AcDbLine
 10
565.1067788693207
 20
124.8969987081545
 30
0.0
 11
566.3475318693207
 21
124.8969987081545
 31
0.0
  0
LINE
  5
2A7
330
1F
100
AcDbEntity
  8
0
 62
     7
 48
0.047721
370
    60
100
AcDbLine
 10
566.3475318693207
 20
377.8969957081545
 30
0.0
 11
568.2563758693207
 21
377.8969957081545
 31
0.0
  0
LINE
  5
2A8
330
1F
100
AcDbEntity
  8
0
 62
     7
 48
0.047721
370
    60
100
AcDbLine
 10
566.3475318693207
 20
124.8969987081545
 30
0.0
 11
568.2563758693207
 21
124.8969987081545
 31
0.0
  0
LINE
  5
2A9
330
1F
100
AcDbEntity
  8
0
 62
     7
 48
0.031019
370
    60
100
AcDbLine
 10
568.2563758693207
 20
377.8969957081545
 30
0.0
 11
569.4971288693207
 21
377.8969957081545
 31
0.0
  0
LINE
  5
2AA
330
1F
100
AcDbEntity
  8
0
 62
     7
 48
0.031019
370
    60
100
AcDbLine
 10
568.2563758693207
 20
124.8969987081545
 30
0.0
 11
569.4971288693207
 21
124.8969987081545
 31
0.0
  0
LINE
  5
2AB
330
1F
100
AcDbEntity
  8
0
 62
     7
 48
0.047721
370
    60
100
AcDbLine
 10
569.4971288693207
 20
377.8969957081545
 30
0.0
 11
571.4059878693207
 21
377.8969957081545
 31
0.0
  0
LINE
  5
2AC
330
1F
100
AcDbEntity
  8
0
 62
     7
 48
0.047721
370
    60
100
AcDbLine
 10
569.4971288693207
 20
124.8969987081545
 30
0.0
 11
571.4059878693207
 21
124.8969987081545
 31
0.0
  0
LINE
  5
2AD
330
1F
100
AcDbEntity
  8
0
 62
     7
 48
0.031019
370
    60
100
AcDbLine
 10
571.4059878693207
 20
377.8969957081545
 30
0.0
 11
572.6467408693206
 21
377.8969957081545
 31
0.0
  0
LINE
  5
2AE
330
1F
100
AcDbEntity
  8
0
 62
     7
 48
0.031019
370
    60
100
AcDbLine
 10
571.4059878693207
 20
124.8969987081545
 30
0.0
 11
572.6467408693206
 21
124.8969987081545
 31
0.0
  0
LINE
  5
2AF
330
1F
100
AcDbEntity
  8
0
 62
     7
 48
0.047721
370
    60
100
AcDbLine
 10
572.6467408693206
 20
377.8969957081545
 30
0.0
 11
574.5555848693207
 21
377.8969957081545
 31
0.0
  0
LINE
  5
2B0
330
1F
100
AcDbEntity
  8
0
 62
     7
 48
0.047721
370
    60
100
AcDbLine
 10
572.6467408693206
 20
124.8969987081545
 30
0.0
 11
574.5555848693207
 21
124.8969987081545
 31
0.0
  0
LINE
  5
2B1
330
1F
100
AcDbEntity
  8
0
 62
     7
 48
0.031019
370
    60
100
AcDbLine
 10
574.5555848693207
 20
377.8969957081545
 30
0.0
 11
575.7963388693207
 21
377.8969957081545
 31
0.0
  0
LINE
  5
2B2
330
1F
100
AcDbEntity
  8
0
 62
     7
 48
0.031019
370
    60
100
AcDbLine
 10
574.5555848693207
 20
124.8969987081545
 30
0.0
 11
575.7963388693207
 21
124.8969987081545
 31
0.0
  0
LINE
  5
2B3
330
1F
100
AcDbEntity
  8
0
 62
     7
 48
0.047721
370
    60
100
AcDbLine
 10
575.7963388693207
 20
377.8969957081545
 30
0.0
 11
577.7051828693207
 21
377.8969957081545
 31
0.0
  0
LINE
  5
2B4
330
1F
100
AcDbEntity
  8
0
 62
     7
 48
0.047721
370
    60
100
AcDbLine
 10
575.7963388693207
 20
124.8969987081545
 30
0.0
 11
577.7051828693207
 21
124.8969987081545
 31
0.0
  0
LINE
  5
2B5
330
1F
100
AcDbEntity
  8
0
 62
     7
 48
0.031019
370
    60
100
AcDbLine
 10
577.7051828693207
 20
377.8969957081545
 30
0.0
 11
578.9459358693207
 21
377.8969957081545
 31
0.0
  0
LINE
  5
2B6
330
1F
100
AcDbEntity
  8
0
 62
     7
 48
0.031019
370
    60
100
AcDbLine
 10
577.7051828693207
 20
124.8969987081545
 30
0.0
 11
578.9459358693207
 21
124.8969987081545
 31
0.0
  0
LINE
  5
2B7
330
1F
100
AcDbEntity
  8
0
 62
     7
 48
0.047721
370
    60
100
AcDbLine
 10
578.9459358693207
 20
377.8969957081545
 30
0.0
 11
580.8547948693207
 21
377.8969957081545
 31
0.0
  0
LINE
  5
2B8
330
1F
100
AcDbEntity
  8
0
 62
     7
 48
0.047721
370
    60
100
AcDbLine
 10
578.9459358693207
 20
124.8969987081545
 30
0.0
 11
580.8547948693207
 21
124.8969987081545
 31
0.0
  0
LINE
  5
2B9
330
1F
100
AcDbEntity
  8
0
 62
     7
 48
0.031019
370
    60
100
AcDbLine
 10
580.8547948693207
 20
377.8969957081545
 30
0.0
 11
582.0955478693207
 21
377.8969957081545
 31
0.0
  0
LINE
  5
2BA
330
1F
100
AcDbEntity
  8
0
 62
     7
 48
0.031019
370
    60
100
AcDbLine
 10
580.8547948693207
 20
124.8969987081545
 30
0.0
 11
582.0955478693207
 21
124.8969987081545
 31
0.0
  0
LINE
  5
2BB
330
1F
100
AcDbEntity
  8
0
 62
     7
 48
0.047721
370
    60
100
AcDbLine
 10
582.0955478693207
 20
377.8969957081545
 30
0.0
 11
584.0043918693207
 21
377.8969957081545
 31
0.0
  0
LINE
  5
2BC
330
1F
100
AcDbEntity
  8
0
 62
     7
 48
0.047721
370
    60
100
AcDbLine
 10
582.0955478693207
 20
124.8969987081545
 30
0.0
 11
584.0043918693207
 21
124.8969987081545
 31
0.0
  0
LINE
  5
2BD
330
1F
100
AcDbEntity
  8
0
 62
     7
 48
0.031019
370
    60
100
AcDbLine
 10
584.0043918693207
 20
377.8969957081545
 30
0.0
 11
585.2451448693207
 21
377.8969957081545
 31
0.0
  0
LINE
  5
2BE
330
1F
100
AcDbEntity
  8
0
 62
     7
 48
0.031019
370
    60
100
AcDbLine
 10
584.0043918693207
 20
124.8969987081545
 30
0.0
 11
585.2451448693207
 21
124.8969987081545
 31
0.0
  0
LINE
  5
2BF
330
1F
100
AcDbEntity
  8
0
 62
     7
 48
0.047721
370
    60
100
AcDbLine
 10
585.2451448693207
 20
377.8969957081545
 30
0.0
 11
587.1540048693207
 21
377.8969957081545
 31
0.0
  0
LINE
  5
2C0
330
1F
100
AcDbEntity
  8
0
 62
     7
 48
0.047721
370
    60
100
AcDbLine
 10
585.2451448693207
 20
124.8969987081545
 30
0.0
 11
587.1540048693207
 21
124.8969987081545
 31
0.0
  0
LINE
  5
2C1
330
1F
100
AcDbEntity
  8
0
 62
     7
 48
0.108699
370
    60
100
AcDbLine
 10
478.3104758693207
 20
236.3969957081545
 30
0.0
 11
473.9625138693207
 21
236.3969957081545
 31
0.0
  0
LINE
  5
2C2
330
1F
100
AcDbEntity
  8
0
 62
     7
 48
0.036613
370
    60
100
AcDbLine
 10
479.7749918693207
 20
236.3969957081545
 30
0.0
 11
478.3104758693207
 21
236.3969957081545
 31
0.0
  0
LINE
  5
2C3
330
1F
100
AcDbEntity
  8
0
 62
     7
 48
0.129688
370
    60
100
AcDbLine
 10
484.9625218693206
 20
236.3969957081545
 30
0.0
 11
479.7749918693207
 21
236.3969957081545
 31
0.0
  0
LINE
  5
2C4
330
1F
100
AcDbEntity
  8
0
 62
     7
 48
0.275
370
    60
100
AcDbLine
 10
495.9625218693206
 20
236.3969957081545
 30
0.0
 11
484.9625218693206
 21
236.3969957081545
 31
0.0
  0
LINE
  5
2C5
330
1F
100
AcDbEntity
  8
0
 62
     7
 48
0.108699
370
    60
100
AcDbLine
 10
473.9625138693207
 20
151.3969987081545
 30
0.0
 11
478.3104758693207
 21
151.3969987081545
 31
0.0
  0
LINE
  5
2C6
330
1F
100
AcDbEntity
  8
0
 62
     7
370
    60
100
AcDbLine
 10
478.3104758693207
 20
236.3969957081545
 30
0.0
 11
478.3104758693207
 21
151.3969987081545
 31
0.0
  0
LINE
  5
2C7
330
1F
100
AcDbEntity
  8
0
 62
     7
 48
0.036613
370
    60
100
AcDbLine
 10
478.3104758693207
 20
151.3969987081545
 30
0.0
 11
479.7749918693207
 21
151.3969987081545
 31
0.0
  0
LINE
  5
2C8
330
1F
100
AcDbEntity
  8
0
 62
     7
370
    60
100
AcDbLine
 10
479.7749918693207
 20
236.3969957081545
 30
0.0
 11
479.7749918693207
 21
151.3969987081545
 31
0.0
  0
LINE
  5
2C9
330
1F
100
AcDbEntity
  8
0
 62
     7
370
    60
100
AcDbLine
 10
484.9625218693206
 20
236.3969957081545
 30
0.0
 11
484.9625218693206
 21
151.3969987081545
 31
0.0
  0
LINE
  5
2CA
330
1F
100
AcDbEntity
  8
0
 62
     7
 48
0.129688
370
    60
100
AcDbLine
 10
484.9625218693206
 20
151.3969987081545
 30
0.0
 11
479.7749918693207
 21
151.3969987081545
 31
0.0
  0
LINE
  5
2CB
330
1F
100
AcDbEntity
  8
0
 62
     7
 48
0.108699
370
    60
100
AcDbLine
 10
473.9625138693207
 20
351.3969957081545
 30
0.0
 11
478.3104758693207
 21
351.3969957081545
 31
0.0
  0
LINE
  5
2CC
330
1F
100
AcDbEntity
  8
0
 62
     7
370
    60
100
AcDbLine
 10
478.3104758693207
 20
351.3969957081545
 30
0.0
 11
478.3104758693207
 21
266.3969957081545
 31
0.0
  0
LINE
  5
2CD
330
1F
100
AcDbEntity
  8
0
 62
     7
 48
0.036613
370
    60
100
AcDbLine
 10
478.3104758693207
 20
351.3969957081545
 30
0.0
 11
479.7749918693207
 21
351.3969957081545
 31
0.0
  0
LINE
  5
2CE
330
1F
100
AcDbEntity
  8
0
 62
     7
370
    60
100
AcDbLine
 10
479.7749918693207
 20
351.3969957081545
 30
0.0
 11
479.7749918693207
 21
266.3969957081545
 31
0.0
  0
LINE
  5
2CF
330
1F
100
AcDbEntity
  8
0
 62
     7
370
    60
100
AcDbLine
 10
484.9625218693206
 20
351.3969957081545
 30
0.0
 11
484.9625218693206
 21
266.3969957081545
 31
0.0
  0
LINE
  5
2D0
330
1F
100
AcDbEntity
  8
0
 62
     7
 48
0.129688
370
    60
100
AcDbLine
 10
484.9625218693206
 20
351.3969957081545
 30
0.0
 11
479.7749918693207
 21
351.3969957081545
 31
0.0
  0
LINE
  5
2D1
330
1F
100
AcDbEntity
  8
0
 62
     7
 48
0.03283
370
    60
100
AcDbLine
 10
508.3414738693207
 20
377.8969957081545
 30
0.0
 11
509.6546758693207
 21
377.8969957081545
 31
0.0
  0
LINE
  5
2D2
330
1F
100
AcDbEntity
  8
0
 62
     7
370
    60
100
AcDbLine
 10
508.3414738693207
 20
377.8969957081545
 30
0.0
 11
508.3414738693207
 21
124.8969987081545
 31
0.0
  0
LINE
  5
2D3
330
1F
100
AcDbEntity
  8
0
 62
     7
 48
0.03283
370
    60
100
AcDbLine
 10
508.3414738693207
 20
124.8969987081545
 30
0.0
 11
509.6546758693207
 21
124.8969987081545
 31
0.0
  0
LINE
  5
2D4
330
1F
100
AcDbEntity
  8
0
 62
     7
 48
0.086541
370
    60
100
AcDbLine
 10
476.1625188693207
 20
372.8969957081545
 30
0.0
 11
476.1625188693207
 21
369.4353407081545
 31
0.0
  0
ARC
  5
2D5
330
1F
100
AcDbEntity
  8
0
 62
     7
370
    60
100
AcDbCircle
 10
481.1625188693207
 20
372.8969957081545
 30
0.0
 40
5.000000000000007
100
AcDbArc
 50
90.0000030000003
 51
180.0000050000002
  0
LINE
  5
2D6
330
1F
100
AcDbEntity
  8
0
 62
     7
 48
0.086541
370
    60
100
AcDbLine
 10
476.1625188693207
 20
129.8969987081545
 30
0.0
 11
476.1625188693207
 21
133.3586537081545
 31
0.0
  0
LINE
  5
2D7
330
1F
100
AcDbEntity
  8
0
 62
     7
370
    60
100
AcDbLine
 10
481.1625188693207
 20
124.8969987081545
 30
0.0
 11
508.3414738693207
 21
124.8969987081545
 31
0.0
  0
LINE
  5
2D8
330
1F
100
AcDbEntity
  8
0
 62
     7
370
    60
100
AcDbLine
 10
481.1625188693207
 20
377.8969957081545
 30
0.0
 11
508.3414738693207
 21
377.8969957081545
 31
0.0
  0
ARC
  5
2D9
330
1F
100
AcDbEntity
  8
0
 62
     7
370
    60
100
AcDbCircle
 10
481.1625188693207
 20
129.8969987081545
 30
0.0
 40
5.000000000000019
100
AcDbArc
 50
180.0000049999998
 51
270.0000009999999
  0
CIRCLE
  5
2DA
330
1F
100
AcDbEntity
  8
0
 62
     7
370
    60
100
AcDbCircle
 10
481.9625218693206
 20
335.3969957081545
 30
0.0
 40
1.5
  0
CIRCLE
  5
2DB
330
1F
100
AcDbEntity
  8
0
 62
     7
370
    60
100
AcDbCircle
 10
481.9625218693206
 20
282.3969957081545
 30
0.0
 40
1.5
  0
CIRCLE
  5
2DC
330
1F
100
AcDbEntity
  8
0
 62
     7
370
    60
100
AcDbCircle
 10
481.9625218693206
 20
220.3969957081545
 30
0.0
 40
1.5
  0
CIRCLE
  5
2DD
330
1F
100
AcDbEntity
  8
0
 62
     7
370
    60
100
AcDbCircle
 10
481.9625218693206
 20
167.3969997081545
 30
0.0
 40
1.5
  0
LINE
  5
2DE
330
1F
100
AcDbEntity
  8
0
 62
     7
 48
0.025213
370
    60
100
AcDbLine
 10
587.1540048693207
 20
124.8969987081545
 30
0.0
 11
588.1625188693207
 21
124.8969987081545
 31
0.0
  0
LINE
  5
2DF
330
1F
100
AcDbEntity
  8
0
 62
     7
 48
0.051922
370
    60
100
AcDbLine
 10
594.6939518693207
 20
131.4284397081545
 30
0.0
 11
596.1625188693207
 21
132.8969987081545
 31
0.0
  0
LINE
  5
2E0
330
1F
100
AcDbEntity
  8
0
 62
     7
 48
0.043867
370
    60
100
AcDbLine
 10
593.4531988693207
 20
130.1876867081545
 30
0.0
 11
594.6939518693207
 21
131.4284397081545
 31
0.0
  0
LINE
  5
2E1
330
1F
100
AcDbEntity
  8
0
 62
     7
 48
0.067488
370
    60
100
AcDbLine
 10
591.5443548693207
 20
128.2788367081545
 30
0.0
 11
593.4531988693207
 21
130.1876867081545
 31
0.0
  0
LINE
  5
2E2
330
1F
100
AcDbEntity
  8
0
 62
     7
 48
0.043867
370
    60
100
AcDbLine
 10
590.3036018693207
 20
127.0380837081545
 30
0.0
 11
591.5443548693207
 21
128.2788367081545
 31
0.0
  0
LINE
  5
2E3
330
1F
100
AcDbEntity
  8
0
 62
     7
 48
0.067488
370
    60
100
AcDbLine
 10
588.3947578693208
 20
125.1292337081545
 30
0.0
 11
590.3036018693207
 21
127.0380837081545
 31
0.0
  0
LINE
  5
2E4
330
1F
100
AcDbEntity
  8
0
 62
     7
 48
0.008211
370
    60
100
AcDbLine
 10
588.1625188693207
 20
124.8969987081545
 30
0.0
 11
588.3947578693208
 21
125.1292337081545
 31
0.0
  0
LINE
  5
2E5
330
1F
100
AcDbEntity
  8
0
 62
     7
 48
0.025213
370
    60
100
AcDbLine
 10
587.1540048693207
 20
377.8969957081545
 30
0.0
 11
588.1625188693207
 21
377.8969957081545
 31
0.0
  0
LINE
  5
2E6
330
1F
100
AcDbEntity
  8
0
 62
     7
370
    60
100
AcDbLine
 10
596.1625188693207
 20
369.8969957081545
 30
0.0
 11
596.1625188693207
 21
132.8969987081545
 31
0.0
  0
LINE
  5
2E7
330
1F
100
AcDbEntity
  8
0
 62
     7
 48
0.008211
370
    60
100
AcDbLine
 10
588.3947578693208
 20
377.6647567081545
 30
0.0
 11
588.1625188693207
 21
377.8969957081545
 31
0.0
  0
LINE
  5
2E8
330
1F
100
AcDbEntity
  8
0
 62
     7
 48
0.067488
370
    60
100
AcDbLine
 10
588.3947578693208
 20
377.6647567081545
 30
0.0
 11
590.3036018693207
 21
375.7559127081544
 31
0.0
  0
LINE
  5
2E9
330
1F
100
AcDbEntity
  8
0
 62
     7
 48
0.043867
370
    60
100
AcDbLine
 10
590.3036018693207
 20
375.7559127081544
 30
0.0
 11
591.5443548693207
 21
374.5151597081545
 31
0.0
  0
LINE
  5
2EA
330
1F
100
AcDbEntity
  8
0
 62
     7
 48
0.067488
370
    60
100
AcDbLine
 10
591.5443548693207
 20
374.5151597081545
 30
0.0
 11
593.4531988693207
 21
372.6063157081545
 31
0.0
  0
LINE
  5
2EB
330
1F
100
AcDbEntity
  8
0
 62
     7
 48
0.043867
370
    60
100
AcDbLine
 10
593.4531988693207
 20
372.6063157081545
 30
0.0
 11
594.6939518693207
 21
371.3655627081545
 31
0.0
  0
LINE
  5
2EC
330
1F
100
AcDbEntity
  8
0
 62
     7
 48
0.051922
370
    60
100
AcDbLine
 10
594.6939518693207
 20
371.3655627081545
 30
0.0
 11
596.1625188693207
 21
369.8969957081545
 31
0.0
  0
LINE
  5
2ED
330
1F
100
AcDbEntity
  8
0
 62
     7
370
    60
100
AcDbLine
 10
228.3625158693207
 20
151.3969987081545
 30
0.0
 11
228.3625158693207
 21
236.3969957081545
 31
0.0
  0
LINE
  5
2EE
330
1F
100
AcDbEntity
  8
0
 62
     7
370
    60
100
AcDbLine
 10
228.3625158693207
 20
266.3969957081545
 30
0.0
 11
228.3625158693207
 21
351.3969957081545
 31
0.0
  0
LINE
  5
2EF
330
1F
100
AcDbEntity
  8
0
 62
     7
370
    60
100
AcDbLine
 10
473.9625138693207
 20
236.3969957081545
 30
0.0
 11
473.9625138693207
 21
151.3969987081545
 31
0.0
  0
LINE
  5
2F0
330
1F
100
AcDbEntity
  8
0
 62
     7
370
    60
100
AcDbLine
 10
473.9625138693207
 20
351.3969957081545
 30
0.0
 11
473.9625138693207
 21
266.3969957081545
 31
0.0
  0
DIMENSION
  5
2F1
330
1F
100
AcDbEntity
  8
0
370
    25
100
AcDbDimension
  2
*D3
 10
596.1625188693207
 20
440.3276181024398
 30
0.0
 11
351.1625188693207
 21
452.3276181024398
 31
0.0
 70
    32
 71
     5
 41
2.5
 42
490.0
  3
ISO-25
100
AcDbAlignedDimension
 13
106.1625188693207
 23
294.3738941480724
 33
0.0
 14
596.1625188693207
 24
294.3738941480724
 34
0.0
100
AcDbRotatedDimension
1001
ACAD
1000
DSTYLE
1002
{
1070
    41
1040
10.0
1070
   176
1070
     7
1070
   177
1070
     7
1070
   147
1040
5.0
1070
   140
1040
14.0
1002
}
  0
DIMENSION
  5
2F2
330
1F
100
AcDbEntity
  8
0
370
    25
100
AcDbDimension
  2
*D4
 10
637.5592504801002
 20
124.8969987081545
 30
0.0
 11
625.5592504801002
 21
251.3969972081545
 31
0.0
 70
    32
 71
     5
 41
2.5
 42
252.999997
  3
ISO-25
100
AcDbAlignedDimension
 13
543.0595528693207
 23
377.8969957081545
 33
0.0
 14
536.7603428693208
 24
124.8969987081545
 34
0.0
 50
90.0
100
AcDbRotatedDimension
1001
ACAD
1000
DSTYLE
1002
{
1070
    41
1040
10.0
1070
   176
1070
     7
1070
   177
1070
     7
1070
   147
1040
5.0
1070
   140
1040
14.0
1002
}
  0
VIEWPORT
  5
BB
330
73
100
AcDbEntity
 67
     1
  8
0
100
AcDbViewport
 10
7.8
 20
4.5
 30
0.0
 40
15.64
 41
9.0
 68
     1
 69
     1
 12
6.0
 22
4.5
 13
0.0
 23
0.0
 14
0.5
 24
0.5
 15
0.5
 25
0.5
 16
0.0
 26
0.0
 36
1.0
 17
0.0
 27
0.0
 37
0.0
 42
50.0
 43
0.0
 44
0.0
 45
12.0
 50
0.0
 51
0.0
 72
   100
 90
   557152
  1

281
     0
 71
     1
 74
     0
110
0.0
120
0.0
130
0.0
111
1.0
121
0.0
131
0.0
112
0.0
122
1.0
132
0.0
 79
     0
146
0.0
  0
ENDSEC
  0
SECTION
  2
OBJECTS
  0
DICTIONARY
  5
C
330
0
100
AcDbDictionary
281
     1
  3
ACAD_COLOR
350
6C
  3
ACAD_GROUP
350
D
  3
ACAD_LAYOUT
350
1A
  3
ACAD_MATERIAL
350
6B
  3
ACAD_MLEADERSTYLE
350
32F
  3
ACAD_MLINESTYLE
350
17
  3
ACAD_PLOTSETTINGS
350
19
  3
ACAD_PLOTSTYLENAME
350
E
  3
ACAD_SCALELIST
350
99
  3
ACAD_TABLESTYLE
350
92
  3
ACDBHEADERROUNDTRIPXREC
350
330
  3
AcDbVariableDictionary
350
59
  3
DWGPROPS
350
333
  0
DICTIONARY
  5
6C
102
{ACAD_REACTORS
330
C
102
}
330
C
100
AcDbDictionary
281
     1
  0
DICTIONARY
  5
D
102
{ACAD_REACTORS
330
C
102
}
330
C
100
AcDbDictionary
281
     1
  0
DICTIONARY
  5
1A
102
{ACAD_REACTORS
330
C
102
}
330
C
100
AcDbDictionary
281
     1
  3
Layout1
350
74
  3
Layout2
350
323
  3
Model
350
22
  0
DICTIONARY
  5
6B
102
{ACAD_REACTORS
330
C
102
}
330
C
100
AcDbDictionary
281
     1
  0
DICTIONARY
  5
32F
102
{ACAD_REACTORS
330
C
102
}
330
C
100
AcDbDictionary
281
     1
  0
DICTIONARY
  5
17
102
{ACAD_REACTORS
330
C
102
}
330
C
100
AcDbDictionary
281
     1
  3
Standard
350
18
  0
DICTIONARY
  5
19
102
{ACAD_REACTORS
330
C
102
}
330
C
100
AcDbDictionary
281
     1
  0
ACDBDICTIONARYWDFLT
  5
E
102
{ACAD_REACTORS
330
C
102
}
330
C
100
AcDbDictionary
281
     1
  3
Normal
350
F
100
AcDbDictionaryWithDefault
340
F
  0
DICTIONARY
  5
99
102
{ACAD_REACTORS
330
C
102
}
330
C
100
AcDbDictionary
281
     1
  3
A0
350
D5
  3
A1
350
D6
  3
A2
350
D7
  3
A3
350
D8
  3
A4
350
D9
  3
A5
350
DA
  3
A6
350
DB
  3
A7
350
DC
  3
A8
350
DD
  3
A9
350
DE
  3
B0
350
DF
  3
B1
350
E0
  3
B2
350
E1
  3
B3
350
E2
  3
B4
350
E3
  3
B5
350
E4
  3
B6
350
E5
  3
B7
350
E6
  3
B8
350
E7
  3
B9
350
E8
  3
C0
350
E9
  3
C1
350
EA
  3
C2
350
EB
  3
C3
350
EC
  3
C4
350
ED
  3
C5
350
EE
  3
C6
350
EF
  3
C7
350
F0
  3
C8
350
F1
  3
C9
350
F2
  3
D0
350
F3
  3
D1
350
F4
  3
D2
350
F5
  0
DICTIONARY
  5
92
102
{ACAD_REACTORS
330
C
102
}
330
C
100
AcDbDictionary
281
     1
  0
DICTIONARY
  5
330
102
{ACAD_REACTORS
330
C
102
}
330
C
100
AcDbDictionary
281
     1
  3
COLORDICT
350
331
  3
MATERIALDICT
350
332
  0
DICTIONARY
  5
59
102
{ACAD_REACTORS
330
C
102
}
330
C
100
AcDbDictionary
281
     1
  3
CTABLESTYLE
350
98
  3
DIMASSOC
350
5A
  3
HIDETEXT
350
5E
  0
XRECORD
  5
333
102
{ACAD_REACTORS
330
C
102
}
330
C
100
AcDbXrecord
280
     1
  1
DWGPROPS COOKIE
  2

  3

  4

  6

  7

  8
BelottiMc
  9

300
=
301
=
302
=
303
=
304
=
305
=
306
=
307
=
308
=
309
=
 40
0.0
 41
2455098.37762963
 42
2455098.41929632
  1

 90
        0
  0
LAYOUT
  5
74
102
{ACAD_REACTORS
330
1A
102
}
330
1A
100
AcDbPlotSettings
  1

  2
ProgeSOFT PDF Wizard
  4
A4
  6

 40
5.926666666666667
 41
6.011333333333317
 42
6.095999999999985
 43
5.926666666666667
 44
210.0
 45
297.0
 46
88.56200000000001
 47
136.531
 48
0.0
 49
0.0
140
0.0
141
0.0
142
1.0
143
1.0
 70
   692
 72
     1
 73
     0
 74
     0
  7

 75
    16
147
1.0
148
4.426666666666668
149
1.5
100
AcDbLayout
  1
Layout1
 70
     1
 71
     1
 10
0.0
 20
0.0
 11
0.0
 21
0.0
 12
0.0
 22
0.0
 32
0.0
 14
0.0
 24
0.0
 34
0.0
 15
0.0
 25
0.0
 35
0.0
146
0.0
 13
0.0
 23
0.0
 33
0.0
 16
1.0
 26
0.0
 36
0.0
 17
0.0
 27
1.0
 37
0.0
 76
     0
330
D1
331
32E
1001
PROGE_PRINT_SETTINGS
1070
    73
1070
     1
  0
LAYOUT
  5
323
102
{ACAD_REACTORS
330
1A
102
}
330
1A
100
AcDbPlotSettings
  1

  2
ProgeSOFT PDF Wizard
  4
A4
  6

 40
5.926666666666667
 41
6.011333333333317
 42
6.095999999999985
 43
5.926666666666667
 44
210.0
 45
297.0
 46
88.562
 47
136.531
 48
0.0
 49
0.0
140
0.0
141
0.0
142
1.0
143
1.0
 70
   692
 72
     1
 73
     0
 74
     0
  7

 75
    16
147
1.0
148
0.0
149
0.0
100
AcDbLayout
  1
Layout2
 70
     1
 71
     2
 10
0.0
 20
0.0
 11
12.0
 21
9.0
 12
0.0
 22
0.0
 32
0.0
 14
0.0
 24
0.0
 34
0.0
 15
12.0
 25
9.0
 35
0.0
146
0.0
 13
0.0
 23
0.0
 33
0.0
 16
1.0
 26
0.0
 36
0.0
 17
0.0
 27
1.0
 37
0.0
 76
     0
330
73
331
BB
1001
PROGE_PRINT_SETTINGS
1070
    73
1070
     1
  0
LAYOUT
  5
22
102
{ACAD_REACTORS
330
1A
102
}
330
1A
100
AcDbPlotSettings
  1

  2
none_device
  4
Letter_(8.50_x_11.00_Inches)
  6

 40
6.349999904632568
 41
6.349999904632568
 42
6.350006103515625
 43
6.350006103515625
 44
215.8999938964844
 45
279.3999938964844
 46
0.0
 47
0.0
 48
0.0
 49
0.0
140
0.0
141
0.0
142
1.0
143
3.067033244680452
 70
 11952
 72
     1
 73
     1
 74
     0
  7

 75
     0
147
0.3260479819494712
148
0.1311165230791651
149
0.096403374003771
100
AcDbLayout
  1
Model
 70
     1
 71
     0
 10
0.0
 20
0.0
 11
0.0
 21
0.0
 12
0.0
 22
0.0
 32
0.0
 14
106.1625188693207
 24
61.39699570815451
 34
0.0
 15
639.2259171467668
 25
459.3276181024398
 35
0.0
146
0.0
 13
0.0
 23
0.0
 33
0.0
 16
1.0
 26
0.0
 36
0.0
 17
0.0
 27
1.0
 37
0.0
 76
     0
330
1F
331
97
  0
MLINESTYLE
  5
18
102
{ACAD_REACTORS
330
17
102
}
330
17
100
AcDbMlineStyle
  2
STANDARD
 70
     0
  3

 62
   256
 51
90.0
 52
90.0
 71
     2
 49
0.5
 62
   256
  6
BYLAYER
 49
-0.5
 62
   256
  6
BYLAYER
  0
ACDBPLACEHOLDER
  5
F
102
{ACAD_REACTORS
330
E
102
}
330
E
  0
SCALE
  5
D5
102
{ACAD_REACTORS
330
99
102
}
330
99
100
AcDbScale
 70
     0
300
1:1
140
1.0
141
1.0
290
     1
  0
SCALE
  5
D6
102
{ACAD_REACTORS
330
99
102
}
330
99
100
AcDbScale
 70
     0
300
1:2
140
1.0
141
2.0
290
     0
  0
SCALE
  5
D7
102
{ACAD_REACTORS
330
99
102
}
330
99
100
AcDbScale
 70
     0
300
1:4
140
1.0
141
4.0
290
     0
  0
SCALE
  5
D8
102
{ACAD_REACTORS
330
99
102
}
330
99
100
AcDbScale
 70
     0
300
1:5
140
1.0
141
5.0
290
     0
  0
SCALE
  5
D9
102
{ACAD_REACTORS
330
99
102
}
330
99
100
AcDbScale
 70
     0
300
1:8
140
1.0
141
8.0
290
     0
  0
SCALE
  5
DA
102
{ACAD_REACTORS
330
99
102
}
330
99
100
AcDbScale
 70
     0
300
1:10
140
1.0
141
10.0
290
     0
  0
SCALE
  5
DB
102
{ACAD_REACTORS
330
99
102
}
330
99
100
AcDbScale
 70
     0
300
1:16
140
1.0
141
16.0
290
     0
  0
SCALE
  5
DC
102
{ACAD_REACTORS
330
99
102
}
330
99
100
AcDbScale
 70
     0
300
1:20
140
1.0
141
20.0
290
     0
  0
SCALE
  5
DD
102
{ACAD_REACTORS
330
99
102
}
330
99
100
AcDbScale
 70
     0
300
1:30
140
1.0
141
30.0
290
     0
  0
SCALE
  5
DE
102
{ACAD_REACTORS
330
99
102
}
330
99
100
AcDbScale
 70
     0
300
1:40
140
1.0
141
40.0
290
     0
  0
SCALE
  5
DF
102
{ACAD_REACTORS
330
99
102
}
330
99
100
AcDbScale
 70
     0
300
1:50
140
1.0
141
50.0
290
     0
  0
SCALE
  5
E0
102
{ACAD_REACTORS
330
99
102
}
330
99
100
AcDbScale
 70
     0
300
1:100
140
1.0
141
100.0
290
     0
  0
SCALE
  5
E1
102
{ACAD_REACTORS
330
99
102
}
330
99
100
AcDbScale
 70
     0
300
2:1
140
2.0
141
1.0
290
     0
  0
SCALE
  5
E2
102
{ACAD_REACTORS
330
99
102
}
330
99
100
AcDbScale
 70
     0
300
4:1
140
4.0
141
1.0
290
     0
  0
SCALE
  5
E3
102
{ACAD_REACTORS
330
99
102
}
330
99
100
AcDbScale
 70
     0
300
8:1
140
8.0
141
1.0
290
     0
  0
SCALE
  5
E4
102
{ACAD_REACTORS
330
99
102
}
330
99
100
AcDbScale
 70
     0
300
10:1
140
10.0
141
1.0
290
     0
  0
SCALE
  5
E5
102
{ACAD_REACTORS
330
99
102
}
330
99
100
AcDbScale
 70
     0
300
100:1
140
100.0
141
1.0
290
     0
  0
SCALE
  5
E6
102
{ACAD_REACTORS
330
99
102
}
330
99
100
AcDbScale
 70
     0
300
1/128" = 1'-0"
140
0.0078125
141
12.0
290
     0
  0
SCALE
  5
E7
102
{ACAD_REACTORS
330
99
102
}
330
99
100
AcDbScale
 70
     0
300
1/64" = 1'-0"
140
0.015625
141
12.0
290
     0
  0
SCALE
  5
E8
102
{ACAD_REACTORS
330
99
102
}
330
99
100
AcDbScale
 70
     0
300
1/32" = 1'-0"
140
0.03125
141
12.0
290
     0
  0
SCALE
  5
E9
102
{ACAD_REACTORS
330
99
102
}
330
99
100
AcDbScale
 70
     0
300
1/16" = 1'-0"
140
0.0625
141
12.0
290
     0
  0
SCALE
  5
EA
102
{ACAD_REACTORS
330
99
102
}
330
99
100
AcDbScale
 70
     0
300
3/32" = 1'-0"
140
0.09375
141
12.0
290
     0
  0
SCALE
  5
EB
102
{ACAD_REACTORS
330
99
102
}
330
99
100
AcDbScale
 70
     0
300
1/8" = 1'-0"
140
0.125
141
12.0
290
     0
  0
SCALE
  5
EC
102
{ACAD_REACTORS
330
99
102
}
330
99
100
AcDbScale
 70
     0
300
3/16" = 1'-0"
140
0.1875
141
12.0
290
     0
  0
SCALE
  5
ED
102
{ACAD_REACTORS
330
99
102
}
330
99
100
AcDbScale
 70
     0
300
1/4" = 1'-0"
140
0.25
141
12.0
290
     0
  0
SCALE
  5
EE
102
{ACAD_REACTORS
330
99
102
}
330
99
100
AcDbScale
 70
     0
300
3/8" = 1'-0"
140
0.375
141
12.0
290
     0
  0
SCALE
  5
EF
102
{ACAD_REACTORS
330
99
102
}
330
99
100
AcDbScale
 70
     0
300
1/2" = 1'-0"
140
0.5
141
12.0
290
     0
  0
SCALE
  5
F0
102
{ACAD_REACTORS
330
99
102
}
330
99
100
AcDbScale
 70
     0
300
3/4" = 1'-0"
140
0.75
141
12.0
290
     0
  0
SCALE
  5
F1
102
{ACAD_REACTORS
330
99
102
}
330
99
100
AcDbScale
 70
     0
300
1" = 1'-0"
140
1.0
141
12.0
290
     0
  0
SCALE
  5
F2
102
{ACAD_REACTORS
330
99
102
}
330
99
100
AcDbScale
 70
     0
300
1-1/2" = 1'-0"
140
1.5
141
12.0
290
     0
  0
SCALE
  5
F3
102
{ACAD_REACTORS
330
99
102
}
330
99
100
AcDbScale
 70
     0
300
3" = 1'-0"
140
3.0
141
12.0
290
     0
  0
SCALE
  5
F4
102
{ACAD_REACTORS
330
99
102
}
330
99
100
AcDbScale
 70
     0
300
6" = 1'-0"
140
6.0
141
12.0
290
     0
  0
SCALE
  5
F5
102
{ACAD_REACTORS
330
99
102
}
330
99
100
AcDbScale
 70
     0
300
1'-0" = 1'-0"
140
12.0
141
12.0
290
     0
  0
XRECORD
  5
331
102
{ACAD_REACTORS
330
330
102
}
330
330
100
AcDbXrecord
280
     1
340
6C
  0
XRECORD
  5
332
102
{ACAD_REACTORS
330
330
102
}
330
330
100
AcDbXrecord
280
     1
340
6B
  0
DICTIONARYVAR
  5
98
102
{ACAD_REACTORS
330
59
102
}
330
59
100
DictionaryVariables
280
     0
  1
Standard
  0
DICTIONARYVAR
  5
5A
102
{ACAD_REACTORS
330
59
102
}
330
59
100
DictionaryVariables
280
     0
  1
2
  0
DICTIONARYVAR
  5
5E
102
{ACAD_REACTORS
330
59
102
}
330
59
100
DictionaryVariables
280
     0
  1
1
  0
ENDSEC
  0
EOF
