  0
SECTION
  2
HEADER
  9
$ACADVER
  1
AC1015
  9
$ACADMAINTVER
 70
     6
  9
$DWGCODEPAGE
  3
ANSI_1252
  9
$INSBASE
 10
0.0
 20
0.0
 30
0.0
  9
$EXTMIN
 10
129.9565102856297
 20
49.50000000000001
 30
0.0
  9
$EXTMAX
 10
399.5947757311156
 20
427.4758883017898
 30
0.0
  9
$LIMMIN
 10
0.0
 20
0.0
  9
$LIMMAX
 10
0.0
 20
0.0
  9
$ORTHOMODE
 70
     0
  9
$REGENMODE
 70
     1
  9
$FILLMODE
 70
     1
  9
$QTEXTMODE
 70
     0
  9
$MIRRTEXT
 70
     0
  9
$LTSCALE
 40
1.0
  9
$ATTMODE
 70
     1
  9
$TEXTSIZE
 40
2.5
  9
$TRACEWID
 40
1.0
  9
$TEXTSTYLE
  7
Standard
  9
$CLAYER
  8
0
  9
$CELTYPE
  6
ByLayer
  9
$CECOLOR
 62
   256
  9
$CELTSCALE
 40
1.0
  9
$DISPSILH
 70
     0
  9
$DIMSCALE
 40
1.0
  9
$DIMASZ
 40
2.5
  9
$DIMEXO
 40
0.625
  9
$DIMDLI
 40
3.75
  9
$DIMRND
 40
0.0
  9
$DIMDLE
 40
0.0
  9
$DIMEXE
 40
1.25
  9
$DIMTP
 40
0.0
  9
$DIMTM
 40
0.0
  9
$DIMTXT
 40
2.5
  9
$DIMCEN
 40
2.5
  9
$DIMTSZ
 40
0.0
  9
$DIMTOL
 70
     0
  9
$DIMLIM
 70
     0
  9
$DIMTIH
 70
     0
  9
$DIMTOH
 70
     0
  9
$DIMSE1
 70
     0
  9
$DIMSE2
 70
     0
  9
$DIMTAD
 70
     1
  9
$DIMZIN
 70
     8
  9
$DIMBLK
  1

  9
$DIMASO
 70
     1
  9
$DIMSHO
 70
     1
  9
$DIMPOST
  1

  9
$DIMAPOST
  1

  9
$DIMALT
 70
     0
  9
$DIMALTD
 70
     3
  9
$DIMALTF
 40
0.03937007874016
  9
$DIMLFAC
 40
1.0
  9
$DIMTOFL
 70
     1
  9
$DIMTVP
 40
0.0
  9
$DIMTIX
 70
     0
  9
$DIMSOXD
 70
     0
  9
$DIMSAH
 70
     0
  9
$DIMBLK1
  1

  9
$DIMBLK2
  1

  9
$DIMSTYLE
  2
ISO-25
  9
$DIMCLRD
 70
     0
  9
$DIMCLRE
 70
     0
  9
$DIMCLRT
 70
     0
  9
$DIMTFAC
 40
1.0
  9
$DIMGAP
 40
0.625
  9
$DIMJUST
 70
     0
  9
$DIMSD1
 70
     0
  9
$DIMSD2
 70
     0
  9
$DIMTOLJ
 70
     0
  9
$DIMTZIN
 70
     8
  9
$DIMALTZ
 70
     0
  9
$DIMALTTZ
 70
     0
  9
$DIMUPT
 70
     0
  9
$DIMDEC
 70
     2
  9
$DIMTDEC
 70
     2
  9
$DIMALTU
 70
     2
  9
$DIMALTTD
 70
     3
  9
$DIMTXSTY
  7
Standard
  9
$DIMAUNIT
 70
     0
  9
$DIMADEC
 70
     0
  9
$DIMALTRND
 40
0.0
  9
$DIMAZIN
 70
     0
  9
$DIMDSEP
 70
    44
  9
$DIMATFIT
 70
     3
  9
$DIMFRAC
 70
     0
  9
$DIMLDRBLK
  1

  9
$DIMLUNIT
 70
     2
  9
$DIMLWD
 70
    -2
  9
$DIMLWE
 70
    -2
  9
$DIMTMOVE
 70
     0
  9
$LUNITS
 70
     2
  9
$LUPREC
 70
     4
  9
$SKETCHINC
 40
1.0
  9
$FILLETRAD
 40
0.0
  9
$AUNITS
 70
     0
  9
$AUPREC
 70
     0
  9
$MENU
  1
.
  9
$ELEVATION
 40
0.0
  9
$PELEVATION
 40
0.0
  9
$THICKNESS
 40
0.0
  9
$LIMCHECK
 70
     0
  9
$CHAMFERA
 40
0.0
  9
$CHAMFERB
 40
0.0
  9
$CHAMFERC
 40
0.0
  9
$CHAMFERD
 40
0.0
  9
$SKPOLY
 70
     0
  9
$TDCREATE
 40
2455098.459435579
  9
$TDUCREATE
 40
2455098.376102245
  9
$TDUPDATE
 40
2455098.501102234
  9
$TDUUPDATE
 40
2455098.4177689
  9
$TDINDWG
 40
0.0307803241
  9
$TDUSRTIMER
 40
0.0307779514
  9
$USRTIMER
 70
     1
  9
$ANGBASE
 50
0.0
  9
$ANGDIR
 70
     0
  9
$PDMODE
 70
     0
  9
$PDSIZE
 40
0.0
  9
$PLINEWID
 40
0.0
  9
$SPLFRAME
 70
     0
  9
$SPLINETYPE
 70
     6
  9
$SPLINESEGS
 70
     8
  9
$HANDSEED
  5
376
  9
$SURFTAB1
 70
     6
  9
$SURFTAB2
 70
     6
  9
$SURFTYPE
 70
     6
  9
$SURFU
 70
     6
  9
$SURFV
 70
     6
  9
$UCSBASE
  2

  9
$UCSNAME
  2

  9
$UCSORG
 10
0.0
 20
0.0
 30
0.0
  9
$UCSXDIR
 10
1.0
 20
0.0
 30
0.0
  9
$UCSYDIR
 10
0.0
 20
1.0
 30
0.0
  9
$UCSORTHOREF
  2

  9
$UCSORTHOVIEW
 70
     0
  9
$UCSORGTOP
 10
0.0
 20
0.0
 30
0.0
  9
$UCSORGBOTTOM
 10
0.0
 20
0.0
 30
0.0
  9
$UCSORGLEFT
 10
0.0
 20
0.0
 30
0.0
  9
$UCSORGRIGHT
 10
0.0
 20
0.0
 30
0.0
  9
$UCSORGFRONT
 10
0.0
 20
0.0
 30
0.0
  9
$UCSORGBACK
 10
0.0
 20
0.0
 30
0.0
  9
$PUCSBASE
  2

  9
$PUCSNAME
  2

  9
$PUCSORG
 10
0.0
 20
0.0
 30
0.0
  9
$PUCSXDIR
 10
1.0
 20
0.0
 30
0.0
  9
$PUCSYDIR
 10
0.0
 20
1.0
 30
0.0
  9
$PUCSORTHOREF
  2

  9
$PUCSORTHOVIEW
 70
     0
  9
$PUCSORGTOP
 10
0.0
 20
0.0
 30
0.0
  9
$PUCSORGBOTTOM
 10
0.0
 20
0.0
 30
0.0
  9
$PUCSORGLEFT
 10
0.0
 20
0.0
 30
0.0
  9
$PUCSORGRIGHT
 10
0.0
 20
0.0
 30
0.0
  9
$PUCSORGFRONT
 10
0.0
 20
0.0
 30
0.0
  9
$PUCSORGBACK
 10
0.0
 20
0.0
 30
0.0
  9
$USERI1
 70
     0
  9
$USERI2
 70
     0
  9
$USERI3
 70
     0
  9
$USERI4
 70
     0
  9
$USERI5
 70
     0
  9
$USERR1
 40
0.0
  9
$USERR2
 40
0.0
  9
$USERR3
 40
0.0
  9
$USERR4
 40
0.0
  9
$USERR5
 40
0.0
  9
$WORLDVIEW
 70
     1
  9
$SHADEDGE
 70
     3
  9
$SHADEDIF
 70
    70
  9
$TILEMODE
 70
     1
  9
$MAXACTVP
 70
    64
  9
$PINSBASE
 10
0.0
 20
0.0
 30
0.0
  9
$PLIMCHECK
 70
     0
  9
$PEXTMIN
 10
0.0
 20
0.0
 30
0.0
  9
$PEXTMAX
 10
12.0
 20
9.0
 30
0.0
  9
$PLIMMIN
 10
0.0
 20
0.0
  9
$PLIMMAX
 10
12.0
 20
9.0
  9
$UNITMODE
 70
     0
  9
$VISRETAIN
 70
     1
  9
$PLINEGEN
 70
     0
  9
$PSLTSCALE
 70
     1
  9
$TREEDEPTH
 70
  3020
  9
$CMLSTYLE
  2
Standard
  9
$CMLJUST
 70
     0
  9
$CMLSCALE
 40
20.0
  9
$PROXYGRAPHICS
 70
     1
  9
$MEASUREMENT
 70
     1
  9
$CELWEIGHT
370
    -1
  9
$ENDCAPS
280
     0
  9
$JOINSTYLE
280
     0
  9
$LWDISPLAY
290
     0
  9
$INSUNITS
 70
     4
  9
$HYPERLINKBASE
  1

  9
$STYLESHEET
  1

  9
$XEDIT
290
     1
  9
$CEPSNTYPE
380
     0
  9
$PSTYLEMODE
290
     1
  9
$FINGERPRINTGUID
  2
{5559452E-1E62-4159-8551-BF76FFF3E7E8}
  9
$VERSIONGUID
  2
{3CEB9EF8-4431-4551-B596-6734A9F966A9}
  9
$EXTNAMES
290
     1
  9
$PSVPSCALE
 40
0.0
  9
$OLESTARTUP
290
     0
  0
ENDSEC
  0
SECTION
  2
CLASSES
  0
CLASS
  1
ACDBDICTIONARYWDFLT
  2
AcDbDictionaryWithDefault
  3
ObjectDBX Classes
 90
        0
280
     0
281
     0
  0
CLASS
  1
ACDBPLACEHOLDER
  2
AcDbPlaceHolder
  3
ObjectDBX Classes
 90
        0
280
     0
281
     0
  0
CLASS
  1
LAYOUT
  2
AcDbLayout
  3
ObjectDBX Classes
 90
        0
280
     0
281
     0
  0
CLASS
  1
DICTIONARYVAR
  2
AcDbDictionaryVar
  3
ObjectDBX Classes
 90
        0
280
     0
281
     0
  0
CLASS
  1
TABLESTYLE
  2
AcDbTableStyle
  3
ObjectDBX Classes
 90
     4095
280
     0
281
     0
  0
CLASS
  1
SCALE
  2
AcDbScale
  3
ObjectDBX Classes
 90
     1153
280
     0
281
     0
  0
ENDSEC
  0
SECTION
  2
TABLES
  0
TABLE
  2
VPORT
  5
8
330
0
100
AcDbSymbolTable
 70
     2
  0
VPORT
  5
97
330
8
100
AcDbSymbolTableRecord
100
AcDbViewportTableRecord
  2
*Active
 70
     0
 10
0.0
 20
0.0
 11
1.0
 21
1.0
 12
325.6499498932324
 22
181.5202329858982
 13
0.0
 23
0.0
 14
10.0
 24
10.0
 15
10.0
 25
10.0
 16
0.0
 26
0.0
 36
1.0
 17
0.0
 27
0.0
 37
0.0
 40
606.1224489795918
 41
1.664827586206897
 42
50.0
 43
0.0
 44
0.0
 50
0.0
 51
0.0
 71
     0
 72
  1000
 73
     1
 74
     3
 75
     0
 76
     0
 77
     0
 78
     0
281
     0
 65
     1
110
0.0
120
0.0
130
0.0
111
1.0
121
0.0
131
0.0
112
0.0
122
1.0
132
0.0
 79
     0
146
0.0
  0
ENDTAB
  0
TABLE
  2
LTYPE
  5
5
330
0
100
AcDbSymbolTable
 70
     1
  0
LTYPE
  5
14
330
5
100
AcDbSymbolTableRecord
100
AcDbLinetypeTableRecord
  2
ByBlock
 70
     0
  3

 72
    65
 73
     0
 40
0.0
  0
LTYPE
  5
15
330
5
100
AcDbSymbolTableRecord
100
AcDbLinetypeTableRecord
  2
ByLayer
 70
     0
  3

 72
    65
 73
     0
 40
0.0
  0
LTYPE
  5
16
330
5
100
AcDbSymbolTableRecord
100
AcDbLinetypeTableRecord
  2
Continuous
 70
     0
  3
Solid line
 72
    65
 73
     0
 40
0.0
  0
ENDTAB
  0
TABLE
  2
LAYER
  5
2
330
0
100
AcDbSymbolTable
 70
     3
  0
LAYER
  5
10
330
2
100
AcDbSymbolTableRecord
100
AcDbLayerTableRecord
  2
0
 70
     0
 62
     7
  6
Continuous
370
    -3
390
F
  0
LAYER
  5
F8
330
2
100
AcDbSymbolTableRecord
100
AcDbLayerTableRecord
  2
2
 70
     0
 62
     7
  6
Continuous
370
    13
390
F
  0
LAYER
  5
335
330
2
100
AcDbSymbolTableRecord
100
AcDbLayerTableRecord
  2
DEFPOINTS
 70
     0
 62
     7
  6
Continuous
290
     0
370
    -3
390
F
  0
ENDTAB
  0
TABLE
  2
STYLE
  5
3
330
0
100
AcDbSymbolTable
 70
     1
  0
STYLE
  5
11
330
3
100
AcDbSymbolTableRecord
100
AcDbTextStyleTableRecord
  2
Standard
 70
     0
 40
0.0
 41
1.0
 50
0.0
 71
     0
 42
2.5
  3
txt
  4

  0
ENDTAB
  0
TABLE
  2
VIEW
  5
6
330
0
100
AcDbSymbolTable
 70
     0
  0
ENDTAB
  0
TABLE
  2
UCS
  5
7
330
0
100
AcDbSymbolTable
 70
     0
  0
ENDTAB
  0
TABLE
  2
APPID
  5
9
330
0
100
AcDbSymbolTable
 70
     2
  0
APPID
  5
12
330
9
100
AcDbSymbolTableRecord
100
AcDbRegAppTableRecord
  2
ACAD
 70
     0
  0
APPID
  5
363
330
9
100
AcDbSymbolTableRecord
100
AcDbRegAppTableRecord
  2
PROGE_PRINT_SETTINGS
 70
     0
  0
ENDTAB
  0
TABLE
  2
DIMSTYLE
  5
A
330
0
100
AcDbSymbolTable
 70
     2
100
AcDbDimStyleTable
  0
DIMSTYLE
105
27
102
{ACAD_REACTORS
330
304
330
305
102
}
330
A
100
AcDbSymbolTableRecord
100
AcDbDimStyleTableRecord
  2
Standard
 70
     0
278
     0
340
11
  0
DIMSTYLE
105
29
330
A
100
AcDbSymbolTableRecord
100
AcDbDimStyleTableRecord
  2
ISO-25
 70
     0
 41
2.5
 42
0.625
 43
3.75
 44
1.25
 73
     0
 74
     0
 77
     1
 78
     8
140
2.5
141
2.5
143
0.03937007874016
147
0.625
171
     3
172
     1
271
     2
272
     2
274
     3
278
    44
283
     0
284
     8
340
11
  0
ENDTAB
  0
TABLE
  2
BLOCK_RECORD
  5
1
330
0
100
AcDbSymbolTable
 70
     5
  0
BLOCK_RECORD
  5
1F
330
1
100
AcDbSymbolTableRecord
100
AcDbBlockTableRecord
  2
*Model_Space
340
22
  0
BLOCK_RECORD
  5
73
330
1
100
AcDbSymbolTableRecord
100
AcDbBlockTableRecord
  2
*Paper_Space
340
365
  0
BLOCK_RECORD
  5
D1
330
1
100
AcDbSymbolTableRecord
100
AcDbBlockTableRecord
  2
*Paper_Space0
340
74
  0
BLOCK_RECORD
  5
340
330
1
100
AcDbSymbolTableRecord
100
AcDbBlockTableRecord
  2
*D1
340
0
  0
BLOCK_RECORD
  5
34B
330
1
100
AcDbSymbolTableRecord
100
AcDbBlockTableRecord
  2
*D2
340
0
  0
BLOCK_RECORD
  5
356
330
1
100
AcDbSymbolTableRecord
100
AcDbBlockTableRecord
  2
*D3
340
0
  0
BLOCK_RECORD
  5
361
330
1
100
AcDbSymbolTableRecord
100
AcDbBlockTableRecord
  2
*D4
340
0
  0
ENDTAB
  0
ENDSEC
  0
SECTION
  2
BLOCKS
  0
BLOCK
  5
20
330
1F
100
AcDbEntity
  8
0
100
AcDbBlockBegin
  2
*Model_Space
 70
     0
 10
0.0
 20
0.0
 30
0.0
  3
*Model_Space
  1

  0
ENDBLK
  5
21
330
1F
100
AcDbEntity
  8
0
100
AcDbBlockEnd
  0
BLOCK
  5
75
330
73
100
AcDbEntity
 67
     1
  8
0
100
AcDbBlockBegin
  2
*Paper_Space
 70
     0
 10
0.0
 20
0.0
 30
0.0
  3
*Paper_Space
  1

  0
ENDBLK
  5
76
330
73
100
AcDbEntity
 67
     1
  8
0
100
AcDbBlockEnd
  0
BLOCK
  5
366
330
D1
100
AcDbEntity
  8
0
100
AcDbBlockBegin
  2
*Paper_Space0
 70
     0
 10
0.0
 20
0.0
 30
0.0
  3
*Paper_Space0
  1

  0
VIEWPORT
  5
370
330
D1
100
AcDbEntity
  8
0
100
AcDbViewport
 10
7.8
 20
4.5
 30
0.0
 40
15.64
 41
9.0
 68
     1
 69
     1
 12
6.0
 22
4.5
 13
0.0
 23
0.0
 14
0.5
 24
0.5
 15
0.5
 25
0.5
 16
0.0
 26
0.0
 36
1.0
 17
0.0
 27
0.0
 37
0.0
 42
50.0
 43
0.0
 44
0.0
 45
12.0
 50
0.0
 51
0.0
 72
   100
 90
   557152
  1

281
     0
 71
     1
 74
     0
110
0.0
120
0.0
130
0.0
111
1.0
121
0.0
131
0.0
112
0.0
122
1.0
132
0.0
 79
     0
146
0.0
  0
ENDBLK
  5
367
330
D1
100
AcDbEntity
  8
0
100
AcDbBlockEnd
  0
BLOCK
  5
368
330
340
100
AcDbEntity
  8
0
100
AcDbBlockBegin
  2
*D1
 70
     1
 10
0.0
 20
0.0
 30
0.0
  3
*D1
  1

  0
POINT
  5
337
330
340
100
AcDbEntity
  8
DEFPOINTS
  6
ByBlock
 62
     7
380
     1
100
AcDbPoint
 10
297.225787126663
 20
361.3540772532189
 30
0.0
  0
POINT
  5
338
330
340
100
AcDbEntity
  8
DEFPOINTS
  6
ByBlock
 62
     7
380
     1
100
AcDbPoint
 10
297.225787126663
 20
40.35407725321889
 30
0.0
  0
LINE
  5
339
330
340
100
AcDbEntity
  8
0
  6
ByBlock
 62
     7
370
    -2
380
     1
100
AcDbLine
 10
297.850787126663
 20
361.3540772532189
 30
0.0
 11
411.0751047726034
 21
361.3540772532189
 31
0.0
  0
LINE
  5
33A
330
340
100
AcDbEntity
  8
0
  6
ByBlock
 62
     7
370
    -2
380
     1
100
AcDbLine
 10
297.850787126663
 20
40.35407725321892
 30
0.0
 11
411.0751047726034
 21
40.35407725321892
 31
0.0
  0
LINE
  5
33B
330
340
100
AcDbEntity
  8
0
  6
ByBlock
 62
     7
370
    -2
380
     1
100
AcDbLine
 10
409.8251047726034
 20
351.3540772532189
 30
0.0
 11
409.8251047726034
 21
50.35407725321892
 31
0.0
  0
SOLID
  5
33C
330
340
100
AcDbEntity
  8
0
  6
ByBlock
 62
     7
380
     1
100
AcDbTrace
 10
409.8251047726034
 20
361.3540772532189
 30
0.0
 11
408.1584381059367
 21
351.3540772532189
 31
0.0
 12
411.4917714392701
 22
351.3540772532189
 32
0.0
 13
411.4917714392701
 23
351.3540772532189
 33
0.0
  0
SOLID
  5
33D
330
340
100
AcDbEntity
  8
0
  6
ByBlock
 62
     7
380
     1
100
AcDbTrace
 10
409.8251047726034
 20
40.35407725321892
 30
0.0
 11
408.1584381059367
 21
50.35407725321892
 31
0.0
 12
411.4917714392701
 22
50.35407725321892
 32
0.0
 13
411.4917714392701
 23
50.35407725321892
 33
0.0
  0
MTEXT
  5
33E
330
340
100
AcDbEntity
  8
0
  6
ByBlock
 62
     0
370
    -2
380
     1
100
AcDbMText
 10
397.8251047726034
 20
200.8540772532189
 30
0.0
 40
14.0
 41
0.0
 71
     5
 72
     1
  1
\A1;321
 11
6.123031769111886E-17
 21
1.0
 31
0.0
 73
     1
 44
1.0
  0
ENDBLK
  5
369
330
340
100
AcDbEntity
  8
0
100
AcDbBlockEnd
  0
BLOCK
  5
36A
330
34B
100
AcDbEntity
  8
0
100
AcDbBlockBegin
  2
*D2
 70
     1
 10
0.0
 20
0.0
 30
0.0
  3
*D2
  1

  0
POINT
  5
342
330
34B
100
AcDbEntity
  8
DEFPOINTS
  6
ByBlock
 62
     7
380
     1
100
AcDbPoint
 10
141.8535059937842
 20
287.8540772532189
 30
0.0
  0
POINT
  5
343
330
34B
100
AcDbEntity
  8
DEFPOINTS
  6
ByBlock
 62
     7
380
     1
100
AcDbPoint
 10
375.8535059937843
 20
287.8540772532189
 30
0.0
  0
LINE
  5
344
330
34B
100
AcDbEntity
  8
0
  6
ByBlock
 62
     7
370
    -2
380
     1
100
AcDbLine
 10
141.8535059937842
 20
288.4790772532189
 30
0.0
 11
141.8535059937842
 21
393.5799655550087
 31
0.0
  0
LINE
  5
345
330
34B
100
AcDbEntity
  8
0
  6
ByBlock
 62
     7
370
    -2
380
     1
100
AcDbLine
 10
375.8535059937843
 20
288.4790772532189
 30
0.0
 11
375.8535059937843
 21
393.5799655550087
 31
0.0
  0
LINE
  5
346
330
34B
100
AcDbEntity
  8
0
  6
ByBlock
 62
     7
370
    -2
380
     1
100
AcDbLine
 10
151.8535059937842
 20
392.3299655550087
 30
0.0
 11
365.8535059937843
 21
392.3299655550087
 31
0.0
  0
SOLID
  5
347
330
34B
100
AcDbEntity
  8
0
  6
ByBlock
 62
     7
380
     1
100
AcDbTrace
 10
141.8535059937842
 20
392.3299655550087
 30
0.0
 11
151.8535059937842
 21
390.663298888342
 31
0.0
 12
151.8535059937842
 22
393.9966322216754
 32
0.0
 13
151.8535059937842
 23
393.9966322216754
 33
0.0
  0
SOLID
  5
348
330
34B
100
AcDbEntity
  8
0
  6
ByBlock
 62
     7
380
     1
100
AcDbTrace
 10
375.8535059937843
 20
392.3299655550087
 30
0.0
 11
365.8535059937843
 21
390.663298888342
 31
0.0
 12
365.8535059937843
 22
393.9966322216754
 32
0.0
 13
365.8535059937843
 23
393.9966322216754
 33
0.0
  0
MTEXT
  5
349
330
34B
100
AcDbEntity
  8
0
  6
ByBlock
 62
     0
370
    -2
380
     1
100
AcDbMText
 10
258.8535059937843
 20
404.3299655550087
 30
0.0
 40
14.0
 41
0.0
 71
     5
 72
     1
  1
\A1;234
 73
     1
 44
1.0
  0
ENDBLK
  5
36B
330
34B
100
AcDbEntity
  8
0
100
AcDbBlockEnd
  0
BLOCK
  5
36C
330
356
100
AcDbEntity
  8
0
100
AcDbBlockBegin
  2
*D3
 70
     1
 10
0.0
 20
0.0
 30
0.0
  3
*D3
  1

  0
POINT
  5
34D
330
356
100
AcDbEntity
  8
DEFPOINTS
  6
ByBlock
 62
     7
380
     1
100
AcDbPoint
 10
129.9565102856297
 20
304.0000000000001
 30
0.0
  0
POINT
  5
34E
330
356
100
AcDbEntity
  8
DEFPOINTS
  6
ByBlock
 62
     7
380
     1
100
AcDbPoint
 10
363.9565102856299
 20
304.0000000000001
 30
0.0
  0
LINE
  5
34F
330
356
100
AcDbEntity
  8
0
  6
ByBlock
 62
     7
370
    -2
380
     1
100
AcDbLine
 10
129.9565102856297
 20
304.6250000000001
 30
0.0
 11
129.9565102856297
 21
409.7258883017898
 31
0.0
  0
LINE
  5
350
330
356
100
AcDbEntity
  8
0
  6
ByBlock
 62
     7
370
    -2
380
     1
100
AcDbLine
 10
363.9565102856299
 20
304.6250000000001
 30
0.0
 11
363.9565102856299
 21
409.7258883017898
 31
0.0
  0
LINE
  5
351
330
356
100
AcDbEntity
  8
0
  6
ByBlock
 62
     7
370
    -2
380
     1
100
AcDbLine
 10
139.9565102856297
 20
408.4758883017898
 30
0.0
 11
353.9565102856299
 21
408.4758883017898
 31
0.0
  0
SOLID
  5
352
330
356
100
AcDbEntity
  8
0
  6
ByBlock
 62
     7
380
     1
100
AcDbTrace
 10
129.9565102856297
 20
408.4758883017898
 30
0.0
 11
139.9565102856297
 21
406.8092216351232
 31
0.0
 12
139.9565102856297
 22
410.1425549684565
 32
0.0
 13
139.9565102856297
 23
410.1425549684565
 33
0.0
  0
SOLID
  5
353
330
356
100
AcDbEntity
  8
0
  6
ByBlock
 62
     7
380
     1
100
AcDbTrace
 10
363.9565102856299
 20
408.4758883017898
 30
0.0
 11
353.9565102856299
 21
406.8092216351232
 31
0.0
 12
353.9565102856299
 22
410.1425549684565
 32
0.0
 13
353.9565102856299
 23
410.1425549684565
 33
0.0
  0
MTEXT
  5
354
330
356
100
AcDbEntity
  8
0
  6
ByBlock
 62
     0
370
    -2
380
     1
100
AcDbMText
 10
246.9565102856298
 20
420.4758883017898
 30
0.0
 40
14.0
 41
0.0
 71
     5
 72
     1
  1
\A1;234
 73
     1
 44
1.0
  0
ENDBLK
  5
36D
330
356
100
AcDbEntity
  8
0
100
AcDbBlockEnd
  0
BLOCK
  5
36E
330
361
100
AcDbEntity
  8
0
100
AcDbBlockBegin
  2
*D4
 70
     1
 10
0.0
 20
0.0
 30
0.0
  3
*D4
  1

  0
POINT
  5
358
330
361
100
AcDbEntity
  8
DEFPOINTS
  6
ByBlock
 62
     7
380
     1
100
AcDbPoint
 10
285.3287914185086
 20
377.5000000000001
 30
0.0
  0
POINT
  5
359
330
361
100
AcDbEntity
  8
DEFPOINTS
  6
ByBlock
 62
     7
380
     1
100
AcDbPoint
 10
285.3287914185086
 20
56.50000000000001
 30
0.0
  0
LINE
  5
35A
330
361
100
AcDbEntity
  8
0
  6
ByBlock
 62
     7
370
    -2
380
     1
100
AcDbLine
 10
285.9537914185086
 20
377.5000000000001
 30
0.0
 11
399.1781090644489
 21
377.5000000000001
 31
0.0
  0
LINE
  5
35B
330
361
100
AcDbEntity
  8
0
  6
ByBlock
 62
     7
370
    -2
380
     1
100
AcDbLine
 10
285.9537914185086
 20
56.5
 30
0.0
 11
399.1781090644489
 21
56.5
 31
0.0
  0
LINE
  5
35C
330
361
100
AcDbEntity
  8
0
  6
ByBlock
 62
     7
370
    -2
380
     1
100
AcDbLine
 10
397.9281090644489
 20
367.5000000000001
 30
0.0
 11
397.9281090644489
 21
66.5
 31
0.0
  0
SOLID
  5
35D
330
361
100
AcDbEntity
  8
0
  6
ByBlock
 62
     7
380
     1
100
AcDbTrace
 10
397.9281090644489
 20
377.5000000000001
 30
0.0
 11
396.2614423977822
 21
367.5000000000001
 31
0.0
 12
399.5947757311156
 22
367.5000000000001
 32
0.0
 13
399.5947757311156
 23
367.5000000000001
 33
0.0
  0
SOLID
  5
35E
330
361
100
AcDbEntity
  8
0
  6
ByBlock
 62
     7
380
     1
100
AcDbTrace
 10
397.9281090644489
 20
56.5
 30
0.0
 11
396.2614423977822
 21
66.5
 31
0.0
 12
399.5947757311156
 22
66.5
 32
0.0
 13
399.5947757311156
 23
66.5
 33
0.0
  0
MTEXT
  5
35F
330
361
100
AcDbEntity
  8
0
  6
ByBlock
 62
     0
370
    -2
380
     1
100
AcDbMText
 10
385.9281090644489
 20
217.0
 30
0.0
 40
14.0
 41
0.0
 71
     5
 72
     1
  1
\A1;321
 11
6.123031769111886E-17
 21
1.0
 31
0.0
 73
     1
 44
1.0
  0
ENDBLK
  5
36F
330
361
100
AcDbEntity
  8
0
100
AcDbBlockEnd
  0
ENDSEC
  0
SECTION
  2
ENTITIES
  0
LINE
  5
F9
330
1F
100
AcDbEntity
  8
2
 62
     7
370
    60
100
AcDbLine
 10
189.9412672856297
 20
56.70152300000001
 30
0.0
 11
189.9565102856297
 21
86.500946
 31
0.0
  0
LINE
  5
FA
330
1F
100
AcDbEntity
  8
2
 62
     7
370
    60
100
AcDbLine
 10
187.9565102856297
 20
86.500946
 30
0.0
 11
187.9565102856297
 21
347.568878
 31
0.0
  0
LINE
  5
FB
330
1F
100
AcDbEntity
  8
2
 62
     7
370
    60
100
AcDbLine
 10
189.9565102856297
 20
86.500946
 30
0.0
 11
189.9565102856297
 21
347.568878
 31
0.0
  0
LINE
  5
FC
330
1F
100
AcDbEntity
  8
2
 62
     7
370
    60
100
AcDbLine
 10
216.9565102856298
 20
86.500946
 30
0.0
 11
216.9717542856298
 21
56.70152300000001
 31
0.0
  0
LINE
  5
FD
330
1F
100
AcDbEntity
  8
2
 62
     7
370
    60
100
AcDbLine
 10
247.9565102856298
 20
86.500946
 30
0.0
 11
247.9565102856298
 21
347.568878
 31
0.0
  0
LINE
  5
FE
330
1F
100
AcDbEntity
  8
2
 62
     7
370
    60
100
AcDbLine
 10
245.9565102856298
 20
86.500946
 30
0.0
 11
245.9565102856298
 21
347.568878
 31
0.0
  0
LINE
  5
FF
330
1F
100
AcDbEntity
  8
2
 62
     7
370
    60
100
AcDbLine
 10
247.9412672856298
 20
56.70152300000001
 30
0.0
 11
247.9565102856298
 21
86.500946
 31
0.0
  0
LINE
  5
100
330
1F
100
AcDbEntity
  8
2
 62
     7
370
    60
100
AcDbLine
 10
245.9565102856298
 20
86.500946
 30
0.0
 11
245.9717542856298
 21
56.70152300000001
 31
0.0
  0
LINE
  5
101
330
1F
100
AcDbEntity
  8
2
 62
     7
370
    60
100
AcDbLine
 10
303.9565102856299
 20
86.500946
 30
0.0
 11
303.9565102856299
 21
347.568878
 31
0.0
  0
LINE
  5
102
330
1F
100
AcDbEntity
  8
2
 62
     7
370
    60
100
AcDbLine
 10
305.9565102856299
 20
86.500946
 30
0.0
 11
305.9565102856299
 21
347.568878
 31
0.0
  0
LINE
  5
103
330
1F
100
AcDbEntity
  8
2
 62
     7
370
    60
100
AcDbLine
 10
160.9412672856297
 20
56.70152300000001
 30
0.0
 11
160.9565102856297
 21
86.500946
 31
0.0
  0
LINE
  5
104
330
1F
100
AcDbEntity
  8
2
 62
     7
370
    60
100
AcDbLine
 10
187.9565102856297
 20
86.500946
 30
0.0
 11
187.9717542856298
 21
56.70152300000001
 31
0.0
  0
LINE
  5
105
330
1F
100
AcDbEntity
  8
2
 62
     7
370
    60
100
AcDbLine
 10
305.9412672856298
 20
56.70152300000001
 30
0.0
 11
305.9565102856299
 21
86.500946
 31
0.0
  0
LINE
  5
106
330
1F
100
AcDbEntity
  8
2
 62
     7
370
    60
100
AcDbLine
 10
158.9565102856297
 20
86.500946
 30
0.0
 11
158.9717542856298
 21
56.70152300000001
 31
0.0
  0
LINE
  5
107
330
1F
100
AcDbEntity
  8
2
 62
     7
370
    60
100
AcDbLine
 10
332.9565102856299
 20
86.500946
 30
0.0
 11
332.9717542856298
 21
56.70152300000001
 31
0.0
  0
LINE
  5
108
330
1F
100
AcDbEntity
  8
2
 62
     7
370
    60
100
AcDbLine
 10
334.9412672856298
 20
56.70152300000001
 30
0.0
 11
334.9565102856299
 21
86.500946
 31
0.0
  0
LINE
  5
109
330
1F
100
AcDbEntity
  8
2
 62
     7
370
    60
100
AcDbLine
 10
160.9565102856297
 20
86.500946
 30
0.0
 11
160.9565102856297
 21
347.568878
 31
0.0
  0
LINE
  5
10A
330
1F
100
AcDbEntity
  8
2
 62
     7
370
    60
100
AcDbLine
 10
158.9565102856297
 20
86.500946
 30
0.0
 11
158.9565102856297
 21
347.568878
 31
0.0
  0
LINE
  5
10B
330
1F
100
AcDbEntity
  8
2
 62
     7
370
    60
100
AcDbLine
 10
218.9412672856298
 20
56.70152300000001
 30
0.0
 11
218.9565102856298
 21
86.500946
 31
0.0
  0
LINE
  5
10C
330
1F
100
AcDbEntity
  8
2
 62
     7
370
    60
100
AcDbLine
 10
332.9565102856299
 20
86.500946
 30
0.0
 11
332.9565102856299
 21
347.568878
 31
0.0
  0
LINE
  5
10D
330
1F
100
AcDbEntity
  8
2
 62
     7
370
    60
100
AcDbLine
 10
303.9565102856299
 20
86.500946
 30
0.0
 11
303.9717542856298
 21
56.70152300000001
 31
0.0
  0
LINE
  5
10E
330
1F
100
AcDbEntity
  8
2
 62
     7
370
    60
100
AcDbLine
 10
216.9565102856298
 20
86.500946
 30
0.0
 11
216.9565102856298
 21
347.568878
 31
0.0
  0
LINE
  5
10F
330
1F
100
AcDbEntity
  8
2
 62
     7
370
    60
100
AcDbLine
 10
276.9565102856299
 20
86.500946
 30
0.0
 11
276.9565102856299
 21
347.568878
 31
0.0
  0
LINE
  5
110
330
1F
100
AcDbEntity
  8
2
 62
     7
370
    60
100
AcDbLine
 10
334.9565102856299
 20
86.500946
 30
0.0
 11
334.9565102856299
 21
347.568878
 31
0.0
  0
LINE
  5
111
330
1F
100
AcDbEntity
  8
2
 62
     7
370
    60
100
AcDbLine
 10
218.9565102856298
 20
86.500946
 30
0.0
 11
218.9565102856298
 21
347.568878
 31
0.0
  0
LINE
  5
112
330
1F
100
AcDbEntity
  8
2
 62
     7
370
    60
100
AcDbLine
 10
274.9565102856299
 20
86.500946
 30
0.0
 11
274.9717542856298
 21
56.70152300000001
 31
0.0
  0
LINE
  5
113
330
1F
100
AcDbEntity
  8
2
 62
     7
370
    60
100
AcDbLine
 10
276.9412672856298
 20
56.70152300000001
 30
0.0
 11
276.9565102856299
 21
86.500946
 31
0.0
  0
LINE
  5
114
330
1F
100
AcDbEntity
  8
2
 62
     7
370
    60
100
AcDbLine
 10
274.9565102856299
 20
86.500946
 30
0.0
 11
274.9565102856299
 21
347.568878
 31
0.0
  0
LINE
  5
115
330
1F
100
AcDbEntity
  8
2
 62
     7
370
    60
100
AcDbLine
 10
247.9412672856298
 20
377.566589
 30
0.0
 11
247.9565102856298
 21
347.568878
 31
0.0
  0
LINE
  5
116
330
1F
100
AcDbEntity
  8
2
 62
     7
370
    60
100
AcDbLine
 10
245.9565102856298
 20
347.568878
 30
0.0
 11
245.9717542856298
 21
377.566589
 31
0.0
  0
LINE
  5
117
330
1F
100
AcDbEntity
  8
2
 62
     7
370
    60
100
AcDbLine
 10
303.9565102856299
 20
347.568878
 30
0.0
 11
303.9717542856298
 21
377.566589
 31
0.0
  0
LINE
  5
118
330
1F
100
AcDbEntity
  8
2
 62
     7
370
    60
100
AcDbLine
 10
187.9565102856297
 20
347.568878
 30
0.0
 11
187.9717542856298
 21
377.566589
 31
0.0
  0
LINE
  5
119
330
1F
100
AcDbEntity
  8
2
 62
     7
370
    60
100
AcDbLine
 10
218.9412672856298
 20
377.566589
 30
0.0
 11
218.9565102856298
 21
347.568878
 31
0.0
  0
LINE
  5
11A
330
1F
100
AcDbEntity
  8
2
 62
     7
370
    60
100
AcDbLine
 10
276.9412672856298
 20
377.566589
 30
0.0
 11
276.9565102856299
 21
347.568878
 31
0.0
  0
LINE
  5
11B
330
1F
100
AcDbEntity
  8
2
 62
     7
370
    60
100
AcDbLine
 10
305.9412672856298
 20
377.566589
 30
0.0
 11
305.9565102856299
 21
347.568878
 31
0.0
  0
LINE
  5
11C
330
1F
100
AcDbEntity
  8
2
 62
     7
370
    60
100
AcDbLine
 10
160.9412672856297
 20
377.566589
 30
0.0
 11
160.9565102856297
 21
347.568878
 31
0.0
  0
LINE
  5
11D
330
1F
100
AcDbEntity
  8
2
 62
     7
370
    60
100
AcDbLine
 10
158.9565102856297
 20
347.568878
 30
0.0
 11
158.9717542856298
 21
377.566589
 31
0.0
  0
LINE
  5
11E
330
1F
100
AcDbEntity
  8
2
 62
     7
370
    60
100
AcDbLine
 10
274.9565102856299
 20
347.568878
 30
0.0
 11
274.9717542856298
 21
377.566589
 31
0.0
  0
LINE
  5
11F
330
1F
100
AcDbEntity
  8
2
 62
     7
370
    60
100
AcDbLine
 10
334.9412672856298
 20
377.566589
 30
0.0
 11
334.9565102856299
 21
347.568878
 31
0.0
  0
LINE
  5
120
330
1F
100
AcDbEntity
  8
2
 62
     7
370
    60
100
AcDbLine
 10
332.9565102856299
 20
347.568878
 30
0.0
 11
332.9717542856298
 21
377.566589
 31
0.0
  0
LINE
  5
121
330
1F
100
AcDbEntity
  8
2
 62
     7
370
    60
100
AcDbLine
 10
148.9565102856297
 20
56.50000000000001
 30
0.0
 11
246.9565102856298
 21
56.50000000000001
 31
0.0
  0
LINE
  5
122
330
1F
100
AcDbEntity
  8
2
 62
     7
370
    60
100
AcDbLine
 10
246.9565102856298
 20
56.50000000000001
 30
0.0
 11
344.9565102856299
 21
56.50000000000001
 31
0.0
  0
LINE
  5
123
330
1F
100
AcDbEntity
  8
2
 62
     7
 48
0.049691
370
    60
100
AcDbLine
 10
129.9565102856297
 20
358.5000000000001
 30
0.0
 11
130.0855312856298
 21
360.4834290000001
 31
0.0
  0
LINE
  5
124
330
1F
100
AcDbEntity
  8
2
 62
     7
 48
0.04969
370
    60
100
AcDbLine
 10
146.9730892856297
 20
377.3709720000001
 30
0.0
 11
148.9565102856297
 21
377.5000000000001
 31
0.0
  0
LINE
  5
125
330
1F
100
AcDbEntity
  8
2
 62
     7
 48
0.001224
370
    60
100
AcDbLine
 10
131.9075682856298
 20
358.5000000000001
 30
0.0
 11
131.9565102856297
 21
358.5000000000001
 31
0.0
  0
ARC
  5
126
330
1F
100
AcDbEntity
  8
2
 62
     7
370
    60
100
AcDbCircle
 10
148.9565102856297
 20
358.5000000000001
 30
0.0
 40
17.04894299999998
100
AcDbArc
 50
90.00000299999998
 51
180.0000049999999
  0
LINE
  5
127
330
1F
100
AcDbEntity
  8
2
 62
     7
 48
0.001224
370
    60
100
AcDbLine
 10
148.9565102856297
 20
375.5000000000001
 30
0.0
 11
148.9565102856297
 21
375.54895
 31
0.0
  0
LINE
  5
128
330
1F
100
AcDbEntity
  8
2
 62
     7
370
    60
100
AcDbLine
 10
189.9423192856298
 20
375.5000000000001
 30
0.0
 11
216.9707012856298
 21
375.5000000000001
 31
0.0
  0
LINE
  5
129
330
1F
100
AcDbEntity
  8
2
 62
     7
370
    60
100
AcDbLine
 10
160.9423122856297
 20
375.5000000000001
 30
0.0
 11
187.9707012856298
 21
375.5000000000001
 31
0.0
  0
LINE
  5
12A
330
1F
100
AcDbEntity
  8
2
 62
     7
 48
0.250355
370
    60
100
AcDbLine
 10
148.9565102856297
 20
375.5000000000001
 30
0.0
 11
158.9707082856298
 21
375.5000000000001
 31
0.0
  0
LINE
  5
12B
330
1F
100
AcDbEntity
  8
2
 62
     7
370
    60
100
AcDbLine
 10
218.9423192856297
 20
375.5000000000001
 30
0.0
 11
245.9707012856298
 21
375.5000000000001
 31
0.0
  0
LINE
  5
12C
330
1F
100
AcDbEntity
  8
2
 62
     7
370
    60
100
AcDbLine
 10
218.9412972856298
 20
377.5000000000001
 30
0.0
 11
245.9717232856297
 21
377.5000000000001
 31
0.0
  0
LINE
  5
12D
330
1F
100
AcDbEntity
  8
2
 62
     7
370
    60
100
AcDbLine
 10
189.9412972856298
 20
377.5000000000001
 30
0.0
 11
216.9717232856297
 21
377.5000000000001
 31
0.0
  0
LINE
  5
12E
330
1F
100
AcDbEntity
  8
2
 62
     7
 48
0.25038
370
    60
100
AcDbLine
 10
148.9565102856297
 20
377.5000000000001
 30
0.0
 11
158.9717232856298
 21
377.5000000000001
 31
0.0
  0
LINE
  5
12F
330
1F
100
AcDbEntity
  8
2
 62
     7
370
    60
100
AcDbLine
 10
160.9412972856298
 20
377.5000000000001
 30
0.0
 11
187.9717232856298
 21
377.5000000000001
 31
0.0
  0
LINE
  5
130
330
1F
100
AcDbEntity
  8
2
 62
     7
370
    60
100
AcDbLine
 10
189.9565102856297
 20
346.5000000000001
 30
0.0
 11
216.9565102856298
 21
346.5000000000001
 31
0.0
  0
LINE
  5
131
330
1F
100
AcDbEntity
  8
2
 62
     7
370
    60
100
AcDbLine
 10
218.9565102856298
 20
346.5000000000001
 30
0.0
 11
245.9565102856298
 21
346.5000000000001
 31
0.0
  0
LINE
  5
132
330
1F
100
AcDbEntity
  8
2
 62
     7
370
    60
100
AcDbLine
 10
189.9560372856297
 20
348.5000000000001
 30
0.0
 11
216.9569832856298
 21
348.5000000000001
 31
0.0
  0
LINE
  5
133
330
1F
100
AcDbEntity
  8
2
 62
     7
370
    60
100
AcDbLine
 10
218.9560372856298
 20
348.5000000000001
 30
0.0
 11
245.9569832856298
 21
348.5000000000001
 31
0.0
  0
LINE
  5
134
330
1F
100
AcDbEntity
  8
2
 62
     7
370
    60
100
AcDbLine
 10
160.9560372856297
 20
348.5000000000001
 30
0.0
 11
187.9569832856297
 21
348.5000000000001
 31
0.0
  0
LINE
  5
135
330
1F
100
AcDbEntity
  8
2
 62
     7
370
    60
100
AcDbLine
 10
129.9565102856297
 20
348.5000000000001
 30
0.0
 11
158.9569832856297
 21
348.5000000000001
 31
0.0
  0
LINE
  5
136
330
1F
100
AcDbEntity
  8
2
 62
     7
370
    60
100
AcDbLine
 10
218.9565102856298
 20
259.5
 30
0.0
 11
245.9565102856298
 21
259.5
 31
0.0
  0
LINE
  5
137
330
1F
100
AcDbEntity
  8
2
 62
     7
370
    60
100
AcDbLine
 10
160.9565102856297
 20
259.5
 30
0.0
 11
187.9565102856297
 21
259.5
 31
0.0
  0
LINE
  5
138
330
1F
100
AcDbEntity
  8
2
 62
     7
370
    60
100
AcDbLine
 10
129.9565102856297
 20
259.5
 30
0.0
 11
158.9565102856297
 21
259.5
 31
0.0
  0
LINE
  5
139
330
1F
100
AcDbEntity
  8
2
 62
     7
370
    60
100
AcDbLine
 10
189.9565102856297
 20
259.5
 30
0.0
 11
216.9565102856298
 21
259.5
 31
0.0
  0
LINE
  5
13A
330
1F
100
AcDbEntity
  8
2
 62
     7
370
    60
100
AcDbLine
 10
129.9565102856297
 20
201.5
 30
0.0
 11
158.9565102856297
 21
201.5
 31
0.0
  0
LINE
  5
13B
330
1F
100
AcDbEntity
  8
2
 62
     7
370
    60
100
AcDbLine
 10
160.9565102856297
 20
201.5
 30
0.0
 11
187.9565102856297
 21
201.5
 31
0.0
  0
LINE
  5
13C
330
1F
100
AcDbEntity
  8
2
 62
     7
370
    60
100
AcDbLine
 10
218.9565102856298
 20
201.5
 30
0.0
 11
245.9565102856298
 21
201.5
 31
0.0
  0
LINE
  5
13D
330
1F
100
AcDbEntity
  8
2
 62
     7
370
    60
100
AcDbLine
 10
189.9565102856297
 20
201.5
 30
0.0
 11
216.9565102856298
 21
201.5
 31
0.0
  0
LINE
  5
13E
330
1F
100
AcDbEntity
  8
2
 62
     7
370
    60
100
AcDbLine
 10
218.9565102856298
 20
203.5
 30
0.0
 11
245.9565102856298
 21
203.5
 31
0.0
  0
LINE
  5
13F
330
1F
100
AcDbEntity
  8
2
 62
     7
370
    60
100
AcDbLine
 10
189.9565102856297
 20
203.5
 30
0.0
 11
216.9565102856298
 21
203.5
 31
0.0
  0
LINE
  5
140
330
1F
100
AcDbEntity
  8
2
 62
     7
370
    60
100
AcDbLine
 10
160.9565102856297
 20
203.5
 30
0.0
 11
187.9565102856297
 21
203.5
 31
0.0
  0
LINE
  5
141
330
1F
100
AcDbEntity
  8
2
 62
     7
370
    60
100
AcDbLine
 10
129.9565102856297
 20
203.5
 30
0.0
 11
158.9565102856297
 21
203.5
 31
0.0
  0
LINE
  5
142
330
1F
100
AcDbEntity
  8
2
 62
     7
370
    60
100
AcDbLine
 10
160.9565102856297
 20
288.5000000000001
 30
0.0
 11
187.9565102856297
 21
288.5000000000001
 31
0.0
  0
LINE
  5
143
330
1F
100
AcDbEntity
  8
2
 62
     7
370
    60
100
AcDbLine
 10
189.9565102856297
 20
288.5000000000001
 30
0.0
 11
216.9565102856298
 21
288.5000000000001
 31
0.0
  0
LINE
  5
144
330
1F
100
AcDbEntity
  8
2
 62
     7
370
    60
100
AcDbLine
 10
218.9565102856298
 20
288.5000000000001
 30
0.0
 11
245.9565102856298
 21
288.5000000000001
 31
0.0
  0
LINE
  5
145
330
1F
100
AcDbEntity
  8
2
 62
     7
370
    60
100
AcDbLine
 10
129.9565102856297
 20
288.5000000000001
 30
0.0
 11
158.9565102856297
 21
288.5000000000001
 31
0.0
  0
LINE
  5
146
330
1F
100
AcDbEntity
  8
2
 62
     7
370
    60
100
AcDbLine
 10
129.9565102856297
 20
290.5000000000001
 30
0.0
 11
158.9565102856297
 21
290.5000000000001
 31
0.0
  0
LINE
  5
147
330
1F
100
AcDbEntity
  8
2
 62
     7
370
    60
100
AcDbLine
 10
189.9565102856297
 20
290.5000000000001
 30
0.0
 11
216.9565102856298
 21
290.5000000000001
 31
0.0
  0
LINE
  5
148
330
1F
100
AcDbEntity
  8
2
 62
     7
370
    60
100
AcDbLine
 10
160.9565102856297
 20
290.5000000000001
 30
0.0
 11
187.9565102856297
 21
290.5000000000001
 31
0.0
  0
LINE
  5
149
330
1F
100
AcDbEntity
  8
2
 62
     7
370
    60
100
AcDbLine
 10
218.9565102856298
 20
290.5000000000001
 30
0.0
 11
245.9565102856298
 21
290.5000000000001
 31
0.0
  0
LINE
  5
14A
330
1F
100
AcDbEntity
  8
2
 62
     7
370
    60
100
AcDbLine
 10
218.9565102856298
 20
172.5
 30
0.0
 11
245.9565102856298
 21
172.5
 31
0.0
  0
LINE
  5
14B
330
1F
100
AcDbEntity
  8
2
 62
     7
370
    60
100
AcDbLine
 10
189.9565102856297
 20
172.5
 30
0.0
 11
216.9565102856298
 21
172.5
 31
0.0
  0
LINE
  5
14C
330
1F
100
AcDbEntity
  8
2
 62
     7
370
    60
100
AcDbLine
 10
160.9565102856297
 20
172.5
 30
0.0
 11
187.9565102856297
 21
172.5
 31
0.0
  0
LINE
  5
14D
330
1F
100
AcDbEntity
  8
2
 62
     7
370
    60
100
AcDbLine
 10
129.9565102856297
 20
172.5
 30
0.0
 11
158.9565102856297
 21
172.5
 31
0.0
  0
LINE
  5
14E
330
1F
100
AcDbEntity
  8
2
 62
     7
370
    60
100
AcDbLine
 10
218.9565102856298
 20
174.5
 30
0.0
 11
245.9565102856298
 21
174.5
 31
0.0
  0
LINE
  5
14F
330
1F
100
AcDbEntity
  8
2
 62
     7
370
    60
100
AcDbLine
 10
189.9565102856297
 20
174.5
 30
0.0
 11
216.9565102856298
 21
174.5
 31
0.0
  0
LINE
  5
150
330
1F
100
AcDbEntity
  8
2
 62
     7
370
    60
100
AcDbLine
 10
129.9565102856297
 20
174.5
 30
0.0
 11
158.9565102856297
 21
174.5
 31
0.0
  0
LINE
  5
151
330
1F
100
AcDbEntity
  8
2
 62
     7
370
    60
100
AcDbLine
 10
160.9565102856297
 20
143.5
 30
0.0
 11
187.9565102856297
 21
143.5
 31
0.0
  0
LINE
  5
152
330
1F
100
AcDbEntity
  8
2
 62
     7
370
    60
100
AcDbLine
 10
129.9565102856297
 20
143.5
 30
0.0
 11
158.9565102856297
 21
143.5
 31
0.0
  0
LINE
  5
153
330
1F
100
AcDbEntity
  8
2
 62
     7
370
    60
100
AcDbLine
 10
189.9565102856297
 20
143.5
 30
0.0
 11
216.9565102856298
 21
143.5
 31
0.0
  0
ARC
  5
154
330
1F
100
AcDbEntity
  8
2
 62
     7
370
    60
100
AcDbCircle
 10
148.9565102856297
 20
75.5
 30
0.0
 40
18.97492800000001
100
AcDbArc
 50
185.999998
 51
264.0000069999999
  0
LINE
  5
155
330
1F
100
AcDbEntity
  8
2
 62
     7
 48
0.04969
370
    60
100
AcDbLine
 10
146.9730892856297
 20
56.62902100000001
 30
0.0
 11
148.9565102856297
 21
56.50000000000001
 31
0.0
  0
LINE
  5
156
330
1F
100
AcDbEntity
  8
2
 62
     7
370
    60
100
AcDbLine
 10
131.9565102856297
 20
203.5
 30
0.0
 11
131.9565102856297
 21
230.5
 31
0.0
  0
LINE
  5
157
330
1F
100
AcDbEntity
  8
2
 62
     7
370
    60
100
AcDbLine
 10
131.9565102856297
 20
174.5
 30
0.0
 11
131.9565102856297
 21
201.5
 31
0.0
  0
LINE
  5
158
330
1F
100
AcDbEntity
  8
2
 62
     7
370
    60
100
AcDbLine
 10
131.9565102856297
 20
232.5
 30
0.0
 11
131.9565102856297
 21
259.5
 31
0.0
  0
LINE
  5
159
330
1F
100
AcDbEntity
  8
2
 62
     7
370
    60
100
AcDbLine
 10
131.9565102856297
 20
261.5
 30
0.0
 11
131.9565102856297
 21
288.5000000000001
 31
0.0
  0
LINE
  5
15A
330
1F
100
AcDbEntity
  8
2
 62
     7
370
    60
100
AcDbLine
 10
131.9565102856297
 20
290.5000000000001
 30
0.0
 11
131.9565102856297
 21
317.5000000000001
 31
0.0
  0
LINE
  5
15B
330
1F
100
AcDbEntity
  8
2
 62
     7
370
    60
100
AcDbLine
 10
131.9565102856297
 20
319.5000000000001
 30
0.0
 11
131.9565102856297
 21
346.5000000000001
 31
0.0
  0
LINE
  5
15C
330
1F
100
AcDbEntity
  8
2
 62
     7
 48
0.25
370
    60
100
AcDbLine
 10
131.9565102856297
 20
348.5000000000001
 30
0.0
 11
131.9565102856297
 21
358.5000000000001
 31
0.0
  0
LINE
  5
15D
330
1F
100
AcDbEntity
  8
2
 62
     7
370
    60
100
AcDbLine
 10
131.9565102856297
 20
116.5
 30
0.0
 11
131.9565102856297
 21
143.5
 31
0.0
  0
LINE
  5
15E
330
1F
100
AcDbEntity
  8
2
 62
     7
370
    60
100
AcDbLine
 10
131.9565102856297
 20
145.5
 30
0.0
 11
131.9565102856297
 21
172.5
 31
0.0
  0
LINE
  5
15F
330
1F
100
AcDbEntity
  8
2
 62
     7
 48
0.25
370
    60
100
AcDbLine
 10
131.9565102856297
 20
75.5
 30
0.0
 11
131.9565102856297
 21
85.5
 31
0.0
  0
LINE
  5
160
330
1F
100
AcDbEntity
  8
2
 62
     7
370
    60
100
AcDbLine
 10
131.9565102856297
 20
87.5
 30
0.0
 11
131.9565102856297
 21
114.5
 31
0.0
  0
LINE
  5
161
330
1F
100
AcDbEntity
  8
2
 62
     7
370
    60
100
AcDbLine
 10
129.9565102856297
 20
319.5000000000001
 30
0.0
 11
129.9565102856297
 21
346.5000000000001
 31
0.0
  0
LINE
  5
162
330
1F
100
AcDbEntity
  8
2
 62
     7
370
    60
100
AcDbLine
 10
129.9565102856297
 20
290.5000000000001
 30
0.0
 11
129.9565102856297
 21
317.5000000000001
 31
0.0
  0
LINE
  5
163
330
1F
100
AcDbEntity
  8
2
 62
     7
 48
0.25
370
    60
100
AcDbLine
 10
129.9565102856297
 20
348.5000000000001
 30
0.0
 11
129.9565102856297
 21
358.5000000000001
 31
0.0
  0
LINE
  5
164
330
1F
100
AcDbEntity
  8
2
 62
     7
370
    60
100
AcDbLine
 10
129.9565102856297
 20
174.5
 30
0.0
 11
129.9565102856297
 21
201.5
 31
0.0
  0
LINE
  5
165
330
1F
100
AcDbEntity
  8
2
 62
     7
370
    60
100
AcDbLine
 10
129.9565102856297
 20
203.5
 30
0.0
 11
129.9565102856297
 21
230.5
 31
0.0
  0
LINE
  5
166
330
1F
100
AcDbEntity
  8
2
 62
     7
370
    60
100
AcDbLine
 10
129.9565102856297
 20
145.5
 30
0.0
 11
129.9565102856297
 21
172.5
 31
0.0
  0
LINE
  5
167
330
1F
100
AcDbEntity
  8
2
 62
     7
370
    60
100
AcDbLine
 10
129.9565102856297
 20
232.5
 30
0.0
 11
129.9565102856297
 21
259.5
 31
0.0
  0
LINE
  5
168
330
1F
100
AcDbEntity
  8
2
 62
     7
370
    60
100
AcDbLine
 10
129.9565102856297
 20
261.5
 30
0.0
 11
129.9565102856297
 21
288.5000000000001
 31
0.0
  0
LINE
  5
169
330
1F
100
AcDbEntity
  8
2
 62
     7
370
    60
100
AcDbLine
 10
129.9565102856297
 20
116.5
 30
0.0
 11
129.9565102856297
 21
143.5
 31
0.0
  0
LINE
  5
16A
330
1F
100
AcDbEntity
  8
2
 62
     7
 48
0.25
370
    60
100
AcDbLine
 10
129.9565102856297
 20
75.5
 30
0.0
 11
129.9565102856297
 21
85.5
 31
0.0
  0
LINE
  5
16B
330
1F
100
AcDbEntity
  8
2
 62
     7
370
    60
100
AcDbLine
 10
129.9565102856297
 20
87.5
 30
0.0
 11
129.9565102856297
 21
114.5
 31
0.0
  0
LINE
  5
16C
330
1F
100
AcDbEntity
  8
2
 62
     7
 48
0.012312
370
    60
100
AcDbLine
 10
159.9565102856297
 20
377.635406
 30
0.0
 11
160.4488812856298
 21
377.625275
 31
0.0
  0
LINE
  5
16D
330
1F
100
AcDbEntity
  8
2
 62
     7
 48
0.003032
370
    60
100
AcDbLine
 10
160.8249032856297
 20
377.6007080000001
 30
0.0
 11
160.9412672856297
 21
377.566589
 31
0.0
  0
LINE
  5
16E
330
1F
100
AcDbEntity
  8
2
 62
     7
 48
0.009421
370
    60
100
AcDbLine
 10
160.4488812856298
 20
377.625275
 30
0.0
 11
160.8249032856297
 21
377.6007080000001
 31
0.0
  0
LINE
  5
16F
330
1F
100
AcDbEntity
  8
2
 62
     7
 48
0.012312
370
    60
100
AcDbLine
 10
188.9565102856297
 20
377.635406
 30
0.0
 11
189.4488812856298
 21
377.625275
 31
0.0
  0
LINE
  5
170
330
1F
100
AcDbEntity
  8
2
 62
     7
 48
0.009421
370
    60
100
AcDbLine
 10
189.4488812856298
 20
377.625275
 30
0.0
 11
189.8249032856297
 21
377.6007080000001
 31
0.0
  0
LINE
  5
171
330
1F
100
AcDbEntity
  8
2
 62
     7
 48
0.003032
370
    60
100
AcDbLine
 10
189.8249032856297
 20
377.6007080000001
 30
0.0
 11
189.9412672856297
 21
377.566589
 31
0.0
  0
LINE
  5
172
330
1F
100
AcDbEntity
  8
2
 62
     7
 48
0.009421
370
    60
100
AcDbLine
 10
218.4488812856298
 20
377.625275
 30
0.0
 11
218.8249032856297
 21
377.6007080000001
 31
0.0
  0
LINE
  5
173
330
1F
100
AcDbEntity
  8
2
 62
     7
 48
0.003032
370
    60
100
AcDbLine
 10
218.8249032856297
 20
377.6007080000001
 30
0.0
 11
218.9412672856298
 21
377.566589
 31
0.0
  0
LINE
  5
174
330
1F
100
AcDbEntity
  8
2
 62
     7
 48
0.012312
370
    60
100
AcDbLine
 10
217.9565102856298
 20
377.635406
 30
0.0
 11
218.4488812856298
 21
377.625275
 31
0.0
  0
LINE
  5
175
330
1F
100
AcDbEntity
  8
2
 62
     7
 48
0.025
370
    60
100
AcDbLine
 10
158.9565102856297
 20
347.568878
 30
0.0
 11
159.9565102856297
 21
347.568878
 31
0.0
  0
LINE
  5
176
330
1F
100
AcDbEntity
  8
2
 62
     7
 48
0.025
370
    60
100
AcDbLine
 10
159.9565102856297
 20
347.568878
 30
0.0
 11
160.9565102856297
 21
347.568878
 31
0.0
  0
LINE
  5
177
330
1F
100
AcDbEntity
  8
2
 62
     7
 48
0.025
370
    60
100
AcDbLine
 10
187.9565102856297
 20
347.568878
 30
0.0
 11
188.9565102856297
 21
347.568878
 31
0.0
  0
LINE
  5
178
330
1F
100
AcDbEntity
  8
2
 62
     7
 48
0.025
370
    60
100
AcDbLine
 10
188.9565102856297
 20
347.568878
 30
0.0
 11
189.9565102856297
 21
347.568878
 31
0.0
  0
LINE
  5
179
330
1F
100
AcDbEntity
  8
2
 62
     7
 48
0.025
370
    60
100
AcDbLine
 10
217.9565102856298
 20
347.568878
 30
0.0
 11
218.9565102856298
 21
347.568878
 31
0.0
  0
LINE
  5
17A
330
1F
100
AcDbEntity
  8
2
 62
     7
 48
0.025
370
    60
100
AcDbLine
 10
216.9565102856298
 20
347.568878
 30
0.0
 11
217.9565102856298
 21
347.568878
 31
0.0
  0
LINE
  5
17B
330
1F
100
AcDbEntity
  8
2
 62
     7
 48
0.012312
370
    60
100
AcDbLine
 10
188.4641402856297
 20
56.64284500000001
 30
0.0
 11
188.9565102856297
 21
56.63272100000001
 31
0.0
  0
LINE
  5
17C
330
1F
100
AcDbEntity
  8
2
 62
     7
 48
0.009421
370
    60
100
AcDbLine
 10
188.0881172856297
 20
56.667404
 30
0.0
 11
188.4641402856297
 21
56.64284500000001
 31
0.0
  0
LINE
  5
17D
330
1F
100
AcDbEntity
  8
2
 62
     7
 48
0.003032
370
    60
100
AcDbLine
 10
187.9717542856298
 20
56.70152300000001
 30
0.0
 11
188.0881172856297
 21
56.667404
 31
0.0
  0
LINE
  5
17E
330
1F
100
AcDbEntity
  8
2
 62
     7
 48
0.009421
370
    60
100
AcDbLine
 10
159.0881172856297
 20
56.667404
 30
0.0
 11
159.4641402856297
 21
56.64284500000001
 31
0.0
  0
LINE
  5
17F
330
1F
100
AcDbEntity
  8
2
 62
     7
 48
0.003032
370
    60
100
AcDbLine
 10
158.9717542856298
 20
56.70152300000001
 30
0.0
 11
159.0881172856297
 21
56.667404
 31
0.0
  0
LINE
  5
180
330
1F
100
AcDbEntity
  8
2
 62
     7
 48
0.012312
370
    60
100
AcDbLine
 10
159.4641402856297
 20
56.64284500000001
 30
0.0
 11
159.9565102856297
 21
56.63272100000001
 31
0.0
  0
LINE
  5
181
330
1F
100
AcDbEntity
  8
2
 62
     7
 48
0.003032
370
    60
100
AcDbLine
 10
216.9717542856298
 20
56.70152300000001
 30
0.0
 11
217.0881172856297
 21
56.667404
 31
0.0
  0
LINE
  5
182
330
1F
100
AcDbEntity
  8
2
 62
     7
 48
0.012312
370
    60
100
AcDbLine
 10
217.4641402856298
 20
56.64284500000001
 30
0.0
 11
217.9565102856298
 21
56.63272100000001
 31
0.0
  0
LINE
  5
183
330
1F
100
AcDbEntity
  8
2
 62
     7
 48
0.009421
370
    60
100
AcDbLine
 10
217.0881172856297
 20
56.667404
 30
0.0
 11
217.4641402856298
 21
56.64284500000001
 31
0.0
  0
LINE
  5
184
330
1F
100
AcDbEntity
  8
2
 62
     7
370
    60
100
AcDbLine
 10
218.9565102856298
 20
116.5
 30
0.0
 11
245.9565102856298
 21
116.5
 31
0.0
  0
LINE
  5
185
330
1F
100
AcDbEntity
  8
2
 62
     7
370
    60
100
AcDbLine
 10
129.9565102856297
 20
116.5
 30
0.0
 11
158.9565102856297
 21
116.5
 31
0.0
  0
LINE
  5
186
330
1F
100
AcDbEntity
  8
2
 62
     7
370
    60
100
AcDbLine
 10
189.9565102856297
 20
116.5
 30
0.0
 11
216.9565102856298
 21
116.5
 31
0.0
  0
LINE
  5
187
330
1F
100
AcDbEntity
  8
2
 62
     7
370
    60
100
AcDbLine
 10
160.9565102856297
 20
116.5
 30
0.0
 11
187.9565102856297
 21
116.5
 31
0.0
  0
LINE
  5
188
330
1F
100
AcDbEntity
  8
2
 62
     7
370
    60
100
AcDbLine
 10
160.9565102856297
 20
114.5
 30
0.0
 11
187.9565102856297
 21
114.5
 31
0.0
  0
LINE
  5
189
330
1F
100
AcDbEntity
  8
2
 62
     7
370
    60
100
AcDbLine
 10
129.9565102856297
 20
114.5
 30
0.0
 11
158.9565102856297
 21
114.5
 31
0.0
  0
LINE
  5
18A
330
1F
100
AcDbEntity
  8
2
 62
     7
370
    60
100
AcDbLine
 10
189.9565102856297
 20
114.5
 30
0.0
 11
216.9565102856298
 21
114.5
 31
0.0
  0
LINE
  5
18B
330
1F
100
AcDbEntity
  8
2
 62
     7
370
    60
100
AcDbLine
 10
218.9565102856298
 20
114.5
 30
0.0
 11
245.9565102856298
 21
114.5
 31
0.0
  0
LINE
  5
18C
330
1F
100
AcDbEntity
  8
2
 62
     7
 48
0.05
370
    60
100
AcDbLine
 10
129.9565102856297
 20
114.5
 30
0.0
 11
129.9565102856297
 21
116.5
 31
0.0
  0
LINE
  5
18D
330
1F
100
AcDbEntity
  8
2
 62
     7
370
    60
100
AcDbLine
 10
218.9565102856298
 20
87.5
 30
0.0
 11
245.9565102856298
 21
87.5
 31
0.0
  0
LINE
  5
18E
330
1F
100
AcDbEntity
  8
2
 62
     7
370
    60
100
AcDbLine
 10
160.9565102856297
 20
87.5
 30
0.0
 11
187.9565102856297
 21
87.5
 31
0.0
  0
LINE
  5
18F
330
1F
100
AcDbEntity
  8
2
 62
     7
370
    60
100
AcDbLine
 10
129.9565102856297
 20
87.5
 30
0.0
 11
158.9565102856297
 21
87.5
 31
0.0
  0
LINE
  5
190
330
1F
100
AcDbEntity
  8
2
 62
     7
370
    60
100
AcDbLine
 10
189.9565102856297
 20
87.5
 30
0.0
 11
216.9565102856298
 21
87.5
 31
0.0
  0
LINE
  5
191
330
1F
100
AcDbEntity
  8
2
 62
     7
370
    60
100
AcDbLine
 10
129.9565102856297
 20
85.5
 30
0.0
 11
158.9570212856298
 21
85.5
 31
0.0
  0
LINE
  5
192
330
1F
100
AcDbEntity
  8
2
 62
     7
370
    60
100
AcDbLine
 10
218.9559912856298
 20
85.5
 30
0.0
 11
245.9570292856298
 21
85.5
 31
0.0
  0
LINE
  5
193
330
1F
100
AcDbEntity
  8
2
 62
     7
370
    60
100
AcDbLine
 10
160.9559992856298
 20
85.5
 30
0.0
 11
187.9570212856298
 21
85.5
 31
0.0
  0
LINE
  5
194
330
1F
100
AcDbEntity
  8
2
 62
     7
370
    60
100
AcDbLine
 10
189.9559992856298
 20
85.5
 30
0.0
 11
216.9570292856298
 21
85.5
 31
0.0
  0
LINE
  5
195
330
1F
100
AcDbEntity
  8
2
 62
     7
 48
0.05
370
    60
100
AcDbLine
 10
129.9565102856297
 20
85.5
 30
0.0
 11
129.9565102856297
 21
87.5
 31
0.0
  0
LINE
  5
196
330
1F
100
AcDbEntity
  8
2
 62
     7
370
    60
100
AcDbLine
 10
334.9560372856298
 20
348.5000000000001
 30
0.0
 11
363.9565102856299
 21
348.5000000000001
 31
0.0
  0
LINE
  5
197
330
1F
100
AcDbEntity
  8
2
 62
     7
370
    60
100
AcDbLine
 10
247.9560372856298
 20
348.5000000000001
 30
0.0
 11
274.9569832856298
 21
348.5000000000001
 31
0.0
  0
LINE
  5
198
330
1F
100
AcDbEntity
  8
2
 62
     7
370
    60
100
AcDbLine
 10
276.9560372856298
 20
348.5000000000001
 30
0.0
 11
303.9569832856298
 21
348.5000000000001
 31
0.0
  0
LINE
  5
199
330
1F
100
AcDbEntity
  8
2
 62
     7
370
    60
100
AcDbLine
 10
305.9560372856298
 20
348.5000000000001
 30
0.0
 11
332.9569832856298
 21
348.5000000000001
 31
0.0
  0
LINE
  5
19A
330
1F
100
AcDbEntity
  8
2
 62
     7
370
    60
100
AcDbLine
 10
247.9565102856298
 20
346.5000000000001
 30
0.0
 11
274.9565102856299
 21
346.5000000000001
 31
0.0
  0
LINE
  5
19B
330
1F
100
AcDbEntity
  8
2
 62
     7
370
    60
100
AcDbLine
 10
276.9565102856299
 20
346.5000000000001
 30
0.0
 11
303.9565102856299
 21
346.5000000000001
 31
0.0
  0
LINE
  5
19C
330
1F
100
AcDbEntity
  8
2
 62
     7
370
    60
100
AcDbLine
 10
305.9565102856299
 20
346.5000000000001
 30
0.0
 11
332.9565102856299
 21
346.5000000000001
 31
0.0
  0
LINE
  5
19D
330
1F
100
AcDbEntity
  8
2
 62
     7
370
    60
100
AcDbLine
 10
334.9565102856299
 20
346.5000000000001
 30
0.0
 11
363.9565102856299
 21
346.5000000000001
 31
0.0
  0
LINE
  5
19E
330
1F
100
AcDbEntity
  8
2
 62
     7
370
    60
100
AcDbLine
 10
334.9565102856299
 20
259.5
 30
0.0
 11
363.9565102856299
 21
259.5
 31
0.0
  0
LINE
  5
19F
330
1F
100
AcDbEntity
  8
2
 62
     7
370
    60
100
AcDbLine
 10
276.9565102856299
 20
259.5
 30
0.0
 11
303.9565102856299
 21
259.5
 31
0.0
  0
LINE
  5
1A0
330
1F
100
AcDbEntity
  8
2
 62
     7
370
    60
100
AcDbLine
 10
247.9565102856298
 20
259.5
 30
0.0
 11
274.9565102856299
 21
259.5
 31
0.0
  0
LINE
  5
1A1
330
1F
100
AcDbEntity
  8
2
 62
     7
370
    60
100
AcDbLine
 10
305.9565102856299
 20
259.5
 30
0.0
 11
332.9565102856299
 21
259.5
 31
0.0
  0
LINE
  5
1A2
330
1F
100
AcDbEntity
  8
2
 62
     7
370
    60
100
AcDbLine
 10
276.9565102856299
 20
261.5
 30
0.0
 11
303.9565102856299
 21
261.5
 31
0.0
  0
LINE
  5
1A3
330
1F
100
AcDbEntity
  8
2
 62
     7
370
    60
100
AcDbLine
 10
305.9565102856299
 20
261.5
 30
0.0
 11
332.9565102856299
 21
261.5
 31
0.0
  0
LINE
  5
1A4
330
1F
100
AcDbEntity
  8
2
 62
     7
370
    60
100
AcDbLine
 10
247.9565102856298
 20
261.5
 30
0.0
 11
274.9565102856299
 21
261.5
 31
0.0
  0
LINE
  5
1A5
330
1F
100
AcDbEntity
  8
2
 62
     7
370
    60
100
AcDbLine
 10
334.9565102856299
 20
261.5
 30
0.0
 11
363.9565102856299
 21
261.5
 31
0.0
  0
LINE
  5
1A6
330
1F
100
AcDbEntity
  8
2
 62
     7
370
    60
100
AcDbLine
 10
276.9565102856299
 20
203.5
 30
0.0
 11
303.9565102856299
 21
203.5
 31
0.0
  0
LINE
  5
1A7
330
1F
100
AcDbEntity
  8
2
 62
     7
370
    60
100
AcDbLine
 10
247.9565102856298
 20
203.5
 30
0.0
 11
274.9565102856299
 21
203.5
 31
0.0
  0
LINE
  5
1A8
330
1F
100
AcDbEntity
  8
2
 62
     7
370
    60
100
AcDbLine
 10
305.9565102856299
 20
203.5
 30
0.0
 11
332.9565102856299
 21
203.5
 31
0.0
  0
LINE
  5
1A9
330
1F
100
AcDbEntity
  8
2
 62
     7
370
    60
100
AcDbLine
 10
334.9565102856299
 20
203.5
 30
0.0
 11
363.9565102856299
 21
203.5
 31
0.0
  0
LINE
  5
1AA
330
1F
100
AcDbEntity
  8
2
 62
     7
370
    60
100
AcDbLine
 10
247.9565102856298
 20
201.5
 30
0.0
 11
274.9565102856299
 21
201.5
 31
0.0
  0
LINE
  5
1AB
330
1F
100
AcDbEntity
  8
2
 62
     7
370
    60
100
AcDbLine
 10
276.9565102856299
 20
201.5
 30
0.0
 11
303.9565102856299
 21
201.5
 31
0.0
  0
LINE
  5
1AC
330
1F
100
AcDbEntity
  8
2
 62
     7
370
    60
100
AcDbLine
 10
305.9565102856299
 20
201.5
 30
0.0
 11
332.9565102856299
 21
201.5
 31
0.0
  0
LINE
  5
1AD
330
1F
100
AcDbEntity
  8
2
 62
     7
370
    60
100
AcDbLine
 10
334.9565102856299
 20
201.5
 30
0.0
 11
363.9565102856299
 21
201.5
 31
0.0
  0
LINE
  5
1AE
330
1F
100
AcDbEntity
  8
2
 62
     7
370
    60
100
AcDbLine
 10
247.9565102856298
 20
290.5000000000001
 30
0.0
 11
274.9565102856299
 21
290.5000000000001
 31
0.0
  0
LINE
  5
1AF
330
1F
100
AcDbEntity
  8
2
 62
     7
370
    60
100
AcDbLine
 10
276.9565102856299
 20
290.5000000000001
 30
0.0
 11
303.9565102856299
 21
290.5000000000001
 31
0.0
  0
LINE
  5
1B0
330
1F
100
AcDbEntity
  8
2
 62
     7
370
    60
100
AcDbLine
 10
305.9565102856299
 20
290.5000000000001
 30
0.0
 11
332.9565102856299
 21
290.5000000000001
 31
0.0
  0
LINE
  5
1B1
330
1F
100
AcDbEntity
  8
2
 62
     7
370
    60
100
AcDbLine
 10
334.9565102856299
 20
290.5000000000001
 30
0.0
 11
363.9565102856299
 21
290.5000000000001
 31
0.0
  0
LINE
  5
1B2
330
1F
100
AcDbEntity
  8
2
 62
     7
370
    60
100
AcDbLine
 10
334.9565102856299
 20
288.5000000000001
 30
0.0
 11
363.9565102856299
 21
288.5000000000001
 31
0.0
  0
LINE
  5
1B3
330
1F
100
AcDbEntity
  8
2
 62
     7
370
    60
100
AcDbLine
 10
305.9565102856299
 20
288.5000000000001
 30
0.0
 11
332.9565102856299
 21
288.5000000000001
 31
0.0
  0
LINE
  5
1B4
330
1F
100
AcDbEntity
  8
2
 62
     7
370
    60
100
AcDbLine
 10
276.9565102856299
 20
288.5000000000001
 30
0.0
 11
303.9565102856299
 21
288.5000000000001
 31
0.0
  0
LINE
  5
1B5
330
1F
100
AcDbEntity
  8
2
 62
     7
370
    60
100
AcDbLine
 10
247.9565102856298
 20
288.5000000000001
 30
0.0
 11
274.9565102856299
 21
288.5000000000001
 31
0.0
  0
LINE
  5
1B6
330
1F
100
AcDbEntity
  8
2
 62
     7
370
    60
100
AcDbLine
 10
305.9565102856299
 20
174.5
 30
0.0
 11
332.9565102856299
 21
174.5
 31
0.0
  0
LINE
  5
1B7
330
1F
100
AcDbEntity
  8
2
 62
     7
370
    60
100
AcDbLine
 10
276.9565102856299
 20
174.5
 30
0.0
 11
303.9565102856299
 21
174.5
 31
0.0
  0
LINE
  5
1B8
330
1F
100
AcDbEntity
  8
2
 62
     7
370
    60
100
AcDbLine
 10
247.9565102856298
 20
174.5
 30
0.0
 11
274.9565102856299
 21
174.5
 31
0.0
  0
LINE
  5
1B9
330
1F
100
AcDbEntity
  8
2
 62
     7
370
    60
100
AcDbLine
 10
334.9565102856299
 20
174.5
 30
0.0
 11
363.9565102856299
 21
174.5
 31
0.0
  0
LINE
  5
1BA
330
1F
100
AcDbEntity
  8
2
 62
     7
370
    60
100
AcDbLine
 10
334.9565102856299
 20
172.5
 30
0.0
 11
363.9565102856299
 21
172.5
 31
0.0
  0
LINE
  5
1BB
330
1F
100
AcDbEntity
  8
2
 62
     7
370
    60
100
AcDbLine
 10
305.9565102856299
 20
172.5
 30
0.0
 11
332.9565102856299
 21
172.5
 31
0.0
  0
LINE
  5
1BC
330
1F
100
AcDbEntity
  8
2
 62
     7
370
    60
100
AcDbLine
 10
276.9565102856299
 20
172.5
 30
0.0
 11
303.9565102856299
 21
172.5
 31
0.0
  0
LINE
  5
1BD
330
1F
100
AcDbEntity
  8
2
 62
     7
370
    60
100
AcDbLine
 10
247.9565102856298
 20
172.5
 30
0.0
 11
274.9565102856299
 21
172.5
 31
0.0
  0
LINE
  5
1BE
330
1F
100
AcDbEntity
  8
2
 62
     7
370
    60
100
AcDbLine
 10
305.9565102856299
 20
145.5
 30
0.0
 11
332.9565102856299
 21
145.5
 31
0.0
  0
LINE
  5
1BF
330
1F
100
AcDbEntity
  8
2
 62
     7
370
    60
100
AcDbLine
 10
276.9565102856299
 20
145.5
 30
0.0
 11
303.9565102856299
 21
145.5
 31
0.0
  0
LINE
  5
1C0
330
1F
100
AcDbEntity
  8
2
 62
     7
370
    60
100
AcDbLine
 10
334.9565102856299
 20
145.5
 30
0.0
 11
363.9565102856299
 21
145.5
 31
0.0
  0
LINE
  5
1C1
330
1F
100
AcDbEntity
  8
2
 62
     7
370
    60
100
AcDbLine
 10
247.9565102856298
 20
145.5
 30
0.0
 11
274.9565102856299
 21
145.5
 31
0.0
  0
LINE
  5
1C2
330
1F
100
AcDbEntity
  8
2
 62
     7
370
    60
100
AcDbLine
 10
334.9565102856299
 20
143.5
 30
0.0
 11
363.9565102856299
 21
143.5
 31
0.0
  0
LINE
  5
1C3
330
1F
100
AcDbEntity
  8
2
 62
     7
370
    60
100
AcDbLine
 10
247.9565102856298
 20
143.5
 30
0.0
 11
274.9565102856299
 21
143.5
 31
0.0
  0
LINE
  5
1C4
330
1F
100
AcDbEntity
  8
2
 62
     7
370
    60
100
AcDbLine
 10
305.9565102856299
 20
143.5
 30
0.0
 11
332.9565102856299
 21
143.5
 31
0.0
  0
LINE
  5
1C5
330
1F
100
AcDbEntity
  8
2
 62
     7
370
    60
100
AcDbLine
 10
276.9565102856299
 20
143.5
 30
0.0
 11
303.9565102856299
 21
143.5
 31
0.0
  0
LINE
  5
1C6
330
1F
100
AcDbEntity
  8
2
 62
     7
370
    60
100
AcDbLine
 10
334.9565102856299
 20
319.5000000000001
 30
0.0
 11
363.9565102856299
 21
319.5000000000001
 31
0.0
  0
LINE
  5
1C7
330
1F
100
AcDbEntity
  8
2
 62
     7
370
    60
100
AcDbLine
 10
305.9565102856299
 20
319.5000000000001
 30
0.0
 11
332.9565102856299
 21
319.5000000000001
 31
0.0
  0
LINE
  5
1C8
330
1F
100
AcDbEntity
  8
2
 62
     7
370
    60
100
AcDbLine
 10
247.9565102856298
 20
319.5000000000001
 30
0.0
 11
274.9565102856299
 21
319.5000000000001
 31
0.0
  0
LINE
  5
1C9
330
1F
100
AcDbEntity
  8
2
 62
     7
370
    60
100
AcDbLine
 10
276.9565102856299
 20
319.5000000000001
 30
0.0
 11
303.9565102856299
 21
319.5000000000001
 31
0.0
  0
LINE
  5
1CA
330
1F
100
AcDbEntity
  8
2
 62
     7
370
    60
100
AcDbLine
 10
247.9565102856298
 20
317.5000000000001
 30
0.0
 11
274.9565102856299
 21
317.5000000000001
 31
0.0
  0
LINE
  5
1CB
330
1F
100
AcDbEntity
  8
2
 62
     7
370
    60
100
AcDbLine
 10
334.9565102856299
 20
317.5000000000001
 30
0.0
 11
363.9565102856299
 21
317.5000000000001
 31
0.0
  0
LINE
  5
1CC
330
1F
100
AcDbEntity
  8
2
 62
     7
370
    60
100
AcDbLine
 10
305.9565102856299
 20
317.5000000000001
 30
0.0
 11
332.9565102856299
 21
317.5000000000001
 31
0.0
  0
LINE
  5
1CD
330
1F
100
AcDbEntity
  8
2
 62
     7
370
    60
100
AcDbLine
 10
276.9565102856299
 20
317.5000000000001
 30
0.0
 11
303.9565102856299
 21
317.5000000000001
 31
0.0
  0
LINE
  5
1CE
330
1F
100
AcDbEntity
  8
2
 62
     7
370
    60
100
AcDbLine
 10
247.9565102856298
 20
232.5
 30
0.0
 11
274.9565102856299
 21
232.5
 31
0.0
  0
LINE
  5
1CF
330
1F
100
AcDbEntity
  8
2
 62
     7
370
    60
100
AcDbLine
 10
276.9565102856299
 20
232.5
 30
0.0
 11
303.9565102856299
 21
232.5
 31
0.0
  0
LINE
  5
1D0
330
1F
100
AcDbEntity
  8
2
 62
     7
370
    60
100
AcDbLine
 10
305.9565102856299
 20
232.5
 30
0.0
 11
332.9565102856299
 21
232.5
 31
0.0
  0
LINE
  5
1D1
330
1F
100
AcDbEntity
  8
2
 62
     7
370
    60
100
AcDbLine
 10
334.9565102856299
 20
232.5
 30
0.0
 11
363.9565102856299
 21
232.5
 31
0.0
  0
LINE
  5
1D2
330
1F
100
AcDbEntity
  8
2
 62
     7
370
    60
100
AcDbLine
 10
305.9565102856299
 20
230.5
 30
0.0
 11
332.9565102856299
 21
230.5
 31
0.0
  0
LINE
  5
1D3
330
1F
100
AcDbEntity
  8
2
 62
     7
370
    60
100
AcDbLine
 10
276.9565102856299
 20
230.5
 30
0.0
 11
303.9565102856299
 21
230.5
 31
0.0
  0
LINE
  5
1D4
330
1F
100
AcDbEntity
  8
2
 62
     7
370
    60
100
AcDbLine
 10
334.9565102856299
 20
230.5
 30
0.0
 11
363.9565102856299
 21
230.5
 31
0.0
  0
LINE
  5
1D5
330
1F
100
AcDbEntity
  8
2
 62
     7
370
    60
100
AcDbLine
 10
247.9565102856298
 20
230.5
 30
0.0
 11
274.9565102856299
 21
230.5
 31
0.0
  0
LINE
  5
1D6
330
1F
100
AcDbEntity
  8
2
 62
     7
370
    60
100
AcDbLine
 10
247.9565102856298
 20
116.5
 30
0.0
 11
274.9565102856299
 21
116.5
 31
0.0
  0
LINE
  5
1D7
330
1F
100
AcDbEntity
  8
2
 62
     7
370
    60
100
AcDbLine
 10
334.9565102856299
 20
116.5
 30
0.0
 11
363.9565102856299
 21
116.5
 31
0.0
  0
LINE
  5
1D8
330
1F
100
AcDbEntity
  8
2
 62
     7
370
    60
100
AcDbLine
 10
305.9565102856299
 20
116.5
 30
0.0
 11
332.9565102856299
 21
116.5
 31
0.0
  0
LINE
  5
1D9
330
1F
100
AcDbEntity
  8
2
 62
     7
370
    60
100
AcDbLine
 10
276.9565102856299
 20
116.5
 30
0.0
 11
303.9565102856299
 21
116.5
 31
0.0
  0
LINE
  5
1DA
330
1F
100
AcDbEntity
  8
2
 62
     7
370
    60
100
AcDbLine
 10
305.9565102856299
 20
114.5
 30
0.0
 11
332.9565102856299
 21
114.5
 31
0.0
  0
LINE
  5
1DB
330
1F
100
AcDbEntity
  8
2
 62
     7
370
    60
100
AcDbLine
 10
247.9565102856298
 20
114.5
 30
0.0
 11
274.9565102856299
 21
114.5
 31
0.0
  0
LINE
  5
1DC
330
1F
100
AcDbEntity
  8
2
 62
     7
370
    60
100
AcDbLine
 10
334.9565102856299
 20
114.5
 30
0.0
 11
363.9565102856299
 21
114.5
 31
0.0
  0
LINE
  5
1DD
330
1F
100
AcDbEntity
  8
2
 62
     7
370
    60
100
AcDbLine
 10
276.9565102856299
 20
114.5
 30
0.0
 11
303.9565102856299
 21
114.5
 31
0.0
  0
LINE
  5
1DE
330
1F
100
AcDbEntity
  8
2
 62
     7
 48
0.05
370
    60
100
AcDbLine
 10
363.9565102856299
 20
143.5
 30
0.0
 11
363.9565102856299
 21
145.5
 31
0.0
  0
LINE
  5
1DF
330
1F
100
AcDbEntity
  8
2
 62
     7
 48
0.05
370
    60
100
AcDbLine
 10
363.9565102856299
 20
346.5000000000001
 30
0.0
 11
363.9565102856299
 21
348.5000000000001
 31
0.0
  0
LINE
  5
1E0
330
1F
100
AcDbEntity
  8
2
 62
     7
 48
0.05
370
    60
100
AcDbLine
 10
363.9565102856299
 20
172.5
 30
0.0
 11
363.9565102856299
 21
174.5
 31
0.0
  0
LINE
  5
1E1
330
1F
100
AcDbEntity
  8
2
 62
     7
 48
0.05
370
    60
100
AcDbLine
 10
363.9565102856299
 20
201.5
 30
0.0
 11
363.9565102856299
 21
203.5
 31
0.0
  0
LINE
  5
1E2
330
1F
100
AcDbEntity
  8
2
 62
     7
 48
0.05
370
    60
100
AcDbLine
 10
363.9565102856299
 20
230.5
 30
0.0
 11
363.9565102856299
 21
232.5
 31
0.0
  0
LINE
  5
1E3
330
1F
100
AcDbEntity
  8
2
 62
     7
 48
0.05
370
    60
100
AcDbLine
 10
363.9565102856299
 20
259.5
 30
0.0
 11
363.9565102856299
 21
261.5
 31
0.0
  0
LINE
  5
1E4
330
1F
100
AcDbEntity
  8
2
 62
     7
 48
0.05
370
    60
100
AcDbLine
 10
363.9565102856299
 20
114.5
 30
0.0
 11
363.9565102856299
 21
116.5
 31
0.0
  0
LINE
  5
1E5
330
1F
100
AcDbEntity
  8
2
 62
     7
 48
0.05
370
    60
100
AcDbLine
 10
363.9565102856299
 20
288.5000000000001
 30
0.0
 11
363.9565102856299
 21
290.5000000000001
 31
0.0
  0
LINE
  5
1E6
330
1F
100
AcDbEntity
  8
2
 62
     7
 48
0.05
370
    60
100
AcDbLine
 10
363.9565102856299
 20
317.5000000000001
 30
0.0
 11
363.9565102856299
 21
319.5000000000001
 31
0.0
  0
LINE
  5
1E7
330
1F
100
AcDbEntity
  8
2
 62
     7
 48
0.012312
370
    60
100
AcDbLine
 10
333.4641402856298
 20
377.625275
 30
0.0
 11
333.9565102856299
 21
377.635406
 31
0.0
  0
LINE
  5
1E8
330
1F
100
AcDbEntity
  8
2
 62
     7
 48
0.003032
370
    60
100
AcDbLine
 10
332.9717542856298
 20
377.566589
 30
0.0
 11
333.0881172856297
 21
377.6007080000001
 31
0.0
  0
LINE
  5
1E9
330
1F
100
AcDbEntity
  8
2
 62
     7
 48
0.009421
370
    60
100
AcDbLine
 10
333.0881172856297
 20
377.6007080000001
 30
0.0
 11
333.4641402856298
 21
377.625275
 31
0.0
  0
LINE
  5
1EA
330
1F
100
AcDbEntity
  8
2
 62
     7
 48
0.012312
370
    60
100
AcDbLine
 10
304.4641402856298
 20
377.625275
 30
0.0
 11
304.9565102856299
 21
377.635406
 31
0.0
  0
LINE
  5
1EB
330
1F
100
AcDbEntity
  8
2
 62
     7
 48
0.003032
370
    60
100
AcDbLine
 10
303.9717542856298
 20
377.566589
 30
0.0
 11
304.0881172856297
 21
377.6007080000001
 31
0.0
  0
LINE
  5
1EC
330
1F
100
AcDbEntity
  8
2
 62
     7
 48
0.009421
370
    60
100
AcDbLine
 10
304.0881172856297
 20
377.6007080000001
 30
0.0
 11
304.4641402856298
 21
377.625275
 31
0.0
  0
LINE
  5
1ED
330
1F
100
AcDbEntity
  8
2
 62
     7
 48
0.003032
370
    60
100
AcDbLine
 10
274.9717542856298
 20
377.566589
 30
0.0
 11
275.0881172856297
 21
377.6007080000001
 31
0.0
  0
LINE
  5
1EE
330
1F
100
AcDbEntity
  8
2
 62
     7
 48
0.009421
370
    60
100
AcDbLine
 10
275.0881172856297
 20
377.6007080000001
 30
0.0
 11
275.4641402856298
 21
377.625275
 31
0.0
  0
LINE
  5
1EF
330
1F
100
AcDbEntity
  8
2
 62
     7
 48
0.012312
370
    60
100
AcDbLine
 10
275.4641402856298
 20
377.625275
 30
0.0
 11
275.9565102856299
 21
377.635406
 31
0.0
  0
LINE
  5
1F0
330
1F
100
AcDbEntity
  8
2
 62
     7
 48
0.025
370
    60
100
AcDbLine
 10
332.9565102856299
 20
347.568878
 30
0.0
 11
333.9565102856299
 21
347.568878
 31
0.0
  0
LINE
  5
1F1
330
1F
100
AcDbEntity
  8
2
 62
     7
 48
0.025
370
    60
100
AcDbLine
 10
333.9565102856299
 20
347.568878
 30
0.0
 11
334.9565102856299
 21
347.568878
 31
0.0
  0
LINE
  5
1F2
330
1F
100
AcDbEntity
  8
2
 62
     7
 48
0.025
370
    60
100
AcDbLine
 10
303.9565102856299
 20
347.568878
 30
0.0
 11
304.9565102856299
 21
347.568878
 31
0.0
  0
LINE
  5
1F3
330
1F
100
AcDbEntity
  8
2
 62
     7
 48
0.025
370
    60
100
AcDbLine
 10
304.9565102856299
 20
347.568878
 30
0.0
 11
305.9565102856299
 21
347.568878
 31
0.0
  0
LINE
  5
1F4
330
1F
100
AcDbEntity
  8
2
 62
     7
 48
0.025
370
    60
100
AcDbLine
 10
274.9565102856299
 20
347.568878
 30
0.0
 11
275.9565102856299
 21
347.568878
 31
0.0
  0
LINE
  5
1F5
330
1F
100
AcDbEntity
  8
2
 62
     7
 48
0.025
370
    60
100
AcDbLine
 10
275.9565102856299
 20
347.568878
 30
0.0
 11
276.9565102856299
 21
347.568878
 31
0.0
  0
LINE
  5
1F6
330
1F
100
AcDbEntity
  8
2
 62
     7
 48
0.012312
370
    60
100
AcDbLine
 10
304.9565102856299
 20
56.63272100000001
 30
0.0
 11
305.4488812856298
 21
56.64284500000001
 31
0.0
  0
LINE
  5
1F7
330
1F
100
AcDbEntity
  8
2
 62
     7
 48
0.009421
370
    60
100
AcDbLine
 10
305.4488812856298
 20
56.64284500000001
 30
0.0
 11
305.8249032856297
 21
56.667404
 31
0.0
  0
LINE
  5
1F8
330
1F
100
AcDbEntity
  8
2
 62
     7
 48
0.003032
370
    60
100
AcDbLine
 10
305.8249032856297
 20
56.667404
 30
0.0
 11
305.9412672856298
 21
56.70152300000001
 31
0.0
  0
LINE
  5
1F9
330
1F
100
AcDbEntity
  8
2
 62
     7
 48
0.009421
370
    60
100
AcDbLine
 10
334.4488812856298
 20
56.64284500000001
 30
0.0
 11
334.8249032856297
 21
56.667404
 31
0.0
  0
LINE
  5
1FA
330
1F
100
AcDbEntity
  8
2
 62
     7
 48
0.012312
370
    60
100
AcDbLine
 10
333.9565102856299
 20
56.63272100000001
 30
0.0
 11
334.4488812856298
 21
56.64284500000001
 31
0.0
  0
LINE
  5
1FB
330
1F
100
AcDbEntity
  8
2
 62
     7
 48
0.003032
370
    60
100
AcDbLine
 10
334.8249032856297
 20
56.667404
 30
0.0
 11
334.9412672856298
 21
56.70152300000001
 31
0.0
  0
LINE
  5
1FC
330
1F
100
AcDbEntity
  8
2
 62
     7
 48
0.012312
370
    60
100
AcDbLine
 10
275.9565102856299
 20
56.63272100000001
 30
0.0
 11
276.4488812856298
 21
56.64284500000001
 31
0.0
  0
LINE
  5
1FD
330
1F
100
AcDbEntity
  8
2
 62
     7
 48
0.003032
370
    60
100
AcDbLine
 10
276.8249032856297
 20
56.667404
 30
0.0
 11
276.9412672856298
 21
56.70152300000001
 31
0.0
  0
LINE
  5
1FE
330
1F
100
AcDbEntity
  8
2
 62
     7
 48
0.009421
370
    60
100
AcDbLine
 10
276.4488812856298
 20
56.64284500000001
 30
0.0
 11
276.8249032856297
 21
56.667404
 31
0.0
  0
LINE
  5
1FF
330
1F
100
AcDbEntity
  8
2
 62
     7
 48
0.003032
370
    60
100
AcDbLine
 10
245.9717542856298
 20
377.566589
 30
0.0
 11
246.0881172856297
 21
377.6007080000001
 31
0.0
  0
LINE
  5
200
330
1F
100
AcDbEntity
  8
2
 62
     7
 48
0.009421
370
    60
100
AcDbLine
 10
246.0881172856297
 20
377.6007080000001
 30
0.0
 11
246.4641402856298
 21
377.625275
 31
0.0
  0
LINE
  5
201
330
1F
100
AcDbEntity
  8
2
 62
     7
 48
0.012312
370
    60
100
AcDbLine
 10
246.4641402856298
 20
377.625275
 30
0.0
 11
246.9565102856298
 21
377.635406
 31
0.0
  0
LINE
  5
202
330
1F
100
AcDbEntity
  8
2
 62
     7
 48
0.003032
370
    60
100
AcDbLine
 10
247.8249032856297
 20
56.667404
 30
0.0
 11
247.9412672856298
 21
56.70152300000001
 31
0.0
  0
LINE
  5
203
330
1F
100
AcDbEntity
  8
2
 62
     7
 48
0.009421
370
    60
100
AcDbLine
 10
247.4488812856298
 20
56.64284500000001
 30
0.0
 11
247.8249032856297
 21
56.667404
 31
0.0
  0
LINE
  5
204
330
1F
100
AcDbEntity
  8
2
 62
     7
 48
0.012312
370
    60
100
AcDbLine
 10
246.9565102856298
 20
56.63272100000001
 30
0.0
 11
247.4488812856298
 21
56.64284500000001
 31
0.0
  0
LINE
  5
205
330
1F
100
AcDbEntity
  8
2
 62
     7
 48
0.025
370
    60
100
AcDbLine
 10
246.9565102856298
 20
347.568878
 30
0.0
 11
247.9565102856298
 21
347.568878
 31
0.0
  0
LINE
  5
206
330
1F
100
AcDbEntity
  8
2
 62
     7
 48
0.025
370
    60
100
AcDbLine
 10
245.9565102856298
 20
347.568878
 30
0.0
 11
246.9565102856298
 21
347.568878
 31
0.0
  0
LINE
  5
207
330
1F
100
AcDbEntity
  8
2
 62
     7
370
    60
100
AcDbLine
 10
276.9559912856298
 20
85.5
 30
0.0
 11
303.9570142856297
 21
85.5
 31
0.0
  0
LINE
  5
208
330
1F
100
AcDbEntity
  8
2
 62
     7
370
    60
100
AcDbLine
 10
305.9560072856297
 20
85.5
 30
0.0
 11
332.9570142856297
 21
85.5
 31
0.0
  0
LINE
  5
209
330
1F
100
AcDbEntity
  8
2
 62
     7
370
    60
100
AcDbLine
 10
334.9560072856297
 20
85.5
 30
0.0
 11
363.9565102856299
 21
85.5
 31
0.0
  0
LINE
  5
20A
330
1F
100
AcDbEntity
  8
2
 62
     7
370
    60
100
AcDbLine
 10
247.9559912856298
 20
85.5
 30
0.0
 11
274.9570292856298
 21
85.5
 31
0.0
  0
LINE
  5
20B
330
1F
100
AcDbEntity
  8
2
 62
     7
370
    60
100
AcDbLine
 10
247.9565102856298
 20
87.5
 30
0.0
 11
274.9565102856299
 21
87.5
 31
0.0
  0
LINE
  5
20C
330
1F
100
AcDbEntity
  8
2
 62
     7
370
    60
100
AcDbLine
 10
276.9565102856299
 20
87.5
 30
0.0
 11
303.9565102856299
 21
87.5
 31
0.0
  0
LINE
  5
20D
330
1F
100
AcDbEntity
  8
2
 62
     7
370
    60
100
AcDbLine
 10
305.9565102856299
 20
87.5
 30
0.0
 11
332.9565102856299
 21
87.5
 31
0.0
  0
LINE
  5
20E
330
1F
100
AcDbEntity
  8
2
 62
     7
370
    60
100
AcDbLine
 10
334.9565102856299
 20
87.5
 30
0.0
 11
363.9565102856299
 21
87.5
 31
0.0
  0
LINE
  5
20F
330
1F
100
AcDbEntity
  8
2
 62
     7
 48
0.05
370
    60
100
AcDbLine
 10
363.9565102856299
 20
85.5
 30
0.0
 11
363.9565102856299
 21
87.5
 31
0.0
  0
LINE
  5
210
330
1F
100
AcDbEntity
  8
2
 62
     7
370
    60
100
AcDbLine
 10
247.9421822856297
 20
58.50000000000001
 30
0.0
 11
274.9708382856297
 21
58.50000000000001
 31
0.0
  0
LINE
  5
211
330
1F
100
AcDbEntity
  8
2
 62
     7
370
    60
100
AcDbLine
 10
305.9421822856297
 20
58.50000000000001
 30
0.0
 11
332.9708382856297
 21
58.50000000000001
 31
0.0
  0
LINE
  5
212
330
1F
100
AcDbEntity
  8
2
 62
     7
370
    60
100
AcDbLine
 10
276.9421822856297
 20
58.50000000000001
 30
0.0
 11
303.9708382856297
 21
58.50000000000001
 31
0.0
  0
LINE
  5
213
330
1F
100
AcDbEntity
  8
2
 62
     7
 48
0.250358
370
    60
100
AcDbLine
 10
334.9421822856297
 20
58.50000000000001
 30
0.0
 11
344.9565102856299
 21
58.50000000000001
 31
0.0
  0
LINE
  5
214
330
1F
100
AcDbEntity
  8
2
 62
     7
 48
0.049691
370
    60
100
AcDbLine
 10
344.9565102856299
 20
56.50000000000001
 30
0.0
 11
346.9399392856299
 21
56.62902100000001
 31
0.0
  0
ARC
  5
215
330
1F
100
AcDbEntity
  8
2
 62
     7
370
    60
100
AcDbCircle
 10
344.9565102856299
 20
75.5
 30
0.0
 40
18.97492799999999
100
AcDbArc
 50
275.999994
 51
353.999989
  0
LINE
  5
216
330
1F
100
AcDbEntity
  8
2
 62
     7
 48
0.04969
370
    60
100
AcDbLine
 10
363.8274822856298
 20
73.51657900000001
 30
0.0
 11
363.9565102856299
 21
75.5
 31
0.0
  0
LINE
  5
217
330
1F
100
AcDbEntity
  8
2
 62
     7
 48
0.001224
370
    60
100
AcDbLine
 10
344.9565102856299
 20
58.45105700000002
 30
0.0
 11
344.9565102856299
 21
58.50000000000001
 31
0.0
  0
ARC
  5
218
330
1F
100
AcDbEntity
  8
2
 62
     7
370
    60
100
AcDbCircle
 10
344.9565102856299
 20
75.5
 30
0.0
 40
17.048943
100
AcDbArc
 50
270.000001
 51
0.0000099999999887
  0
LINE
  5
219
330
1F
100
AcDbEntity
  8
2
 62
     7
 48
0.001224
370
    60
100
AcDbLine
 10
361.9565102856299
 20
75.5
 30
0.0
 11
362.0054602856299
 21
75.5
 31
0.0
  0
LINE
  5
21A
330
1F
100
AcDbEntity
  8
2
 62
     7
370
    60
100
AcDbLine
 10
363.9565102856299
 20
145.5
 30
0.0
 11
363.9565102856299
 21
172.5
 31
0.0
  0
LINE
  5
21B
330
1F
100
AcDbEntity
  8
2
 62
     7
370
    60
100
AcDbLine
 10
363.9565102856299
 20
116.5
 30
0.0
 11
363.9565102856299
 21
143.5
 31
0.0
  0
LINE
  5
21C
330
1F
100
AcDbEntity
  8
2
 62
     7
 48
0.25
370
    60
100
AcDbLine
 10
363.9565102856299
 20
75.5
 30
0.0
 11
363.9565102856299
 21
85.5
 31
0.0
  0
LINE
  5
21D
330
1F
100
AcDbEntity
  8
2
 62
     7
370
    60
100
AcDbLine
 10
363.9565102856299
 20
87.5
 30
0.0
 11
363.9565102856299
 21
114.5
 31
0.0
  0
LINE
  5
21E
330
1F
100
AcDbEntity
  8
2
 62
     7
 48
0.25
370
    60
100
AcDbLine
 10
363.9565102856299
 20
348.5000000000001
 30
0.0
 11
363.9565102856299
 21
358.5000000000001
 31
0.0
  0
LINE
  5
21F
330
1F
100
AcDbEntity
  8
2
 62
     7
370
    60
100
AcDbLine
 10
363.9565102856299
 20
319.5000000000001
 30
0.0
 11
363.9565102856299
 21
346.5000000000001
 31
0.0
  0
LINE
  5
220
330
1F
100
AcDbEntity
  8
2
 62
     7
370
    60
100
AcDbLine
 10
363.9565102856299
 20
290.5000000000001
 30
0.0
 11
363.9565102856299
 21
317.5000000000001
 31
0.0
  0
LINE
  5
221
330
1F
100
AcDbEntity
  8
2
 62
     7
370
    60
100
AcDbLine
 10
363.9565102856299
 20
261.5
 30
0.0
 11
363.9565102856299
 21
288.5000000000001
 31
0.0
  0
LINE
  5
222
330
1F
100
AcDbEntity
  8
2
 62
     7
370
    60
100
AcDbLine
 10
363.9565102856299
 20
232.5
 30
0.0
 11
363.9565102856299
 21
259.5
 31
0.0
  0
LINE
  5
223
330
1F
100
AcDbEntity
  8
2
 62
     7
370
    60
100
AcDbLine
 10
363.9565102856299
 20
203.5
 30
0.0
 11
363.9565102856299
 21
230.5
 31
0.0
  0
LINE
  5
224
330
1F
100
AcDbEntity
  8
2
 62
     7
370
    60
100
AcDbLine
 10
363.9565102856299
 20
174.5
 30
0.0
 11
363.9565102856299
 21
201.5
 31
0.0
  0
LINE
  5
225
330
1F
100
AcDbEntity
  8
2
 62
     7
370
    60
100
AcDbLine
 10
361.9565102856299
 20
203.5
 30
0.0
 11
361.9565102856299
 21
230.5
 31
0.0
  0
LINE
  5
226
330
1F
100
AcDbEntity
  8
2
 62
     7
 48
0.25
370
    60
100
AcDbLine
 10
361.9565102856299
 20
75.5
 30
0.0
 11
361.9565102856299
 21
85.5
 31
0.0
  0
LINE
  5
227
330
1F
100
AcDbEntity
  8
2
 62
     7
370
    60
100
AcDbLine
 10
361.9565102856299
 20
319.5000000000001
 30
0.0
 11
361.9565102856299
 21
346.5000000000001
 31
0.0
  0
LINE
  5
228
330
1F
100
AcDbEntity
  8
2
 62
     7
 48
0.25
370
    60
100
AcDbLine
 10
361.9565102856299
 20
348.5000000000001
 30
0.0
 11
361.9565102856299
 21
358.5000000000001
 31
0.0
  0
LINE
  5
229
330
1F
100
AcDbEntity
  8
2
 62
     7
370
    60
100
AcDbLine
 10
361.9565102856299
 20
290.5000000000001
 30
0.0
 11
361.9565102856299
 21
317.5000000000001
 31
0.0
  0
LINE
  5
22A
330
1F
100
AcDbEntity
  8
2
 62
     7
370
    60
100
AcDbLine
 10
361.9565102856299
 20
261.5
 30
0.0
 11
361.9565102856299
 21
288.5000000000001
 31
0.0
  0
LINE
  5
22B
330
1F
100
AcDbEntity
  8
2
 62
     7
370
    60
100
AcDbLine
 10
361.9565102856299
 20
232.5
 30
0.0
 11
361.9565102856299
 21
259.5
 31
0.0
  0
LINE
  5
22C
330
1F
100
AcDbEntity
  8
2
 62
     7
370
    60
100
AcDbLine
 10
361.9565102856299
 20
174.5
 30
0.0
 11
361.9565102856299
 21
201.5
 31
0.0
  0
LINE
  5
22D
330
1F
100
AcDbEntity
  8
2
 62
     7
370
    60
100
AcDbLine
 10
361.9565102856299
 20
145.5
 30
0.0
 11
361.9565102856299
 21
172.5
 31
0.0
  0
LINE
  5
22E
330
1F
100
AcDbEntity
  8
2
 62
     7
370
    60
100
AcDbLine
 10
361.9565102856299
 20
87.5
 30
0.0
 11
361.9565102856299
 21
114.5
 31
0.0
  0
LINE
  5
22F
330
1F
100
AcDbEntity
  8
2
 62
     7
370
    60
100
AcDbLine
 10
361.9565102856299
 20
116.5
 30
0.0
 11
361.9565102856299
 21
143.5
 31
0.0
  0
LINE
  5
230
330
1F
100
AcDbEntity
  8
2
 62
     7
 48
0.001224
370
    60
100
AcDbLine
 10
344.9565102856299
 20
375.5000000000001
 30
0.0
 11
344.9565102856299
 21
375.54895
 31
0.0
  0
ARC
  5
231
330
1F
100
AcDbEntity
  8
2
 62
     7
370
    60
100
AcDbCircle
 10
344.9565102856299
 20
358.5000000000001
 30
0.0
 40
17.04894300000001
100
AcDbArc
 50
0.0
 51
90.000003
  0
LINE
  5
232
330
1F
100
AcDbEntity
  8
2
 62
     7
 48
0.001224
370
    60
100
AcDbLine
 10
361.9565102856299
 20
358.5000000000001
 30
0.0
 11
362.0054602856299
 21
358.5000000000001
 31
0.0
  0
LINE
  5
233
330
1F
100
AcDbEntity
  8
2
 62
     7
 48
0.049691
370
    60
100
AcDbLine
 10
344.9565102856299
 20
377.5000000000001
 30
0.0
 11
346.9399392856299
 21
377.3709720000001
 31
0.0
  0
ARC
  5
234
330
1F
100
AcDbEntity
  8
2
 62
     7
370
    60
100
AcDbCircle
 10
344.9565102856299
 20
358.5000000000001
 30
0.0
 40
18.97492799999996
100
AcDbArc
 50
6.000000000000041
 51
84.00000300000006
  0
LINE
  5
235
330
1F
100
AcDbEntity
  8
2
 62
     7
 48
0.049691
370
    60
100
AcDbLine
 10
363.8274822856298
 20
360.4834290000001
 30
0.0
 11
363.9565102856299
 21
358.5000000000001
 31
0.0
  0
LINE
  5
236
330
1F
100
AcDbEntity
  8
2
 62
     7
370
    60
100
AcDbLine
 10
247.9423192856297
 20
375.5000000000001
 30
0.0
 11
274.9707012856298
 21
375.5000000000001
 31
0.0
  0
LINE
  5
237
330
1F
100
AcDbEntity
  8
2
 62
     7
370
    60
100
AcDbLine
 10
276.9423192856298
 20
375.5000000000001
 30
0.0
 11
303.9707012856298
 21
375.5000000000001
 31
0.0
  0
LINE
  5
238
330
1F
100
AcDbEntity
  8
2
 62
     7
370
    60
100
AcDbLine
 10
305.9423192856298
 20
375.5000000000001
 30
0.0
 11
332.9707012856298
 21
375.5000000000001
 31
0.0
  0
LINE
  5
239
330
1F
100
AcDbEntity
  8
2
 62
     7
 48
0.250355
370
    60
100
AcDbLine
 10
334.9423192856298
 20
375.5000000000001
 30
0.0
 11
344.9565102856299
 21
375.5000000000001
 31
0.0
  0
LINE
  5
23A
330
1F
100
AcDbEntity
  8
2
 62
     7
370
    60
100
AcDbLine
 10
247.9412972856298
 20
377.5000000000001
 30
0.0
 11
274.9717232856298
 21
377.5000000000001
 31
0.0
  0
LINE
  5
23B
330
1F
100
AcDbEntity
  8
2
 62
     7
370
    60
100
AcDbLine
 10
276.9412972856298
 20
377.5000000000001
 30
0.0
 11
303.9717232856298
 21
377.5000000000001
 31
0.0
  0
LINE
  5
23C
330
1F
100
AcDbEntity
  8
2
 62
     7
370
    60
100
AcDbLine
 10
305.9412972856298
 20
377.5000000000001
 30
0.0
 11
332.9717232856298
 21
377.5000000000001
 31
0.0
  0
LINE
  5
23D
330
1F
100
AcDbEntity
  8
2
 62
     7
 48
0.25038
370
    60
100
AcDbLine
 10
334.9412972856298
 20
377.5000000000001
 30
0.0
 11
344.9565102856299
 21
377.5000000000001
 31
0.0
  0
LINE
  5
23E
330
1F
100
AcDbEntity
  8
2
 62
     7
 48
0.00647
370
    60
100
AcDbLine
 10
216.9565102856298
 20
394.0910950000001
 30
0.0
 11
216.9565102856298
 21
394.3499150000001
 31
0.0
  0
LINE
  5
23F
330
1F
100
AcDbEntity
  8
2
 62
     7
370
    60
100
AcDbLine
 10
246.9565102856298
 20
394.3499150000001
 30
0.0
 11
276.9565102856299
 21
394.3499150000001
 31
0.0
  0
LINE
  5
240
330
1F
100
AcDbEntity
  8
2
 62
     7
370
    60
100
AcDbLine
 10
216.9565102856298
 20
394.3499150000001
 30
0.0
 11
246.9565102856298
 21
394.3499150000001
 31
0.0
  0
LINE
  5
241
330
1F
100
AcDbEntity
  8
2
 62
     7
 48
0.289777
370
    60
100
AcDbLine
 10
216.9565102856298
 20
382.5000000000001
 30
0.0
 11
216.9565102856298
 21
394.0910950000001
 31
0.0
  0
LINE
  5
242
330
1F
100
AcDbEntity
  8
2
 62
     7
370
    60
100
AcDbLine
 10
216.9565102856298
 20
394.0910950000001
 30
0.0
 11
246.9565102856298
 21
394.0910950000001
 31
0.0
  0
LINE
  5
243
330
1F
100
AcDbEntity
  8
2
 62
     7
370
    60
100
AcDbLine
 10
246.9565102856298
 20
394.0910950000001
 30
0.0
 11
276.9565102856299
 21
394.0910950000001
 31
0.0
  0
LINE
  5
244
330
1F
100
AcDbEntity
  8
2
 62
     7
 48
0.125
370
    60
100
AcDbLine
 10
216.9565102856298
 20
377.5000000000001
 30
0.0
 11
216.9565102856298
 21
382.5000000000001
 31
0.0
  0
LINE
  5
245
330
1F
100
AcDbEntity
  8
2
 62
     7
 48
0.025
370
    60
100
AcDbLine
 10
216.9565102856298
 20
374.5000000000001
 30
0.0
 11
216.9565102856298
 21
375.5000000000001
 31
0.0
  0
LINE
  5
246
330
1F
100
AcDbEntity
  8
2
 62
     7
 48
0.000342
370
    60
100
AcDbLine
 10
216.9565102856298
 20
374.5000000000001
 30
0.0
 11
216.9701972856298
 21
374.5000000000001
 31
0.0
  0
LINE
  5
247
330
1F
100
AcDbEntity
  8
2
 62
     7
370
    60
100
AcDbLine
 10
218.9428232856298
 20
374.5000000000001
 30
0.0
 11
245.9701972856298
 21
374.5000000000001
 31
0.0
  0
LINE
  5
248
330
1F
100
AcDbEntity
  8
2
 62
     7
 48
0.000342
370
    60
100
AcDbLine
 10
276.9428232856299
 20
374.5000000000001
 30
0.0
 11
276.9565102856299
 21
374.5000000000001
 31
0.0
  0
LINE
  5
249
330
1F
100
AcDbEntity
  8
2
 62
     7
370
    60
100
AcDbLine
 10
247.9428232856298
 20
374.5000000000001
 30
0.0
 11
274.9701972856298
 21
374.5000000000001
 31
0.0
  0
LINE
  5
24A
330
1F
100
AcDbEntity
  8
2
 62
     7
 48
0.00647
370
    60
100
AcDbLine
 10
276.9565102856299
 20
394.0910950000001
 30
0.0
 11
276.9565102856299
 21
394.3499150000001
 31
0.0
  0
LINE
  5
24B
330
1F
100
AcDbEntity
  8
2
 62
     7
 48
0.289777
370
    60
100
AcDbLine
 10
276.9565102856299
 20
382.5000000000001
 30
0.0
 11
276.9565102856299
 21
394.0910950000001
 31
0.0
  0
LINE
  5
24C
330
1F
100
AcDbEntity
  8
2
 62
     7
 48
0.025
370
    60
100
AcDbLine
 10
276.9565102856299
 20
374.5000000000001
 30
0.0
 11
276.9565102856299
 21
375.5000000000001
 31
0.0
  0
LINE
  5
24D
330
1F
100
AcDbEntity
  8
2
 62
     7
 48
0.125
370
    60
100
AcDbLine
 10
276.9565102856299
 20
377.5000000000001
 30
0.0
 11
276.9565102856299
 21
382.5000000000001
 31
0.0
  0
LINE
  5
24E
330
1F
100
AcDbEntity
  8
2
 62
     7
 48
0.025
370
    60
100
AcDbLine
 10
222.9565102856298
 20
58.50000000000001
 30
0.0
 11
222.9565102856298
 21
59.50000000000001
 31
0.0
  0
LINE
  5
24F
330
1F
100
AcDbEntity
  8
2
 62
     7
 48
0.175
370
    60
100
AcDbLine
 10
222.9565102856298
 20
49.50000000000001
 30
0.0
 11
222.9565102856298
 21
56.50000000000001
 31
0.0
  0
LINE
  5
250
330
1F
100
AcDbEntity
  8
2
 62
     7
370
    60
100
AcDbLine
 10
222.9565102856298
 20
59.50000000000001
 30
0.0
 11
245.9703192856297
 21
59.50000000000001
 31
0.0
  0
LINE
  5
251
330
1F
100
AcDbEntity
  8
2
 62
     7
370
    60
100
AcDbLine
 10
247.9427012856297
 20
59.50000000000001
 30
0.0
 11
270.9565102856299
 21
59.50000000000001
 31
0.0
  0
LINE
  5
252
330
1F
100
AcDbEntity
  8
2
 62
     7
370
    60
100
AcDbLine
 10
222.9565102856298
 20
49.50000000000001
 30
0.0
 11
246.9565102856298
 21
49.50000000000001
 31
0.0
  0
LINE
  5
253
330
1F
100
AcDbEntity
  8
2
 62
     7
370
    60
100
AcDbLine
 10
246.9565102856298
 20
49.50000000000001
 30
0.0
 11
270.9565102856299
 21
49.50000000000001
 31
0.0
  0
LINE
  5
254
330
1F
100
AcDbEntity
  8
2
 62
     7
 48
0.025
370
    60
100
AcDbLine
 10
270.9565102856299
 20
58.50000000000001
 30
0.0
 11
270.9565102856299
 21
59.50000000000001
 31
0.0
  0
LINE
  5
255
330
1F
100
AcDbEntity
  8
2
 62
     7
 48
0.175
370
    60
100
AcDbLine
 10
270.9565102856299
 20
49.50000000000001
 30
0.0
 11
270.9565102856299
 21
56.50000000000001
 31
0.0
  0
LINE
  5
256
330
1F
100
AcDbEntity
  8
2
 62
     7
370
    60
100
AcDbLine
 10
159.9565102856297
 20
377.635406
 30
0.0
 11
159.1998882856297
 21
377.611572
 31
0.0
  0
LINE
  5
257
330
1F
100
AcDbEntity
  8
2
 62
     7
370
    60
100
AcDbLine
 10
159.1998882856297
 20
377.611572
 30
0.0
 11
158.9964502856297
 21
377.5858460000001
 31
0.0
  0
LINE
  5
258
330
1F
100
AcDbEntity
  8
2
 62
     7
370
    60
100
AcDbLine
 10
158.9964502856297
 20
377.5858460000001
 30
0.0
 11
158.9588902856298
 21
377.5713500000001
 31
0.0
  0
LINE
  5
259
330
1F
100
AcDbEntity
  8
2
 62
     7
370
    60
100
AcDbLine
 10
158.9588902856298
 20
377.5713500000001
 30
0.0
 11
158.9670772856297
 21
377.55661
 31
0.0
  0
LINE
  5
25A
330
1F
100
AcDbEntity
  8
2
 62
     7
370
    60
100
AcDbLine
 10
188.9565102856297
 20
377.635406
 30
0.0
 11
188.1998882856297
 21
377.611572
 31
0.0
  0
LINE
  5
25B
330
1F
100
AcDbEntity
  8
2
 62
     7
370
    60
100
AcDbLine
 10
188.1998882856297
 20
377.611572
 30
0.0
 11
187.9964582856297
 21
377.5858460000001
 31
0.0
  0
LINE
  5
25C
330
1F
100
AcDbEntity
  8
2
 62
     7
370
    60
100
AcDbLine
 10
187.9964582856297
 20
377.5858460000001
 30
0.0
 11
187.9588902856298
 21
377.5713500000001
 31
0.0
  0
LINE
  5
25D
330
1F
100
AcDbEntity
  8
2
 62
     7
370
    60
100
AcDbLine
 10
187.9588902856298
 20
377.5713500000001
 30
0.0
 11
187.9670772856297
 21
377.55661
 31
0.0
  0
LINE
  5
25E
330
1F
100
AcDbEntity
  8
2
 62
     7
370
    60
100
AcDbLine
 10
217.9565102856298
 20
377.635406
 30
0.0
 11
217.1998882856298
 21
377.611572
 31
0.0
  0
LINE
  5
25F
330
1F
100
AcDbEntity
  8
2
 62
     7
370
    60
100
AcDbLine
 10
217.1998882856298
 20
377.611572
 30
0.0
 11
216.9964582856297
 21
377.5858460000001
 31
0.0
  0
LINE
  5
260
330
1F
100
AcDbEntity
  8
2
 62
     7
370
    60
100
AcDbLine
 10
216.9964582856297
 20
377.5858460000001
 30
0.0
 11
216.9670692856298
 21
377.55661
 31
0.0
  0
LINE
  5
261
330
1F
100
AcDbEntity
  8
2
 62
     7
370
    60
100
AcDbLine
 10
187.9565182856297
 20
86.500946
 30
0.0
 11
187.9567852856298
 21
86.499672
 31
0.0
  0
LINE
  5
262
330
1F
100
AcDbEntity
  8
2
 62
     7
370
    60
100
AcDbLine
 10
187.9567852856298
 20
86.499672
 30
0.0
 11
187.9582502856298
 21
86.49721500000001
 31
0.0
  0
LINE
  5
263
330
1F
100
AcDbEntity
  8
2
 62
     7
370
    60
100
AcDbLine
 10
187.9582502856298
 20
86.49721500000001
 30
0.0
 11
187.9637352856297
 21
86.49300400000001
 31
0.0
  0
LINE
  5
264
330
1F
100
AcDbEntity
  8
2
 62
     7
370
    60
100
AcDbLine
 10
187.9637352856297
 20
86.49300400000001
 30
0.0
 11
188.0164772856297
 21
86.47776000000002
 31
0.0
  0
LINE
  5
265
330
1F
100
AcDbEntity
  8
2
 62
     7
370
    60
100
AcDbLine
 10
188.0164772856297
 20
86.47776000000002
 30
0.0
 11
188.4061032856298
 21
86.443703
 31
0.0
  0
LINE
  5
266
330
1F
100
AcDbEntity
  8
2
 62
     7
370
    60
100
AcDbLine
 10
188.4061032856298
 20
86.443703
 30
0.0
 11
188.9565102856297
 21
86.432312
 31
0.0
  0
LINE
  5
267
330
1F
100
AcDbEntity
  8
2
 62
     7
370
    60
100
AcDbLine
 10
188.9565102856297
 20
86.432312
 30
0.0
 11
189.6619162856297
 21
86.45240000000001
 31
0.0
  0
LINE
  5
268
330
1F
100
AcDbEntity
  8
2
 62
     7
370
    60
100
AcDbLine
 10
189.6619162856297
 20
86.45240000000001
 30
0.0
 11
189.8790032856297
 21
86.47465500000001
 31
0.0
  0
LINE
  5
269
330
1F
100
AcDbEntity
  8
2
 62
     7
370
    60
100
AcDbLine
 10
189.8790032856297
 20
86.47465500000001
 30
0.0
 11
189.9565022856298
 21
86.500946
 31
0.0
  0
LINE
  5
26A
330
1F
100
AcDbEntity
  8
2
 62
     7
370
    60
100
AcDbLine
 10
158.9565252856298
 20
86.500946
 30
0.0
 11
158.9567852856298
 21
86.499672
 31
0.0
  0
LINE
  5
26B
330
1F
100
AcDbEntity
  8
2
 62
     7
370
    60
100
AcDbLine
 10
158.9567852856298
 20
86.499672
 30
0.0
 11
158.9582502856298
 21
86.49721500000001
 31
0.0
  0
LINE
  5
26C
330
1F
100
AcDbEntity
  8
2
 62
     7
370
    60
100
AcDbLine
 10
158.9582502856298
 20
86.49721500000001
 30
0.0
 11
158.9637352856297
 21
86.49300400000001
 31
0.0
  0
LINE
  5
26D
330
1F
100
AcDbEntity
  8
2
 62
     7
370
    60
100
AcDbLine
 10
158.9637352856297
 20
86.49300400000001
 30
0.0
 11
159.0164772856297
 21
86.47776000000002
 31
0.0
  0
LINE
  5
26E
330
1F
100
AcDbEntity
  8
2
 62
     7
370
    60
100
AcDbLine
 10
159.0164772856297
 20
86.47776000000002
 30
0.0
 11
159.4061032856298
 21
86.443703
 31
0.0
  0
LINE
  5
26F
330
1F
100
AcDbEntity
  8
2
 62
     7
370
    60
100
AcDbLine
 10
159.4061032856298
 20
86.443703
 30
0.0
 11
159.9565102856297
 21
86.432312
 31
0.0
  0
LINE
  5
270
330
1F
100
AcDbEntity
  8
2
 62
     7
370
    60
100
AcDbLine
 10
159.9565102856297
 20
86.432312
 30
0.0
 11
160.6619162856297
 21
86.45240000000001
 31
0.0
  0
LINE
  5
271
330
1F
100
AcDbEntity
  8
2
 62
     7
370
    60
100
AcDbLine
 10
160.6619162856297
 20
86.45240000000001
 30
0.0
 11
160.8790032856297
 21
86.47465500000001
 31
0.0
  0
LINE
  5
272
330
1F
100
AcDbEntity
  8
2
 62
     7
370
    60
100
AcDbLine
 10
160.8790032856297
 20
86.47465500000001
 30
0.0
 11
160.9564952856297
 21
86.500946
 31
0.0
  0
LINE
  5
273
330
1F
100
AcDbEntity
  8
2
 62
     7
370
    60
100
AcDbLine
 10
216.9565252856297
 20
86.500946
 30
0.0
 11
216.9567852856298
 21
86.499672
 31
0.0
  0
LINE
  5
274
330
1F
100
AcDbEntity
  8
2
 62
     7
370
    60
100
AcDbLine
 10
216.9567852856298
 20
86.499672
 30
0.0
 11
216.9582502856298
 21
86.49721500000001
 31
0.0
  0
LINE
  5
275
330
1F
100
AcDbEntity
  8
2
 62
     7
370
    60
100
AcDbLine
 10
216.9582502856298
 20
86.49721500000001
 30
0.0
 11
216.9637282856297
 21
86.49300400000001
 31
0.0
  0
LINE
  5
276
330
1F
100
AcDbEntity
  8
2
 62
     7
370
    60
100
AcDbLine
 10
216.9637282856297
 20
86.49300400000001
 30
0.0
 11
217.0164772856297
 21
86.47776000000002
 31
0.0
  0
LINE
  5
277
330
1F
100
AcDbEntity
  8
2
 62
     7
370
    60
100
AcDbLine
 10
217.0164772856297
 20
86.47776000000002
 30
0.0
 11
217.4061102856297
 21
86.443703
 31
0.0
  0
LINE
  5
278
330
1F
100
AcDbEntity
  8
2
 62
     7
370
    60
100
AcDbLine
 10
217.4061102856297
 20
86.443703
 30
0.0
 11
217.9565102856298
 21
86.432312
 31
0.0
  0
LINE
  5
279
330
1F
100
AcDbEntity
  8
2
 62
     7
370
    60
100
AcDbLine
 10
217.9565102856298
 20
86.432312
 30
0.0
 11
218.6619092856298
 21
86.45240000000001
 31
0.0
  0
LINE
  5
27A
330
1F
100
AcDbEntity
  8
2
 62
     7
370
    60
100
AcDbLine
 10
218.6619092856298
 20
86.45240000000001
 30
0.0
 11
218.8790112856298
 21
86.47465500000001
 31
0.0
  0
LINE
  5
27B
330
1F
100
AcDbEntity
  8
2
 62
     7
370
    60
100
AcDbLine
 10
218.8790112856298
 20
86.47465500000001
 30
0.0
 11
218.9564952856297
 21
86.500946
 31
0.0
  0
LINE
  5
27C
330
1F
100
AcDbEntity
  8
2
 62
     7
370
    60
100
AcDbLine
 10
188.9565102856297
 20
56.63272100000001
 30
0.0
 11
189.7131322856298
 21
56.65654000000001
 31
0.0
  0
LINE
  5
27D
330
1F
100
AcDbEntity
  8
2
 62
     7
370
    60
100
AcDbLine
 10
189.7131322856298
 20
56.65654000000001
 30
0.0
 11
189.9165632856298
 21
56.68227400000001
 31
0.0
  0
LINE
  5
27E
330
1F
100
AcDbEntity
  8
2
 62
     7
370
    60
100
AcDbLine
 10
189.9165632856298
 20
56.68227400000001
 30
0.0
 11
189.9541302856298
 21
56.696777
 31
0.0
  0
LINE
  5
27F
330
1F
100
AcDbEntity
  8
2
 62
     7
370
    60
100
AcDbLine
 10
189.9541302856298
 20
56.696777
 30
0.0
 11
189.9459432856298
 21
56.71149400000001
 31
0.0
  0
LINE
  5
280
330
1F
100
AcDbEntity
  8
2
 62
     7
370
    60
100
AcDbLine
 10
159.9565102856297
 20
56.63272100000001
 30
0.0
 11
160.7131322856298
 21
56.65654000000001
 31
0.0
  0
LINE
  5
281
330
1F
100
AcDbEntity
  8
2
 62
     7
370
    60
100
AcDbLine
 10
160.7131322856298
 20
56.65654000000001
 30
0.0
 11
160.9165702856297
 21
56.68227400000001
 31
0.0
  0
LINE
  5
282
330
1F
100
AcDbEntity
  8
2
 62
     7
370
    60
100
AcDbLine
 10
160.9165702856297
 20
56.68227400000001
 30
0.0
 11
160.9541302856298
 21
56.696777
 31
0.0
  0
LINE
  5
283
330
1F
100
AcDbEntity
  8
2
 62
     7
370
    60
100
AcDbLine
 10
160.9541302856298
 20
56.696777
 30
0.0
 11
160.9459432856298
 21
56.71149400000001
 31
0.0
  0
LINE
  5
284
330
1F
100
AcDbEntity
  8
2
 62
     7
370
    60
100
AcDbLine
 10
217.9565102856298
 20
56.63272100000001
 30
0.0
 11
218.7131322856298
 21
56.65654000000001
 31
0.0
  0
LINE
  5
285
330
1F
100
AcDbEntity
  8
2
 62
     7
370
    60
100
AcDbLine
 10
218.7131322856298
 20
56.65654000000001
 30
0.0
 11
218.9165632856297
 21
56.68227400000001
 31
0.0
  0
LINE
  5
286
330
1F
100
AcDbEntity
  8
2
 62
     7
370
    60
100
AcDbLine
 10
218.9165632856297
 20
56.68227400000001
 30
0.0
 11
218.9541302856298
 21
56.696777
 31
0.0
  0
LINE
  5
287
330
1F
100
AcDbEntity
  8
2
 62
     7
370
    60
100
AcDbLine
 10
218.9541302856298
 20
56.696777
 30
0.0
 11
218.9459512856298
 21
56.71149400000001
 31
0.0
  0
LINE
  5
288
330
1F
100
AcDbEntity
  8
2
 62
     7
370
    60
100
AcDbLine
 10
334.9459362856297
 20
377.55661
 30
0.0
 11
334.9527412856297
 21
377.560638
 31
0.0
  0
LINE
  5
289
330
1F
100
AcDbEntity
  8
2
 62
     7
370
    60
100
AcDbLine
 10
334.9527412856297
 20
377.560638
 30
0.0
 11
334.9548162856297
 21
377.5625920000001
 31
0.0
  0
LINE
  5
28A
330
1F
100
AcDbEntity
  8
2
 62
     7
370
    60
100
AcDbLine
 10
334.9548162856297
 20
377.5625920000001
 30
0.0
 11
334.9561292856298
 21
377.564697
 31
0.0
  0
LINE
  5
28B
330
1F
100
AcDbEntity
  8
2
 62
     7
370
    60
100
AcDbLine
 10
334.9561292856298
 20
377.564697
 30
0.0
 11
334.9564642856299
 21
377.565918
 31
0.0
  0
LINE
  5
28C
330
1F
100
AcDbEntity
  8
2
 62
     7
370
    60
100
AcDbLine
 10
334.9564642856299
 20
377.565918
 30
0.0
 11
334.9564802856297
 21
377.5672
 31
0.0
  0
LINE
  5
28D
330
1F
100
AcDbEntity
  8
2
 62
     7
370
    60
100
AcDbLine
 10
334.9564802856297
 20
377.5672
 30
0.0
 11
334.9561442856298
 21
377.568451
 31
0.0
  0
LINE
  5
28E
330
1F
100
AcDbEntity
  8
2
 62
     7
370
    60
100
AcDbLine
 10
334.9561442856298
 20
377.568451
 30
0.0
 11
334.9545722856298
 21
377.570862
 31
0.0
  0
LINE
  5
28F
330
1F
100
AcDbEntity
  8
2
 62
     7
370
    60
100
AcDbLine
 10
334.9545722856298
 20
377.570862
 30
0.0
 11
334.9489722856298
 21
377.5750430000001
 31
0.0
  0
LINE
  5
290
330
1F
100
AcDbEntity
  8
2
 62
     7
370
    60
100
AcDbLine
 10
334.9489722856298
 20
377.5750430000001
 30
0.0
 11
334.8953992856298
 21
377.590271
 31
0.0
  0
LINE
  5
291
330
1F
100
AcDbEntity
  8
2
 62
     7
370
    60
100
AcDbLine
 10
334.8953992856298
 20
377.590271
 30
0.0
 11
334.5012952856298
 21
377.6242980000001
 31
0.0
  0
LINE
  5
292
330
1F
100
AcDbEntity
  8
2
 62
     7
370
    60
100
AcDbLine
 10
334.5012952856298
 20
377.6242980000001
 30
0.0
 11
333.9565102856299
 21
377.635406
 31
0.0
  0
LINE
  5
293
330
1F
100
AcDbEntity
  8
2
 62
     7
370
    60
100
AcDbLine
 10
305.9459512856298
 20
377.55661
 30
0.0
 11
305.9527412856297
 21
377.560638
 31
0.0
  0
LINE
  5
294
330
1F
100
AcDbEntity
  8
2
 62
     7
370
    60
100
AcDbLine
 10
305.9527412856297
 20
377.560638
 30
0.0
 11
305.9548162856297
 21
377.5625920000001
 31
0.0
  0
LINE
  5
295
330
1F
100
AcDbEntity
  8
2
 62
     7
370
    60
100
AcDbLine
 10
305.9548162856297
 20
377.5625920000001
 30
0.0
 11
305.9561292856298
 21
377.564697
 31
0.0
  0
LINE
  5
296
330
1F
100
AcDbEntity
  8
2
 62
     7
370
    60
100
AcDbLine
 10
305.9561292856298
 20
377.564697
 30
0.0
 11
305.9564642856299
 21
377.565918
 31
0.0
  0
LINE
  5
297
330
1F
100
AcDbEntity
  8
2
 62
     7
370
    60
100
AcDbLine
 10
305.9564642856299
 20
377.565918
 30
0.0
 11
305.9564802856297
 21
377.5672
 31
0.0
  0
LINE
  5
298
330
1F
100
AcDbEntity
  8
2
 62
     7
370
    60
100
AcDbLine
 10
305.9564802856297
 20
377.5672
 30
0.0
 11
305.9561442856298
 21
377.568451
 31
0.0
  0
LINE
  5
299
330
1F
100
AcDbEntity
  8
2
 62
     7
370
    60
100
AcDbLine
 10
305.9561442856298
 20
377.568451
 30
0.0
 11
305.9545722856298
 21
377.570862
 31
0.0
  0
LINE
  5
29A
330
1F
100
AcDbEntity
  8
2
 62
     7
370
    60
100
AcDbLine
 10
305.9545722856298
 20
377.570862
 30
0.0
 11
305.9489722856298
 21
377.5750430000001
 31
0.0
  0
LINE
  5
29B
330
1F
100
AcDbEntity
  8
2
 62
     7
370
    60
100
AcDbLine
 10
305.9489722856298
 20
377.5750430000001
 30
0.0
 11
305.8953992856298
 21
377.590271
 31
0.0
  0
LINE
  5
29C
330
1F
100
AcDbEntity
  8
2
 62
     7
370
    60
100
AcDbLine
 10
305.8953992856298
 20
377.590271
 30
0.0
 11
305.5012952856298
 21
377.6242980000001
 31
0.0
  0
LINE
  5
29D
330
1F
100
AcDbEntity
  8
2
 62
     7
370
    60
100
AcDbLine
 10
305.5012952856298
 20
377.6242980000001
 30
0.0
 11
304.9565102856299
 21
377.635406
 31
0.0
  0
LINE
  5
29E
330
1F
100
AcDbEntity
  8
2
 62
     7
370
    60
100
AcDbLine
 10
276.9459512856298
 20
377.55661
 30
0.0
 11
276.9527412856297
 21
377.560638
 31
0.0
  0
LINE
  5
29F
330
1F
100
AcDbEntity
  8
2
 62
     7
370
    60
100
AcDbLine
 10
276.9527412856297
 20
377.560638
 30
0.0
 11
276.9548162856297
 21
377.5625920000001
 31
0.0
  0
LINE
  5
2A0
330
1F
100
AcDbEntity
  8
2
 62
     7
370
    60
100
AcDbLine
 10
276.9548162856297
 20
377.5625920000001
 30
0.0
 11
276.9561292856298
 21
377.564697
 31
0.0
  0
LINE
  5
2A1
330
1F
100
AcDbEntity
  8
2
 62
     7
370
    60
100
AcDbLine
 10
276.9561292856298
 20
377.564697
 30
0.0
 11
276.9564642856299
 21
377.565918
 31
0.0
  0
LINE
  5
2A2
330
1F
100
AcDbEntity
  8
2
 62
     7
370
    60
100
AcDbLine
 10
276.9564642856299
 20
377.565918
 30
0.0
 11
276.9564802856297
 21
377.5672
 31
0.0
  0
LINE
  5
2A3
330
1F
100
AcDbEntity
  8
2
 62
     7
370
    60
100
AcDbLine
 10
276.9564802856297
 20
377.5672
 30
0.0
 11
276.9561442856298
 21
377.568451
 31
0.0
  0
LINE
  5
2A4
330
1F
100
AcDbEntity
  8
2
 62
     7
370
    60
100
AcDbLine
 10
276.9561442856298
 20
377.568451
 30
0.0
 11
276.9545722856298
 21
377.570862
 31
0.0
  0
LINE
  5
2A5
330
1F
100
AcDbEntity
  8
2
 62
     7
370
    60
100
AcDbLine
 10
276.9545722856298
 20
377.570862
 30
0.0
 11
276.9489722856298
 21
377.5750430000001
 31
0.0
  0
LINE
  5
2A6
330
1F
100
AcDbEntity
  8
2
 62
     7
370
    60
100
AcDbLine
 10
276.9489722856298
 20
377.5750430000001
 30
0.0
 11
276.8953992856298
 21
377.590271
 31
0.0
  0
LINE
  5
2A7
330
1F
100
AcDbEntity
  8
2
 62
     7
370
    60
100
AcDbLine
 10
276.8953992856298
 20
377.590271
 30
0.0
 11
276.5012952856298
 21
377.6242980000001
 31
0.0
  0
LINE
  5
2A8
330
1F
100
AcDbEntity
  8
2
 62
     7
370
    60
100
AcDbLine
 10
276.5012952856298
 20
377.6242980000001
 30
0.0
 11
275.9565102856299
 21
377.635406
 31
0.0
  0
LINE
  5
2A9
330
1F
100
AcDbEntity
  8
2
 62
     7
370
    60
100
AcDbLine
 10
304.9565102856299
 20
86.432312
 30
0.0
 11
305.6619092856298
 21
86.45240000000001
 31
0.0
  0
LINE
  5
2AA
330
1F
100
AcDbEntity
  8
2
 62
     7
370
    60
100
AcDbLine
 10
305.6619092856298
 20
86.45240000000001
 30
0.0
 11
305.8790112856298
 21
86.47465500000001
 31
0.0
  0
LINE
  5
2AB
330
1F
100
AcDbEntity
  8
2
 62
     7
370
    60
100
AcDbLine
 10
305.8790112856298
 20
86.47465500000001
 30
0.0
 11
305.9564952856297
 21
86.500946
 31
0.0
  0
LINE
  5
2AC
330
1F
100
AcDbEntity
  8
2
 62
     7
370
    60
100
AcDbLine
 10
303.9565252856297
 20
86.500946
 30
0.0
 11
303.9567852856298
 21
86.499672
 31
0.0
  0
LINE
  5
2AD
330
1F
100
AcDbEntity
  8
2
 62
     7
370
    60
100
AcDbLine
 10
303.9567852856298
 20
86.499672
 30
0.0
 11
303.9582502856298
 21
86.49721500000001
 31
0.0
  0
LINE
  5
2AE
330
1F
100
AcDbEntity
  8
2
 62
     7
370
    60
100
AcDbLine
 10
303.9582502856298
 20
86.49721500000001
 30
0.0
 11
303.9637282856297
 21
86.49300400000001
 31
0.0
  0
LINE
  5
2AF
330
1F
100
AcDbEntity
  8
2
 62
     7
370
    60
100
AcDbLine
 10
303.9637282856297
 20
86.49300400000001
 30
0.0
 11
304.0164772856297
 21
86.47776000000002
 31
0.0
  0
LINE
  5
2B0
330
1F
100
AcDbEntity
  8
2
 62
     7
370
    60
100
AcDbLine
 10
304.0164772856297
 20
86.47776000000002
 30
0.0
 11
304.4061102856297
 21
86.443703
 31
0.0
  0
LINE
  5
2B1
330
1F
100
AcDbEntity
  8
2
 62
     7
370
    60
100
AcDbLine
 10
304.4061102856297
 20
86.443703
 30
0.0
 11
304.9565102856299
 21
86.432312
 31
0.0
  0
LINE
  5
2B2
330
1F
100
AcDbEntity
  8
2
 62
     7
370
    60
100
AcDbLine
 10
332.9565252856297
 20
86.500946
 30
0.0
 11
332.9567852856298
 21
86.499672
 31
0.0
  0
LINE
  5
2B3
330
1F
100
AcDbEntity
  8
2
 62
     7
370
    60
100
AcDbLine
 10
332.9567852856298
 20
86.499672
 30
0.0
 11
332.9582502856298
 21
86.49721500000001
 31
0.0
  0
LINE
  5
2B4
330
1F
100
AcDbEntity
  8
2
 62
     7
370
    60
100
AcDbLine
 10
332.9582502856298
 20
86.49721500000001
 30
0.0
 11
332.9637282856297
 21
86.49300400000001
 31
0.0
  0
LINE
  5
2B5
330
1F
100
AcDbEntity
  8
2
 62
     7
370
    60
100
AcDbLine
 10
332.9637282856297
 20
86.49300400000001
 30
0.0
 11
333.0164772856297
 21
86.47776000000002
 31
0.0
  0
LINE
  5
2B6
330
1F
100
AcDbEntity
  8
2
 62
     7
370
    60
100
AcDbLine
 10
333.0164772856297
 20
86.47776000000002
 30
0.0
 11
333.4061102856297
 21
86.443703
 31
0.0
  0
LINE
  5
2B7
330
1F
100
AcDbEntity
  8
2
 62
     7
370
    60
100
AcDbLine
 10
333.4061102856297
 20
86.443703
 30
0.0
 11
333.9565102856299
 21
86.432312
 31
0.0
  0
LINE
  5
2B8
330
1F
100
AcDbEntity
  8
2
 62
     7
370
    60
100
AcDbLine
 10
333.9565102856299
 20
86.432312
 30
0.0
 11
334.6619092856298
 21
86.45240000000001
 31
0.0
  0
LINE
  5
2B9
330
1F
100
AcDbEntity
  8
2
 62
     7
370
    60
100
AcDbLine
 10
334.6619092856298
 20
86.45240000000001
 30
0.0
 11
334.8790112856298
 21
86.47465500000001
 31
0.0
  0
LINE
  5
2BA
330
1F
100
AcDbEntity
  8
2
 62
     7
370
    60
100
AcDbLine
 10
334.8790112856298
 20
86.47465500000001
 30
0.0
 11
334.9564952856297
 21
86.500946
 31
0.0
  0
LINE
  5
2BB
330
1F
100
AcDbEntity
  8
2
 62
     7
370
    60
100
AcDbLine
 10
274.9565252856297
 20
86.500946
 30
0.0
 11
274.9567852856298
 21
86.499672
 31
0.0
  0
LINE
  5
2BC
330
1F
100
AcDbEntity
  8
2
 62
     7
370
    60
100
AcDbLine
 10
274.9567852856298
 20
86.499672
 30
0.0
 11
274.9582502856298
 21
86.49721500000001
 31
0.0
  0
LINE
  5
2BD
330
1F
100
AcDbEntity
  8
2
 62
     7
370
    60
100
AcDbLine
 10
274.9582502856298
 20
86.49721500000001
 30
0.0
 11
274.9637282856297
 21
86.49300400000001
 31
0.0
  0
LINE
  5
2BE
330
1F
100
AcDbEntity
  8
2
 62
     7
370
    60
100
AcDbLine
 10
274.9637282856297
 20
86.49300400000001
 30
0.0
 11
275.0164772856297
 21
86.47776000000002
 31
0.0
  0
LINE
  5
2BF
330
1F
100
AcDbEntity
  8
2
 62
     7
370
    60
100
AcDbLine
 10
275.0164772856297
 20
86.47776000000002
 30
0.0
 11
275.4061102856297
 21
86.443703
 31
0.0
  0
LINE
  5
2C0
330
1F
100
AcDbEntity
  8
2
 62
     7
370
    60
100
AcDbLine
 10
275.4061102856297
 20
86.443703
 30
0.0
 11
275.9565102856299
 21
86.432312
 31
0.0
  0
LINE
  5
2C1
330
1F
100
AcDbEntity
  8
2
 62
     7
370
    60
100
AcDbLine
 10
275.9565102856299
 20
86.432312
 30
0.0
 11
276.6619092856298
 21
86.45240000000001
 31
0.0
  0
LINE
  5
2C2
330
1F
100
AcDbEntity
  8
2
 62
     7
370
    60
100
AcDbLine
 10
276.6619092856298
 20
86.45240000000001
 30
0.0
 11
276.8790112856298
 21
86.47465500000001
 31
0.0
  0
LINE
  5
2C3
330
1F
100
AcDbEntity
  8
2
 62
     7
370
    60
100
AcDbLine
 10
276.8790112856298
 20
86.47465500000001
 30
0.0
 11
276.9564952856297
 21
86.500946
 31
0.0
  0
LINE
  5
2C4
330
1F
100
AcDbEntity
  8
2
 62
     7
370
    60
100
AcDbLine
 10
303.9670692856298
 20
56.71149400000001
 30
0.0
 11
303.9602792856297
 21
56.70748900000001
 31
0.0
  0
LINE
  5
2C5
330
1F
100
AcDbEntity
  8
2
 62
     7
370
    60
100
AcDbLine
 10
303.9602792856297
 20
56.70748900000001
 30
0.0
 11
303.9582042856298
 21
56.70552800000001
 31
0.0
  0
LINE
  5
2C6
330
1F
100
AcDbEntity
  8
2
 62
     7
370
    60
100
AcDbLine
 10
303.9582042856298
 20
56.70552800000001
 30
0.0
 11
303.9568922856298
 21
56.70341500000001
 31
0.0
  0
LINE
  5
2C7
330
1F
100
AcDbEntity
  8
2
 62
     7
370
    60
100
AcDbLine
 10
303.9568922856298
 20
56.70341500000001
 30
0.0
 11
303.9565562856299
 21
56.70220200000001
 31
0.0
  0
LINE
  5
2C8
330
1F
100
AcDbEntity
  8
2
 62
     7
370
    60
100
AcDbLine
 10
303.9565562856299
 20
56.70220200000001
 30
0.0
 11
303.9565412856297
 21
56.70093500000001
 31
0.0
  0
LINE
  5
2C9
330
1F
100
AcDbEntity
  8
2
 62
     7
370
    60
100
AcDbLine
 10
303.9565412856297
 20
56.70093500000001
 30
0.0
 11
303.9568762856298
 21
56.69966100000002
 31
0.0
  0
LINE
  5
2CA
330
1F
100
AcDbEntity
  8
2
 62
     7
370
    60
100
AcDbLine
 10
303.9568762856298
 20
56.69966100000002
 30
0.0
 11
303.9584482856299
 21
56.69724300000001
 31
0.0
  0
LINE
  5
2CB
330
1F
100
AcDbEntity
  8
2
 62
     7
370
    60
100
AcDbLine
 10
303.9584482856299
 20
56.69724300000001
 30
0.0
 11
303.9640482856298
 21
56.69308500000001
 31
0.0
  0
LINE
  5
2CC
330
1F
100
AcDbEntity
  8
2
 62
     7
370
    60
100
AcDbLine
 10
303.9640482856298
 20
56.69308500000001
 30
0.0
 11
304.0176222856297
 21
56.67784100000001
 31
0.0
  0
LINE
  5
2CD
330
1F
100
AcDbEntity
  8
2
 62
     7
370
    60
100
AcDbLine
 10
304.0176222856297
 20
56.67784100000001
 30
0.0
 11
304.4117262856298
 21
56.64382900000001
 31
0.0
  0
LINE
  5
2CE
330
1F
100
AcDbEntity
  8
2
 62
     7
370
    60
100
AcDbLine
 10
304.4117262856298
 20
56.64382900000001
 30
0.0
 11
304.9565102856299
 21
56.63272100000001
 31
0.0
  0
LINE
  5
2CF
330
1F
100
AcDbEntity
  8
2
 62
     7
370
    60
100
AcDbLine
 10
332.9670842856297
 20
56.71149400000001
 30
0.0
 11
332.9602792856297
 21
56.70748900000001
 31
0.0
  0
LINE
  5
2D0
330
1F
100
AcDbEntity
  8
2
 62
     7
370
    60
100
AcDbLine
 10
332.9602792856297
 20
56.70748900000001
 30
0.0
 11
332.9582042856298
 21
56.70552800000001
 31
0.0
  0
LINE
  5
2D1
330
1F
100
AcDbEntity
  8
2
 62
     7
370
    60
100
AcDbLine
 10
332.9582042856298
 20
56.70552800000001
 30
0.0
 11
332.9568922856298
 21
56.70341500000001
 31
0.0
  0
LINE
  5
2D2
330
1F
100
AcDbEntity
  8
2
 62
     7
370
    60
100
AcDbLine
 10
332.9568922856298
 20
56.70341500000001
 30
0.0
 11
332.9565562856299
 21
56.70220200000001
 31
0.0
  0
LINE
  5
2D3
330
1F
100
AcDbEntity
  8
2
 62
     7
370
    60
100
AcDbLine
 10
332.9565562856299
 20
56.70220200000001
 30
0.0
 11
332.9565412856297
 21
56.70093500000001
 31
0.0
  0
LINE
  5
2D4
330
1F
100
AcDbEntity
  8
2
 62
     7
370
    60
100
AcDbLine
 10
332.9565412856297
 20
56.70093500000001
 30
0.0
 11
332.9568762856298
 21
56.69966100000002
 31
0.0
  0
LINE
  5
2D5
330
1F
100
AcDbEntity
  8
2
 62
     7
370
    60
100
AcDbLine
 10
332.9568762856298
 20
56.69966100000002
 30
0.0
 11
332.9584482856299
 21
56.69724300000001
 31
0.0
  0
LINE
  5
2D6
330
1F
100
AcDbEntity
  8
2
 62
     7
370
    60
100
AcDbLine
 10
332.9584482856299
 20
56.69724300000001
 30
0.0
 11
332.9640482856298
 21
56.69308500000001
 31
0.0
  0
LINE
  5
2D7
330
1F
100
AcDbEntity
  8
2
 62
     7
370
    60
100
AcDbLine
 10
332.9640482856298
 20
56.69308500000001
 30
0.0
 11
333.0176222856297
 21
56.67784100000001
 31
0.0
  0
LINE
  5
2D8
330
1F
100
AcDbEntity
  8
2
 62
     7
370
    60
100
AcDbLine
 10
333.0176222856297
 20
56.67784100000001
 30
0.0
 11
333.4117262856298
 21
56.64382900000001
 31
0.0
  0
LINE
  5
2D9
330
1F
100
AcDbEntity
  8
2
 62
     7
370
    60
100
AcDbLine
 10
333.4117262856298
 20
56.64382900000001
 30
0.0
 11
333.9565102856299
 21
56.63272100000001
 31
0.0
  0
LINE
  5
2DA
330
1F
100
AcDbEntity
  8
2
 62
     7
370
    60
100
AcDbLine
 10
274.9670692856298
 20
56.71149400000001
 30
0.0
 11
274.9602792856297
 21
56.70748900000001
 31
0.0
  0
LINE
  5
2DB
330
1F
100
AcDbEntity
  8
2
 62
     7
370
    60
100
AcDbLine
 10
274.9602792856297
 20
56.70748900000001
 30
0.0
 11
274.9582042856298
 21
56.70552800000001
 31
0.0
  0
LINE
  5
2DC
330
1F
100
AcDbEntity
  8
2
 62
     7
370
    60
100
AcDbLine
 10
274.9582042856298
 20
56.70552800000001
 30
0.0
 11
274.9568922856298
 21
56.70341500000001
 31
0.0
  0
LINE
  5
2DD
330
1F
100
AcDbEntity
  8
2
 62
     7
370
    60
100
AcDbLine
 10
274.9568922856298
 20
56.70341500000001
 30
0.0
 11
274.9565562856299
 21
56.70220200000001
 31
0.0
  0
LINE
  5
2DE
330
1F
100
AcDbEntity
  8
2
 62
     7
370
    60
100
AcDbLine
 10
274.9565562856299
 20
56.70220200000001
 30
0.0
 11
274.9565412856297
 21
56.70093500000001
 31
0.0
  0
LINE
  5
2DF
330
1F
100
AcDbEntity
  8
2
 62
     7
370
    60
100
AcDbLine
 10
274.9565412856297
 20
56.70093500000001
 30
0.0
 11
274.9568762856298
 21
56.69966100000002
 31
0.0
  0
LINE
  5
2E0
330
1F
100
AcDbEntity
  8
2
 62
     7
370
    60
100
AcDbLine
 10
274.9568762856298
 20
56.69966100000002
 30
0.0
 11
274.9584482856299
 21
56.69724300000001
 31
0.0
  0
LINE
  5
2E1
330
1F
100
AcDbEntity
  8
2
 62
     7
370
    60
100
AcDbLine
 10
274.9584482856299
 20
56.69724300000001
 30
0.0
 11
274.9640632856297
 21
56.69308500000001
 31
0.0
  0
LINE
  5
2E2
330
1F
100
AcDbEntity
  8
2
 62
     7
370
    60
100
AcDbLine
 10
274.9640632856297
 20
56.69308500000001
 30
0.0
 11
275.0176222856297
 21
56.67784100000001
 31
0.0
  0
LINE
  5
2E3
330
1F
100
AcDbEntity
  8
2
 62
     7
370
    60
100
AcDbLine
 10
275.0176222856297
 20
56.67784100000001
 30
0.0
 11
275.4117262856298
 21
56.64382900000001
 31
0.0
  0
LINE
  5
2E4
330
1F
100
AcDbEntity
  8
2
 62
     7
370
    60
100
AcDbLine
 10
275.4117262856298
 20
56.64382900000001
 30
0.0
 11
275.9565102856299
 21
56.63272100000001
 31
0.0
  0
LINE
  5
2E5
330
1F
100
AcDbEntity
  8
2
 62
     7
370
    60
100
AcDbLine
 10
247.9459512856298
 20
377.55661
 30
0.0
 11
247.9527412856297
 21
377.560638
 31
0.0
  0
LINE
  5
2E6
330
1F
100
AcDbEntity
  8
2
 62
     7
370
    60
100
AcDbLine
 10
247.9527412856297
 20
377.560638
 30
0.0
 11
247.9548162856297
 21
377.5625920000001
 31
0.0
  0
LINE
  5
2E7
330
1F
100
AcDbEntity
  8
2
 62
     7
370
    60
100
AcDbLine
 10
247.9548162856297
 20
377.5625920000001
 30
0.0
 11
247.9561292856298
 21
377.564697
 31
0.0
  0
LINE
  5
2E8
330
1F
100
AcDbEntity
  8
2
 62
     7
370
    60
100
AcDbLine
 10
247.9561292856298
 20
377.564697
 30
0.0
 11
247.9564642856298
 21
377.565918
 31
0.0
  0
LINE
  5
2E9
330
1F
100
AcDbEntity
  8
2
 62
     7
370
    60
100
AcDbLine
 10
247.9564642856298
 20
377.565918
 30
0.0
 11
247.9564802856297
 21
377.5672
 31
0.0
  0
LINE
  5
2EA
330
1F
100
AcDbEntity
  8
2
 62
     7
370
    60
100
AcDbLine
 10
247.9564802856297
 20
377.5672
 30
0.0
 11
247.9561442856297
 21
377.568451
 31
0.0
  0
LINE
  5
2EB
330
1F
100
AcDbEntity
  8
2
 62
     7
370
    60
100
AcDbLine
 10
247.9561442856297
 20
377.568451
 30
0.0
 11
247.9545722856298
 21
377.570862
 31
0.0
  0
LINE
  5
2EC
330
1F
100
AcDbEntity
  8
2
 62
     7
370
    60
100
AcDbLine
 10
247.9545722856298
 20
377.570862
 30
0.0
 11
247.9489572856297
 21
377.5750430000001
 31
0.0
  0
LINE
  5
2ED
330
1F
100
AcDbEntity
  8
2
 62
     7
370
    60
100
AcDbLine
 10
247.9489572856297
 20
377.5750430000001
 30
0.0
 11
247.8953992856297
 21
377.590271
 31
0.0
  0
LINE
  5
2EE
330
1F
100
AcDbEntity
  8
2
 62
     7
370
    60
100
AcDbLine
 10
247.8953992856297
 20
377.590271
 30
0.0
 11
247.5012952856298
 21
377.6242980000001
 31
0.0
  0
LINE
  5
2EF
330
1F
100
AcDbEntity
  8
2
 62
     7
370
    60
100
AcDbLine
 10
247.5012952856298
 20
377.6242980000001
 30
0.0
 11
246.9565102856298
 21
377.635406
 31
0.0
  0
LINE
  5
2F0
330
1F
100
AcDbEntity
  8
2
 62
     7
370
    60
100
AcDbLine
 10
245.9670692856298
 20
56.71149400000001
 30
0.0
 11
245.9602792856297
 21
56.70748900000001
 31
0.0
  0
LINE
  5
2F1
330
1F
100
AcDbEntity
  8
2
 62
     7
370
    60
100
AcDbLine
 10
245.9602792856297
 20
56.70748900000001
 30
0.0
 11
245.9582042856298
 21
56.70552800000001
 31
0.0
  0
LINE
  5
2F2
330
1F
100
AcDbEntity
  8
2
 62
     7
370
    60
100
AcDbLine
 10
245.9582042856298
 20
56.70552800000001
 30
0.0
 11
245.9568922856298
 21
56.70341500000001
 31
0.0
  0
LINE
  5
2F3
330
1F
100
AcDbEntity
  8
2
 62
     7
370
    60
100
AcDbLine
 10
245.9568922856298
 20
56.70341500000001
 30
0.0
 11
245.9565562856298
 21
56.70220200000001
 31
0.0
  0
LINE
  5
2F4
330
1F
100
AcDbEntity
  8
2
 62
     7
370
    60
100
AcDbLine
 10
245.9565562856298
 20
56.70220200000001
 30
0.0
 11
245.9565412856297
 21
56.70093500000001
 31
0.0
  0
LINE
  5
2F5
330
1F
100
AcDbEntity
  8
2
 62
     7
370
    60
100
AcDbLine
 10
245.9565412856297
 20
56.70093500000001
 30
0.0
 11
245.9568762856298
 21
56.69966100000002
 31
0.0
  0
LINE
  5
2F6
330
1F
100
AcDbEntity
  8
2
 62
     7
370
    60
100
AcDbLine
 10
245.9568762856298
 20
56.69966100000002
 30
0.0
 11
245.9584482856298
 21
56.69724300000001
 31
0.0
  0
LINE
  5
2F7
330
1F
100
AcDbEntity
  8
2
 62
     7
370
    60
100
AcDbLine
 10
245.9584482856298
 20
56.69724300000001
 30
0.0
 11
245.9640632856297
 21
56.69308500000001
 31
0.0
  0
LINE
  5
2F8
330
1F
100
AcDbEntity
  8
2
 62
     7
370
    60
100
AcDbLine
 10
245.9640632856297
 20
56.69308500000001
 30
0.0
 11
246.0176222856297
 21
56.67784100000001
 31
0.0
  0
LINE
  5
2F9
330
1F
100
AcDbEntity
  8
2
 62
     7
370
    60
100
AcDbLine
 10
246.0176222856297
 20
56.67784100000001
 30
0.0
 11
246.4117262856298
 21
56.64382900000001
 31
0.0
  0
LINE
  5
2FA
330
1F
100
AcDbEntity
  8
2
 62
     7
370
    60
100
AcDbLine
 10
246.4117262856298
 20
56.64382900000001
 30
0.0
 11
246.9565102856298
 21
56.63272100000001
 31
0.0
  0
LINE
  5
2FB
330
1F
100
AcDbEntity
  8
2
 62
     7
370
    60
100
AcDbLine
 10
245.9565252856297
 20
86.500946
 30
0.0
 11
245.9567852856298
 21
86.499672
 31
0.0
  0
LINE
  5
2FC
330
1F
100
AcDbEntity
  8
2
 62
     7
370
    60
100
AcDbLine
 10
245.9567852856298
 20
86.499672
 30
0.0
 11
245.9582502856298
 21
86.49721500000001
 31
0.0
  0
LINE
  5
2FD
330
1F
100
AcDbEntity
  8
2
 62
     7
370
    60
100
AcDbLine
 10
245.9582502856298
 20
86.49721500000001
 30
0.0
 11
245.9637282856297
 21
86.49300400000001
 31
0.0
  0
LINE
  5
2FE
330
1F
100
AcDbEntity
  8
2
 62
     7
370
    60
100
AcDbLine
 10
245.9637282856297
 20
86.49300400000001
 30
0.0
 11
246.0164772856297
 21
86.47776000000002
 31
0.0
  0
LINE
  5
2FF
330
1F
100
AcDbEntity
  8
2
 62
     7
370
    60
100
AcDbLine
 10
246.0164772856297
 20
86.47776000000002
 30
0.0
 11
246.4060952856297
 21
86.443703
 31
0.0
  0
LINE
  5
300
330
1F
100
AcDbEntity
  8
2
 62
     7
370
    60
100
AcDbLine
 10
246.4060952856297
 20
86.443703
 30
0.0
 11
246.9565102856298
 21
86.432312
 31
0.0
  0
LINE
  5
301
330
1F
100
AcDbEntity
  8
2
 62
     7
370
    60
100
AcDbLine
 10
246.9565102856298
 20
86.432312
 30
0.0
 11
247.6619092856298
 21
86.45240000000001
 31
0.0
  0
LINE
  5
302
330
1F
100
AcDbEntity
  8
2
 62
     7
370
    60
100
AcDbLine
 10
247.6619092856298
 20
86.45240000000001
 30
0.0
 11
247.8790112856298
 21
86.47465500000001
 31
0.0
  0
LINE
  5
303
330
1F
100
AcDbEntity
  8
2
 62
     7
370
    60
100
AcDbLine
 10
247.8790112856298
 20
86.47465500000001
 30
0.0
 11
247.9564952856297
 21
86.500946
 31
0.0
  0
DIMENSION
  5
304
330
1F
100
AcDbEntity
  8
0
370
    25
100
AcDbDimension
  2
*D3
 10
363.9565102856299
 20
408.4758883017898
 30
0.0
 11
246.9565102856298
 21
420.4758883017898
 31
0.0
 70
    32
 71
     5
 41
2.5
 42
234.0000000000001
  3
Standard
100
AcDbAlignedDimension
 13
129.9565102856297
 23
304.0000000000001
 33
0.0
 14
363.9565102856299
 24
304.0000000000001
 34
0.0
100
AcDbRotatedDimension
1001
ACAD
1000
DSTYLE
1002
{
1070
   171
1070
     3
1070
   143
1040
0.03937
1070
   274
1070
     3
1070
    41
1040
10.0
1070
   289
1070
     0
1070
   141
1040
2.5
1070
   176
1070
     7
1070
   177
1070
     7
1070
   271
1070
     2
1070
    43
1040
3.75
1070
   278
1070
    44
1070
    44
1040
1.25
1070
    42
1040
0.625
1070
   147
1040
5.0
1070
    77
1070
     1
1070
   272
1070
     2
1070
    73
1070
     0
1070
   172
1070
     1
1070
    74
1070
     0
1070
   283
1070
     0
1070
   140
1040
14.0
1070
   284
1070
     8
1070
    78
1070
     8
1002
}
  0
DIMENSION
  5
305
330
1F
100
AcDbEntity
  8
0
370
    25
100
AcDbDimension
  2
*D4
 10
397.9281090644489
 20
56.5
 30
0.0
 11
385.9281090644489
 21
217.0
 31
0.0
 70
    32
 71
     5
 41
2.5
 42
321.0000000000001
  3
Standard
100
AcDbAlignedDimension
 13
285.3287914185086
 23
377.5000000000001
 33
0.0
 14
285.3287914185086
 24
56.50000000000001
 34
0.0
 50
90.0
100
AcDbRotatedDimension
1001
ACAD
1000
DSTYLE
1002
{
1070
   171
1070
     3
1070
   143
1040
0.03937
1070
   274
1070
     3
1070
    41
1040
10.0
1070
   289
1070
     0
1070
   141
1040
2.5
1070
   176
1070
     7
1070
   177
1070
     7
1070
   271
1070
     2
1070
    43
1040
3.75
1070
   278
1070
    44
1070
    44
1040
1.25
1070
    42
1040
0.625
1070
   147
1040
5.0
1070
    77
1070
     1
1070
   272
1070
     2
1070
    73
1070
     0
1070
   172
1070
     1
1070
    74
1070
     0
1070
   283
1070
     0
1070
   140
1040
14.0
1070
   284
1070
     8
1070
    78
1070
     8
1002
}
  0
LINE
  5
306
330
1F
100
AcDbEntity
  8
2
 62
     7
370
    60
100
AcDbLine
 10
216.9565102856298
 20
347.568878
 30
0.0
 11
216.9717542856298
 21
377.566589
 31
0.0
  0
LINE
  5
307
330
1F
100
AcDbEntity
  8
2
 62
     7
370
    60
100
AcDbLine
 10
189.9412672856297
 20
377.566589
 30
0.0
 11
189.9565102856297
 21
347.568878
 31
0.0
  0
ARC
  5
308
330
1F
100
AcDbEntity
  8
2
 62
     7
370
    60
100
AcDbCircle
 10
148.9565102856297
 20
358.5000000000001
 30
0.0
 40
18.97492800000001
100
AcDbArc
 50
96.00000199999995
 51
173.9999979999999
  0
LINE
  5
309
330
1F
100
AcDbEntity
  8
2
 62
     7
370
    60
100
AcDbLine
 10
160.9565102856297
 20
346.5000000000001
 30
0.0
 11
187.9565102856297
 21
346.5000000000001
 31
0.0
  0
LINE
  5
30A
330
1F
100
AcDbEntity
  8
2
 62
     7
370
    60
100
AcDbLine
 10
129.9565102856297
 20
346.5000000000001
 30
0.0
 11
158.9565102856297
 21
346.5000000000001
 31
0.0
  0
LINE
  5
30B
330
1F
100
AcDbEntity
  8
2
 62
     7
370
    60
100
AcDbLine
 10
218.9565102856298
 20
261.5
 30
0.0
 11
245.9565102856298
 21
261.5
 31
0.0
  0
LINE
  5
30C
330
1F
100
AcDbEntity
  8
2
 62
     7
370
    60
100
AcDbLine
 10
129.9565102856297
 20
261.5
 30
0.0
 11
158.9565102856297
 21
261.5
 31
0.0
  0
LINE
  5
30D
330
1F
100
AcDbEntity
  8
2
 62
     7
370
    60
100
AcDbLine
 10
189.9565102856297
 20
261.5
 30
0.0
 11
216.9565102856298
 21
261.5
 31
0.0
  0
LINE
  5
30E
330
1F
100
AcDbEntity
  8
2
 62
     7
370
    60
100
AcDbLine
 10
160.9565102856297
 20
261.5
 30
0.0
 11
187.9565102856297
 21
261.5
 31
0.0
  0
LINE
  5
30F
330
1F
100
AcDbEntity
  8
2
 62
     7
370
    60
100
AcDbLine
 10
160.9565102856297
 20
174.5
 30
0.0
 11
187.9565102856297
 21
174.5
 31
0.0
  0
LINE
  5
310
330
1F
100
AcDbEntity
  8
2
 62
     7
370
    60
100
AcDbLine
 10
218.9565102856298
 20
143.5
 30
0.0
 11
245.9565102856298
 21
143.5
 31
0.0
  0
LINE
  5
311
330
1F
100
AcDbEntity
  8
2
 62
     7
370
    60
100
AcDbLine
 10
189.9565102856297
 20
145.5
 30
0.0
 11
216.9565102856298
 21
145.5
 31
0.0
  0
LINE
  5
312
330
1F
100
AcDbEntity
  8
2
 62
     7
370
    60
100
AcDbLine
 10
129.9565102856297
 20
145.5
 30
0.0
 11
158.9565102856297
 21
145.5
 31
0.0
  0
LINE
  5
313
330
1F
100
AcDbEntity
  8
2
 62
     7
370
    60
100
AcDbLine
 10
160.9565102856297
 20
145.5
 30
0.0
 11
187.9565102856297
 21
145.5
 31
0.0
  0
LINE
  5
314
330
1F
100
AcDbEntity
  8
2
 62
     7
370
    60
100
AcDbLine
 10
218.9565102856298
 20
145.5
 30
0.0
 11
245.9565102856298
 21
145.5
 31
0.0
  0
LINE
  5
315
330
1F
100
AcDbEntity
  8
2
 62
     7
370
    60
100
AcDbLine
 10
160.9565102856297
 20
317.5000000000001
 30
0.0
 11
187.9565102856297
 21
317.5000000000001
 31
0.0
  0
LINE
  5
316
330
1F
100
AcDbEntity
  8
2
 62
     7
370
    60
100
AcDbLine
 10
189.9565102856297
 20
317.5000000000001
 30
0.0
 11
216.9565102856298
 21
317.5000000000001
 31
0.0
  0
LINE
  5
317
330
1F
100
AcDbEntity
  8
2
 62
     7
370
    60
100
AcDbLine
 10
129.9565102856297
 20
317.5000000000001
 30
0.0
 11
158.9565102856297
 21
317.5000000000001
 31
0.0
  0
LINE
  5
318
330
1F
100
AcDbEntity
  8
2
 62
     7
370
    60
100
AcDbLine
 10
218.9565102856298
 20
317.5000000000001
 30
0.0
 11
245.9565102856298
 21
317.5000000000001
 31
0.0
  0
LINE
  5
319
330
1F
100
AcDbEntity
  8
2
 62
     7
370
    60
100
AcDbLine
 10
218.9565102856298
 20
319.5000000000001
 30
0.0
 11
245.9565102856298
 21
319.5000000000001
 31
0.0
  0
LINE
  5
31A
330
1F
100
AcDbEntity
  8
2
 62
     7
370
    60
100
AcDbLine
 10
189.9565102856297
 20
319.5000000000001
 30
0.0
 11
216.9565102856298
 21
319.5000000000001
 31
0.0
  0
LINE
  5
31B
330
1F
100
AcDbEntity
  8
2
 62
     7
370
    60
100
AcDbLine
 10
160.9565102856297
 20
319.5000000000001
 30
0.0
 11
187.9565102856297
 21
319.5000000000001
 31
0.0
  0
LINE
  5
31C
330
1F
100
AcDbEntity
  8
2
 62
     7
370
    60
100
AcDbLine
 10
129.9565102856297
 20
319.5000000000001
 30
0.0
 11
158.9565102856297
 21
319.5000000000001
 31
0.0
  0
LINE
  5
31D
330
1F
100
AcDbEntity
  8
2
 62
     7
370
    60
100
AcDbLine
 10
160.9565102856297
 20
230.5
 30
0.0
 11
187.9565102856297
 21
230.5
 31
0.0
  0
LINE
  5
31E
330
1F
100
AcDbEntity
  8
2
 62
     7
370
    60
100
AcDbLine
 10
218.9565102856298
 20
230.5
 30
0.0
 11
245.9565102856298
 21
230.5
 31
0.0
  0
LINE
  5
31F
330
1F
100
AcDbEntity
  8
2
 62
     7
370
    60
100
AcDbLine
 10
189.9565102856297
 20
230.5
 30
0.0
 11
216.9565102856298
 21
230.5
 31
0.0
  0
LINE
  5
320
330
1F
100
AcDbEntity
  8
2
 62
     7
370
    60
100
AcDbLine
 10
129.9565102856297
 20
230.5
 30
0.0
 11
158.9565102856297
 21
230.5
 31
0.0
  0
LINE
  5
321
330
1F
100
AcDbEntity
  8
2
 62
     7
370
    60
100
AcDbLine
 10
218.9565102856298
 20
232.5
 30
0.0
 11
245.9565102856298
 21
232.5
 31
0.0
  0
LINE
  5
322
330
1F
100
AcDbEntity
  8
2
 62
     7
370
    60
100
AcDbLine
 10
189.9565102856297
 20
232.5
 30
0.0
 11
216.9565102856298
 21
232.5
 31
0.0
  0
LINE
  5
323
330
1F
100
AcDbEntity
  8
2
 62
     7
370
    60
100
AcDbLine
 10
160.9565102856297
 20
232.5
 30
0.0
 11
187.9565102856297
 21
232.5
 31
0.0
  0
LINE
  5
324
330
1F
100
AcDbEntity
  8
2
 62
     7
370
    60
100
AcDbLine
 10
129.9565102856297
 20
232.5
 30
0.0
 11
158.9565102856297
 21
232.5
 31
0.0
  0
LINE
  5
325
330
1F
100
AcDbEntity
  8
2
 62
     7
 48
0.05
370
    60
100
AcDbLine
 10
129.9565102856297
 20
143.5
 30
0.0
 11
129.9565102856297
 21
145.5
 31
0.0
  0
LINE
  5
326
330
1F
100
AcDbEntity
  8
2
 62
     7
 48
0.05
370
    60
100
AcDbLine
 10
129.9565102856297
 20
346.5000000000001
 30
0.0
 11
129.9565102856297
 21
348.5000000000001
 31
0.0
  0
LINE
  5
327
330
1F
100
AcDbEntity
  8
2
 62
     7
 48
0.05
370
    60
100
AcDbLine
 10
129.9565102856297
 20
172.5
 30
0.0
 11
129.9565102856297
 21
174.5
 31
0.0
  0
LINE
  5
328
330
1F
100
AcDbEntity
  8
2
 62
     7
 48
0.05
370
    60
100
AcDbLine
 10
129.9565102856297
 20
201.5
 30
0.0
 11
129.9565102856297
 21
203.5
 31
0.0
  0
LINE
  5
329
330
1F
100
AcDbEntity
  8
2
 62
     7
 48
0.05
370
    60
100
AcDbLine
 10
129.9565102856297
 20
230.5
 30
0.0
 11
129.9565102856297
 21
232.5
 31
0.0
  0
LINE
  5
32A
330
1F
100
AcDbEntity
  8
2
 62
     7
 48
0.05
370
    60
100
AcDbLine
 10
129.9565102856297
 20
259.5
 30
0.0
 11
129.9565102856297
 21
261.5
 31
0.0
  0
LINE
  5
32B
330
1F
100
AcDbEntity
  8
2
 62
     7
 48
0.05
370
    60
100
AcDbLine
 10
129.9565102856297
 20
288.5000000000001
 30
0.0
 11
129.9565102856297
 21
290.5000000000001
 31
0.0
  0
LINE
  5
32C
330
1F
100
AcDbEntity
  8
2
 62
     7
 48
0.05
370
    60
100
AcDbLine
 10
129.9565102856297
 20
317.5000000000001
 30
0.0
 11
129.9565102856297
 21
319.5000000000001
 31
0.0
  0
LINE
  5
32D
330
1F
100
AcDbEntity
  8
2
 62
     7
370
    60
100
AcDbLine
 10
189.9421822856298
 20
58.50000000000001
 30
0.0
 11
216.9708382856297
 21
58.50000000000001
 31
0.0
  0
LINE
  5
32E
330
1F
100
AcDbEntity
  8
2
 62
     7
370
    60
100
AcDbLine
 10
160.9421822856298
 20
58.50000000000001
 30
0.0
 11
187.9708382856297
 21
58.50000000000001
 31
0.0
  0
LINE
  5
32F
330
1F
100
AcDbEntity
  8
2
 62
     7
 48
0.250358
370
    60
100
AcDbLine
 10
148.9565102856297
 20
58.50000000000001
 30
0.0
 11
158.9708382856297
 21
58.50000000000001
 31
0.0
  0
LINE
  5
330
330
1F
100
AcDbEntity
  8
2
 62
     7
370
    60
100
AcDbLine
 10
218.9421822856297
 20
58.50000000000001
 30
0.0
 11
245.9708382856297
 21
58.50000000000001
 31
0.0
  0
LINE
  5
331
330
1F
100
AcDbEntity
  8
2
 62
     7
 48
0.001224
370
    60
100
AcDbLine
 10
131.9075682856298
 20
75.5
 30
0.0
 11
131.9565102856297
 21
75.5
 31
0.0
  0
ARC
  5
332
330
1F
100
AcDbEntity
  8
2
 62
     7
370
    60
100
AcDbCircle
 10
148.9565102856297
 20
75.5
 30
0.0
 40
17.04894299999999
100
AcDbArc
 50
180.000005
 51
270.000001
  0
LINE
  5
333
330
1F
100
AcDbEntity
  8
2
 62
     7
 48
0.001224
370
    60
100
AcDbLine
 10
148.9565102856297
 20
58.45105700000002
 30
0.0
 11
148.9565102856297
 21
58.50000000000001
 31
0.0
  0
LINE
  5
334
330
1F
100
AcDbEntity
  8
2
 62
     7
 48
0.04969
370
    60
100
AcDbLine
 10
129.9565102856297
 20
75.5
 30
0.0
 11
130.0855312856298
 21
73.51657900000001
 31
0.0
  0
VIEWPORT
  5
BB
330
73
100
AcDbEntity
 67
     1
  8
0
100
AcDbViewport
 10
7.8
 20
4.5
 30
0.0
 40
15.64
 41
9.0
 68
     1
 69
     1
 12
6.0
 22
4.5
 13
0.0
 23
0.0
 14
0.5
 24
0.5
 15
0.5
 25
0.5
 16
0.0
 26
0.0
 36
1.0
 17
0.0
 27
0.0
 37
0.0
 42
50.0
 43
0.0
 44
0.0
 45
12.0
 50
0.0
 51
0.0
 72
   100
 90
   557152
  1

281
     0
 71
     1
 74
     0
110
0.0
120
0.0
130
0.0
111
1.0
121
0.0
131
0.0
112
0.0
122
1.0
132
0.0
 79
     0
146
0.0
  0
ENDSEC
  0
SECTION
  2
OBJECTS
  0
DICTIONARY
  5
C
330
0
100
AcDbDictionary
281
     1
  3
ACAD_COLOR
350
6C
  3
ACAD_GROUP
350
D
  3
ACAD_LAYOUT
350
1A
  3
ACAD_MATERIAL
350
6B
  3
ACAD_MLEADERSTYLE
350
371
  3
ACAD_MLINESTYLE
350
17
  3
ACAD_PLOTSETTINGS
350
19
  3
ACAD_PLOTSTYLENAME
350
E
  3
ACAD_SCALELIST
350
99
  3
ACAD_TABLESTYLE
350
92
  3
ACDBHEADERROUNDTRIPXREC
350
372
  3
AcDbVariableDictionary
350
59
  3
DWGPROPS
350
375
  0
DICTIONARY
  5
6C
102
{ACAD_REACTORS
330
C
102
}
330
C
100
AcDbDictionary
281
     1
  0
DICTIONARY
  5
D
102
{ACAD_REACTORS
330
C
102
}
330
C
100
AcDbDictionary
281
     1
  0
DICTIONARY
  5
1A
102
{ACAD_REACTORS
330
C
102
}
330
C
100
AcDbDictionary
281
     1
  3
Layout1
350
74
  3
Layout2
350
365
  3
Model
350
22
  0
DICTIONARY
  5
6B
102
{ACAD_REACTORS
330
C
102
}
330
C
100
AcDbDictionary
281
     1
  0
DICTIONARY
  5
371
102
{ACAD_REACTORS
330
C
102
}
330
C
100
AcDbDictionary
281
     1
  0
DICTIONARY
  5
17
102
{ACAD_REACTORS
330
C
102
}
330
C
100
AcDbDictionary
281
     1
  3
Standard
350
18
  0
DICTIONARY
  5
19
102
{ACAD_REACTORS
330
C
102
}
330
C
100
AcDbDictionary
281
     1
  0
ACDBDICTIONARYWDFLT
  5
E
102
{ACAD_REACTORS
330
C
102
}
330
C
100
AcDbDictionary
281
     1
  3
Normal
350
F
100
AcDbDictionaryWithDefault
340
F
  0
DICTIONARY
  5
99
102
{ACAD_REACTORS
330
C
102
}
330
C
100
AcDbDictionary
281
     1
  3
A0
350
D5
  3
A1
350
D6
  3
A2
350
D7
  3
A3
350
D8
  3
A4
350
D9
  3
A5
350
DA
  3
A6
350
DB
  3
A7
350
DC
  3
A8
350
DD
  3
A9
350
DE
  3
B0
350
DF
  3
B1
350
E0
  3
B2
350
E1
  3
B3
350
E2
  3
B4
350
E3
  3
B5
350
E4
  3
B6
350
E5
  3
B7
350
E6
  3
B8
350
E7
  3
B9
350
E8
  3
C0
350
E9
  3
C1
350
EA
  3
C2
350
EB
  3
C3
350
EC
  3
C4
350
ED
  3
C5
350
EE
  3
C6
350
EF
  3
C7
350
F0
  3
C8
350
F1
  3
C9
350
F2
  3
D0
350
F3
  3
D1
350
F4
  3
D2
350
F5
  0
DICTIONARY
  5
92
102
{ACAD_REACTORS
330
C
102
}
330
C
100
AcDbDictionary
281
     1
  0
DICTIONARY
  5
372
102
{ACAD_REACTORS
330
C
102
}
330
C
100
AcDbDictionary
281
     1
  3
COLORDICT
350
373
  3
MATERIALDICT
350
374
  0
DICTIONARY
  5
59
102
{ACAD_REACTORS
330
C
102
}
330
C
100
AcDbDictionary
281
     1
  3
CTABLESTYLE
350
98
  3
DIMASSOC
350
5A
  3
HIDETEXT
350
5E
  0
XRECORD
  5
375
102
{ACAD_REACTORS
330
C
102
}
330
C
100
AcDbXrecord
280
     1
  1
DWGPROPS COOKIE
  2

  3

  4

  6

  7

  8
BelottiMc
  9

300
=
301
=
302
=
303
=
304
=
305
=
306
=
307
=
308
=
309
=
 40
0.0
 41
2455098.376102245
 42
2455098.4177689
  1

 90
        0
  0
LAYOUT
  5
74
102
{ACAD_REACTORS
330
1A
102
}
330
1A
100
AcDbPlotSettings
  1

  2
ProgeSOFT PDF Wizard
  4
A4
  6

 40
5.926666666666667
 41
6.011333333333317
 42
6.095999999999985
 43
5.926666666666667
 44
210.0
 45
297.0
 46
88.56200000000001
 47
136.531
 48
0.0
 49
0.0
140
0.0
141
0.0
142
1.0
143
1.0
 70
   692
 72
     1
 73
     0
 74
     0
  7

 75
    16
147
1.0
148
4.426666666666668
149
1.5
100
AcDbLayout
  1
Layout1
 70
     1
 71
     1
 10
0.0
 20
0.0
 11
0.0
 21
0.0
 12
0.0
 22
0.0
 32
0.0
 14
0.0
 24
0.0
 34
0.0
 15
0.0
 25
0.0
 35
0.0
146
0.0
 13
0.0
 23
0.0
 33
0.0
 16
1.0
 26
0.0
 36
0.0
 17
0.0
 27
1.0
 37
0.0
 76
     0
330
D1
331
370
1001
PROGE_PRINT_SETTINGS
1070
    73
1070
     1
  0
LAYOUT
  5
365
102
{ACAD_REACTORS
330
1A
102
}
330
1A
100
AcDbPlotSettings
  1

  2
ProgeSOFT PDF Wizard
  4
A4
  6

 40
5.926666666666667
 41
6.011333333333317
 42
6.095999999999985
 43
5.926666666666667
 44
210.0
 45
297.0
 46
88.562
 47
136.531
 48
0.0
 49
0.0
140
0.0
141
0.0
142
1.0
143
1.0
 70
   692
 72
     1
 73
     0
 74
     0
  7

 75
    16
147
1.0
148
0.0
149
0.0
100
AcDbLayout
  1
Layout2
 70
     1
 71
     2
 10
0.0
 20
0.0
 11
12.0
 21
9.0
 12
0.0
 22
0.0
 32
0.0
 14
0.0
 24
0.0
 34
0.0
 15
12.0
 25
9.0
 35
0.0
146
0.0
 13
0.0
 23
0.0
 33
0.0
 16
1.0
 26
0.0
 36
0.0
 17
0.0
 27
1.0
 37
0.0
 76
     0
330
73
331
BB
1001
PROGE_PRINT_SETTINGS
1070
    73
1070
     1
  0
LAYOUT
  5
22
102
{ACAD_REACTORS
330
1A
102
}
330
1A
100
AcDbPlotSettings
  1

  2
none_device
  4
Letter_(8.50_x_11.00_Inches)
  6

 40
6.349999904632568
 41
6.349999904632568
 42
6.350006103515625
 43
6.350006103515625
 44
215.8999938964844
 45
279.3999938964844
 46
0.0
 47
0.0
 48
0.0
 49
0.0
140
0.0
141
0.0
142
1.0
143
3.783612371602354
 70
 11952
 72
     1
 73
     1
 74
     0
  7

 75
     0
147
0.2642976874442615
148
0.1311165230791651
149
0.096403374003771
100
AcDbLayout
  1
Model
 70
     1
 71
     0
 10
0.0
 20
0.0
 11
0.0
 21
0.0
 12
0.0
 22
0.0
 32
0.0
 14
129.9565102856297
 24
49.50000000000001
 34
0.0
 15
399.5947757311156
 25
427.4758883017898
 35
0.0
146
0.0
 13
0.0
 23
0.0
 33
0.0
 16
1.0
 26
0.0
 36
0.0
 17
0.0
 27
1.0
 37
0.0
 76
     0
330
1F
331
97
  0
MLINESTYLE
  5
18
102
{ACAD_REACTORS
330
17
102
}
330
17
100
AcDbMlineStyle
  2
STANDARD
 70
     0
  3

 62
   256
 51
90.0
 52
90.0
 71
     2
 49
0.5
 62
   256
  6
BYLAYER
 49
-0.5
 62
   256
  6
BYLAYER
  0
ACDBPLACEHOLDER
  5
F
102
{ACAD_REACTORS
330
E
102
}
330
E
  0
SCALE
  5
D5
102
{ACAD_REACTORS
330
99
102
}
330
99
100
AcDbScale
 70
     0
300
1:1
140
1.0
141
1.0
290
     1
  0
SCALE
  5
D6
102
{ACAD_REACTORS
330
99
102
}
330
99
100
AcDbScale
 70
     0
300
1:2
140
1.0
141
2.0
290
     0
  0
SCALE
  5
D7
102
{ACAD_REACTORS
330
99
102
}
330
99
100
AcDbScale
 70
     0
300
1:4
140
1.0
141
4.0
290
     0
  0
SCALE
  5
D8
102
{ACAD_REACTORS
330
99
102
}
330
99
100
AcDbScale
 70
     0
300
1:5
140
1.0
141
5.0
290
     0
  0
SCALE
  5
D9
102
{ACAD_REACTORS
330
99
102
}
330
99
100
AcDbScale
 70
     0
300
1:8
140
1.0
141
8.0
290
     0
  0
SCALE
  5
DA
102
{ACAD_REACTORS
330
99
102
}
330
99
100
AcDbScale
 70
     0
300
1:10
140
1.0
141
10.0
290
     0
  0
SCALE
  5
DB
102
{ACAD_REACTORS
330
99
102
}
330
99
100
AcDbScale
 70
     0
300
1:16
140
1.0
141
16.0
290
     0
  0
SCALE
  5
DC
102
{ACAD_REACTORS
330
99
102
}
330
99
100
AcDbScale
 70
     0
300
1:20
140
1.0
141
20.0
290
     0
  0
SCALE
  5
DD
102
{ACAD_REACTORS
330
99
102
}
330
99
100
AcDbScale
 70
     0
300
1:30
140
1.0
141
30.0
290
     0
  0
SCALE
  5
DE
102
{ACAD_REACTORS
330
99
102
}
330
99
100
AcDbScale
 70
     0
300
1:40
140
1.0
141
40.0
290
     0
  0
SCALE
  5
DF
102
{ACAD_REACTORS
330
99
102
}
330
99
100
AcDbScale
 70
     0
300
1:50
140
1.0
141
50.0
290
     0
  0
SCALE
  5
E0
102
{ACAD_REACTORS
330
99
102
}
330
99
100
AcDbScale
 70
     0
300
1:100
140
1.0
141
100.0
290
     0
  0
SCALE
  5
E1
102
{ACAD_REACTORS
330
99
102
}
330
99
100
AcDbScale
 70
     0
300
2:1
140
2.0
141
1.0
290
     0
  0
SCALE
  5
E2
102
{ACAD_REACTORS
330
99
102
}
330
99
100
AcDbScale
 70
     0
300
4:1
140
4.0
141
1.0
290
     0
  0
SCALE
  5
E3
102
{ACAD_REACTORS
330
99
102
}
330
99
100
AcDbScale
 70
     0
300
8:1
140
8.0
141
1.0
290
     0
  0
SCALE
  5
E4
102
{ACAD_REACTORS
330
99
102
}
330
99
100
AcDbScale
 70
     0
300
10:1
140
10.0
141
1.0
290
     0
  0
SCALE
  5
E5
102
{ACAD_REACTORS
330
99
102
}
330
99
100
AcDbScale
 70
     0
300
100:1
140
100.0
141
1.0
290
     0
  0
SCALE
  5
E6
102
{ACAD_REACTORS
330
99
102
}
330
99
100
AcDbScale
 70
     0
300
1/128" = 1'-0"
140
0.0078125
141
12.0
290
     0
  0
SCALE
  5
E7
102
{ACAD_REACTORS
330
99
102
}
330
99
100
AcDbScale
 70
     0
300
1/64" = 1'-0"
140
0.015625
141
12.0
290
     0
  0
SCALE
  5
E8
102
{ACAD_REACTORS
330
99
102
}
330
99
100
AcDbScale
 70
     0
300
1/32" = 1'-0"
140
0.03125
141
12.0
290
     0
  0
SCALE
  5
E9
102
{ACAD_REACTORS
330
99
102
}
330
99
100
AcDbScale
 70
     0
300
1/16" = 1'-0"
140
0.0625
141
12.0
290
     0
  0
SCALE
  5
EA
102
{ACAD_REACTORS
330
99
102
}
330
99
100
AcDbScale
 70
     0
300
3/32" = 1'-0"
140
0.09375
141
12.0
290
     0
  0
SCALE
  5
EB
102
{ACAD_REACTORS
330
99
102
}
330
99
100
AcDbScale
 70
     0
300
1/8" = 1'-0"
140
0.125
141
12.0
290
     0
  0
SCALE
  5
EC
102
{ACAD_REACTORS
330
99
102
}
330
99
100
AcDbScale
 70
     0
300
3/16" = 1'-0"
140
0.1875
141
12.0
290
     0
  0
SCALE
  5
ED
102
{ACAD_REACTORS
330
99
102
}
330
99
100
AcDbScale
 70
     0
300
1/4" = 1'-0"
140
0.25
141
12.0
290
     0
  0
SCALE
  5
EE
102
{ACAD_REACTORS
330
99
102
}
330
99
100
AcDbScale
 70
     0
300
3/8" = 1'-0"
140
0.375
141
12.0
290
     0
  0
SCALE
  5
EF
102
{ACAD_REACTORS
330
99
102
}
330
99
100
AcDbScale
 70
     0
300
1/2" = 1'-0"
140
0.5
141
12.0
290
     0
  0
SCALE
  5
F0
102
{ACAD_REACTORS
330
99
102
}
330
99
100
AcDbScale
 70
     0
300
3/4" = 1'-0"
140
0.75
141
12.0
290
     0
  0
SCALE
  5
F1
102
{ACAD_REACTORS
330
99
102
}
330
99
100
AcDbScale
 70
     0
300
1" = 1'-0"
140
1.0
141
12.0
290
     0
  0
SCALE
  5
F2
102
{ACAD_REACTORS
330
99
102
}
330
99
100
AcDbScale
 70
     0
300
1-1/2" = 1'-0"
140
1.5
141
12.0
290
     0
  0
SCALE
  5
F3
102
{ACAD_REACTORS
330
99
102
}
330
99
100
AcDbScale
 70
     0
300
3" = 1'-0"
140
3.0
141
12.0
290
     0
  0
SCALE
  5
F4
102
{ACAD_REACTORS
330
99
102
}
330
99
100
AcDbScale
 70
     0
300
6" = 1'-0"
140
6.0
141
12.0
290
     0
  0
SCALE
  5
F5
102
{ACAD_REACTORS
330
99
102
}
330
99
100
AcDbScale
 70
     0
300
1'-0" = 1'-0"
140
12.0
141
12.0
290
     0
  0
XRECORD
  5
373
102
{ACAD_REACTORS
330
372
102
}
330
372
100
AcDbXrecord
280
     1
340
6C
  0
XRECORD
  5
374
102
{ACAD_REACTORS
330
372
102
}
330
372
100
AcDbXrecord
280
     1
340
6B
  0
DICTIONARYVAR
  5
98
102
{ACAD_REACTORS
330
59
102
}
330
59
100
DictionaryVariables
280
     0
  1
Standard
  0
DICTIONARYVAR
  5
5A
102
{ACAD_REACTORS
330
59
102
}
330
59
100
DictionaryVariables
280
     0
  1
2
  0
DICTIONARYVAR
  5
5E
102
{ACAD_REACTORS
330
59
102
}
330
59
100
DictionaryVariables
280
     0
  1
1
  0
ENDSEC
  0
EOF
