  0
SECTION
  2
HEADER
  9
$ACADVER
  1
AC1015
  9
$ACADMAINTVER
 70
     6
  9
$DWGCODEPAGE
  3
ANSI_1252
  9
$INSBASE
 10
0.0
 20
0.0
 30
0.0
  9
$EXTMIN
 10
107.012304277046
 20
50.34978540772533
 30
0.0
  9
$EXTMAX
 10
537.3749645744373
 20
433.9326943978354
 30
0.0
  9
$LIMMIN
 10
0.0
 20
0.0
  9
$LIMMAX
 10
0.0
 20
0.0
  9
$ORTHOMODE
 70
     0
  9
$REGENMODE
 70
     1
  9
$FILLMODE
 70
     1
  9
$QTEXTMODE
 70
     0
  9
$MIRRTEXT
 70
     0
  9
$LTSCALE
 40
1.0
  9
$ATTMODE
 70
     1
  9
$TEXTSIZE
 40
2.5
  9
$TRACEWID
 40
1.0
  9
$TEXTSTYLE
  7
Standard
  9
$CLAYER
  8
0
  9
$CELTYPE
  6
ByLayer
  9
$CECOLOR
 62
   256
  9
$CELTSCALE
 40
1.0
  9
$DISPSILH
 70
     0
  9
$DIMSCALE
 40
1.0
  9
$DIMASZ
 40
2.5
  9
$DIMEXO
 40
0.625
  9
$DIMDLI
 40
3.75
  9
$DIMRND
 40
0.0
  9
$DIMDLE
 40
0.0
  9
$DIMEXE
 40
1.25
  9
$DIMTP
 40
0.0
  9
$DIMTM
 40
0.0
  9
$DIMTXT
 40
2.5
  9
$DIMCEN
 40
2.5
  9
$DIMTSZ
 40
0.0
  9
$DIMTOL
 70
     0
  9
$DIMLIM
 70
     0
  9
$DIMTIH
 70
     0
  9
$DIMTOH
 70
     0
  9
$DIMSE1
 70
     0
  9
$DIMSE2
 70
     0
  9
$DIMTAD
 70
     1
  9
$DIMZIN
 70
     8
  9
$DIMBLK
  1

  9
$DIMASO
 70
     1
  9
$DIMSHO
 70
     1
  9
$DIMPOST
  1

  9
$DIMAPOST
  1

  9
$DIMALT
 70
     0
  9
$DIMALTD
 70
     3
  9
$DIMALTF
 40
0.03937007874016
  9
$DIMLFAC
 40
1.0
  9
$DIMTOFL
 70
     1
  9
$DIMTVP
 40
0.0
  9
$DIMTIX
 70
     0
  9
$DIMSOXD
 70
     0
  9
$DIMSAH
 70
     0
  9
$DIMBLK1
  1

  9
$DIMBLK2
  1

  9
$DIMSTYLE
  2
ISO-25
  9
$DIMCLRD
 70
     0
  9
$DIMCLRE
 70
     0
  9
$DIMCLRT
 70
     0
  9
$DIMTFAC
 40
1.0
  9
$DIMGAP
 40
0.625
  9
$DIMJUST
 70
     0
  9
$DIMSD1
 70
     0
  9
$DIMSD2
 70
     0
  9
$DIMTOLJ
 70
     0
  9
$DIMTZIN
 70
     8
  9
$DIMALTZ
 70
     0
  9
$DIMALTTZ
 70
     0
  9
$DIMUPT
 70
     0
  9
$DIMDEC
 70
     2
  9
$DIMTDEC
 70
     2
  9
$DIMALTU
 70
     2
  9
$DIMALTTD
 70
     3
  9
$DIMTXSTY
  7
Standard
  9
$DIMAUNIT
 70
     0
  9
$DIMADEC
 70
     0
  9
$DIMALTRND
 40
0.0
  9
$DIMAZIN
 70
     0
  9
$DIMDSEP
 70
    44
  9
$DIMATFIT
 70
     3
  9
$DIMFRAC
 70
     0
  9
$DIMLDRBLK
  1

  9
$DIMLUNIT
 70
     2
  9
$DIMLWD
 70
    -2
  9
$DIMLWE
 70
    -2
  9
$DIMTMOVE
 70
     0
  9
$LUNITS
 70
     2
  9
$LUPREC
 70
     4
  9
$SKETCHINC
 40
1.0
  9
$FILLETRAD
 40
0.0
  9
$AUNITS
 70
     0
  9
$AUPREC
 70
     0
  9
$MENU
  1
.
  9
$ELEVATION
 40
0.0
  9
$PELEVATION
 40
0.0
  9
$THICKNESS
 40
0.0
  9
$LIMCHECK
 70
     0
  9
$CHAMFERA
 40
0.0
  9
$CHAMFERB
 40
0.0
  9
$CHAMFERC
 40
0.0
  9
$CHAMFERD
 40
0.0
  9
$SKPOLY
 70
     0
  9
$TDCREATE
 40
2455098.454516169
  9
$TDUCREATE
 40
2455098.371182836
  9
$TDUPDATE
 40
2455098.496182824
  9
$TDUUPDATE
 40
2455098.412849491
  9
$TDINDWG
 40
0.030930787
  9
$TDUSRTIMER
 40
0.0309284144
  9
$USRTIMER
 70
     1
  9
$ANGBASE
 50
0.0
  9
$ANGDIR
 70
     0
  9
$PDMODE
 70
     0
  9
$PDSIZE
 40
0.0
  9
$PLINEWID
 40
0.0
  9
$SPLFRAME
 70
     0
  9
$SPLINETYPE
 70
     6
  9
$SPLINESEGS
 70
     8
  9
$HANDSEED
  5
203
  9
$SURFTAB1
 70
     6
  9
$SURFTAB2
 70
     6
  9
$SURFTYPE
 70
     6
  9
$SURFU
 70
     6
  9
$SURFV
 70
     6
  9
$UCSBASE
  2

  9
$UCSNAME
  2

  9
$UCSORG
 10
0.0
 20
0.0
 30
0.0
  9
$UCSXDIR
 10
1.0
 20
0.0
 30
0.0
  9
$UCSYDIR
 10
0.0
 20
1.0
 30
0.0
  9
$UCSORTHOREF
  2

  9
$UCSORTHOVIEW
 70
     0
  9
$UCSORGTOP
 10
0.0
 20
0.0
 30
0.0
  9
$UCSORGBOTTOM
 10
0.0
 20
0.0
 30
0.0
  9
$UCSORGLEFT
 10
0.0
 20
0.0
 30
0.0
  9
$UCSORGRIGHT
 10
0.0
 20
0.0
 30
0.0
  9
$UCSORGFRONT
 10
0.0
 20
0.0
 30
0.0
  9
$UCSORGBACK
 10
0.0
 20
0.0
 30
0.0
  9
$PUCSBASE
  2

  9
$PUCSNAME
  2

  9
$PUCSORG
 10
0.0
 20
0.0
 30
0.0
  9
$PUCSXDIR
 10
1.0
 20
0.0
 30
0.0
  9
$PUCSYDIR
 10
0.0
 20
1.0
 30
0.0
  9
$PUCSORTHOREF
  2

  9
$PUCSORTHOVIEW
 70
     0
  9
$PUCSORGTOP
 10
0.0
 20
0.0
 30
0.0
  9
$PUCSORGBOTTOM
 10
0.0
 20
0.0
 30
0.0
  9
$PUCSORGLEFT
 10
0.0
 20
0.0
 30
0.0
  9
$PUCSORGRIGHT
 10
0.0
 20
0.0
 30
0.0
  9
$PUCSORGFRONT
 10
0.0
 20
0.0
 30
0.0
  9
$PUCSORGBACK
 10
0.0
 20
0.0
 30
0.0
  9
$USERI1
 70
     0
  9
$USERI2
 70
     0
  9
$USERI3
 70
     0
  9
$USERI4
 70
     0
  9
$USERI5
 70
     0
  9
$USERR1
 40
0.0
  9
$USERR2
 40
0.0
  9
$USERR3
 40
0.0
  9
$USERR4
 40
0.0
  9
$USERR5
 40
0.0
  9
$WORLDVIEW
 70
     1
  9
$SHADEDGE
 70
     3
  9
$SHADEDIF
 70
    70
  9
$TILEMODE
 70
     1
  9
$MAXACTVP
 70
    64
  9
$PINSBASE
 10
0.0
 20
0.0
 30
0.0
  9
$PLIMCHECK
 70
     0
  9
$PEXTMIN
 10
0.0
 20
0.0
 30
0.0
  9
$PEXTMAX
 10
12.0
 20
9.0
 30
0.0
  9
$PLIMMIN
 10
0.0
 20
0.0
  9
$PLIMMAX
 10
12.0
 20
9.0
  9
$UNITMODE
 70
     0
  9
$VISRETAIN
 70
     1
  9
$PLINEGEN
 70
     0
  9
$PSLTSCALE
 70
     1
  9
$TREEDEPTH
 70
  3020
  9
$CMLSTYLE
  2
Standard
  9
$CMLJUST
 70
     0
  9
$CMLSCALE
 40
20.0
  9
$PROXYGRAPHICS
 70
     1
  9
$MEASUREMENT
 70
     1
  9
$CELWEIGHT
370
    -1
  9
$ENDCAPS
280
     0
  9
$JOINSTYLE
280
     0
  9
$LWDISPLAY
290
     0
  9
$INSUNITS
 70
     4
  9
$HYPERLINKBASE
  1

  9
$STYLESHEET
  1

  9
$XEDIT
290
     1
  9
$CEPSNTYPE
380
     0
  9
$PSTYLEMODE
290
     1
  9
$FINGERPRINTGUID
  2
{5559452E-1E62-4159-8551-BF76FFF3E7E8}
  9
$VERSIONGUID
  2
{3CEB9EF8-4431-4551-B596-6734A9F966A9}
  9
$EXTNAMES
290
     1
  9
$PSVPSCALE
 40
0.0
  9
$OLESTARTUP
290
     0
  0
ENDSEC
  0
SECTION
  2
CLASSES
  0
CLASS
  1
ACDBDICTIONARYWDFLT
  2
AcDbDictionaryWithDefault
  3
ObjectDBX Classes
 90
        0
280
     0
281
     0
  0
CLASS
  1
ACDBPLACEHOLDER
  2
AcDbPlaceHolder
  3
ObjectDBX Classes
 90
        0
280
     0
281
     0
  0
CLASS
  1
LAYOUT
  2
AcDbLayout
  3
ObjectDBX Classes
 90
        0
280
     0
281
     0
  0
CLASS
  1
DICTIONARYVAR
  2
AcDbDictionaryVar
  3
ObjectDBX Classes
 90
        0
280
     0
281
     0
  0
CLASS
  1
TABLESTYLE
  2
AcDbTableStyle
  3
ObjectDBX Classes
 90
     4095
280
     0
281
     0
  0
CLASS
  1
SCALE
  2
AcDbScale
  3
ObjectDBX Classes
 90
     1153
280
     0
281
     0
  0
ENDSEC
  0
SECTION
  2
TABLES
  0
TABLE
  2
VPORT
  5
8
330
0
100
AcDbSymbolTable
 70
     2
  0
VPORT
  5
97
330
8
100
AcDbSymbolTableRecord
100
AcDbViewportTableRecord
  2
*Active
 70
     0
 10
0.0
 20
0.0
 11
1.0
 21
1.0
 12
342.1600663861815
 22
160.8825873697118
 13
0.0
 23
0.0
 14
10.0
 24
10.0
 15
10.0
 25
10.0
 16
0.0
 26
0.0
 36
1.0
 17
0.0
 27
0.0
 37
0.0
 40
606.1224489795918
 41
1.664827586206897
 42
50.0
 43
0.0
 44
0.0
 50
0.0
 51
0.0
 71
     0
 72
  1000
 73
     1
 74
     3
 75
     0
 76
     0
 77
     0
 78
     0
281
     0
 65
     1
110
0.0
120
0.0
130
0.0
111
1.0
121
0.0
131
0.0
112
0.0
122
1.0
132
0.0
 79
     0
146
0.0
  0
ENDTAB
  0
TABLE
  2
LTYPE
  5
5
330
0
100
AcDbSymbolTable
 70
     1
  0
LTYPE
  5
14
330
5
100
AcDbSymbolTableRecord
100
AcDbLinetypeTableRecord
  2
ByBlock
 70
     0
  3

 72
    65
 73
     0
 40
0.0
  0
LTYPE
  5
15
330
5
100
AcDbSymbolTableRecord
100
AcDbLinetypeTableRecord
  2
ByLayer
 70
     0
  3

 72
    65
 73
     0
 40
0.0
  0
LTYPE
  5
16
330
5
100
AcDbSymbolTableRecord
100
AcDbLinetypeTableRecord
  2
Continuous
 70
     0
  3
Solid line
 72
    65
 73
     0
 40
0.0
  0
ENDTAB
  0
TABLE
  2
LAYER
  5
2
330
0
100
AcDbSymbolTable
 70
     2
  0
LAYER
  5
10
330
2
100
AcDbSymbolTableRecord
100
AcDbLayerTableRecord
  2
0
 70
     0
 62
     7
  6
Continuous
370
    -3
390
F
  0
LAYER
  5
18A
330
2
100
AcDbSymbolTableRecord
100
AcDbLayerTableRecord
  2
DEFPOINTS
 70
     0
 62
     7
  6
Continuous
290
     0
370
    -3
390
F
  0
ENDTAB
  0
TABLE
  2
STYLE
  5
3
330
0
100
AcDbSymbolTable
 70
     1
  0
STYLE
  5
11
330
3
100
AcDbSymbolTableRecord
100
AcDbTextStyleTableRecord
  2
Standard
 70
     0
 40
0.0
 41
1.0
 50
0.0
 71
     0
 42
2.5
  3
txt
  4

  0
ENDTAB
  0
TABLE
  2
VIEW
  5
6
330
0
100
AcDbSymbolTable
 70
     0
  0
ENDTAB
  0
TABLE
  2
UCS
  5
7
330
0
100
AcDbSymbolTable
 70
     0
  0
ENDTAB
  0
TABLE
  2
APPID
  5
9
330
0
100
AcDbSymbolTable
 70
     2
  0
APPID
  5
12
330
9
100
AcDbSymbolTableRecord
100
AcDbRegAppTableRecord
  2
ACAD
 70
     0
  0
APPID
  5
1E8
330
9
100
AcDbSymbolTableRecord
100
AcDbRegAppTableRecord
  2
PROGE_PRINT_SETTINGS
 70
     0
  0
ENDTAB
  0
TABLE
  2
DIMSTYLE
  5
A
330
0
100
AcDbSymbolTable
 70
     2
100
AcDbDimStyleTable
  0
DIMSTYLE
105
27
102
{ACAD_REACTORS
330
16F
330
170
330
171
330
172
102
}
330
A
100
AcDbSymbolTableRecord
100
AcDbDimStyleTableRecord
  2
Standard
 70
     0
278
     0
340
11
  0
DIMSTYLE
105
29
330
A
100
AcDbSymbolTableRecord
100
AcDbDimStyleTableRecord
  2
ISO-25
 70
     0
 41
2.5
 42
0.625
 43
3.75
 44
1.25
 73
     0
 74
     0
 77
     1
 78
     8
140
2.5
141
2.5
143
0.03937007874016
147
0.625
171
     3
172
     1
271
     2
272
     2
274
     3
278
    44
283
     0
284
     8
340
11
  0
ENDTAB
  0
TABLE
  2
BLOCK_RECORD
  5
1
330
0
100
AcDbSymbolTable
 70
     9
  0
BLOCK_RECORD
  5
1F
330
1
100
AcDbSymbolTableRecord
100
AcDbBlockTableRecord
  2
*Model_Space
340
22
  0
BLOCK_RECORD
  5
73
330
1
100
AcDbSymbolTableRecord
100
AcDbBlockTableRecord
  2
*Paper_Space
340
1EA
  0
BLOCK_RECORD
  5
D1
330
1
100
AcDbSymbolTableRecord
100
AcDbBlockTableRecord
  2
*Paper_Space0
340
74
  0
BLOCK_RECORD
  5
195
330
1
100
AcDbSymbolTableRecord
100
AcDbBlockTableRecord
  2
*D1
340
0
  0
BLOCK_RECORD
  5
1A2
330
1
100
AcDbSymbolTableRecord
100
AcDbBlockTableRecord
  2
*D2
340
0
  0
BLOCK_RECORD
  5
1AD
330
1
100
AcDbSymbolTableRecord
100
AcDbBlockTableRecord
  2
*D3
340
0
  0
BLOCK_RECORD
  5
1B8
330
1
100
AcDbSymbolTableRecord
100
AcDbBlockTableRecord
  2
*D4
340
0
  0
BLOCK_RECORD
  5
1C3
330
1
100
AcDbSymbolTableRecord
100
AcDbBlockTableRecord
  2
*D5
340
0
  0
BLOCK_RECORD
  5
1CE
330
1
100
AcDbSymbolTableRecord
100
AcDbBlockTableRecord
  2
*D6
340
0
  0
BLOCK_RECORD
  5
1DB
330
1
100
AcDbSymbolTableRecord
100
AcDbBlockTableRecord
  2
*D7
340
0
  0
BLOCK_RECORD
  5
1E6
330
1
100
AcDbSymbolTableRecord
100
AcDbBlockTableRecord
  2
*D8
340
0
  0
ENDTAB
  0
ENDSEC
  0
SECTION
  2
BLOCKS
  0
BLOCK
  5
20
330
1F
100
AcDbEntity
  8
0
100
AcDbBlockBegin
  2
*Model_Space
 70
     0
 10
0.0
 20
0.0
 30
0.0
  3
*Model_Space
  1

  0
ENDBLK
  5
21
330
1F
100
AcDbEntity
  8
0
100
AcDbBlockEnd
  0
BLOCK
  5
75
330
73
100
AcDbEntity
 67
     1
  8
0
100
AcDbBlockBegin
  2
*Paper_Space
 70
     0
 10
0.0
 20
0.0
 30
0.0
  3
*Paper_Space
  1

  0
ENDBLK
  5
76
330
73
100
AcDbEntity
 67
     1
  8
0
100
AcDbBlockEnd
  0
BLOCK
  5
1EB
330
D1
100
AcDbEntity
  8
0
100
AcDbBlockBegin
  2
*Paper_Space0
 70
     0
 10
0.0
 20
0.0
 30
0.0
  3
*Paper_Space0
  1

  0
VIEWPORT
  5
1FD
330
D1
100
AcDbEntity
  8
0
100
AcDbViewport
 10
7.8
 20
4.5
 30
0.0
 40
15.64
 41
9.0
 68
     1
 69
     1
 12
6.0
 22
4.5
 13
0.0
 23
0.0
 14
0.5
 24
0.5
 15
0.5
 25
0.5
 16
0.0
 26
0.0
 36
1.0
 17
0.0
 27
0.0
 37
0.0
 42
50.0
 43
0.0
 44
0.0
 45
12.0
 50
0.0
 51
0.0
 72
   100
 90
   557152
  1

281
     0
 71
     1
 74
     0
110
0.0
120
0.0
130
0.0
111
1.0
121
0.0
131
0.0
112
0.0
122
1.0
132
0.0
 79
     0
146
0.0
  0
ENDBLK
  5
1EC
330
D1
100
AcDbEntity
  8
0
100
AcDbBlockEnd
  0
BLOCK
  5
1ED
330
195
100
AcDbEntity
  8
0
100
AcDbBlockBegin
  2
*D1
 70
     1
 10
0.0
 20
0.0
 30
0.0
  3
*D1
  1

  0
POINT
  5
18C
330
195
100
AcDbEntity
  8
DEFPOINTS
  6
ByBlock
 62
     7
380
     1
100
AcDbPoint
 10
510.8996406860252
 20
392.8906926351931
 30
0.0
  0
POINT
  5
18D
330
195
100
AcDbEntity
  8
DEFPOINTS
  6
ByBlock
 62
     7
380
     1
100
AcDbPoint
 10
510.8996406860252
 20
186.3906996351931
 30
0.0
  0
LINE
  5
18E
330
195
100
AcDbEntity
  8
0
  6
ByBlock
 62
     7
370
    -2
380
     1
100
AcDbLine
 10
510.2746406860252
 20
392.8906926351931
 30
0.0
 11
451.2901208714958
 21
392.8906926351931
 31
0.0
  0
LINE
  5
18F
330
195
100
AcDbEntity
  8
0
  6
ByBlock
 62
     7
370
    -2
380
     1
100
AcDbLine
 10
510.2746406860252
 20
186.3906996351931
 30
0.0
 11
451.2901208714958
 21
186.3906996351931
 31
0.0
  0
LINE
  5
190
330
195
100
AcDbEntity
  8
0
  6
ByBlock
 62
     7
370
    -2
380
     1
100
AcDbLine
 10
452.5401208714958
 20
382.8906926351931
 30
0.0
 11
452.5401208714958
 21
196.3906996351931
 31
0.0
  0
SOLID
  5
191
330
195
100
AcDbEntity
  8
0
  6
ByBlock
 62
     7
380
     1
100
AcDbTrace
 10
452.5401208714958
 20
392.8906926351931
 30
0.0
 11
450.8734542048291
 21
382.8906926351931
 31
0.0
 12
454.2067875381625
 22
382.8906926351931
 32
0.0
 13
454.2067875381625
 23
382.8906926351931
 33
0.0
  0
SOLID
  5
192
330
195
100
AcDbEntity
  8
0
  6
ByBlock
 62
     7
380
     1
100
AcDbTrace
 10
452.5401208714958
 20
186.3906996351931
 30
0.0
 11
450.8734542048291
 21
196.3906996351931
 31
0.0
 12
454.2067875381625
 22
196.3906996351931
 32
0.0
 13
454.2067875381625
 23
196.3906996351931
 33
0.0
  0
MTEXT
  5
193
330
195
100
AcDbEntity
  8
0
  6
ByBlock
 62
     0
370
    -2
380
     1
100
AcDbMText
 10
439.3734542048292
 20
289.6406961351931
 30
0.0
 40
14.0
 41
0.0
 71
     5
 72
     1
  1
\A1;206,5
 11
6.123031769111886E-17
 21
1.0
 31
0.0
 73
     1
 44
1.0
  0
ENDBLK
  5
1EE
330
195
100
AcDbEntity
  8
0
100
AcDbBlockEnd
  0
BLOCK
  5
1EF
330
1A2
100
AcDbEntity
  8
0
100
AcDbBlockBegin
  2
*D2
 70
     1
 10
0.0
 20
0.0
 30
0.0
  3
*D2
  1

  0
POINT
  5
197
330
1A2
100
AcDbEntity
  8
DEFPOINTS
  6
ByBlock
 62
     7
380
     1
100
AcDbPoint
 10
479.9427495284932
 20
280.3543679746454
 30
0.0
  0
POINT
  5
198
330
1A2
100
AcDbEntity
  8
DEFPOINTS
  6
ByBlock
 62
     7
380
     1
100
AcDbPoint
 10
516.8996426860252
 20
280.3543679746454
 30
0.0
  0
LINE
  5
199
330
1A2
100
AcDbEntity
  8
0
  6
ByBlock
 62
     7
370
    -2
380
     1
100
AcDbLine
 10
479.9427495284932
 20
280.9793679746454
 30
0.0
 11
479.9427495284932
 21
430.2041536253032
 31
0.0
  0
LINE
  5
19A
330
1A2
100
AcDbEntity
  8
0
  6
ByBlock
 62
     7
370
    -2
380
     1
100
AcDbLine
 10
516.8996426860252
 20
280.9793679746454
 30
0.0
 11
516.8996426860252
 21
430.2041536253032
 31
0.0
  0
LINE
  5
19B
330
1A2
100
AcDbEntity
  8
0
  6
ByBlock
 62
     7
370
    -2
380
     1
100
AcDbLine
 10
469.9427495284932
 20
428.9541536253032
 30
0.0
 11
459.9427495284932
 21
428.9541536253032
 31
0.0
  0
LINE
  5
19C
330
1A2
100
AcDbEntity
  8
0
  6
ByBlock
 62
     7
370
    -2
380
     1
100
AcDbLine
 10
526.8996426860252
 20
428.9541536253032
 30
0.0
 11
536.8996426860252
 21
428.9541536253032
 31
0.0
  0
SOLID
  5
19D
330
1A2
100
AcDbEntity
  8
0
  6
ByBlock
 62
     7
380
     1
100
AcDbTrace
 10
479.9427495284932
 20
428.9541536253032
 30
0.0
 11
469.9427495284932
 21
427.2874869586366
 31
0.0
 12
469.9427495284932
 22
430.6208202919698
 32
0.0
 13
469.9427495284932
 23
430.6208202919698
 33
0.0
  0
SOLID
  5
19E
330
1A2
100
AcDbEntity
  8
0
  6
ByBlock
 62
     7
380
     1
100
AcDbTrace
 10
516.8996426860252
 20
428.9541536253032
 30
0.0
 11
526.8996426860252
 21
427.2874869586366
 31
0.0
 12
526.8996426860252
 22
430.6208202919698
 32
0.0
 13
526.8996426860252
 23
430.6208202919698
 33
0.0
  0
LINE
  5
19F
330
1A2
100
AcDbEntity
  8
0
  6
ByBlock
 62
     7
370
    -2
380
     1
100
AcDbLine
 10
479.9427495284932
 20
428.9541536253032
 30
0.0
 11
516.8996426860252
 21
428.9541536253032
 31
0.0
  0
MTEXT
  5
1A0
330
1A2
100
AcDbEntity
  8
0
  6
ByBlock
 62
     0
370
    -2
380
     1
100
AcDbMText
 10
498.4211961072592
 20
440.9541536253032
 30
0.0
 40
14.0
 41
0.0
 71
     5
 72
     1
  1
37
 73
     1
 44
1.0
  0
ENDBLK
  5
1F0
330
1A2
100
AcDbEntity
  8
0
100
AcDbBlockEnd
  0
BLOCK
  5
1F1
330
1AD
100
AcDbEntity
  8
0
100
AcDbBlockBegin
  2
*D3
 70
     1
 10
0.0
 20
0.0
 30
0.0
  3
*D3
  1

  0
POINT
  5
1A4
330
1AD
100
AcDbEntity
  8
DEFPOINTS
  6
ByBlock
 62
     7
380
     1
100
AcDbPoint
 10
152.3649206860252
 20
346.9527784196187
 30
0.0
  0
POINT
  5
1A5
330
1AD
100
AcDbEntity
  8
DEFPOINTS
  6
ByBlock
 62
     7
380
     1
100
AcDbPoint
 10
382.3649206860252
 20
346.9527784196187
 30
0.0
  0
LINE
  5
1A6
330
1AD
100
AcDbEntity
  8
0
  6
ByBlock
 62
     7
370
    -2
380
     1
100
AcDbLine
 10
152.3649206860252
 20
347.5777784196187
 30
0.0
 11
152.3649206860252
 21
430.2041536253032
 31
0.0
  0
LINE
  5
1A7
330
1AD
100
AcDbEntity
  8
0
  6
ByBlock
 62
     7
370
    -2
380
     1
100
AcDbLine
 10
382.3649206860252
 20
347.5777784196187
 30
0.0
 11
382.3649206860252
 21
430.2041536253032
 31
0.0
  0
LINE
  5
1A8
330
1AD
100
AcDbEntity
  8
0
  6
ByBlock
 62
     7
370
    -2
380
     1
100
AcDbLine
 10
162.3649206860252
 20
428.9541536253032
 30
0.0
 11
372.3649206860252
 21
428.9541536253032
 31
0.0
  0
SOLID
  5
1A9
330
1AD
100
AcDbEntity
  8
0
  6
ByBlock
 62
     7
380
     1
100
AcDbTrace
 10
152.3649206860252
 20
428.9541536253032
 30
0.0
 11
162.3649206860252
 21
427.2874869586365
 31
0.0
 12
162.3649206860252
 22
430.6208202919699
 32
0.0
 13
162.3649206860252
 23
430.6208202919699
 33
0.0
  0
SOLID
  5
1AA
330
1AD
100
AcDbEntity
  8
0
  6
ByBlock
 62
     7
380
     1
100
AcDbTrace
 10
382.3649206860252
 20
428.9541536253032
 30
0.0
 11
372.3649206860252
 21
427.2874869586365
 31
0.0
 12
372.3649206860252
 22
430.6208202919699
 32
0.0
 13
372.3649206860252
 23
430.6208202919699
 33
0.0
  0
MTEXT
  5
1AB
330
1AD
100
AcDbEntity
  8
0
  6
ByBlock
 62
     0
370
    -2
380
     1
100
AcDbMText
 10
267.3649206860252
 20
440.9541536253032
 30
0.0
 40
14.0
 41
0.0
 71
     5
 72
     1
  1
\A1;230
 73
     1
 44
1.0
  0
ENDBLK
  5
1F2
330
1AD
100
AcDbEntity
  8
0
100
AcDbBlockEnd
  0
BLOCK
  5
1F3
330
1B8
100
AcDbEntity
  8
0
100
AcDbBlockBegin
  2
*D4
 70
     1
 10
0.0
 20
0.0
 30
0.0
  3
*D4
  1

  0
POINT
  5
1AF
330
1B8
100
AcDbEntity
  8
DEFPOINTS
  6
ByBlock
 62
     7
380
     1
100
AcDbPoint
 10
158.3649206860252
 20
392.3712376351931
 30
0.0
  0
POINT
  5
1B0
330
1B8
100
AcDbEntity
  8
DEFPOINTS
  6
ByBlock
 62
     7
380
     1
100
AcDbPoint
 10
158.3649206860252
 20
71.37124463519314
 30
0.0
  0
LINE
  5
1B1
330
1B8
100
AcDbEntity
  8
0
  6
ByBlock
 62
     7
370
    -2
380
     1
100
AcDbLine
 10
157.7399206860252
 20
392.3712376351931
 30
0.0
 11
124.286982388634
 21
392.3712376351931
 31
0.0
  0
LINE
  5
1B2
330
1B8
100
AcDbEntity
  8
0
  6
ByBlock
 62
     7
370
    -2
380
     1
100
AcDbLine
 10
157.7399206860252
 20
71.37124463519314
 30
0.0
 11
124.286982388634
 21
71.37124463519314
 31
0.0
  0
LINE
  5
1B3
330
1B8
100
AcDbEntity
  8
0
  6
ByBlock
 62
     7
370
    -2
380
     1
100
AcDbLine
 10
125.536982388634
 20
382.3712376351931
 30
0.0
 11
125.536982388634
 21
81.37124463519314
 31
0.0
  0
SOLID
  5
1B4
330
1B8
100
AcDbEntity
  8
0
  6
ByBlock
 62
     7
380
     1
100
AcDbTrace
 10
125.536982388634
 20
392.3712376351931
 30
0.0
 11
123.8703157219673
 21
382.3712376351931
 31
0.0
 12
127.2036490553007
 22
382.3712376351931
 32
0.0
 13
127.2036490553007
 23
382.3712376351931
 33
0.0
  0
SOLID
  5
1B5
330
1B8
100
AcDbEntity
  8
0
  6
ByBlock
 62
     7
380
     1
100
AcDbTrace
 10
125.536982388634
 20
71.37124463519314
 30
0.0
 11
123.8703157219673
 21
81.37124463519314
 31
0.0
 12
127.2036490553007
 22
81.37124463519314
 32
0.0
 13
127.2036490553007
 23
81.37124463519314
 33
0.0
  0
MTEXT
  5
1B6
330
1B8
100
AcDbEntity
  8
0
  6
ByBlock
 62
     0
370
    -2
380
     1
100
AcDbMText
 10
113.536982388634
 20
231.8712411351931
 30
0.0
 40
14.0
 41
0.0
 71
     5
 72
     1
  1
\A1;321
 11
6.123031769111886E-17
 21
1.0
 31
0.0
 73
     1
 44
1.0
  0
ENDBLK
  5
1F4
330
1B8
100
AcDbEntity
  8
0
100
AcDbBlockEnd
  0
BLOCK
  5
1F5
330
1C3
100
AcDbEntity
  8
0
100
AcDbBlockBegin
  2
*D5
 70
     1
 10
0.0
 20
0.0
 30
0.0
  3
*D5
  1

  0
POINT
  5
1BA
330
1C3
100
AcDbEntity
  8
DEFPOINTS
  6
ByBlock
 62
     7
380
     1
100
AcDbPoint
 10
158.8402425744372
 20
378.3497784077253
 30
0.0
  0
POINT
  5
1BB
330
1C3
100
AcDbEntity
  8
DEFPOINTS
  6
ByBlock
 62
     7
380
     1
100
AcDbPoint
 10
158.8402425744372
 20
57.34978540772533
 30
0.0
  0
LINE
  5
1BC
330
1C3
100
AcDbEntity
  8
0
  6
ByBlock
 62
     7
370
    -2
380
     1
100
AcDbLine
 10
158.2152425744372
 20
378.3497784077253
 30
0.0
 11
124.762304277046
 21
378.3497784077253
 31
0.0
  0
LINE
  5
1BD
330
1C3
100
AcDbEntity
  8
0
  6
ByBlock
 62
     7
370
    -2
380
     1
100
AcDbLine
 10
158.2152425744372
 20
57.34978540772534
 30
0.0
 11
124.762304277046
 21
57.34978540772534
 31
0.0
  0
LINE
  5
1BE
330
1C3
100
AcDbEntity
  8
0
  6
ByBlock
 62
     7
370
    -2
380
     1
100
AcDbLine
 10
126.012304277046
 20
368.3497784077253
 30
0.0
 11
126.012304277046
 21
67.34978540772534
 31
0.0
  0
SOLID
  5
1BF
330
1C3
100
AcDbEntity
  8
0
  6
ByBlock
 62
     7
380
     1
100
AcDbTrace
 10
126.012304277046
 20
378.3497784077253
 30
0.0
 11
124.3456376103794
 21
368.3497784077253
 31
0.0
 12
127.6789709437127
 22
368.3497784077253
 32
0.0
 13
127.6789709437127
 23
368.3497784077253
 33
0.0
  0
SOLID
  5
1C0
330
1C3
100
AcDbEntity
  8
0
  6
ByBlock
 62
     7
380
     1
100
AcDbTrace
 10
126.012304277046
 20
57.34978540772534
 30
0.0
 11
124.3456376103794
 21
67.34978540772534
 31
0.0
 12
127.6789709437127
 22
67.34978540772534
 32
0.0
 13
127.6789709437127
 23
67.34978540772534
 33
0.0
  0
MTEXT
  5
1C1
330
1C3
100
AcDbEntity
  8
0
  6
ByBlock
 62
     0
370
    -2
380
     1
100
AcDbMText
 10
114.012304277046
 20
217.8497819077253
 30
0.0
 40
14.0
 41
0.0
 71
     5
 72
     1
  1
\A1;321
 11
6.123031769111886E-17
 21
1.0
 31
0.0
 73
     1
 44
1.0
  0
ENDBLK
  5
1F6
330
1C3
100
AcDbEntity
  8
0
100
AcDbBlockEnd
  0
BLOCK
  5
1F7
330
1CE
100
AcDbEntity
  8
0
100
AcDbBlockBegin
  2
*D6
 70
     1
 10
0.0
 20
0.0
 30
0.0
  3
*D6
  1

  0
POINT
  5
1C5
330
1CE
100
AcDbEntity
  8
DEFPOINTS
  6
ByBlock
 62
     7
380
     1
100
AcDbPoint
 10
152.8402425744372
 20
332.9313191921509
 30
0.0
  0
POINT
  5
1C6
330
1CE
100
AcDbEntity
  8
DEFPOINTS
  6
ByBlock
 62
     7
380
     1
100
AcDbPoint
 10
382.8402425744372
 20
332.9313191921509
 30
0.0
  0
LINE
  5
1C7
330
1CE
100
AcDbEntity
  8
0
  6
ByBlock
 62
     7
370
    -2
380
     1
100
AcDbLine
 10
152.8402425744372
 20
333.5563191921509
 30
0.0
 11
152.8402425744372
 21
416.1826943978354
 31
0.0
  0
LINE
  5
1C8
330
1CE
100
AcDbEntity
  8
0
  6
ByBlock
 62
     7
370
    -2
380
     1
100
AcDbLine
 10
382.8402425744372
 20
333.5563191921509
 30
0.0
 11
382.8402425744372
 21
416.1826943978354
 31
0.0
  0
LINE
  5
1C9
330
1CE
100
AcDbEntity
  8
0
  6
ByBlock
 62
     7
370
    -2
380
     1
100
AcDbLine
 10
162.8402425744372
 20
414.9326943978354
 30
0.0
 11
372.8402425744372
 21
414.9326943978354
 31
0.0
  0
SOLID
  5
1CA
330
1CE
100
AcDbEntity
  8
0
  6
ByBlock
 62
     7
380
     1
100
AcDbTrace
 10
152.8402425744372
 20
414.9326943978354
 30
0.0
 11
162.8402425744372
 21
413.2660277311687
 31
0.0
 12
162.8402425744372
 22
416.5993610645021
 32
0.0
 13
162.8402425744372
 23
416.5993610645021
 33
0.0
  0
SOLID
  5
1CB
330
1CE
100
AcDbEntity
  8
0
  6
ByBlock
 62
     7
380
     1
100
AcDbTrace
 10
382.8402425744372
 20
414.9326943978354
 30
0.0
 11
372.8402425744372
 21
413.2660277311687
 31
0.0
 12
372.8402425744372
 22
416.5993610645021
 32
0.0
 13
372.8402425744372
 23
416.5993610645021
 33
0.0
  0
MTEXT
  5
1CC
330
1CE
100
AcDbEntity
  8
0
  6
ByBlock
 62
     0
370
    -2
380
     1
100
AcDbMText
 10
267.8402425744372
 20
426.9326943978354
 30
0.0
 40
14.0
 41
0.0
 71
     5
 72
     1
  1
\A1;230
 73
     1
 44
1.0
  0
ENDBLK
  5
1F8
330
1CE
100
AcDbEntity
  8
0
100
AcDbBlockEnd
  0
BLOCK
  5
1F9
330
1DB
100
AcDbEntity
  8
0
100
AcDbBlockBegin
  2
*D7
 70
     1
 10
0.0
 20
0.0
 30
0.0
  3
*D7
  1

  0
POINT
  5
1D0
330
1DB
100
AcDbEntity
  8
DEFPOINTS
  6
ByBlock
 62
     7
380
     1
100
AcDbPoint
 10
480.4180714169053
 20
266.3329087471776
 30
0.0
  0
POINT
  5
1D1
330
1DB
100
AcDbEntity
  8
DEFPOINTS
  6
ByBlock
 62
     7
380
     1
100
AcDbPoint
 10
517.3749645744373
 20
266.3329087471776
 30
0.0
  0
LINE
  5
1D2
330
1DB
100
AcDbEntity
  8
0
  6
ByBlock
 62
     7
370
    -2
380
     1
100
AcDbLine
 10
480.4180714169053
 20
266.9579087471776
 30
0.0
 11
480.4180714169053
 21
416.1826943978354
 31
0.0
  0
LINE
  5
1D3
330
1DB
100
AcDbEntity
  8
0
  6
ByBlock
 62
     7
370
    -2
380
     1
100
AcDbLine
 10
517.3749645744373
 20
266.9579087471776
 30
0.0
 11
517.3749645744373
 21
416.1826943978354
 31
0.0
  0
LINE
  5
1D4
330
1DB
100
AcDbEntity
  8
0
  6
ByBlock
 62
     7
370
    -2
380
     1
100
AcDbLine
 10
470.4180714169053
 20
414.9326943978354
 30
0.0
 11
460.4180714169053
 21
414.9326943978354
 31
0.0
  0
LINE
  5
1D5
330
1DB
100
AcDbEntity
  8
0
  6
ByBlock
 62
     7
370
    -2
380
     1
100
AcDbLine
 10
527.3749645744373
 20
414.9326943978354
 30
0.0
 11
537.3749645744373
 21
414.9326943978354
 31
0.0
  0
SOLID
  5
1D6
330
1DB
100
AcDbEntity
  8
0
  6
ByBlock
 62
     7
380
     1
100
AcDbTrace
 10
480.4180714169053
 20
414.9326943978354
 30
0.0
 11
470.4180714169053
 21
413.2660277311687
 31
0.0
 12
470.4180714169053
 22
416.5993610645021
 32
0.0
 13
470.4180714169053
 23
416.5993610645021
 33
0.0
  0
SOLID
  5
1D7
330
1DB
100
AcDbEntity
  8
0
  6
ByBlock
 62
     7
380
     1
100
AcDbTrace
 10
517.3749645744373
 20
414.9326943978354
 30
0.0
 11
527.3749645744373
 21
413.2660277311687
 31
0.0
 12
527.3749645744373
 22
416.5993610645021
 32
0.0
 13
527.3749645744373
 23
416.5993610645021
 33
0.0
  0
LINE
  5
1D8
330
1DB
100
AcDbEntity
  8
0
  6
ByBlock
 62
     7
370
    -2
380
     1
100
AcDbLine
 10
480.4180714169053
 20
414.9326943978354
 30
0.0
 11
517.3749645744373
 21
414.9326943978354
 31
0.0
  0
MTEXT
  5
1D9
330
1DB
100
AcDbEntity
  8
0
  6
ByBlock
 62
     0
370
    -2
380
     1
100
AcDbMText
 10
498.8965179956713
 20
426.9326943978354
 30
0.0
 40
14.0
 41
0.0
 71
     5
 72
     1
  1
37
 73
     1
 44
1.0
  0
ENDBLK
  5
1FA
330
1DB
100
AcDbEntity
  8
0
100
AcDbBlockEnd
  0
BLOCK
  5
1FB
330
1E6
100
AcDbEntity
  8
0
100
AcDbBlockBegin
  2
*D8
 70
     1
 10
0.0
 20
0.0
 30
0.0
  3
*D8
  1

  0
POINT
  5
1DD
330
1E6
100
AcDbEntity
  8
DEFPOINTS
  6
ByBlock
 62
     7
380
     1
100
AcDbPoint
 10
511.3749625744372
 20
378.8692334077253
 30
0.0
  0
POINT
  5
1DE
330
1E6
100
AcDbEntity
  8
DEFPOINTS
  6
ByBlock
 62
     7
380
     1
100
AcDbPoint
 10
511.3749625744372
 20
172.3692404077253
 30
0.0
  0
LINE
  5
1DF
330
1E6
100
AcDbEntity
  8
0
  6
ByBlock
 62
     7
370
    -2
380
     1
100
AcDbLine
 10
510.7499625744372
 20
378.8692334077253
 30
0.0
 11
451.7654427599078
 21
378.8692334077253
 31
0.0
  0
LINE
  5
1E0
330
1E6
100
AcDbEntity
  8
0
  6
ByBlock
 62
     7
370
    -2
380
     1
100
AcDbLine
 10
510.7499625744372
 20
172.3692404077253
 30
0.0
 11
451.7654427599078
 21
172.3692404077253
 31
0.0
  0
LINE
  5
1E1
330
1E6
100
AcDbEntity
  8
0
  6
ByBlock
 62
     7
370
    -2
380
     1
100
AcDbLine
 10
453.0154427599078
 20
368.8692334077253
 30
0.0
 11
453.0154427599078
 21
182.3692404077253
 31
0.0
  0
SOLID
  5
1E2
330
1E6
100
AcDbEntity
  8
0
  6
ByBlock
 62
     7
380
     1
100
AcDbTrace
 10
453.0154427599078
 20
378.8692334077253
 30
0.0
 11
451.3487760932412
 21
368.8692334077253
 31
0.0
 12
454.6821094265745
 22
368.8692334077253
 32
0.0
 13
454.6821094265745
 23
368.8692334077253
 33
0.0
  0
SOLID
  5
1E3
330
1E6
100
AcDbEntity
  8
0
  6
ByBlock
 62
     7
380
     1
100
AcDbTrace
 10
453.0154427599078
 20
172.3692404077253
 30
0.0
 11
451.3487760932412
 21
182.3692404077253
 31
0.0
 12
454.6821094265745
 22
182.3692404077253
 32
0.0
 13
454.6821094265745
 23
182.3692404077253
 33
0.0
  0
MTEXT
  5
1E4
330
1E6
100
AcDbEntity
  8
0
  6
ByBlock
 62
     0
370
    -2
380
     1
100
AcDbMText
 10
439.8487760932412
 20
275.6192369077253
 30
0.0
 40
14.0
 41
0.0
 71
     5
 72
     1
  1
\A1;206,5
 11
6.123031769111886E-17
 21
1.0
 31
0.0
 73
     1
 44
1.0
  0
ENDBLK
  5
1FC
330
1E6
100
AcDbEntity
  8
0
100
AcDbBlockEnd
  0
ENDSEC
  0
SECTION
  2
ENTITIES
  0
POINT
  5
F8
330
1F
100
AcDbEntity
  8
0
 62
     7
370
    60
100
AcDbPoint
 10
364.3402425744372
 20
377.3497784077253
 30
0.0
  0
POINT
  5
F9
330
1F
100
AcDbEntity
  8
0
 62
     7
370
    60
100
AcDbPoint
 10
324.3402425744372
 20
377.3497784077253
 30
0.0
  0
POINT
  5
FA
330
1F
100
AcDbEntity
  8
0
 62
     7
370
    60
100
AcDbPoint
 10
251.3402425744372
 20
377.3497784077253
 30
0.0
  0
LINE
  5
FB
330
1F
100
AcDbEntity
  8
0
 62
     7
370
    60
100
AcDbLine
 10
237.8402425744372
 20
394.9408884077253
 30
0.0
 11
297.8402425744372
 21
394.9408884077253
 31
0.0
  0
LINE
  5
FC
330
1F
100
AcDbEntity
  8
0
 62
     7
370
    60
100
AcDbLine
 10
237.8402425744372
 20
395.1997084077253
 30
0.0
 11
297.8402425744372
 21
395.1997084077253
 31
0.0
  0
LINE
  5
FD
330
1F
100
AcDbEntity
  8
0
 62
     7
 48
0.289777
370
    60
100
AcDbLine
 10
237.8402425744372
 20
383.3497934077253
 30
0.0
 11
237.8402425744372
 21
394.9408884077253
 31
0.0
  0
LINE
  5
FE
330
1F
100
AcDbEntity
  8
0
 62
     7
 48
0.00647
370
    60
100
AcDbLine
 10
237.8402425744372
 20
394.9408884077253
 30
0.0
 11
237.8402425744372
 21
395.1997084077253
 31
0.0
  0
LINE
  5
FF
330
1F
100
AcDbEntity
  8
0
 62
     7
 48
0.289777
370
    60
100
AcDbLine
 10
297.8402425744372
 20
383.3497934077253
 30
0.0
 11
297.8402425744372
 21
394.9408884077253
 31
0.0
  0
LINE
  5
100
330
1F
100
AcDbEntity
  8
0
 62
     7
 48
0.00647
370
    60
100
AcDbLine
 10
297.8402425744372
 20
394.9408884077253
 30
0.0
 11
297.8402425744372
 21
395.1997084077253
 31
0.0
  0
LINE
  5
101
330
1F
100
AcDbEntity
  8
0
 62
     7
 48
0.05
370
    60
100
AcDbLine
 10
239.8402425744372
 20
57.34978540772533
 30
0.0
 11
241.8402425744372
 21
57.34978540772533
 31
0.0
  0
LINE
  5
102
330
1F
100
AcDbEntity
  8
0
 62
     7
 48
0.05
370
    60
100
AcDbLine
 10
293.8402425744372
 20
57.34978540772533
 30
0.0
 11
295.8402425744372
 21
57.34978540772533
 31
0.0
  0
LINE
  5
103
330
1F
100
AcDbEntity
  8
0
 62
     7
 48
0.075
370
    60
100
AcDbLine
 10
152.8402425744372
 20
57.34978540772533
 30
0.0
 11
155.8402425744372
 21
57.34978540772533
 31
0.0
  0
LINE
  5
104
330
1F
100
AcDbEntity
  8
0
 62
     7
 48
0.075
370
    60
100
AcDbLine
 10
379.8402425744372
 20
57.34978540772533
 30
0.0
 11
382.8402425744372
 21
57.34978540772533
 31
0.0
  0
LINE
  5
105
330
1F
100
AcDbEntity
  8
0
 62
     7
370
    60
100
AcDbLine
 10
237.8402425744372
 20
383.3497934077253
 30
0.0
 11
297.8402425744372
 21
383.3497934077253
 31
0.0
  0
LINE
  5
106
330
1F
100
AcDbEntity
  8
0
 62
     7
 48
0.125
370
    60
100
AcDbLine
 10
237.8402425744372
 20
378.3497784077253
 30
0.0
 11
237.8402425744372
 21
383.3497934077253
 31
0.0
  0
LINE
  5
107
330
1F
100
AcDbEntity
  8
0
 62
     7
 48
0.125
370
    60
100
AcDbLine
 10
297.8402425744372
 20
378.3497784077253
 30
0.0
 11
297.8402425744372
 21
383.3497934077253
 31
0.0
  0
ARC
  5
108
330
1F
100
AcDbEntity
  8
0
 62
     7
370
    60
100
AcDbCircle
 10
209.3402425744372
 20
121.9497854077254
 30
0.0
 40
26.50000000000001
100
AcDbArc
 50
180.000005
 51
270.000001
  0
ARC
  5
109
330
1F
100
AcDbEntity
  8
0
 62
     7
370
    60
100
AcDbCircle
 10
209.3402425744372
 20
121.9497854077254
 30
0.0
 40
26.49999999999998
100
AcDbArc
 50
90.00000300000004
 51
180.000005
  0
ARC
  5
10A
330
1F
100
AcDbEntity
  8
0
 62
     7
370
    60
100
AcDbCircle
 10
326.3402425744372
 20
121.9497854077254
 30
0.0
 40
26.5
100
AcDbArc
 50
270.0000009999998
 51
0.0000099999998869
  0
ARC
  5
10B
330
1F
100
AcDbEntity
  8
0
 62
     7
370
    60
100
AcDbCircle
 10
326.3402425744372
 20
121.9497854077254
 30
0.0
 40
26.5
100
AcDbArc
 50
0.0
 51
90.000003
  0
LINE
  5
10C
330
1F
100
AcDbEntity
  8
0
 62
     7
 48
0.3
370
    60
100
AcDbLine
 10
152.8402425744372
 20
378.3497784077253
 30
0.0
 11
164.8402425744372
 21
378.3497784077253
 31
0.0
  0
LINE
  5
10D
330
1F
100
AcDbEntity
  8
0
 62
     7
 48
0.3
370
    60
100
AcDbLine
 10
370.8402425744372
 20
378.3497784077253
 30
0.0
 11
382.8402425744372
 21
378.3497784077253
 31
0.0
  0
LINE
  5
10E
330
1F
100
AcDbEntity
  8
0
 62
     7
 48
0.05
370
    60
100
AcDbLine
 10
291.8402425744372
 20
59.34978540772533
 30
0.0
 11
293.8402425744372
 21
59.34978540772533
 31
0.0
  0
LINE
  5
10F
330
1F
100
AcDbEntity
  8
0
 62
     7
 48
0.05
370
    60
100
AcDbLine
 10
243.8402425744372
 20
57.34978540772533
 30
0.0
 11
243.8402425744372
 21
59.34978540772533
 31
0.0
  0
LINE
  5
110
330
1F
100
AcDbEntity
  8
0
 62
     7
 48
0.175
370
    60
100
AcDbLine
 10
243.8402425744372
 20
50.34978540772533
 30
0.0
 11
243.8402425744372
 21
57.34978540772533
 31
0.0
  0
LINE
  5
111
330
1F
100
AcDbEntity
  8
0
 62
     7
 48
0.05
370
    60
100
AcDbLine
 10
241.8402425744372
 20
59.34978540772533
 30
0.0
 11
243.8402425744372
 21
59.34978540772533
 31
0.0
  0
LINE
  5
112
330
1F
100
AcDbEntity
  8
0
 62
     7
370
    60
100
AcDbLine
 10
209.3402425744372
 20
95.4497844077253
 30
0.0
 11
326.3402425744372
 21
95.4497844077253
 31
0.0
  0
LINE
  5
113
330
1F
100
AcDbEntity
  8
0
 62
     7
370
    60
100
AcDbLine
 10
209.3402425744372
 20
148.4497844077253
 30
0.0
 11
326.3402425744372
 21
148.4497844077253
 31
0.0
  0
LINE
  5
114
330
1F
100
AcDbEntity
  8
0
 62
     7
 48
0.025
370
    60
100
AcDbLine
 10
241.8402425744372
 20
58.34978540772533
 30
0.0
 11
241.8402425744372
 21
59.34978540772533
 31
0.0
  0
LINE
  5
115
330
1F
100
AcDbEntity
  8
0
 62
     7
 48
0.025
370
    60
100
AcDbLine
 10
241.8402425744372
 20
57.34978540772533
 30
0.0
 11
241.8402425744372
 21
58.34978540772533
 31
0.0
  0
LINE
  5
116
330
1F
100
AcDbEntity
  8
0
 62
     7
 48
0.025
370
    60
100
AcDbLine
 10
293.8402425744372
 20
58.34978540772533
 30
0.0
 11
293.8402425744372
 21
59.34978540772533
 31
0.0
  0
LINE
  5
117
330
1F
100
AcDbEntity
  8
0
 62
     7
 48
0.025
370
    60
100
AcDbLine
 10
293.8402425744372
 20
57.34978540772533
 30
0.0
 11
293.8402425744372
 21
58.34978540772533
 31
0.0
  0
LINE
  5
118
330
1F
100
AcDbEntity
  8
0
 62
     7
370
    60
100
AcDbLine
 10
267.8402425744372
 20
50.34978540772533
 30
0.0
 11
291.8402425744372
 21
50.34978540772533
 31
0.0
  0
LINE
  5
119
330
1F
100
AcDbEntity
  8
0
 62
     7
370
    60
100
AcDbLine
 10
243.8402425744372
 20
50.34978540772533
 30
0.0
 11
267.8402425744372
 21
50.34978540772533
 31
0.0
  0
LINE
  5
11A
330
1F
100
AcDbEntity
  8
0
 62
     7
 48
0.05
370
    60
100
AcDbLine
 10
291.8402425744372
 20
57.34978540772533
 30
0.0
 11
291.8402425744372
 21
59.34978540772533
 31
0.0
  0
LINE
  5
11B
330
1F
100
AcDbEntity
  8
0
 62
     7
 48
0.175
370
    60
100
AcDbLine
 10
291.8402425744372
 20
50.34978540772533
 30
0.0
 11
291.8402425744372
 21
57.34978540772533
 31
0.0
  0
LINE
  5
11C
330
1F
100
AcDbEntity
  8
0
 62
     7
370
    60
100
AcDbLine
 10
155.8402425744372
 20
57.34978540772533
 30
0.0
 11
239.8402425744372
 21
57.34978540772533
 31
0.0
  0
LINE
  5
11D
330
1F
100
AcDbEntity
  8
0
 62
     7
 48
0.025
370
    60
100
AcDbLine
 10
152.8402425744372
 20
58.34978540772533
 30
0.0
 11
152.8402425744372
 21
59.34978540772533
 31
0.0
  0
LINE
  5
11E
330
1F
100
AcDbEntity
  8
0
 62
     7
 48
0.025
370
    60
100
AcDbLine
 10
152.8402425744372
 20
57.34978540772533
 30
0.0
 11
152.8402425744372
 21
58.34978540772533
 31
0.0
  0
LINE
  5
11F
330
1F
100
AcDbEntity
  8
0
 62
     7
 48
0.025
370
    60
100
AcDbLine
 10
382.8402425744372
 20
58.34978540772533
 30
0.0
 11
382.8402425744372
 21
59.34978540772533
 31
0.0
  0
LINE
  5
120
330
1F
100
AcDbEntity
  8
0
 62
     7
 48
0.025
370
    60
100
AcDbLine
 10
382.8402425744372
 20
57.34978540772533
 30
0.0
 11
382.8402425744372
 21
58.34978540772533
 31
0.0
  0
LINE
  5
121
330
1F
100
AcDbEntity
  8
0
 62
     7
370
    60
100
AcDbLine
 10
382.8402425744372
 20
59.34978540772533
 30
0.0
 11
382.8402425744372
 21
378.3497784077253
 31
0.0
  0
LINE
  5
122
330
1F
100
AcDbEntity
  8
0
 62
     7
370
    60
100
AcDbLine
 10
329.8402425744372
 20
177.8497854077253
 30
0.0
 11
370.8402425744372
 21
177.8497854077253
 31
0.0
  0
LINE
  5
123
330
1F
100
AcDbEntity
  8
0
 62
     7
370
    60
100
AcDbLine
 10
288.8402425744372
 20
177.8497854077253
 30
0.0
 11
330.9885112101451
 21
177.8497854077253
 31
0.0
  0
LINE
  5
124
330
1F
100
AcDbEntity
  8
0
 62
     7
370
    60
100
AcDbLine
 10
164.8402425744372
 20
177.8497854077253
 30
0.0
 11
209.6121716757305
 21
177.8497854077253
 31
0.0
  0
LINE
  5
125
330
1F
100
AcDbEntity
  8
0
 62
     7
370
    60
100
AcDbLine
 10
206.8402425744372
 20
177.8497854077253
 30
0.0
 11
246.8402425744372
 21
177.8497854077253
 31
0.0
  0
LINE
  5
126
330
1F
100
AcDbEntity
  8
0
 62
     7
370
    60
100
AcDbLine
 10
246.8402425744372
 20
177.8497854077253
 30
0.0
 11
289.4296081739541
 21
177.8497854077253
 31
0.0
  0
LINE
  5
127
330
1F
100
AcDbEntity
  8
0
 62
     7
370
    60
100
AcDbLine
 10
164.8402425744372
 20
172.8497854077253
 30
0.0
 11
370.8402425744372
 21
172.8497854077253
 31
0.0
  0
LINE
  5
128
330
1F
100
AcDbEntity
  8
0
 62
     7
370
    60
100
AcDbLine
 10
164.8402425744372
 20
171.8497854077253
 30
0.0
 11
370.8402425744372
 21
171.8497854077253
 31
0.0
  0
LINE
  5
129
330
1F
100
AcDbEntity
  8
0
 62
     7
 48
0.05
370
    60
100
AcDbLine
 10
164.8402425744372
 20
172.8497854077253
 30
0.0
 11
164.8402425744372
 21
174.8497854077253
 31
0.0
  0
LINE
  5
12A
330
1F
100
AcDbEntity
  8
0
 62
     7
 48
0.025
370
    60
100
AcDbLine
 10
164.8402425744372
 20
171.8497854077253
 30
0.0
 11
164.8402425744372
 21
172.8497854077253
 31
0.0
  0
LINE
  5
12B
330
1F
100
AcDbEntity
  8
0
 62
     7
370
    60
100
AcDbLine
 10
164.8402425744372
 20
378.3497784077253
 30
0.0
 11
370.8402425744372
 21
378.3497784077253
 31
0.0
  0
LINE
  5
12C
330
1F
100
AcDbEntity
  8
0
 62
     7
370
    60
100
AcDbLine
 10
164.8402425744372
 20
377.3497784077253
 30
0.0
 11
370.8402425744372
 21
377.3497784077253
 31
0.0
  0
LINE
  5
12D
330
1F
100
AcDbEntity
  8
0
 62
     7
370
    60
100
AcDbLine
 10
246.8402425744372
 20
372.3497784077253
 30
0.0
 11
290.1935046430622
 21
372.3497784077253
 31
0.0
  0
LINE
  5
12E
330
1F
100
AcDbEntity
  8
0
 62
     7
370
    60
100
AcDbLine
 10
206.8402425744372
 20
372.3497784077253
 30
0.0
 11
246.8402425744372
 21
372.3497784077253
 31
0.0
  0
LINE
  5
12F
330
1F
100
AcDbEntity
  8
0
 62
     7
370
    60
100
AcDbLine
 10
288.8402425744372
 20
372.3497784077253
 30
0.0
 11
331.722297339449
 21
372.3497784077253
 31
0.0
  0
LINE
  5
130
330
1F
100
AcDbEntity
  8
0
 62
     7
370
    60
100
AcDbLine
 10
164.8402425744372
 20
372.3497784077253
 30
0.0
 11
207.2356818782231
 21
372.3497784077253
 31
0.0
  0
LINE
  5
131
330
1F
100
AcDbEntity
  8
0
 62
     7
 48
0.05
370
    60
100
AcDbLine
 10
370.8402425744372
 20
375.3497784077253
 30
0.0
 11
370.8402425744372
 21
377.3497784077253
 31
0.0
  0
ARC
  5
132
330
1F
100
AcDbEntity
  8
0
 62
     7
370
    60
100
AcDbCircle
 10
327.8402425744372
 20
375.3497784077253
 30
0.0
 40
1.999999999999974
100
AcDbArc
 50
359.9999830000006
 51
90.00000300000055
  0
ARC
  5
133
330
1F
100
AcDbEntity
  8
0
 62
     7
370
    60
100
AcDbCircle
 10
286.8402425744372
 20
375.3497784077253
 30
0.0
 40
1.999999999999974
100
AcDbArc
 50
359.9999830000006
 51
90.00000300000055
  0
LINE
  5
134
330
1F
100
AcDbEntity
  8
0
 62
     7
 48
0.225
370
    60
100
AcDbLine
 10
277.8402425744372
 20
377.3497784077253
 30
0.0
 11
286.8402425744372
 21
377.3497784077253
 31
0.0
  0
LINE
  5
135
330
1F
100
AcDbEntity
  8
0
 62
     7
 48
0.225
370
    60
100
AcDbLine
 10
318.8402425744372
 20
377.3497784077253
 30
0.0
 11
327.8402425744372
 21
377.3497784077253
 31
0.0
  0
ARC
  5
136
330
1F
100
AcDbEntity
  8
0
 62
     7
370
    60
100
AcDbCircle
 10
327.8402425744372
 20
174.8497854077253
 30
0.0
 40
2.0
100
AcDbArc
 50
270.0000010000014
 51
0.0000050000013683
  0
ARC
  5
137
330
1F
100
AcDbEntity
  8
0
 62
     7
370
    60
100
AcDbCircle
 10
286.8402425744372
 20
174.8497854077253
 30
0.0
 40
2.0
100
AcDbArc
 50
270.0000009999981
 51
0.0000049999981623
  0
LINE
  5
138
330
1F
100
AcDbEntity
  8
0
 62
     7
 48
0.225
370
    60
100
AcDbLine
 10
318.8402425744372
 20
172.8497854077253
 30
0.0
 11
327.8402425744372
 21
172.8497854077253
 31
0.0
  0
LINE
  5
139
330
1F
100
AcDbEntity
  8
0
 62
     7
 48
0.225
370
    60
100
AcDbLine
 10
277.8402425744372
 20
172.8497854077253
 30
0.0
 11
286.8402425744372
 21
172.8497854077253
 31
0.0
  0
ARC
  5
13A
330
1F
100
AcDbEntity
  8
0
 62
     7
370
    60
100
AcDbCircle
 10
368.8402425744372
 20
375.3497784077253
 30
0.0
 40
1.999999999999974
100
AcDbArc
 50
359.9999830000006
 51
90.00000300000055
  0
LINE
  5
13B
330
1F
100
AcDbEntity
  8
0
 62
     7
 48
0.225
370
    60
100
AcDbLine
 10
359.8402425744372
 20
377.3497784077253
 30
0.0
 11
368.8402425744372
 21
377.3497784077253
 31
0.0
  0
ARC
  5
13C
330
1F
100
AcDbEntity
  8
0
 62
     7
370
    60
100
AcDbCircle
 10
368.8402425744372
 20
174.8497854077253
 30
0.0
 40
2.0
100
AcDbArc
 50
270.0000010000014
 51
0.0000050000013683
  0
LINE
  5
13D
330
1F
100
AcDbEntity
  8
0
 62
     7
 48
0.225
370
    60
100
AcDbLine
 10
359.8402425744372
 20
172.8497854077253
 30
0.0
 11
368.8402425744372
 21
172.8497854077253
 31
0.0
  0
ARC
  5
13E
330
1F
100
AcDbEntity
  8
0
 62
     7
370
    60
100
AcDbCircle
 10
209.415641484578
 20
374.6972269579575
 30
0.0
 40
2.656784301944164
100
AcDbArc
 50
93.23469778011516
 51
165.7817011770052
  0
ARC
  5
13F
330
1F
100
AcDbEntity
  8
0
 62
     7
370
    60
100
AcDbCircle
 10
248.8402425744372
 20
375.3497784077253
 30
0.0
 40
2.000000000000003
100
AcDbArc
 50
90.00000300000013
 51
180.0000050000001
  0
LINE
  5
140
330
1F
100
AcDbEntity
  8
0
 62
     7
 48
0.225
370
    60
100
AcDbLine
 10
248.8402425744372
 20
377.3497784077253
 30
0.0
 11
257.8402425744372
 21
377.3497784077253
 31
0.0
  0
LINE
  5
141
330
1F
100
AcDbEntity
  8
0
 62
     7
 48
0.225
370
    60
100
AcDbLine
 10
207.8402425744372
 20
377.3497784077253
 30
0.0
 11
216.8402425744372
 21
377.3497784077253
 31
0.0
  0
ARC
  5
142
330
1F
100
AcDbEntity
  8
0
 62
     7
370
    60
100
AcDbCircle
 10
209.4983052231875
 20
175.5365775797168
 30
0.0
 40
2.745356197665039
100
AcDbArc
 50
194.4872811202099
 51
258.1442560702322
  0
ARC
  5
143
330
1F
100
AcDbEntity
  8
0
 62
     7
370
    60
100
AcDbCircle
 10
248.8402425744372
 20
174.8497854077253
 30
0.0
 40
1.999999999999996
100
AcDbArc
 50
179.9999909999988
 51
270.0000009999986
  0
LINE
  5
144
330
1F
100
AcDbEntity
  8
0
 62
     7
 48
0.225
370
    60
100
AcDbLine
 10
207.8402425744372
 20
172.8497854077253
 30
0.0
 11
216.8402425744372
 21
172.8497854077253
 31
0.0
  0
LINE
  5
145
330
1F
100
AcDbEntity
  8
0
 62
     7
 48
0.225
370
    60
100
AcDbLine
 10
248.8402425744372
 20
172.8497854077253
 30
0.0
 11
257.8402425744372
 21
172.8497854077253
 31
0.0
  0
ARC
  5
146
330
1F
100
AcDbEntity
  8
0
 62
     7
370
    60
100
AcDbCircle
 10
166.8402425744372
 20
375.3497784077253
 30
0.0
 40
2.000000000000003
100
AcDbArc
 50
90.00000300000096
 51
180.0000050000009
  0
LINE
  5
147
330
1F
100
AcDbEntity
  8
0
 62
     7
 48
0.225
370
    60
100
AcDbLine
 10
166.8402425744372
 20
377.3497784077253
 30
0.0
 11
175.8402425744372
 21
377.3497784077253
 31
0.0
  0
LINE
  5
148
330
1F
100
AcDbEntity
  8
0
 62
     7
 48
0.067684
370
    60
100
AcDbLine
 10
164.8402425744372
 20
372.6424114077253
 30
0.0
 11
164.8402425744372
 21
375.3497784077253
 31
0.0
  0
LINE
  5
149
330
1F
100
AcDbEntity
  8
0
 62
     7
 48
0.067684
370
    60
100
AcDbLine
 10
164.8402425744372
 20
174.8497854077253
 30
0.0
 11
164.8402425744372
 21
177.5571564077254
 31
0.0
  0
LINE
  5
14A
330
1F
100
AcDbEntity
  8
0
 62
     7
370
    60
100
AcDbLine
 10
164.8402425744372
 20
177.5571564077254
 30
0.0
 11
164.8402425744372
 21
372.6424114077253
 31
0.0
  0
ARC
  5
14B
330
1F
100
AcDbEntity
  8
0
 62
     7
370
    60
100
AcDbCircle
 10
166.8402425744372
 20
174.8497854077253
 30
0.0
 40
2.000000000000025
100
AcDbArc
 50
179.9999909999988
 51
270.0000009999986
  0
LINE
  5
14C
330
1F
100
AcDbEntity
  8
0
 62
     7
 48
0.225
370
    60
100
AcDbLine
 10
166.8402425744372
 20
172.8497854077253
 30
0.0
 11
175.8402425744372
 21
172.8497854077253
 31
0.0
  0
LINE
  5
14D
330
1F
100
AcDbEntity
  8
0
 62
     7
 48
0.3
370
    60
100
AcDbLine
 10
513.2691325744372
 20
395.4603434077253
 30
0.0
 11
516.3749645744373
 21
383.8692484077253
 31
0.0
  0
LINE
  5
14E
330
1F
100
AcDbEntity
  8
0
 62
     7
 48
0.025
370
    60
100
AcDbLine
 10
513.2691325744372
 20
395.4603434077253
 30
0.0
 11
514.2350605744373
 21
395.7191634077253
 31
0.0
  0
LINE
  5
14F
330
1F
100
AcDbEntity
  8
0
 62
     7
 48
0.303291
370
    60
100
AcDbLine
 10
514.2350605744373
 20
395.7191634077253
 30
0.0
 11
517.3749645744373
 21
384.0009014077253
 31
0.0
  0
LINE
  5
150
330
1F
100
AcDbEntity
  8
0
 62
     7
 48
0.075
370
    60
100
AcDbLine
 10
512.3749605744372
 20
57.86924040772532
 30
0.0
 11
515.3749645744373
 21
57.86924040772532
 31
0.0
  0
LINE
  5
151
330
1F
100
AcDbEntity
  8
0
 62
     7
 48
0.128292
370
    60
100
AcDbLine
 10
517.3749645744373
 20
378.8692334077253
 30
0.0
 11
517.3749645744373
 21
384.0009014077253
 31
0.0
  0
LINE
  5
152
330
1F
100
AcDbEntity
  8
0
 62
     7
 48
0.125
370
    60
100
AcDbLine
 10
516.3749645744373
 20
378.8692334077253
 30
0.0
 11
516.3749645744373
 21
383.8692484077253
 31
0.0
  0
LINE
  5
153
330
1F
100
AcDbEntity
  8
0
 62
     7
 48
0.075
370
    60
100
AcDbLine
 10
512.3749605744372
 20
58.86924040772532
 30
0.0
 11
515.3749645744373
 21
58.86924040772532
 31
0.0
  0
LINE
  5
154
330
1F
100
AcDbEntity
  8
0
 62
     7
 48
0.05
370
    60
100
AcDbLine
 10
517.3749645744373
 20
57.86924040772532
 30
0.0
 11
517.3749645744373
 21
59.86924040772532
 31
0.0
  0
LINE
  5
155
330
1F
100
AcDbEntity
  8
0
 62
     7
 48
0.175
370
    60
100
AcDbLine
 10
517.3749645744373
 20
50.86924040772532
 30
0.0
 11
517.3749645744373
 21
57.86924040772532
 31
0.0
  0
LINE
  5
156
330
1F
100
AcDbEntity
  8
0
 62
     7
 48
0.010762
370
    60
100
AcDbLine
 10
516.3749645744373
 20
57.86924040772532
 30
0.0
 11
516.3749645744373
 21
58.29970640772533
 31
0.0
  0
LINE
  5
157
330
1F
100
AcDbEntity
  8
0
 62
     7
 48
0.175
370
    60
100
AcDbLine
 10
516.3749645744373
 20
50.86924040772532
 30
0.0
 11
516.3749645744373
 21
57.86924040772532
 31
0.0
  0
LINE
  5
158
330
1F
100
AcDbEntity
  8
0
 62
     7
 48
0.025
370
    60
100
AcDbLine
 10
516.3749645744373
 20
50.86924040772532
 30
0.0
 11
517.3749645744373
 21
50.86924040772532
 31
0.0
  0
LINE
  5
159
330
1F
100
AcDbEntity
  8
0
 62
     7
 48
0.025
370
    60
100
AcDbLine
 10
512.3749605744372
 20
57.86924040772532
 30
0.0
 11
512.3749605744372
 21
58.86924040772532
 31
0.0
  0
ARC
  5
15A
330
1F
100
AcDbEntity
  8
0
 62
     7
370
    60
100
AcDbCircle
 10
515.3749645744373
 20
59.86924040772532
 30
0.0
 40
1.0
100
AcDbArc
 50
270.0000010000014
 51
0.0000000000014249
  0
LINE
  5
15B
330
1F
100
AcDbEntity
  8
0
 62
     7
 48
0.025
370
    60
100
AcDbLine
 10
516.3749645744373
 20
378.8692334077253
 30
0.0
 11
517.3749645744373
 21
378.8692334077253
 31
0.0
  0
ARC
  5
15C
330
1F
100
AcDbEntity
  8
0
 62
     7
370
    60
100
AcDbCircle
 10
515.3749645744373
 20
59.86924040772532
 30
0.0
 40
2.0
100
AcDbArc
 50
270.0000009999981
 51
359.9999999999982
  0
LINE
  5
15D
330
1F
100
AcDbEntity
  8
0
 62
     7
370
    60
100
AcDbLine
 10
517.3749645744373
 20
59.86924040772532
 30
0.0
 11
517.3749645744373
 21
378.8692334077253
 31
0.0
  0
LINE
  5
15E
330
1F
100
AcDbEntity
  8
0
 62
     7
370
    60
100
AcDbLine
 10
516.3749645744373
 20
59.86924040772532
 30
0.0
 11
516.3749645744373
 21
378.8692334077253
 31
0.0
  0
LINE
  5
15F
330
1F
100
AcDbEntity
  8
0
 62
     7
 48
0.225
370
    60
100
AcDbLine
 10
506.3749605744372
 20
173.3692404077253
 30
0.0
 11
515.3749645744373
 21
173.3692404077253
 31
0.0
  0
LINE
  5
160
330
1F
100
AcDbEntity
  8
0
 62
     7
 48
0.125
370
    60
100
AcDbLine
 10
515.3749645744373
 20
173.3692404077253
 30
0.0
 11
515.3749645744373
 21
178.3692404077253
 31
0.0
  0
LINE
  5
161
330
1F
100
AcDbEntity
  8
0
 62
     7
 48
0.25
370
    60
100
AcDbLine
 10
506.3749605744372
 20
172.3692404077253
 30
0.0
 11
516.3749645744373
 21
172.3692404077253
 31
0.0
  0
LINE
  5
162
330
1F
100
AcDbEntity
  8
0
 62
     7
 48
0.025
370
    60
100
AcDbLine
 10
506.3749605744372
 20
172.3692404077253
 30
0.0
 11
506.3749605744372
 21
173.3692404077253
 31
0.0
  0
LINE
  5
163
330
1F
100
AcDbEntity
  8
0
 62
     7
 48
0.25
370
    60
100
AcDbLine
 10
506.3749605744372
 20
378.8692334077253
 30
0.0
 11
516.3749645744373
 21
378.8692334077253
 31
0.0
  0
LINE
  5
164
330
1F
100
AcDbEntity
  8
0
 62
     7
 48
0.025
370
    60
100
AcDbLine
 10
506.3749605744372
 20
377.8692334077253
 30
0.0
 11
506.3749605744372
 21
378.8692334077253
 31
0.0
  0
LINE
  5
165
330
1F
100
AcDbEntity
  8
0
 62
     7
 48
0.225
370
    60
100
AcDbLine
 10
506.3749605744372
 20
377.8692334077253
 30
0.0
 11
515.3749645744373
 21
377.8692334077253
 31
0.0
  0
LINE
  5
166
330
1F
100
AcDbEntity
  8
0
 62
     7
 48
0.125
370
    60
100
AcDbLine
 10
515.3749645744373
 20
372.8692334077253
 30
0.0
 11
515.3749645744373
 21
377.8692334077253
 31
0.0
  0
LINE
  5
167
330
1F
100
AcDbEntity
  8
0
 62
     7
 48
0.05
370
    60
100
AcDbLine
 10
506.3749605744372
 20
375.8692334077253
 30
0.0
 11
506.3749605744372
 21
377.8692334077253
 31
0.0
  0
LINE
  5
168
330
1F
100
AcDbEntity
  8
0
 62
     7
 48
0.05
370
    60
100
AcDbLine
 10
506.3749605744372
 20
173.3692404077253
 30
0.0
 11
506.3749605744372
 21
175.3692404077253
 31
0.0
  0
LINE
  5
169
330
1F
100
AcDbEntity
  8
0
 62
     7
370
    60
100
AcDbLine
 10
515.3749645744373
 20
175.3692404077253
 30
0.0
 11
515.3749645744373
 21
375.8692334077253
 31
0.0
  0
ARC
  5
16A
330
1F
100
AcDbEntity
  8
0
 62
     7
370
    60
100
AcDbCircle
 10
488.1293095744372
 20
372.8692334077253
 30
0.0
 40
3.000000000000004
100
AcDbArc
 50
90.00000299999986
 51
174.4023229999998
  0
LINE
  5
16B
330
1F
100
AcDbEntity
  8
0
 62
     7
 48
0.456141
370
    60
100
AcDbLine
 10
488.1293095744372
 20
375.8692334077253
 30
0.0
 11
506.3749675744373
 21
375.8692334077253
 31
0.0
  0
ARC
  5
16C
330
1F
100
AcDbEntity
  8
0
 62
     7
370
    60
100
AcDbCircle
 10
488.1293095744372
 20
178.3692404077253
 30
0.0
 40
3.000000000000021
100
AcDbArc
 50
185.5976729999992
 51
270.0000009999991
  0
LINE
  5
16D
330
1F
100
AcDbEntity
  8
0
 62
     7
 48
0.456141
370
    60
100
AcDbLine
 10
488.1293095744372
 20
175.3692404077253
 30
0.0
 11
506.3749605744372
 21
175.3692404077253
 31
0.0
  0
ARC
  5
16E
330
1F
100
AcDbEntity
  8
0
 62
     7
370
    60
100
AcDbCircle
 10
1480.374952574437
 20
275.6192334077253
 30
0.0
 40
1000.0
100
AcDbArc
 50
174.402323
 51
185.597687
  0
DIMENSION
  5
16F
330
1F
100
AcDbEntity
  8
0
370
    25
100
AcDbDimension
  2
*D5
 10
126.012304277046
 20
57.34978540772533
 30
0.0
 11
114.012304277046
 21
217.8497819077253
 31
0.0
 70
    32
 71
     5
 41
2.5
 42
320.999993
  3
Standard
100
AcDbAlignedDimension
 13
158.8402425744372
 23
378.3497784077253
 33
0.0
 14
158.8402425744372
 24
57.34978540772533
 34
0.0
 50
90.0
100
AcDbRotatedDimension
1001
ACAD
1000
DSTYLE
1002
{
1070
   171
1070
     3
1070
   143
1040
0.03937
1070
   274
1070
     3
1070
    41
1040
10.0
1070
   289
1070
     0
1070
   141
1040
2.5
1070
   176
1070
     7
1070
   177
1070
     7
1070
   271
1070
     2
1070
    43
1040
3.75
1070
   278
1070
    44
1070
    44
1040
1.25
1070
    42
1040
0.625
1070
   147
1040
5.0
1070
    77
1070
     1
1070
   272
1070
     2
1070
    73
1070
     0
1070
   172
1070
     1
1070
    74
1070
     0
1070
   283
1070
     0
1070
   140
1040
14.0
1070
   284
1070
     8
1070
    78
1070
     8
1002
}
  0
DIMENSION
  5
170
330
1F
100
AcDbEntity
  8
0
370
    25
100
AcDbDimension
  2
*D6
 10
382.8402425744372
 20
414.9326943978354
 30
0.0
 11
267.8402425744372
 21
426.9326943978354
 31
0.0
 70
    32
 71
     5
 41
2.5
 42
230.0
  3
Standard
100
AcDbAlignedDimension
 13
152.8402425744372
 23
332.9313191921509
 33
0.0
 14
382.8402425744372
 24
332.9313191921509
 34
0.0
100
AcDbRotatedDimension
1001
ACAD
1000
DSTYLE
1002
{
1070
   171
1070
     3
1070
   143
1040
0.03937
1070
   274
1070
     3
1070
    41
1040
10.0
1070
   289
1070
     0
1070
   141
1040
2.5
1070
   176
1070
     7
1070
   177
1070
     7
1070
   271
1070
     2
1070
    43
1040
3.75
1070
   278
1070
    44
1070
    44
1040
1.25
1070
    42
1040
0.625
1070
   147
1040
5.0
1070
    77
1070
     1
1070
   272
1070
     2
1070
    73
1070
     0
1070
   172
1070
     1
1070
    74
1070
     0
1070
   283
1070
     0
1070
   140
1040
14.0
1070
   284
1070
     8
1070
    78
1070
     8
1002
}
  0
DIMENSION
  5
171
330
1F
100
AcDbEntity
  8
0
370
    25
100
AcDbDimension
  2
*D7
 10
517.3749645744373
 20
414.9326943978354
 30
0.0
 11
498.8965179956713
 21
426.9326943978354
 31
0.0
 70
   160
  1
37
 71
     5
 41
2.5
 42
36.95689315753202
  3
Standard
100
AcDbAlignedDimension
 13
480.4180714169053
 23
266.3329087471776
 33
0.0
 14
517.3749645744373
 24
266.3329087471776
 34
0.0
100
AcDbRotatedDimension
1001
ACAD
1000
DSTYLE
1002
{
1070
   171
1070
     3
1070
   143
1040
0.03937
1070
   274
1070
     3
1070
    41
1040
10.0
1070
   289
1070
     0
1070
   141
1040
2.5
1070
   176
1070
     7
1070
   177
1070
     7
1070
   271
1070
     2
1070
    43
1040
3.75
1070
   278
1070
    44
1070
    44
1040
1.25
1070
    42
1040
0.625
1070
   147
1040
5.0
1070
    77
1070
     1
1070
   272
1070
     2
1070
    73
1070
     0
1070
   172
1070
     1
1070
    74
1070
     0
1070
   283
1070
     0
1070
   140
1040
14.0
1070
   284
1070
     8
1070
    78
1070
     8
1002
}
  0
DIMENSION
  5
172
330
1F
100
AcDbEntity
  8
0
370
    25
100
AcDbDimension
  2
*D8
 10
453.0154427599078
 20
172.3692404077253
 30
0.0
 11
439.8487760932412
 21
275.6192369077253
 31
0.0
 70
    32
 71
     5
 41
2.5
 42
206.499993
  3
Standard
100
AcDbAlignedDimension
 13
511.3749625744372
 23
378.8692334077253
 33
0.0
 14
511.3749625744372
 24
172.3692404077253
 34
0.0
 50
90.0
100
AcDbRotatedDimension
1001
ACAD
1000
DSTYLE
1002
{
1070
   171
1070
     3
1070
   143
1040
0.03937
1070
   274
1070
     3
1070
    41
1040
10.0
1070
   289
1070
     0
1070
   141
1040
2.5
1070
   176
1070
     7
1070
   177
1070
     7
1070
   271
1070
     2
1070
    43
1040
3.75
1070
   278
1070
    44
1070
    44
1040
1.25
1070
    42
1040
0.625
1070
   147
1040
5.0
1070
    77
1070
     1
1070
   272
1070
     2
1070
    73
1070
     0
1070
   172
1070
     1
1070
    74
1070
     0
1070
   283
1070
     0
1070
   140
1040
14.0
1070
   284
1070
     8
1070
    78
1070
     8
1002
}
  0
LINE
  5
173
330
1F
100
AcDbEntity
  8
0
 62
     7
370
    60
100
AcDbLine
 10
295.8402425744372
 20
57.34978540772533
 30
0.0
 11
379.8402425744372
 21
57.34978540772533
 31
0.0
  0
LINE
  5
174
330
1F
100
AcDbEntity
  8
0
 62
     7
370
    60
100
AcDbLine
 10
152.8402425744372
 20
59.34978540772533
 30
0.0
 11
152.8402425744372
 21
378.3497784077253
 31
0.0
  0
LINE
  5
175
330
1F
100
AcDbEntity
  8
0
 62
     7
 48
0.05
370
    60
100
AcDbLine
 10
370.8402425744372
 20
172.8497854077253
 30
0.0
 11
370.8402425744372
 21
174.8497854077253
 31
0.0
  0
LINE
  5
176
330
1F
100
AcDbEntity
  8
0
 62
     7
 48
0.025
370
    60
100
AcDbLine
 10
370.8402425744372
 20
171.8497854077253
 30
0.0
 11
370.8402425744372
 21
172.8497854077253
 31
0.0
  0
LINE
  5
177
330
1F
100
AcDbEntity
  8
0
 62
     7
370
    60
100
AcDbLine
 10
329.8402425744372
 20
372.3497784077253
 30
0.0
 11
370.8402425744372
 21
372.3497784077253
 31
0.0
  0
LINE
  5
178
330
1F
100
AcDbEntity
  8
0
 62
     7
 48
0.025
370
    60
100
AcDbLine
 10
164.8402425744372
 20
377.3497784077253
 30
0.0
 11
164.8402425744372
 21
378.3497784077253
 31
0.0
  0
LINE
  5
179
330
1F
100
AcDbEntity
  8
0
 62
     7
 48
0.05
370
    60
100
AcDbLine
 10
164.8402425744372
 20
375.3497784077253
 30
0.0
 11
164.8402425744372
 21
377.3497784077253
 31
0.0
  0
LINE
  5
17A
330
1F
100
AcDbEntity
  8
0
 62
     7
 48
0.025
370
    60
100
AcDbLine
 10
370.8402425744372
 20
377.3497784077253
 30
0.0
 11
370.8402425744372
 21
378.3497784077253
 31
0.0
  0
LINE
  5
17B
330
1F
100
AcDbEntity
  8
0
 62
     7
 48
0.067684
370
    60
100
AcDbLine
 10
329.8402425744372
 20
372.6424114077253
 30
0.0
 11
329.8402425744372
 21
375.3497784077253
 31
0.0
  0
LINE
  5
17C
330
1F
100
AcDbEntity
  8
0
 62
     7
 48
0.067684
370
    60
100
AcDbLine
 10
329.8402425744372
 20
174.8497854077253
 30
0.0
 11
329.8402425744372
 21
177.5571564077254
 31
0.0
  0
LINE
  5
17D
330
1F
100
AcDbEntity
  8
0
 62
     7
370
    60
100
AcDbLine
 10
329.8402425744372
 20
177.5571564077254
 30
0.0
 11
329.8402425744372
 21
372.6424114077253
 31
0.0
  0
LINE
  5
17E
330
1F
100
AcDbEntity
  8
0
 62
     7
 48
0.067684
370
    60
100
AcDbLine
 10
288.8402425744372
 20
372.6424114077253
 30
0.0
 11
288.8402425744372
 21
375.3497784077253
 31
0.0
  0
LINE
  5
17F
330
1F
100
AcDbEntity
  8
0
 62
     7
 48
0.067684
370
    60
100
AcDbLine
 10
288.8402425744372
 20
174.8497854077253
 30
0.0
 11
288.8402425744372
 21
177.5571564077254
 31
0.0
  0
LINE
  5
180
330
1F
100
AcDbEntity
  8
0
 62
     7
370
    60
100
AcDbLine
 10
288.8402425744372
 20
177.5571564077254
 30
0.0
 11
288.8402425744372
 21
372.6424114077253
 31
0.0
  0
LINE
  5
181
330
1F
100
AcDbEntity
  8
0
 62
     7
 48
0.067684
370
    60
100
AcDbLine
 10
370.8402425744372
 20
372.6424114077253
 30
0.0
 11
370.8402425744372
 21
375.3497784077253
 31
0.0
  0
LINE
  5
182
330
1F
100
AcDbEntity
  8
0
 62
     7
 48
0.067684
370
    60
100
AcDbLine
 10
370.8402425744372
 20
174.8497854077253
 30
0.0
 11
370.8402425744372
 21
177.5571564077254
 31
0.0
  0
LINE
  5
183
330
1F
100
AcDbEntity
  8
0
 62
     7
370
    60
100
AcDbLine
 10
370.8402425744372
 20
177.5571564077254
 30
0.0
 11
370.8402425744372
 21
372.6424114077253
 31
0.0
  0
LINE
  5
184
330
1F
100
AcDbEntity
  8
0
 62
     7
 48
0.067684
370
    60
100
AcDbLine
 10
246.8402425744372
 20
372.6424114077253
 30
0.0
 11
246.8402425744372
 21
375.3497784077253
 31
0.0
  0
LINE
  5
185
330
1F
100
AcDbEntity
  8
0
 62
     7
 48
0.067684
370
    60
100
AcDbLine
 10
246.8402425744372
 20
174.8497854077253
 30
0.0
 11
246.8402425744372
 21
177.5571564077254
 31
0.0
  0
LINE
  5
186
330
1F
100
AcDbEntity
  8
0
 62
     7
370
    60
100
AcDbLine
 10
246.8402425744372
 20
177.5571564077254
 30
0.0
 11
246.8402425744372
 21
372.6424114077253
 31
0.0
  0
LINE
  5
187
330
1F
100
AcDbEntity
  8
0
 62
     7
 48
0.067684
370
    60
100
AcDbLine
 10
206.8402425744372
 20
372.6424114077253
 30
0.0
 11
206.8402425744372
 21
375.3497784077253
 31
0.0
  0
LINE
  5
188
330
1F
100
AcDbEntity
  8
0
 62
     7
 48
0.067684
370
    60
100
AcDbLine
 10
206.8402425744372
 20
174.8497854077253
 30
0.0
 11
206.8402425744372
 21
177.5571564077254
 31
0.0
  0
LINE
  5
189
330
1F
100
AcDbEntity
  8
0
 62
     7
370
    60
100
AcDbLine
 10
206.8402425744372
 20
177.5571564077254
 30
0.0
 11
206.8402425744372
 21
372.6424114077253
 31
0.0
  0
VIEWPORT
  5
BB
330
73
100
AcDbEntity
 67
     1
  8
0
100
AcDbViewport
 10
7.8
 20
4.5
 30
0.0
 40
15.64
 41
9.0
 68
     1
 69
     1
 12
6.0
 22
4.5
 13
0.0
 23
0.0
 14
0.5
 24
0.5
 15
0.5
 25
0.5
 16
0.0
 26
0.0
 36
1.0
 17
0.0
 27
0.0
 37
0.0
 42
50.0
 43
0.0
 44
0.0
 45
12.0
 50
0.0
 51
0.0
 72
   100
 90
   557152
  1

281
     0
 71
     1
 74
     0
110
0.0
120
0.0
130
0.0
111
1.0
121
0.0
131
0.0
112
0.0
122
1.0
132
0.0
 79
     0
146
0.0
  0
ENDSEC
  0
SECTION
  2
OBJECTS
  0
DICTIONARY
  5
C
330
0
100
AcDbDictionary
281
     1
  3
ACAD_COLOR
350
6C
  3
ACAD_GROUP
350
D
  3
ACAD_LAYOUT
350
1A
  3
ACAD_MATERIAL
350
6B
  3
ACAD_MLEADERSTYLE
350
1FE
  3
ACAD_MLINESTYLE
350
17
  3
ACAD_PLOTSETTINGS
350
19
  3
ACAD_PLOTSTYLENAME
350
E
  3
ACAD_SCALELIST
350
99
  3
ACAD_TABLESTYLE
350
92
  3
ACDBHEADERROUNDTRIPXREC
350
1FF
  3
AcDbVariableDictionary
350
59
  3
DWGPROPS
350
202
  0
DICTIONARY
  5
6C
102
{ACAD_REACTORS
330
C
102
}
330
C
100
AcDbDictionary
281
     1
  0
DICTIONARY
  5
D
102
{ACAD_REACTORS
330
C
102
}
330
C
100
AcDbDictionary
281
     1
  0
DICTIONARY
  5
1A
102
{ACAD_REACTORS
330
C
102
}
330
C
100
AcDbDictionary
281
     1
  3
Layout1
350
74
  3
Layout2
350
1EA
  3
Model
350
22
  0
DICTIONARY
  5
6B
102
{ACAD_REACTORS
330
C
102
}
330
C
100
AcDbDictionary
281
     1
  0
DICTIONARY
  5
1FE
102
{ACAD_REACTORS
330
C
102
}
330
C
100
AcDbDictionary
281
     1
  0
DICTIONARY
  5
17
102
{ACAD_REACTORS
330
C
102
}
330
C
100
AcDbDictionary
281
     1
  3
Standard
350
18
  0
DICTIONARY
  5
19
102
{ACAD_REACTORS
330
C
102
}
330
C
100
AcDbDictionary
281
     1
  0
ACDBDICTIONARYWDFLT
  5
E
102
{ACAD_REACTORS
330
C
102
}
330
C
100
AcDbDictionary
281
     1
  3
Normal
350
F
100
AcDbDictionaryWithDefault
340
F
  0
DICTIONARY
  5
99
102
{ACAD_REACTORS
330
C
102
}
330
C
100
AcDbDictionary
281
     1
  3
A0
350
D5
  3
A1
350
D6
  3
A2
350
D7
  3
A3
350
D8
  3
A4
350
D9
  3
A5
350
DA
  3
A6
350
DB
  3
A7
350
DC
  3
A8
350
DD
  3
A9
350
DE
  3
B0
350
DF
  3
B1
350
E0
  3
B2
350
E1
  3
B3
350
E2
  3
B4
350
E3
  3
B5
350
E4
  3
B6
350
E5
  3
B7
350
E6
  3
B8
350
E7
  3
B9
350
E8
  3
C0
350
E9
  3
C1
350
EA
  3
C2
350
EB
  3
C3
350
EC
  3
C4
350
ED
  3
C5
350
EE
  3
C6
350
EF
  3
C7
350
F0
  3
C8
350
F1
  3
C9
350
F2
  3
D0
350
F3
  3
D1
350
F4
  3
D2
350
F5
  0
DICTIONARY
  5
92
102
{ACAD_REACTORS
330
C
102
}
330
C
100
AcDbDictionary
281
     1
  0
DICTIONARY
  5
1FF
102
{ACAD_REACTORS
330
C
102
}
330
C
100
AcDbDictionary
281
     1
  3
COLORDICT
350
200
  3
MATERIALDICT
350
201
  0
DICTIONARY
  5
59
102
{ACAD_REACTORS
330
C
102
}
330
C
100
AcDbDictionary
281
     1
  3
CTABLESTYLE
350
98
  3
DIMASSOC
350
5A
  3
HIDETEXT
350
5E
  0
XRECORD
  5
202
102
{ACAD_REACTORS
330
C
102
}
330
C
100
AcDbXrecord
280
     1
  1
DWGPROPS COOKIE
  2

  3

  4

  6

  7

  8
BelottiMc
  9

300
=
301
=
302
=
303
=
304
=
305
=
306
=
307
=
308
=
309
=
 40
0.0
 41
2455098.371182836
 42
2455098.412849491
  1

 90
        0
  0
LAYOUT
  5
74
102
{ACAD_REACTORS
330
1A
102
}
330
1A
100
AcDbPlotSettings
  1

  2
ProgeSOFT PDF Wizard
  4
A4
  6

 40
5.926666666666667
 41
6.011333333333317
 42
6.095999999999985
 43
5.926666666666667
 44
210.0
 45
297.0
 46
88.56200000000001
 47
136.531
 48
0.0
 49
0.0
140
0.0
141
0.0
142
1.0
143
1.0
 70
   692
 72
     1
 73
     0
 74
     0
  7

 75
    16
147
1.0
148
4.426666666666668
149
1.5
100
AcDbLayout
  1
Layout1
 70
     1
 71
     1
 10
0.0
 20
0.0
 11
0.0
 21
0.0
 12
0.0
 22
0.0
 32
0.0
 14
0.0
 24
0.0
 34
0.0
 15
0.0
 25
0.0
 35
0.0
146
0.0
 13
0.0
 23
0.0
 33
0.0
 16
1.0
 26
0.0
 36
0.0
 17
0.0
 27
1.0
 37
0.0
 76
     0
330
D1
331
1FD
1001
PROGE_PRINT_SETTINGS
1070
    73
1070
     1
  0
LAYOUT
  5
1EA
102
{ACAD_REACTORS
330
1A
102
}
330
1A
100
AcDbPlotSettings
  1

  2
ProgeSOFT PDF Wizard
  4
A4
  6

 40
5.926666666666667
 41
6.011333333333317
 42
6.095999999999985
 43
5.926666666666667
 44
210.0
 45
297.0
 46
88.562
 47
136.531
 48
0.0
 49
0.0
140
0.0
141
0.0
142
1.0
143
1.0
 70
   692
 72
     1
 73
     0
 74
     0
  7

 75
    16
147
1.0
148
0.0
149
0.0
100
AcDbLayout
  1
Layout2
 70
     1
 71
     2
 10
0.0
 20
0.0
 11
12.0
 21
9.0
 12
0.0
 22
0.0
 32
0.0
 14
0.0
 24
0.0
 34
0.0
 15
12.0
 25
9.0
 35
0.0
146
0.0
 13
0.0
 23
0.0
 33
0.0
 16
1.0
 26
0.0
 36
0.0
 17
0.0
 27
1.0
 37
0.0
 76
     0
330
73
331
BB
1001
PROGE_PRINT_SETTINGS
1070
    73
1070
     1
  0
LAYOUT
  5
22
102
{ACAD_REACTORS
330
1A
102
}
330
1A
100
AcDbPlotSettings
  1

  2
none_device
  4
Letter_(8.50_x_11.00_Inches)
  6

 40
6.349999904632568
 41
6.349999904632568
 42
6.350006103515625
 43
6.350006103515625
 44
215.8999938964844
 45
279.3999938964844
 46
0.0
 47
0.0
 48
0.0
 49
0.0
140
0.0
141
0.0
142
1.0
143
3.783612371602354
 70
 11952
 72
     1
 73
     1
 74
     0
  7

 75
     0
147
0.2642976874442615
148
0.1311165230791651
149
0.096403374003771
100
AcDbLayout
  1
Model
 70
     1
 71
     0
 10
0.0
 20
0.0
 11
0.0
 21
0.0
 12
0.0
 22
0.0
 32
0.0
 14
107.012304277046
 24
50.34978540772533
 34
0.0
 15
537.3749645744373
 25
433.9326943978354
 35
0.0
146
0.0
 13
0.0
 23
0.0
 33
0.0
 16
1.0
 26
0.0
 36
0.0
 17
0.0
 27
1.0
 37
0.0
 76
     0
330
1F
331
97
  0
MLINESTYLE
  5
18
102
{ACAD_REACTORS
330
17
102
}
330
17
100
AcDbMlineStyle
  2
STANDARD
 70
     0
  3

 62
   256
 51
90.0
 52
90.0
 71
     2
 49
0.5
 62
   256
  6
BYLAYER
 49
-0.5
 62
   256
  6
BYLAYER
  0
ACDBPLACEHOLDER
  5
F
102
{ACAD_REACTORS
330
E
102
}
330
E
  0
SCALE
  5
D5
102
{ACAD_REACTORS
330
99
102
}
330
99
100
AcDbScale
 70
     0
300
1:1
140
1.0
141
1.0
290
     1
  0
SCALE
  5
D6
102
{ACAD_REACTORS
330
99
102
}
330
99
100
AcDbScale
 70
     0
300
1:2
140
1.0
141
2.0
290
     0
  0
SCALE
  5
D7
102
{ACAD_REACTORS
330
99
102
}
330
99
100
AcDbScale
 70
     0
300
1:4
140
1.0
141
4.0
290
     0
  0
SCALE
  5
D8
102
{ACAD_REACTORS
330
99
102
}
330
99
100
AcDbScale
 70
     0
300
1:5
140
1.0
141
5.0
290
     0
  0
SCALE
  5
D9
102
{ACAD_REACTORS
330
99
102
}
330
99
100
AcDbScale
 70
     0
300
1:8
140
1.0
141
8.0
290
     0
  0
SCALE
  5
DA
102
{ACAD_REACTORS
330
99
102
}
330
99
100
AcDbScale
 70
     0
300
1:10
140
1.0
141
10.0
290
     0
  0
SCALE
  5
DB
102
{ACAD_REACTORS
330
99
102
}
330
99
100
AcDbScale
 70
     0
300
1:16
140
1.0
141
16.0
290
     0
  0
SCALE
  5
DC
102
{ACAD_REACTORS
330
99
102
}
330
99
100
AcDbScale
 70
     0
300
1:20
140
1.0
141
20.0
290
     0
  0
SCALE
  5
DD
102
{ACAD_REACTORS
330
99
102
}
330
99
100
AcDbScale
 70
     0
300
1:30
140
1.0
141
30.0
290
     0
  0
SCALE
  5
DE
102
{ACAD_REACTORS
330
99
102
}
330
99
100
AcDbScale
 70
     0
300
1:40
140
1.0
141
40.0
290
     0
  0
SCALE
  5
DF
102
{ACAD_REACTORS
330
99
102
}
330
99
100
AcDbScale
 70
     0
300
1:50
140
1.0
141
50.0
290
     0
  0
SCALE
  5
E0
102
{ACAD_REACTORS
330
99
102
}
330
99
100
AcDbScale
 70
     0
300
1:100
140
1.0
141
100.0
290
     0
  0
SCALE
  5
E1
102
{ACAD_REACTORS
330
99
102
}
330
99
100
AcDbScale
 70
     0
300
2:1
140
2.0
141
1.0
290
     0
  0
SCALE
  5
E2
102
{ACAD_REACTORS
330
99
102
}
330
99
100
AcDbScale
 70
     0
300
4:1
140
4.0
141
1.0
290
     0
  0
SCALE
  5
E3
102
{ACAD_REACTORS
330
99
102
}
330
99
100
AcDbScale
 70
     0
300
8:1
140
8.0
141
1.0
290
     0
  0
SCALE
  5
E4
102
{ACAD_REACTORS
330
99
102
}
330
99
100
AcDbScale
 70
     0
300
10:1
140
10.0
141
1.0
290
     0
  0
SCALE
  5
E5
102
{ACAD_REACTORS
330
99
102
}
330
99
100
AcDbScale
 70
     0
300
100:1
140
100.0
141
1.0
290
     0
  0
SCALE
  5
E6
102
{ACAD_REACTORS
330
99
102
}
330
99
100
AcDbScale
 70
     0
300
1/128" = 1'-0"
140
0.0078125
141
12.0
290
     0
  0
SCALE
  5
E7
102
{ACAD_REACTORS
330
99
102
}
330
99
100
AcDbScale
 70
     0
300
1/64" = 1'-0"
140
0.015625
141
12.0
290
     0
  0
SCALE
  5
E8
102
{ACAD_REACTORS
330
99
102
}
330
99
100
AcDbScale
 70
     0
300
1/32" = 1'-0"
140
0.03125
141
12.0
290
     0
  0
SCALE
  5
E9
102
{ACAD_REACTORS
330
99
102
}
330
99
100
AcDbScale
 70
     0
300
1/16" = 1'-0"
140
0.0625
141
12.0
290
     0
  0
SCALE
  5
EA
102
{ACAD_REACTORS
330
99
102
}
330
99
100
AcDbScale
 70
     0
300
3/32" = 1'-0"
140
0.09375
141
12.0
290
     0
  0
SCALE
  5
EB
102
{ACAD_REACTORS
330
99
102
}
330
99
100
AcDbScale
 70
     0
300
1/8" = 1'-0"
140
0.125
141
12.0
290
     0
  0
SCALE
  5
EC
102
{ACAD_REACTORS
330
99
102
}
330
99
100
AcDbScale
 70
     0
300
3/16" = 1'-0"
140
0.1875
141
12.0
290
     0
  0
SCALE
  5
ED
102
{ACAD_REACTORS
330
99
102
}
330
99
100
AcDbScale
 70
     0
300
1/4" = 1'-0"
140
0.25
141
12.0
290
     0
  0
SCALE
  5
EE
102
{ACAD_REACTORS
330
99
102
}
330
99
100
AcDbScale
 70
     0
300
3/8" = 1'-0"
140
0.375
141
12.0
290
     0
  0
SCALE
  5
EF
102
{ACAD_REACTORS
330
99
102
}
330
99
100
AcDbScale
 70
     0
300
1/2" = 1'-0"
140
0.5
141
12.0
290
     0
  0
SCALE
  5
F0
102
{ACAD_REACTORS
330
99
102
}
330
99
100
AcDbScale
 70
     0
300
3/4" = 1'-0"
140
0.75
141
12.0
290
     0
  0
SCALE
  5
F1
102
{ACAD_REACTORS
330
99
102
}
330
99
100
AcDbScale
 70
     0
300
1" = 1'-0"
140
1.0
141
12.0
290
     0
  0
SCALE
  5
F2
102
{ACAD_REACTORS
330
99
102
}
330
99
100
AcDbScale
 70
     0
300
1-1/2" = 1'-0"
140
1.5
141
12.0
290
     0
  0
SCALE
  5
F3
102
{ACAD_REACTORS
330
99
102
}
330
99
100
AcDbScale
 70
     0
300
3" = 1'-0"
140
3.0
141
12.0
290
     0
  0
SCALE
  5
F4
102
{ACAD_REACTORS
330
99
102
}
330
99
100
AcDbScale
 70
     0
300
6" = 1'-0"
140
6.0
141
12.0
290
     0
  0
SCALE
  5
F5
102
{ACAD_REACTORS
330
99
102
}
330
99
100
AcDbScale
 70
     0
300
1'-0" = 1'-0"
140
12.0
141
12.0
290
     0
  0
XRECORD
  5
200
102
{ACAD_REACTORS
330
1FF
102
}
330
1FF
100
AcDbXrecord
280
     1
340
6C
  0
XRECORD
  5
201
102
{ACAD_REACTORS
330
1FF
102
}
330
1FF
100
AcDbXrecord
280
     1
340
6B
  0
DICTIONARYVAR
  5
98
102
{ACAD_REACTORS
330
59
102
}
330
59
100
DictionaryVariables
280
     0
  1
Standard
  0
DICTIONARYVAR
  5
5A
102
{ACAD_REACTORS
330
59
102
}
330
59
100
DictionaryVariables
280
     0
  1
2
  0
DICTIONARYVAR
  5
5E
102
{ACAD_REACTORS
330
59
102
}
330
59
100
DictionaryVariables
280
     0
  1
1
  0
ENDSEC
  0
EOF
