  0
SECTION
  2
HEADER
  9
$ACADVER
  1
AC1015
  9
$ACADMAINTVER
 70
     6
  9
$DWGCODEPAGE
  3
ANSI_1252
  9
$INSBASE
 10
0.0
 20
0.0
 30
0.0
  9
$EXTMIN
 10
60.69899955601598
 20
56.29828326180258
 30
0.0
  9
$EXTMAX
 10
758.0821107170457
 20
553.7377822411405
 30
0.0
  9
$LIMMIN
 10
0.0
 20
0.0
  9
$LIMMAX
 10
0.0
 20
0.0
  9
$ORTHOMODE
 70
     0
  9
$REGENMODE
 70
     1
  9
$FILLMODE
 70
     1
  9
$QTEXTMODE
 70
     0
  9
$MIRRTEXT
 70
     0
  9
$LTSCALE
 40
1.0
  9
$ATTMODE
 70
     1
  9
$TEXTSIZE
 40
2.5
  9
$TRACEWID
 40
1.0
  9
$TEXTSTYLE
  7
Standard
  9
$CLAYER
  8
0
  9
$CELTYPE
  6
ByLayer
  9
$CECOLOR
 62
   256
  9
$CELTSCALE
 40
1.0
  9
$DISPSILH
 70
     0
  9
$DIMSCALE
 40
1.0
  9
$DIMASZ
 40
2.5
  9
$DIMEXO
 40
0.625
  9
$DIMDLI
 40
3.75
  9
$DIMRND
 40
0.0
  9
$DIMDLE
 40
0.0
  9
$DIMEXE
 40
1.25
  9
$DIMTP
 40
0.0
  9
$DIMTM
 40
0.0
  9
$DIMTXT
 40
2.5
  9
$DIMCEN
 40
2.5
  9
$DIMTSZ
 40
0.0
  9
$DIMTOL
 70
     0
  9
$DIMLIM
 70
     0
  9
$DIMTIH
 70
     0
  9
$DIMTOH
 70
     0
  9
$DIMSE1
 70
     0
  9
$DIMSE2
 70
     0
  9
$DIMTAD
 70
     1
  9
$DIMZIN
 70
     8
  9
$DIMBLK
  1

  9
$DIMASO
 70
     1
  9
$DIMSHO
 70
     1
  9
$DIMPOST
  1

  9
$DIMAPOST
  1

  9
$DIMALT
 70
     0
  9
$DIMALTD
 70
     3
  9
$DIMALTF
 40
0.03937007874016
  9
$DIMLFAC
 40
1.0
  9
$DIMTOFL
 70
     1
  9
$DIMTVP
 40
0.0
  9
$DIMTIX
 70
     0
  9
$DIMSOXD
 70
     0
  9
$DIMSAH
 70
     0
  9
$DIMBLK1
  1

  9
$DIMBLK2
  1

  9
$DIMSTYLE
  2
ISO-25
  9
$DIMCLRD
 70
     0
  9
$DIMCLRE
 70
     0
  9
$DIMCLRT
 70
     0
  9
$DIMTFAC
 40
1.0
  9
$DIMGAP
 40
0.625
  9
$DIMJUST
 70
     0
  9
$DIMSD1
 70
     0
  9
$DIMSD2
 70
     0
  9
$DIMTOLJ
 70
     0
  9
$DIMTZIN
 70
     8
  9
$DIMALTZ
 70
     0
  9
$DIMALTTZ
 70
     0
  9
$DIMUPT
 70
     0
  9
$DIMDEC
 70
     2
  9
$DIMTDEC
 70
     2
  9
$DIMALTU
 70
     2
  9
$DIMALTTD
 70
     3
  9
$DIMTXSTY
  7
Standard
  9
$DIMAUNIT
 70
     0
  9
$DIMADEC
 70
     0
  9
$DIMALTRND
 40
0.0
  9
$DIMAZIN
 70
     0
  9
$DIMDSEP
 70
    44
  9
$DIMATFIT
 70
     3
  9
$DIMFRAC
 70
     0
  9
$DIMLDRBLK
  1

  9
$DIMLUNIT
 70
     2
  9
$DIMLWD
 70
    -2
  9
$DIMLWE
 70
    -2
  9
$DIMTMOVE
 70
     0
  9
$LUNITS
 70
     2
  9
$LUPREC
 70
     4
  9
$SKETCHINC
 40
1.0
  9
$FILLETRAD
 40
0.0
  9
$AUNITS
 70
     0
  9
$AUPREC
 70
     0
  9
$MENU
  1
.
  9
$ELEVATION
 40
0.0
  9
$PELEVATION
 40
0.0
  9
$THICKNESS
 40
0.0
  9
$LIMCHECK
 70
     0
  9
$CHAMFERA
 40
0.0
  9
$CHAMFERB
 40
0.0
  9
$CHAMFERC
 40
0.0
  9
$CHAMFERD
 40
0.0
  9
$SKPOLY
 70
     0
  9
$TDCREATE
 40
2455097.406891516
  9
$TDUCREATE
 40
2455097.323558183
  9
$TDUPDATE
 40
2455097.44855816
  9
$TDUUPDATE
 40
2455097.365224827
  9
$TDINDWG
 40
0.0348890856
  9
$TDUSRTIMER
 40
0.0348867593
  9
$USRTIMER
 70
     1
  9
$ANGBASE
 50
0.0
  9
$ANGDIR
 70
     0
  9
$PDMODE
 70
     0
  9
$PDSIZE
 40
0.0
  9
$PLINEWID
 40
0.0
  9
$SPLFRAME
 70
     0
  9
$SPLINETYPE
 70
     6
  9
$SPLINESEGS
 70
     8
  9
$HANDSEED
  5
2AE
  9
$SURFTAB1
 70
     6
  9
$SURFTAB2
 70
     6
  9
$SURFTYPE
 70
     6
  9
$SURFU
 70
     6
  9
$SURFV
 70
     6
  9
$UCSBASE
  2

  9
$UCSNAME
  2

  9
$UCSORG
 10
0.0
 20
0.0
 30
0.0
  9
$UCSXDIR
 10
1.0
 20
0.0
 30
0.0
  9
$UCSYDIR
 10
0.0
 20
1.0
 30
0.0
  9
$UCSORTHOREF
  2

  9
$UCSORTHOVIEW
 70
     0
  9
$UCSORGTOP
 10
0.0
 20
0.0
 30
0.0
  9
$UCSORGBOTTOM
 10
0.0
 20
0.0
 30
0.0
  9
$UCSORGLEFT
 10
0.0
 20
0.0
 30
0.0
  9
$UCSORGRIGHT
 10
0.0
 20
0.0
 30
0.0
  9
$UCSORGFRONT
 10
0.0
 20
0.0
 30
0.0
  9
$UCSORGBACK
 10
0.0
 20
0.0
 30
0.0
  9
$PUCSBASE
  2

  9
$PUCSNAME
  2

  9
$PUCSORG
 10
0.0
 20
0.0
 30
0.0
  9
$PUCSXDIR
 10
1.0
 20
0.0
 30
0.0
  9
$PUCSYDIR
 10
0.0
 20
1.0
 30
0.0
  9
$PUCSORTHOREF
  2

  9
$PUCSORTHOVIEW
 70
     0
  9
$PUCSORGTOP
 10
0.0
 20
0.0
 30
0.0
  9
$PUCSORGBOTTOM
 10
0.0
 20
0.0
 30
0.0
  9
$PUCSORGLEFT
 10
0.0
 20
0.0
 30
0.0
  9
$PUCSORGRIGHT
 10
0.0
 20
0.0
 30
0.0
  9
$PUCSORGFRONT
 10
0.0
 20
0.0
 30
0.0
  9
$PUCSORGBACK
 10
0.0
 20
0.0
 30
0.0
  9
$USERI1
 70
     0
  9
$USERI2
 70
     0
  9
$USERI3
 70
     0
  9
$USERI4
 70
     0
  9
$USERI5
 70
     0
  9
$USERR1
 40
0.0
  9
$USERR2
 40
0.0
  9
$USERR3
 40
0.0
  9
$USERR4
 40
0.0
  9
$USERR5
 40
0.0
  9
$WORLDVIEW
 70
     1
  9
$SHADEDGE
 70
     3
  9
$SHADEDIF
 70
    70
  9
$TILEMODE
 70
     1
  9
$MAXACTVP
 70
    64
  9
$PINSBASE
 10
0.0
 20
0.0
 30
0.0
  9
$PLIMCHECK
 70
     0
  9
$PEXTMIN
 10
0.0
 20
0.0
 30
0.0
  9
$PEXTMAX
 10
12.0
 20
9.0
 30
0.0
  9
$PLIMMIN
 10
0.0
 20
0.0
  9
$PLIMMAX
 10
12.0
 20
9.0
  9
$UNITMODE
 70
     0
  9
$VISRETAIN
 70
     1
  9
$PLINEGEN
 70
     0
  9
$PSLTSCALE
 70
     1
  9
$TREEDEPTH
 70
  3020
  9
$CMLSTYLE
  2
Standard
  9
$CMLJUST
 70
     0
  9
$CMLSCALE
 40
20.0
  9
$PROXYGRAPHICS
 70
     1
  9
$MEASUREMENT
 70
     1
  9
$CELWEIGHT
370
    -1
  9
$ENDCAPS
280
     0
  9
$JOINSTYLE
280
     0
  9
$LWDISPLAY
290
     0
  9
$INSUNITS
 70
     4
  9
$HYPERLINKBASE
  1

  9
$STYLESHEET
  1

  9
$XEDIT
290
     1
  9
$CEPSNTYPE
380
     0
  9
$PSTYLEMODE
290
     1
  9
$FINGERPRINTGUID
  2
{5559452E-1E62-4159-8551-BF76FFF3E7E8}
  9
$VERSIONGUID
  2
{3CEB9EF8-4431-4551-B596-6734A9F966A9}
  9
$EXTNAMES
290
     1
  9
$PSVPSCALE
 40
0.0
  9
$OLESTARTUP
290
     0
  0
ENDSEC
  0
SECTION
  2
CLASSES
  0
CLASS
  1
ACDBDICTIONARYWDFLT
  2
AcDbDictionaryWithDefault
  3
ObjectDBX Classes
 90
        0
280
     0
281
     0
  0
CLASS
  1
ACDBPLACEHOLDER
  2
AcDbPlaceHolder
  3
ObjectDBX Classes
 90
        0
280
     0
281
     0
  0
CLASS
  1
LAYOUT
  2
AcDbLayout
  3
ObjectDBX Classes
 90
        0
280
     0
281
     0
  0
CLASS
  1
DICTIONARYVAR
  2
AcDbDictionaryVar
  3
ObjectDBX Classes
 90
        0
280
     0
281
     0
  0
CLASS
  1
TABLESTYLE
  2
AcDbTableStyle
  3
ObjectDBX Classes
 90
     4095
280
     0
281
     0
  0
CLASS
  1
SCALE
  2
AcDbScale
  3
ObjectDBX Classes
 90
     1153
280
     0
281
     0
  0
ENDSEC
  0
SECTION
  2
TABLES
  0
TABLE
  2
VPORT
  5
8
330
0
100
AcDbSymbolTable
 70
     2
  0
VPORT
  5
97
330
8
100
AcDbSymbolTableRecord
100
AcDbViewportTableRecord
  2
*Active
 70
     0
 10
0.0
 20
0.0
 11
1.0
 21
1.0
 12
571.493790235276
 22
292.0962050716442
 13
0.0
 23
0.0
 14
10.0
 24
10.0
 15
10.0
 25
10.0
 16
0.0
 26
0.0
 36
1.0
 17
0.0
 27
0.0
 37
0.0
 40
1188.973778398048
 41
1.664827586206897
 42
50.0
 43
0.0
 44
0.0
 50
0.0
 51
0.0
 71
     0
 72
  1000
 73
     1
 74
     3
 75
     0
 76
     0
 77
     0
 78
     0
281
     0
 65
     1
110
0.0
120
0.0
130
0.0
111
1.0
121
0.0
131
0.0
112
0.0
122
1.0
132
0.0
 79
     0
146
0.0
  0
ENDTAB
  0
TABLE
  2
LTYPE
  5
5
330
0
100
AcDbSymbolTable
 70
     2
  0
LTYPE
  5
14
330
5
100
AcDbSymbolTableRecord
100
AcDbLinetypeTableRecord
  2
ByBlock
 70
     0
  3

 72
    65
 73
     0
 40
0.0
  0
LTYPE
  5
15
330
5
100
AcDbSymbolTableRecord
100
AcDbLinetypeTableRecord
  2
ByLayer
 70
     0
  3

 72
    65
 73
     0
 40
0.0
  0
LTYPE
  5
16
330
5
100
AcDbSymbolTableRecord
100
AcDbLinetypeTableRecord
  2
Continuous
 70
     0
  3
Solid line
 72
    65
 73
     0
 40
0.0
  0
LTYPE
  5
283
330
5
100
AcDbSymbolTableRecord
100
AcDbLinetypeTableRecord
  2
DASHDOT
 70
     0
  3
 __ . __ . __ . __ . __ . __ . __ . 
 72
    65
 73
     4
 40
18.5
 49
12.0
 74
     0
 49
-3.0
 74
     0
 49
0.5
 74
     0
 49
-3.0
 74
     0
  0
ENDTAB
  0
TABLE
  2
LAYER
  5
2
330
0
100
AcDbSymbolTable
 70
     2
  0
LAYER
  5
10
330
2
100
AcDbSymbolTableRecord
100
AcDbLayerTableRecord
  2
0
 70
     0
 62
     7
  6
Continuous
370
    -3
390
F
  0
LAYER
  5
183
330
2
100
AcDbSymbolTableRecord
100
AcDbLayerTableRecord
  2
DEFPOINTS
 70
     0
 62
     7
  6
Continuous
290
     0
370
    -3
390
F
  0
ENDTAB
  0
TABLE
  2
STYLE
  5
3
330
0
100
AcDbSymbolTable
 70
     1
  0
STYLE
  5
11
330
3
100
AcDbSymbolTableRecord
100
AcDbTextStyleTableRecord
  2
Standard
 70
     0
 40
0.0
 41
1.0
 50
0.0
 71
     0
 42
2.5
  3
txt
  4

  0
ENDTAB
  0
TABLE
  2
VIEW
  5
6
330
0
100
AcDbSymbolTable
 70
     0
  0
ENDTAB
  0
TABLE
  2
UCS
  5
7
330
0
100
AcDbSymbolTable
 70
     0
  0
ENDTAB
  0
TABLE
  2
APPID
  5
9
330
0
100
AcDbSymbolTable
 70
     3
  0
APPID
  5
12
330
9
100
AcDbSymbolTableRecord
100
AcDbRegAppTableRecord
  2
ACAD
 70
     0
  0
APPID
  5
281
330
9
100
AcDbSymbolTableRecord
100
AcDbRegAppTableRecord
  2
PROGE_PRINT_SETTINGS
 70
     0
  0
APPID
  5
282
330
9
100
AcDbSymbolTableRecord
100
AcDbRegAppTableRecord
  2
Conv5506CA
 70
     0
  0
ENDTAB
  0
TABLE
  2
DIMSTYLE
  5
A
330
0
100
AcDbSymbolTable
 70
     2
100
AcDbDimStyleTable
  0
DIMSTYLE
105
27
102
{ACAD_REACTORS
330
17B
330
17C
330
17D
330
17F
330
180
330
181
330
182
102
}
330
A
100
AcDbSymbolTableRecord
100
AcDbDimStyleTableRecord
  2
Standard
 70
     0
278
     0
340
11
  0
DIMSTYLE
105
29
330
A
100
AcDbSymbolTableRecord
100
AcDbDimStyleTableRecord
  2
ISO-25
 70
     0
 41
2.5
 42
0.625
 43
3.75
 44
1.25
 73
     0
 74
     0
 77
     1
 78
     8
140
2.5
141
2.5
143
0.03937007874016
147
0.625
171
     3
172
     1
271
     2
272
     2
274
     3
278
    44
283
     0
284
     8
340
11
  0
ENDTAB
  0
TABLE
  2
BLOCK_RECORD
  5
1
330
0
100
AcDbSymbolTable
 70
    19
  0
BLOCK_RECORD
  5
1F
330
1
100
AcDbSymbolTableRecord
100
AcDbBlockTableRecord
  2
*Model_Space
340
22
  0
BLOCK_RECORD
  5
73
330
1
100
AcDbSymbolTableRecord
100
AcDbBlockTableRecord
  2
*Paper_Space
340
22C
  0
BLOCK_RECORD
  5
D1
330
1
100
AcDbSymbolTableRecord
100
AcDbBlockTableRecord
  2
*Paper_Space0
340
74
  0
BLOCK_RECORD
  5
190
330
1
100
AcDbSymbolTableRecord
100
AcDbBlockTableRecord
  2
*D1
340
0
  0
BLOCK_RECORD
  5
19B
330
1
100
AcDbSymbolTableRecord
100
AcDbBlockTableRecord
  2
*D2
340
0
  0
BLOCK_RECORD
  5
1A7
330
1
100
AcDbSymbolTableRecord
100
AcDbBlockTableRecord
  2
*D3
340
0
  0
BLOCK_RECORD
  5
1B2
330
1
100
AcDbSymbolTableRecord
100
AcDbBlockTableRecord
  2
*D4
340
0
  0
BLOCK_RECORD
  5
1BD
330
1
100
AcDbSymbolTableRecord
100
AcDbBlockTableRecord
  2
*D5
340
0
  0
BLOCK_RECORD
  5
1C8
330
1
100
AcDbSymbolTableRecord
100
AcDbBlockTableRecord
  2
*D6
340
0
  0
BLOCK_RECORD
  5
1D5
330
1
100
AcDbSymbolTableRecord
100
AcDbBlockTableRecord
  2
*D7
340
0
  0
BLOCK_RECORD
  5
1E1
330
1
100
AcDbSymbolTableRecord
100
AcDbBlockTableRecord
  2
*D8
340
0
  0
BLOCK_RECORD
  5
1EC
330
1
100
AcDbSymbolTableRecord
100
AcDbBlockTableRecord
  2
*D9
340
0
  0
BLOCK_RECORD
  5
1F9
330
1
100
AcDbSymbolTableRecord
100
AcDbBlockTableRecord
  2
*D10
340
0
  0
BLOCK_RECORD
  5
204
330
1
100
AcDbSymbolTableRecord
100
AcDbBlockTableRecord
  2
*D11
340
0
  0
BLOCK_RECORD
  5
211
330
1
100
AcDbSymbolTableRecord
100
AcDbBlockTableRecord
  2
*D12
340
0
  0
BLOCK_RECORD
  5
21C
330
1
100
AcDbSymbolTableRecord
100
AcDbBlockTableRecord
  2
*D13
340
0
  0
BLOCK_RECORD
  5
227
330
1
100
AcDbSymbolTableRecord
100
AcDbBlockTableRecord
  2
*D14
340
0
  0
BLOCK_RECORD
  5
25E
330
1
100
AcDbSymbolTableRecord
100
AcDbBlockTableRecord
  2
*D15
340
0
  0
BLOCK_RECORD
  5
269
330
1
100
AcDbSymbolTableRecord
100
AcDbBlockTableRecord
  2
*D16
340
0
  0
BLOCK_RECORD
  5
274
330
1
100
AcDbSymbolTableRecord
100
AcDbBlockTableRecord
  2
*D17
340
0
  0
BLOCK_RECORD
  5
27F
330
1
100
AcDbSymbolTableRecord
100
AcDbBlockTableRecord
  2
*D18
340
0
  0
ENDTAB
  0
ENDSEC
  0
SECTION
  2
BLOCKS
  0
BLOCK
  5
20
330
1F
100
AcDbEntity
  8
0
100
AcDbBlockBegin
  2
*Model_Space
 70
     0
 10
0.0
 20
0.0
 30
0.0
  3
*Model_Space
  1

  0
ENDBLK
  5
21
330
1F
100
AcDbEntity
  8
0
100
AcDbBlockEnd
  0
BLOCK
  5
75
330
73
100
AcDbEntity
 67
     1
  8
0
100
AcDbBlockBegin
  2
*Paper_Space
 70
     0
 10
0.0
 20
0.0
 30
0.0
  3
*Paper_Space
  1

  0
ENDBLK
  5
76
330
73
100
AcDbEntity
 67
     1
  8
0
100
AcDbBlockEnd
  0
BLOCK
  5
284
102
{ACAD_REACTORS
330
17B
330
17C
330
17D
330
17F
330
180
330
181
330
182
102
}
330
D1
100
AcDbEntity
  8
0
100
AcDbBlockBegin
  2
*Paper_Space0
 70
     0
 10
0.0
 20
0.0
 30
0.0
  3
*Paper_Space0
  1

  0
VIEWPORT
  5
24B
330
D1
100
AcDbEntity
  8
0
100
AcDbViewport
 10
7.8
 20
4.5
 30
0.0
 40
15.64
 41
9.0
 68
     1
 69
     1
 12
6.0
 22
4.5
 13
0.0
 23
0.0
 14
0.5
 24
0.5
 15
0.5
 25
0.5
 16
0.0
 26
0.0
 36
1.0
 17
0.0
 27
0.0
 37
0.0
 42
50.0
 43
0.0
 44
0.0
 45
12.0
 50
0.0
 51
0.0
 72
   100
 90
   557152
  1

281
     0
 71
     1
 74
     0
110
0.0
120
0.0
130
0.0
111
1.0
121
0.0
131
0.0
112
0.0
122
1.0
132
0.0
 79
     0
146
0.0
  0
ENDBLK
  5
285
330
D1
100
AcDbEntity
  8
0
100
AcDbBlockEnd
  0
BLOCK
  5
286
330
190
100
AcDbEntity
  8
0
100
AcDbBlockBegin
  2
*D1
 70
     1
 10
0.0
 20
0.0
 30
0.0
  3
*D1
  1

  0
POINT
  5
185
330
190
100
AcDbEntity
  8
DEFPOINTS
  6
ByBlock
 62
     7
380
     1
100
AcDbPoint
 10
736.59402
 20
520.611992
 30
0.0
  0
POINT
  5
186
330
190
100
AcDbEntity
  8
DEFPOINTS
  6
ByBlock
 62
     7
380
     1
100
AcDbPoint
 10
736.59402
 20
458.216786
 30
0.0
  0
LINE
  5
187
330
190
100
AcDbEntity
  8
0
  6
ByBlock
 62
     7
370
    -2
380
     1
100
AcDbLine
 10
737.21902
 20
520.611992
 30
0.0
 11
767.0296004120577
 21
520.611992
 31
0.0
  0
LINE
  5
188
330
190
100
AcDbEntity
  8
0
  6
ByBlock
 62
     7
370
    -2
380
     1
100
AcDbLine
 10
737.21902
 20
458.216786
 30
0.0
 11
767.0296004120577
 21
458.216786
 31
0.0
  0
LINE
  5
189
330
190
100
AcDbEntity
  8
0
  6
ByBlock
 62
     7
370
    -2
380
     1
100
AcDbLine
 10
765.7796004120577
 20
530.611992
 30
0.0
 11
765.7796004120577
 21
540.611992
 31
0.0
  0
LINE
  5
18A
330
190
100
AcDbEntity
  8
0
  6
ByBlock
 62
     7
370
    -2
380
     1
100
AcDbLine
 10
765.7796004120577
 20
448.216786
 30
0.0
 11
765.7796004120577
 21
438.216786
 31
0.0
  0
SOLID
  5
18B
330
190
100
AcDbEntity
  8
0
  6
ByBlock
 62
     7
380
     1
100
AcDbTrace
 10
765.7796004120577
 20
520.611992
 30
0.0
 11
764.112933745391
 21
530.611992
 31
0.0
 12
767.4462670787243
 22
530.611992
 32
0.0
 13
767.4462670787243
 23
530.611992
 33
0.0
  0
SOLID
  5
18C
330
190
100
AcDbEntity
  8
0
  6
ByBlock
 62
     7
380
     1
100
AcDbTrace
 10
765.7796004120577
 20
458.216786
 30
0.0
 11
764.112933745391
 21
448.216786
 31
0.0
 12
767.4462670787243
 22
448.216786
 32
0.0
 13
767.4462670787243
 23
448.216786
 33
0.0
  0
LINE
  5
18D
330
190
100
AcDbEntity
  8
0
  6
ByBlock
 62
     7
370
    -2
380
     1
100
AcDbLine
 10
765.7796004120577
 20
520.611992
 30
0.0
 11
765.7796004120577
 21
458.216786
 31
0.0
  0
MTEXT
  5
18E
330
190
100
AcDbEntity
  8
0
  6
ByBlock
 62
     0
370
    -2
380
     1
100
AcDbMText
 10
752.612933745391
 20
486.3524773684653
 30
0.0
 40
14.0
 41
0.0
 71
     5
 72
     1
  1
\A1;62,4
 11
6.123031769111886E-17
 21
1.0
 31
0.0
 73
     1
 44
1.0
  0
ENDBLK
  5
287
330
190
100
AcDbEntity
  8
0
100
AcDbBlockEnd
  0
BLOCK
  5
288
330
19B
100
AcDbEntity
  8
0
100
AcDbBlockBegin
  2
*D2
 70
     1
 10
0.0
 20
0.0
 30
0.0
  3
*D2
  1

  0
POINT
  5
192
330
19B
100
AcDbEntity
  8
DEFPOINTS
  6
ByBlock
 62
     7
380
     1
100
AcDbPoint
 10
211.16169
 20
522.338833
 30
0.0
  0
POINT
  5
193
330
19B
100
AcDbEntity
  8
DEFPOINTS
  6
ByBlock
 62
     7
380
     1
100
AcDbPoint
 10
211.16169
 20
458.726175
 30
0.0
  0
LINE
  5
194
330
19B
100
AcDbEntity
  8
0
  6
ByBlock
 62
     7
370
    -2
380
     1
100
AcDbLine
 10
211.78669
 20
522.338833
 30
0.0
 11
380.8588592072418
 21
522.338833
 31
0.0
  0
LINE
  5
195
330
19B
100
AcDbEntity
  8
0
  6
ByBlock
 62
     7
370
    -2
380
     1
100
AcDbLine
 10
211.78669
 20
458.726175
 30
0.0
 11
380.8588592072418
 21
458.726175
 31
0.0
  0
LINE
  5
196
330
19B
100
AcDbEntity
  8
0
  6
ByBlock
 62
     7
370
    -2
380
     1
100
AcDbLine
 10
379.6088592072418
 20
522.338833
 30
0.0
 11
379.6088592072418
 21
458.726175
 31
0.0
  0
SOLID
  5
197
330
19B
100
AcDbEntity
  8
0
  6
ByBlock
 62
     7
380
     1
100
AcDbTrace
 10
379.6088592072418
 20
522.338833
 30
0.0
 11
377.9421925405751
 21
512.338833
 31
0.0
 12
381.2755258739085
 22
512.338833
 32
0.0
 13
381.2755258739085
 23
512.338833
 33
0.0
  0
SOLID
  5
198
330
19B
100
AcDbEntity
  8
0
  6
ByBlock
 62
     7
380
     1
100
AcDbTrace
 10
379.6088592072418
 20
458.726175
 30
0.0
 11
377.9421925405751
 21
468.726175
 31
0.0
 12
381.2755258739085
 22
468.726175
 32
0.0
 13
381.2755258739085
 23
468.726175
 33
0.0
  0
MTEXT
  5
199
330
19B
100
AcDbEntity
  8
0
  6
ByBlock
 62
     0
370
    -2
380
     1
100
AcDbMText
 10
366.4421925405751
 20
490.532504
 30
0.0
 40
14.0
 41
0.0
 71
     5
 72
     1
  1
\A1;63,61
 11
6.123031769111886E-17
 21
1.0
 31
0.0
 73
     1
 44
1.0
  0
ENDBLK
  5
289
330
19B
100
AcDbEntity
  8
0
100
AcDbBlockEnd
  0
BLOCK
  5
28A
330
1A7
100
AcDbEntity
  8
0
100
AcDbBlockBegin
  2
*D3
 70
     1
 10
0.0
 20
0.0
 30
0.0
  3
*D3
  1

  0
LINE
  5
19D
330
1A7
100
AcDbEntity
  8
0
  6
ByBlock
 62
     7
370
    -2
380
     1
100
AcDbLine
 10
221.7740706316772
 20
506.2689936268546
 30
0.0
 11
227.0802609475158
 21
514.7450979402819
 31
0.0
  0
LINE
  5
19E
330
1A7
100
AcDbEntity
  8
0
  6
ByBlock
 62
     7
370
    -2
380
     1
100
AcDbLine
 10
227.0802609475158
 20
514.7450979402819
 30
0.0
 11
250.9581173687894
 21
552.8875673507047
 31
0.0
  0
LINE
  5
19F
330
1A7
100
AcDbEntity
  8
0
  6
ByBlock
 62
     7
370
    -2
380
     1
100
AcDbLine
 10
200.5493093683228
 20
472.3645763731454
 30
0.0
 11
195.2431190524842
 21
463.8884720597181
 31
0.0
  0
LINE
  5
1A0
330
1A7
100
AcDbEntity
  8
0
  6
ByBlock
 62
     7
370
    -2
380
     1
100
AcDbLine
 10
216.4678803158386
 20
497.7928893134273
 30
0.0
 11
205.8554996841614
 21
480.8406806865727
 31
0.0
  0
SOLID
  5
1A1
330
1A7
100
AcDbEntity
  8
0
  6
ByBlock
 62
     7
380
     1
100
AcDbTrace
 10
205.8554996841614
 20
480.8406806865727
 30
0.0
 11
201.9619934205607
 21
471.4802113205056
 31
0.0
 12
199.1366253160849
 22
473.2489414257852
 32
0.0
 13
199.1366253160849
 23
473.2489414257852
 33
0.0
  0
SOLID
  5
1A2
330
1A7
100
AcDbEntity
  8
0
  6
ByBlock
 62
     7
380
     1
100
AcDbTrace
 10
216.4678803158386
 20
497.7928893134273
 30
0.0
 11
223.1867546839151
 21
505.3846285742148
 31
0.0
 12
220.3613865794393
 22
507.1533586794943
 32
0.0
 13
220.3613865794393
 23
507.1533586794943
 33
0.0
  0
MTEXT
  5
1A3
330
1A7
100
AcDbEntity
  8
0
  6
ByBlock
 62
     0
370
    -2
380
     1
100
AcDbMText
 10
228.8478639820399
 20
540.1837610244996
 30
0.0
 40
14.0
 41
0.0
 71
     5
 72
     1
  1
\A1;%%c20
 11
0.5306190315838586
 21
0.8476104313427295
 31
0.0
 73
     1
 44
1.0
  0
POINT
  5
1A4
330
1A7
100
AcDbEntity
  8
DEFPOINTS
  6
ByBlock
 62
     7
380
     1
100
AcDbPoint
 10
205.8554996841614
 20
480.8406806865726
 30
0.0
  0
POINT
  5
1A5
330
1A7
100
AcDbEntity
  8
DEFPOINTS
  6
ByBlock
 62
     7
380
     1
100
AcDbPoint
 10
216.4678803158386
 20
497.7928893134273
 30
0.0
  0
ENDBLK
  5
28B
330
1A7
100
AcDbEntity
  8
0
100
AcDbBlockEnd
  0
BLOCK
  5
28C
330
1B2
100
AcDbEntity
  8
0
100
AcDbBlockBegin
  2
*D4
 70
     1
 10
0.0
 20
0.0
 30
0.0
  3
*D4
  1

  0
POINT
  5
1A9
330
1B2
100
AcDbEntity
  8
DEFPOINTS
  6
ByBlock
 62
     7
380
     1
100
AcDbPoint
 10
437.267452
 20
92.912014
 30
0.0
  0
POINT
  5
1AA
330
1B2
100
AcDbEntity
  8
DEFPOINTS
  6
ByBlock
 62
     7
380
     1
100
AcDbPoint
 10
596.281414
 20
90.912014
 30
0.0
  0
LINE
  5
1AB
330
1B2
100
AcDbEntity
  8
0
  6
ByBlock
 62
     7
370
    -2
380
     1
100
AcDbLine
 10
437.267452
 20
92.287014
 30
0.0
 11
437.267452
 21
60.68042268732873
 31
0.0
  0
LINE
  5
1AC
330
1B2
100
AcDbEntity
  8
0
  6
ByBlock
 62
     7
370
    -2
380
     1
100
AcDbLine
 10
596.281414
 20
90.287014
 30
0.0
 11
596.281414
 21
60.68042268732873
 31
0.0
  0
LINE
  5
1AD
330
1B2
100
AcDbEntity
  8
0
  6
ByBlock
 62
     7
370
    -2
380
     1
100
AcDbLine
 10
447.267452
 20
61.93042268732873
 30
0.0
 11
586.281414
 21
61.93042268732873
 31
0.0
  0
SOLID
  5
1AE
330
1B2
100
AcDbEntity
  8
0
  6
ByBlock
 62
     7
380
     1
100
AcDbTrace
 10
437.267452
 20
61.93042268732873
 30
0.0
 11
447.267452
 21
60.26375602066206
 31
0.0
 12
447.267452
 22
63.5970893539954
 32
0.0
 13
447.267452
 23
63.5970893539954
 33
0.0
  0
SOLID
  5
1AF
330
1B2
100
AcDbEntity
  8
0
  6
ByBlock
 62
     7
380
     1
100
AcDbTrace
 10
596.281414
 20
61.93042268732873
 30
0.0
 11
586.281414
 21
60.26375602066206
 31
0.0
 12
586.281414
 22
63.5970893539954
 32
0.0
 13
586.281414
 23
63.5970893539954
 33
0.0
  0
MTEXT
  5
1B0
330
1B2
100
AcDbEntity
  8
0
  6
ByBlock
 62
     0
370
    -2
380
     1
100
AcDbMText
 10
516.774433
 20
73.93042268732873
 30
0.0
 40
14.0
 41
0.0
 71
     5
 72
     1
  1
159
 73
     1
 44
1.0
  0
ENDBLK
  5
28D
330
1B2
100
AcDbEntity
  8
0
100
AcDbBlockEnd
  0
BLOCK
  5
28E
330
1BD
100
AcDbEntity
  8
0
100
AcDbBlockBegin
  2
*D5
 70
     1
 10
0.0
 20
0.0
 30
0.0
  3
*D5
  1

  0
POINT
  5
1B4
330
1BD
100
AcDbEntity
  8
DEFPOINTS
  6
ByBlock
 62
     7
380
     1
100
AcDbPoint
 10
466.049189
 20
373.108822
 30
0.0
  0
POINT
  5
1B5
330
1BD
100
AcDbEntity
  8
DEFPOINTS
  6
ByBlock
 62
     7
380
     1
100
AcDbPoint
 10
466.049189
 20
90.912014
 30
0.0
  0
LINE
  5
1B6
330
1BD
100
AcDbEntity
  8
0
  6
ByBlock
 62
     7
370
    -2
380
     1
100
AcDbLine
 10
465.424189
 20
373.108822
 30
0.0
 11
357.740613382679
 21
373.108822
 31
0.0
  0
LINE
  5
1B7
330
1BD
100
AcDbEntity
  8
0
  6
ByBlock
 62
     7
370
    -2
380
     1
100
AcDbLine
 10
465.424189
 20
90.912014
 30
0.0
 11
357.740613382679
 21
90.912014
 31
0.0
  0
LINE
  5
1B8
330
1BD
100
AcDbEntity
  8
0
  6
ByBlock
 62
     7
370
    -2
380
     1
100
AcDbLine
 10
358.990613382679
 20
363.108822
 30
0.0
 11
358.990613382679
 21
100.912014
 31
0.0
  0
SOLID
  5
1B9
330
1BD
100
AcDbEntity
  8
0
  6
ByBlock
 62
     7
380
     1
100
AcDbTrace
 10
358.990613382679
 20
373.108822
 30
0.0
 11
357.3239467160123
 21
363.108822
 31
0.0
 12
360.6572800493457
 22
363.108822
 32
0.0
 13
360.6572800493457
 23
363.108822
 33
0.0
  0
SOLID
  5
1BA
330
1BD
100
AcDbEntity
  8
0
  6
ByBlock
 62
     7
380
     1
100
AcDbTrace
 10
358.990613382679
 20
90.912014
 30
0.0
 11
357.3239467160123
 21
100.912014
 31
0.0
 12
360.6572800493457
 22
100.912014
 32
0.0
 13
360.6572800493457
 23
100.912014
 33
0.0
  0
MTEXT
  5
1BB
330
1BD
100
AcDbEntity
  8
0
  6
ByBlock
 62
     0
370
    -2
380
     1
100
AcDbMText
 10
345.8239467160123
 20
232.010418
 30
0.0
 40
14.0
 41
0.0
 71
     5
 72
     1
  1
\A1;282,2
 11
6.123031769111886E-17
 21
1.0
 31
0.0
 73
     1
 44
1.0
  0
ENDBLK
  5
28F
330
1BD
100
AcDbEntity
  8
0
100
AcDbBlockEnd
  0
BLOCK
  5
290
330
1C8
100
AcDbEntity
  8
0
100
AcDbBlockBegin
  2
*D6
 70
     1
 10
0.0
 20
0.0
 30
0.0
  3
*D6
  1

  0
POINT
  5
1BF
330
1C8
100
AcDbEntity
  8
DEFPOINTS
  6
ByBlock
 62
     7
380
     1
100
AcDbPoint
 10
437.267452
 20
371.108822
 30
0.0
  0
POINT
  5
1C0
330
1C8
100
AcDbEntity
  8
DEFPOINTS
  6
ByBlock
 62
     7
380
     1
100
AcDbPoint
 10
736.59402
 20
276.922039
 30
0.0
  0
LINE
  5
1C1
330
1C8
100
AcDbEntity
  8
0
  6
ByBlock
 62
     7
370
    -2
380
     1
100
AcDbLine
 10
437.267452
 20
371.733822
 30
0.0
 11
437.267452
 21
398.9315063843752
 31
0.0
  0
LINE
  5
1C2
330
1C8
100
AcDbEntity
  8
0
  6
ByBlock
 62
     7
370
    -2
380
     1
100
AcDbLine
 10
736.59402
 20
277.547039
 30
0.0
 11
736.59402
 21
398.9315063843752
 31
0.0
  0
LINE
  5
1C3
330
1C8
100
AcDbEntity
  8
0
  6
ByBlock
 62
     7
370
    -2
380
     1
100
AcDbLine
 10
447.267452
 20
397.6815063843752
 30
0.0
 11
726.59402
 21
397.6815063843752
 31
0.0
  0
SOLID
  5
1C4
330
1C8
100
AcDbEntity
  8
0
  6
ByBlock
 62
     7
380
     1
100
AcDbTrace
 10
437.267452
 20
397.6815063843752
 30
0.0
 11
447.267452
 21
396.0148397177085
 31
0.0
 12
447.267452
 22
399.3481730510419
 32
0.0
 13
447.267452
 23
399.3481730510419
 33
0.0
  0
SOLID
  5
1C5
330
1C8
100
AcDbEntity
  8
0
  6
ByBlock
 62
     7
380
     1
100
AcDbTrace
 10
736.59402
 20
397.6815063843752
 30
0.0
 11
726.59402
 21
396.0148397177085
 31
0.0
 12
726.59402
 22
399.3481730510419
 32
0.0
 13
726.59402
 23
399.3481730510419
 33
0.0
  0
MTEXT
  5
1C6
330
1C8
100
AcDbEntity
  8
0
  6
ByBlock
 62
     0
370
    -2
380
     1
100
AcDbMText
 10
586.930736
 20
409.6815063843752
 30
0.0
 40
14.0
 41
0.0
 71
     5
 72
     1
  1
299
 73
     1
 44
1.0
  0
ENDBLK
  5
291
330
1C8
100
AcDbEntity
  8
0
100
AcDbBlockEnd
  0
BLOCK
  5
292
330
1D5
100
AcDbEntity
  8
0
100
AcDbBlockBegin
  2
*D7
 70
     1
 10
0.0
 20
0.0
 30
0.0
  3
*D7
  1

  0
POINT
  5
1CA
330
1D5
100
AcDbEntity
  8
DEFPOINTS
  6
ByBlock
 62
     7
380
     1
100
AcDbPoint
 10
479.9819524943209
 20
94.912014
 30
0.0
  0
POINT
  5
1CB
330
1D5
100
AcDbEntity
  8
DEFPOINTS
  6
ByBlock
 62
     7
380
     1
100
AcDbPoint
 10
479.9819524943209
 20
90.912014
 30
0.0
  0
LINE
  5
1CC
330
1D5
100
AcDbEntity
  8
0
  6
ByBlock
 62
     7
370
    -2
380
     1
100
AcDbLine
 10
479.3569524943209
 20
94.912014
 30
0.0
 11
400.1254762900516
 21
94.912014
 31
0.0
  0
LINE
  5
1CD
330
1D5
100
AcDbEntity
  8
0
  6
ByBlock
 62
     7
370
    -2
380
     1
100
AcDbLine
 10
479.3569524943209
 20
90.912014
 30
0.0
 11
400.1254762900516
 21
90.912014
 31
0.0
  0
LINE
  5
1CE
330
1D5
100
AcDbEntity
  8
0
  6
ByBlock
 62
     7
370
    -2
380
     1
100
AcDbLine
 10
401.3754762900516
 20
80.912014
 30
0.0
 11
401.3754762900516
 21
70.912014
 31
0.0
  0
LINE
  5
1CF
330
1D5
100
AcDbEntity
  8
0
  6
ByBlock
 62
     7
370
    -2
380
     1
100
AcDbLine
 10
401.3754762900516
 20
104.912014
 30
0.0
 11
401.3754762900516
 21
126.5786806666667
 31
0.0
  0
SOLID
  5
1D0
330
1D5
100
AcDbEntity
  8
0
  6
ByBlock
 62
     7
380
     1
100
AcDbTrace
 10
401.3754762900516
 20
94.912014
 30
0.0
 11
399.7088096233849
 21
104.912014
 31
0.0
 12
403.0421429567183
 22
104.912014
 32
0.0
 13
403.0421429567183
 23
104.912014
 33
0.0
  0
SOLID
  5
1D1
330
1D5
100
AcDbEntity
  8
0
  6
ByBlock
 62
     7
380
     1
100
AcDbTrace
 10
401.3754762900516
 20
90.912014
 30
0.0
 11
399.7088096233849
 21
80.912014
 31
0.0
 12
403.0421429567183
 22
80.912014
 32
0.0
 13
403.0421429567183
 23
80.912014
 33
0.0
  0
LINE
  5
1D2
330
1D5
100
AcDbEntity
  8
0
  6
ByBlock
 62
     7
370
    -2
380
     1
100
AcDbLine
 10
401.3754762900516
 20
94.912014
 30
0.0
 11
401.3754762900516
 21
90.912014
 31
0.0
  0
MTEXT
  5
1D3
330
1D5
100
AcDbEntity
  8
0
  6
ByBlock
 62
     0
370
    -2
380
     1
100
AcDbMText
 10
389.3754762900516
 20
114.5786806666667
 30
0.0
 40
14.0
 41
0.0
 71
     5
 72
     1
  1
\A1;4
 11
6.123031769111886E-17
 21
1.0
 31
0.0
 73
     1
 44
1.0
  0
ENDBLK
  5
293
330
1D5
100
AcDbEntity
  8
0
100
AcDbBlockEnd
  0
BLOCK
  5
294
330
1E1
100
AcDbEntity
  8
0
100
AcDbBlockBegin
  2
*D8
 70
     1
 10
0.0
 20
0.0
 30
0.0
  3
*D8
  1

  0
LINE
  5
1D7
330
1E1
100
AcDbEntity
  8
0
  6
ByBlock
 62
     7
370
    -2
380
     1
100
AcDbLine
 10
212.4099142699985
 20
502.3035208679951
 30
0.0
 11
217.7161045858371
 21
510.7796251814224
 31
0.0
  0
LINE
  5
1D8
330
1E1
100
AcDbEntity
  8
0
  6
ByBlock
 62
     7
370
    -2
380
     1
100
AcDbLine
 10
217.7161045858371
 20
510.7796251814224
 30
0.0
 11
241.5939610071107
 21
548.9220945918452
 31
0.0
  0
LINE
  5
1D9
330
1E1
100
AcDbEntity
  8
0
  6
ByBlock
 62
     7
370
    -2
380
     1
100
AcDbLine
 10
191.1851530066442
 20
468.3991036142859
 30
0.0
 11
185.8789626908056
 21
459.9229993008586
 31
0.0
  0
LINE
  5
1DA
330
1E1
100
AcDbEntity
  8
0
  6
ByBlock
 62
     7
370
    -2
380
     1
100
AcDbLine
 10
207.1037239541599
 20
493.8274165545678
 30
0.0
 11
196.4913433224827
 21
476.8752079277132
 31
0.0
  0
SOLID
  5
1DB
330
1E1
100
AcDbEntity
  8
0
  6
ByBlock
 62
     7
380
     1
100
AcDbTrace
 10
196.4913433224827
 20
476.8752079277132
 30
0.0
 11
192.597837058882
 21
467.5147385616461
 31
0.0
 12
189.7724689544063
 22
469.2834686669257
 32
0.0
 13
189.7724689544063
 23
469.2834686669257
 33
0.0
  0
SOLID
  5
1DC
330
1E1
100
AcDbEntity
  8
0
  6
ByBlock
 62
     7
380
     1
100
AcDbTrace
 10
207.1037239541599
 20
493.8274165545678
 30
0.0
 11
213.8225983222364
 21
501.4191558153553
 31
0.0
 12
210.9972302177606
 22
503.1878859206348
 32
0.0
 13
210.9972302177606
 23
503.1878859206348
 33
0.0
  0
MTEXT
  5
1DD
330
1E1
100
AcDbEntity
  8
0
  6
ByBlock
 62
     0
370
    -2
380
     1
100
AcDbMText
 10
219.4837076203612
 20
536.2182882656401
 30
0.0
 40
14.0
 41
0.0
 71
     5
 72
     1
  1
\A1;%%c20
 11
0.5306190315838588
 21
0.8476104313427294
 31
0.0
 73
     1
 44
1.0
  0
POINT
  5
1DE
330
1E1
100
AcDbEntity
  8
DEFPOINTS
  6
ByBlock
 62
     7
380
     1
100
AcDbPoint
 10
196.4913433224827
 20
476.8752079277132
 30
0.0
  0
POINT
  5
1DF
330
1E1
100
AcDbEntity
  8
DEFPOINTS
  6
ByBlock
 62
     7
380
     1
100
AcDbPoint
 10
207.1037239541599
 20
493.8274165545678
 30
0.0
  0
ENDBLK
  5
295
330
1E1
100
AcDbEntity
  8
0
100
AcDbBlockEnd
  0
BLOCK
  5
296
330
1EC
100
AcDbEntity
  8
0
100
AcDbBlockBegin
  2
*D9
 70
     1
 10
0.0
 20
0.0
 30
0.0
  3
*D9
  1

  0
POINT
  5
1E3
330
1EC
100
AcDbEntity
  8
DEFPOINTS
  6
ByBlock
 62
     7
380
     1
100
AcDbPoint
 10
201.7975336383213
 20
518.3733602411405
 30
0.0
  0
POINT
  5
1E4
330
1EC
100
AcDbEntity
  8
DEFPOINTS
  6
ByBlock
 62
     7
380
     1
100
AcDbPoint
 10
201.7975336383213
 20
454.7607022411405
 30
0.0
  0
LINE
  5
1E5
330
1EC
100
AcDbEntity
  8
0
  6
ByBlock
 62
     7
370
    -2
380
     1
100
AcDbLine
 10
202.4225336383213
 20
518.3733602411405
 30
0.0
 11
371.4947028455631
 21
518.3733602411405
 31
0.0
  0
LINE
  5
1E6
330
1EC
100
AcDbEntity
  8
0
  6
ByBlock
 62
     7
370
    -2
380
     1
100
AcDbLine
 10
202.4225336383213
 20
454.7607022411405
 30
0.0
 11
371.4947028455631
 21
454.7607022411405
 31
0.0
  0
LINE
  5
1E7
330
1EC
100
AcDbEntity
  8
0
  6
ByBlock
 62
     7
370
    -2
380
     1
100
AcDbLine
 10
370.2447028455631
 20
518.3733602411405
 30
0.0
 11
370.2447028455631
 21
454.7607022411405
 31
0.0
  0
SOLID
  5
1E8
330
1EC
100
AcDbEntity
  8
0
  6
ByBlock
 62
     7
380
     1
100
AcDbTrace
 10
370.2447028455631
 20
518.3733602411405
 30
0.0
 11
368.5780361788965
 21
508.3733602411405
 31
0.0
 12
371.9113695122297
 22
508.3733602411405
 32
0.0
 13
371.9113695122297
 23
508.3733602411405
 33
0.0
  0
SOLID
  5
1E9
330
1EC
100
AcDbEntity
  8
0
  6
ByBlock
 62
     7
380
     1
100
AcDbTrace
 10
370.2447028455631
 20
454.7607022411405
 30
0.0
 11
368.5780361788965
 21
464.7607022411405
 31
0.0
 12
371.9113695122297
 22
464.7607022411405
 32
0.0
 13
371.9113695122297
 23
464.7607022411405
 33
0.0
  0
MTEXT
  5
1EA
330
1EC
100
AcDbEntity
  8
0
  6
ByBlock
 62
     0
370
    -2
380
     1
100
AcDbMText
 10
357.0780361788965
 20
486.5670312411405
 30
0.0
 40
14.0
 41
0.0
 71
     5
 72
     1
  1
\A1;63,61
 11
6.123031769111886E-17
 21
1.0
 31
0.0
 73
     1
 44
1.0
  0
ENDBLK
  5
297
330
1EC
100
AcDbEntity
  8
0
100
AcDbBlockEnd
  0
BLOCK
  5
298
330
1F9
100
AcDbEntity
  8
0
100
AcDbBlockBegin
  2
*D10
 70
     1
 10
0.0
 20
0.0
 30
0.0
  3
*D10
  1

  0
POINT
  5
1EE
330
1F9
100
AcDbEntity
  8
DEFPOINTS
  6
ByBlock
 62
     7
380
     1
100
AcDbPoint
 10
727.2298636383214
 20
516.6465192411405
 30
0.0
  0
POINT
  5
1EF
330
1F9
100
AcDbEntity
  8
DEFPOINTS
  6
ByBlock
 62
     7
380
     1
100
AcDbPoint
 10
727.2298636383214
 20
454.2513132411406
 30
0.0
  0
LINE
  5
1F0
330
1F9
100
AcDbEntity
  8
0
  6
ByBlock
 62
     7
370
    -2
380
     1
100
AcDbLine
 10
727.8548636383214
 20
516.6465192411405
 30
0.0
 11
757.665444050379
 21
516.6465192411405
 31
0.0
  0
LINE
  5
1F1
330
1F9
100
AcDbEntity
  8
0
  6
ByBlock
 62
     7
370
    -2
380
     1
100
AcDbLine
 10
727.8548636383214
 20
454.2513132411406
 30
0.0
 11
757.665444050379
 21
454.2513132411406
 31
0.0
  0
LINE
  5
1F2
330
1F9
100
AcDbEntity
  8
0
  6
ByBlock
 62
     7
370
    -2
380
     1
100
AcDbLine
 10
756.415444050379
 20
526.6465192411405
 30
0.0
 11
756.415444050379
 21
536.6465192411405
 31
0.0
  0
LINE
  5
1F3
330
1F9
100
AcDbEntity
  8
0
  6
ByBlock
 62
     7
370
    -2
380
     1
100
AcDbLine
 10
756.415444050379
 20
444.2513132411406
 30
0.0
 11
756.415444050379
 21
434.2513132411406
 31
0.0
  0
SOLID
  5
1F4
330
1F9
100
AcDbEntity
  8
0
  6
ByBlock
 62
     7
380
     1
100
AcDbTrace
 10
756.415444050379
 20
516.6465192411405
 30
0.0
 11
754.7487773837124
 21
526.6465192411405
 31
0.0
 12
758.0821107170457
 22
526.6465192411405
 32
0.0
 13
758.0821107170457
 23
526.6465192411405
 33
0.0
  0
SOLID
  5
1F5
330
1F9
100
AcDbEntity
  8
0
  6
ByBlock
 62
     7
380
     1
100
AcDbTrace
 10
756.415444050379
 20
454.2513132411406
 30
0.0
 11
754.7487773837124
 21
444.2513132411406
 31
0.0
 12
758.0821107170457
 22
444.2513132411406
 32
0.0
 13
758.0821107170457
 23
444.2513132411406
 33
0.0
  0
LINE
  5
1F6
330
1F9
100
AcDbEntity
  8
0
  6
ByBlock
 62
     7
370
    -2
380
     1
100
AcDbLine
 10
756.415444050379
 20
516.6465192411405
 30
0.0
 11
756.415444050379
 21
454.2513132411406
 31
0.0
  0
MTEXT
  5
1F7
330
1F9
100
AcDbEntity
  8
0
  6
ByBlock
 62
     0
370
    -2
380
     1
100
AcDbMText
 10
743.2487773837124
 20
482.3870046096058
 30
0.0
 40
14.0
 41
0.0
 71
     5
 72
     1
  1
\A1;62,4
 11
6.123031769111886E-17
 21
1.0
 31
0.0
 73
     1
 44
1.0
  0
ENDBLK
  5
299
330
1F9
100
AcDbEntity
  8
0
100
AcDbBlockEnd
  0
BLOCK
  5
29A
330
204
100
AcDbEntity
  8
0
100
AcDbBlockBegin
  2
*D11
 70
     1
 10
0.0
 20
0.0
 30
0.0
  3
*D11
  1

  0
POINT
  5
1FB
330
204
100
AcDbEntity
  8
DEFPOINTS
  6
ByBlock
 62
     7
380
     1
100
AcDbPoint
 10
456.6850326383213
 20
369.1433492411405
 30
0.0
  0
POINT
  5
1FC
330
204
100
AcDbEntity
  8
DEFPOINTS
  6
ByBlock
 62
     7
380
     1
100
AcDbPoint
 10
456.6850326383213
 20
86.94654124114052
 30
0.0
  0
LINE
  5
1FD
330
204
100
AcDbEntity
  8
0
  6
ByBlock
 62
     7
370
    -2
380
     1
100
AcDbLine
 10
456.0600326383213
 20
369.1433492411405
 30
0.0
 11
348.3764570210003
 21
369.1433492411405
 31
0.0
  0
LINE
  5
1FE
330
204
100
AcDbEntity
  8
0
  6
ByBlock
 62
     7
370
    -2
380
     1
100
AcDbLine
 10
456.0600326383213
 20
86.9465412411405
 30
0.0
 11
348.3764570210003
 21
86.9465412411405
 31
0.0
  0
LINE
  5
1FF
330
204
100
AcDbEntity
  8
0
  6
ByBlock
 62
     7
370
    -2
380
     1
100
AcDbLine
 10
349.6264570210003
 20
359.1433492411405
 30
0.0
 11
349.6264570210003
 21
96.9465412411405
 31
0.0
  0
SOLID
  5
200
330
204
100
AcDbEntity
  8
0
  6
ByBlock
 62
     7
380
     1
100
AcDbTrace
 10
349.6264570210003
 20
369.1433492411405
 30
0.0
 11
347.9597903543336
 21
359.1433492411405
 31
0.0
 12
351.293123687667
 22
359.1433492411405
 32
0.0
 13
351.293123687667
 23
359.1433492411405
 33
0.0
  0
SOLID
  5
201
330
204
100
AcDbEntity
  8
0
  6
ByBlock
 62
     7
380
     1
100
AcDbTrace
 10
349.6264570210003
 20
86.9465412411405
 30
0.0
 11
347.9597903543336
 21
96.9465412411405
 31
0.0
 12
351.293123687667
 22
96.9465412411405
 32
0.0
 13
351.293123687667
 23
96.9465412411405
 33
0.0
  0
MTEXT
  5
202
330
204
100
AcDbEntity
  8
0
  6
ByBlock
 62
     0
370
    -2
380
     1
100
AcDbMText
 10
336.4597903543336
 20
228.0449452411405
 30
0.0
 40
14.0
 41
0.0
 71
     5
 72
     1
  1
\A1;282,2
 11
6.123031769111886E-17
 21
1.0
 31
0.0
 73
     1
 44
1.0
  0
ENDBLK
  5
29B
330
204
100
AcDbEntity
  8
0
100
AcDbBlockEnd
  0
BLOCK
  5
29C
330
211
100
AcDbEntity
  8
0
100
AcDbBlockBegin
  2
*D12
 70
     1
 10
0.0
 20
0.0
 30
0.0
  3
*D12
  1

  0
POINT
  5
206
330
211
100
AcDbEntity
  8
DEFPOINTS
  6
ByBlock
 62
     7
380
     1
100
AcDbPoint
 10
470.6177961326422
 20
90.94654124114052
 30
0.0
  0
POINT
  5
207
330
211
100
AcDbEntity
  8
DEFPOINTS
  6
ByBlock
 62
     7
380
     1
100
AcDbPoint
 10
470.6177961326422
 20
86.94654124114052
 30
0.0
  0
LINE
  5
208
330
211
100
AcDbEntity
  8
0
  6
ByBlock
 62
     7
370
    -2
380
     1
100
AcDbLine
 10
469.9927961326422
 20
90.94654124114052
 30
0.0
 11
390.7613199283729
 21
90.94654124114052
 31
0.0
  0
LINE
  5
209
330
211
100
AcDbEntity
  8
0
  6
ByBlock
 62
     7
370
    -2
380
     1
100
AcDbLine
 10
469.9927961326422
 20
86.94654124114052
 30
0.0
 11
390.7613199283729
 21
86.94654124114052
 31
0.0
  0
LINE
  5
20A
330
211
100
AcDbEntity
  8
0
  6
ByBlock
 62
     7
370
    -2
380
     1
100
AcDbLine
 10
392.0113199283729
 20
76.94654124114052
 30
0.0
 11
392.0113199283729
 21
66.94654124114052
 31
0.0
  0
LINE
  5
20B
330
211
100
AcDbEntity
  8
0
  6
ByBlock
 62
     7
370
    -2
380
     1
100
AcDbLine
 10
392.0113199283729
 20
100.9465412411405
 30
0.0
 11
392.0113199283729
 21
122.6132079078072
 31
0.0
  0
SOLID
  5
20C
330
211
100
AcDbEntity
  8
0
  6
ByBlock
 62
     7
380
     1
100
AcDbTrace
 10
392.0113199283729
 20
90.94654124114052
 30
0.0
 11
390.3446532617062
 21
100.9465412411405
 31
0.0
 12
393.6779865950396
 22
100.9465412411405
 32
0.0
 13
393.6779865950396
 23
100.9465412411405
 33
0.0
  0
SOLID
  5
20D
330
211
100
AcDbEntity
  8
0
  6
ByBlock
 62
     7
380
     1
100
AcDbTrace
 10
392.0113199283729
 20
86.94654124114052
 30
0.0
 11
390.3446532617062
 21
76.94654124114052
 31
0.0
 12
393.6779865950396
 22
76.94654124114052
 32
0.0
 13
393.6779865950396
 23
76.94654124114052
 33
0.0
  0
LINE
  5
20E
330
211
100
AcDbEntity
  8
0
  6
ByBlock
 62
     7
370
    -2
380
     1
100
AcDbLine
 10
392.0113199283729
 20
90.94654124114052
 30
0.0
 11
392.0113199283729
 21
86.94654124114052
 31
0.0
  0
MTEXT
  5
20F
330
211
100
AcDbEntity
  8
0
  6
ByBlock
 62
     0
370
    -2
380
     1
100
AcDbMText
 10
380.0113199283729
 20
110.6132079078072
 30
0.0
 40
14.0
 41
0.0
 71
     5
 72
     1
  1
\A1;4
 11
6.123031769111886E-17
 21
1.0
 31
0.0
 73
     1
 44
1.0
  0
ENDBLK
  5
29D
330
211
100
AcDbEntity
  8
0
100
AcDbBlockEnd
  0
BLOCK
  5
29E
330
21C
100
AcDbEntity
  8
0
100
AcDbBlockBegin
  2
*D13
 70
     1
 10
0.0
 20
0.0
 30
0.0
  3
*D13
  1

  0
POINT
  5
213
330
21C
100
AcDbEntity
  8
DEFPOINTS
  6
ByBlock
 62
     7
380
     1
100
AcDbPoint
 10
427.9032956383213
 20
88.94654124114052
 30
0.0
  0
POINT
  5
214
330
21C
100
AcDbEntity
  8
DEFPOINTS
  6
ByBlock
 62
     7
380
     1
100
AcDbPoint
 10
586.9172576383214
 20
86.94654124114052
 30
0.0
  0
LINE
  5
215
330
21C
100
AcDbEntity
  8
0
  6
ByBlock
 62
     7
370
    -2
380
     1
100
AcDbLine
 10
427.9032956383213
 20
88.32154124114052
 30
0.0
 11
427.9032956383213
 21
56.71494992846925
 31
0.0
  0
LINE
  5
216
330
21C
100
AcDbEntity
  8
0
  6
ByBlock
 62
     7
370
    -2
380
     1
100
AcDbLine
 10
586.9172576383214
 20
86.32154124114052
 30
0.0
 11
586.9172576383214
 21
56.71494992846925
 31
0.0
  0
LINE
  5
217
330
21C
100
AcDbEntity
  8
0
  6
ByBlock
 62
     7
370
    -2
380
     1
100
AcDbLine
 10
437.9032956383213
 20
57.96494992846925
 30
0.0
 11
576.9172576383214
 21
57.96494992846925
 31
0.0
  0
SOLID
  5
218
330
21C
100
AcDbEntity
  8
0
  6
ByBlock
 62
     7
380
     1
100
AcDbTrace
 10
427.9032956383213
 20
57.96494992846925
 30
0.0
 11
437.9032956383213
 21
56.29828326180258
 31
0.0
 12
437.9032956383213
 22
59.63161659513592
 32
0.0
 13
437.9032956383213
 23
59.63161659513592
 33
0.0
  0
SOLID
  5
219
330
21C
100
AcDbEntity
  8
0
  6
ByBlock
 62
     7
380
     1
100
AcDbTrace
 10
586.9172576383214
 20
57.96494992846925
 30
0.0
 11
576.9172576383214
 21
56.29828326180258
 31
0.0
 12
576.9172576383214
 22
59.63161659513592
 32
0.0
 13
576.9172576383214
 23
59.63161659513592
 33
0.0
  0
MTEXT
  5
21A
330
21C
100
AcDbEntity
  8
0
  6
ByBlock
 62
     0
370
    -2
380
     1
100
AcDbMText
 10
507.4102766383214
 20
69.96494992846925
 30
0.0
 40
14.0
 41
0.0
 71
     5
 72
     1
  1
159
 73
     1
 44
1.0
  0
ENDBLK
  5
29F
330
21C
100
AcDbEntity
  8
0
100
AcDbBlockEnd
  0
BLOCK
  5
2A0
330
227
100
AcDbEntity
  8
0
100
AcDbBlockBegin
  2
*D14
 70
     1
 10
0.0
 20
0.0
 30
0.0
  3
*D14
  1

  0
POINT
  5
21E
330
227
100
AcDbEntity
  8
DEFPOINTS
  6
ByBlock
 62
     7
380
     1
100
AcDbPoint
 10
427.9032956383213
 20
367.1433492411405
 30
0.0
  0
POINT
  5
21F
330
227
100
AcDbEntity
  8
DEFPOINTS
  6
ByBlock
 62
     7
380
     1
100
AcDbPoint
 10
727.2298636383214
 20
272.9565662411405
 30
0.0
  0
LINE
  5
220
330
227
100
AcDbEntity
  8
0
  6
ByBlock
 62
     7
370
    -2
380
     1
100
AcDbLine
 10
427.9032956383213
 20
367.7683492411405
 30
0.0
 11
427.9032956383213
 21
394.9660336255157
 31
0.0
  0
LINE
  5
221
330
227
100
AcDbEntity
  8
0
  6
ByBlock
 62
     7
370
    -2
380
     1
100
AcDbLine
 10
727.2298636383214
 20
273.5815662411405
 30
0.0
 11
727.2298636383214
 21
394.9660336255157
 31
0.0
  0
LINE
  5
222
330
227
100
AcDbEntity
  8
0
  6
ByBlock
 62
     7
370
    -2
380
     1
100
AcDbLine
 10
437.9032956383213
 20
393.7160336255157
 30
0.0
 11
717.2298636383214
 21
393.7160336255157
 31
0.0
  0
SOLID
  5
223
330
227
100
AcDbEntity
  8
0
  6
ByBlock
 62
     7
380
     1
100
AcDbTrace
 10
427.9032956383213
 20
393.7160336255157
 30
0.0
 11
437.9032956383213
 21
392.049366958849
 31
0.0
 12
437.9032956383213
 22
395.3827002921824
 32
0.0
 13
437.9032956383213
 23
395.3827002921824
 33
0.0
  0
SOLID
  5
224
330
227
100
AcDbEntity
  8
0
  6
ByBlock
 62
     7
380
     1
100
AcDbTrace
 10
727.2298636383214
 20
393.7160336255157
 30
0.0
 11
717.2298636383214
 21
392.049366958849
 31
0.0
 12
717.2298636383214
 22
395.3827002921824
 32
0.0
 13
717.2298636383214
 23
395.3827002921824
 33
0.0
  0
MTEXT
  5
225
330
227
100
AcDbEntity
  8
0
  6
ByBlock
 62
     0
370
    -2
380
     1
100
AcDbMText
 10
577.5665796383214
 20
405.7160336255157
 30
0.0
 40
14.0
 41
0.0
 71
     5
 72
     1
  1
299
 73
     1
 44
1.0
  0
ENDBLK
  5
2A1
330
227
100
AcDbEntity
  8
0
100
AcDbBlockEnd
  0
BLOCK
  5
2A2
330
25E
100
AcDbEntity
  8
0
100
AcDbBlockBegin
  2
*D15
 70
     1
 10
0.0
 20
0.0
 30
0.0
  3
*D15
  1

  0
POINT
  5
255
330
25E
100
AcDbEntity
  8
DEFPOINTS
  6
ByBlock
 62
     7
380
     1
100
AcDbPoint
 10
201.7975336383213
 20
518.3733602411405
 30
0.0
  0
POINT
  5
256
330
25E
100
AcDbEntity
  8
DEFPOINTS
  6
ByBlock
 62
     7
380
     1
100
AcDbPoint
 10
201.7975336383213
 20
454.7607022411405
 30
0.0
  0
LINE
  5
257
330
25E
100
AcDbEntity
  8
0
  6
ByBlock
 62
     7
370
    -2
380
     1
100
AcDbLine
 10
202.4225336383213
 20
518.3733602411405
 30
0.0
 11
371.4947028455631
 21
518.3733602411405
 31
0.0
  0
LINE
  5
258
330
25E
100
AcDbEntity
  8
0
  6
ByBlock
 62
     7
370
    -2
380
     1
100
AcDbLine
 10
202.4225336383213
 20
454.7607022411405
 30
0.0
 11
371.4947028455631
 21
454.7607022411405
 31
0.0
  0
LINE
  5
259
330
25E
100
AcDbEntity
  8
0
  6
ByBlock
 62
     7
370
    -2
380
     1
100
AcDbLine
 10
370.2447028455631
 20
508.3733602411405
 30
0.0
 11
370.2447028455631
 21
464.7607022411405
 31
0.0
  0
SOLID
  5
25A
330
25E
100
AcDbEntity
  8
0
  6
ByBlock
 62
     7
380
     1
100
AcDbTrace
 10
370.2447028455631
 20
518.3733602411405
 30
0.0
 11
368.5780361788965
 21
508.3733602411405
 31
0.0
 12
371.9113695122297
 22
508.3733602411405
 32
0.0
 13
371.9113695122297
 23
508.3733602411405
 33
0.0
  0
SOLID
  5
25B
330
25E
100
AcDbEntity
  8
0
  6
ByBlock
 62
     7
380
     1
100
AcDbTrace
 10
370.2447028455631
 20
454.7607022411405
 30
0.0
 11
368.5780361788965
 21
464.7607022411405
 31
0.0
 12
371.9113695122297
 22
464.7607022411405
 32
0.0
 13
371.9113695122297
 23
464.7607022411405
 33
0.0
  0
MTEXT
  5
25C
330
25E
100
AcDbEntity
  8
0
  6
ByBlock
 62
     0
370
    -2
380
     1
100
AcDbMText
 10
358.2447028455631
 20
486.5670312411405
 30
0.0
 40
14.0
 41
0.0
 71
     5
 72
     1
  1
64
 11
6.123031769111886E-17
 21
1.0
 31
0.0
 73
     1
 44
1.0
  0
ENDBLK
  5
2A3
330
25E
100
AcDbEntity
  8
0
100
AcDbBlockEnd
  0
BLOCK
  5
2A4
330
269
100
AcDbEntity
  8
0
100
AcDbBlockBegin
  2
*D16
 70
     1
 10
0.0
 20
0.0
 30
0.0
  3
*D16
  1

  0
POINT
  5
260
330
269
100
AcDbEntity
  8
DEFPOINTS
  6
ByBlock
 62
     7
380
     1
100
AcDbPoint
 10
727.2298636383214
 20
516.6465192411405
 30
0.0
  0
POINT
  5
261
330
269
100
AcDbEntity
  8
DEFPOINTS
  6
ByBlock
 62
     7
380
     1
100
AcDbPoint
 10
727.2298636383214
 20
454.2513132411406
 30
0.0
  0
LINE
  5
262
330
269
100
AcDbEntity
  8
0
  6
ByBlock
 62
     7
370
    -2
380
     1
100
AcDbLine
 10
727.8548636383214
 20
516.6465192411405
 30
0.0
 11
757.665444050379
 21
516.6465192411405
 31
0.0
  0
LINE
  5
263
330
269
100
AcDbEntity
  8
0
  6
ByBlock
 62
     7
370
    -2
380
     1
100
AcDbLine
 10
727.8548636383214
 20
454.2513132411406
 30
0.0
 11
757.665444050379
 21
454.2513132411406
 31
0.0
  0
LINE
  5
264
330
269
100
AcDbEntity
  8
0
  6
ByBlock
 62
     7
370
    -2
380
     1
100
AcDbLine
 10
756.415444050379
 20
506.6465192411405
 30
0.0
 11
756.415444050379
 21
464.2513132411406
 31
0.0
  0
SOLID
  5
265
330
269
100
AcDbEntity
  8
0
  6
ByBlock
 62
     7
380
     1
100
AcDbTrace
 10
756.415444050379
 20
516.6465192411405
 30
0.0
 11
754.7487773837124
 21
506.6465192411405
 31
0.0
 12
758.0821107170457
 22
506.6465192411405
 32
0.0
 13
758.0821107170457
 23
506.6465192411405
 33
0.0
  0
SOLID
  5
266
330
269
100
AcDbEntity
  8
0
  6
ByBlock
 62
     7
380
     1
100
AcDbTrace
 10
756.415444050379
 20
454.2513132411406
 30
0.0
 11
754.7487773837124
 21
464.2513132411406
 31
0.0
 12
758.0821107170457
 22
464.2513132411406
 32
0.0
 13
758.0821107170457
 23
464.2513132411406
 33
0.0
  0
MTEXT
  5
267
330
269
100
AcDbEntity
  8
0
  6
ByBlock
 62
     0
370
    -2
380
     1
100
AcDbMText
 10
744.415444050379
 20
482.3870046096058
 30
0.0
 40
14.0
 41
0.0
 71
     5
 72
     1
  1
64
 11
6.123031769111886E-17
 21
1.0
 31
0.0
 73
     1
 44
1.0
  0
ENDBLK
  5
2A5
330
269
100
AcDbEntity
  8
0
100
AcDbBlockEnd
  0
BLOCK
  5
2A6
330
274
100
AcDbEntity
  8
0
100
AcDbBlockBegin
  2
*D17
 70
     1
 10
0.0
 20
0.0
 30
0.0
  3
*D17
  1

  0
POINT
  5
26B
330
274
100
AcDbEntity
  8
DEFPOINTS
  6
ByBlock
 62
     7
380
     1
100
AcDbPoint
 10
427.9032956383213
 20
367.1433492411405
 30
0.0
  0
POINT
  5
26C
330
274
100
AcDbEntity
  8
DEFPOINTS
  6
ByBlock
 62
     7
380
     1
100
AcDbPoint
 10
727.2298636383214
 20
272.9565662411405
 30
0.0
  0
LINE
  5
26D
330
274
100
AcDbEntity
  8
0
  6
ByBlock
 62
     7
370
    -2
380
     1
100
AcDbLine
 10
427.9032956383213
 20
367.7683492411405
 30
0.0
 11
427.9032956383213
 21
394.9660336255157
 31
0.0
  0
LINE
  5
26E
330
274
100
AcDbEntity
  8
0
  6
ByBlock
 62
     7
370
    -2
380
     1
100
AcDbLine
 10
727.2298636383214
 20
273.5815662411405
 30
0.0
 11
727.2298636383214
 21
394.9660336255157
 31
0.0
  0
LINE
  5
26F
330
274
100
AcDbEntity
  8
0
  6
ByBlock
 62
     7
370
    -2
380
     1
100
AcDbLine
 10
437.9032956383213
 20
393.7160336255157
 30
0.0
 11
717.2298636383214
 21
393.7160336255157
 31
0.0
  0
SOLID
  5
270
330
274
100
AcDbEntity
  8
0
  6
ByBlock
 62
     7
380
     1
100
AcDbTrace
 10
427.9032956383213
 20
393.7160336255157
 30
0.0
 11
437.9032956383213
 21
392.049366958849
 31
0.0
 12
437.9032956383213
 22
395.3827002921824
 32
0.0
 13
437.9032956383213
 23
395.3827002921824
 33
0.0
  0
SOLID
  5
271
330
274
100
AcDbEntity
  8
0
  6
ByBlock
 62
     7
380
     1
100
AcDbTrace
 10
727.2298636383214
 20
393.7160336255157
 30
0.0
 11
717.2298636383214
 21
392.049366958849
 31
0.0
 12
717.2298636383214
 22
395.3827002921824
 32
0.0
 13
717.2298636383214
 23
395.3827002921824
 33
0.0
  0
MTEXT
  5
272
330
274
100
AcDbEntity
  8
0
  6
ByBlock
 62
     0
370
    -2
380
     1
100
AcDbMText
 10
577.5665796383214
 20
405.7160336255157
 30
0.0
 40
14.0
 41
0.0
 71
     5
 72
     1
  1
300
 73
     1
 44
1.0
  0
ENDBLK
  5
2A7
330
274
100
AcDbEntity
  8
0
100
AcDbBlockEnd
  0
BLOCK
  5
2A8
330
27F
100
AcDbEntity
  8
0
100
AcDbBlockBegin
  2
*D18
 70
     1
 10
0.0
 20
0.0
 30
0.0
  3
*D18
  1

  0
POINT
  5
276
330
27F
100
AcDbEntity
  8
DEFPOINTS
  6
ByBlock
 62
     7
380
     1
100
AcDbPoint
 10
456.6850326383213
 20
369.1433492411405
 30
0.0
  0
POINT
  5
277
330
27F
100
AcDbEntity
  8
DEFPOINTS
  6
ByBlock
 62
     7
380
     1
100
AcDbPoint
 10
456.6850326383213
 20
86.94654124114052
 30
0.0
  0
LINE
  5
278
330
27F
100
AcDbEntity
  8
0
  6
ByBlock
 62
     7
370
    -2
380
     1
100
AcDbLine
 10
456.0600326383213
 20
369.1433492411405
 30
0.0
 11
348.3764570210003
 21
369.1433492411405
 31
0.0
  0
LINE
  5
279
330
27F
100
AcDbEntity
  8
0
  6
ByBlock
 62
     7
370
    -2
380
     1
100
AcDbLine
 10
456.0600326383213
 20
86.9465412411405
 30
0.0
 11
348.3764570210003
 21
86.9465412411405
 31
0.0
  0
LINE
  5
27A
330
27F
100
AcDbEntity
  8
0
  6
ByBlock
 62
     7
370
    -2
380
     1
100
AcDbLine
 10
349.6264570210003
 20
359.1433492411405
 30
0.0
 11
349.6264570210003
 21
96.9465412411405
 31
0.0
  0
SOLID
  5
27B
330
27F
100
AcDbEntity
  8
0
  6
ByBlock
 62
     7
380
     1
100
AcDbTrace
 10
349.6264570210003
 20
369.1433492411405
 30
0.0
 11
347.9597903543336
 21
359.1433492411405
 31
0.0
 12
351.293123687667
 22
359.1433492411405
 32
0.0
 13
351.293123687667
 23
359.1433492411405
 33
0.0
  0
SOLID
  5
27C
330
27F
100
AcDbEntity
  8
0
  6
ByBlock
 62
     7
380
     1
100
AcDbTrace
 10
349.6264570210003
 20
86.9465412411405
 30
0.0
 11
347.9597903543336
 21
96.9465412411405
 31
0.0
 12
351.293123687667
 22
96.9465412411405
 32
0.0
 13
351.293123687667
 23
96.9465412411405
 33
0.0
  0
MTEXT
  5
27D
330
27F
100
AcDbEntity
  8
0
  6
ByBlock
 62
     0
370
    -2
380
     1
100
AcDbMText
 10
337.6264570210003
 20
228.0449452411405
 30
0.0
 40
14.0
 41
0.0
 71
     5
 72
     1
  1
282
 11
6.123031769111886E-17
 21
1.0
 31
0.0
 73
     1
 44
1.0
  0
ENDBLK
  5
2A9
330
27F
100
AcDbEntity
  8
0
100
AcDbBlockEnd
  0
ENDSEC
  0
SECTION
  2
ENTITIES
  0
POINT
  5
F9
330
1F
100
AcDbEntity
  8
0
 62
     7
370
    60
100
AcDbPoint
 10
201.7975336383213
 20
454.7607052411405
 30
0.0
  0
ARC
  5
FA
330
1F
100
AcDbEntity
  8
0
 62
     7
370
    60
100
AcDbCircle
 10
868.5739196383213
 20
2579.119287241141
 30
0.0
 40
2067.310303
100
AcDbArc
 50
262.197217
 51
262.848079
  0
ARC
  5
FB
330
1F
100
AcDbEntity
  8
0
 62
     7
370
    60
100
AcDbCircle
 10
127.1044976383213
 20
-21530.19516675886
 30
0.0
 40
21992.636086
100
AcDbArc
 50
88.812198
 51
89.072838
  0
ARC
  5
FC
330
1F
100
AcDbEntity
  8
0
 62
     7
370
    60
100
AcDbCircle
 10
127.1042846383213
 20
-21530.20297875886
 30
0.0
 40
21992.644235
100
AcDbArc
 50
88.443997
 51
88.812198
  0
ARC
  5
FD
330
1F
100
AcDbEntity
  8
0
 62
     7
370
    60
100
AcDbCircle
 10
483.2989366383213
 20
479.5587702411406
 30
0.0
 40
20.00000000000001
100
AcDbArc
 50
211.8990819999999
 51
269.0728329999999
  0
ARC
  5
FE
330
1F
100
AcDbEntity
  8
0
 62
     7
370
    60
100
AcDbCircle
 10
109.8129026383213
 20
247.1514832411405
 30
0.0
 40
419.89199
100
AcDbArc
 50
31.89224699999999
 51
39.94747099999999
  0
ARC
  5
FF
330
1F
100
AcDbEntity
  8
0
 62
     7
370
    60
100
AcDbCircle
 10
451.9032976383213
 20
529.7377832411405
 30
0.0
 40
24.00000000000004
100
AcDbArc
 50
78.50754000000003
 51
212.740247
  0
ARC
  5
100
330
1F
100
AcDbEntity
  8
0
 62
     7
370
    60
100
AcDbCircle
 10
868.5739196383213
 20
2579.119287241141
 30
0.0
 40
2067.310254
100
AcDbArc
 50
258.507535
 51
265.998033
  0
LINE
  5
101
330
1F
100
AcDbEntity
  8
0
 62
     7
370
    60
100
AcDbLine
 10
586.9172576383214
 20
531.0856972411406
 30
0.0
 11
586.9172576383214
 21
457.6335002411405
 31
0.0
  0
CIRCLE
  5
102
330
1F
100
AcDbEntity
  8
0
 62
     7
370
    60
100
AcDbCircle
 10
466.9032966383213
 20
529.7377832411405
 30
0.0
 40
2.5
  0
CIRCLE
  5
103
330
1F
100
AcDbEntity
  8
0
 62
     7
370
    60
100
AcDbCircle
 10
451.9032976383213
 20
529.7377832411405
 30
0.0
 40
6.5
  0
LINE
  5
104
330
1F
100
AcDbEntity
  8
0
 62
     7
370
    60
100
AcDbLine
 10
724.2948206383214
 20
454.3312312411405
 30
0.0
 11
724.2948206383214
 21
516.8497592411405
 31
0.0
  0
LINE
  5
105
330
1F
100
AcDbEntity
  8
0
 62
     7
 48
0.073552
370
    60
100
AcDbLine
 10
724.2948206383214
 20
516.8497592411405
 30
0.0
 11
727.2298636383214
 21
516.6465192411405
 31
0.0
  0
LINE
  5
106
330
1F
100
AcDbEntity
  8
0
 62
     7
 48
0.073403
370
    60
100
AcDbLine
 10
724.2948206383214
 20
454.3312312411405
 30
0.0
 11
727.2298636383214
 21
454.2513132411406
 31
0.0
  0
LINE
  5
107
330
1F
100
AcDbEntity
  8
0
 62
     7
370
    60
100
AcDbLine
 10
727.2298636383214
 20
454.2513132411406
 30
0.0
 11
727.2298636383214
 21
516.6465192411405
 31
0.0
  0
LINE
  5
108
330
1F
100
AcDbEntity
  8
0
 62
     7
370
    60
100
AcDbLine
 10
456.6850326383213
 20
86.94654124114052
 30
0.0
 11
427.9032956383213
 21
86.94654124114052
 31
0.0
  0
LINE
  5
109
330
1F
100
AcDbEntity
  8
0
 62
     7
370
    60
100
AcDbLine
 10
586.9172576383214
 20
86.94654124114052
 30
0.0
 11
456.6850326383213
 21
86.94654124114052
 31
0.0
  0
LINE
  5
10A
330
1F
100
AcDbEntity
  8
0
 62
     7
370
    60
100
AcDbLine
 10
427.9032956383213
 20
90.94654124114052
 30
0.0
 11
456.6850326383213
 21
90.94654124114052
 31
0.0
  0
LINE
  5
10B
330
1F
100
AcDbEntity
  8
0
 62
     7
370
    60
100
AcDbLine
 10
456.6850326383213
 20
90.94654124114052
 30
0.0
 11
585.8185176383214
 21
90.94654124114052
 31
0.0
  0
LINE
  5
10C
330
1F
100
AcDbEntity
  8
0
 62
     7
370
    60
100
AcDbLine
 10
427.9032956383213
 20
365.1433492411405
 30
0.0
 11
456.6850326383213
 21
365.1433492411405
 31
0.0
  0
LINE
  5
10D
330
1F
100
AcDbEntity
  8
0
 62
     7
370
    60
100
AcDbLine
 10
456.6850326383213
 20
369.1433492411405
 30
0.0
 11
427.9032956383213
 21
369.1433492411405
 31
0.0
  0
LINE
  5
10E
330
1F
100
AcDbEntity
  8
0
 62
     7
370
    60
100
AcDbLine
 10
456.6850326383213
 20
365.1433492411405
 30
0.0
 11
585.8185176383214
 21
365.1433492411405
 31
0.0
  0
LINE
  5
10F
330
1F
100
AcDbEntity
  8
0
 62
     7
370
    60
100
AcDbLine
 10
586.9172576383214
 20
369.1433492411405
 30
0.0
 11
456.6850326383213
 21
369.1433492411405
 31
0.0
  0
ARC
  5
110
330
1F
100
AcDbEntity
  8
0
 62
     7
370
    60
100
AcDbCircle
 10
709.9639796383213
 20
228.0449452411405
 30
0.0
 40
6.000000000000018
100
AcDbArc
 50
149.999997
 51
210.000003
  0
ARC
  5
111
330
1F
100
AcDbEntity
  8
0
 62
     7
370
    60
100
AcDbCircle
 10
712.2733826383214
 20
228.0449452411405
 30
0.0
 40
4.000000000000007
100
AcDbArc
 50
149.9999970000001
 51
210.0000030000001
  0
LINE
  5
112
330
1F
100
AcDbEntity
  8
0
 62
     7
370
    60
100
AcDbLine
 10
585.8185176383214
 20
90.94654124114052
 30
0.0
 11
722.2515166383214
 21
172.0154082411405
 31
0.0
  0
ARC
  5
113
330
1F
100
AcDbEntity
  8
0
 62
     7
370
    60
100
AcDbCircle
 10
721.2298636383214
 20
173.7347762411405
 30
0.0
 40
1.999999999999978
100
AcDbArc
 50
300.7189029999996
 51
359.9999999999996
  0
LINE
  5
114
330
1F
100
AcDbEntity
  8
0
 62
     7
370
    60
100
AcDbLine
 10
722.9619196383214
 20
193.5318722411405
 30
0.0
 11
704.7678276383214
 21
225.0449452411405
 31
0.0
  0
LINE
  5
115
330
1F
100
AcDbEntity
  8
0
 62
     7
 48
0.469927
370
    60
100
AcDbLine
 10
723.2298636383214
 20
173.7347762411405
 30
0.0
 11
723.2298636383214
 21
192.5318722411405
 31
0.0
  0
ARC
  5
116
330
1F
100
AcDbEntity
  8
0
 62
     7
370
    60
100
AcDbCircle
 10
721.2298636383214
 20
192.5318722411405
 30
0.0
 40
2.0
100
AcDbArc
 50
0.0
 51
30.00000099999999
  0
LINE
  5
117
330
1F
100
AcDbEntity
  8
0
 62
     7
370
    60
100
AcDbLine
 10
704.7678276383214
 20
231.0449452411405
 30
0.0
 11
722.9619196383214
 21
262.5580182411405
 31
0.0
  0
ARC
  5
118
330
1F
100
AcDbEntity
  8
0
 62
     7
370
    60
100
AcDbCircle
 10
721.2298636383214
 20
263.5580182411405
 30
0.0
 40
2.000000000000056
100
AcDbArc
 50
329.9999990000002
 51
0.0000000000001527
  0
LINE
  5
119
330
1F
100
AcDbEntity
  8
0
 62
     7
370
    60
100
AcDbLine
 10
585.8185176383214
 20
365.1433492411405
 30
0.0
 11
722.2515166383214
 21
284.0744822411406
 31
0.0
  0
LINE
  5
11A
330
1F
100
AcDbEntity
  8
0
 62
     7
 48
0.469927
370
    60
100
AcDbLine
 10
723.2298636383214
 20
263.5580182411405
 30
0.0
 11
723.2298636383214
 21
282.3551142411405
 31
0.0
  0
ARC
  5
11B
330
1F
100
AcDbEntity
  8
0
 62
     7
370
    60
100
AcDbCircle
 10
721.2298636383214
 20
282.3551142411405
 30
0.0
 40
2.0
100
AcDbArc
 50
0.0
 51
59.281097
  0
LINE
  5
11C
330
1F
100
AcDbEntity
  8
0
 62
     7
370
    60
100
AcDbLine
 10
586.9172576383214
 20
86.94654124114052
 30
0.0
 11
724.2948206383214
 21
168.5766762411405
 31
0.0
  0
ARC
  5
11D
330
1F
100
AcDbEntity
  8
0
 62
     7
370
    60
100
AcDbCircle
 10
721.2298636383214
 20
173.7347762411405
 30
0.0
 40
6.000000000000016
100
AcDbArc
 50
300.7189030000004
 51
0.0000000000003562
  0
LINE
  5
11E
330
1F
100
AcDbEntity
  8
0
 62
     7
 48
0.104701
370
    60
100
AcDbLine
 10
710.9032956383214
 20
222.4180122411405
 30
0.0
 11
708.8092856383214
 21
226.0449452411405
 31
0.0
  0
LINE
  5
11F
330
1F
100
AcDbEntity
  8
0
 62
     7
370
    60
100
AcDbLine
 10
726.4260156383214
 20
195.5318722411405
 30
0.0
 11
710.9032956383214
 21
222.4180122411405
 31
0.0
  0
LINE
  5
120
330
1F
100
AcDbEntity
  8
0
 62
     7
 48
0.469927
370
    60
100
AcDbLine
 10
727.2298636383214
 20
173.7347762411405
 30
0.0
 11
727.2298636383214
 21
192.5318722411405
 31
0.0
  0
ARC
  5
121
330
1F
100
AcDbEntity
  8
0
 62
     7
370
    60
100
AcDbCircle
 10
721.2298636383214
 20
192.5318722411405
 30
0.0
 40
6.0
100
AcDbArc
 50
0.0
 51
30.00000099999999
  0
LINE
  5
122
330
1F
100
AcDbEntity
  8
0
 62
     7
370
    60
100
AcDbLine
 10
710.9032956383214
 20
233.6718782411405
 30
0.0
 11
726.4260156383214
 21
260.5580182411405
 31
0.0
  0
LINE
  5
123
330
1F
100
AcDbEntity
  8
0
 62
     7
 48
0.104701
370
    60
100
AcDbLine
 10
708.8092856383214
 20
230.0449452411405
 30
0.0
 11
710.9032956383214
 21
233.6718782411405
 31
0.0
  0
ARC
  5
124
330
1F
100
AcDbEntity
  8
0
 62
     7
370
    60
100
AcDbCircle
 10
721.2298636383214
 20
263.5580182411405
 30
0.0
 40
6.00000000000007
100
AcDbArc
 50
329.9999989999998
 51
359.9999999999997
  0
LINE
  5
125
330
1F
100
AcDbEntity
  8
0
 62
     7
370
    60
100
AcDbLine
 10
586.9172576383214
 20
369.1433492411405
 30
0.0
 11
724.2948206383214
 21
287.5132142411405
 31
0.0
  0
LINE
  5
126
330
1F
100
AcDbEntity
  8
0
 62
     7
 48
0.469927
370
    60
100
AcDbLine
 10
727.2298636383214
 20
263.5580182411405
 30
0.0
 11
727.2298636383214
 21
282.3551142411405
 31
0.0
  0
ARC
  5
127
330
1F
100
AcDbEntity
  8
0
 62
     7
370
    60
100
AcDbCircle
 10
721.2298636383214
 20
282.3551142411405
 30
0.0
 40
6.0
100
AcDbArc
 50
0.0
 51
59.281097
  0
LINE
  5
128
330
1F
100
AcDbEntity
  8
0
 62
     7
 48
0.1
370
    60
100
AcDbLine
 10
427.9032956383213
 20
86.94654124114052
 30
0.0
 11
427.9032956383213
 21
90.94654124114052
 31
0.0
  0
LINE
  5
129
330
1F
100
AcDbEntity
  8
0
 62
     7
 48
0.1
370
    60
100
AcDbLine
 10
427.9032956383213
 20
365.1433492411405
 30
0.0
 11
427.9032956383213
 21
369.1433492411405
 31
0.0
  0
ARC
  5
12A
330
1F
100
AcDbEntity
  8
0
 62
     7
370
    60
100
AcDbCircle
 10
201.7975336383213
 20
465.3513122411405
 30
0.0
 40
3.499999999999995
100
AcDbArc
 50
204.9992520000002
 51
288.4796750000002
  0
ARC
  5
12B
330
1F
100
AcDbEntity
  8
0
 62
     7
370
    60
100
AcDbCircle
 10
201.7975336383213
 20
465.3513122411405
 30
0.0
 40
3.500000000000011
100
AcDbArc
 50
16.37022300000003
 51
90.48014400000002
  0
LINE
  5
12C
330
1F
100
AcDbEntity
  8
0
  6
DASHDOT
 62
     7
370
    25
100
AcDbLine
 10
214.7975336383213
 20
485.3513122411405
 30
0.0
 11
188.7975336383213
 21
485.3513122411405
 31
0.0
  0
LINE
  5
12D
330
1F
100
AcDbEntity
  8
0
  6
DASHDOT
 62
     7
370
    25
100
AcDbLine
 10
201.7975336383213
 20
498.3513102411405
 30
0.0
 11
201.7975336383213
 21
472.3513122411405
 31
0.0
  0
LINE
  5
12E
330
1F
100
AcDbEntity
  8
0
 62
     7
 48
0.012029
370
    60
100
AcDbLine
 10
60.69912963832134
 20
553.2566062411405
 30
0.0
 11
60.69912963832134
 21
553.7377822411405
 31
0.0
  0
LINE
  5
12F
330
1F
100
AcDbEntity
  8
0
 62
     7
370
    60
100
AcDbLine
 10
60.69912963832134
 20
531.0856972411406
 30
0.0
 11
60.69912963832134
 21
553.2566062411405
 31
0.0
  0
LINE
  5
130
330
1F
100
AcDbEntity
  8
0
 62
     7
370
    60
100
AcDbLine
 10
60.69912963832134
 20
531.0856972411406
 30
0.0
 11
60.69912963832134
 21
457.6335002411405
 31
0.0
  0
LINE
  5
131
330
1F
100
AcDbEntity
  8
0
 62
     7
 48
0.012029
370
    60
100
AcDbLine
 10
64.69912963832134
 20
553.7377822411405
 30
0.0
 11
64.69912963832134
 21
553.2566062411405
 31
0.0
  0
LINE
  5
132
330
1F
100
AcDbEntity
  8
0
 62
     7
370
    60
100
AcDbLine
 10
64.69912963832134
 20
553.2566062411405
 30
0.0
 11
64.69912963832134
 21
531.2371012411405
 31
0.0
  0
CIRCLE
  5
133
330
1F
100
AcDbEntity
  8
0
 62
     7
370
    60
100
AcDbCircle
 10
153.7975336383213
 20
466.3513122411405
 30
0.0
 40
4.5
  0
CIRCLE
  5
134
330
1F
100
AcDbEntity
  8
0
 62
     7
370
    60
100
AcDbCircle
 10
153.7975336383213
 20
504.3513102411405
 30
0.0
 40
4.5
  0
LINE
  5
135
330
1F
100
AcDbEntity
  8
0
 62
     7
 48
0.1
370
    60
100
AcDbLine
 10
60.69912963832134
 20
553.2566062411405
 30
0.0
 11
64.69912963832134
 21
553.2566062411405
 31
0.0
  0
LINE
  5
136
330
1F
100
AcDbEntity
  8
0
 62
     7
 48
0.012029
370
    60
100
AcDbLine
 10
338.8959376383213
 20
553.7377822411405
 30
0.0
 11
338.8959376383213
 21
553.2566062411405
 31
0.0
  0
LINE
  5
137
330
1F
100
AcDbEntity
  8
0
 62
     7
 48
0.1
370
    60
100
AcDbLine
 10
338.8959376383213
 20
553.2566062411405
 30
0.0
 11
342.8959376383213
 21
553.2566062411405
 31
0.0
  0
LINE
  5
138
330
1F
100
AcDbEntity
  8
0
 62
     7
 48
0.012029
370
    60
100
AcDbLine
 10
342.8959376383213
 20
553.2566062411405
 30
0.0
 11
342.8959376383213
 21
553.7377822411405
 31
0.0
  0
CIRCLE
  5
139
330
1F
100
AcDbEntity
  8
0
 62
     7
370
    60
100
AcDbCircle
 10
249.7975336383213
 20
466.3513122411405
 30
0.0
 40
4.5
  0
CIRCLE
  5
13A
330
1F
100
AcDbEntity
  8
0
 62
     7
370
    60
100
AcDbCircle
 10
249.7975336383213
 20
504.3513102411405
 30
0.0
 40
4.5
  0
LINE
  5
13B
330
1F
100
AcDbEntity
  8
0
 62
     7
370
    60
100
AcDbLine
 10
338.8959376383213
 20
553.2566062411405
 30
0.0
 11
338.8959376383213
 21
531.2371012411405
 31
0.0
  0
LINE
  5
13C
330
1F
100
AcDbEntity
  8
0
 62
     7
370
    60
100
AcDbLine
 10
342.8959376383213
 20
531.0856972411406
 30
0.0
 11
342.8959376383213
 21
457.6335002411405
 31
0.0
  0
LINE
  5
13D
330
1F
100
AcDbEntity
  8
0
 62
     7
370
    60
100
AcDbLine
 10
342.8959376383213
 20
531.0856972411406
 30
0.0
 11
342.8959376383213
 21
553.2566062411405
 31
0.0
  0
ARC
  5
13E
330
1F
100
AcDbEntity
  8
0
 62
     7
370
    60
100
AcDbCircle
 10
201.7975336383213
 20
447.7963342411405
 30
0.0
 40
70.57702600000003
100
AcDbArc
 50
87.56378300000002
 51
92.436215
  0
ARC
  5
13F
330
1F
100
AcDbEntity
  8
0
 62
     7
370
    60
100
AcDbCircle
 10
201.7975336383213
 20
469.7458392411405
 30
0.0
 40
48.28766999999996
100
AcDbArc
 50
87.62619800000003
 51
92.37380700000003
  0
LINE
  5
140
330
1F
100
AcDbEntity
  8
0
 62
     7
 48
0.2442
370
    60
100
AcDbLine
 10
203.7975336383213
 20
517.9916042411405
 30
0.0
 11
203.7975336383213
 21
508.2235922411405
 31
0.0
  0
ARC
  5
141
330
1F
100
AcDbEntity
  8
0
 62
     7
370
    60
100
AcDbCircle
 10
201.7975336383213
 20
505.3513102411405
 30
0.0
 40
3.499999999999947
100
AcDbArc
 50
55.15010999999987
 51
235.1500709999998
  0
LINE
  5
142
330
1F
100
AcDbEntity
  8
0
 62
     7
 48
0.2442
370
    60
100
AcDbLine
 10
199.7975336383213
 20
517.9916042411405
 30
0.0
 11
199.7975336383213
 21
508.2235922411405
 31
0.0
  0
ARC
  5
143
330
1F
100
AcDbEntity
  8
0
 62
     7
370
    60
100
AcDbCircle
 10
201.7975336383213
 20
485.3513122411405
 30
0.0
 40
9.99999999999994
100
AcDbArc
 50
258.463043
 51
78.46304099999989
  0
LINE
  5
144
330
1F
100
AcDbEntity
  8
0
 62
     7
 48
0.183244
370
    60
100
AcDbLine
 10
203.7975336383213
 20
475.5533492411405
 30
0.0
 11
203.7975336383213
 21
468.2235922411405
 31
0.0
  0
ARC
  5
145
330
1F
100
AcDbEntity
  8
0
 62
     7
370
    60
100
AcDbCircle
 10
201.7975336383213
 20
465.3513122411405
 30
0.0
 40
3.50000000000004
100
AcDbArc
 50
55.15011000000092
 51
235.1500710000009
  0
LINE
  5
146
330
1F
100
AcDbEntity
  8
0
 62
     7
 48
0.183244
370
    60
100
AcDbLine
 10
199.7975336383213
 20
475.5533492411405
 30
0.0
 11
199.7975336383213
 21
468.2235922411405
 31
0.0
  0
ARC
  5
147
330
1F
100
AcDbEntity
  8
0
 62
     7
370
    60
100
AcDbCircle
 10
201.7975336383213
 20
505.3513102411405
 30
0.0
 40
3.499999999999984
100
AcDbArc
 50
235.1501119999993
 51
55.1500719999993
  0
LINE
  5
148
330
1F
100
AcDbEntity
  8
0
 62
     7
 48
0.183244
370
    60
100
AcDbLine
 10
203.7975336383213
 20
502.4790302411405
 30
0.0
 11
203.7975336383213
 21
495.1492702411405
 31
0.0
  0
ARC
  5
149
330
1F
100
AcDbEntity
  8
0
 62
     7
370
    60
100
AcDbCircle
 10
201.7975336383213
 20
485.3513122411405
 30
0.0
 40
9.999999999999982
100
AcDbArc
 50
303.3313601569694
 51
258.4630491092
  0
LINE
  5
14A
330
1F
100
AcDbEntity
  8
0
 62
     7
 48
0.183244
370
    60
100
AcDbLine
 10
199.7975336383213
 20
502.4790302411405
 30
0.0
 11
199.7975336383213
 21
495.1492702411405
 31
0.0
  0
ARC
  5
14B
330
1F
100
AcDbEntity
  8
0
 62
     7
370
    60
100
AcDbCircle
 10
201.7975336383213
 20
465.3513122411405
 30
0.0
 40
3.499999999999984
100
AcDbArc
 50
235.1501119999993
 51
55.1500719999993
  0
LINE
  5
14C
330
1F
100
AcDbEntity
  8
0
 62
     7
 48
0.193315
370
    60
100
AcDbLine
 10
203.7975336383213
 20
462.4790282411406
 30
0.0
 11
203.7975336383213
 21
454.7464302411405
 31
0.0
  0
ARC
  5
14D
330
1F
100
AcDbEntity
  8
0
 62
     7
370
    60
100
AcDbCircle
 10
201.7975336383213
 20
313.0311672411406
 30
0.0
 40
141.729535
100
AcDbArc
 50
89.19145200000001
 51
90.80855300000002
  0
LINE
  5
14E
330
1F
100
AcDbEntity
  8
0
 62
     7
 48
0.193315
370
    60
100
AcDbLine
 10
199.7975336383213
 20
462.4790282411406
 30
0.0
 11
199.7975336383213
 21
454.7464302411405
 31
0.0
  0
ELLIPSE
  5
14F
330
1F
100
AcDbEntity
  8
0
 62
     7
370
    60
100
AcDbEllipse
 10
232.7135126383213
 20
2579.12465824114
 30
0.0
 11
-0.0005252619739621878
 21
-2067.315673828125
 31
0.0
210
0.0
220
0.0
230
0.9999999999999999
 40
0.5942019999999996
 41
6.145981027111602
 42
6.212347200984311
  0
SPLINE
  5
150
330
1F
100
AcDbEntity
  8
0
 62
     7
370
    60
100
AcDbSpline
210
0.0
220
0.0
230
1.0
 70
     8
 71
     3
 72
    26
 73
    22
 74
     0
 42
0.0
 43
0.0
 40
0.0
 40
0.0
 40
0.0
 40
0.0
 40
0.1089338340040059
 40
0.2175446604864925
 40
0.3255103447336836
 40
0.4325105704010624
 40
0.5382279200865232
 40
0.642348957519607
 40
0.7445653119070137
 40
0.8445747651223986
 40
0.9420823426369387
 40
1.036801397751512
 40
1.128454321953223
 40
1.216773041772017
 40
1.301499911325982
 40
1.382388521189654
 40
1.459204524448384
 40
1.53172650127305
 40
1.599746880276747
 40
1.663072945877484
 40
1.721527980034615
 40
1.721527980034615
 40
1.721527980034615
 40
1.721527980034615
 10
147.487365762989
 20
516.9245414445336
 30
0.0
 10
147.451054439534
 20
516.9245414445336
 30
0.0
 10
147.3785395416193
 20
516.924680528814
 30
0.0
 10
147.2700376136031
 20
516.9253061301506
 30
0.0
 10
147.162183450538
 20
516.9263467656871
 30
0.0
 10
147.0552986177254
 20
516.9277993708897
 30
0.0
 10
146.9497018395276
 20
516.9296596731626
 30
0.0
 10
146.8457078952019
 20
516.9319222101667
 30
0.0
 10
146.7436265583571
 20
516.934580347433
 30
0.0
 10
146.643761524569
 20
516.937626293193
 30
0.0
 10
146.5464093458683
 20
516.9410511178988
 30
0.0
 10
146.4518584937142
 20
516.9448447452106
 30
0.0
 10
146.360388629556
 20
516.9489960173454
 30
0.0
 10
146.2722699478405
 20
516.9534927237776
 30
0.0
 10
146.1877624953069
 20
516.9583215618245
 30
0.0
 10
146.1071154003423
 20
516.9634681907577
 30
0.0
 10
146.0305661398493
 20
516.9689172531472
 30
0.0
 10
145.9583397873977
 20
516.9746524122979
 30
0.0
 10
145.8906483060182
 20
516.9806563065279
 30
0.0
 10
145.8276896374463
 20
516.9869107159911
 30
0.0
 10
145.7873459283497
 20
516.9914184149233
 30
0.0
 10
145.7679981051126
 20
516.9937288468323
 30
0.0
  0
ARC
  5
151
330
1F
100
AcDbEntity
  8
0
 62
     7
370
    60
100
AcDbCircle
 10
-83.92286436167866
 20
6679.03286124114
 30
0.0
 40
6167.207915
100
AcDbArc
 50
272.334461
 51
272.627503
  0
LINE
  5
152
330
1F
100
AcDbEntity
  8
0
 62
     7
 48
0.469927
370
    60
100
AcDbLine
 10
147.4873646383213
 20
516.9245412411406
 30
0.0
 11
166.2844606383213
 21
516.9245412411406
 31
0.0
  0
ARC
  5
153
330
1F
100
AcDbEntity
  8
0
 62
     7
370
    60
100
AcDbCircle
 10
166.3153786383213
 20
542.0304792411405
 30
0.0
 40
25.10586100000002
100
AcDbArc
 50
269.929435
 51
272.212159
  0
ARC
  5
154
330
1F
100
AcDbEntity
  8
0
 62
     7
370
    60
100
AcDbCircle
 10
487.5179316383213
 20
6679.03286124114
 30
0.0
 40
6167.207915
100
AcDbArc
 50
267.372499
 51
267.665541
  0
ARC
  5
155
330
1F
100
AcDbEntity
  8
0
 62
     7
370
    60
100
AcDbCircle
 10
237.2796886383213
 20
542.0304792411405
 30
0.0
 40
25.10586100000004
100
AcDbArc
 50
267.7878360000001
 51
270.0705670000001
  0
ELLIPSE
  5
156
330
1F
100
AcDbEntity
  8
0
 62
     7
370
    60
100
AcDbEllipse
 10
170.8815576383213
 20
2579.12465824114
 30
0.0
 11
0.0005222292384132743
 21
-2067.315673828125
 31
0.0
210
0.0
220
0.0
230
1.0
 40
0.594202
 41
0.070838107607711
 42
0.1372042819923634
  0
LINE
  5
157
330
1F
100
AcDbEntity
  8
0
 62
     7
 48
0.469927
370
    60
100
AcDbLine
 10
237.3106066383214
 20
516.9245412411406
 30
0.0
 11
256.1077026383213
 21
516.9245412411406
 31
0.0
  0
SPLINE
  5
158
330
1F
100
AcDbEntity
  8
0
 62
     7
370
    60
100
AcDbSpline
210
0.0
220
0.0
230
1.0
 70
     8
 71
     3
 72
    26
 73
    22
 74
     0
 42
0.0
 43
0.0
 40
0.0
 40
0.0
 40
0.0
 40
0.0
 40
0.1089338331190132
 40
0.2175446596315346
 40
0.325510345120849
 40
0.4325105730334185
 40
0.5382279254369992
 40
0.6423489653949099
 40
0.7445653214966167
 40
0.8445747752326316
 40
0.9420823521100499
 40
1.036801406040621
 40
1.128454329066032
 40
1.216773047754917
 40
1.301499916233798
 40
1.382388525084799
 40
1.459204527400336
 40
1.531726503357695
 40
1.599746881576139
 40
1.663072946479596
 40
1.721527980033325
 40
1.721527980033325
 40
1.721527980033325
 40
1.721527980033325
 10
256.1077015136536
 20
516.9245414445336
 30
0.0
 10
256.1440128368136
 20
516.9245414445336
 30
0.0
 10
256.2165277344433
 20
516.9246805288134
 30
0.0
 10
256.3250296625886
 20
516.9253061301653
 30
0.0
 10
256.4328838268257
 20
516.9263467657398
 30
0.0
 10
256.5397686617063
 20
516.9277993709991
 30
0.0
 10
256.6453654423993
 20
516.9296596733386
 30
0.0
 10
256.7493593890432
 20
516.9319222104073
 30
0.0
 10
256.8514407274738
 20
516.9345803477265
 30
0.0
 10
256.9513057617938
 20
516.9376262935215
 30
0.0
 10
257.04865794006
 20
516.9410511182477
 30
0.0
 10
257.1432087912138
 20
516.9448447455662
 30
0.0
 10
257.2346786542079
 20
516.9489960176893
 30
0.0
 10
257.3227973347958
 20
516.9534927241028
 30
0.0
 10
257.4073047862566
 20
516.958321562124
 30
0.0
 10
257.487951880211
 20
516.9634681910231
 30
0.0
 10
257.5645011397633
 20
516.968917253373
 30
0.0
 10
257.6367274913507
 20
516.9746524124768
 30
0.0
 10
257.7044189719484
 20
516.9806563066543
 30
0.0
 10
257.7673776398273
 20
516.9869107160596
 30
0.0
 10
257.8077213484926
 20
516.9914184149471
 30
0.0
 10
257.8270691715299
 20
516.9937288468323
 30
0.0
  0
ARC
  5
159
330
1F
100
AcDbEntity
  8
0
 62
     7
370
    60
100
AcDbCircle
 10
-212.8548403616787
 20
-7315.01450275886
 30
0.0
 40
7777.460485
100
AcDbArc
 50
87.382483
 51
87.984339
  0
ELLIPSE
  5
15A
330
1F
100
AcDbEntity
  8
0
 62
     7
370
    60
100
AcDbEllipse
 10
228.0656606383213
 20
2579.205712241141
 30
0.0
 11
-0.008249832317233084
 21
-2067.396728515621
 31
0.0
210
0.0
220
0.0
230
0.9999999999999999
 40
0.5941910000000007
 41
6.146522429859912
 42
6.213341621274626
  0
LINE
  5
15B
330
1F
100
AcDbEntity
  8
0
 62
     7
370
    60
100
AcDbLine
 10
142.3292646383213
 20
454.3312312411405
 30
0.0
 11
142.3292646383213
 21
516.8497592411405
 31
0.0
  0
SPLINE
  5
15C
330
1F
100
AcDbEntity
  8
0
 62
     7
370
    60
100
AcDbSpline
210
0.0
220
0.0
230
1.0
 70
     8
 71
     3
 72
    26
 73
    22
 74
     0
 42
0.0
 43
0.0
 40
0.0
 40
0.0
 40
0.0
 40
0.0
 40
0.326792333969671
 40
0.6526158594387279
 40
0.9765041568256794
 40
1.297496242679648
 40
1.614639812557386
 40
1.926994488627794
 40
2.233635073615449
 40
2.533654813139858
 40
2.826168669136132
 40
3.110316568636215
 40
3.385265430749395
 40
3.650210656041108
 40
3.904378922194794
 40
4.147030627782248
 40
4.377462382091258
 40
4.595009610302804
 40
4.799049328880069
 40
4.989003178966695
 40
5.16434086312317
 40
5.16434086312317
 40
5.16434086312317
 40
5.16434086312317
 10
147.487365762989
 20
516.6465184383751
 30
0.0
 10
147.3784348560677
 20
516.6465184383751
 30
0.0
 10
147.1608962048126
 20
516.6469241219029
 30
0.0
 10
146.8353991310534
 20
516.6487490453737
 30
0.0
 10
146.5118446360837
 20
516.6517851780291
 30
0.0
 10
146.191197200581
 20
516.656024357303
 30
0.0
 10
145.8744128049115
 20
516.661455189515
 30
0.0
 10
145.5624356240855
 20
516.6680630869015
 30
0.0
 10
145.2561948464335
 20
516.6758302983825
 30
0.0
 10
144.9566014586599
 20
516.6847359282448
 30
0.0
 10
144.6645450524472
 20
516.6947559648285
 30
0.0
 10
144.3808910515763
 20
516.7058632208692
 30
0.0
 10
144.1064785617369
 20
516.718027487067
 30
0.0
 10
143.8421183968786
 20
516.731215576746
 30
0.0
 10
143.5885909942741
 20
516.7453911704047
 30
0.0
 10
143.3466440547768
 20
516.760514933929
 30
0.0
 10
143.1169903308437
 20
516.7765445379063
 30
0.0
 10
142.9003053606962
 20
516.7934347243307
 30
0.0
 10
142.6972253345709
 20
516.8111371243452
 30
0.0
 10
142.5083443567619
 20
516.8296007131171
 30
0.0
 10
142.3873085507929
 20
516.8429248804143
 30
0.0
 10
142.3292627893567
 20
516.8497591773857
 30
0.0
  0
SPLINE
  5
15D
330
1F
100
AcDbEntity
  8
0
 62
     7
370
    60
100
AcDbSpline
210
0.0
220
0.0
230
1.0
 70
     8
 71
     3
 72
    26
 73
    22
 74
     0
 42
0.0
 43
0.0
 40
0.0
 40
0.0
 40
0.0
 40
0.0
 40
0.1745975106656221
 40
0.3639472544717708
 40
0.5674930561983456
 40
0.7846349285955013
 40
1.014731548914529
 40
1.257102674619131
 40
1.511031520450151
 40
1.775767110115522
 40
2.050526610837091
 40
2.334497687252653
 40
2.62684128538726
 40
2.926692928134757
 40
3.233164380020813
 40
3.545346748227352
 40
3.862313635479594
 40
4.183124291275012
 40
4.506826761852389
 40
4.832461039206594
 40
5.159062209389789
 40
5.159062209389789
 40
5.159062209389789
 40
5.159062209389789
 10
142.3292627893564
 20
454.3312342659771
 30
0.0
 10
142.3874013605526
 20
454.3285764474142
 30
0.0
 10
142.5086066447251
 20
454.3233895769711
 30
0.0
 10
142.6976345656403
 20
454.3161901983578
 30
0.0
 10
142.9008631535814
 20
454.3092728167662
 30
0.0
 10
143.1176908165372
 20
454.3026593757377
 30
0.0
 10
143.3474749892067
 20
454.296370799973
 30
0.0
 10
143.5895345054383
 20
454.2904268143765
 30
0.0
 10
143.8431518814705
 20
454.2848459924835
 30
0.0
 10
144.1075756182497
 20
454.2796457081045
 30
0.0
 10
144.3820225044453
 20
454.2748421028616
 30
0.0
 10
144.6656800759791
 20
454.27045001524
 30
0.0
 10
144.957708737897
 20
454.2664830130311
 30
0.0
 10
145.2572436607978
 20
454.2629533672402
 30
0.0
 10
145.5633967864053
 20
454.2598719659171
 30
0.0
 10
145.8752594566174
 20
454.2572483198927
 30
0.0
 10
146.1919055392758
 20
454.2550905337064
 30
0.0
 10
146.5123945733014
 20
454.2534052833095
 30
0.0
 10
146.8357749085096
 20
454.2521977916757
 30
0.0
 10
147.1610868650203
 20
454.2514718049899
 30
0.0
 10
147.3784986858456
 20
454.2513103942979
 30
0.0
 10
147.487365762989
 20
454.2513103942979
 30
0.0
  0
LINE
  5
15E
330
1F
100
AcDbEntity
  8
0
 62
     7
370
    60
100
AcDbLine
 10
147.4873646383213
 20
454.2513132411406
 30
0.0
 11
147.4873646383213
 21
516.6465192411405
 31
0.0
  0
LINE
  5
15F
330
1F
100
AcDbEntity
  8
0
 62
     7
370
    60
100
AcDbLine
 10
169.2844606383213
 20
454.2732402411406
 30
0.0
 11
169.2844606383213
 21
516.7017642411405
 31
0.0
  0
ARC
  5
160
330
1F
100
AcDbEntity
  8
0
 62
     7
370
    60
100
AcDbCircle
 10
1206.845934638321
 20
-65467.76352575886
 30
0.0
 40
65930.201362
100
AcDbArc
 50
90.87835100000001
 51
90.901717
  0
LINE
  5
161
330
1F
100
AcDbEntity
  8
0
 62
     7
 48
0.090684
370
    60
100
AcDbLine
 10
196.1706006383213
 20
454.6909192411405
 30
0.0
 11
199.7975336383213
 21
454.7464302411405
 31
0.0
  0
LINE
  5
162
330
1F
100
AcDbEntity
  8
0
 62
     7
 48
0.090763
370
    60
100
AcDbLine
 10
196.1706006383213
 20
517.8303602411405
 30
0.0
 11
199.7975336383213
 21
517.9916042411405
 31
0.0
  0
ARC
  5
163
330
1F
100
AcDbEntity
  8
0
 62
     7
370
    60
100
AcDbCircle
 10
-76.0130433616787
 20
6681.156884241141
 30
0.0
 40
6169.333668
100
AcDbArc
 50
272.278726
 51
272.528643
  0
LINE
  5
164
330
1F
100
AcDbEntity
  8
0
 62
     7
370
    60
100
AcDbLine
 10
166.2844606383213
 20
454.2513132411406
 30
0.0
 11
166.2844606383213
 21
516.6465192411405
 31
0.0
  0
LINE
  5
165
330
1F
100
AcDbEntity
  8
0
 62
     7
 48
0.469927
370
    60
100
AcDbLine
 10
147.4873646383213
 20
516.6465192411405
 30
0.0
 11
166.2844606383213
 21
516.6465192411405
 31
0.0
  0
LINE
  5
166
330
1F
100
AcDbEntity
  8
0
 62
     7
 48
0.469927
370
    60
100
AcDbLine
 10
147.4873646383213
 20
454.2513132411406
 30
0.0
 11
166.2844606383213
 21
454.2513132411406
 31
0.0
  0
ARC
  5
167
330
1F
100
AcDbEntity
  8
0
 62
     7
370
    60
100
AcDbCircle
 10
166.3756206383213
 20
649.1458062411405
 30
0.0
 40
194.894411
100
AcDbArc
 50
269.973203
 51
270.855185
  0
ARC
  5
168
330
1F
100
AcDbEntity
  8
0
 62
     7
370
    60
100
AcDbCircle
 10
166.3796336383213
 20
593.8465432411405
 30
0.0
 40
77.19979600000003
100
AcDbArc
 50
269.929367
 51
272.156411
  0
ARC
  5
169
330
1F
100
AcDbEntity
  8
0
 62
     7
370
    60
100
AcDbCircle
 10
479.6081106383213
 20
6681.156396241142
 30
0.0
 40
6169.333336
100
AcDbArc
 50
267.471359
 51
267.721276
  0
LINE
  5
16A
330
1F
100
AcDbEntity
  8
0
 62
     7
 48
0.090763
370
    60
100
AcDbLine
 10
203.7975336383213
 20
517.9916042411405
 30
0.0
 11
207.4244666383213
 21
517.8303602411405
 31
0.0
  0
LINE
  5
16B
330
1F
100
AcDbEntity
  8
0
 62
     7
 48
0.090684
370
    60
100
AcDbLine
 10
203.7975336383213
 20
454.7464302411405
 30
0.0
 11
207.4244666383213
 21
454.6909192411405
 31
0.0
  0
ARC
  5
16C
330
1F
100
AcDbEntity
  8
0
 62
     7
370
    60
100
AcDbCircle
 10
-803.2508673616786
 20
-65467.76352575886
 30
0.0
 40
65930.201362
100
AcDbArc
 50
89.098281
 51
89.121654
  0
LINE
  5
16D
330
1F
100
AcDbEntity
  8
0
 62
     7
370
    60
100
AcDbLine
 10
234.3106066383214
 20
454.2732402411406
 30
0.0
 11
234.3106066383214
 21
516.7017642411405
 31
0.0
  0
ARC
  5
16E
330
1F
100
AcDbEntity
  8
0
 62
     7
370
    60
100
AcDbCircle
 10
237.2194466383214
 20
649.1458062411405
 30
0.0
 40
194.8944109999999
100
AcDbArc
 50
269.144817
 51
270.026799
  0
LINE
  5
16F
330
1F
100
AcDbEntity
  8
0
 62
     7
370
    60
100
AcDbLine
 10
237.3106066383214
 20
454.2513132411406
 30
0.0
 11
237.3106066383214
 21
516.6465192411405
 31
0.0
  0
ARC
  5
170
330
1F
100
AcDbEntity
  8
0
 62
     7
370
    60
100
AcDbCircle
 10
237.2154336383213
 20
593.8465432411405
 30
0.0
 40
77.19979600000005
100
AcDbArc
 50
267.843591
 51
270.070635
  0
LINE
  5
171
330
1F
100
AcDbEntity
  8
0
 62
     7
370
    60
100
AcDbLine
 10
261.2658026383213
 20
454.3312312411405
 30
0.0
 11
261.2658026383213
 21
516.8497592411405
 31
0.0
  0
ELLIPSE
  5
172
330
1F
100
AcDbEntity
  8
0
 62
     7
370
    60
100
AcDbEllipse
 10
175.5294236383213
 20
2579.20546824114
 30
0.0
 11
0.008223794400691984
 21
-2067.396484375
 31
0.0
210
0.0
220
0.0
230
1.0
 40
0.594191
 41
0.0698436979678261
 42
0.1366628938115654
  0
ARC
  5
173
330
1F
100
AcDbEntity
  8
0
 62
     7
370
    60
100
AcDbCircle
 10
616.4499076383214
 20
-7315.014990758859
 30
0.0
 40
7777.460806
100
AcDbArc
 50
92.01566
 51
92.617515
  0
LINE
  5
174
330
1F
100
AcDbEntity
  8
0
 62
     7
370
    60
100
AcDbLine
 10
256.1077026383213
 20
454.2513132411406
 30
0.0
 11
256.1077026383213
 21
516.6465192411405
 31
0.0
  0
LINE
  5
175
330
1F
100
AcDbEntity
  8
0
 62
     7
 48
0.469927
370
    60
100
AcDbLine
 10
237.3106066383214
 20
516.6465192411405
 30
0.0
 11
256.1077026383213
 21
516.6465192411405
 31
0.0
  0
LINE
  5
176
330
1F
100
AcDbEntity
  8
0
 62
     7
 48
0.469927
370
    60
100
AcDbLine
 10
237.3106066383214
 20
454.2513132411406
 30
0.0
 11
256.1077026383213
 21
454.2513132411406
 31
0.0
  0
SPLINE
  5
177
330
1F
100
AcDbEntity
  8
0
 62
     7
370
    60
100
AcDbSpline
210
0.0
220
0.0
230
1.0
 70
     8
 71
     3
 72
    26
 73
    22
 74
     0
 42
0.0
 43
0.0
 40
0.0
 40
0.0
 40
0.0
 40
0.0
 40
0.3267923348392672
 40
0.6526158602922845
 40
0.9765041564899599
 40
1.297496240183564
 40
1.61463980744276
 40
1.926994481081066
 40
2.233635064420242
 40
2.533654803450568
 40
2.826168660072331
 40
3.11031656072613
 40
3.385265423979774
 40
3.65021065035634
 40
3.904378917531037
 40
4.147030624072092
 40
4.377462379266416
 40
4.595009608294728
 40
4.799049327618913
 40
4.989003178378361
 40
5.164340863124463
 40
5.164340863124463
 40
5.164340863124463
 40
5.164340863124463
 10
256.1077015136536
 20
516.6465184383751
 30
0.0
 10
256.2166324208648
 20
516.6465184383751
 30
0.0
 10
256.4341710724044
 20
516.6469241219041
 30
0.0
 10
256.7596681460518
 20
516.6487490453599
 30
0.0
 10
257.0832226398997
 20
516.6517851779795
 30
0.0
 10
257.4038700734136
 20
516.6560243572004
 30
0.0
 10
257.7206544666801
 20
516.6614551893501
 30
0.0
 10
258.0326316452739
 20
516.6680630866764
 30
0.0
 10
258.3388724214018
 20
516.6758302981077
 30
0.0
 10
258.6384658086704
 20
516.6847359279378
 30
0.0
 10
258.9305222153124
 20
516.6947559645026
 30
0.0
 10
259.2141762171574
 20
516.7058632205382
 30
0.0
 10
259.4885887081238
 20
516.7180274867451
 30
0.0
 10
259.7529488740646
 20
516.7312155764432
 30
0.0
 10
260.0064762776894
 20
516.7453911701253
 30
0.0
 10
260.2484232181399
 20
516.76051493368
 30
0.0
 10
260.4780769429578
 20
516.7765445376938
 30
0.0
 10
260.6947619139208
 20
516.793434724161
 30
0.0
 10
260.8978419407903
 20
516.8111371242245
 30
0.0
 10
261.0867229192669
 20
516.8296007130507
 30
0.0
 10
261.2077587256545
 20
516.8429248803914
 30
0.0
 10
261.2658044872859
 20
516.8497591773857
 30
0.0
  0
SPLINE
  5
178
330
1F
100
AcDbEntity
  8
0
 62
     7
370
    60
100
AcDbSpline
210
0.0
220
0.0
230
1.0
 70
     8
 71
     3
 72
    26
 73
    22
 74
     0
 42
0.0
 43
0.0
 40
0.0
 40
0.0
 40
0.0
 40
0.0
 40
0.1745975120761831
 40
0.3639472575237298
 40
0.5674930611113018
 40
0.7846349355727407
 40
1.014731558139964
 40
1.257102686255167
 40
1.511031534637157
 40
1.77576712697172
 40
2.05052663046091
 40
2.33449770966771
 40
2.62684130935574
 40
2.926692950932171
 40
3.233164398805084
 40
3.545346761050135
 40
3.862313641854185
 40
4.183124292300914
 40
4.50682675989674
 40
4.832461037142278
 40
5.15906220939026
 40
5.15906220939026
 40
5.15906220939026
 40
5.15906220939026
 10
261.2658044872862
 20
454.3312342659771
 30
0.0
 10
261.2076659156203
 20
454.3285764473927
 30
0.0
 10
261.0864606304314
 20
454.3233895769063
 30
0.0
 10
260.8974327078791
 20
454.3161901982463
 30
0.0
 10
260.6942041180832
 20
454.3092728166014
 30
0.0
 10
260.4773764530699
 20
454.3026593755312
 30
0.0
 10
260.2475922781595
 20
454.2963707997296
 30
0.0
 10
260.0055327595245
 20
454.2904268141081
 30
0.0
 10
259.7519153809489
 20
454.2848459921801
 30
0.0
 10
259.4874916415069
 20
454.2796457077935
 30
0.0
 10
259.2130447525684
 20
454.2748421025303
 30
0.0
 10
258.9293871786633
 20
454.2704500149204
 30
0.0
 10
258.6373585156872
 20
454.2664830127351
 30
0.0
 10
258.3378235939964
 20
454.2629533669667
 30
0.0
 10
258.0316704721039
 20
454.2598719656954
 30
0.0
 10
257.7198078073658
 20
454.2572483197318
 30
0.0
 10
257.4031617306266
 20
454.2550905336017
 30
0.0
 10
257.0826727015268
 20
454.2534052832597
 30
0.0
 10
256.7592923691316
 20
454.2521977916656
 30
0.0
 10
256.4339804129626
 20
454.2514718049903
 30
0.0
 10
256.2165685914853
 20
454.2513103942979
 30
0.0
 10
256.1077015136536
 20
454.2513103942979
 30
0.0
  0
LINE
  5
179
330
1F
100
AcDbEntity
  8
0
 62
     7
 48
0.1
370
    60
100
AcDbLine
 10
60.69912963832134
 20
553.7377822411405
 30
0.0
 11
64.69912963832134
 21
553.7377822411405
 31
0.0
  0
LINE
  5
17A
330
1F
100
AcDbEntity
  8
0
 62
     7
 48
0.1
370
    60
100
AcDbLine
 10
338.8959376383213
 20
553.7377822411405
 30
0.0
 11
342.8959376383213
 21
553.7377822411405
 31
0.0
  0
DIMENSION
  5
17B
330
1F
100
AcDbEntity
  8
0
370
    25
100
AcDbDimension
  2
*D8
 10
196.4913433224827
 20
476.8752079277132
 30
0.0
 11
219.4837076203612
 21
536.2182882656401
 31
0.0
 70
    35
 71
     5
 41
0.0
 42
-1.0
  3
Standard
100
AcDbDiametricDimension
 15
207.1037239541599
 25
493.8274165545678
 35
0.0
 40
0.0
1001
ACAD
1000
DSTYLE
1002
{
1070
   171
1070
     3
1070
   143
1040
0.03937
1070
   274
1070
     3
1070
    41
1040
10.0
1070
   289
1070
     0
1070
   141
1040
2.5
1070
   176
1070
     7
1070
   177
1070
     7
1070
   271
1070
     2
1070
    43
1040
3.75
1070
   278
1070
    44
1070
    44
1040
1.25
1070
    42
1040
0.625
1070
   147
1040
5.0
1070
    77
1070
     1
1070
   272
1070
     2
1070
    73
1070
     0
1070
   172
1070
     1
1070
    74
1070
     0
1070
   283
1070
     0
1070
   140
1040
14.0
1070
   284
1070
     8
1070
    78
1070
     8
1002
}
  0
DIMENSION
  5
17C
330
1F
100
AcDbEntity
  8
0
370
    25
100
AcDbDimension
  2
*D15
 10
370.2447028455631
 20
454.7607022411405
 30
0.0
 11
358.2447028455631
 21
486.5670312411405
 31
0.0
 70
   160
  1
64
 71
     5
 41
2.5
 42
63.61265800000001
  3
Standard
100
AcDbAlignedDimension
 13
201.7975336383213
 23
518.3733602411405
 33
0.0
 14
201.7975336383213
 24
454.7607022411405
 34
0.0
 50
90.0
100
AcDbRotatedDimension
1001
ACAD
1000
DSTYLE
1002
{
1070
   171
1070
     3
1070
   143
1040
0.03937
1070
   274
1070
     3
1070
    41
1040
10.0
1070
   289
1070
     0
1070
   141
1040
2.5
1070
   176
1070
     7
1070
   177
1070
     7
1070
   271
1070
     2
1070
    43
1040
3.75
1070
   278
1070
    44
1070
    44
1040
1.25
1070
    42
1040
0.625
1070
   147
1040
5.0
1070
    77
1070
     1
1070
   272
1070
     2
1070
    73
1070
     0
1070
   172
1070
     1
1070
    74
1070
     0
1070
   283
1070
     0
1070
   140
1040
14.0
1070
   284
1070
     8
1070
    78
1070
     8
1002
}
  0
DIMENSION
  5
17D
330
1F
100
AcDbEntity
  8
0
370
    25
100
AcDbDimension
  2
*D16
 10
756.415444050379
 20
454.2513132411406
 30
0.0
 11
744.415444050379
 21
482.3870046096058
 31
0.0
 70
   160
  1
64
 71
     5
 41
2.5
 42
62.39520599999986
  3
Standard
100
AcDbAlignedDimension
 13
727.2298636383214
 23
516.6465192411405
 33
0.0
 14
727.2298636383214
 24
454.2513132411406
 34
0.0
 50
90.0
100
AcDbRotatedDimension
1001
ACAD
1000
DSTYLE
1002
{
1070
   171
1070
     3
1070
   143
1040
0.03937
1070
   274
1070
     3
1070
    41
1040
10.0
1070
   289
1070
     0
1070
   141
1040
2.5
1070
   176
1070
     7
1070
   177
1070
     7
1070
   271
1070
     2
1070
    43
1040
3.75
1070
   278
1070
    44
1070
    44
1040
1.25
1070
    42
1040
0.625
1070
   147
1040
5.0
1070
    77
1070
     1
1070
   272
1070
     2
1070
    73
1070
     0
1070
   172
1070
     1
1070
    74
1070
     0
1070
   283
1070
     0
1070
   140
1040
14.0
1070
   284
1070
     8
1070
    78
1070
     8
1002
}
  0
POINT
  5
17E
330
1F
100
AcDbEntity
  8
0
 62
     7
370
    60
100
AcDbPoint
 10
201.7975336383213
 20
518.0335112411404
 30
0.0
  0
DIMENSION
  5
17F
330
1F
100
AcDbEntity
  8
0
370
    25
100
AcDbDimension
  2
*D18
 10
349.6264570210003
 20
86.94654124114052
 30
0.0
 11
337.6264570210003
 21
228.0449452411405
 31
0.0
 70
    32
  1
282
 71
     5
 41
2.5
 42
282.196808
  3
Standard
100
AcDbAlignedDimension
 13
456.6850326383213
 23
369.1433492411405
 33
0.0
 14
456.6850326383213
 24
86.94654124114052
 34
0.0
 50
90.0
100
AcDbRotatedDimension
1001
ACAD
1000
DSTYLE
1002
{
1070
   171
1070
     3
1070
   143
1040
0.03937
1070
   274
1070
     3
1070
    41
1040
10.0
1070
   289
1070
     0
1070
   141
1040
2.5
1070
   176
1070
     7
1070
   177
1070
     7
1070
   271
1070
     2
1070
    43
1040
3.75
1070
   278
1070
    44
1070
    44
1040
1.25
1070
    42
1040
0.625
1070
   147
1040
5.0
1070
    77
1070
     1
1070
   272
1070
     2
1070
    73
1070
     0
1070
   172
1070
     1
1070
    74
1070
     0
1070
   283
1070
     0
1070
   140
1040
14.0
1070
   284
1070
     8
1070
    78
1070
     8
1002
}
  0
DIMENSION
  5
180
330
1F
100
AcDbEntity
  8
0
370
    25
100
AcDbDimension
  2
*D12
 10
392.0113199283729
 20
86.94654124114052
 30
0.0
 11
380.0113199283729
 21
110.6132079078072
 31
0.0
 70
   160
 71
     5
 41
2.5
 42
4.0
  3
Standard
100
AcDbAlignedDimension
 13
470.6177961326422
 23
90.94654124114052
 33
0.0
 14
470.6177961326422
 24
86.94654124114052
 34
0.0
 50
90.0
100
AcDbRotatedDimension
1001
ACAD
1000
DSTYLE
1002
{
1070
   171
1070
     3
1070
   143
1040
0.03937
1070
   274
1070
     3
1070
    41
1040
10.0
1070
   289
1070
     0
1070
   141
1040
2.5
1070
   176
1070
     7
1070
   177
1070
     7
1070
   271
1070
     2
1070
    43
1040
3.75
1070
   278
1070
    44
1070
    44
1040
1.25
1070
    42
1040
0.625
1070
   147
1040
5.0
1070
    77
1070
     1
1070
   272
1070
     2
1070
    73
1070
     0
1070
   172
1070
     1
1070
    74
1070
     0
1070
   283
1070
     0
1070
   140
1040
14.0
1070
   284
1070
     8
1070
    78
1070
     8
1002
}
  0
DIMENSION
  5
181
330
1F
100
AcDbEntity
  8
0
370
    25
100
AcDbDimension
  2
*D13
 10
586.9172576383214
 20
57.96494992846925
 30
0.0
 11
507.4102766383214
 21
69.96494992846925
 31
0.0
 70
   160
  1
159
 71
     5
 41
2.5
 42
159.0139620000001
  3
Standard
100
AcDbAlignedDimension
 13
427.9032956383213
 23
88.94654124114052
 33
0.0
 14
586.9172576383214
 24
86.94654124114052
 34
0.0
100
AcDbRotatedDimension
1001
ACAD
1000
DSTYLE
1002
{
1070
   171
1070
     3
1070
   143
1040
0.03937
1070
   274
1070
     3
1070
    41
1040
10.0
1070
   289
1070
     0
1070
   141
1040
2.5
1070
   176
1070
     7
1070
   177
1070
     7
1070
   271
1070
     2
1070
    43
1040
3.75
1070
   278
1070
    44
1070
    44
1040
1.25
1070
    42
1040
0.625
1070
   147
1040
5.0
1070
    77
1070
     1
1070
   272
1070
     2
1070
    73
1070
     0
1070
   172
1070
     1
1070
    74
1070
     0
1070
   283
1070
     0
1070
   140
1040
14.0
1070
   284
1070
     8
1070
    78
1070
     8
1002
}
  0
DIMENSION
  5
182
330
1F
100
AcDbEntity
  8
0
370
    25
100
AcDbDimension
  2
*D17
 10
727.2298636383214
 20
393.7160336255157
 30
0.0
 11
577.5665796383214
 21
405.7160336255157
 31
0.0
 70
    32
  1
300
 71
     5
 41
2.5
 42
299.3265680000001
  3
Standard
100
AcDbAlignedDimension
 13
427.9032956383213
 23
367.1433492411405
 33
0.0
 14
727.2298636383214
 24
272.9565662411405
 34
0.0
100
AcDbRotatedDimension
1001
ACAD
1000
DSTYLE
1002
{
1070
   171
1070
     3
1070
   143
1040
0.03937
1070
   274
1070
     3
1070
    41
1040
10.0
1070
   289
1070
     0
1070
   141
1040
2.5
1070
   176
1070
     7
1070
   177
1070
     7
1070
   271
1070
     2
1070
    43
1040
3.75
1070
   278
1070
    44
1070
    44
1040
1.25
1070
    42
1040
0.625
1070
   147
1040
5.0
1070
    77
1070
     1
1070
   272
1070
     2
1070
    73
1070
     0
1070
   172
1070
     1
1070
    74
1070
     0
1070
   283
1070
     0
1070
   140
1040
14.0
1070
   284
1070
     8
1070
    78
1070
     8
1002
}
  0
VIEWPORT
  5
BB
330
73
100
AcDbEntity
 67
     1
  8
0
100
AcDbViewport
 10
7.8
 20
4.5
 30
0.0
 40
15.64
 41
9.0
 68
     1
 69
     1
 12
6.0
 22
4.5
 13
0.0
 23
0.0
 14
0.5
 24
0.5
 15
0.5
 25
0.5
 16
0.0
 26
0.0
 36
1.0
 17
0.0
 27
0.0
 37
0.0
 42
50.0
 43
0.0
 44
0.0
 45
12.0
 50
0.0
 51
0.0
 72
   100
 90
   557152
  1

281
     0
 71
     1
 74
     0
110
0.0
120
0.0
130
0.0
111
1.0
121
0.0
131
0.0
112
0.0
122
1.0
132
0.0
 79
     0
146
0.0
  0
ENDSEC
  0
SECTION
  2
OBJECTS
  0
DICTIONARY
  5
C
330
0
100
AcDbDictionary
281
     1
  3
ACAD_COLOR
350
6C
  3
ACAD_GROUP
350
D
  3
ACAD_LAYOUT
350
1A
  3
ACAD_MATERIAL
350
6B
  3
ACAD_MLEADERSTYLE
350
24C
  3
ACAD_MLINESTYLE
350
17
  3
ACAD_PLOTSETTINGS
350
19
  3
ACAD_PLOTSTYLENAME
350
E
  3
ACAD_SCALELIST
350
99
  3
ACAD_TABLESTYLE
350
92
  3
ACDBHEADERROUNDTRIPXREC
350
2AA
  3
AcDbVariableDictionary
350
59
  3
DWGPROPS
350
2AD
  0
DICTIONARY
  5
6C
102
{ACAD_REACTORS
330
C
102
}
330
C
100
AcDbDictionary
281
     1
  0
DICTIONARY
  5
D
102
{ACAD_REACTORS
330
C
102
}
330
C
100
AcDbDictionary
281
     1
  0
DICTIONARY
  5
1A
102
{ACAD_REACTORS
330
C
102
}
330
C
100
AcDbDictionary
281
     1
  3
Layout1
350
74
  3
Layout2
350
22C
  3
Model
350
22
  0
DICTIONARY
  5
6B
102
{ACAD_REACTORS
330
C
102
}
330
C
100
AcDbDictionary
281
     1
  0
DICTIONARY
  5
24C
102
{ACAD_REACTORS
330
C
102
}
330
C
100
AcDbDictionary
281
     1
  0
DICTIONARY
  5
17
102
{ACAD_REACTORS
330
C
102
}
330
C
100
AcDbDictionary
281
     1
  3
Standard
350
18
  0
DICTIONARY
  5
19
102
{ACAD_REACTORS
330
C
102
}
330
C
100
AcDbDictionary
281
     1
  0
ACDBDICTIONARYWDFLT
  5
E
102
{ACAD_REACTORS
330
C
102
}
330
C
100
AcDbDictionary
281
     1
  3
Normal
350
F
100
AcDbDictionaryWithDefault
340
F
  0
DICTIONARY
  5
99
102
{ACAD_REACTORS
330
C
102
}
330
C
100
AcDbDictionary
281
     1
  3
A0
350
D5
  3
A1
350
D6
  3
A2
350
D7
  3
A3
350
D8
  3
A4
350
D9
  3
A5
350
DA
  3
A6
350
DB
  3
A7
350
DC
  3
A8
350
DD
  3
A9
350
DE
  3
B0
350
DF
  3
B1
350
E0
  3
B2
350
E1
  3
B3
350
E2
  3
B4
350
E3
  3
B5
350
E4
  3
B6
350
E5
  3
B7
350
E6
  3
B8
350
E7
  3
B9
350
E8
  3
C0
350
E9
  3
C1
350
EA
  3
C2
350
EB
  3
C3
350
EC
  3
C4
350
ED
  3
C5
350
EE
  3
C6
350
EF
  3
C7
350
F0
  3
C8
350
F1
  3
C9
350
F2
  3
D0
350
F3
  3
D1
350
F4
  3
D2
350
F5
  0
DICTIONARY
  5
92
102
{ACAD_REACTORS
330
C
102
}
330
C
100
AcDbDictionary
281
     1
  0
DICTIONARY
  5
2AA
102
{ACAD_REACTORS
330
C
102
}
330
C
100
AcDbDictionary
281
     1
  3
COLORDICT
350
2AB
  3
MATERIALDICT
350
2AC
  0
DICTIONARY
  5
59
102
{ACAD_REACTORS
330
C
102
}
330
C
100
AcDbDictionary
281
     1
  3
CTABLESTYLE
350
98
  3
DIMASSOC
350
5A
  3
HIDETEXT
350
5E
  0
XRECORD
  5
2AD
102
{ACAD_REACTORS
330
C
102
}
330
C
100
AcDbXrecord
280
     1
  1
DWGPROPS COOKIE
  2

  3

  4

  6

  7

  8
BelottiMc
  9

300
=
301
=
302
=
303
=
304
=
305
=
306
=
307
=
308
=
309
=
 40
0.0
 41
2455097.323558183
 42
2455097.365224827
  1

 90
        0
  0
LAYOUT
  5
74
102
{ACAD_REACTORS
330
1A
102
}
330
1A
100
AcDbPlotSettings
  1

  2
ProgeSOFT PDF Wizard
  4
A4
  6

 40
5.926666666666667
 41
6.011333333333317
 42
6.095999999999985
 43
5.926666666666667
 44
210.0
 45
297.0
 46
88.56200000000001
 47
136.531
 48
0.0
 49
0.0
140
0.0
141
0.0
142
1.0
143
1.0
 70
   692
 72
     1
 73
     0
 74
     0
  7

 75
    16
147
1.0
148
4.426666666666668
149
1.5
100
AcDbLayout
  1
Layout1
 70
     1
 71
     1
 10
0.0
 20
0.0
 11
0.0
 21
0.0
 12
0.0
 22
0.0
 32
0.0
 14
0.0
 24
0.0
 34
0.0
 15
0.0
 25
0.0
 35
0.0
146
0.0
 13
0.0
 23
0.0
 33
0.0
 16
1.0
 26
0.0
 36
0.0
 17
0.0
 27
1.0
 37
0.0
 76
     0
330
D1
331
24B
1001
PROGE_PRINT_SETTINGS
1070
    73
1070
     1
  0
LAYOUT
  5
22C
102
{ACAD_REACTORS
330
1A
102
}
330
1A
100
AcDbPlotSettings
  1

  2
ProgeSOFT PDF Wizard
  4
A4
  6

 40
5.926666666666667
 41
6.011333333333317
 42
6.095999999999985
 43
5.926666666666667
 44
210.0
 45
297.0
 46
88.562
 47
136.531
 48
0.0
 49
0.0
140
0.0
141
0.0
142
1.0
143
1.0
 70
   692
 72
     1
 73
     0
 74
     0
  7

 75
    16
147
1.0
148
0.0
149
0.0
100
AcDbLayout
  1
Layout2
 70
     1
 71
     2
 10
0.0
 20
0.0
 11
12.0
 21
9.0
 12
0.0
 22
0.0
 32
0.0
 14
0.0
 24
0.0
 34
0.0
 15
12.0
 25
9.0
 35
0.0
146
0.0
 13
0.0
 23
0.0
 33
0.0
 16
1.0
 26
0.0
 36
0.0
 17
0.0
 27
1.0
 37
0.0
 76
     0
330
73
331
BB
1001
PROGE_PRINT_SETTINGS
1070
    73
1070
     1
  0
LAYOUT
  5
22
102
{ACAD_REACTORS
330
1A
102
}
330
1A
100
AcDbPlotSettings
  1

  2
none_device
  4
Letter_(8.50_x_11.00_Inches)
  6

 40
6.349999904632568
 41
6.349999904632568
 42
6.350006103515625
 43
6.350006103515625
 44
215.8999938964844
 45
279.3999938964844
 46
0.0
 47
0.0
 48
0.0
 49
0.0
140
0.0
141
0.0
142
1.0
143
7.421958888061443
 70
 11952
 72
     1
 73
     1
 74
     0
  7

 75
     0
147
0.1347353192172144
148
0.1311165230791651
149
0.096403374003771
100
AcDbLayout
  1
Model
 70
     1
 71
     0
 10
0.0
 20
0.0
 11
0.0
 21
0.0
 12
0.0
 22
0.0
 32
0.0
 14
60.69899955601598
 24
56.29828326180258
 34
0.0
 15
758.0821107170457
 25
553.7377822411405
 35
0.0
146
0.0
 13
0.0
 23
0.0
 33
0.0
 16
1.0
 26
0.0
 36
0.0
 17
0.0
 27
1.0
 37
0.0
 76
     0
330
1F
331
97
  0
MLINESTYLE
  5
18
102
{ACAD_REACTORS
330
17
102
}
330
17
100
AcDbMlineStyle
  2
STANDARD
 70
     0
  3

 62
   256
 51
90.0
 52
90.0
 71
     2
 49
0.5
 62
   256
  6
BYLAYER
 49
-0.5
 62
   256
  6
BYLAYER
  0
ACDBPLACEHOLDER
  5
F
102
{ACAD_REACTORS
330
E
102
}
330
E
  0
SCALE
  5
D5
102
{ACAD_REACTORS
330
99
102
}
330
99
100
AcDbScale
 70
     0
300
1:1
140
1.0
141
1.0
290
     1
  0
SCALE
  5
D6
102
{ACAD_REACTORS
330
99
102
}
330
99
100
AcDbScale
 70
     0
300
1:2
140
1.0
141
2.0
290
     0
  0
SCALE
  5
D7
102
{ACAD_REACTORS
330
99
102
}
330
99
100
AcDbScale
 70
     0
300
1:4
140
1.0
141
4.0
290
     0
  0
SCALE
  5
D8
102
{ACAD_REACTORS
330
99
102
}
330
99
100
AcDbScale
 70
     0
300
1:5
140
1.0
141
5.0
290
     0
  0
SCALE
  5
D9
102
{ACAD_REACTORS
330
99
102
}
330
99
100
AcDbScale
 70
     0
300
1:8
140
1.0
141
8.0
290
     0
  0
SCALE
  5
DA
102
{ACAD_REACTORS
330
99
102
}
330
99
100
AcDbScale
 70
     0
300
1:10
140
1.0
141
10.0
290
     0
  0
SCALE
  5
DB
102
{ACAD_REACTORS
330
99
102
}
330
99
100
AcDbScale
 70
     0
300
1:16
140
1.0
141
16.0
290
     0
  0
SCALE
  5
DC
102
{ACAD_REACTORS
330
99
102
}
330
99
100
AcDbScale
 70
     0
300
1:20
140
1.0
141
20.0
290
     0
  0
SCALE
  5
DD
102
{ACAD_REACTORS
330
99
102
}
330
99
100
AcDbScale
 70
     0
300
1:30
140
1.0
141
30.0
290
     0
  0
SCALE
  5
DE
102
{ACAD_REACTORS
330
99
102
}
330
99
100
AcDbScale
 70
     0
300
1:40
140
1.0
141
40.0
290
     0
  0
SCALE
  5
DF
102
{ACAD_REACTORS
330
99
102
}
330
99
100
AcDbScale
 70
     0
300
1:50
140
1.0
141
50.0
290
     0
  0
SCALE
  5
E0
102
{ACAD_REACTORS
330
99
102
}
330
99
100
AcDbScale
 70
     0
300
1:100
140
1.0
141
100.0
290
     0
  0
SCALE
  5
E1
102
{ACAD_REACTORS
330
99
102
}
330
99
100
AcDbScale
 70
     0
300
2:1
140
2.0
141
1.0
290
     0
  0
SCALE
  5
E2
102
{ACAD_REACTORS
330
99
102
}
330
99
100
AcDbScale
 70
     0
300
4:1
140
4.0
141
1.0
290
     0
  0
SCALE
  5
E3
102
{ACAD_REACTORS
330
99
102
}
330
99
100
AcDbScale
 70
     0
300
8:1
140
8.0
141
1.0
290
     0
  0
SCALE
  5
E4
102
{ACAD_REACTORS
330
99
102
}
330
99
100
AcDbScale
 70
     0
300
10:1
140
10.0
141
1.0
290
     0
  0
SCALE
  5
E5
102
{ACAD_REACTORS
330
99
102
}
330
99
100
AcDbScale
 70
     0
300
100:1
140
100.0
141
1.0
290
     0
  0
SCALE
  5
E6
102
{ACAD_REACTORS
330
99
102
}
330
99
100
AcDbScale
 70
     0
300
1/128" = 1'-0"
140
0.0078125
141
12.0
290
     0
  0
SCALE
  5
E7
102
{ACAD_REACTORS
330
99
102
}
330
99
100
AcDbScale
 70
     0
300
1/64" = 1'-0"
140
0.015625
141
12.0
290
     0
  0
SCALE
  5
E8
102
{ACAD_REACTORS
330
99
102
}
330
99
100
AcDbScale
 70
     0
300
1/32" = 1'-0"
140
0.03125
141
12.0
290
     0
  0
SCALE
  5
E9
102
{ACAD_REACTORS
330
99
102
}
330
99
100
AcDbScale
 70
     0
300
1/16" = 1'-0"
140
0.0625
141
12.0
290
     0
  0
SCALE
  5
EA
102
{ACAD_REACTORS
330
99
102
}
330
99
100
AcDbScale
 70
     0
300
3/32" = 1'-0"
140
0.09375
141
12.0
290
     0
  0
SCALE
  5
EB
102
{ACAD_REACTORS
330
99
102
}
330
99
100
AcDbScale
 70
     0
300
1/8" = 1'-0"
140
0.125
141
12.0
290
     0
  0
SCALE
  5
EC
102
{ACAD_REACTORS
330
99
102
}
330
99
100
AcDbScale
 70
     0
300
3/16" = 1'-0"
140
0.1875
141
12.0
290
     0
  0
SCALE
  5
ED
102
{ACAD_REACTORS
330
99
102
}
330
99
100
AcDbScale
 70
     0
300
1/4" = 1'-0"
140
0.25
141
12.0
290
     0
  0
SCALE
  5
EE
102
{ACAD_REACTORS
330
99
102
}
330
99
100
AcDbScale
 70
     0
300
3/8" = 1'-0"
140
0.375
141
12.0
290
     0
  0
SCALE
  5
EF
102
{ACAD_REACTORS
330
99
102
}
330
99
100
AcDbScale
 70
     0
300
1/2" = 1'-0"
140
0.5
141
12.0
290
     0
  0
SCALE
  5
F0
102
{ACAD_REACTORS
330
99
102
}
330
99
100
AcDbScale
 70
     0
300
3/4" = 1'-0"
140
0.75
141
12.0
290
     0
  0
SCALE
  5
F1
102
{ACAD_REACTORS
330
99
102
}
330
99
100
AcDbScale
 70
     0
300
1" = 1'-0"
140
1.0
141
12.0
290
     0
  0
SCALE
  5
F2
102
{ACAD_REACTORS
330
99
102
}
330
99
100
AcDbScale
 70
     0
300
1-1/2" = 1'-0"
140
1.5
141
12.0
290
     0
  0
SCALE
  5
F3
102
{ACAD_REACTORS
330
99
102
}
330
99
100
AcDbScale
 70
     0
300
3" = 1'-0"
140
3.0
141
12.0
290
     0
  0
SCALE
  5
F4
102
{ACAD_REACTORS
330
99
102
}
330
99
100
AcDbScale
 70
     0
300
6" = 1'-0"
140
6.0
141
12.0
290
     0
  0
SCALE
  5
F5
102
{ACAD_REACTORS
330
99
102
}
330
99
100
AcDbScale
 70
     0
300
1'-0" = 1'-0"
140
12.0
141
12.0
290
     0
  0
XRECORD
  5
2AB
102
{ACAD_REACTORS
330
2AA
102
}
330
2AA
100
AcDbXrecord
280
     1
340
6C
  0
XRECORD
  5
2AC
102
{ACAD_REACTORS
330
2AA
102
}
330
2AA
100
AcDbXrecord
280
     1
340
6B
  0
DICTIONARYVAR
  5
98
102
{ACAD_REACTORS
330
59
102
}
330
59
100
DictionaryVariables
280
     0
  1
Standard
  0
DICTIONARYVAR
  5
5A
102
{ACAD_REACTORS
330
59
102
}
330
59
100
DictionaryVariables
280
     0
  1
2
  0
DICTIONARYVAR
  5
5E
102
{ACAD_REACTORS
330
59
102
}
330
59
100
DictionaryVariables
280
     0
  1
1
  0
ENDSEC
  0
EOF
