  0
SECTION
  2
HEADER
  9
$ACADVER
  1
AC1015
  9
$ACADMAINTVER
 70
     6
  9
$DWGCODEPAGE
  3
ANSI_1252
  9
$INSBASE
 10
0.0
 20
0.0
 30
0.0
  9
$EXTMIN
 10
1856.424111008437
 20
1674.880102832618
 30
0.0
  9
$EXTMAX
 10
2227.913379257806
 20
1874.813830823884
 30
0.0
  9
$LIMMIN
 10
0.0
 20
0.0
  9
$LIMMAX
 10
0.0
 20
0.0
  9
$ORTHOMODE
 70
     0
  9
$REGENMODE
 70
     1
  9
$FILLMODE
 70
     1
  9
$QTEXTMODE
 70
     0
  9
$MIRRTEXT
 70
     0
  9
$LTSCALE
 40
1.0
  9
$ATTMODE
 70
     1
  9
$TEXTSIZE
 40
2.5
  9
$TRACEWID
 40
1.0
  9
$TEXTSTYLE
  7
Standard
  9
$CLAYER
  8
0
  9
$CELTYPE
  6
ByLayer
  9
$CECOLOR
 62
   256
  9
$CELTSCALE
 40
1.0
  9
$DISPSILH
 70
     0
  9
$DIMSCALE
 40
1.0
  9
$DIMASZ
 40
2.5
  9
$DIMEXO
 40
0.625
  9
$DIMDLI
 40
3.75
  9
$DIMRND
 40
0.0
  9
$DIMDLE
 40
0.0
  9
$DIMEXE
 40
1.25
  9
$DIMTP
 40
0.0
  9
$DIMTM
 40
0.0
  9
$DIMTXT
 40
2.5
  9
$DIMCEN
 40
2.5
  9
$DIMTSZ
 40
0.0
  9
$DIMTOL
 70
     0
  9
$DIMLIM
 70
     0
  9
$DIMTIH
 70
     0
  9
$DIMTOH
 70
     0
  9
$DIMSE1
 70
     0
  9
$DIMSE2
 70
     0
  9
$DIMTAD
 70
     1
  9
$DIMZIN
 70
     8
  9
$DIMBLK
  1

  9
$DIMASO
 70
     1
  9
$DIMSHO
 70
     1
  9
$DIMPOST
  1

  9
$DIMAPOST
  1

  9
$DIMALT
 70
     0
  9
$DIMALTD
 70
     3
  9
$DIMALTF
 40
0.03937007874016
  9
$DIMLFAC
 40
1.0
  9
$DIMTOFL
 70
     1
  9
$DIMTVP
 40
0.0
  9
$DIMTIX
 70
     0
  9
$DIMSOXD
 70
     0
  9
$DIMSAH
 70
     0
  9
$DIMBLK1
  1

  9
$DIMBLK2
  1

  9
$DIMSTYLE
  2
ISO-25
  9
$DIMCLRD
 70
     0
  9
$DIMCLRE
 70
     0
  9
$DIMCLRT
 70
     0
  9
$DIMTFAC
 40
1.0
  9
$DIMGAP
 40
0.625
  9
$DIMJUST
 70
     0
  9
$DIMSD1
 70
     0
  9
$DIMSD2
 70
     0
  9
$DIMTOLJ
 70
     0
  9
$DIMTZIN
 70
     8
  9
$DIMALTZ
 70
     0
  9
$DIMALTTZ
 70
     0
  9
$DIMUPT
 70
     0
  9
$DIMDEC
 70
     2
  9
$DIMTDEC
 70
     2
  9
$DIMALTU
 70
     2
  9
$DIMALTTD
 70
     3
  9
$DIMTXSTY
  7
Standard
  9
$DIMAUNIT
 70
     0
  9
$DIMADEC
 70
     0
  9
$DIMALTRND
 40
0.0
  9
$DIMAZIN
 70
     0
  9
$DIMDSEP
 70
    44
  9
$DIMATFIT
 70
     3
  9
$DIMFRAC
 70
     0
  9
$DIMLDRBLK
  1

  9
$DIMLUNIT
 70
     2
  9
$DIMLWD
 70
    -2
  9
$DIMLWE
 70
    -2
  9
$DIMTMOVE
 70
     0
  9
$LUNITS
 70
     2
  9
$LUPREC
 70
     4
  9
$SKETCHINC
 40
1.0
  9
$FILLETRAD
 40
0.0
  9
$AUNITS
 70
     0
  9
$AUPREC
 70
     0
  9
$MENU
  1
.
  9
$ELEVATION
 40
0.0
  9
$PELEVATION
 40
0.0
  9
$THICKNESS
 40
0.0
  9
$LIMCHECK
 70
     0
  9
$CHAMFERA
 40
0.0
  9
$CHAMFERB
 40
0.0
  9
$CHAMFERC
 40
0.0
  9
$CHAMFERD
 40
0.0
  9
$SKPOLY
 70
     0
  9
$TDCREATE
 40
2455091.616268785
  9
$TDUCREATE
 40
2455091.532935451
  9
$TDUPDATE
 40
2455091.657935451
  9
$TDUUPDATE
 40
2455091.574602118
  9
$TDINDWG
 40
0.0360696759
  9
$TDUSRTIMER
 40
0.0360673148
  9
$USRTIMER
 70
     1
  9
$ANGBASE
 50
0.0
  9
$ANGDIR
 70
     0
  9
$PDMODE
 70
     0
  9
$PDSIZE
 40
0.0
  9
$PLINEWID
 40
0.0
  9
$SPLFRAME
 70
     0
  9
$SPLINETYPE
 70
     6
  9
$SPLINESEGS
 70
     8
  9
$HANDSEED
  5
3D1
  9
$SURFTAB1
 70
     6
  9
$SURFTAB2
 70
     6
  9
$SURFTYPE
 70
     6
  9
$SURFU
 70
     6
  9
$SURFV
 70
     6
  9
$UCSBASE
  2

  9
$UCSNAME
  2

  9
$UCSORG
 10
0.0
 20
0.0
 30
0.0
  9
$UCSXDIR
 10
1.0
 20
0.0
 30
0.0
  9
$UCSYDIR
 10
0.0
 20
1.0
 30
0.0
  9
$UCSORTHOREF
  2

  9
$UCSORTHOVIEW
 70
     0
  9
$UCSORGTOP
 10
0.0
 20
0.0
 30
0.0
  9
$UCSORGBOTTOM
 10
0.0
 20
0.0
 30
0.0
  9
$UCSORGLEFT
 10
0.0
 20
0.0
 30
0.0
  9
$UCSORGRIGHT
 10
0.0
 20
0.0
 30
0.0
  9
$UCSORGFRONT
 10
0.0
 20
0.0
 30
0.0
  9
$UCSORGBACK
 10
0.0
 20
0.0
 30
0.0
  9
$PUCSBASE
  2

  9
$PUCSNAME
  2

  9
$PUCSORG
 10
0.0
 20
0.0
 30
0.0
  9
$PUCSXDIR
 10
1.0
 20
0.0
 30
0.0
  9
$PUCSYDIR
 10
0.0
 20
1.0
 30
0.0
  9
$PUCSORTHOREF
  2

  9
$PUCSORTHOVIEW
 70
     0
  9
$PUCSORGTOP
 10
0.0
 20
0.0
 30
0.0
  9
$PUCSORGBOTTOM
 10
0.0
 20
0.0
 30
0.0
  9
$PUCSORGLEFT
 10
0.0
 20
0.0
 30
0.0
  9
$PUCSORGRIGHT
 10
0.0
 20
0.0
 30
0.0
  9
$PUCSORGFRONT
 10
0.0
 20
0.0
 30
0.0
  9
$PUCSORGBACK
 10
0.0
 20
0.0
 30
0.0
  9
$USERI1
 70
     0
  9
$USERI2
 70
     0
  9
$USERI3
 70
     0
  9
$USERI4
 70
     0
  9
$USERI5
 70
     0
  9
$USERR1
 40
0.0
  9
$USERR2
 40
0.0
  9
$USERR3
 40
0.0
  9
$USERR4
 40
0.0
  9
$USERR5
 40
0.0
  9
$WORLDVIEW
 70
     1
  9
$SHADEDGE
 70
     3
  9
$SHADEDIF
 70
    70
  9
$TILEMODE
 70
     1
  9
$MAXACTVP
 70
    64
  9
$PINSBASE
 10
0.0
 20
0.0
 30
0.0
  9
$PLIMCHECK
 70
     0
  9
$PEXTMIN
 10
0.0
 20
0.0
 30
0.0
  9
$PEXTMAX
 10
12.0
 20
9.0
 30
0.0
  9
$PLIMMIN
 10
0.0
 20
0.0
  9
$PLIMMAX
 10
12.0
 20
9.0
  9
$UNITMODE
 70
     0
  9
$VISRETAIN
 70
     1
  9
$PLINEGEN
 70
     0
  9
$PSLTSCALE
 70
     1
  9
$TREEDEPTH
 70
  3020
  9
$CMLSTYLE
  2
Standard
  9
$CMLJUST
 70
     0
  9
$CMLSCALE
 40
20.0
  9
$PROXYGRAPHICS
 70
     1
  9
$MEASUREMENT
 70
     1
  9
$CELWEIGHT
370
    -1
  9
$ENDCAPS
280
     0
  9
$JOINSTYLE
280
     0
  9
$LWDISPLAY
290
     0
  9
$INSUNITS
 70
     4
  9
$HYPERLINKBASE
  1

  9
$STYLESHEET
  1

  9
$XEDIT
290
     1
  9
$CEPSNTYPE
380
     0
  9
$PSTYLEMODE
290
     1
  9
$FINGERPRINTGUID
  2
{5559452E-1E62-4159-8551-BF76FFF3E7E8}
  9
$VERSIONGUID
  2
{3CEB9EF8-4431-4551-B596-6734A9F966A9}
  9
$EXTNAMES
290
     1
  9
$PSVPSCALE
 40
0.0
  9
$OLESTARTUP
290
     0
  0
ENDSEC
  0
SECTION
  2
CLASSES
  0
CLASS
  1
ACDBDICTIONARYWDFLT
  2
AcDbDictionaryWithDefault
  3
ObjectDBX Classes
 90
        0
280
     0
281
     0
  0
CLASS
  1
ACDBPLACEHOLDER
  2
AcDbPlaceHolder
  3
ObjectDBX Classes
 90
        0
280
     0
281
     0
  0
CLASS
  1
LAYOUT
  2
AcDbLayout
  3
ObjectDBX Classes
 90
        0
280
     0
281
     0
  0
CLASS
  1
DICTIONARYVAR
  2
AcDbDictionaryVar
  3
ObjectDBX Classes
 90
        0
280
     0
281
     0
  0
CLASS
  1
TABLESTYLE
  2
AcDbTableStyle
  3
ObjectDBX Classes
 90
     4095
280
     0
281
     0
  0
CLASS
  1
SCALE
  2
AcDbScale
  3
ObjectDBX Classes
 90
     1153
280
     0
281
     0
  0
ENDSEC
  0
SECTION
  2
TABLES
  0
TABLE
  2
VPORT
  5
8
330
0
100
AcDbSymbolTable
 70
     2
  0
VPORT
  5
97
330
8
100
AcDbSymbolTableRecord
100
AcDbViewportTableRecord
  2
*Active
 70
     0
 10
0.0
 20
0.0
 11
1.0
 21
1.0
 12
2123.517809681591
 22
1823.617183842755
 13
0.0
 23
0.0
 14
10.0
 24
10.0
 15
10.0
 25
10.0
 16
0.0
 26
0.0
 36
1.0
 17
0.0
 27
0.0
 37
0.0
 40
541.6023753775914
 41
1.664827586206897
 42
50.0
 43
0.0
 44
0.0
 50
0.0
 51
0.0
 71
     0
 72
  1000
 73
     1
 74
     3
 75
     0
 76
     0
 77
     0
 78
     0
281
     0
 65
     1
110
0.0
120
0.0
130
0.0
111
1.0
121
0.0
131
0.0
112
0.0
122
1.0
132
0.0
 79
     0
146
0.0
  0
ENDTAB
  0
TABLE
  2
LTYPE
  5
5
330
0
100
AcDbSymbolTable
 70
     5
  0
LTYPE
  5
14
330
5
100
AcDbSymbolTableRecord
100
AcDbLinetypeTableRecord
  2
ByBlock
 70
     0
  3

 72
    65
 73
     0
 40
0.0
  0
LTYPE
  5
15
330
5
100
AcDbSymbolTableRecord
100
AcDbLinetypeTableRecord
  2
ByLayer
 70
     0
  3

 72
    65
 73
     0
 40
0.0
  0
LTYPE
  5
16
330
5
100
AcDbSymbolTableRecord
100
AcDbLinetypeTableRecord
  2
Continuous
 70
     0
  3
Solid line
 72
    65
 73
     0
 40
0.0
  0
LTYPE
  5
373
330
5
100
AcDbSymbolTableRecord
100
AcDbLinetypeTableRecord
  2
NASCOSTA
 70
     0
  3
__ __ __ __ __ __ __ __ __ __ __ __ __ __ __ __
 72
    65
 73
     2
 40
0.375
 49
0.25
 74
     0
 49
-0.125
 74
     0
  0
LTYPE
  5
374
330
5
100
AcDbSymbolTableRecord
100
AcDbLinetypeTableRecord
  2
TRATTO-PUNTO
 70
     0
  3
__ . __ . __ . __ . __ . __ . __ . __ . __ . __
 72
    65
 73
     4
 40
1.0
 49
0.5
 74
     0
 49
-0.25
 74
     0
 49
0.0
 74
     0
 49
-0.25
 74
     0
  0
LTYPE
  5
375
330
5
100
AcDbSymbolTableRecord
100
AcDbLinetypeTableRecord
  2
BORDER
 70
     0
  3
Border __ __ . __ __ . __ __ . __ __ . __ __ .
 72
    65
 73
     6
 40
44.45
 49
12.7
 74
     0
 49
-6.35
 74
     0
 49
12.7
 74
     0
 49
-6.35
 74
     0
 49
0.0
 74
     0
 49
-6.35
 74
     0
  0
LTYPE
  5
376
330
5
100
AcDbSymbolTableRecord
100
AcDbLinetypeTableRecord
  2
BORDERX2
 70
     0
  3
Border (2.0x) ____  ____  .  ____  ____  .  ___
 72
    65
 73
     6
 40
88.89999999999999
 49
25.4
 74
     0
 49
-12.7
 74
     0
 49
25.4
 74
     0
 49
-12.7
 74
     0
 49
0.0
 74
     0
 49
-12.7
 74
     0
  0
ENDTAB
  0
TABLE
  2
LAYER
  5
2
330
0
100
AcDbSymbolTable
 70
     2
  0
LAYER
  5
10
330
2
100
AcDbSymbolTableRecord
100
AcDbLayerTableRecord
  2
0
 70
     0
 62
     7
  6
Continuous
370
    -3
390
F
  0
LAYER
  5
FB
330
2
100
AcDbSymbolTableRecord
100
AcDbLayerTableRecord
  2
DEFPOINTS
 70
     0
 62
     7
  6
Continuous
290
     0
370
    -3
390
F
  0
ENDTAB
  0
TABLE
  2
STYLE
  5
3
330
0
100
AcDbSymbolTable
 70
     2
  0
STYLE
  5
11
330
3
100
AcDbSymbolTableRecord
100
AcDbTextStyleTableRecord
  2
Standard
 70
     0
 40
0.0
 41
1.0
 50
0.0
 71
     0
 42
2.5
  3
txt
  4

  0
STYLE
  5
F8
330
3
100
AcDbSymbolTableRecord
100
AcDbTextStyleTableRecord
  2
H
 70
     0
 40
1.75
 41
1.0
 50
0.0
 71
     0
 42
1.75
  3
swiss.ttf
  4

1001
ACAD
1000
Swis721 BT
1071
       34
  0
ENDTAB
  0
TABLE
  2
VIEW
  5
6
330
0
100
AcDbSymbolTable
 70
     0
  0
ENDTAB
  0
TABLE
  2
UCS
  5
7
330
0
100
AcDbSymbolTable
 70
     0
  0
ENDTAB
  0
TABLE
  2
APPID
  5
9
330
0
100
AcDbSymbolTable
 70
     2
  0
APPID
  5
12
330
9
100
AcDbSymbolTableRecord
100
AcDbRegAppTableRecord
  2
ACAD
 70
     0
  0
APPID
  5
372
330
9
100
AcDbSymbolTableRecord
100
AcDbRegAppTableRecord
  2
PROGE_PRINT_SETTINGS
 70
     0
  0
ENDTAB
  0
TABLE
  2
DIMSTYLE
  5
A
330
0
100
AcDbSymbolTable
 70
     3
100
AcDbDimStyleTable
  0
DIMSTYLE
105
27
330
A
100
AcDbSymbolTableRecord
100
AcDbDimStyleTableRecord
  2
Standard
 70
     0
278
     0
340
11
  0
DIMSTYLE
105
29
102
{ACAD_REACTORS
330
2A1
330
2CE
330
308
330
342
102
}
330
A
100
AcDbSymbolTableRecord
100
AcDbDimStyleTableRecord
  2
ISO-25
 70
     0
 41
2.5
 42
0.625
 43
3.75
 44
1.25
 73
     0
 74
     0
 77
     1
 78
     8
140
2.5
141
2.5
143
0.03937007874016
147
0.625
171
     3
172
     1
271
     2
272
     2
274
     3
278
    44
283
     0
284
     8
340
11
  0
DIMSTYLE
105
FC
102
{ACAD_REACTORS
330
FF
330
10F
330
148
102
}
330
A
100
AcDbSymbolTableRecord
100
AcDbDimStyleTableRecord
  2
GEWISS
 70
     0
 41
1.7
 42
1.0
 43
7.0
 44
0.3
 73
     0
 74
     0
 77
     1
140
1.75
141
1.5
147
0.75
172
     1
176
     1
177
     1
340
F8
  0
ENDTAB
  0
TABLE
  2
BLOCK_RECORD
  5
1
330
0
100
AcDbSymbolTable
 70
    41
  0
BLOCK_RECORD
  5
1F
330
1
100
AcDbSymbolTableRecord
100
AcDbBlockTableRecord
  2
*Model_Space
340
22
  0
BLOCK_RECORD
  5
73
330
1
100
AcDbSymbolTableRecord
100
AcDbBlockTableRecord
  2
*Paper_Space
340
378
  0
BLOCK_RECORD
  5
D1
330
1
100
AcDbSymbolTableRecord
100
AcDbBlockTableRecord
  2
*Paper_Space0
340
74
  0
BLOCK_RECORD
  5
109
330
1
100
AcDbSymbolTableRecord
100
AcDbBlockTableRecord
  2
*D1
340
0
  0
BLOCK_RECORD
  5
116
330
1
100
AcDbSymbolTableRecord
100
AcDbBlockTableRecord
  2
*D2
340
0
  0
BLOCK_RECORD
  5
121
330
1
100
AcDbSymbolTableRecord
100
AcDbBlockTableRecord
  2
*D3
340
0
  0
BLOCK_RECORD
  5
12C
330
1
100
AcDbSymbolTableRecord
100
AcDbBlockTableRecord
  2
*D4
340
0
  0
BLOCK_RECORD
  5
137
330
1
100
AcDbSymbolTableRecord
100
AcDbBlockTableRecord
  2
*D5
340
0
  0
BLOCK_RECORD
  5
144
330
1
100
AcDbSymbolTableRecord
100
AcDbBlockTableRecord
  2
*D6
340
0
  0
BLOCK_RECORD
  5
14F
330
1
100
AcDbSymbolTableRecord
100
AcDbBlockTableRecord
  2
*D7
340
0
  0
BLOCK_RECORD
  5
15C
330
1
100
AcDbSymbolTableRecord
100
AcDbBlockTableRecord
  2
*D8
340
0
  0
BLOCK_RECORD
  5
167
330
1
100
AcDbSymbolTableRecord
100
AcDbBlockTableRecord
  2
*D9
340
0
  0
BLOCK_RECORD
  5
174
330
1
100
AcDbSymbolTableRecord
100
AcDbBlockTableRecord
  2
*D10
340
0
  0
BLOCK_RECORD
  5
1D6
330
1
100
AcDbSymbolTableRecord
100
AcDbBlockTableRecord
  2
*D11
340
0
  0
BLOCK_RECORD
  5
1F2
330
1
100
AcDbSymbolTableRecord
100
AcDbBlockTableRecord
  2
*D12
340
0
  0
BLOCK_RECORD
  5
20E
330
1
100
AcDbSymbolTableRecord
100
AcDbBlockTableRecord
  2
*D13
340
0
  0
BLOCK_RECORD
  5
242
330
1
100
AcDbSymbolTableRecord
100
AcDbBlockTableRecord
  2
*D14
340
0
  0
BLOCK_RECORD
  5
24F
330
1
100
AcDbSymbolTableRecord
100
AcDbBlockTableRecord
  2
*D15
340
0
  0
BLOCK_RECORD
  5
25B
330
1
100
AcDbSymbolTableRecord
100
AcDbBlockTableRecord
  2
*D16
340
0
  0
BLOCK_RECORD
  5
266
330
1
100
AcDbSymbolTableRecord
100
AcDbBlockTableRecord
  2
*D17
340
0
  0
BLOCK_RECORD
  5
272
330
1
100
AcDbSymbolTableRecord
100
AcDbBlockTableRecord
  2
*D18
340
0
  0
BLOCK_RECORD
  5
27E
330
1
100
AcDbSymbolTableRecord
100
AcDbBlockTableRecord
  2
*D19
340
0
  0
BLOCK_RECORD
  5
289
330
1
100
AcDbSymbolTableRecord
100
AcDbBlockTableRecord
  2
*D20
340
0
  0
BLOCK_RECORD
  5
294
330
1
100
AcDbSymbolTableRecord
100
AcDbBlockTableRecord
  2
*D21
340
0
  0
BLOCK_RECORD
  5
2A0
330
1
100
AcDbSymbolTableRecord
100
AcDbBlockTableRecord
  2
*D22
340
0
  0
BLOCK_RECORD
  5
2AC
330
1
100
AcDbSymbolTableRecord
100
AcDbBlockTableRecord
  2
*D23
340
0
  0
BLOCK_RECORD
  5
2B7
330
1
100
AcDbSymbolTableRecord
100
AcDbBlockTableRecord
  2
*D24
340
0
  0
BLOCK_RECORD
  5
2C2
330
1
100
AcDbSymbolTableRecord
100
AcDbBlockTableRecord
  2
*D25
340
0
  0
BLOCK_RECORD
  5
2CD
330
1
100
AcDbSymbolTableRecord
100
AcDbBlockTableRecord
  2
*D26
340
0
  0
BLOCK_RECORD
  5
2D9
330
1
100
AcDbSymbolTableRecord
100
AcDbBlockTableRecord
  2
*D27
340
0
  0
BLOCK_RECORD
  5
2E4
330
1
100
AcDbSymbolTableRecord
100
AcDbBlockTableRecord
  2
*D28
340
0
  0
BLOCK_RECORD
  5
2EF
330
1
100
AcDbSymbolTableRecord
100
AcDbBlockTableRecord
  2
*D29
340
0
  0
BLOCK_RECORD
  5
2FB
330
1
100
AcDbSymbolTableRecord
100
AcDbBlockTableRecord
  2
*D30
340
0
  0
BLOCK_RECORD
  5
307
330
1
100
AcDbSymbolTableRecord
100
AcDbBlockTableRecord
  2
*D31
340
0
  0
BLOCK_RECORD
  5
313
330
1
100
AcDbSymbolTableRecord
100
AcDbBlockTableRecord
  2
*D32
340
0
  0
BLOCK_RECORD
  5
31E
330
1
100
AcDbSymbolTableRecord
100
AcDbBlockTableRecord
  2
*D33
340
0
  0
BLOCK_RECORD
  5
329
330
1
100
AcDbSymbolTableRecord
100
AcDbBlockTableRecord
  2
*D34
340
0
  0
BLOCK_RECORD
  5
335
330
1
100
AcDbSymbolTableRecord
100
AcDbBlockTableRecord
  2
*D35
340
0
  0
BLOCK_RECORD
  5
341
330
1
100
AcDbSymbolTableRecord
100
AcDbBlockTableRecord
  2
*D36
340
0
  0
BLOCK_RECORD
  5
34D
330
1
100
AcDbSymbolTableRecord
100
AcDbBlockTableRecord
  2
*D37
340
0
  0
BLOCK_RECORD
  5
358
330
1
100
AcDbSymbolTableRecord
100
AcDbBlockTableRecord
  2
*D38
340
0
  0
BLOCK_RECORD
  5
363
330
1
100
AcDbSymbolTableRecord
100
AcDbBlockTableRecord
  2
*D39
340
0
  0
BLOCK_RECORD
  5
36E
330
1
100
AcDbSymbolTableRecord
100
AcDbBlockTableRecord
  2
*D40
340
0
  0
ENDTAB
  0
ENDSEC
  0
SECTION
  2
BLOCKS
  0
BLOCK
  5
20
330
1F
100
AcDbEntity
  8
0
100
AcDbBlockBegin
  2
*Model_Space
 70
     0
 10
0.0
 20
0.0
 30
0.0
  3
*Model_Space
  1

  0
ENDBLK
  5
21
330
1F
100
AcDbEntity
  8
0
100
AcDbBlockEnd
  0
BLOCK
  5
75
330
73
100
AcDbEntity
 67
     1
  8
0
100
AcDbBlockBegin
  2
*Paper_Space
 70
     0
 10
0.0
 20
0.0
 30
0.0
  3
*Paper_Space
  1

  0
ENDBLK
  5
76
330
73
100
AcDbEntity
 67
     1
  8
0
100
AcDbBlockEnd
  0
BLOCK
  5
379
330
D1
100
AcDbEntity
  8
0
100
AcDbBlockBegin
  2
*Paper_Space0
 70
     0
 10
0.0
 20
0.0
 30
0.0
  3
*Paper_Space0
  1

  0
VIEWPORT
  5
3CB
330
D1
100
AcDbEntity
  8
0
100
AcDbViewport
 10
7.8
 20
4.5
 30
0.0
 40
15.64
 41
9.0
 68
     1
 69
     1
 12
6.0
 22
4.5
 13
0.0
 23
0.0
 14
0.5
 24
0.5
 15
0.5
 25
0.5
 16
0.0
 26
0.0
 36
1.0
 17
0.0
 27
0.0
 37
0.0
 42
50.0
 43
0.0
 44
0.0
 45
12.0
 50
0.0
 51
0.0
 72
   100
 90
   557152
  1

281
     0
 71
     1
 74
     0
110
0.0
120
0.0
130
0.0
111
1.0
121
0.0
131
0.0
112
0.0
122
1.0
132
0.0
 79
     0
146
0.0
  0
ENDBLK
  5
37A
330
D1
100
AcDbEntity
  8
0
100
AcDbBlockEnd
  0
BLOCK
  5
37B
330
109
100
AcDbEntity
  8
0
100
AcDbBlockBegin
  2
*D1
 70
     1
 10
0.0
 20
0.0
 30
0.0
  3
*D1
  1

  0
POINT
  5
FE
330
109
100
AcDbEntity
  8
DEFPOINTS
  6
ByBlock
 62
     1
100
AcDbPoint
 10
29.72774
 20
7.861833
 30
0.0
  0
POINT
  5
FF
330
109
100
AcDbEntity
  8
DEFPOINTS
  6
ByBlock
 62
     1
100
AcDbPoint
 10
29.72774
 20
4.855833
 30
0.0
  0
LINE
  5
100
330
109
100
AcDbEntity
  8
0
  6
ByBlock
 62
     1
370
    -2
100
AcDbLine
 10
30.72774
 20
7.861833
 30
0.0
 11
35.819318
 21
7.861833
 31
0.0
  0
LINE
  5
101
330
109
100
AcDbEntity
  8
0
  6
ByBlock
 62
     1
370
    -2
100
AcDbLine
 10
30.72774
 20
4.855833
 30
0.0
 11
35.819318
 21
4.855833
 31
0.0
  0
LINE
  5
102
330
109
100
AcDbEntity
  8
0
  6
ByBlock
 62
     1
370
    -2
100
AcDbLine
 10
35.519318
 20
3.155832999999999
 30
0.0
 11
35.519318
 21
1.455832999999999
 31
0.0
  0
LINE
  5
103
330
109
100
AcDbEntity
  8
0
  6
ByBlock
 62
     1
370
    -2
100
AcDbLine
 10
35.519318
 20
9.561833
 30
0.0
 11
35.519318
 21
14.93411559072306
 31
0.0
  0
SOLID
  5
104
330
109
100
AcDbEntity
  8
0
  6
ByBlock
 62
     1
100
AcDbTrace
 10
35.519318
 20
7.861833
 30
0.0
 11
35.23598466666667
 21
9.561833
 31
0.0
 12
35.80265133333333
 22
9.561833
 32
0.0
 13
35.80265133333333
 23
9.561833
 33
0.0
  0
SOLID
  5
105
330
109
100
AcDbEntity
  8
0
  6
ByBlock
 62
     1
100
AcDbTrace
 10
35.519318
 20
4.855833
 30
0.0
 11
35.23598466666667
 21
3.155832999999999
 31
0.0
 12
35.80265133333333
 22
3.155832999999999
 32
0.0
 13
35.80265133333333
 23
3.155832999999999
 33
0.0
  0
LINE
  5
106
330
109
100
AcDbEntity
  8
0
  6
ByBlock
 62
     1
370
    -2
100
AcDbLine
 10
35.519318
 20
7.861833
 30
0.0
 11
35.519318
 21
4.855833
 31
0.0
  0
MTEXT
  5
107
330
109
100
AcDbEntity
  8
0
  6
ByBlock
 62
     0
370
    -2
100
AcDbMText
 10
33.87521840927694
 20
13.290016
 30
0.0
 40
1.75
 41
0.0
 71
     5
 72
     1
  1
30
  7
H
 11
6.123031769111886E-17
 21
1.0
 31
0.0
 73
     1
 44
1.0
  0
ENDBLK
  5
37C
330
109
100
AcDbEntity
  8
0
100
AcDbBlockEnd
  0
BLOCK
  5
37D
330
116
100
AcDbEntity
  8
0
100
AcDbBlockBegin
  2
*D2
 70
     1
 10
0.0
 20
0.0
 30
0.0
  3
*D2
  1

  0
POINT
  5
10B
330
116
100
AcDbEntity
  8
DEFPOINTS
  6
ByBlock
 62
     1
100
AcDbPoint
 10
37.787607
 20
20.856804
 30
0.0
  0
POINT
  5
10C
330
116
100
AcDbEntity
  8
DEFPOINTS
  6
ByBlock
 62
     1
100
AcDbPoint
 10
37.787607
 20
17.850804
 30
0.0
  0
LINE
  5
10D
330
116
100
AcDbEntity
  8
0
  6
ByBlock
 62
     1
370
    -2
100
AcDbLine
 10
38.787607
 20
20.856804
 30
0.0
 11
42.281626
 21
20.856804
 31
0.0
  0
LINE
  5
10E
330
116
100
AcDbEntity
  8
0
  6
ByBlock
 62
     1
370
    -2
100
AcDbLine
 10
38.787607
 20
17.850804
 30
0.0
 11
42.281626
 21
17.850804
 31
0.0
  0
LINE
  5
10F
330
116
100
AcDbEntity
  8
0
  6
ByBlock
 62
     1
370
    -2
100
AcDbLine
 10
41.981626
 20
16.150804
 30
0.0
 11
41.981626
 21
14.450804
 31
0.0
  0
LINE
  5
110
330
116
100
AcDbEntity
  8
0
  6
ByBlock
 62
     1
370
    -2
100
AcDbLine
 10
41.981626
 20
22.556804
 30
0.0
 11
41.981626
 21
27.93491659072306
 31
0.0
  0
SOLID
  5
111
330
116
100
AcDbEntity
  8
0
  6
ByBlock
 62
     1
100
AcDbTrace
 10
41.981626
 20
20.856804
 30
0.0
 11
41.69829266666667
 21
22.556804
 31
0.0
 12
42.26495933333333
 22
22.556804
 32
0.0
 13
42.26495933333333
 23
22.556804
 33
0.0
  0
SOLID
  5
112
330
116
100
AcDbEntity
  8
0
  6
ByBlock
 62
     1
100
AcDbTrace
 10
41.981626
 20
17.850804
 30
0.0
 11
41.69829266666667
 21
16.150804
 31
0.0
 12
42.26495933333333
 22
16.150804
 32
0.0
 13
42.26495933333333
 23
16.150804
 33
0.0
  0
LINE
  5
113
330
116
100
AcDbEntity
  8
0
  6
ByBlock
 62
     1
370
    -2
100
AcDbLine
 10
41.981626
 20
20.856804
 30
0.0
 11
41.981626
 21
17.850804
 31
0.0
  0
MTEXT
  5
114
330
116
100
AcDbEntity
  8
0
  6
ByBlock
 62
     0
370
    -2
100
AcDbMText
 10
40.33752640927695
 20
26.290817
 30
0.0
 40
1.75
 41
0.0
 71
     5
 72
     1
  1
30
  7
H
 11
6.123031769111886E-17
 21
1.0
 31
0.0
 73
     1
 44
1.0
  0
ENDBLK
  5
37E
330
116
100
AcDbEntity
  8
0
100
AcDbBlockEnd
  0
BLOCK
  5
37F
330
121
100
AcDbEntity
  8
0
100
AcDbBlockBegin
  2
*D3
 70
     1
 10
0.0
 20
0.0
 30
0.0
  3
*D3
  1

  0
POINT
  5
118
330
121
100
AcDbEntity
  8
DEFPOINTS
  6
ByBlock
 62
     1
100
AcDbPoint
 10
3.99373
 20
19.353804
 30
0.0
  0
POINT
  5
119
330
121
100
AcDbEntity
  8
DEFPOINTS
  6
ByBlock
 62
     1
100
AcDbPoint
 10
29.72774
 20
20.355804
 30
0.0
  0
LINE
  5
11A
330
121
100
AcDbEntity
  8
0
  6
ByBlock
 62
     1
370
    -2
100
AcDbLine
 10
3.99373
 20
20.353804
 30
0.0
 11
3.99373
 21
25.095303
 31
0.0
  0
LINE
  5
11B
330
121
100
AcDbEntity
  8
0
  6
ByBlock
 62
     1
370
    -2
100
AcDbLine
 10
29.72774
 20
21.355804
 30
0.0
 11
29.72774
 21
25.095303
 31
0.0
  0
LINE
  5
11C
330
121
100
AcDbEntity
  8
0
  6
ByBlock
 62
     1
370
    -2
100
AcDbLine
 10
5.69373
 20
24.795303
 30
0.0
 11
28.02774
 21
24.795303
 31
0.0
  0
SOLID
  5
11D
330
121
100
AcDbEntity
  8
0
  6
ByBlock
 62
     1
100
AcDbTrace
 10
3.99373
 20
24.795303
 30
0.0
 11
5.69373
 21
24.51196966666667
 31
0.0
 12
5.69373
 22
25.07863633333334
 32
0.0
 13
5.69373
 23
25.07863633333334
 33
0.0
  0
SOLID
  5
11E
330
121
100
AcDbEntity
  8
0
  6
ByBlock
 62
     1
100
AcDbTrace
 10
29.72774
 20
24.795303
 30
0.0
 11
28.02774
 21
24.51196966666667
 31
0.0
 12
28.02774
 22
25.07863633333334
 32
0.0
 13
28.02774
 23
25.07863633333334
 33
0.0
  0
MTEXT
  5
11F
330
121
100
AcDbEntity
  8
0
  6
ByBlock
 62
     0
370
    -2
100
AcDbMText
 10
16.860735
 20
26.43880572851296
 30
0.0
 40
1.75
 41
0.0
 71
     5
 72
     1
  1
255
  7
H
 73
     1
 44
1.0
  0
ENDBLK
  5
380
330
121
100
AcDbEntity
  8
0
100
AcDbBlockEnd
  0
BLOCK
  5
381
330
12C
100
AcDbEntity
  8
0
100
AcDbBlockBegin
  2
*D4
 70
     1
 10
0.0
 20
0.0
 30
0.0
  3
*D4
  1

  0
POINT
  5
123
330
12C
100
AcDbEntity
  8
DEFPOINTS
  6
ByBlock
 62
     1
100
AcDbPoint
 10
22.11254
 20
10.366833
 30
0.0
  0
POINT
  5
124
330
12C
100
AcDbEntity
  8
DEFPOINTS
  6
ByBlock
 62
     1
100
AcDbPoint
 10
29.72774
 20
7.861833
 30
0.0
  0
LINE
  5
125
330
12C
100
AcDbEntity
  8
0
  6
ByBlock
 62
     1
370
    -2
100
AcDbLine
 10
22.11254
 20
11.366833
 30
0.0
 11
22.11254
 21
13.781401
 31
0.0
  0
LINE
  5
126
330
12C
100
AcDbEntity
  8
0
  6
ByBlock
 62
     1
370
    -2
100
AcDbLine
 10
29.72774
 20
8.861833
 30
0.0
 11
29.72774
 21
13.781401
 31
0.0
  0
LINE
  5
127
330
12C
100
AcDbEntity
  8
0
  6
ByBlock
 62
     1
370
    -2
100
AcDbLine
 10
23.81254
 20
13.481401
 30
0.0
 11
28.02774
 21
13.481401
 31
0.0
  0
SOLID
  5
128
330
12C
100
AcDbEntity
  8
0
  6
ByBlock
 62
     1
100
AcDbTrace
 10
22.11254
 20
13.481401
 30
0.0
 11
23.81254
 21
13.19806766666667
 31
0.0
 12
23.81254
 22
13.76473433333333
 32
0.0
 13
23.81254
 23
13.76473433333333
 33
0.0
  0
SOLID
  5
129
330
12C
100
AcDbEntity
  8
0
  6
ByBlock
 62
     1
100
AcDbTrace
 10
29.72774
 20
13.481401
 30
0.0
 11
28.02774
 21
13.19806766666667
 31
0.0
 12
28.02774
 22
13.76473433333333
 32
0.0
 13
28.02774
 23
13.76473433333333
 33
0.0
  0
MTEXT
  5
12A
330
12C
100
AcDbEntity
  8
0
  6
ByBlock
 62
     0
370
    -2
100
AcDbMText
 10
25.92014
 20
15.106401
 30
0.0
 40
1.749999999999998
 41
0.0
 71
     5
 72
     1
  1
74
  7
H
 73
     1
 44
1.0
  0
ENDBLK
  5
382
330
12C
100
AcDbEntity
  8
0
100
AcDbBlockEnd
  0
BLOCK
  5
383
330
137
100
AcDbEntity
  8
0
100
AcDbBlockBegin
  2
*D5
 70
     1
 10
0.0
 20
0.0
 30
0.0
  3
*D5
  1

  0
POINT
  5
12E
330
137
100
AcDbEntity
  8
DEFPOINTS
  6
ByBlock
 62
     1
100
AcDbPoint
 10
188.210573307089
 20
182.5438937467811
 30
0.0
  0
POINT
  5
12F
330
137
100
AcDbEntity
  8
DEFPOINTS
  6
ByBlock
 62
     1
100
AcDbPoint
 10
213.944583307089
 20
183.5458937467811
 30
0.0
  0
LINE
  5
130
330
137
100
AcDbEntity
  8
0
  6
ByBlock
 62
     1
370
    -2
100
AcDbLine
 10
188.210573307089
 20
183.5438937467811
 30
0.0
 11
188.210573307089
 21
188.2853927467811
 31
0.0
  0
LINE
  5
131
330
137
100
AcDbEntity
  8
0
  6
ByBlock
 62
     1
370
    -2
100
AcDbLine
 10
213.944583307089
 20
184.5458937467811
 30
0.0
 11
213.944583307089
 21
188.2853927467811
 31
0.0
  0
LINE
  5
132
330
137
100
AcDbEntity
  8
0
  6
ByBlock
 62
     1
370
    -2
100
AcDbLine
 10
189.910573307089
 20
187.9853927467811
 30
0.0
 11
212.244583307089
 21
187.9853927467811
 31
0.0
  0
SOLID
  5
133
330
137
100
AcDbEntity
  8
0
  6
ByBlock
 62
     1
100
AcDbTrace
 10
188.210573307089
 20
187.9853927467811
 30
0.0
 11
189.910573307089
 21
187.7020594134478
 31
0.0
 12
189.910573307089
 22
188.2687260801144
 32
0.0
 13
189.910573307089
 23
188.2687260801144
 33
0.0
  0
SOLID
  5
134
330
137
100
AcDbEntity
  8
0
  6
ByBlock
 62
     1
100
AcDbTrace
 10
213.944583307089
 20
187.9853927467811
 30
0.0
 11
212.244583307089
 21
187.7020594134478
 31
0.0
 12
212.244583307089
 22
188.2687260801144
 32
0.0
 13
212.244583307089
 23
188.2687260801144
 33
0.0
  0
MTEXT
  5
135
330
137
100
AcDbEntity
  8
0
  6
ByBlock
 62
     0
370
    -2
100
AcDbMText
 10
201.077578307089
 20
189.628895475294
 30
0.0
 40
1.75
 41
0.0
 71
     5
 72
     1
  1
255
  7
H
 73
     1
 44
1.0
  0
ENDBLK
  5
384
330
137
100
AcDbEntity
  8
0
100
AcDbBlockEnd
  0
BLOCK
  5
385
330
144
100
AcDbEntity
  8
0
100
AcDbBlockBegin
  2
*D6
 70
     1
 10
0.0
 20
0.0
 30
0.0
  3
*D6
  1

  0
POINT
  5
139
330
144
100
AcDbEntity
  8
DEFPOINTS
  6
ByBlock
 62
     1
100
AcDbPoint
 10
213.944583307089
 20
171.0519227467811
 30
0.0
  0
POINT
  5
13A
330
144
100
AcDbEntity
  8
DEFPOINTS
  6
ByBlock
 62
     1
100
AcDbPoint
 10
213.944583307089
 20
168.0459227467811
 30
0.0
  0
LINE
  5
13B
330
144
100
AcDbEntity
  8
0
  6
ByBlock
 62
     1
370
    -2
100
AcDbLine
 10
214.944583307089
 20
171.0519227467811
 30
0.0
 11
220.036161307089
 21
171.0519227467811
 31
0.0
  0
LINE
  5
13C
330
144
100
AcDbEntity
  8
0
  6
ByBlock
 62
     1
370
    -2
100
AcDbLine
 10
214.944583307089
 20
168.0459227467811
 30
0.0
 11
220.036161307089
 21
168.0459227467811
 31
0.0
  0
LINE
  5
13D
330
144
100
AcDbEntity
  8
0
  6
ByBlock
 62
     1
370
    -2
100
AcDbLine
 10
219.736161307089
 20
166.3459227467811
 30
0.0
 11
219.736161307089
 21
164.6459227467811
 31
0.0
  0
LINE
  5
13E
330
144
100
AcDbEntity
  8
0
  6
ByBlock
 62
     1
370
    -2
100
AcDbLine
 10
219.736161307089
 20
172.7519227467811
 30
0.0
 11
219.736161307089
 21
178.1242053375042
 31
0.0
  0
SOLID
  5
13F
330
144
100
AcDbEntity
  8
0
  6
ByBlock
 62
     1
100
AcDbTrace
 10
219.736161307089
 20
171.0519227467811
 30
0.0
 11
219.4528279737556
 21
172.7519227467811
 31
0.0
 12
220.0194946404223
 22
172.7519227467811
 32
0.0
 13
220.0194946404223
 23
172.7519227467811
 33
0.0
  0
SOLID
  5
140
330
144
100
AcDbEntity
  8
0
  6
ByBlock
 62
     1
100
AcDbTrace
 10
219.736161307089
 20
168.0459227467811
 30
0.0
 11
219.4528279737556
 21
166.3459227467811
 31
0.0
 12
220.0194946404223
 22
166.3459227467811
 32
0.0
 13
220.0194946404223
 23
166.3459227467811
 33
0.0
  0
LINE
  5
141
330
144
100
AcDbEntity
  8
0
  6
ByBlock
 62
     1
370
    -2
100
AcDbLine
 10
219.736161307089
 20
171.0519227467811
 30
0.0
 11
219.736161307089
 21
168.0459227467811
 31
0.0
  0
MTEXT
  5
142
330
144
100
AcDbEntity
  8
0
  6
ByBlock
 62
     0
370
    -2
100
AcDbMText
 10
218.0920617163659
 20
176.4801057467811
 30
0.0
 40
1.75
 41
0.0
 71
     5
 72
     1
  1
30
  7
H
 11
6.123031769111886E-17
 21
1.0
 31
0.0
 73
     1
 44
1.0
  0
ENDBLK
  5
386
330
144
100
AcDbEntity
  8
0
100
AcDbBlockEnd
  0
BLOCK
  5
387
330
14F
100
AcDbEntity
  8
0
100
AcDbBlockBegin
  2
*D7
 70
     1
 10
0.0
 20
0.0
 30
0.0
  3
*D7
  1

  0
POINT
  5
146
330
14F
100
AcDbEntity
  8
DEFPOINTS
  6
ByBlock
 62
     1
100
AcDbPoint
 10
206.329383307089
 20
173.5569227467811
 30
0.0
  0
POINT
  5
147
330
14F
100
AcDbEntity
  8
DEFPOINTS
  6
ByBlock
 62
     1
100
AcDbPoint
 10
213.944583307089
 20
171.0519227467811
 30
0.0
  0
LINE
  5
148
330
14F
100
AcDbEntity
  8
0
  6
ByBlock
 62
     1
370
    -2
100
AcDbLine
 10
206.329383307089
 20
174.5569227467811
 30
0.0
 11
206.329383307089
 21
176.9714907467811
 31
0.0
  0
LINE
  5
149
330
14F
100
AcDbEntity
  8
0
  6
ByBlock
 62
     1
370
    -2
100
AcDbLine
 10
213.944583307089
 20
172.0519227467811
 30
0.0
 11
213.944583307089
 21
176.9714907467811
 31
0.0
  0
LINE
  5
14A
330
14F
100
AcDbEntity
  8
0
  6
ByBlock
 62
     1
370
    -2
100
AcDbLine
 10
208.0293833070889
 20
176.6714907467811
 30
0.0
 11
212.244583307089
 21
176.6714907467811
 31
0.0
  0
SOLID
  5
14B
330
14F
100
AcDbEntity
  8
0
  6
ByBlock
 62
     1
100
AcDbTrace
 10
206.329383307089
 20
176.6714907467811
 30
0.0
 11
208.0293833070889
 21
176.3881574134478
 31
0.0
 12
208.0293833070889
 22
176.9548240801144
 32
0.0
 13
208.0293833070889
 23
176.9548240801144
 33
0.0
  0
SOLID
  5
14C
330
14F
100
AcDbEntity
  8
0
  6
ByBlock
 62
     1
100
AcDbTrace
 10
213.944583307089
 20
176.6714907467811
 30
0.0
 11
212.244583307089
 21
176.3881574134478
 31
0.0
 12
212.244583307089
 22
176.9548240801144
 32
0.0
 13
212.244583307089
 23
176.9548240801144
 33
0.0
  0
MTEXT
  5
14D
330
14F
100
AcDbEntity
  8
0
  6
ByBlock
 62
     0
370
    -2
100
AcDbMText
 10
210.136983307089
 20
178.2964907467811
 30
0.0
 40
1.75
 41
0.0
 71
     5
 72
     1
  1
74
  7
H
 73
     1
 44
1.0
  0
ENDBLK
  5
388
330
14F
100
AcDbEntity
  8
0
100
AcDbBlockEnd
  0
BLOCK
  5
389
330
15C
100
AcDbEntity
  8
0
100
AcDbBlockBegin
  2
*D8
 70
     1
 10
0.0
 20
0.0
 30
0.0
  3
*D8
  1

  0
POINT
  5
151
330
15C
100
AcDbEntity
  8
DEFPOINTS
  6
ByBlock
 62
     1
100
AcDbPoint
 10
222.004450307089
 20
184.0468937467811
 30
0.0
  0
POINT
  5
152
330
15C
100
AcDbEntity
  8
DEFPOINTS
  6
ByBlock
 62
     1
100
AcDbPoint
 10
222.004450307089
 20
181.0408937467811
 30
0.0
  0
LINE
  5
153
330
15C
100
AcDbEntity
  8
0
  6
ByBlock
 62
     1
370
    -2
100
AcDbLine
 10
223.004450307089
 20
184.0468937467811
 30
0.0
 11
226.498469307089
 21
184.0468937467811
 31
0.0
  0
LINE
  5
154
330
15C
100
AcDbEntity
  8
0
  6
ByBlock
 62
     1
370
    -2
100
AcDbLine
 10
223.004450307089
 20
181.0408937467811
 30
0.0
 11
226.498469307089
 21
181.0408937467811
 31
0.0
  0
LINE
  5
155
330
15C
100
AcDbEntity
  8
0
  6
ByBlock
 62
     1
370
    -2
100
AcDbLine
 10
226.198469307089
 20
179.3408937467811
 30
0.0
 11
226.198469307089
 21
177.6408937467811
 31
0.0
  0
LINE
  5
156
330
15C
100
AcDbEntity
  8
0
  6
ByBlock
 62
     1
370
    -2
100
AcDbLine
 10
226.198469307089
 20
185.7468937467811
 30
0.0
 11
226.198469307089
 21
191.1250063375041
 31
0.0
  0
SOLID
  5
157
330
15C
100
AcDbEntity
  8
0
  6
ByBlock
 62
     1
100
AcDbTrace
 10
226.198469307089
 20
184.0468937467811
 30
0.0
 11
225.9151359737556
 21
185.7468937467811
 31
0.0
 12
226.4818026404223
 22
185.7468937467811
 32
0.0
 13
226.4818026404223
 23
185.7468937467811
 33
0.0
  0
SOLID
  5
158
330
15C
100
AcDbEntity
  8
0
  6
ByBlock
 62
     1
100
AcDbTrace
 10
226.198469307089
 20
181.0408937467811
 30
0.0
 11
225.9151359737556
 21
179.3408937467811
 31
0.0
 12
226.4818026404223
 22
179.3408937467811
 32
0.0
 13
226.4818026404223
 23
179.3408937467811
 33
0.0
  0
LINE
  5
159
330
15C
100
AcDbEntity
  8
0
  6
ByBlock
 62
     1
370
    -2
100
AcDbLine
 10
226.198469307089
 20
184.0468937467811
 30
0.0
 11
226.198469307089
 21
181.0408937467811
 31
0.0
  0
MTEXT
  5
15A
330
15C
100
AcDbEntity
  8
0
  6
ByBlock
 62
     0
370
    -2
100
AcDbMText
 10
224.5543697163659
 20
189.4809067467811
 30
0.0
 40
1.75
 41
0.0
 71
     5
 72
     1
  1
30
  7
H
 11
6.123031769111886E-17
 21
1.0
 31
0.0
 73
     1
 44
1.0
  0
ENDBLK
  5
38A
330
15C
100
AcDbEntity
  8
0
100
AcDbBlockEnd
  0
BLOCK
  5
38B
330
167
100
AcDbEntity
  8
0
100
AcDbBlockBegin
  2
*D9
 70
     1
 10
0.0
 20
0.0
 30
0.0
  3
*D9
  1

  0
POINT
  5
15E
330
167
100
AcDbEntity
  8
DEFPOINTS
  6
ByBlock
 62
     0
100
AcDbPoint
 10
188.210573307089
 20
185.9146432467811
 30
0.0
  0
POINT
  5
15F
330
167
100
AcDbEntity
  8
DEFPOINTS
  6
ByBlock
 62
     0
100
AcDbPoint
 10
213.944583307089
 20
185.9146432467811
 30
0.0
  0
LINE
  5
160
330
167
100
AcDbEntity
  8
0
  6
ByBlock
 62
     0
370
    -2
100
AcDbLine
 10
188.210573307089
 20
186.5396432467811
 30
0.0
 11
188.210573307089
 21
201.4224328860266
 31
0.0
  0
LINE
  5
161
330
167
100
AcDbEntity
  8
0
  6
ByBlock
 62
     0
370
    -2
100
AcDbLine
 10
213.944583307089
 20
186.5396432467811
 30
0.0
 11
213.944583307089
 21
201.4224328860266
 31
0.0
  0
LINE
  5
162
330
167
100
AcDbEntity
  8
0
  6
ByBlock
 62
     0
370
    -2
100
AcDbLine
 10
190.710573307089
 20
200.1724328860266
 30
0.0
 11
211.444583307089
 21
200.1724328860266
 31
0.0
  0
SOLID
  5
163
330
167
100
AcDbEntity
  8
0
  6
ByBlock
 62
     0
100
AcDbTrace
 10
188.210573307089
 20
200.1724328860266
 30
0.0
 11
190.710573307089
 21
199.7557662193599
 31
0.0
 12
190.710573307089
 22
200.5890995526932
 32
0.0
 13
190.710573307089
 23
200.5890995526932
 33
0.0
  0
SOLID
  5
164
330
167
100
AcDbEntity
  8
0
  6
ByBlock
 62
     0
100
AcDbTrace
 10
213.944583307089
 20
200.1724328860266
 30
0.0
 11
211.444583307089
 21
199.7557662193599
 31
0.0
 12
211.444583307089
 22
200.5890995526932
 32
0.0
 13
211.444583307089
 23
200.5890995526932
 33
0.0
  0
MTEXT
  5
165
330
167
100
AcDbEntity
  8
0
  6
ByBlock
 62
     0
370
    -2
100
AcDbMText
 10
201.077578307089
 20
202.2557662193599
 30
0.0
 40
2.5
 41
0.0
 71
     5
 72
     1
  1
\A1;25,73
 73
     1
 44
1.0
  0
ENDBLK
  5
38C
330
167
100
AcDbEntity
  8
0
100
AcDbBlockEnd
  0
BLOCK
  5
38D
330
174
100
AcDbEntity
  8
0
100
AcDbBlockBegin
  2
*D10
 70
     1
 10
0.0
 20
0.0
 30
0.0
  3
*D10
  1

  0
POINT
  5
169
330
174
100
AcDbEntity
  8
DEFPOINTS
  6
ByBlock
 62
     0
100
AcDbPoint
 10
220.501450307089
 20
184.0468937467811
 30
0.0
  0
POINT
  5
16A
330
174
100
AcDbEntity
  8
DEFPOINTS
  6
ByBlock
 62
     0
100
AcDbPoint
 10
222.004450307089
 20
181.0408937467811
 30
0.0
  0
LINE
  5
16B
330
174
100
AcDbEntity
  8
0
  6
ByBlock
 62
     0
370
    -2
100
AcDbLine
 10
221.126450307089
 20
184.0468937467811
 30
0.0
 11
232.1850206715605
 21
184.0468937467811
 31
0.0
  0
LINE
  5
16C
330
174
100
AcDbEntity
  8
0
  6
ByBlock
 62
     0
370
    -2
100
AcDbLine
 10
222.629450307089
 20
181.0408937467811
 30
0.0
 11
232.1850206715605
 21
181.0408937467811
 31
0.0
  0
LINE
  5
16D
330
174
100
AcDbEntity
  8
0
  6
ByBlock
 62
     0
370
    -2
100
AcDbLine
 10
230.9350206715605
 20
186.5468937467811
 30
0.0
 11
230.9350206715605
 21
189.0468937467811
 31
0.0
  0
LINE
  5
16E
330
174
100
AcDbEntity
  8
0
  6
ByBlock
 62
     0
370
    -2
100
AcDbLine
 10
230.9350206715605
 20
178.5408937467811
 30
0.0
 11
230.9350206715605
 21
171.8742270801145
 31
0.0
  0
SOLID
  5
16F
330
174
100
AcDbEntity
  8
0
  6
ByBlock
 62
     0
100
AcDbTrace
 10
230.9350206715605
 20
184.0468937467811
 30
0.0
 11
230.5183540048939
 21
186.5468937467811
 31
0.0
 12
231.3516873382272
 22
186.5468937467811
 32
0.0
 13
231.3516873382272
 23
186.5468937467811
 33
0.0
  0
SOLID
  5
170
330
174
100
AcDbEntity
  8
0
  6
ByBlock
 62
     0
100
AcDbTrace
 10
230.9350206715605
 20
181.0408937467811
 30
0.0
 11
230.5183540048939
 21
178.5408937467811
 31
0.0
 12
231.3516873382272
 22
178.5408937467811
 32
0.0
 13
231.3516873382272
 23
178.5408937467811
 33
0.0
  0
LINE
  5
171
330
174
100
AcDbEntity
  8
0
  6
ByBlock
 62
     0
370
    -2
100
AcDbLine
 10
230.9350206715605
 20
184.0468937467811
 30
0.0
 11
230.9350206715605
 21
181.0408937467811
 31
0.0
  0
MTEXT
  5
172
330
174
100
AcDbEntity
  8
0
  6
ByBlock
 62
     0
370
    -2
100
AcDbMText
 10
228.8516873382272
 20
173.9575604134478
 30
0.0
 40
2.5
 41
0.0
 71
     5
 72
     1
  1
\A1;3,01
 11
6.123031769111886E-17
 21
1.0
 31
0.0
 73
     1
 44
1.0
  0
ENDBLK
  5
38E
330
174
100
AcDbEntity
  8
0
100
AcDbBlockEnd
  0
BLOCK
  5
38F
330
1D6
100
AcDbEntity
  8
0
100
AcDbBlockBegin
  2
*D11
 70
     1
 10
0.0
 20
0.0
 30
0.0
  3
*D11
  1

  0
POINT
  5
1CD
330
1D6
100
AcDbEntity
  8
DEFPOINTS
  6
ByBlock
 62
     1
380
     1
100
AcDbPoint
 10
1865.279707817236
 20
1819.378480195418
 30
0.0
  0
POINT
  5
1CE
330
1D6
100
AcDbEntity
  8
DEFPOINTS
  6
ByBlock
 62
     1
380
     1
100
AcDbPoint
 10
2120.319187323236
 20
1829.365213795418
 30
0.0
  0
LINE
  5
1CF
330
1D6
100
AcDbEntity
  8
0
  6
ByBlock
 62
     1
370
    -2
380
     1
100
AcDbLine
 10
1865.279707817236
 20
1820.378480195418
 30
0.0
 11
1865.279707817236
 21
1873.912812428618
 31
0.0
  0
LINE
  5
1D0
330
1D6
100
AcDbEntity
  8
0
  6
ByBlock
 62
     1
370
    -2
380
     1
100
AcDbLine
 10
2120.319187323236
 20
1830.365213795418
 30
0.0
 11
2120.319187323236
 21
1873.912812428618
 31
0.0
  0
LINE
  5
1D1
330
1D6
100
AcDbEntity
  8
0
  6
ByBlock
 62
     1
370
    -2
380
     1
100
AcDbLine
 10
1866.979707817236
 20
1873.612812428618
 30
0.0
 11
2118.619187323236
 21
1873.612812428618
 31
0.0
  0
SOLID
  5
1D2
330
1D6
100
AcDbEntity
  8
0
  6
ByBlock
 62
     1
380
     1
100
AcDbTrace
 10
1865.279707817236
 20
1873.612812428618
 30
0.0
 11
1866.979707817236
 21
1873.329479095285
 31
0.0
 12
1866.979707817236
 22
1873.896145761951
 32
0.0
 13
1866.979707817236
 23
1873.896145761951
 33
0.0
  0
SOLID
  5
1D3
330
1D6
100
AcDbEntity
  8
0
  6
ByBlock
 62
     1
380
     1
100
AcDbTrace
 10
2120.319187323236
 20
1873.612812428618
 30
0.0
 11
2118.619187323236
 21
1873.329479095285
 31
0.0
 12
2118.619187323236
 22
1873.896145761951
 32
0.0
 13
2118.619187323236
 23
1873.896145761951
 33
0.0
  0
MTEXT
  5
1D4
330
1D6
100
AcDbEntity
  8
0
  6
ByBlock
 62
     0
370
    -2
380
     1
100
AcDbMText
 10
1992.799447570236
 20
1875.256315157131
 30
0.0
 40
1.75
 41
0.0
 71
     5
 72
     1
  1
255
  7
H
 73
     1
 44
1.0
  0
ENDBLK
  5
390
330
1D6
100
AcDbEntity
  8
0
100
AcDbBlockEnd
  0
BLOCK
  5
391
330
1F2
100
AcDbEntity
  8
0
100
AcDbBlockBegin
  2
*D12
 70
     1
 10
0.0
 20
0.0
 30
0.0
  3
*D12
  1

  0
POINT
  5
1E8
330
1F2
100
AcDbEntity
  8
DEFPOINTS
  6
ByBlock
 62
     1
380
     1
100
AcDbPoint
 10
2120.319187323236
 20
1704.840303632618
 30
0.0
  0
POINT
  5
1E9
330
1F2
100
AcDbEntity
  8
DEFPOINTS
  6
ByBlock
 62
     1
380
     1
100
AcDbPoint
 10
2120.319187323236
 20
1674.880102832618
 30
0.0
  0
LINE
  5
1EA
330
1F2
100
AcDbEntity
  8
0
  6
ByBlock
 62
     1
370
    -2
380
     1
100
AcDbLine
 10
2121.319187323236
 20
1704.840303632618
 30
0.0
 11
2178.017200250036
 21
1704.840303632618
 31
0.0
  0
LINE
  5
1EB
330
1F2
100
AcDbEntity
  8
0
  6
ByBlock
 62
     1
370
    -2
380
     1
100
AcDbLine
 10
2121.319187323236
 20
1674.880102832618
 30
0.0
 11
2178.017200250036
 21
1674.880102832618
 31
0.0
  0
LINE
  5
1EC
330
1F2
100
AcDbEntity
  8
0
  6
ByBlock
 62
     1
370
    -2
380
     1
100
AcDbLine
 10
2177.717200250036
 20
1703.140303632618
 30
0.0
 11
2177.717200250036
 21
1676.580102832618
 31
0.0
  0
LINE
  5
1ED
330
1F2
100
AcDbEntity
  8
0
  6
ByBlock
 62
     1
370
    -2
380
     1
100
AcDbLine
 10
2177.717200250036
 20
1704.840303632618
 30
0.0
 11
2177.717200250036
 21
1760.586017547741
 31
0.0
  0
SOLID
  5
1EE
330
1F2
100
AcDbEntity
  8
0
  6
ByBlock
 62
     1
380
     1
100
AcDbTrace
 10
2177.717200250036
 20
1704.840303632618
 30
0.0
 11
2177.433866916703
 21
1703.140303632618
 31
0.0
 12
2178.000533583369
 22
1703.140303632618
 32
0.0
 13
2178.000533583369
 23
1703.140303632618
 33
0.0
  0
SOLID
  5
1EF
330
1F2
100
AcDbEntity
  8
0
  6
ByBlock
 62
     1
380
     1
100
AcDbTrace
 10
2177.717200250036
 20
1674.880102832618
 30
0.0
 11
2177.433866916703
 21
1676.580102832618
 31
0.0
 12
2178.000533583369
 22
1676.580102832618
 32
0.0
 13
2178.000533583369
 23
1676.580102832618
 33
0.0
  0
MTEXT
  5
1F0
330
1F2
100
AcDbEntity
  8
0
  6
ByBlock
 62
     0
370
    -2
380
     1
100
AcDbMText
 10
2176.073100659313
 20
1758.941917957018
 30
0.0
 40
1.75
 41
0.0
 71
     5
 72
     1
  1
30
  7
H
 11
6.123031769111886E-17
 21
1.0
 31
0.0
 73
     1
 44
1.0
  0
ENDBLK
  5
392
330
1F2
100
AcDbEntity
  8
0
100
AcDbBlockEnd
  0
BLOCK
  5
393
330
20E
100
AcDbEntity
  8
0
100
AcDbBlockBegin
  2
*D13
 70
     1
 10
0.0
 20
0.0
 30
0.0
  3
*D13
  1

  0
POINT
  5
205
330
20E
100
AcDbEntity
  8
DEFPOINTS
  6
ByBlock
 62
     1
380
     1
100
AcDbPoint
 10
2044.847986203236
 20
1729.807137632618
 30
0.0
  0
POINT
  5
206
330
20E
100
AcDbEntity
  8
DEFPOINTS
  6
ByBlock
 62
     1
380
     1
100
AcDbPoint
 10
2120.319187323236
 20
1704.840303632618
 30
0.0
  0
LINE
  5
207
330
20E
100
AcDbEntity
  8
0
  6
ByBlock
 62
     1
370
    -2
380
     1
100
AcDbLine
 10
2044.847986203236
 20
1730.807137632618
 30
0.0
 11
2044.847986203236
 21
1761.149413975018
 31
0.0
  0
LINE
  5
208
330
20E
100
AcDbEntity
  8
0
  6
ByBlock
 62
     1
370
    -2
380
     1
100
AcDbLine
 10
2120.319187323236
 20
1705.840303632618
 30
0.0
 11
2120.319187323236
 21
1761.149413975018
 31
0.0
  0
LINE
  5
209
330
20E
100
AcDbEntity
  8
0
  6
ByBlock
 62
     1
370
    -2
380
     1
100
AcDbLine
 10
2046.547986203236
 20
1760.849413975018
 30
0.0
 11
2118.619187323236
 21
1760.849413975018
 31
0.0
  0
SOLID
  5
20A
330
20E
100
AcDbEntity
  8
0
  6
ByBlock
 62
     1
380
     1
100
AcDbTrace
 10
2044.847986203236
 20
1760.849413975018
 30
0.0
 11
2046.547986203236
 21
1760.566080641685
 31
0.0
 12
2046.547986203236
 22
1761.132747308351
 32
0.0
 13
2046.547986203236
 23
1761.132747308351
 33
0.0
  0
SOLID
  5
20B
330
20E
100
AcDbEntity
  8
0
  6
ByBlock
 62
     1
380
     1
100
AcDbTrace
 10
2120.319187323236
 20
1760.849413975018
 30
0.0
 11
2118.619187323236
 21
1760.566080641685
 31
0.0
 12
2118.619187323236
 22
1761.132747308351
 32
0.0
 13
2118.619187323236
 23
1761.132747308351
 33
0.0
  0
MTEXT
  5
20C
330
20E
100
AcDbEntity
  8
0
  6
ByBlock
 62
     0
370
    -2
380
     1
100
AcDbMText
 10
2082.583586763236
 20
1762.474413975018
 30
0.0
 40
1.75
 41
0.0
 71
     5
 72
     1
  1
74
  7
H
 73
     1
 44
1.0
  0
ENDBLK
  5
394
330
20E
100
AcDbEntity
  8
0
100
AcDbBlockEnd
  0
BLOCK
  5
395
330
242
100
AcDbEntity
  8
0
100
AcDbBlockBegin
  2
*D14
 70
     1
 10
0.0
 20
0.0
 30
0.0
  3
*D14
  1

  0
POINT
  5
238
330
242
100
AcDbEntity
  8
DEFPOINTS
  6
ByBlock
 62
     1
380
     1
100
AcDbPoint
 10
2200.197305213436
 20
1834.358580595418
 30
0.0
  0
POINT
  5
239
330
242
100
AcDbEntity
  8
DEFPOINTS
  6
ByBlock
 62
     1
380
     1
100
AcDbPoint
 10
2200.197305213436
 20
1804.398379795418
 30
0.0
  0
LINE
  5
23A
330
242
100
AcDbEntity
  8
0
  6
ByBlock
 62
     1
370
    -2
380
     1
100
AcDbLine
 10
2201.197305213436
 20
1834.358580595418
 30
0.0
 11
2242.062549914836
 21
1834.358580595418
 31
0.0
  0
LINE
  5
23B
330
242
100
AcDbEntity
  8
0
  6
ByBlock
 62
     1
370
    -2
380
     1
100
AcDbLine
 10
2201.197305213436
 20
1804.398379795418
 30
0.0
 11
2242.062549914836
 21
1804.398379795418
 31
0.0
  0
LINE
  5
23C
330
242
100
AcDbEntity
  8
0
  6
ByBlock
 62
     1
370
    -2
380
     1
100
AcDbLine
 10
2241.762549914836
 20
1832.658580595418
 30
0.0
 11
2241.762549914836
 21
1806.098379795418
 31
0.0
  0
LINE
  5
23D
330
242
100
AcDbEntity
  8
0
  6
ByBlock
 62
     1
370
    -2
380
     1
100
AcDbLine
 10
2241.762549914836
 20
1834.358580595418
 30
0.0
 11
2241.762549914836
 21
1890.162400954541
 31
0.0
  0
SOLID
  5
23E
330
242
100
AcDbEntity
  8
0
  6
ByBlock
 62
     1
380
     1
100
AcDbTrace
 10
2241.762549914836
 20
1834.358580595418
 30
0.0
 11
2241.479216581503
 21
1832.658580595418
 31
0.0
 12
2242.04588324817
 22
1832.658580595418
 32
0.0
 13
2242.04588324817
 23
1832.658580595418
 33
0.0
  0
SOLID
  5
23F
330
242
100
AcDbEntity
  8
0
  6
ByBlock
 62
     1
380
     1
100
AcDbTrace
 10
2241.762549914836
 20
1804.398379795418
 30
0.0
 11
2241.479216581503
 21
1806.098379795418
 31
0.0
 12
2242.04588324817
 22
1806.098379795418
 32
0.0
 13
2242.04588324817
 23
1806.098379795418
 33
0.0
  0
MTEXT
  5
240
330
242
100
AcDbEntity
  8
0
  6
ByBlock
 62
     0
370
    -2
380
     1
100
AcDbMText
 10
2240.118450324113
 20
1888.518301363818
 30
0.0
 40
1.75
 41
0.0
 71
     5
 72
     1
  1
30
  7
H
 11
6.123031769111886E-17
 21
1.0
 31
0.0
 73
     1
 44
1.0
  0
ENDBLK
  5
396
330
242
100
AcDbEntity
  8
0
100
AcDbBlockEnd
  0
BLOCK
  5
397
330
24F
100
AcDbEntity
  8
0
100
AcDbBlockBegin
  2
*D15
 70
     1
 10
0.0
 20
0.0
 30
0.0
  3
*D15
  1

  0
POINT
  5
246
330
24F
100
AcDbEntity
  8
DEFPOINTS
  6
ByBlock
 62
     0
380
     1
100
AcDbPoint
 10
1865.279707817236
 20
1852.974066312018
 30
0.0
  0
POINT
  5
247
330
24F
100
AcDbEntity
  8
DEFPOINTS
  6
ByBlock
 62
     0
380
     1
100
AcDbPoint
 10
2120.319187323236
 20
1852.974066312018
 30
0.0
  0
LINE
  5
248
330
24F
100
AcDbEntity
  8
0
  6
ByBlock
 62
     0
370
    -2
380
     1
100
AcDbLine
 10
1865.279707817236
 20
1853.599066312018
 30
0.0
 11
1865.279707817236
 21
1996.32860408845
 31
0.0
  0
LINE
  5
249
330
24F
100
AcDbEntity
  8
0
  6
ByBlock
 62
     0
370
    -2
380
     1
100
AcDbLine
 10
2120.319187323236
 20
1853.599066312018
 30
0.0
 11
2120.319187323236
 21
1996.32860408845
 31
0.0
  0
LINE
  5
24A
330
24F
100
AcDbEntity
  8
0
  6
ByBlock
 62
     0
370
    -2
380
     1
100
AcDbLine
 10
1867.779707817236
 20
1995.07860408845
 30
0.0
 11
2117.819187323236
 21
1995.07860408845
 31
0.0
  0
SOLID
  5
24B
330
24F
100
AcDbEntity
  8
0
  6
ByBlock
 62
     0
380
     1
100
AcDbTrace
 10
1865.279707817236
 20
1995.07860408845
 30
0.0
 11
1867.779707817236
 21
1994.661937421783
 31
0.0
 12
1867.779707817236
 22
1995.495270755117
 32
0.0
 13
1867.779707817236
 23
1995.495270755117
 33
0.0
  0
SOLID
  5
24C
330
24F
100
AcDbEntity
  8
0
  6
ByBlock
 62
     0
380
     1
100
AcDbTrace
 10
2120.319187323236
 20
1995.07860408845
 30
0.0
 11
2117.819187323236
 21
1994.661937421783
 31
0.0
 12
2117.819187323236
 22
1995.495270755117
 32
0.0
 13
2117.819187323236
 23
1995.495270755117
 33
0.0
  0
MTEXT
  5
24D
330
24F
100
AcDbEntity
  8
0
  6
ByBlock
 62
     0
370
    -2
380
     1
100
AcDbMText
 10
1992.799447570236
 20
1997.161937421783
 30
0.0
 40
2.5
 41
0.0
 71
     5
 72
     1
  1
\A1;255,04
 73
     1
 44
1.0
  0
ENDBLK
  5
398
330
24F
100
AcDbEntity
  8
0
100
AcDbBlockEnd
  0
BLOCK
  5
399
330
25B
100
AcDbEntity
  8
0
100
AcDbBlockBegin
  2
*D16
 70
     1
 10
0.0
 20
0.0
 30
0.0
  3
*D16
  1

  0
POINT
  5
252
330
25B
100
AcDbEntity
  8
DEFPOINTS
  6
ByBlock
 62
     0
380
     1
100
AcDbPoint
 10
2185.301673413436
 20
1834.358580595418
 30
0.0
  0
POINT
  5
253
330
25B
100
AcDbEntity
  8
DEFPOINTS
  6
ByBlock
 62
     0
380
     1
100
AcDbPoint
 10
2200.197305213436
 20
1804.398379795418
 30
0.0
  0
LINE
  5
254
330
25B
100
AcDbEntity
  8
0
  6
ByBlock
 62
     0
370
    -2
380
     1
100
AcDbLine
 10
2185.926673413436
 20
1834.358580595418
 30
0.0
 11
2289.954615867568
 21
1834.358580595418
 31
0.0
  0
LINE
  5
255
330
25B
100
AcDbEntity
  8
0
  6
ByBlock
 62
     0
370
    -2
380
     1
100
AcDbLine
 10
2200.822305213436
 20
1804.398379795418
 30
0.0
 11
2289.954615867568
 21
1804.398379795418
 31
0.0
  0
LINE
  5
256
330
25B
100
AcDbEntity
  8
0
  6
ByBlock
 62
     0
370
    -2
380
     1
100
AcDbLine
 10
2288.704615867568
 20
1831.858580595418
 30
0.0
 11
2288.704615867568
 21
1806.898379795418
 31
0.0
  0
SOLID
  5
257
330
25B
100
AcDbEntity
  8
0
  6
ByBlock
 62
     0
380
     1
100
AcDbTrace
 10
2288.704615867568
 20
1834.358580595418
 30
0.0
 11
2288.287949200901
 21
1831.858580595418
 31
0.0
 12
2289.121282534234
 22
1831.858580595418
 32
0.0
 13
2289.121282534234
 23
1831.858580595418
 33
0.0
  0
SOLID
  5
258
330
25B
100
AcDbEntity
  8
0
  6
ByBlock
 62
     0
380
     1
100
AcDbTrace
 10
2288.704615867568
 20
1804.398379795418
 30
0.0
 11
2288.287949200901
 21
1806.898379795418
 31
0.0
 12
2289.121282534234
 22
1806.898379795418
 32
0.0
 13
2289.121282534234
 23
1806.898379795418
 33
0.0
  0
MTEXT
  5
259
330
25B
100
AcDbEntity
  8
0
  6
ByBlock
 62
     0
370
    -2
380
     1
100
AcDbMText
 10
2286.621282534234
 20
1819.378480195418
 30
0.0
 40
2.5
 41
0.0
 71
     5
 72
     1
  1
\A1;29,96
 11
6.123031769111886E-17
 21
1.0
 31
0.0
 73
     1
 44
1.0
  0
ENDBLK
  5
39A
330
25B
100
AcDbEntity
  8
0
100
AcDbBlockEnd
  0
BLOCK
  5
39B
330
266
100
AcDbEntity
  8
0
100
AcDbBlockBegin
  2
*D17
 70
     1
 10
0.0
 20
0.0
 30
0.0
  3
*D17
  1

  0
POINT
  5
25D
330
266
100
AcDbEntity
  8
DEFPOINTS
  6
ByBlock
 62
     1
380
     1
100
AcDbPoint
 10
2044.847986203236
 20
1729.807137632618
 30
0.0
  0
POINT
  5
25E
330
266
100
AcDbEntity
  8
DEFPOINTS
  6
ByBlock
 62
     1
380
     1
100
AcDbPoint
 10
2120.319187323236
 20
1704.840303632618
 30
0.0
  0
LINE
  5
25F
330
266
100
AcDbEntity
  8
0
  6
ByBlock
 62
     1
370
    -2
380
     1
100
AcDbLine
 10
2044.847986203236
 20
1730.807137632618
 30
0.0
 11
2044.847986203236
 21
1761.149413975018
 31
0.0
  0
LINE
  5
260
330
266
100
AcDbEntity
  8
0
  6
ByBlock
 62
     1
370
    -2
380
     1
100
AcDbLine
 10
2120.319187323236
 20
1705.840303632618
 30
0.0
 11
2120.319187323236
 21
1761.149413975018
 31
0.0
  0
LINE
  5
261
330
266
100
AcDbEntity
  8
0
  6
ByBlock
 62
     1
370
    -2
380
     1
100
AcDbLine
 10
2046.547986203236
 20
1760.849413975018
 30
0.0
 11
2118.619187323236
 21
1760.849413975018
 31
0.0
  0
SOLID
  5
262
330
266
100
AcDbEntity
  8
0
  6
ByBlock
 62
     1
380
     1
100
AcDbTrace
 10
2044.847986203236
 20
1760.849413975018
 30
0.0
 11
2046.547986203236
 21
1760.566080641685
 31
0.0
 12
2046.547986203236
 22
1761.132747308351
 32
0.0
 13
2046.547986203236
 23
1761.132747308351
 33
0.0
  0
SOLID
  5
263
330
266
100
AcDbEntity
  8
0
  6
ByBlock
 62
     1
380
     1
100
AcDbTrace
 10
2120.319187323236
 20
1760.849413975018
 30
0.0
 11
2118.619187323236
 21
1760.566080641685
 31
0.0
 12
2118.619187323236
 22
1761.132747308351
 32
0.0
 13
2118.619187323236
 23
1761.132747308351
 33
0.0
  0
MTEXT
  5
264
330
266
100
AcDbEntity
  8
0
  6
ByBlock
 62
     0
370
    -2
380
     1
100
AcDbMText
 10
2082.583586763236
 20
1762.474413975018
 30
0.0
 40
1.75
 41
0.0
 71
     5
 72
     1
  1
74
  7
H
 73
     1
 44
1.0
  0
ENDBLK
  5
39C
330
266
100
AcDbEntity
  8
0
100
AcDbBlockEnd
  0
BLOCK
  5
39D
330
272
100
AcDbEntity
  8
0
100
AcDbBlockBegin
  2
*D18
 70
     1
 10
0.0
 20
0.0
 30
0.0
  3
*D18
  1

  0
POINT
  5
268
330
272
100
AcDbEntity
  8
DEFPOINTS
  6
ByBlock
 62
     1
380
     1
100
AcDbPoint
 10
2120.319187323236
 20
1704.840303632618
 30
0.0
  0
POINT
  5
269
330
272
100
AcDbEntity
  8
DEFPOINTS
  6
ByBlock
 62
     1
380
     1
100
AcDbPoint
 10
2120.319187323236
 20
1674.880102832618
 30
0.0
  0
LINE
  5
26A
330
272
100
AcDbEntity
  8
0
  6
ByBlock
 62
     1
370
    -2
380
     1
100
AcDbLine
 10
2121.319187323236
 20
1704.840303632618
 30
0.0
 11
2178.017200250036
 21
1704.840303632618
 31
0.0
  0
LINE
  5
26B
330
272
100
AcDbEntity
  8
0
  6
ByBlock
 62
     1
370
    -2
380
     1
100
AcDbLine
 10
2121.319187323236
 20
1674.880102832618
 30
0.0
 11
2178.017200250036
 21
1674.880102832618
 31
0.0
  0
LINE
  5
26C
330
272
100
AcDbEntity
  8
0
  6
ByBlock
 62
     1
370
    -2
380
     1
100
AcDbLine
 10
2177.717200250036
 20
1703.140303632618
 30
0.0
 11
2177.717200250036
 21
1676.580102832618
 31
0.0
  0
LINE
  5
26D
330
272
100
AcDbEntity
  8
0
  6
ByBlock
 62
     1
370
    -2
380
     1
100
AcDbLine
 10
2177.717200250036
 20
1704.840303632618
 30
0.0
 11
2177.717200250036
 21
1760.586017547741
 31
0.0
  0
SOLID
  5
26E
330
272
100
AcDbEntity
  8
0
  6
ByBlock
 62
     1
380
     1
100
AcDbTrace
 10
2177.717200250036
 20
1704.840303632618
 30
0.0
 11
2177.433866916703
 21
1703.140303632618
 31
0.0
 12
2178.000533583369
 22
1703.140303632618
 32
0.0
 13
2178.000533583369
 23
1703.140303632618
 33
0.0
  0
SOLID
  5
26F
330
272
100
AcDbEntity
  8
0
  6
ByBlock
 62
     1
380
     1
100
AcDbTrace
 10
2177.717200250036
 20
1674.880102832618
 30
0.0
 11
2177.433866916703
 21
1676.580102832618
 31
0.0
 12
2178.000533583369
 22
1676.580102832618
 32
0.0
 13
2178.000533583369
 23
1676.580102832618
 33
0.0
  0
MTEXT
  5
270
330
272
100
AcDbEntity
  8
0
  6
ByBlock
 62
     0
370
    -2
380
     1
100
AcDbMText
 10
2176.073100659313
 20
1758.941917957018
 30
0.0
 40
1.75
 41
0.0
 71
     5
 72
     1
  1
30
  7
H
 11
6.123031769111886E-17
 21
1.0
 31
0.0
 73
     1
 44
1.0
  0
ENDBLK
  5
39E
330
272
100
AcDbEntity
  8
0
100
AcDbBlockEnd
  0
BLOCK
  5
39F
330
27E
100
AcDbEntity
  8
0
100
AcDbBlockBegin
  2
*D19
 70
     1
 10
0.0
 20
0.0
 30
0.0
  3
*D19
  1

  0
POINT
  5
274
330
27E
100
AcDbEntity
  8
DEFPOINTS
  6
ByBlock
 62
     1
380
     1
100
AcDbPoint
 10
2120.319187323236
 20
1704.840303632618
 30
0.0
  0
POINT
  5
275
330
27E
100
AcDbEntity
  8
DEFPOINTS
  6
ByBlock
 62
     1
380
     1
100
AcDbPoint
 10
2120.319187323236
 20
1674.880102832618
 30
0.0
  0
LINE
  5
276
330
27E
100
AcDbEntity
  8
0
  6
ByBlock
 62
     1
370
    -2
380
     1
100
AcDbLine
 10
2121.319187323236
 20
1704.840303632618
 30
0.0
 11
2178.017200250036
 21
1704.840303632618
 31
0.0
  0
LINE
  5
277
330
27E
100
AcDbEntity
  8
0
  6
ByBlock
 62
     1
370
    -2
380
     1
100
AcDbLine
 10
2121.319187323236
 20
1674.880102832618
 30
0.0
 11
2178.017200250036
 21
1674.880102832618
 31
0.0
  0
LINE
  5
278
330
27E
100
AcDbEntity
  8
0
  6
ByBlock
 62
     1
370
    -2
380
     1
100
AcDbLine
 10
2177.717200250036
 20
1703.140303632618
 30
0.0
 11
2177.717200250036
 21
1676.580102832618
 31
0.0
  0
LINE
  5
279
330
27E
100
AcDbEntity
  8
0
  6
ByBlock
 62
     1
370
    -2
380
     1
100
AcDbLine
 10
2177.717200250036
 20
1704.840303632618
 30
0.0
 11
2177.717200250036
 21
1760.586017547741
 31
0.0
  0
SOLID
  5
27A
330
27E
100
AcDbEntity
  8
0
  6
ByBlock
 62
     1
380
     1
100
AcDbTrace
 10
2177.717200250036
 20
1704.840303632618
 30
0.0
 11
2177.433866916703
 21
1703.140303632618
 31
0.0
 12
2178.000533583369
 22
1703.140303632618
 32
0.0
 13
2178.000533583369
 23
1703.140303632618
 33
0.0
  0
SOLID
  5
27B
330
27E
100
AcDbEntity
  8
0
  6
ByBlock
 62
     1
380
     1
100
AcDbTrace
 10
2177.717200250036
 20
1674.880102832618
 30
0.0
 11
2177.433866916703
 21
1676.580102832618
 31
0.0
 12
2178.000533583369
 22
1676.580102832618
 32
0.0
 13
2178.000533583369
 23
1676.580102832618
 33
0.0
  0
MTEXT
  5
27C
330
27E
100
AcDbEntity
  8
0
  6
ByBlock
 62
     0
370
    -2
380
     1
100
AcDbMText
 10
2176.073100659313
 20
1758.941917957018
 30
0.0
 40
1.75
 41
0.0
 71
     5
 72
     1
  1
30
  7
H
 11
6.123031769111886E-17
 21
1.0
 31
0.0
 73
     1
 44
1.0
  0
ENDBLK
  5
3A0
330
27E
100
AcDbEntity
  8
0
100
AcDbBlockEnd
  0
BLOCK
  5
3A1
330
289
100
AcDbEntity
  8
0
100
AcDbBlockBegin
  2
*D20
 70
     1
 10
0.0
 20
0.0
 30
0.0
  3
*D20
  1

  0
POINT
  5
280
330
289
100
AcDbEntity
  8
DEFPOINTS
  6
ByBlock
 62
     1
380
     1
100
AcDbPoint
 10
2044.847986203236
 20
1729.807137632618
 30
0.0
  0
POINT
  5
281
330
289
100
AcDbEntity
  8
DEFPOINTS
  6
ByBlock
 62
     1
380
     1
100
AcDbPoint
 10
2120.319187323236
 20
1704.840303632618
 30
0.0
  0
LINE
  5
282
330
289
100
AcDbEntity
  8
0
  6
ByBlock
 62
     1
370
    -2
380
     1
100
AcDbLine
 10
2044.847986203236
 20
1730.807137632618
 30
0.0
 11
2044.847986203236
 21
1761.149413975018
 31
0.0
  0
LINE
  5
283
330
289
100
AcDbEntity
  8
0
  6
ByBlock
 62
     1
370
    -2
380
     1
100
AcDbLine
 10
2120.319187323236
 20
1705.840303632618
 30
0.0
 11
2120.319187323236
 21
1761.149413975018
 31
0.0
  0
LINE
  5
284
330
289
100
AcDbEntity
  8
0
  6
ByBlock
 62
     1
370
    -2
380
     1
100
AcDbLine
 10
2046.547986203236
 20
1760.849413975018
 30
0.0
 11
2118.619187323236
 21
1760.849413975018
 31
0.0
  0
SOLID
  5
285
330
289
100
AcDbEntity
  8
0
  6
ByBlock
 62
     1
380
     1
100
AcDbTrace
 10
2044.847986203236
 20
1760.849413975018
 30
0.0
 11
2046.547986203236
 21
1760.566080641685
 31
0.0
 12
2046.547986203236
 22
1761.132747308351
 32
0.0
 13
2046.547986203236
 23
1761.132747308351
 33
0.0
  0
SOLID
  5
286
330
289
100
AcDbEntity
  8
0
  6
ByBlock
 62
     1
380
     1
100
AcDbTrace
 10
2120.319187323236
 20
1760.849413975018
 30
0.0
 11
2118.619187323236
 21
1760.566080641685
 31
0.0
 12
2118.619187323236
 22
1761.132747308351
 32
0.0
 13
2118.619187323236
 23
1761.132747308351
 33
0.0
  0
MTEXT
  5
287
330
289
100
AcDbEntity
  8
0
  6
ByBlock
 62
     0
370
    -2
380
     1
100
AcDbMText
 10
2082.583586763236
 20
1762.474413975018
 30
0.0
 40
1.75
 41
0.0
 71
     5
 72
     1
  1
74
  7
H
 73
     1
 44
1.0
  0
ENDBLK
  5
3A2
330
289
100
AcDbEntity
  8
0
100
AcDbBlockEnd
  0
BLOCK
  5
3A3
330
294
100
AcDbEntity
  8
0
100
AcDbBlockBegin
  2
*D21
 70
     1
 10
0.0
 20
0.0
 30
0.0
  3
*D21
  1

  0
POINT
  5
28B
330
294
100
AcDbEntity
  8
DEFPOINTS
  6
ByBlock
 62
     1
380
     1
100
AcDbPoint
 10
2044.847986203236
 20
1729.807137632618
 30
0.0
  0
POINT
  5
28C
330
294
100
AcDbEntity
  8
DEFPOINTS
  6
ByBlock
 62
     1
380
     1
100
AcDbPoint
 10
2120.319187323236
 20
1704.840303632618
 30
0.0
  0
LINE
  5
28D
330
294
100
AcDbEntity
  8
0
  6
ByBlock
 62
     1
370
    -2
380
     1
100
AcDbLine
 10
2044.847986203236
 20
1730.807137632618
 30
0.0
 11
2044.847986203236
 21
1761.149413975018
 31
0.0
  0
LINE
  5
28E
330
294
100
AcDbEntity
  8
0
  6
ByBlock
 62
     1
370
    -2
380
     1
100
AcDbLine
 10
2120.319187323236
 20
1705.840303632618
 30
0.0
 11
2120.319187323236
 21
1761.149413975018
 31
0.0
  0
LINE
  5
28F
330
294
100
AcDbEntity
  8
0
  6
ByBlock
 62
     1
370
    -2
380
     1
100
AcDbLine
 10
2046.547986203236
 20
1760.849413975018
 30
0.0
 11
2118.619187323236
 21
1760.849413975018
 31
0.0
  0
SOLID
  5
290
330
294
100
AcDbEntity
  8
0
  6
ByBlock
 62
     1
380
     1
100
AcDbTrace
 10
2044.847986203236
 20
1760.849413975018
 30
0.0
 11
2046.547986203236
 21
1760.566080641685
 31
0.0
 12
2046.547986203236
 22
1761.132747308351
 32
0.0
 13
2046.547986203236
 23
1761.132747308351
 33
0.0
  0
SOLID
  5
291
330
294
100
AcDbEntity
  8
0
  6
ByBlock
 62
     1
380
     1
100
AcDbTrace
 10
2120.319187323236
 20
1760.849413975018
 30
0.0
 11
2118.619187323236
 21
1760.566080641685
 31
0.0
 12
2118.619187323236
 22
1761.132747308351
 32
0.0
 13
2118.619187323236
 23
1761.132747308351
 33
0.0
  0
MTEXT
  5
292
330
294
100
AcDbEntity
  8
0
  6
ByBlock
 62
     0
370
    -2
380
     1
100
AcDbMText
 10
2082.583586763236
 20
1762.474413975018
 30
0.0
 40
1.75
 41
0.0
 71
     5
 72
     1
  1
74
  7
H
 73
     1
 44
1.0
  0
ENDBLK
  5
3A4
330
294
100
AcDbEntity
  8
0
100
AcDbBlockEnd
  0
BLOCK
  5
3A5
330
2A0
100
AcDbEntity
  8
0
100
AcDbBlockBegin
  2
*D22
 70
     1
 10
0.0
 20
0.0
 30
0.0
  3
*D22
  1

  0
POINT
  5
296
330
2A0
100
AcDbEntity
  8
DEFPOINTS
  6
ByBlock
 62
     1
380
     1
100
AcDbPoint
 10
2120.319187323236
 20
1704.840303632618
 30
0.0
  0
POINT
  5
297
330
2A0
100
AcDbEntity
  8
DEFPOINTS
  6
ByBlock
 62
     1
380
     1
100
AcDbPoint
 10
2120.319187323236
 20
1674.880102832618
 30
0.0
  0
LINE
  5
298
330
2A0
100
AcDbEntity
  8
0
  6
ByBlock
 62
     1
370
    -2
380
     1
100
AcDbLine
 10
2121.319187323236
 20
1704.840303632618
 30
0.0
 11
2178.017200250036
 21
1704.840303632618
 31
0.0
  0
LINE
  5
299
330
2A0
100
AcDbEntity
  8
0
  6
ByBlock
 62
     1
370
    -2
380
     1
100
AcDbLine
 10
2121.319187323236
 20
1674.880102832618
 30
0.0
 11
2178.017200250036
 21
1674.880102832618
 31
0.0
  0
LINE
  5
29A
330
2A0
100
AcDbEntity
  8
0
  6
ByBlock
 62
     1
370
    -2
380
     1
100
AcDbLine
 10
2177.717200250036
 20
1703.140303632618
 30
0.0
 11
2177.717200250036
 21
1676.580102832618
 31
0.0
  0
LINE
  5
29B
330
2A0
100
AcDbEntity
  8
0
  6
ByBlock
 62
     1
370
    -2
380
     1
100
AcDbLine
 10
2177.717200250036
 20
1704.840303632618
 30
0.0
 11
2177.717200250036
 21
1760.586017547741
 31
0.0
  0
SOLID
  5
29C
330
2A0
100
AcDbEntity
  8
0
  6
ByBlock
 62
     1
380
     1
100
AcDbTrace
 10
2177.717200250036
 20
1704.840303632618
 30
0.0
 11
2177.433866916703
 21
1703.140303632618
 31
0.0
 12
2178.000533583369
 22
1703.140303632618
 32
0.0
 13
2178.000533583369
 23
1703.140303632618
 33
0.0
  0
SOLID
  5
29D
330
2A0
100
AcDbEntity
  8
0
  6
ByBlock
 62
     1
380
     1
100
AcDbTrace
 10
2177.717200250036
 20
1674.880102832618
 30
0.0
 11
2177.433866916703
 21
1676.580102832618
 31
0.0
 12
2178.000533583369
 22
1676.580102832618
 32
0.0
 13
2178.000533583369
 23
1676.580102832618
 33
0.0
  0
MTEXT
  5
29E
330
2A0
100
AcDbEntity
  8
0
  6
ByBlock
 62
     0
370
    -2
380
     1
100
AcDbMText
 10
2176.073100659313
 20
1758.941917957018
 30
0.0
 40
1.75
 41
0.0
 71
     5
 72
     1
  1
30
  7
H
 11
6.123031769111886E-17
 21
1.0
 31
0.0
 73
     1
 44
1.0
  0
ENDBLK
  5
3A6
330
2A0
100
AcDbEntity
  8
0
100
AcDbBlockEnd
  0
BLOCK
  5
3A7
330
2AC
100
AcDbEntity
  8
0
100
AcDbBlockBegin
  2
*D23
 70
     1
 10
0.0
 20
0.0
 30
0.0
  3
*D23
  1

  0
POINT
  5
2A3
330
2AC
100
AcDbEntity
  8
DEFPOINTS
  6
ByBlock
 62
     0
380
     1
100
AcDbPoint
 10
1865.279707817236
 20
1819.378480195418
 30
0.0
  0
POINT
  5
2A4
330
2AC
100
AcDbEntity
  8
DEFPOINTS
  6
ByBlock
 62
     0
380
     1
100
AcDbPoint
 10
2120.319187323236
 20
1820.078987045132
 30
0.0
  0
LINE
  5
2A5
330
2AC
100
AcDbEntity
  8
0
  6
ByBlock
 62
     0
370
    -2
380
     1
100
AcDbLine
 10
1865.279707817236
 20
1820.003480195418
 30
0.0
 11
1865.279707817236
 21
1857.063830823884
 31
0.0
  0
LINE
  5
2A6
330
2AC
100
AcDbEntity
  8
0
  6
ByBlock
 62
     0
370
    -2
380
     1
100
AcDbLine
 10
2120.319187323236
 20
1820.703987045132
 30
0.0
 11
2120.319187323236
 21
1857.063830823884
 31
0.0
  0
LINE
  5
2A7
330
2AC
100
AcDbEntity
  8
0
  6
ByBlock
 62
     0
370
    -2
380
     1
100
AcDbLine
 10
1867.779707817236
 20
1855.813830823884
 30
0.0
 11
2117.819187323236
 21
1855.813830823884
 31
0.0
  0
SOLID
  5
2A8
330
2AC
100
AcDbEntity
  8
0
  6
ByBlock
 62
     0
380
     1
100
AcDbTrace
 10
1865.279707817236
 20
1855.813830823884
 30
0.0
 11
1867.779707817236
 21
1855.397164157218
 31
0.0
 12
1867.779707817236
 22
1856.230497490551
 32
0.0
 13
1867.779707817236
 23
1856.230497490551
 33
0.0
  0
SOLID
  5
2A9
330
2AC
100
AcDbEntity
  8
0
  6
ByBlock
 62
     0
380
     1
100
AcDbTrace
 10
2120.319187323236
 20
1855.813830823884
 30
0.0
 11
2117.819187323236
 21
1855.397164157218
 31
0.0
 12
2117.819187323236
 22
1856.230497490551
 32
0.0
 13
2117.819187323236
 23
1856.230497490551
 33
0.0
  0
MTEXT
  5
2AA
330
2AC
100
AcDbEntity
  8
0
  6
ByBlock
 62
     0
370
    -2
380
     1
100
AcDbMText
 10
1992.799447570236
 20
1857.897164157218
 30
0.0
 40
2.5
 41
0.0
 71
     5
 72
     1
  1
\A1;255,04
 73
     1
 44
1.0
  0
ENDBLK
  5
3A8
330
2AC
100
AcDbEntity
  8
0
100
AcDbBlockEnd
  0
BLOCK
  5
3A9
330
2B7
100
AcDbEntity
  8
0
100
AcDbBlockBegin
  2
*D24
 70
     1
 10
0.0
 20
0.0
 30
0.0
  3
*D24
  1

  0
POINT
  5
2AE
330
2B7
100
AcDbEntity
  8
DEFPOINTS
  6
ByBlock
 62
     0
380
     1
100
AcDbPoint
 10
1865.279707817236
 20
1819.378480195418
 30
0.0
  0
POINT
  5
2AF
330
2B7
100
AcDbEntity
  8
DEFPOINTS
  6
ByBlock
 62
     0
380
     1
100
AcDbPoint
 10
2120.319187323236
 20
1820.078987045132
 30
0.0
  0
LINE
  5
2B0
330
2B7
100
AcDbEntity
  8
0
  6
ByBlock
 62
     0
370
    -2
380
     1
100
AcDbLine
 10
1865.279707817236
 20
1820.003480195418
 30
0.0
 11
1865.279707817236
 21
1857.063830823884
 31
0.0
  0
LINE
  5
2B1
330
2B7
100
AcDbEntity
  8
0
  6
ByBlock
 62
     0
370
    -2
380
     1
100
AcDbLine
 10
2120.319187323236
 20
1820.703987045132
 30
0.0
 11
2120.319187323236
 21
1857.063830823884
 31
0.0
  0
LINE
  5
2B2
330
2B7
100
AcDbEntity
  8
0
  6
ByBlock
 62
     0
370
    -2
380
     1
100
AcDbLine
 10
1867.779707817236
 20
1855.813830823884
 30
0.0
 11
2117.819187323236
 21
1855.813830823884
 31
0.0
  0
SOLID
  5
2B3
330
2B7
100
AcDbEntity
  8
0
  6
ByBlock
 62
     0
380
     1
100
AcDbTrace
 10
1865.279707817236
 20
1855.813830823884
 30
0.0
 11
1867.779707817236
 21
1855.397164157218
 31
0.0
 12
1867.779707817236
 22
1856.230497490551
 32
0.0
 13
1867.779707817236
 23
1856.230497490551
 33
0.0
  0
SOLID
  5
2B4
330
2B7
100
AcDbEntity
  8
0
  6
ByBlock
 62
     0
380
     1
100
AcDbTrace
 10
2120.319187323236
 20
1855.813830823884
 30
0.0
 11
2117.819187323236
 21
1855.397164157218
 31
0.0
 12
2117.819187323236
 22
1856.230497490551
 32
0.0
 13
2117.819187323236
 23
1856.230497490551
 33
0.0
  0
MTEXT
  5
2B5
330
2B7
100
AcDbEntity
  8
0
  6
ByBlock
 62
     0
370
    -2
380
     1
100
AcDbMText
 10
1992.799447570236
 20
1857.688830823884
 30
0.0
 40
2.5
 41
0.0
 71
     5
 72
     1
  1
255
 73
     1
 44
1.0
  0
ENDBLK
  5
3AA
330
2B7
100
AcDbEntity
  8
0
100
AcDbBlockEnd
  0
BLOCK
  5
3AB
330
2C2
100
AcDbEntity
  8
0
100
AcDbBlockBegin
  2
*D25
 70
     1
 10
0.0
 20
0.0
 30
0.0
  3
*D25
  1

  0
POINT
  5
2B9
330
2C2
100
AcDbEntity
  8
DEFPOINTS
  6
ByBlock
 62
     0
380
     1
100
AcDbPoint
 10
1865.279707817236
 20
1819.378480195418
 30
0.0
  0
POINT
  5
2BA
330
2C2
100
AcDbEntity
  8
DEFPOINTS
  6
ByBlock
 62
     0
380
     1
100
AcDbPoint
 10
2120.319187323236
 20
1820.078987045132
 30
0.0
  0
LINE
  5
2BB
330
2C2
100
AcDbEntity
  8
0
  6
ByBlock
 62
     0
370
    -2
380
     1
100
AcDbLine
 10
1865.279707817236
 20
1820.003480195418
 30
0.0
 11
1865.279707817236
 21
1857.063830823884
 31
0.0
  0
LINE
  5
2BC
330
2C2
100
AcDbEntity
  8
0
  6
ByBlock
 62
     0
370
    -2
380
     1
100
AcDbLine
 10
2120.319187323236
 20
1820.703987045132
 30
0.0
 11
2120.319187323236
 21
1857.063830823884
 31
0.0
  0
LINE
  5
2BD
330
2C2
100
AcDbEntity
  8
0
  6
ByBlock
 62
     0
370
    -2
380
     1
100
AcDbLine
 10
1867.779707817236
 20
1855.813830823884
 30
0.0
 11
2117.819187323236
 21
1855.813830823884
 31
0.0
  0
SOLID
  5
2BE
330
2C2
100
AcDbEntity
  8
0
  6
ByBlock
 62
     0
380
     1
100
AcDbTrace
 10
1865.279707817236
 20
1855.813830823884
 30
0.0
 11
1867.779707817236
 21
1855.397164157218
 31
0.0
 12
1867.779707817236
 22
1856.230497490551
 32
0.0
 13
1867.779707817236
 23
1856.230497490551
 33
0.0
  0
SOLID
  5
2BF
330
2C2
100
AcDbEntity
  8
0
  6
ByBlock
 62
     0
380
     1
100
AcDbTrace
 10
2120.319187323236
 20
1855.813830823884
 30
0.0
 11
2117.819187323236
 21
1855.397164157218
 31
0.0
 12
2117.819187323236
 22
1856.230497490551
 32
0.0
 13
2117.819187323236
 23
1856.230497490551
 33
0.0
  0
MTEXT
  5
2C0
330
2C2
100
AcDbEntity
  8
0
  6
ByBlock
 62
     0
370
    -2
380
     1
100
AcDbMText
 10
1992.799447570236
 20
1857.688830823884
 30
0.0
 40
2.5
 41
0.0
 71
     5
 72
     1
  1
255
 73
     1
 44
1.0
  0
ENDBLK
  5
3AC
330
2C2
100
AcDbEntity
  8
0
100
AcDbBlockEnd
  0
BLOCK
  5
3AD
330
2CD
100
AcDbEntity
  8
0
100
AcDbBlockBegin
  2
*D26
 70
     1
 10
0.0
 20
0.0
 30
0.0
  3
*D26
  1

  0
POINT
  5
2C4
330
2CD
100
AcDbEntity
  8
DEFPOINTS
  6
ByBlock
 62
     7
380
     1
100
AcDbPoint
 10
1865.279707817236
 20
1819.378480195418
 30
0.0
  0
POINT
  5
2C5
330
2CD
100
AcDbEntity
  8
DEFPOINTS
  6
ByBlock
 62
     7
380
     1
100
AcDbPoint
 10
2120.319187323236
 20
1820.078987045132
 30
0.0
  0
LINE
  5
2C6
330
2CD
100
AcDbEntity
  8
0
  6
ByBlock
 62
     7
370
    -2
380
     1
100
AcDbLine
 10
1865.279707817236
 20
1820.003480195418
 30
0.0
 11
1865.279707817236
 21
1857.063830823884
 31
0.0
  0
LINE
  5
2C7
330
2CD
100
AcDbEntity
  8
0
  6
ByBlock
 62
     7
370
    -2
380
     1
100
AcDbLine
 10
2120.319187323236
 20
1820.703987045132
 30
0.0
 11
2120.319187323236
 21
1857.063830823884
 31
0.0
  0
LINE
  5
2C8
330
2CD
100
AcDbEntity
  8
0
  6
ByBlock
 62
     7
370
    -2
380
     1
100
AcDbLine
 10
1875.279707817236
 20
1855.813830823884
 30
0.0
 11
2110.319187323236
 21
1855.813830823884
 31
0.0
  0
SOLID
  5
2C9
330
2CD
100
AcDbEntity
  8
0
  6
ByBlock
 62
     7
380
     1
100
AcDbTrace
 10
1865.279707817236
 20
1855.813830823884
 30
0.0
 11
1875.279707817236
 21
1854.147164157218
 31
0.0
 12
1875.279707817236
 22
1857.480497490551
 32
0.0
 13
1875.279707817236
 23
1857.480497490551
 33
0.0
  0
SOLID
  5
2CA
330
2CD
100
AcDbEntity
  8
0
  6
ByBlock
 62
     7
380
     1
100
AcDbTrace
 10
2120.319187323236
 20
1855.813830823884
 30
0.0
 11
2110.319187323236
 21
1854.147164157218
 31
0.0
 12
2110.319187323236
 22
1857.480497490551
 32
0.0
 13
2110.319187323236
 23
1857.480497490551
 33
0.0
  0
MTEXT
  5
2CB
330
2CD
100
AcDbEntity
  8
0
  6
ByBlock
 62
     0
370
    -2
380
     1
100
AcDbMText
 10
1992.799447570236
 20
1867.813830823884
 30
0.0
 40
14.0
 41
0.0
 71
     5
 72
     1
  1
255
 73
     1
 44
1.0
  0
ENDBLK
  5
3AE
330
2CD
100
AcDbEntity
  8
0
100
AcDbBlockEnd
  0
BLOCK
  5
3AF
330
2D9
100
AcDbEntity
  8
0
100
AcDbBlockBegin
  2
*D27
 70
     1
 10
0.0
 20
0.0
 30
0.0
  3
*D27
  1

  0
POINT
  5
2D0
330
2D9
100
AcDbEntity
  8
DEFPOINTS
  6
ByBlock
 62
     0
380
     1
100
AcDbPoint
 10
2196.695951498979
 20
1834.358580595418
 30
0.0
  0
POINT
  5
2D1
330
2D9
100
AcDbEntity
  8
DEFPOINTS
  6
ByBlock
 62
     0
380
     1
100
AcDbPoint
 10
2196.695951498979
 20
1804.398379795418
 30
0.0
  0
LINE
  5
2D2
330
2D9
100
AcDbEntity
  8
0
  6
ByBlock
 62
     0
370
    -2
380
     1
100
AcDbLine
 10
2197.320951498979
 20
1834.358580595418
 30
0.0
 11
2225.587071230827
 21
1834.358580595418
 31
0.0
  0
LINE
  5
2D3
330
2D9
100
AcDbEntity
  8
0
  6
ByBlock
 62
     0
370
    -2
380
     1
100
AcDbLine
 10
2197.320951498979
 20
1804.398379795418
 30
0.0
 11
2225.587071230827
 21
1804.398379795418
 31
0.0
  0
LINE
  5
2D4
330
2D9
100
AcDbEntity
  8
0
  6
ByBlock
 62
     0
370
    -2
380
     1
100
AcDbLine
 10
2224.337071230827
 20
1831.858580595418
 30
0.0
 11
2224.337071230827
 21
1806.898379795418
 31
0.0
  0
SOLID
  5
2D5
330
2D9
100
AcDbEntity
  8
0
  6
ByBlock
 62
     0
380
     1
100
AcDbTrace
 10
2224.337071230827
 20
1834.358580595418
 30
0.0
 11
2223.920404564161
 21
1831.858580595418
 31
0.0
 12
2224.753737897494
 22
1831.858580595418
 32
0.0
 13
2224.753737897494
 23
1831.858580595418
 33
0.0
  0
SOLID
  5
2D6
330
2D9
100
AcDbEntity
  8
0
  6
ByBlock
 62
     0
380
     1
100
AcDbTrace
 10
2224.337071230827
 20
1804.398379795418
 30
0.0
 11
2223.920404564161
 21
1806.898379795418
 31
0.0
 12
2224.753737897494
 22
1806.898379795418
 32
0.0
 13
2224.753737897494
 23
1806.898379795418
 33
0.0
  0
MTEXT
  5
2D7
330
2D9
100
AcDbEntity
  8
0
  6
ByBlock
 62
     0
370
    -2
380
     1
100
AcDbMText
 10
2222.253737897494
 20
1819.378480195418
 30
0.0
 40
2.5
 41
0.0
 71
     5
 72
     1
  1
\A1;29,96
 11
6.123031769111886E-17
 21
1.0
 31
0.0
 73
     1
 44
1.0
  0
ENDBLK
  5
3B0
330
2D9
100
AcDbEntity
  8
0
100
AcDbBlockEnd
  0
BLOCK
  5
3B1
330
2E4
100
AcDbEntity
  8
0
100
AcDbBlockBegin
  2
*D28
 70
     1
 10
0.0
 20
0.0
 30
0.0
  3
*D28
  1

  0
POINT
  5
2DB
330
2E4
100
AcDbEntity
  8
DEFPOINTS
  6
ByBlock
 62
     0
380
     1
100
AcDbPoint
 10
2196.695951498979
 20
1834.358580595418
 30
0.0
  0
POINT
  5
2DC
330
2E4
100
AcDbEntity
  8
DEFPOINTS
  6
ByBlock
 62
     0
380
     1
100
AcDbPoint
 10
2196.695951498979
 20
1804.398379795418
 30
0.0
  0
LINE
  5
2DD
330
2E4
100
AcDbEntity
  8
0
  6
ByBlock
 62
     0
370
    -2
380
     1
100
AcDbLine
 10
2197.320951498979
 20
1834.358580595418
 30
0.0
 11
2225.587071230827
 21
1834.358580595418
 31
0.0
  0
LINE
  5
2DE
330
2E4
100
AcDbEntity
  8
0
  6
ByBlock
 62
     0
370
    -2
380
     1
100
AcDbLine
 10
2197.320951498979
 20
1804.398379795418
 30
0.0
 11
2225.587071230827
 21
1804.398379795418
 31
0.0
  0
LINE
  5
2DF
330
2E4
100
AcDbEntity
  8
0
  6
ByBlock
 62
     0
370
    -2
380
     1
100
AcDbLine
 10
2224.337071230827
 20
1831.858580595418
 30
0.0
 11
2224.337071230827
 21
1806.898379795418
 31
0.0
  0
SOLID
  5
2E0
330
2E4
100
AcDbEntity
  8
0
  6
ByBlock
 62
     0
380
     1
100
AcDbTrace
 10
2224.337071230827
 20
1834.358580595418
 30
0.0
 11
2223.920404564161
 21
1831.858580595418
 31
0.0
 12
2224.753737897494
 22
1831.858580595418
 32
0.0
 13
2224.753737897494
 23
1831.858580595418
 33
0.0
  0
SOLID
  5
2E1
330
2E4
100
AcDbEntity
  8
0
  6
ByBlock
 62
     0
380
     1
100
AcDbTrace
 10
2224.337071230827
 20
1804.398379795418
 30
0.0
 11
2223.920404564161
 21
1806.898379795418
 31
0.0
 12
2224.753737897494
 22
1806.898379795418
 32
0.0
 13
2224.753737897494
 23
1806.898379795418
 33
0.0
  0
MTEXT
  5
2E2
330
2E4
100
AcDbEntity
  8
0
  6
ByBlock
 62
     0
370
    -2
380
     1
100
AcDbMText
 10
2222.253737897494
 20
1819.378480195418
 30
0.0
 40
2.5
 41
0.0
 71
     5
 72
     1
  1
\A1;29,96
 11
6.123031769111886E-17
 21
1.0
 31
0.0
 73
     1
 44
1.0
  0
ENDBLK
  5
3B2
330
2E4
100
AcDbEntity
  8
0
100
AcDbBlockEnd
  0
BLOCK
  5
3B3
330
2EF
100
AcDbEntity
  8
0
100
AcDbBlockBegin
  2
*D29
 70
     1
 10
0.0
 20
0.0
 30
0.0
  3
*D29
  1

  0
POINT
  5
2E6
330
2EF
100
AcDbEntity
  8
DEFPOINTS
  6
ByBlock
 62
     0
380
     1
100
AcDbPoint
 10
2196.695951498979
 20
1834.358580595418
 30
0.0
  0
POINT
  5
2E7
330
2EF
100
AcDbEntity
  8
DEFPOINTS
  6
ByBlock
 62
     0
380
     1
100
AcDbPoint
 10
2196.695951498979
 20
1804.398379795418
 30
0.0
  0
LINE
  5
2E8
330
2EF
100
AcDbEntity
  8
0
  6
ByBlock
 62
     0
370
    -2
380
     1
100
AcDbLine
 10
2197.320951498979
 20
1834.358580595418
 30
0.0
 11
2225.587071230827
 21
1834.358580595418
 31
0.0
  0
LINE
  5
2E9
330
2EF
100
AcDbEntity
  8
0
  6
ByBlock
 62
     0
370
    -2
380
     1
100
AcDbLine
 10
2197.320951498979
 20
1804.398379795418
 30
0.0
 11
2225.587071230827
 21
1804.398379795418
 31
0.0
  0
LINE
  5
2EA
330
2EF
100
AcDbEntity
  8
0
  6
ByBlock
 62
     0
370
    -2
380
     1
100
AcDbLine
 10
2224.337071230827
 20
1831.858580595418
 30
0.0
 11
2224.337071230827
 21
1806.898379795418
 31
0.0
  0
SOLID
  5
2EB
330
2EF
100
AcDbEntity
  8
0
  6
ByBlock
 62
     0
380
     1
100
AcDbTrace
 10
2224.337071230827
 20
1834.358580595418
 30
0.0
 11
2223.920404564161
 21
1831.858580595418
 31
0.0
 12
2224.753737897494
 22
1831.858580595418
 32
0.0
 13
2224.753737897494
 23
1831.858580595418
 33
0.0
  0
SOLID
  5
2EC
330
2EF
100
AcDbEntity
  8
0
  6
ByBlock
 62
     0
380
     1
100
AcDbTrace
 10
2224.337071230827
 20
1804.398379795418
 30
0.0
 11
2223.920404564161
 21
1806.898379795418
 31
0.0
 12
2224.753737897494
 22
1806.898379795418
 32
0.0
 13
2224.753737897494
 23
1806.898379795418
 33
0.0
  0
MTEXT
  5
2ED
330
2EF
100
AcDbEntity
  8
0
  6
ByBlock
 62
     0
370
    -2
380
     1
100
AcDbMText
 10
2222.462071230827
 20
1819.378480195418
 30
0.0
 40
2.5
 41
0.0
 71
     5
 72
     1
  1
30
 11
6.123031769111886E-17
 21
1.0
 31
0.0
 73
     1
 44
1.0
  0
ENDBLK
  5
3B4
330
2EF
100
AcDbEntity
  8
0
100
AcDbBlockEnd
  0
BLOCK
  5
3B5
330
2FB
100
AcDbEntity
  8
0
100
AcDbBlockBegin
  2
*D30
 70
     1
 10
0.0
 20
0.0
 30
0.0
  3
*D30
  1

  0
POINT
  5
2F1
330
2FB
100
AcDbEntity
  8
DEFPOINTS
  6
ByBlock
 62
     7
380
     1
100
AcDbPoint
 10
2196.695951498979
 20
1834.358580595418
 30
0.0
  0
POINT
  5
2F2
330
2FB
100
AcDbEntity
  8
DEFPOINTS
  6
ByBlock
 62
     7
380
     1
100
AcDbPoint
 10
2196.695951498979
 20
1804.398379795418
 30
0.0
  0
LINE
  5
2F3
330
2FB
100
AcDbEntity
  8
0
  6
ByBlock
 62
     7
370
    -2
380
     1
100
AcDbLine
 10
2197.320951498979
 20
1834.358580595418
 30
0.0
 11
2225.587071230827
 21
1834.358580595418
 31
0.0
  0
LINE
  5
2F4
330
2FB
100
AcDbEntity
  8
0
  6
ByBlock
 62
     7
370
    -2
380
     1
100
AcDbLine
 10
2197.320951498979
 20
1804.398379795418
 30
0.0
 11
2225.587071230827
 21
1804.398379795418
 31
0.0
  0
LINE
  5
2F5
330
2FB
100
AcDbEntity
  8
0
  6
ByBlock
 62
     7
370
    -2
380
     1
100
AcDbLine
 10
2224.337071230827
 20
1824.358580595418
 30
0.0
 11
2224.337071230827
 21
1814.398379795418
 31
0.0
  0
LINE
  5
2F6
330
2FB
100
AcDbEntity
  8
0
  6
ByBlock
 62
     7
370
    -2
380
     1
100
AcDbLine
 10
2224.337071230827
 20
1804.398379795418
 30
0.0
 11
2224.337071230827
 21
1770.398379795418
 31
0.0
  0
SOLID
  5
2F7
330
2FB
100
AcDbEntity
  8
0
  6
ByBlock
 62
     7
380
     1
100
AcDbTrace
 10
2224.337071230827
 20
1834.358580595418
 30
0.0
 11
2222.670404564161
 21
1824.358580595418
 31
0.0
 12
2226.003737897494
 22
1824.358580595418
 32
0.0
 13
2226.003737897494
 23
1824.358580595418
 33
0.0
  0
SOLID
  5
2F8
330
2FB
100
AcDbEntity
  8
0
  6
ByBlock
 62
     7
380
     1
100
AcDbTrace
 10
2224.337071230827
 20
1804.398379795418
 30
0.0
 11
2222.670404564161
 21
1814.398379795418
 31
0.0
 12
2226.003737897494
 22
1814.398379795418
 32
0.0
 13
2226.003737897494
 23
1814.398379795418
 33
0.0
  0
MTEXT
  5
2F9
330
2FB
100
AcDbEntity
  8
0
  6
ByBlock
 62
     0
370
    -2
380
     1
100
AcDbMText
 10
2212.337071230827
 20
1782.398379795418
 30
0.0
 40
14.0
 41
0.0
 71
     5
 72
     1
  1
30
 11
6.123031769111886E-17
 21
1.0
 31
0.0
 73
     1
 44
1.0
  0
ENDBLK
  5
3B6
330
2FB
100
AcDbEntity
  8
0
100
AcDbBlockEnd
  0
BLOCK
  5
3B7
330
307
100
AcDbEntity
  8
0
100
AcDbBlockBegin
  2
*D31
 70
     1
 10
0.0
 20
0.0
 30
0.0
  3
*D31
  1

  0
POINT
  5
2FD
330
307
100
AcDbEntity
  8
DEFPOINTS
  6
ByBlock
 62
     7
380
     1
100
AcDbPoint
 10
2196.695951498979
 20
1834.358580595418
 30
0.0
  0
POINT
  5
2FE
330
307
100
AcDbEntity
  8
DEFPOINTS
  6
ByBlock
 62
     7
380
     1
100
AcDbPoint
 10
2196.695951498979
 20
1804.398379795418
 30
0.0
  0
LINE
  5
2FF
330
307
100
AcDbEntity
  8
0
  6
ByBlock
 62
     7
370
    -2
380
     1
100
AcDbLine
 10
2197.320951498979
 20
1834.358580595418
 30
0.0
 11
2227.496712591139
 21
1834.358580595418
 31
0.0
  0
LINE
  5
300
330
307
100
AcDbEntity
  8
0
  6
ByBlock
 62
     7
370
    -2
380
     1
100
AcDbLine
 10
2197.320951498979
 20
1804.398379795418
 30
0.0
 11
2227.496712591139
 21
1804.398379795418
 31
0.0
  0
LINE
  5
301
330
307
100
AcDbEntity
  8
0
  6
ByBlock
 62
     7
370
    -2
380
     1
100
AcDbLine
 10
2226.246712591139
 20
1824.358580595418
 30
0.0
 11
2226.246712591139
 21
1814.398379795418
 31
0.0
  0
LINE
  5
302
330
307
100
AcDbEntity
  8
0
  6
ByBlock
 62
     7
370
    -2
380
     1
100
AcDbLine
 10
2226.246712591139
 20
1834.358580595418
 30
0.0
 11
2226.246712591139
 21
1871.858580595418
 31
0.0
  0
SOLID
  5
303
330
307
100
AcDbEntity
  8
0
  6
ByBlock
 62
     7
380
     1
100
AcDbTrace
 10
2226.246712591139
 20
1834.358580595418
 30
0.0
 11
2224.580045924473
 21
1824.358580595418
 31
0.0
 12
2227.913379257806
 22
1824.358580595418
 32
0.0
 13
2227.913379257806
 23
1824.358580595418
 33
0.0
  0
SOLID
  5
304
330
307
100
AcDbEntity
  8
0
  6
ByBlock
 62
     7
380
     1
100
AcDbTrace
 10
2226.246712591139
 20
1804.398379795418
 30
0.0
 11
2224.580045924473
 21
1814.398379795418
 31
0.0
 12
2227.913379257806
 22
1814.398379795418
 32
0.0
 13
2227.913379257806
 23
1814.398379795418
 33
0.0
  0
MTEXT
  5
305
330
307
100
AcDbEntity
  8
0
  6
ByBlock
 62
     0
370
    -2
380
     1
100
AcDbMText
 10
2214.246712591139
 20
1859.858580595418
 30
0.0
 40
14.0
 41
0.0
 71
     5
 72
     1
  1
30
 11
6.123031769111886E-17
 21
1.0
 31
0.0
 73
     1
 44
1.0
  0
ENDBLK
  5
3B8
330
307
100
AcDbEntity
  8
0
100
AcDbBlockEnd
  0
BLOCK
  5
3B9
330
313
100
AcDbEntity
  8
0
100
AcDbBlockBegin
  2
*D32
 70
     1
 10
0.0
 20
0.0
 30
0.0
  3
*D32
  1

  0
POINT
  5
30A
330
313
100
AcDbEntity
  8
DEFPOINTS
  6
ByBlock
 62
     0
380
     1
100
AcDbPoint
 10
2108.45480235383
 20
1704.840303632618
 30
0.0
  0
POINT
  5
30B
330
313
100
AcDbEntity
  8
DEFPOINTS
  6
ByBlock
 62
     0
380
     1
100
AcDbPoint
 10
2108.45480235383
 20
1674.880102832618
 30
0.0
  0
LINE
  5
30C
330
313
100
AcDbEntity
  8
0
  6
ByBlock
 62
     0
370
    -2
380
     1
100
AcDbLine
 10
2109.07980235383
 20
1704.840303632618
 30
0.0
 11
2144.32542717569
 21
1704.840303632618
 31
0.0
  0
LINE
  5
30D
330
313
100
AcDbEntity
  8
0
  6
ByBlock
 62
     0
370
    -2
380
     1
100
AcDbLine
 10
2109.07980235383
 20
1674.880102832618
 30
0.0
 11
2144.32542717569
 21
1674.880102832618
 31
0.0
  0
LINE
  5
30E
330
313
100
AcDbEntity
  8
0
  6
ByBlock
 62
     0
370
    -2
380
     1
100
AcDbLine
 10
2143.07542717569
 20
1702.340303632618
 30
0.0
 11
2143.07542717569
 21
1677.380102832618
 31
0.0
  0
SOLID
  5
30F
330
313
100
AcDbEntity
  8
0
  6
ByBlock
 62
     0
380
     1
100
AcDbTrace
 10
2143.07542717569
 20
1704.840303632618
 30
0.0
 11
2142.658760509024
 21
1702.340303632618
 31
0.0
 12
2143.492093842357
 22
1702.340303632618
 32
0.0
 13
2143.492093842357
 23
1702.340303632618
 33
0.0
  0
SOLID
  5
310
330
313
100
AcDbEntity
  8
0
  6
ByBlock
 62
     0
380
     1
100
AcDbTrace
 10
2143.07542717569
 20
1674.880102832618
 30
0.0
 11
2142.658760509024
 21
1677.380102832618
 31
0.0
 12
2143.492093842357
 22
1677.380102832618
 32
0.0
 13
2143.492093842357
 23
1677.380102832618
 33
0.0
  0
MTEXT
  5
311
330
313
100
AcDbEntity
  8
0
  6
ByBlock
 62
     0
370
    -2
380
     1
100
AcDbMText
 10
2140.992093842357
 20
1689.860203232618
 30
0.0
 40
2.5
 41
0.0
 71
     5
 72
     1
  1
\A1;29,96
 11
6.123031769111886E-17
 21
1.0
 31
0.0
 73
     1
 44
1.0
  0
ENDBLK
  5
3BA
330
313
100
AcDbEntity
  8
0
100
AcDbBlockEnd
  0
BLOCK
  5
3BB
330
31E
100
AcDbEntity
  8
0
100
AcDbBlockBegin
  2
*D33
 70
     1
 10
0.0
 20
0.0
 30
0.0
  3
*D33
  1

  0
POINT
  5
315
330
31E
100
AcDbEntity
  8
DEFPOINTS
  6
ByBlock
 62
     0
380
     1
100
AcDbPoint
 10
2108.45480235383
 20
1704.840303632618
 30
0.0
  0
POINT
  5
316
330
31E
100
AcDbEntity
  8
DEFPOINTS
  6
ByBlock
 62
     0
380
     1
100
AcDbPoint
 10
2108.45480235383
 20
1674.880102832618
 30
0.0
  0
LINE
  5
317
330
31E
100
AcDbEntity
  8
0
  6
ByBlock
 62
     0
370
    -2
380
     1
100
AcDbLine
 10
2109.07980235383
 20
1704.840303632618
 30
0.0
 11
2144.32542717569
 21
1704.840303632618
 31
0.0
  0
LINE
  5
318
330
31E
100
AcDbEntity
  8
0
  6
ByBlock
 62
     0
370
    -2
380
     1
100
AcDbLine
 10
2109.07980235383
 20
1674.880102832618
 30
0.0
 11
2144.32542717569
 21
1674.880102832618
 31
0.0
  0
LINE
  5
319
330
31E
100
AcDbEntity
  8
0
  6
ByBlock
 62
     0
370
    -2
380
     1
100
AcDbLine
 10
2143.07542717569
 20
1702.340303632618
 30
0.0
 11
2143.07542717569
 21
1677.380102832618
 31
0.0
  0
SOLID
  5
31A
330
31E
100
AcDbEntity
  8
0
  6
ByBlock
 62
     0
380
     1
100
AcDbTrace
 10
2143.07542717569
 20
1704.840303632618
 30
0.0
 11
2142.658760509024
 21
1702.340303632618
 31
0.0
 12
2143.492093842357
 22
1702.340303632618
 32
0.0
 13
2143.492093842357
 23
1702.340303632618
 33
0.0
  0
SOLID
  5
31B
330
31E
100
AcDbEntity
  8
0
  6
ByBlock
 62
     0
380
     1
100
AcDbTrace
 10
2143.07542717569
 20
1674.880102832618
 30
0.0
 11
2142.658760509024
 21
1677.380102832618
 31
0.0
 12
2143.492093842357
 22
1677.380102832618
 32
0.0
 13
2143.492093842357
 23
1677.380102832618
 33
0.0
  0
MTEXT
  5
31C
330
31E
100
AcDbEntity
  8
0
  6
ByBlock
 62
     0
370
    -2
380
     1
100
AcDbMText
 10
2141.20042717569
 20
1689.860203232618
 30
0.0
 40
2.5
 41
0.0
 71
     5
 72
     1
  1
30
 11
6.123031769111886E-17
 21
1.0
 31
0.0
 73
     1
 44
1.0
  0
ENDBLK
  5
3BC
330
31E
100
AcDbEntity
  8
0
100
AcDbBlockEnd
  0
BLOCK
  5
3BD
330
329
100
AcDbEntity
  8
0
100
AcDbBlockBegin
  2
*D34
 70
     1
 10
0.0
 20
0.0
 30
0.0
  3
*D34
  1

  0
POINT
  5
320
330
329
100
AcDbEntity
  8
DEFPOINTS
  6
ByBlock
 62
     0
380
     1
100
AcDbPoint
 10
2108.45480235383
 20
1704.840303632618
 30
0.0
  0
POINT
  5
321
330
329
100
AcDbEntity
  8
DEFPOINTS
  6
ByBlock
 62
     0
380
     1
100
AcDbPoint
 10
2108.45480235383
 20
1674.880102832618
 30
0.0
  0
LINE
  5
322
330
329
100
AcDbEntity
  8
0
  6
ByBlock
 62
     0
370
    -2
380
     1
100
AcDbLine
 10
2109.07980235383
 20
1704.840303632618
 30
0.0
 11
2144.32542717569
 21
1704.840303632618
 31
0.0
  0
LINE
  5
323
330
329
100
AcDbEntity
  8
0
  6
ByBlock
 62
     0
370
    -2
380
     1
100
AcDbLine
 10
2109.07980235383
 20
1674.880102832618
 30
0.0
 11
2144.32542717569
 21
1674.880102832618
 31
0.0
  0
LINE
  5
324
330
329
100
AcDbEntity
  8
0
  6
ByBlock
 62
     0
370
    -2
380
     1
100
AcDbLine
 10
2143.07542717569
 20
1702.340303632618
 30
0.0
 11
2143.07542717569
 21
1677.380102832618
 31
0.0
  0
SOLID
  5
325
330
329
100
AcDbEntity
  8
0
  6
ByBlock
 62
     0
380
     1
100
AcDbTrace
 10
2143.07542717569
 20
1704.840303632618
 30
0.0
 11
2142.658760509024
 21
1702.340303632618
 31
0.0
 12
2143.492093842357
 22
1702.340303632618
 32
0.0
 13
2143.492093842357
 23
1702.340303632618
 33
0.0
  0
SOLID
  5
326
330
329
100
AcDbEntity
  8
0
  6
ByBlock
 62
     0
380
     1
100
AcDbTrace
 10
2143.07542717569
 20
1674.880102832618
 30
0.0
 11
2142.658760509024
 21
1677.380102832618
 31
0.0
 12
2143.492093842357
 22
1677.380102832618
 32
0.0
 13
2143.492093842357
 23
1677.380102832618
 33
0.0
  0
MTEXT
  5
327
330
329
100
AcDbEntity
  8
0
  6
ByBlock
 62
     0
370
    -2
380
     1
100
AcDbMText
 10
2141.20042717569
 20
1689.860203232618
 30
0.0
 40
2.5
 41
0.0
 71
     5
 72
     1
  1
30
 11
6.123031769111886E-17
 21
1.0
 31
0.0
 73
     1
 44
1.0
  0
ENDBLK
  5
3BE
330
329
100
AcDbEntity
  8
0
100
AcDbBlockEnd
  0
BLOCK
  5
3BF
330
335
100
AcDbEntity
  8
0
100
AcDbBlockBegin
  2
*D35
 70
     1
 10
0.0
 20
0.0
 30
0.0
  3
*D35
  1

  0
POINT
  5
32B
330
335
100
AcDbEntity
  8
DEFPOINTS
  6
ByBlock
 62
     7
380
     1
100
AcDbPoint
 10
2108.45480235383
 20
1704.840303632618
 30
0.0
  0
POINT
  5
32C
330
335
100
AcDbEntity
  8
DEFPOINTS
  6
ByBlock
 62
     7
380
     1
100
AcDbPoint
 10
2108.45480235383
 20
1674.880102832618
 30
0.0
  0
LINE
  5
32D
330
335
100
AcDbEntity
  8
0
  6
ByBlock
 62
     7
370
    -2
380
     1
100
AcDbLine
 10
2109.07980235383
 20
1704.840303632618
 30
0.0
 11
2144.32542717569
 21
1704.840303632618
 31
0.0
  0
LINE
  5
32E
330
335
100
AcDbEntity
  8
0
  6
ByBlock
 62
     7
370
    -2
380
     1
100
AcDbLine
 10
2109.07980235383
 20
1674.880102832618
 30
0.0
 11
2144.32542717569
 21
1674.880102832618
 31
0.0
  0
LINE
  5
32F
330
335
100
AcDbEntity
  8
0
  6
ByBlock
 62
     7
370
    -2
380
     1
100
AcDbLine
 10
2143.07542717569
 20
1694.840303632618
 30
0.0
 11
2143.07542717569
 21
1684.880102832618
 31
0.0
  0
LINE
  5
330
330
335
100
AcDbEntity
  8
0
  6
ByBlock
 62
     7
370
    -2
380
     1
100
AcDbLine
 10
2143.07542717569
 20
1674.880102832618
 30
0.0
 11
2143.07542717569
 21
1640.880102832618
 31
0.0
  0
SOLID
  5
331
330
335
100
AcDbEntity
  8
0
  6
ByBlock
 62
     7
380
     1
100
AcDbTrace
 10
2143.07542717569
 20
1704.840303632618
 30
0.0
 11
2141.408760509024
 21
1694.840303632618
 31
0.0
 12
2144.742093842357
 22
1694.840303632618
 32
0.0
 13
2144.742093842357
 23
1694.840303632618
 33
0.0
  0
SOLID
  5
332
330
335
100
AcDbEntity
  8
0
  6
ByBlock
 62
     7
380
     1
100
AcDbTrace
 10
2143.07542717569
 20
1674.880102832618
 30
0.0
 11
2141.408760509024
 21
1684.880102832618
 31
0.0
 12
2144.742093842357
 22
1684.880102832618
 32
0.0
 13
2144.742093842357
 23
1684.880102832618
 33
0.0
  0
MTEXT
  5
333
330
335
100
AcDbEntity
  8
0
  6
ByBlock
 62
     0
370
    -2
380
     1
100
AcDbMText
 10
2131.07542717569
 20
1652.880102832618
 30
0.0
 40
14.0
 41
0.0
 71
     5
 72
     1
  1
30
 11
6.123031769111886E-17
 21
1.0
 31
0.0
 73
     1
 44
1.0
  0
ENDBLK
  5
3C0
330
335
100
AcDbEntity
  8
0
100
AcDbBlockEnd
  0
BLOCK
  5
3C1
330
341
100
AcDbEntity
  8
0
100
AcDbBlockBegin
  2
*D36
 70
     1
 10
0.0
 20
0.0
 30
0.0
  3
*D36
  1

  0
POINT
  5
337
330
341
100
AcDbEntity
  8
DEFPOINTS
  6
ByBlock
 62
     7
380
     1
100
AcDbPoint
 10
2108.45480235383
 20
1704.840303632618
 30
0.0
  0
POINT
  5
338
330
341
100
AcDbEntity
  8
DEFPOINTS
  6
ByBlock
 62
     7
380
     1
100
AcDbPoint
 10
2108.45480235383
 20
1674.880102832618
 30
0.0
  0
LINE
  5
339
330
341
100
AcDbEntity
  8
0
  6
ByBlock
 62
     7
370
    -2
380
     1
100
AcDbLine
 10
2109.07980235383
 20
1704.840303632618
 30
0.0
 11
2158.15279404935
 21
1704.840303632618
 31
0.0
  0
LINE
  5
33A
330
341
100
AcDbEntity
  8
0
  6
ByBlock
 62
     7
370
    -2
380
     1
100
AcDbLine
 10
2109.07980235383
 20
1674.880102832618
 30
0.0
 11
2158.15279404935
 21
1674.880102832618
 31
0.0
  0
LINE
  5
33B
330
341
100
AcDbEntity
  8
0
  6
ByBlock
 62
     7
370
    -2
380
     1
100
AcDbLine
 10
2156.90279404935
 20
1694.840303632618
 30
0.0
 11
2156.90279404935
 21
1684.880102832618
 31
0.0
  0
LINE
  5
33C
330
341
100
AcDbEntity
  8
0
  6
ByBlock
 62
     7
370
    -2
380
     1
100
AcDbLine
 10
2156.90279404935
 20
1704.840303632618
 30
0.0
 11
2156.90279404935
 21
1742.340303632618
 31
0.0
  0
SOLID
  5
33D
330
341
100
AcDbEntity
  8
0
  6
ByBlock
 62
     7
380
     1
100
AcDbTrace
 10
2156.90279404935
 20
1704.840303632618
 30
0.0
 11
2155.236127382683
 21
1694.840303632618
 31
0.0
 12
2158.569460716016
 22
1694.840303632618
 32
0.0
 13
2158.569460716016
 23
1694.840303632618
 33
0.0
  0
SOLID
  5
33E
330
341
100
AcDbEntity
  8
0
  6
ByBlock
 62
     7
380
     1
100
AcDbTrace
 10
2156.90279404935
 20
1674.880102832618
 30
0.0
 11
2155.236127382683
 21
1684.880102832618
 31
0.0
 12
2158.569460716016
 22
1684.880102832618
 32
0.0
 13
2158.569460716016
 23
1684.880102832618
 33
0.0
  0
MTEXT
  5
33F
330
341
100
AcDbEntity
  8
0
  6
ByBlock
 62
     0
370
    -2
380
     1
100
AcDbMText
 10
2144.90279404935
 20
1730.340303632618
 30
0.0
 40
14.0
 41
0.0
 71
     5
 72
     1
  1
30
 11
6.123031769111886E-17
 21
1.0
 31
0.0
 73
     1
 44
1.0
  0
ENDBLK
  5
3C2
330
341
100
AcDbEntity
  8
0
100
AcDbBlockEnd
  0
BLOCK
  5
3C3
330
34D
100
AcDbEntity
  8
0
100
AcDbBlockBegin
  2
*D37
 70
     1
 10
0.0
 20
0.0
 30
0.0
  3
*D37
  1

  0
POINT
  5
344
330
34D
100
AcDbEntity
  8
DEFPOINTS
  6
ByBlock
 62
     0
380
     1
100
AcDbPoint
 10
2044.847986203236
 20
1707.345011306745
 30
0.0
  0
POINT
  5
345
330
34D
100
AcDbEntity
  8
DEFPOINTS
  6
ByBlock
 62
     0
380
     1
100
AcDbPoint
 10
2120.319187323236
 20
1702.264473863982
 30
0.0
  0
LINE
  5
346
330
34D
100
AcDbEntity
  8
0
  6
ByBlock
 62
     0
370
    -2
380
     1
100
AcDbLine
 10
2044.847986203236
 20
1707.970011306745
 30
0.0
 11
2044.847986203236
 21
1751.155862127895
 31
0.0
  0
LINE
  5
347
330
34D
100
AcDbEntity
  8
0
  6
ByBlock
 62
     0
370
    -2
380
     1
100
AcDbLine
 10
2120.319187323236
 20
1702.889473863982
 30
0.0
 11
2120.319187323236
 21
1751.155862127895
 31
0.0
  0
LINE
  5
348
330
34D
100
AcDbEntity
  8
0
  6
ByBlock
 62
     0
370
    -2
380
     1
100
AcDbLine
 10
2047.347986203236
 20
1749.905862127895
 30
0.0
 11
2117.819187323236
 21
1749.905862127895
 31
0.0
  0
SOLID
  5
349
330
34D
100
AcDbEntity
  8
0
  6
ByBlock
 62
     0
380
     1
100
AcDbTrace
 10
2044.847986203236
 20
1749.905862127895
 30
0.0
 11
2047.347986203236
 21
1749.489195461228
 31
0.0
 12
2047.347986203236
 22
1750.322528794562
 32
0.0
 13
2047.347986203236
 23
1750.322528794562
 33
0.0
  0
SOLID
  5
34A
330
34D
100
AcDbEntity
  8
0
  6
ByBlock
 62
     0
380
     1
100
AcDbTrace
 10
2120.319187323236
 20
1749.905862127895
 30
0.0
 11
2117.819187323236
 21
1749.489195461228
 31
0.0
 12
2117.819187323236
 22
1750.322528794562
 32
0.0
 13
2117.819187323236
 23
1750.322528794562
 33
0.0
  0
MTEXT
  5
34B
330
34D
100
AcDbEntity
  8
0
  6
ByBlock
 62
     0
370
    -2
380
     1
100
AcDbMText
 10
2082.583586763236
 20
1751.989195461228
 30
0.0
 40
2.5
 41
0.0
 71
     5
 72
     1
  1
\A1;75,47
 73
     1
 44
1.0
  0
ENDBLK
  5
3C4
330
34D
100
AcDbEntity
  8
0
100
AcDbBlockEnd
  0
BLOCK
  5
3C5
330
358
100
AcDbEntity
  8
0
100
AcDbBlockBegin
  2
*D38
 70
     1
 10
0.0
 20
0.0
 30
0.0
  3
*D38
  1

  0
POINT
  5
34F
330
358
100
AcDbEntity
  8
DEFPOINTS
  6
ByBlock
 62
     0
380
     1
100
AcDbPoint
 10
2044.847986203236
 20
1707.345011306745
 30
0.0
  0
POINT
  5
350
330
358
100
AcDbEntity
  8
DEFPOINTS
  6
ByBlock
 62
     0
380
     1
100
AcDbPoint
 10
2120.319187323236
 20
1702.264473863982
 30
0.0
  0
LINE
  5
351
330
358
100
AcDbEntity
  8
0
  6
ByBlock
 62
     0
370
    -2
380
     1
100
AcDbLine
 10
2044.847986203236
 20
1707.970011306745
 30
0.0
 11
2044.847986203236
 21
1751.155862127895
 31
0.0
  0
LINE
  5
352
330
358
100
AcDbEntity
  8
0
  6
ByBlock
 62
     0
370
    -2
380
     1
100
AcDbLine
 10
2120.319187323236
 20
1702.889473863982
 30
0.0
 11
2120.319187323236
 21
1751.155862127895
 31
0.0
  0
LINE
  5
353
330
358
100
AcDbEntity
  8
0
  6
ByBlock
 62
     0
370
    -2
380
     1
100
AcDbLine
 10
2047.347986203236
 20
1749.905862127895
 30
0.0
 11
2117.819187323236
 21
1749.905862127895
 31
0.0
  0
SOLID
  5
354
330
358
100
AcDbEntity
  8
0
  6
ByBlock
 62
     0
380
     1
100
AcDbTrace
 10
2044.847986203236
 20
1749.905862127895
 30
0.0
 11
2047.347986203236
 21
1749.489195461228
 31
0.0
 12
2047.347986203236
 22
1750.322528794562
 32
0.0
 13
2047.347986203236
 23
1750.322528794562
 33
0.0
  0
SOLID
  5
355
330
358
100
AcDbEntity
  8
0
  6
ByBlock
 62
     0
380
     1
100
AcDbTrace
 10
2120.319187323236
 20
1749.905862127895
 30
0.0
 11
2117.819187323236
 21
1749.489195461228
 31
0.0
 12
2117.819187323236
 22
1750.322528794562
 32
0.0
 13
2117.819187323236
 23
1750.322528794562
 33
0.0
  0
MTEXT
  5
356
330
358
100
AcDbEntity
  8
0
  6
ByBlock
 62
     0
370
    -2
380
     1
100
AcDbMText
 10
2082.583586763236
 20
1751.989195461228
 30
0.0
 40
2.5
 41
0.0
 71
     5
 72
     1
  1
\A1;75,47
 73
     1
 44
1.0
  0
ENDBLK
  5
3C6
330
358
100
AcDbEntity
  8
0
100
AcDbBlockEnd
  0
BLOCK
  5
3C7
330
363
100
AcDbEntity
  8
0
100
AcDbBlockBegin
  2
*D39
 70
     1
 10
0.0
 20
0.0
 30
0.0
  3
*D39
  1

  0
POINT
  5
35A
330
363
100
AcDbEntity
  8
DEFPOINTS
  6
ByBlock
 62
     0
380
     1
100
AcDbPoint
 10
2044.847986203236
 20
1707.345011306745
 30
0.0
  0
POINT
  5
35B
330
363
100
AcDbEntity
  8
DEFPOINTS
  6
ByBlock
 62
     0
380
     1
100
AcDbPoint
 10
2120.319187323236
 20
1702.264473863982
 30
0.0
  0
LINE
  5
35C
330
363
100
AcDbEntity
  8
0
  6
ByBlock
 62
     0
370
    -2
380
     1
100
AcDbLine
 10
2044.847986203236
 20
1707.970011306745
 30
0.0
 11
2044.847986203236
 21
1751.155862127895
 31
0.0
  0
LINE
  5
35D
330
363
100
AcDbEntity
  8
0
  6
ByBlock
 62
     0
370
    -2
380
     1
100
AcDbLine
 10
2120.319187323236
 20
1702.889473863982
 30
0.0
 11
2120.319187323236
 21
1751.155862127895
 31
0.0
  0
LINE
  5
35E
330
363
100
AcDbEntity
  8
0
  6
ByBlock
 62
     0
370
    -2
380
     1
100
AcDbLine
 10
2047.347986203236
 20
1749.905862127895
 30
0.0
 11
2117.819187323236
 21
1749.905862127895
 31
0.0
  0
SOLID
  5
35F
330
363
100
AcDbEntity
  8
0
  6
ByBlock
 62
     0
380
     1
100
AcDbTrace
 10
2044.847986203236
 20
1749.905862127895
 30
0.0
 11
2047.347986203236
 21
1749.489195461228
 31
0.0
 12
2047.347986203236
 22
1750.322528794562
 32
0.0
 13
2047.347986203236
 23
1750.322528794562
 33
0.0
  0
SOLID
  5
360
330
363
100
AcDbEntity
  8
0
  6
ByBlock
 62
     0
380
     1
100
AcDbTrace
 10
2120.319187323236
 20
1749.905862127895
 30
0.0
 11
2117.819187323236
 21
1749.489195461228
 31
0.0
 12
2117.819187323236
 22
1750.322528794562
 32
0.0
 13
2117.819187323236
 23
1750.322528794562
 33
0.0
  0
MTEXT
  5
361
330
363
100
AcDbEntity
  8
0
  6
ByBlock
 62
     0
370
    -2
380
     1
100
AcDbMText
 10
2082.583586763236
 20
1751.780862127895
 30
0.0
 40
2.5
 41
0.0
 71
     5
 72
     1
  1
75
 73
     1
 44
1.0
  0
ENDBLK
  5
3C8
330
363
100
AcDbEntity
  8
0
100
AcDbBlockEnd
  0
BLOCK
  5
3C9
330
36E
100
AcDbEntity
  8
0
100
AcDbBlockBegin
  2
*D40
 70
     1
 10
0.0
 20
0.0
 30
0.0
  3
*D40
  1

  0
POINT
  5
365
330
36E
100
AcDbEntity
  8
DEFPOINTS
  6
ByBlock
 62
     7
380
     1
100
AcDbPoint
 10
2044.847986203236
 20
1707.345011306745
 30
0.0
  0
POINT
  5
366
330
36E
100
AcDbEntity
  8
DEFPOINTS
  6
ByBlock
 62
     7
380
     1
100
AcDbPoint
 10
2120.319187323236
 20
1702.264473863982
 30
0.0
  0
LINE
  5
367
330
36E
100
AcDbEntity
  8
0
  6
ByBlock
 62
     7
370
    -2
380
     1
100
AcDbLine
 10
2044.847986203236
 20
1707.970011306745
 30
0.0
 11
2044.847986203236
 21
1751.155862127895
 31
0.0
  0
LINE
  5
368
330
36E
100
AcDbEntity
  8
0
  6
ByBlock
 62
     7
370
    -2
380
     1
100
AcDbLine
 10
2120.319187323236
 20
1702.889473863982
 30
0.0
 11
2120.319187323236
 21
1751.155862127895
 31
0.0
  0
LINE
  5
369
330
36E
100
AcDbEntity
  8
0
  6
ByBlock
 62
     7
370
    -2
380
     1
100
AcDbLine
 10
2054.847986203236
 20
1749.905862127895
 30
0.0
 11
2110.319187323236
 21
1749.905862127895
 31
0.0
  0
SOLID
  5
36A
330
36E
100
AcDbEntity
  8
0
  6
ByBlock
 62
     7
380
     1
100
AcDbTrace
 10
2044.847986203236
 20
1749.905862127895
 30
0.0
 11
2054.847986203236
 21
1748.239195461228
 31
0.0
 12
2054.847986203236
 22
1751.572528794562
 32
0.0
 13
2054.847986203236
 23
1751.572528794562
 33
0.0
  0
SOLID
  5
36B
330
36E
100
AcDbEntity
  8
0
  6
ByBlock
 62
     7
380
     1
100
AcDbTrace
 10
2120.319187323236
 20
1749.905862127895
 30
0.0
 11
2110.319187323236
 21
1748.239195461228
 31
0.0
 12
2110.319187323236
 22
1751.572528794562
 32
0.0
 13
2110.319187323236
 23
1751.572528794562
 33
0.0
  0
MTEXT
  5
36C
330
36E
100
AcDbEntity
  8
0
  6
ByBlock
 62
     0
370
    -2
380
     1
100
AcDbMText
 10
2082.583586763236
 20
1761.905862127895
 30
0.0
 40
14.0
 41
0.0
 71
     5
 72
     1
  1
75
 73
     1
 44
1.0
  0
ENDBLK
  5
3CA
330
36E
100
AcDbEntity
  8
0
100
AcDbBlockEnd
  0
ENDSEC
  0
SECTION
  2
ENTITIES
  0
LINE
  5
1C8
330
1F
100
AcDbEntity
  8
0
370
    60
100
AcDbLine
 10
2042.861901963236
 20
1703.841630272618
 30
0.0
 11
1867.265792057236
 21
1703.841630272618
 31
0.0
  0
LINE
  5
1C9
330
1F
100
AcDbEntity
  8
0
370
    60
100
AcDbLine
 10
2044.847986203236
 20
1699.846936832618
 30
0.0
 11
1867.265792057236
 21
1699.846936832618
 31
0.0
  0
LINE
  5
1CA
330
1F
100
AcDbEntity
  8
0
370
    60
100
AcDbLine
 10
2044.847986203236
 20
1729.807137632618
 30
0.0
 11
1867.265792057236
 21
1703.841630272618
 31
0.0
  0
LINE
  5
1D7
330
1F
100
AcDbEntity
  8
0
370
    60
100
AcDbLine
 10
1903.339484103236
 20
1834.358580595418
 30
0.0
 11
2118.829624143236
 21
1834.358580595418
 31
0.0
  0
LINE
  5
1D8
330
1F
100
AcDbEntity
  8
0
370
    60
100
AcDbLine
 10
1903.339484103236
 20
1804.398379795418
 30
0.0
 11
2118.829624143236
 21
1804.398379795418
 31
0.0
  0
LINE
  5
1D9
330
1F
100
AcDbEntity
  8
0
  6
NASCOSTA
370
    60
100
AcDbLine
 10
1866.259806693636
 20
1817.970809230618
 30
0.0
 11
2044.847986203236
 21
1817.970809230618
 31
0.0
  0
LINE
  5
1DA
330
1F
100
AcDbEntity
  8
0
  6
NASCOSTA
370
    60
100
AcDbLine
 10
1866.259806693636
 20
1820.786141193418
 30
0.0
 11
2044.847986203236
 21
1820.786141193418
 31
0.0
  0
LINE
  5
1DB
330
1F
100
AcDbEntity
  8
0
  6
BORDER
370
    25
100
AcDbLine
 10
2210.011377771831
 20
1819.378480195418
 30
0.0
 11
1856.424111008437
 21
1819.378480195418
 31
0.0
  0
LINE
  5
1DC
330
1F
100
AcDbEntity
  8
0
370
    60
100
AcDbLine
 10
1903.339484103236
 20
1834.358580595418
 30
0.0
 11
1866.259806693636
 21
1820.786141193418
 31
0.0
  0
LINE
  5
1DD
330
1F
100
AcDbEntity
  8
0
370
    60
100
AcDbLine
 10
1903.339484103236
 20
1804.398379795418
 30
0.0
 11
1866.259806693636
 21
1817.970809230618
 31
0.0
  0
ELLIPSE
  5
1DE
330
1F
100
AcDbEntity
  8
0
370
    60
100
AcDbEllipse
 10
1867.265792057236
 20
1701.844283552618
 30
0.0
 11
0.0
 21
1.997346720000019
 31
0.0
210
0.0
220
0.0
230
1.0
 40
0.9943612794477665
 41
-0.0000000000000036
 42
3.14159265358979
  0
ELLIPSE
  5
1DF
330
1F
100
AcDbEntity
  8
0
370
    60
100
AcDbEllipse
 10
1866.769270997236
 20
1819.378480195418
 30
0.0
 11
0.0
 21
1.498010040000018
 31
0.0
210
0.0
220
0.0
230
1.0
 40
0.9943612794477664
 41
0.3490658503987998
 42
2.792526803190858
  0
LINE
  5
1E0
330
1F
100
AcDbEntity
  8
0
370
    60
100
AcDbLine
 10
1903.339484103236
 20
1703.841630272618
 30
0.0
 11
1903.339484103236
 21
1699.846936832618
 31
0.0
  0
LINE
  5
1E1
330
1F
100
AcDbEntity
  8
0
  6
NASCOSTA
370
    60
100
AcDbLine
 10
2106.416597643236
 20
1692.856223312618
 30
0.0
 11
2106.416597643236
 21
1699.846936832618
 31
0.0
  0
LINE
  5
1E2
330
1F
100
AcDbEntity
  8
0
370
    60
100
AcDbLine
 10
2120.319187323236
 20
1704.840303632618
 30
0.0
 11
2120.319187323236
 21
1674.880102832618
 31
0.0
  0
LINE
  5
1E3
330
1F
100
AcDbEntity
  8
0
370
    60
100
AcDbLine
 10
2118.829624143236
 20
1704.840303632618
 30
0.0
 11
2118.829624143236
 21
1674.880102832618
 31
0.0
  0
LINE
  5
1E4
330
1F
100
AcDbEntity
  8
0
  6
NASCOSTA
370
    60
100
AcDbLine
 10
2114.360934603236
 20
1697.784965381418
 30
0.0
 11
2114.360934603236
 21
1674.880102832618
 31
0.0
  0
ELLIPSE
  5
1E5
330
1F
100
AcDbEntity
  8
0
370
    60
100
AcDbEllipse
 10
2046.834070443236
 20
1696.850916752618
 30
0.0
 11
0.0
 21
1.997346720000019
 31
0.0
210
0.0
220
0.0
230
1.0
 40
0.9943612794477665
 41
1.570796326794893
 42
3.14159265358979
  0
LINE
  5
1F3
330
1F
100
AcDbEntity
  8
0
370
    60
100
AcDbLine
 10
2120.319187323236
 20
1674.880102832618
 30
0.0
 11
2108.402681883236
 21
1674.880102832618
 31
0.0
  0
LINE
  5
1F4
330
1F
100
AcDbEntity
  8
0
370
    60
100
AcDbLine
 10
2104.430513403236
 20
1694.853570032618
 30
0.0
 11
2046.834070443236
 21
1694.853570032618
 31
0.0
  0
ELLIPSE
  5
1F5
330
1F
100
AcDbEntity
  8
0
370
    60
100
AcDbEllipse
 10
2104.430513403236
 20
1692.856223312618
 30
0.0
 11
0.0
 21
1.997346720000019
 31
0.0
210
0.0
220
0.0
230
1.0
 40
0.9943612794477665
 41
-1.5707963267949
 42
-0.0000000000000036
  0
ELLIPSE
  5
1F6
330
1F
100
AcDbEntity
  8
0
370
    60
100
AcDbEllipse
 10
2108.402681883236
 20
1676.877449552618
 30
0.0
 11
0.0
 21
1.997346720000019
 31
0.0
210
0.0
220
0.0
230
1.0
 40
0.9943612794477665
 41
1.570796326794893
 42
3.14159265358979
  0
LINE
  5
1F7
330
1F
100
AcDbEntity
  8
0
370
    60
100
AcDbLine
 10
2106.416597643236
 20
1692.856223312618
 30
0.0
 11
2106.416597643236
 21
1676.877449552618
 31
0.0
  0
LINE
  5
1F8
330
1F
100
AcDbEntity
  8
0
  6
NASCOSTA
370
    60
100
AcDbLine
 10
2114.360934603236
 20
1685.078680766618
 30
0.0
 11
2120.319187323236
 21
1685.078680766618
 31
0.0
  0
LINE
  5
1F9
330
1F
100
AcDbEntity
  8
0
370
    60
100
AcDbLine
 10
2170.406041613436
 20
1834.358580595418
 30
0.0
 11
2200.197305213436
 21
1834.358580595418
 31
0.0
  0
LINE
  5
1FA
330
1F
100
AcDbEntity
  8
0
370
    60
100
AcDbLine
 10
2170.406041613436
 20
1804.398379795418
 30
0.0
 11
2200.197305213436
 21
1804.398379795418
 31
0.0
  0
LINE
  5
1FB
330
1F
100
AcDbEntity
  8
0
370
    60
100
AcDbLine
 10
2180.336462813436
 20
1828.965744451418
 30
0.0
 11
2200.197305213436
 21
1828.965744451418
 31
0.0
  0
LINE
  5
1FC
330
1F
100
AcDbEntity
  8
0
370
    60
100
AcDbLine
 10
2180.336462813436
 20
1809.791215939418
 30
0.0
 11
2200.197305213436
 21
1809.791215939418
 31
0.0
  0
LINE
  5
1FE
330
1F
100
AcDbEntity
  8
0
370
    60
100
AcDbLine
 10
2114.360934603236
 20
1828.366540435418
 30
0.0
 11
2106.416597643236
 21
1828.366540435418
 31
0.0
  0
LINE
  5
1FF
330
1F
100
AcDbEntity
  8
0
370
    60
100
AcDbLine
 10
2106.416597643236
 20
1819.378480195418
 30
0.0
 11
2114.360934603236
 21
1819.378480195418
 31
0.0
  0
LINE
  5
200
330
1F
100
AcDbEntity
  8
0
370
    60
100
AcDbLine
 10
2114.360934603236
 20
1810.390419955418
 30
0.0
 11
2106.416597643236
 21
1810.390419955418
 31
0.0
  0
LINE
  5
201
330
1F
100
AcDbEntity
  8
0
  6
NASCOSTA
370
    60
100
AcDbLine
 10
2106.416597643236
 20
1697.784965381418
 30
0.0
 11
2114.360934603236
 21
1697.784965381418
 31
0.0
  0
LINE
  5
202
330
1F
100
AcDbEntity
  8
0
370
    60
100
AcDbLine
 10
2120.319187323236
 20
1704.840303632618
 30
0.0
 11
2063.715786483237
 21
1704.840303632618
 31
0.0
  0
LINE
  5
20F
330
1F
100
AcDbEntity
  8
0
370
    60
100
AcDbLine
 10
2106.416597643236
 20
1804.398379795418
 30
0.0
 11
2106.416597643236
 21
1834.358580595418
 31
0.0
  0
LINE
  5
210
330
1F
100
AcDbEntity
  8
0
370
    60
100
AcDbLine
 10
2044.847986203236
 20
1809.391746595418
 30
0.0
 11
2044.847986203236
 21
1804.398379795418
 31
0.0
  0
LINE
  5
211
330
1F
100
AcDbEntity
  8
0
  6
NASCOSTA
370
    60
100
AcDbLine
 10
2048.820154683236
 20
1804.398379795418
 30
0.0
 11
2048.820154683236
 21
1834.358580595418
 31
0.0
  0
LINE
  5
212
330
1F
100
AcDbEntity
  8
0
  6
NASCOSTA
370
    60
100
AcDbLine
 10
2044.847986203236
 20
1699.846936832618
 30
0.0
 11
2106.416597643236
 21
1699.846936832618
 31
0.0
  0
LINE
  5
213
330
1F
100
AcDbEntity
  8
0
  6
NASCOSTA
370
    60
100
AcDbLine
 10
2050.806238923236
 20
1704.840303632618
 30
0.0
 11
2063.715786483237
 21
1704.840303632618
 31
0.0
  0
LINE
  5
214
330
1F
100
AcDbEntity
  8
0
370
    60
100
AcDbLine
 10
2048.820154683236
 20
1719.820404032618
 30
0.0
 11
2063.715786483237
 21
1704.840303632618
 31
0.0
  0
LINE
  5
215
330
1F
100
AcDbEntity
  8
0
370
    60
100
AcDbLine
 10
2048.820154683236
 20
1729.807137632618
 30
0.0
 11
2048.820154683236
 21
1719.820404032618
 31
0.0
  0
LINE
  5
216
330
1F
100
AcDbEntity
  8
0
370
    60
100
AcDbLine
 10
2044.847986203236
 20
1729.807137632618
 30
0.0
 11
2044.847986203236
 21
1705.838976992618
 31
0.0
  0
ELLIPSE
  5
217
330
1F
100
AcDbEntity
  8
0
  6
NASCOSTA
370
    60
100
AcDbEllipse
 10
2050.806238923236
 20
1706.837650352618
 30
0.0
 11
0.0
 21
1.997346720000019
 31
0.0
210
0.0
220
0.0
230
1.0
 40
0.9943612794477665
 41
1.570796326794893
 42
3.14159265358979
  0
LINE
  5
218
330
1F
100
AcDbEntity
  8
0
370
    60
100
AcDbLine
 10
2044.847986203236
 20
1699.846936832618
 30
0.0
 11
2044.847986203236
 21
1696.850916752618
 31
0.0
  0
LINE
  5
219
330
1F
100
AcDbEntity
  8
0
  6
NASCOSTA
370
    60
100
AcDbLine
 10
2048.820154683236
 20
1719.820404032618
 30
0.0
 11
2048.820154683236
 21
1706.837650352618
 31
0.0
  0
ELLIPSE
  5
21A
330
1F
100
AcDbEntity
  8
0
370
    60
100
AcDbEllipse
 10
2042.861901963236
 20
1705.838976992618
 30
0.0
 11
0.0
 21
1.997346720000019
 31
0.0
210
0.0
220
0.0
230
1.0
 40
0.9943612794477665
 41
3.14159265358979
 42
4.712388980384686
  0
LINE
  5
21B
330
1F
100
AcDbEntity
  8
0
370
    60
100
AcDbLine
 10
2048.820154683236
 20
1729.807137632618
 30
0.0
 11
2044.847986203236
 21
1729.807137632618
 31
0.0
  0
LINE
  5
21C
330
1F
100
AcDbEntity
  8
0
370
    60
100
AcDbLine
 10
2106.416597643236
 20
1809.391746595418
 30
0.0
 11
2044.847986203236
 21
1809.391746595418
 31
0.0
  0
LINE
  5
21D
330
1F
100
AcDbEntity
  8
0
370
    60
100
AcDbLine
 10
2106.416597643236
 20
1829.365213795418
 30
0.0
 11
2044.847986203236
 21
1829.365213795418
 31
0.0
  0
LINE
  5
21E
330
1F
100
AcDbEntity
  8
0
370
    60
100
AcDbLine
 10
2044.847986203236
 20
1829.365213795418
 30
0.0
 11
2044.847986203236
 21
1834.358580595418
 31
0.0
  0
LINE
  5
21F
330
1F
100
AcDbEntity
  8
0
  6
NASCOSTA
370
    60
100
AcDbLine
 10
2044.847986203236
 20
1829.365213795418
 30
0.0
 11
2044.847986203236
 21
1809.391746595418
 31
0.0
  0
LINE
  5
220
330
1F
100
AcDbEntity
  8
0
370
    60
100
AcDbLine
 10
2180.629241758636
 20
1804.398379795418
 30
0.0
 11
2180.629241758636
 21
1808.393073235418
 31
0.0
  0
LINE
  5
221
330
1F
100
AcDbEntity
  8
0
370
    60
100
AcDbLine
 10
2170.406041613436
 20
1834.358580595418
 30
0.0
 11
2170.406041613436
 21
1804.398379795418
 31
0.0
  0
LINE
  5
223
330
1F
100
AcDbEntity
  8
0
370
    60
100
AcDbLine
 10
2118.829624143236
 20
1804.398379795418
 30
0.0
 11
2118.829624143236
 21
1809.391746595418
 31
0.0
  0
LINE
  5
224
330
1F
100
AcDbEntity
  8
0
370
    60
100
AcDbLine
 10
2118.829624143236
 20
1834.358580595418
 30
0.0
 11
2118.829624143236
 21
1829.365213795418
 31
0.0
  0
LINE
  5
225
330
1F
100
AcDbEntity
  8
0
370
    60
100
AcDbLine
 10
2118.829624143236
 20
1829.365213795418
 30
0.0
 11
2120.319187323236
 21
1829.365213795418
 31
0.0
  0
LINE
  5
226
330
1F
100
AcDbEntity
  8
0
370
    60
100
AcDbLine
 10
2118.829624143236
 20
1809.391746595418
 30
0.0
 11
2120.319187323236
 21
1809.391746595418
 31
0.0
  0
LINE
  5
227
330
1F
100
AcDbEntity
  8
0
370
    60
100
AcDbLine
 10
2114.360934603236
 20
1810.390419955418
 30
0.0
 11
2114.360934603236
 21
1828.366540435418
 31
0.0
  0
LINE
  5
228
330
1F
100
AcDbEntity
  8
0
370
    60
100
AcDbLine
 10
2120.319187323236
 20
1809.391746595418
 30
0.0
 11
2120.319187323236
 21
1829.365213795418
 31
0.0
  0
LINE
  5
229
330
1F
100
AcDbEntity
  8
0
  6
NASCOSTA
370
    60
100
AcDbLine
 10
2178.474508838436
 20
1813.386440035418
 30
0.0
 11
2170.406041613436
 21
1813.386440035418
 31
0.0
  0
LINE
  5
22A
330
1F
100
AcDbEntity
  8
0
  6
NASCOSTA
370
    60
100
AcDbLine
 10
2178.474508838436
 20
1825.370520355418
 30
0.0
 11
2170.406041613436
 21
1825.370520355418
 31
0.0
  0
LINE
  5
22B
330
1F
100
AcDbEntity
  8
0
370
    60
100
AcDbLine
 10
2178.474508838436
 20
1813.386440035418
 30
0.0
 11
2185.897498685436
 21
1813.386440035418
 31
0.0
  0
LINE
  5
22C
330
1F
100
AcDbEntity
  8
0
370
    60
100
AcDbLine
 10
2178.474508838436
 20
1825.370520355418
 30
0.0
 11
2185.897498685436
 21
1825.370520355418
 31
0.0
  0
LINE
  5
22D
330
1F
100
AcDbEntity
  8
0
370
    60
100
AcDbLine
 10
2180.629241758636
 20
1834.358580595418
 30
0.0
 11
2180.629241758636
 21
1830.363887155418
 31
0.0
  0
LINE
  5
22E
330
1F
100
AcDbEntity
  8
0
370
    60
100
AcDbLine
 10
2175.371252213436
 20
1830.363887155418
 30
0.0
 11
2180.629241758636
 21
1830.363887155418
 31
0.0
  0
LINE
  5
22F
330
1F
100
AcDbEntity
  8
0
370
    60
100
AcDbLine
 10
2175.371252213436
 20
1808.393073235418
 30
0.0
 11
2175.371252213436
 21
1819.378480195418
 31
0.0
  0
LINE
  5
230
330
1F
100
AcDbEntity
  8
0
370
    60
100
AcDbLine
 10
2175.371252213436
 20
1819.378480195418
 30
0.0
 11
2180.336462813436
 21
1809.791215939418
 31
0.0
  0
LINE
  5
231
330
1F
100
AcDbEntity
  8
0
370
    60
100
AcDbLine
 10
2175.371252213436
 20
1808.393073235418
 30
0.0
 11
2180.629241758636
 21
1808.393073235418
 31
0.0
  0
LINE
  5
232
330
1F
100
AcDbEntity
  8
0
370
    60
100
AcDbLine
 10
2180.336462813436
 20
1828.965744451418
 30
0.0
 11
2175.371252213436
 21
1819.378480195418
 31
0.0
  0
LINE
  5
233
330
1F
100
AcDbEntity
  8
0
370
    60
100
AcDbLine
 10
2175.371252213436
 20
1830.363887155418
 30
0.0
 11
2175.371252213436
 21
1819.378480195418
 31
0.0
  0
ELLIPSE
  5
234
330
1F
100
AcDbEntity
  8
0
370
    60
100
AcDbEllipse
 10
2185.897498685436
 20
1819.378480195418
 30
0.0
 11
0.0
 21
5.992040160000057
 31
0.0
210
0.0
220
0.0
230
1.0
 40
0.9943612794477666
 41
3.14159265358979
 42
6.283185307179583
  0
LINE
  5
235
330
1F
100
AcDbEntity
  8
0
370
    60
100
AcDbLine
 10
2200.197305213436
 20
1834.358580595418
 30
0.0
 11
2200.197305213436
 21
1804.398379795418
 31
0.0
  0
DIMENSION
  5
2A1
330
1F
100
AcDbEntity
  8
0
370
    25
100
AcDbDimension
  2
*D26
 10
2120.319187323236
 20
1855.813830823884
 30
0.0
 11
1992.799447570236
 21
1867.813830823884
 31
0.0
 70
    32
  1
255
 71
     5
 41
2.5
 42
255.0394795059999
  3
ISO-25
100
AcDbAlignedDimension
 13
1865.279707817236
 23
1819.378480195418
 33
0.0
 14
2120.319187323236
 24
1820.078987045132
 34
0.0
100
AcDbRotatedDimension
1001
ACAD
1000
DSTYLE
1002
{
1070
    41
1040
10.0
1070
   140
1040
14.0
1070
   147
1040
5.0
1070
   176
1070
     7
1070
   177
1070
     7
1002
}
  0
DIMENSION
  5
2CE
330
1F
100
AcDbEntity
  8
0
370
    25
100
AcDbDimension
  2
*D31
 10
2226.246712591139
 20
1804.398379795418
 30
0.0
 11
2214.246712591139
 21
1859.858580595418
 31
0.0
 70
   160
  1
30
 71
     5
 41
2.5
 42
29.96020079999994
  3
ISO-25
100
AcDbAlignedDimension
 13
2196.695951498979
 23
1834.358580595418
 33
0.0
 14
2196.695951498979
 24
1804.398379795418
 34
0.0
 50
90.0
100
AcDbRotatedDimension
1001
ACAD
1000
DSTYLE
1002
{
1070
    41
1040
10.0
1070
   140
1040
14.0
1070
   147
1040
5.0
1070
   176
1070
     7
1070
   177
1070
     7
1002
}
  0
DIMENSION
  5
308
330
1F
100
AcDbEntity
  8
0
370
    25
100
AcDbDimension
  2
*D36
 10
2156.90279404935
 20
1674.880102832618
 30
0.0
 11
2144.90279404935
 21
1730.340303632618
 31
0.0
 70
   160
  1
30
 71
     5
 41
2.5
 42
29.96020079999994
  3
ISO-25
100
AcDbAlignedDimension
 13
2108.45480235383
 23
1704.840303632618
 33
0.0
 14
2108.45480235383
 24
1674.880102832618
 34
0.0
 50
90.0
100
AcDbRotatedDimension
1001
ACAD
1000
DSTYLE
1002
{
1070
    41
1040
10.0
1070
   140
1040
14.0
1070
   147
1040
5.0
1070
   176
1070
     7
1070
   177
1070
     7
1002
}
  0
DIMENSION
  5
342
330
1F
100
AcDbEntity
  8
0
370
    25
100
AcDbDimension
  2
*D40
 10
2120.319187323236
 20
1749.905862127895
 30
0.0
 11
2082.583586763236
 21
1761.905862127895
 31
0.0
 70
    32
  1
75
 71
     5
 41
2.5
 42
75.47120112000016
  3
ISO-25
100
AcDbAlignedDimension
 13
2044.847986203236
 23
1707.345011306745
 33
0.0
 14
2120.319187323236
 24
1702.264473863982
 34
0.0
100
AcDbRotatedDimension
1001
ACAD
1000
DSTYLE
1002
{
1070
    41
1040
10.0
1070
   140
1040
14.0
1070
   147
1040
5.0
1070
   176
1070
     7
1070
   177
1070
     7
1002
}
  0
VIEWPORT
  5
BB
330
73
100
AcDbEntity
 67
     1
  8
0
100
AcDbViewport
 10
7.8
 20
4.5
 30
0.0
 40
15.64
 41
9.0
 68
     1
 69
     1
 12
6.0
 22
4.5
 13
0.0
 23
0.0
 14
0.5
 24
0.5
 15
0.5
 25
0.5
 16
0.0
 26
0.0
 36
1.0
 17
0.0
 27
0.0
 37
0.0
 42
50.0
 43
0.0
 44
0.0
 45
12.0
 50
0.0
 51
0.0
 72
   100
 90
   557152
  1

281
     0
 71
     1
 74
     0
110
0.0
120
0.0
130
0.0
111
1.0
121
0.0
131
0.0
112
0.0
122
1.0
132
0.0
 79
     0
146
0.0
  0
ENDSEC
  0
SECTION
  2
OBJECTS
  0
DICTIONARY
  5
C
330
0
100
AcDbDictionary
281
     1
  3
ACAD_COLOR
350
6C
  3
ACAD_GROUP
350
D
  3
ACAD_LAYOUT
350
1A
  3
ACAD_MATERIAL
350
6B
  3
ACAD_MLEADERSTYLE
350
3CC
  3
ACAD_MLINESTYLE
350
17
  3
ACAD_PLOTSETTINGS
350
19
  3
ACAD_PLOTSTYLENAME
350
E
  3
ACAD_SCALELIST
350
99
  3
ACAD_TABLESTYLE
350
92
  3
ACDBHEADERROUNDTRIPXREC
350
3CD
  3
AcDbVariableDictionary
350
59
  3
DWGPROPS
350
3D0
  0
DICTIONARY
  5
6C
102
{ACAD_REACTORS
330
C
102
}
330
C
100
AcDbDictionary
281
     1
  0
DICTIONARY
  5
D
102
{ACAD_REACTORS
330
C
102
}
330
C
100
AcDbDictionary
281
     1
  0
DICTIONARY
  5
1A
102
{ACAD_REACTORS
330
C
102
}
330
C
100
AcDbDictionary
281
     1
  3
Layout1
350
74
  3
Layout2
350
378
  3
Model
350
22
  0
DICTIONARY
  5
6B
102
{ACAD_REACTORS
330
C
102
}
330
C
100
AcDbDictionary
281
     1
  0
DICTIONARY
  5
3CC
102
{ACAD_REACTORS
330
C
102
}
330
C
100
AcDbDictionary
281
     1
  0
DICTIONARY
  5
17
102
{ACAD_REACTORS
330
C
102
}
330
C
100
AcDbDictionary
281
     1
  3
Standard
350
18
  0
DICTIONARY
  5
19
102
{ACAD_REACTORS
330
C
102
}
330
C
100
AcDbDictionary
281
     1
  0
ACDBDICTIONARYWDFLT
  5
E
102
{ACAD_REACTORS
330
C
102
}
330
C
100
AcDbDictionary
281
     1
  3
Normal
350
F
100
AcDbDictionaryWithDefault
340
F
  0
DICTIONARY
  5
99
102
{ACAD_REACTORS
330
C
102
}
330
C
100
AcDbDictionary
281
     1
  3
A0
350
D5
  3
A1
350
D6
  3
A2
350
D7
  3
A3
350
D8
  3
A4
350
D9
  3
A5
350
DA
  3
A6
350
DB
  3
A7
350
DC
  3
A8
350
DD
  3
A9
350
DE
  3
B0
350
DF
  3
B1
350
E0
  3
B2
350
E1
  3
B3
350
E2
  3
B4
350
E3
  3
B5
350
E4
  3
B6
350
E5
  3
B7
350
E6
  3
B8
350
E7
  3
B9
350
E8
  3
C0
350
E9
  3
C1
350
EA
  3
C2
350
EB
  3
C3
350
EC
  3
C4
350
ED
  3
C5
350
EE
  3
C6
350
EF
  3
C7
350
F0
  3
C8
350
F1
  3
C9
350
F2
  3
D0
350
F3
  3
D1
350
F4
  3
D2
350
F5
  0
DICTIONARY
  5
92
102
{ACAD_REACTORS
330
C
102
}
330
C
100
AcDbDictionary
281
     1
  0
DICTIONARY
  5
3CD
102
{ACAD_REACTORS
330
C
102
}
330
C
100
AcDbDictionary
281
     1
  3
COLORDICT
350
3CE
  3
MATERIALDICT
350
3CF
  0
DICTIONARY
  5
59
102
{ACAD_REACTORS
330
C
102
}
330
C
100
AcDbDictionary
281
     1
  3
CTABLESTYLE
350
98
  3
DIMASSOC
350
5A
  3
HIDETEXT
350
5E
  0
XRECORD
  5
3D0
102
{ACAD_REACTORS
330
C
102
}
330
C
100
AcDbXrecord
280
     1
  1
DWGPROPS COOKIE
  2

  3

  4

  6

  7

  8
BelottiMc
  9

300
=
301
=
302
=
303
=
304
=
305
=
306
=
307
=
308
=
309
=
 40
0.0
 41
2455091.532935451
 42
2455091.574602118
  1

 90
        0
  0
LAYOUT
  5
74
330
1A
100
AcDbPlotSettings
  1

  2
ProgeSOFT PDF Wizard
  4
A4
  6

 40
5.926666666666667
 41
6.011333333333317
 42
6.095999999999985
 43
5.926666666666667
 44
210.0
 45
297.0
 46
88.56200000000001
 47
136.531
 48
0.0
 49
0.0
140
0.0
141
0.0
142
1.0
143
1.0
 70
   692
 72
     1
 73
     0
 74
     0
  7

 75
    16
147
1.0
148
4.426666666666668
149
1.5
100
AcDbLayout
  1
Layout1
 70
     1
 71
     1
 10
0.0
 20
0.0
 11
0.0
 21
0.0
 12
0.0
 22
0.0
 32
0.0
 14
0.0
 24
0.0
 34
0.0
 15
0.0
 25
0.0
 35
0.0
146
0.0
 13
0.0
 23
0.0
 33
0.0
 16
1.0
 26
0.0
 36
0.0
 17
0.0
 27
1.0
 37
0.0
 76
     0
330
D1
331
3CB
1001
PROGE_PRINT_SETTINGS
1070
    73
1070
     1
  0
LAYOUT
  5
378
102
{ACAD_REACTORS
330
1A
102
}
330
1A
100
AcDbPlotSettings
  1

  2
ProgeSOFT PDF Wizard
  4
A4
  6

 40
5.926666666666667
 41
6.011333333333317
 42
6.095999999999985
 43
5.926666666666667
 44
210.0
 45
297.0
 46
88.562
 47
136.531
 48
0.0
 49
0.0
140
0.0
141
0.0
142
1.0
143
1.0
 70
   692
 72
     1
 73
     0
 74
     0
  7

 75
    16
147
1.0
148
0.0
149
0.0
100
AcDbLayout
  1
Layout2
 70
     1
 71
     2
 10
0.0
 20
0.0
 11
12.0
 21
9.0
 12
0.0
 22
0.0
 32
0.0
 14
0.0
 24
0.0
 34
0.0
 15
12.0
 25
9.0
 35
0.0
146
0.0
 13
0.0
 23
0.0
 33
0.0
 16
1.0
 26
0.0
 36
0.0
 17
0.0
 27
1.0
 37
0.0
 76
     0
330
73
331
BB
1001
PROGE_PRINT_SETTINGS
1070
    73
1070
     1
  0
LAYOUT
  5
22
330
1A
100
AcDbPlotSettings
  1

  2
ProgeSOFT PDF Wizard
  4
A4
  6

 40
5.926666666666667
 41
6.011333333333317
 42
6.095999999999985
 43
5.926666666666667
 44
210.0
 45
297.0
 46
13.37559707263188
 47
-0.0000000000000068
 48
0.0
 49
0.0
140
0.0
141
0.0
142
1.0
143
3.163082330453716
 70
 11956
 72
     1
 73
     1
 74
     0
  7

 75
     0
147
0.316147319458662
148
-1672.680522039693
149
-1552.815996153959
100
AcDbLayout
  1
Model
 70
     1
 71
     0
 10
0.0
 20
0.0
 11
0.0
 21
0.0
 12
0.0
 22
0.0
 32
0.0
 14
1856.424111008437
 24
1674.880102832618
 34
0.0
 15
2227.913379257806
 25
1874.813830823884
 35
0.0
146
0.0
 13
0.0
 23
0.0
 33
0.0
 16
1.0
 26
0.0
 36
0.0
 17
0.0
 27
1.0
 37
0.0
 76
     0
330
1F
331
97
  0
MLINESTYLE
  5
18
102
{ACAD_REACTORS
330
17
102
}
330
17
100
AcDbMlineStyle
  2
STANDARD
 70
     0
  3

 62
   256
 51
90.0
 52
90.0
 71
     2
 49
0.5
 62
   256
  6
BYLAYER
 49
-0.5
 62
   256
  6
BYLAYER
  0
ACDBPLACEHOLDER
  5
F
102
{ACAD_REACTORS
330
E
102
}
330
E
  0
SCALE
  5
D5
102
{ACAD_REACTORS
330
99
102
}
330
99
100
AcDbScale
 70
     0
300
1:1
140
1.0
141
1.0
290
     1
  0
SCALE
  5
D6
102
{ACAD_REACTORS
330
99
102
}
330
99
100
AcDbScale
 70
     0
300
1:2
140
1.0
141
2.0
290
     0
  0
SCALE
  5
D7
102
{ACAD_REACTORS
330
99
102
}
330
99
100
AcDbScale
 70
     0
300
1:4
140
1.0
141
4.0
290
     0
  0
SCALE
  5
D8
102
{ACAD_REACTORS
330
99
102
}
330
99
100
AcDbScale
 70
     0
300
1:5
140
1.0
141
5.0
290
     0
  0
SCALE
  5
D9
102
{ACAD_REACTORS
330
99
102
}
330
99
100
AcDbScale
 70
     0
300
1:8
140
1.0
141
8.0
290
     0
  0
SCALE
  5
DA
102
{ACAD_REACTORS
330
99
102
}
330
99
100
AcDbScale
 70
     0
300
1:10
140
1.0
141
10.0
290
     0
  0
SCALE
  5
DB
102
{ACAD_REACTORS
330
99
102
}
330
99
100
AcDbScale
 70
     0
300
1:16
140
1.0
141
16.0
290
     0
  0
SCALE
  5
DC
102
{ACAD_REACTORS
330
99
102
}
330
99
100
AcDbScale
 70
     0
300
1:20
140
1.0
141
20.0
290
     0
  0
SCALE
  5
DD
102
{ACAD_REACTORS
330
99
102
}
330
99
100
AcDbScale
 70
     0
300
1:30
140
1.0
141
30.0
290
     0
  0
SCALE
  5
DE
102
{ACAD_REACTORS
330
99
102
}
330
99
100
AcDbScale
 70
     0
300
1:40
140
1.0
141
40.0
290
     0
  0
SCALE
  5
DF
102
{ACAD_REACTORS
330
99
102
}
330
99
100
AcDbScale
 70
     0
300
1:50
140
1.0
141
50.0
290
     0
  0
SCALE
  5
E0
102
{ACAD_REACTORS
330
99
102
}
330
99
100
AcDbScale
 70
     0
300
1:100
140
1.0
141
100.0
290
     0
  0
SCALE
  5
E1
102
{ACAD_REACTORS
330
99
102
}
330
99
100
AcDbScale
 70
     0
300
2:1
140
2.0
141
1.0
290
     0
  0
SCALE
  5
E2
102
{ACAD_REACTORS
330
99
102
}
330
99
100
AcDbScale
 70
     0
300
4:1
140
4.0
141
1.0
290
     0
  0
SCALE
  5
E3
102
{ACAD_REACTORS
330
99
102
}
330
99
100
AcDbScale
 70
     0
300
8:1
140
8.0
141
1.0
290
     0
  0
SCALE
  5
E4
102
{ACAD_REACTORS
330
99
102
}
330
99
100
AcDbScale
 70
     0
300
10:1
140
10.0
141
1.0
290
     0
  0
SCALE
  5
E5
102
{ACAD_REACTORS
330
99
102
}
330
99
100
AcDbScale
 70
     0
300
100:1
140
100.0
141
1.0
290
     0
  0
SCALE
  5
E6
102
{ACAD_REACTORS
330
99
102
}
330
99
100
AcDbScale
 70
     0
300
1/128" = 1'-0"
140
0.0078125
141
12.0
290
     0
  0
SCALE
  5
E7
102
{ACAD_REACTORS
330
99
102
}
330
99
100
AcDbScale
 70
     0
300
1/64" = 1'-0"
140
0.015625
141
12.0
290
     0
  0
SCALE
  5
E8
102
{ACAD_REACTORS
330
99
102
}
330
99
100
AcDbScale
 70
     0
300
1/32" = 1'-0"
140
0.03125
141
12.0
290
     0
  0
SCALE
  5
E9
102
{ACAD_REACTORS
330
99
102
}
330
99
100
AcDbScale
 70
     0
300
1/16" = 1'-0"
140
0.0625
141
12.0
290
     0
  0
SCALE
  5
EA
102
{ACAD_REACTORS
330
99
102
}
330
99
100
AcDbScale
 70
     0
300
3/32" = 1'-0"
140
0.09375
141
12.0
290
     0
  0
SCALE
  5
EB
102
{ACAD_REACTORS
330
99
102
}
330
99
100
AcDbScale
 70
     0
300
1/8" = 1'-0"
140
0.125
141
12.0
290
     0
  0
SCALE
  5
EC
102
{ACAD_REACTORS
330
99
102
}
330
99
100
AcDbScale
 70
     0
300
3/16" = 1'-0"
140
0.1875
141
12.0
290
     0
  0
SCALE
  5
ED
102
{ACAD_REACTORS
330
99
102
}
330
99
100
AcDbScale
 70
     0
300
1/4" = 1'-0"
140
0.25
141
12.0
290
     0
  0
SCALE
  5
EE
102
{ACAD_REACTORS
330
99
102
}
330
99
100
AcDbScale
 70
     0
300
3/8" = 1'-0"
140
0.375
141
12.0
290
     0
  0
SCALE
  5
EF
102
{ACAD_REACTORS
330
99
102
}
330
99
100
AcDbScale
 70
     0
300
1/2" = 1'-0"
140
0.5
141
12.0
290
     0
  0
SCALE
  5
F0
102
{ACAD_REACTORS
330
99
102
}
330
99
100
AcDbScale
 70
     0
300
3/4" = 1'-0"
140
0.75
141
12.0
290
     0
  0
SCALE
  5
F1
102
{ACAD_REACTORS
330
99
102
}
330
99
100
AcDbScale
 70
     0
300
1" = 1'-0"
140
1.0
141
12.0
290
     0
  0
SCALE
  5
F2
102
{ACAD_REACTORS
330
99
102
}
330
99
100
AcDbScale
 70
     0
300
1-1/2" = 1'-0"
140
1.5
141
12.0
290
     0
  0
SCALE
  5
F3
102
{ACAD_REACTORS
330
99
102
}
330
99
100
AcDbScale
 70
     0
300
3" = 1'-0"
140
3.0
141
12.0
290
     0
  0
SCALE
  5
F4
102
{ACAD_REACTORS
330
99
102
}
330
99
100
AcDbScale
 70
     0
300
6" = 1'-0"
140
6.0
141
12.0
290
     0
  0
SCALE
  5
F5
102
{ACAD_REACTORS
330
99
102
}
330
99
100
AcDbScale
 70
     0
300
1'-0" = 1'-0"
140
12.0
141
12.0
290
     0
  0
XRECORD
  5
3CE
102
{ACAD_REACTORS
330
3CD
102
}
330
3CD
100
AcDbXrecord
280
     1
340
6C
  0
XRECORD
  5
3CF
102
{ACAD_REACTORS
330
3CD
102
}
330
3CD
100
AcDbXrecord
280
     1
340
6B
  0
DICTIONARYVAR
  5
98
102
{ACAD_REACTORS
330
59
102
}
330
59
100
DictionaryVariables
280
     0
  1
Standard
  0
DICTIONARYVAR
  5
5A
102
{ACAD_REACTORS
330
59
102
}
330
59
100
DictionaryVariables
280
     0
  1
2
  0
DICTIONARYVAR
  5
5E
102
{ACAD_REACTORS
330
59
102
}
330
59
100
DictionaryVariables
280
     0
  1
1
  0
ENDSEC
  0
EOF
