  0
SECTION
  2
HEADER
  9
$ACADVER
  1
AC1015
  9
$ACADMAINTVER
 70
     6
  9
$DWGCODEPAGE
  3
ANSI_1252
  9
$INSBASE
 10
0.0
 20
0.0
 30
0.0
  9
$EXTMIN
 10
0.0
 20
0.0
 30
0.0
  9
$EXTMAX
 10
3182.325413138776
 20
2483.563760142623
 30
0.0
  9
$LIMMIN
 10
0.0
 20
0.0
  9
$LIMMAX
 10
0.0
 20
0.0
  9
$ORTHOMODE
 70
     0
  9
$REGENMODE
 70
     1
  9
$FILLMODE
 70
     1
  9
$QTEXTMODE
 70
     0
  9
$MIRRTEXT
 70
     0
  9
$LTSCALE
 40
1.0
  9
$ATTMODE
 70
     1
  9
$TEXTSIZE
 40
2.5
  9
$TRACEWID
 40
1.0
  9
$TEXTSTYLE
  7
Standard
  9
$CLAYER
  8
0
  9
$CELTYPE
  6
ByLayer
  9
$CECOLOR
 62
   256
  9
$CELTSCALE
 40
1.0
  9
$DISPSILH
 70
     0
  9
$DIMSCALE
 40
1.0
  9
$DIMASZ
 40
2.5
  9
$DIMEXO
 40
0.625
  9
$DIMDLI
 40
3.75
  9
$DIMRND
 40
0.0
  9
$DIMDLE
 40
0.0
  9
$DIMEXE
 40
1.25
  9
$DIMTP
 40
0.0
  9
$DIMTM
 40
0.0
  9
$DIMTXT
 40
2.5
  9
$DIMCEN
 40
2.5
  9
$DIMTSZ
 40
0.0
  9
$DIMTOL
 70
     0
  9
$DIMLIM
 70
     0
  9
$DIMTIH
 70
     0
  9
$DIMTOH
 70
     0
  9
$DIMSE1
 70
     0
  9
$DIMSE2
 70
     0
  9
$DIMTAD
 70
     1
  9
$DIMZIN
 70
     8
  9
$DIMBLK
  1

  9
$DIMASO
 70
     1
  9
$DIMSHO
 70
     1
  9
$DIMPOST
  1

  9
$DIMAPOST
  1

  9
$DIMALT
 70
     0
  9
$DIMALTD
 70
     3
  9
$DIMALTF
 40
0.03937007874016
  9
$DIMLFAC
 40
1.0
  9
$DIMTOFL
 70
     1
  9
$DIMTVP
 40
0.0
  9
$DIMTIX
 70
     0
  9
$DIMSOXD
 70
     0
  9
$DIMSAH
 70
     0
  9
$DIMBLK1
  1

  9
$DIMBLK2
  1

  9
$DIMSTYLE
  2
ISO-25
  9
$DIMCLRD
 70
     0
  9
$DIMCLRE
 70
     0
  9
$DIMCLRT
 70
     0
  9
$DIMTFAC
 40
1.0
  9
$DIMGAP
 40
0.625
  9
$DIMJUST
 70
     0
  9
$DIMSD1
 70
     0
  9
$DIMSD2
 70
     0
  9
$DIMTOLJ
 70
     0
  9
$DIMTZIN
 70
     8
  9
$DIMALTZ
 70
     0
  9
$DIMALTTZ
 70
     0
  9
$DIMUPT
 70
     0
  9
$DIMDEC
 70
     2
  9
$DIMTDEC
 70
     2
  9
$DIMALTU
 70
     2
  9
$DIMALTTD
 70
     3
  9
$DIMTXSTY
  7
Standard
  9
$DIMAUNIT
 70
     0
  9
$DIMADEC
 70
     0
  9
$DIMALTRND
 40
0.0
  9
$DIMAZIN
 70
     0
  9
$DIMDSEP
 70
    44
  9
$DIMATFIT
 70
     3
  9
$DIMFRAC
 70
     0
  9
$DIMLDRBLK
  1

  9
$DIMLUNIT
 70
     2
  9
$DIMLWD
 70
    -2
  9
$DIMLWE
 70
    -2
  9
$DIMTMOVE
 70
     0
  9
$LUNITS
 70
     2
  9
$LUPREC
 70
     4
  9
$SKETCHINC
 40
1.0
  9
$FILLETRAD
 40
0.0
  9
$AUNITS
 70
     0
  9
$AUPREC
 70
     0
  9
$MENU
  1
.
  9
$ELEVATION
 40
0.0
  9
$PELEVATION
 40
0.0
  9
$THICKNESS
 40
0.0
  9
$LIMCHECK
 70
     0
  9
$CHAMFERA
 40
0.0
  9
$CHAMFERB
 40
0.0
  9
$CHAMFERC
 40
0.0
  9
$CHAMFERD
 40
0.0
  9
$SKPOLY
 70
     0
  9
$TDCREATE
 40
2455091.594230417
  9
$TDUCREATE
 40
2455091.510897083
  9
$TDUPDATE
 40
2455091.635897083
  9
$TDUUPDATE
 40
2455091.55256375
  9
$TDINDWG
 40
0.0364284722
  9
$TDUSRTIMER
 40
0.0364260995
  9
$USRTIMER
 70
     1
  9
$ANGBASE
 50
0.0
  9
$ANGDIR
 70
     0
  9
$PDMODE
 70
     0
  9
$PDSIZE
 40
0.0
  9
$PLINEWID
 40
0.0
  9
$SPLFRAME
 70
     0
  9
$SPLINETYPE
 70
     6
  9
$SPLINESEGS
 70
     8
  9
$HANDSEED
  5
2E2
  9
$SURFTAB1
 70
     6
  9
$SURFTAB2
 70
     6
  9
$SURFTYPE
 70
     6
  9
$SURFU
 70
     6
  9
$SURFV
 70
     6
  9
$UCSBASE
  2

  9
$UCSNAME
  2

  9
$UCSORG
 10
0.0
 20
0.0
 30
0.0
  9
$UCSXDIR
 10
1.0
 20
0.0
 30
0.0
  9
$UCSYDIR
 10
0.0
 20
1.0
 30
0.0
  9
$UCSORTHOREF
  2

  9
$UCSORTHOVIEW
 70
     0
  9
$UCSORGTOP
 10
0.0
 20
0.0
 30
0.0
  9
$UCSORGBOTTOM
 10
0.0
 20
0.0
 30
0.0
  9
$UCSORGLEFT
 10
0.0
 20
0.0
 30
0.0
  9
$UCSORGRIGHT
 10
0.0
 20
0.0
 30
0.0
  9
$UCSORGFRONT
 10
0.0
 20
0.0
 30
0.0
  9
$UCSORGBACK
 10
0.0
 20
0.0
 30
0.0
  9
$PUCSBASE
  2

  9
$PUCSNAME
  2

  9
$PUCSORG
 10
0.0
 20
0.0
 30
0.0
  9
$PUCSXDIR
 10
1.0
 20
0.0
 30
0.0
  9
$PUCSYDIR
 10
0.0
 20
1.0
 30
0.0
  9
$PUCSORTHOREF
  2

  9
$PUCSORTHOVIEW
 70
     0
  9
$PUCSORGTOP
 10
0.0
 20
0.0
 30
0.0
  9
$PUCSORGBOTTOM
 10
0.0
 20
0.0
 30
0.0
  9
$PUCSORGLEFT
 10
0.0
 20
0.0
 30
0.0
  9
$PUCSORGRIGHT
 10
0.0
 20
0.0
 30
0.0
  9
$PUCSORGFRONT
 10
0.0
 20
0.0
 30
0.0
  9
$PUCSORGBACK
 10
0.0
 20
0.0
 30
0.0
  9
$USERI1
 70
     0
  9
$USERI2
 70
     0
  9
$USERI3
 70
     0
  9
$USERI4
 70
     0
  9
$USERI5
 70
     0
  9
$USERR1
 40
0.0
  9
$USERR2
 40
0.0
  9
$USERR3
 40
0.0
  9
$USERR4
 40
0.0
  9
$USERR5
 40
0.0
  9
$WORLDVIEW
 70
     1
  9
$SHADEDGE
 70
     3
  9
$SHADEDIF
 70
    70
  9
$TILEMODE
 70
     1
  9
$MAXACTVP
 70
    64
  9
$PINSBASE
 10
0.0
 20
0.0
 30
0.0
  9
$PLIMCHECK
 70
     0
  9
$PEXTMIN
 10
0.0
 20
0.0
 30
0.0
  9
$PEXTMAX
 10
12.0
 20
9.0
 30
0.0
  9
$PLIMMIN
 10
0.0
 20
0.0
  9
$PLIMMAX
 10
12.0
 20
9.0
  9
$UNITMODE
 70
     0
  9
$VISRETAIN
 70
     1
  9
$PLINEGEN
 70
     0
  9
$PSLTSCALE
 70
     1
  9
$TREEDEPTH
 70
  3020
  9
$CMLSTYLE
  2
Standard
  9
$CMLJUST
 70
     0
  9
$CMLSCALE
 40
20.0
  9
$PROXYGRAPHICS
 70
     1
  9
$MEASUREMENT
 70
     1
  9
$CELWEIGHT
370
    -1
  9
$ENDCAPS
280
     0
  9
$JOINSTYLE
280
     0
  9
$LWDISPLAY
290
     0
  9
$INSUNITS
 70
     4
  9
$HYPERLINKBASE
  1

  9
$STYLESHEET
  1

  9
$XEDIT
290
     1
  9
$CEPSNTYPE
380
     0
  9
$PSTYLEMODE
290
     1
  9
$FINGERPRINTGUID
  2
{5559452E-1E62-4159-8551-BF76FFF3E7E8}
  9
$VERSIONGUID
  2
{3CEB9EF8-4431-4551-B596-6734A9F966A9}
  9
$EXTNAMES
290
     1
  9
$PSVPSCALE
 40
0.0
  9
$OLESTARTUP
290
     0
  0
ENDSEC
  0
SECTION
  2
CLASSES
  0
CLASS
  1
ACDBDICTIONARYWDFLT
  2
AcDbDictionaryWithDefault
  3
ObjectDBX Classes
 90
        0
280
     0
281
     0
  0
CLASS
  1
ACDBPLACEHOLDER
  2
AcDbPlaceHolder
  3
ObjectDBX Classes
 90
        0
280
     0
281
     0
  0
CLASS
  1
LAYOUT
  2
AcDbLayout
  3
ObjectDBX Classes
 90
        0
280
     0
281
     0
  0
CLASS
  1
DICTIONARYVAR
  2
AcDbDictionaryVar
  3
ObjectDBX Classes
 90
        0
280
     0
281
     0
  0
CLASS
  1
TABLESTYLE
  2
AcDbTableStyle
  3
ObjectDBX Classes
 90
     4095
280
     0
281
     0
  0
CLASS
  1
SCALE
  2
AcDbScale
  3
ObjectDBX Classes
 90
     1153
280
     0
281
     0
  0
ENDSEC
  0
SECTION
  2
TABLES
  0
TABLE
  2
VPORT
  5
8
330
0
100
AcDbSymbolTable
 70
     2
  0
VPORT
  5
97
330
8
100
AcDbSymbolTableRecord
100
AcDbViewportTableRecord
  2
*Active
 70
     0
 10
0.0
 20
0.0
 11
1.0
 21
1.0
 12
2862.225349616886
 22
2253.631204239887
 13
0.0
 23
0.0
 14
10.0
 24
10.0
 15
10.0
 25
10.0
 16
0.0
 26
0.0
 36
1.0
 17
0.0
 27
0.0
 37
0.0
 40
493.0482674857915
 41
1.664827586206897
 42
50.0
 43
0.0
 44
0.0
 50
0.0
 51
0.0
 71
     0
 72
  1000
 73
     1
 74
     3
 75
     0
 76
     0
 77
     0
 78
     0
281
     0
 65
     1
110
0.0
120
0.0
130
0.0
111
1.0
121
0.0
131
0.0
112
0.0
122
1.0
132
0.0
 79
     0
146
0.0
  0
ENDTAB
  0
TABLE
  2
LTYPE
  5
5
330
0
100
AcDbSymbolTable
 70
     3
  0
LTYPE
  5
14
330
5
100
AcDbSymbolTableRecord
100
AcDbLinetypeTableRecord
  2
ByBlock
 70
     0
  3

 72
    65
 73
     0
 40
0.0
  0
LTYPE
  5
15
330
5
100
AcDbSymbolTableRecord
100
AcDbLinetypeTableRecord
  2
ByLayer
 70
     0
  3

 72
    65
 73
     0
 40
0.0
  0
LTYPE
  5
16
330
5
100
AcDbSymbolTableRecord
100
AcDbLinetypeTableRecord
  2
Continuous
 70
     0
  3
Solid line
 72
    65
 73
     0
 40
0.0
  0
LTYPE
  5
2B2
330
5
100
AcDbSymbolTableRecord
100
AcDbLinetypeTableRecord
  2
TRATTO-PUNTO
 70
     0
  3
__ . __ . __ . __ . __ . __ . __ . __ . __ . __
 72
    65
 73
     4
 40
1.0
 49
0.5
 74
     0
 49
-0.25
 74
     0
 49
0.0
 74
     0
 49
-0.25
 74
     0
  0
LTYPE
  5
2B3
330
5
100
AcDbSymbolTableRecord
100
AcDbLinetypeTableRecord
  2
BORDER
 70
     0
  3
Border __ __ . __ __ . __ __ . __ __ . __ __ .
 72
    65
 73
     6
 40
44.45
 49
12.7
 74
     0
 49
-6.35
 74
     0
 49
12.7
 74
     0
 49
-6.35
 74
     0
 49
0.0
 74
     0
 49
-6.35
 74
     0
  0
ENDTAB
  0
TABLE
  2
LAYER
  5
2
330
0
100
AcDbSymbolTable
 70
     2
  0
LAYER
  5
10
330
2
100
AcDbSymbolTableRecord
100
AcDbLayerTableRecord
  2
0
 70
     0
 62
     7
  6
Continuous
370
    -3
390
F
  0
LAYER
  5
FA
330
2
100
AcDbSymbolTableRecord
100
AcDbLayerTableRecord
  2
DEFPOINTS
 70
     0
 62
     7
  6
Continuous
290
     0
370
    -3
390
F
  0
ENDTAB
  0
TABLE
  2
STYLE
  5
3
330
0
100
AcDbSymbolTable
 70
     2
  0
STYLE
  5
11
330
3
100
AcDbSymbolTableRecord
100
AcDbTextStyleTableRecord
  2
Standard
 70
     0
 40
0.0
 41
1.0
 50
0.0
 71
     0
 42
2.5
  3
txt
  4

  0
STYLE
  5
F8
330
3
100
AcDbSymbolTableRecord
100
AcDbTextStyleTableRecord
  2
H
 70
     0
 40
1.75
 41
1.0
 50
0.0
 71
     0
 42
1.75
  3
swiss.ttf
  4

1001
ACAD
1000
Swis721 BT
1071
       34
  0
ENDTAB
  0
TABLE
  2
VIEW
  5
6
330
0
100
AcDbSymbolTable
 70
     0
  0
ENDTAB
  0
TABLE
  2
UCS
  5
7
330
0
100
AcDbSymbolTable
 70
     0
  0
ENDTAB
  0
TABLE
  2
APPID
  5
9
330
0
100
AcDbSymbolTable
 70
     2
  0
APPID
  5
12
330
9
100
AcDbSymbolTableRecord
100
AcDbRegAppTableRecord
  2
ACAD
 70
     0
  0
APPID
  5
2B1
330
9
100
AcDbSymbolTableRecord
100
AcDbRegAppTableRecord
  2
PROGE_PRINT_SETTINGS
 70
     0
  0
ENDTAB
  0
TABLE
  2
DIMSTYLE
  5
A
330
0
100
AcDbSymbolTable
 70
     3
100
AcDbDimStyleTable
  0
DIMSTYLE
105
27
330
A
100
AcDbSymbolTableRecord
100
AcDbDimStyleTableRecord
  2
Standard
 70
     0
278
     0
340
11
  0
DIMSTYLE
105
29
102
{ACAD_REACTORS
330
256
330
283
102
}
330
A
100
AcDbSymbolTableRecord
100
AcDbDimStyleTableRecord
  2
ISO-25
 70
     0
 41
2.5
 42
0.625
 43
3.75
 44
1.25
 73
     0
 74
     0
 77
     1
 78
     8
140
2.5
141
2.5
143
0.03937007874016
147
0.625
171
     3
172
     1
271
     2
272
     2
274
     3
278
    44
283
     0
284
     8
340
11
  0
DIMSTYLE
105
FB
102
{ACAD_REACTORS
330
FE
102
}
330
A
100
AcDbSymbolTableRecord
100
AcDbDimStyleTableRecord
  2
GEWISS
 70
     0
 41
1.7
 42
1.0
 43
7.0
 44
0.3
 73
     0
 74
     0
 77
     1
140
1.75
141
1.5
147
0.75
172
     1
176
     1
177
     1
340
F8
  0
ENDTAB
  0
TABLE
  2
BLOCK_RECORD
  5
1
330
0
100
AcDbSymbolTable
 70
    19
  0
BLOCK_RECORD
  5
1F
330
1
100
AcDbSymbolTableRecord
100
AcDbBlockTableRecord
  2
*Model_Space
340
22
  0
BLOCK_RECORD
  5
73
330
1
100
AcDbSymbolTableRecord
100
AcDbBlockTableRecord
  2
*Paper_Space
340
2B5
  0
BLOCK_RECORD
  5
D1
330
1
100
AcDbSymbolTableRecord
100
AcDbBlockTableRecord
  2
*Paper_Space0
340
74
  0
BLOCK_RECORD
  5
106
330
1
100
AcDbSymbolTableRecord
100
AcDbBlockTableRecord
  2
*D1
340
0
  0
BLOCK_RECORD
  5
111
330
1
100
AcDbSymbolTableRecord
100
AcDbBlockTableRecord
  2
*D2
340
0
  0
BLOCK_RECORD
  5
11C
330
1
100
AcDbSymbolTableRecord
100
AcDbBlockTableRecord
  2
*D3
340
0
  0
BLOCK_RECORD
  5
127
330
1
100
AcDbSymbolTableRecord
100
AcDbBlockTableRecord
  2
*D4
340
0
  0
BLOCK_RECORD
  5
132
330
1
100
AcDbSymbolTableRecord
100
AcDbBlockTableRecord
  2
*D5
340
0
  0
BLOCK_RECORD
  5
13D
330
1
100
AcDbSymbolTableRecord
100
AcDbBlockTableRecord
  2
*D6
340
0
  0
BLOCK_RECORD
  5
1C3
330
1
100
AcDbSymbolTableRecord
100
AcDbBlockTableRecord
  2
*D7
340
0
  0
BLOCK_RECORD
  5
1D5
330
1
100
AcDbSymbolTableRecord
100
AcDbBlockTableRecord
  2
*D8
340
0
  0
BLOCK_RECORD
  5
248
330
1
100
AcDbSymbolTableRecord
100
AcDbBlockTableRecord
  2
*D9
340
0
  0
BLOCK_RECORD
  5
254
330
1
100
AcDbSymbolTableRecord
100
AcDbBlockTableRecord
  2
*D10
340
0
  0
BLOCK_RECORD
  5
261
330
1
100
AcDbSymbolTableRecord
100
AcDbBlockTableRecord
  2
*D11
340
0
  0
BLOCK_RECORD
  5
26C
330
1
100
AcDbSymbolTableRecord
100
AcDbBlockTableRecord
  2
*D12
340
0
  0
BLOCK_RECORD
  5
277
330
1
100
AcDbSymbolTableRecord
100
AcDbBlockTableRecord
  2
*D13
340
0
  0
BLOCK_RECORD
  5
282
330
1
100
AcDbSymbolTableRecord
100
AcDbBlockTableRecord
  2
*D14
340
0
  0
BLOCK_RECORD
  5
28E
330
1
100
AcDbSymbolTableRecord
100
AcDbBlockTableRecord
  2
*D15
340
0
  0
BLOCK_RECORD
  5
299
330
1
100
AcDbSymbolTableRecord
100
AcDbBlockTableRecord
  2
*D16
340
0
  0
BLOCK_RECORD
  5
2A4
330
1
100
AcDbSymbolTableRecord
100
AcDbBlockTableRecord
  2
*D17
340
0
  0
BLOCK_RECORD
  5
2AF
330
1
100
AcDbSymbolTableRecord
100
AcDbBlockTableRecord
  2
*D18
340
0
  0
ENDTAB
  0
ENDSEC
  0
SECTION
  2
BLOCKS
  0
BLOCK
  5
20
330
1F
100
AcDbEntity
  8
0
100
AcDbBlockBegin
  2
*Model_Space
 70
     0
 10
0.0
 20
0.0
 30
0.0
  3
*Model_Space
  1

  0
ENDBLK
  5
21
330
1F
100
AcDbEntity
  8
0
100
AcDbBlockEnd
  0
BLOCK
  5
75
330
73
100
AcDbEntity
 67
     1
  8
0
100
AcDbBlockBegin
  2
*Paper_Space
 70
     0
 10
0.0
 20
0.0
 30
0.0
  3
*Paper_Space
  1

  0
ENDBLK
  5
76
330
73
100
AcDbEntity
 67
     1
  8
0
100
AcDbBlockEnd
  0
BLOCK
  5
2B6
330
D1
100
AcDbEntity
  8
0
100
AcDbBlockBegin
  2
*Paper_Space0
 70
     0
 10
0.0
 20
0.0
 30
0.0
  3
*Paper_Space0
  1

  0
VIEWPORT
  5
2DC
330
D1
100
AcDbEntity
  8
0
100
AcDbViewport
 10
7.8
 20
4.5
 30
0.0
 40
15.64
 41
9.0
 68
     1
 69
     1
 12
6.0
 22
4.5
 13
0.0
 23
0.0
 14
0.5
 24
0.5
 15
0.5
 25
0.5
 16
0.0
 26
0.0
 36
1.0
 17
0.0
 27
0.0
 37
0.0
 42
50.0
 43
0.0
 44
0.0
 45
12.0
 50
0.0
 51
0.0
 72
   100
 90
   557152
  1

281
     0
 71
     1
 74
     0
110
0.0
120
0.0
130
0.0
111
1.0
121
0.0
131
0.0
112
0.0
122
1.0
132
0.0
 79
     0
146
0.0
  0
ENDBLK
  5
2B7
330
D1
100
AcDbEntity
  8
0
100
AcDbBlockEnd
  0
BLOCK
  5
2B8
330
106
100
AcDbEntity
  8
0
100
AcDbBlockBegin
  2
*D1
 70
     1
 10
0.0
 20
0.0
 30
0.0
  3
*D1
  1

  0
POINT
  5
FD
330
106
100
AcDbEntity
  8
DEFPOINTS
  6
ByBlock
 62
     1
100
AcDbPoint
 10
111.433009
 20
57.095172
 30
0.0
  0
POINT
  5
FE
330
106
100
AcDbEntity
  8
DEFPOINTS
  6
ByBlock
 62
     1
100
AcDbPoint
 10
111.433009
 20
32.596312
 30
0.0
  0
LINE
  5
FF
330
106
100
AcDbEntity
  8
0
  6
ByBlock
 62
     1
370
    -2
100
AcDbLine
 10
112.433009
 20
57.095172
 30
0.0
 11
123.61541
 21
57.095172
 31
0.0
  0
LINE
  5
100
330
106
100
AcDbEntity
  8
0
  6
ByBlock
 62
     1
370
    -2
100
AcDbLine
 10
112.433009
 20
32.596312
 30
0.0
 11
123.61541
 21
32.596312
 31
0.0
  0
LINE
  5
101
330
106
100
AcDbEntity
  8
0
  6
ByBlock
 62
     1
370
    -2
100
AcDbLine
 10
123.31541
 20
55.395172
 30
0.0
 11
123.31541
 21
34.296312
 31
0.0
  0
SOLID
  5
102
330
106
100
AcDbEntity
  8
0
  6
ByBlock
 62
     1
100
AcDbTrace
 10
123.31541
 20
57.095172
 30
0.0
 11
123.0320766666667
 21
55.395172
 31
0.0
 12
123.5987433333333
 22
55.395172
 32
0.0
 13
123.5987433333333
 23
55.395172
 33
0.0
  0
SOLID
  5
103
330
106
100
AcDbEntity
  8
0
  6
ByBlock
 62
     1
100
AcDbTrace
 10
123.31541
 20
32.596312
 30
0.0
 11
123.0320766666667
 21
34.296312
 31
0.0
 12
123.5987433333333
 22
34.296312
 32
0.0
 13
123.5987433333333
 23
34.296312
 33
0.0
  0
MTEXT
  5
104
330
106
100
AcDbEntity
  8
0
  6
ByBlock
 62
     0
370
    -2
100
AcDbMText
 10
121.6713104092769
 20
44.845742
 30
0.0
 40
1.75
 41
0.0
 71
     5
 72
     1
  1
300
  7
H
 11
6.123031769111886E-17
 21
1.0
 31
0.0
 73
     1
 44
1.0
  0
ENDBLK
  5
2B9
330
106
100
AcDbEntity
  8
0
100
AcDbBlockEnd
  0
BLOCK
  5
2BA
330
111
100
AcDbEntity
  8
0
100
AcDbBlockBegin
  2
*D2
 70
     1
 10
0.0
 20
0.0
 30
0.0
  3
*D2
  1

  0
POINT
  5
108
330
111
100
AcDbEntity
  8
DEFPOINTS
  6
ByBlock
 62
     1
100
AcDbPoint
 10
118.786275
 20
50.592947
 30
0.0
  0
POINT
  5
109
330
111
100
AcDbEntity
  8
DEFPOINTS
  6
ByBlock
 62
     1
100
AcDbPoint
 10
90.770049
 20
50.592947
 30
0.0
  0
LINE
  5
10A
330
111
100
AcDbEntity
  8
0
  6
ByBlock
 62
     1
370
    -2
100
AcDbLine
 10
118.786275
 20
51.592947
 30
0.0
 11
118.786275
 21
61.89850300000001
 31
0.0
  0
LINE
  5
10B
330
111
100
AcDbEntity
  8
0
  6
ByBlock
 62
     1
370
    -2
100
AcDbLine
 10
90.770049
 20
51.592947
 30
0.0
 11
90.770049
 21
61.89850300000001
 31
0.0
  0
LINE
  5
10C
330
111
100
AcDbEntity
  8
0
  6
ByBlock
 62
     1
370
    -2
100
AcDbLine
 10
117.086275
 20
61.598503
 30
0.0
 11
92.470049
 21
61.598503
 31
0.0
  0
SOLID
  5
10D
330
111
100
AcDbEntity
  8
0
  6
ByBlock
 62
     1
100
AcDbTrace
 10
118.786275
 20
61.598503
 30
0.0
 11
117.086275
 21
61.88183633333333
 31
0.0
 12
117.086275
 22
61.31516966666667
 32
0.0
 13
117.086275
 23
61.31516966666667
 33
0.0
  0
SOLID
  5
10E
330
111
100
AcDbEntity
  8
0
  6
ByBlock
 62
     1
100
AcDbTrace
 10
90.770049
 20
61.598503
 30
0.0
 11
92.470049
 21
61.88183633333333
 31
0.0
 12
92.470049
 22
61.31516966666667
 32
0.0
 13
92.470049
 23
61.31516966666667
 33
0.0
  0
MTEXT
  5
10F
330
111
100
AcDbEntity
  8
0
  6
ByBlock
 62
     0
370
    -2
100
AcDbMText
 10
104.778162
 20
63.24260259072305
 30
0.0
 40
1.75
 41
0.0
 71
     5
 72
     1
  1
340
  7
H
 73
     1
 44
1.0
  0
ENDBLK
  5
2BB
330
111
100
AcDbEntity
  8
0
100
AcDbBlockEnd
  0
BLOCK
  5
2BC
330
11C
100
AcDbEntity
  8
0
100
AcDbBlockBegin
  2
*D3
 70
     1
 10
0.0
 20
0.0
 30
0.0
  3
*D3
  1

  0
POINT
  5
113
330
11C
100
AcDbEntity
  8
DEFPOINTS
  6
ByBlock
 62
     1
100
AcDbPoint
 10
244.4464380238271
 20
193.9511172660944
 30
0.0
  0
POINT
  5
114
330
11C
100
AcDbEntity
  8
DEFPOINTS
  6
ByBlock
 62
     1
100
AcDbPoint
 10
244.4464380238271
 20
169.4522572660944
 30
0.0
  0
LINE
  5
115
330
11C
100
AcDbEntity
  8
0
  6
ByBlock
 62
     1
370
    -2
100
AcDbLine
 10
245.4464380238271
 20
193.9511172660944
 30
0.0
 11
256.6288390238271
 21
193.9511172660944
 31
0.0
  0
LINE
  5
116
330
11C
100
AcDbEntity
  8
0
  6
ByBlock
 62
     1
370
    -2
100
AcDbLine
 10
245.4464380238271
 20
169.4522572660944
 30
0.0
 11
256.6288390238271
 21
169.4522572660944
 31
0.0
  0
LINE
  5
117
330
11C
100
AcDbEntity
  8
0
  6
ByBlock
 62
     1
370
    -2
100
AcDbLine
 10
256.3288390238271
 20
192.2511172660944
 30
0.0
 11
256.3288390238271
 21
171.1522572660944
 31
0.0
  0
SOLID
  5
118
330
11C
100
AcDbEntity
  8
0
  6
ByBlock
 62
     1
100
AcDbTrace
 10
256.3288390238271
 20
193.9511172660944
 30
0.0
 11
256.0455056904938
 21
192.2511172660944
 31
0.0
 12
256.6121723571605
 22
192.2511172660944
 32
0.0
 13
256.6121723571605
 23
192.2511172660944
 33
0.0
  0
SOLID
  5
119
330
11C
100
AcDbEntity
  8
0
  6
ByBlock
 62
     1
100
AcDbTrace
 10
256.3288390238271
 20
169.4522572660944
 30
0.0
 11
256.0455056904938
 21
171.1522572660944
 31
0.0
 12
256.6121723571605
 22
171.1522572660944
 32
0.0
 13
256.6121723571605
 23
171.1522572660944
 33
0.0
  0
MTEXT
  5
11A
330
11C
100
AcDbEntity
  8
0
  6
ByBlock
 62
     0
370
    -2
100
AcDbMText
 10
254.6847394331041
 20
181.7016872660944
 30
0.0
 40
1.75
 41
0.0
 71
     5
 72
     1
  1
300
  7
H
 11
6.123031769111886E-17
 21
1.0
 31
0.0
 73
     1
 44
1.0
  0
ENDBLK
  5
2BD
330
11C
100
AcDbEntity
  8
0
100
AcDbBlockEnd
  0
BLOCK
  5
2BE
330
127
100
AcDbEntity
  8
0
100
AcDbBlockBegin
  2
*D4
 70
     1
 10
0.0
 20
0.0
 30
0.0
  3
*D4
  1

  0
POINT
  5
11E
330
127
100
AcDbEntity
  8
DEFPOINTS
  6
ByBlock
 62
     1
100
AcDbPoint
 10
251.7997040238271
 20
187.4488922660944
 30
0.0
  0
POINT
  5
11F
330
127
100
AcDbEntity
  8
DEFPOINTS
  6
ByBlock
 62
     1
100
AcDbPoint
 10
223.7834780238271
 20
187.4488922660944
 30
0.0
  0
LINE
  5
120
330
127
100
AcDbEntity
  8
0
  6
ByBlock
 62
     1
370
    -2
100
AcDbLine
 10
251.7997040238271
 20
188.4488922660944
 30
0.0
 11
251.7997040238271
 21
198.7544482660944
 31
0.0
  0
LINE
  5
121
330
127
100
AcDbEntity
  8
0
  6
ByBlock
 62
     1
370
    -2
100
AcDbLine
 10
223.7834780238271
 20
188.4488922660944
 30
0.0
 11
223.7834780238271
 21
198.7544482660944
 31
0.0
  0
LINE
  5
122
330
127
100
AcDbEntity
  8
0
  6
ByBlock
 62
     1
370
    -2
100
AcDbLine
 10
250.0997040238271
 20
198.4544482660944
 30
0.0
 11
225.4834780238271
 21
198.4544482660944
 31
0.0
  0
SOLID
  5
123
330
127
100
AcDbEntity
  8
0
  6
ByBlock
 62
     1
100
AcDbTrace
 10
251.7997040238271
 20
198.4544482660944
 30
0.0
 11
250.0997040238271
 21
198.7377815994277
 31
0.0
 12
250.0997040238271
 22
198.1711149327611
 32
0.0
 13
250.0997040238271
 23
198.1711149327611
 33
0.0
  0
SOLID
  5
124
330
127
100
AcDbEntity
  8
0
  6
ByBlock
 62
     1
100
AcDbTrace
 10
223.7834780238271
 20
198.4544482660944
 30
0.0
 11
225.4834780238271
 21
198.7377815994277
 31
0.0
 12
225.4834780238271
 22
198.1711149327611
 32
0.0
 13
225.4834780238271
 23
198.1711149327611
 33
0.0
  0
MTEXT
  5
125
330
127
100
AcDbEntity
  8
0
  6
ByBlock
 62
     0
370
    -2
100
AcDbMText
 10
237.7915910238272
 20
200.0985478568174
 30
0.0
 40
1.75
 41
0.0
 71
     5
 72
     1
  1
340
  7
H
 73
     1
 44
1.0
  0
ENDBLK
  5
2BF
330
127
100
AcDbEntity
  8
0
100
AcDbBlockEnd
  0
BLOCK
  5
2C0
330
132
100
AcDbEntity
  8
0
100
AcDbBlockBegin
  2
*D5
 70
     1
 10
0.0
 20
0.0
 30
0.0
  3
*D5
  1

  0
POINT
  5
129
330
132
100
AcDbEntity
  8
DEFPOINTS
  6
ByBlock
 62
     0
100
AcDbPoint
 10
223.7834780238271
 20
182.7377372287961
 30
0.0
  0
POINT
  5
12A
330
132
100
AcDbEntity
  8
DEFPOINTS
  6
ByBlock
 62
     0
100
AcDbPoint
 10
251.7997040238271
 20
182.7377372287961
 30
0.0
  0
LINE
  5
12B
330
132
100
AcDbEntity
  8
0
  6
ByBlock
 62
     0
370
    -2
100
AcDbLine
 10
223.7834780238271
 20
183.3627372287961
 30
0.0
 11
223.7834780238271
 21
203.7851038780191
 31
0.0
  0
LINE
  5
12C
330
132
100
AcDbEntity
  8
0
  6
ByBlock
 62
     0
370
    -2
100
AcDbLine
 10
251.7997040238271
 20
183.3627372287961
 30
0.0
 11
251.7997040238271
 21
203.7851038780191
 31
0.0
  0
LINE
  5
12D
330
132
100
AcDbEntity
  8
0
  6
ByBlock
 62
     0
370
    -2
100
AcDbLine
 10
226.2834780238271
 20
202.5351038780191
 30
0.0
 11
249.2997040238271
 21
202.5351038780191
 31
0.0
  0
SOLID
  5
12E
330
132
100
AcDbEntity
  8
0
  6
ByBlock
 62
     0
100
AcDbTrace
 10
223.7834780238271
 20
202.5351038780191
 30
0.0
 11
226.2834780238271
 21
202.1184372113525
 31
0.0
 12
226.2834780238271
 22
202.9517705446858
 32
0.0
 13
226.2834780238271
 23
202.9517705446858
 33
0.0
  0
SOLID
  5
12F
330
132
100
AcDbEntity
  8
0
  6
ByBlock
 62
     0
100
AcDbTrace
 10
251.7997040238271
 20
202.5351038780191
 30
0.0
 11
249.2997040238271
 21
202.1184372113525
 31
0.0
 12
249.2997040238271
 22
202.9517705446858
 32
0.0
 13
249.2997040238271
 23
202.9517705446858
 33
0.0
  0
MTEXT
  5
130
330
132
100
AcDbEntity
  8
0
  6
ByBlock
 62
     0
370
    -2
100
AcDbMText
 10
237.7915910238272
 20
204.6184372113524
 30
0.0
 40
2.5
 41
0.0
 71
     5
 72
     1
  1
\A1;28,02
 73
     1
 44
1.0
  0
ENDBLK
  5
2C1
330
132
100
AcDbEntity
  8
0
100
AcDbBlockEnd
  0
BLOCK
  5
2C2
330
13D
100
AcDbEntity
  8
0
100
AcDbBlockBegin
  2
*D6
 70
     1
 10
0.0
 20
0.0
 30
0.0
  3
*D6
  1

  0
POINT
  5
134
330
13D
100
AcDbEntity
  8
DEFPOINTS
  6
ByBlock
 62
     0
100
AcDbPoint
 10
241.9552435722505
 20
193.9511172660944
 30
0.0
  0
POINT
  5
135
330
13D
100
AcDbEntity
  8
DEFPOINTS
  6
ByBlock
 62
     0
100
AcDbPoint
 10
242.5920009790968
 20
169.4522572660944
 30
0.0
  0
LINE
  5
136
330
13D
100
AcDbEntity
  8
0
  6
ByBlock
 62
     0
370
    -2
100
AcDbLine
 10
242.5802435722505
 20
193.9511172660944
 30
0.0
 11
263.4078194803758
 21
193.9511172660944
 31
0.0
  0
LINE
  5
137
330
13D
100
AcDbEntity
  8
0
  6
ByBlock
 62
     0
370
    -2
100
AcDbLine
 10
243.2170009790968
 20
169.4522572660944
 30
0.0
 11
263.4078194803758
 21
169.4522572660944
 31
0.0
  0
LINE
  5
138
330
13D
100
AcDbEntity
  8
0
  6
ByBlock
 62
     0
370
    -2
100
AcDbLine
 10
262.1578194803758
 20
191.4511172660944
 30
0.0
 11
262.1578194803758
 21
171.9522572660944
 31
0.0
  0
SOLID
  5
139
330
13D
100
AcDbEntity
  8
0
  6
ByBlock
 62
     0
100
AcDbTrace
 10
262.1578194803758
 20
193.9511172660944
 30
0.0
 11
261.7411528137091
 21
191.4511172660944
 31
0.0
 12
262.5744861470425
 22
191.4511172660944
 32
0.0
 13
262.5744861470425
 23
191.4511172660944
 33
0.0
  0
SOLID
  5
13A
330
13D
100
AcDbEntity
  8
0
  6
ByBlock
 62
     0
100
AcDbTrace
 10
262.1578194803758
 20
169.4522572660944
 30
0.0
 11
261.7411528137091
 21
171.9522572660944
 31
0.0
 12
262.5744861470425
 22
171.9522572660944
 32
0.0
 13
262.5744861470425
 23
171.9522572660944
 33
0.0
  0
MTEXT
  5
13B
330
13D
100
AcDbEntity
  8
0
  6
ByBlock
 62
     0
370
    -2
100
AcDbMText
 10
260.0744861470425
 20
181.7016872660944
 30
0.0
 40
2.5
 41
0.0
 71
     5
 72
     1
  1
\A1;24,5
 11
6.123031769111886E-17
 21
1.0
 31
0.0
 73
     1
 44
1.0
  0
ENDBLK
  5
2C3
330
13D
100
AcDbEntity
  8
0
100
AcDbBlockEnd
  0
BLOCK
  5
2C4
330
1C3
100
AcDbEntity
  8
0
100
AcDbBlockBegin
  2
*D7
 70
     1
 10
0.0
 20
0.0
 30
0.0
  3
*D7
  1

  0
POINT
  5
1BA
330
1C3
100
AcDbEntity
  8
DEFPOINTS
  6
ByBlock
 62
     1
380
     1
100
AcDbPoint
 10
2966.161968268723
 20
2374.912035811599
 30
0.0
  0
POINT
  5
1BB
330
1C3
100
AcDbEntity
  8
DEFPOINTS
  6
ByBlock
 62
     1
380
     1
100
AcDbPoint
 10
2966.161968268723
 20
2074.925944997599
 30
0.0
  0
LINE
  5
1BC
330
1C3
100
AcDbEntity
  8
0
  6
ByBlock
 62
     1
370
    -2
380
     1
100
AcDbLine
 10
2967.161968268723
 20
2374.912035811599
 30
0.0
 11
3110.645398482923
 21
2374.912035811599
 31
0.0
  0
LINE
  5
1BD
330
1C3
100
AcDbEntity
  8
0
  6
ByBlock
 62
     1
370
    -2
380
     1
100
AcDbLine
 10
2967.161968268723
 20
2074.925944997599
 30
0.0
 11
3110.645398482923
 21
2074.925944997599
 31
0.0
  0
LINE
  5
1BE
330
1C3
100
AcDbEntity
  8
0
  6
ByBlock
 62
     1
370
    -2
380
     1
100
AcDbLine
 10
3110.345398482923
 20
2373.212035811599
 30
0.0
 11
3110.345398482923
 21
2076.625944997599
 31
0.0
  0
SOLID
  5
1BF
330
1C3
100
AcDbEntity
  8
0
  6
ByBlock
 62
     1
380
     1
100
AcDbTrace
 10
3110.345398482923
 20
2374.912035811599
 30
0.0
 11
3110.062065149589
 21
2373.212035811599
 31
0.0
 12
3110.628731816256
 22
2373.212035811599
 32
0.0
 13
3110.628731816256
 23
2373.212035811599
 33
0.0
  0
SOLID
  5
1C0
330
1C3
100
AcDbEntity
  8
0
  6
ByBlock
 62
     1
380
     1
100
AcDbTrace
 10
3110.345398482923
 20
2074.925944997599
 30
0.0
 11
3110.062065149589
 21
2076.625944997599
 31
0.0
 12
3110.628731816256
 22
2076.625944997599
 32
0.0
 13
3110.628731816256
 23
2076.625944997599
 33
0.0
  0
MTEXT
  5
1C1
330
1C3
100
AcDbEntity
  8
0
  6
ByBlock
 62
     0
370
    -2
380
     1
100
AcDbMText
 10
3108.7012988922
 20
2224.918990404599
 30
0.0
 40
1.75
 41
0.0
 71
     5
 72
     1
  1
300
  7
H
 11
6.123031769111886E-17
 21
1.0
 31
0.0
 73
     1
 44
1.0
  0
ENDBLK
  5
2C5
330
1C3
100
AcDbEntity
  8
0
100
AcDbBlockEnd
  0
BLOCK
  5
2C6
330
1D5
100
AcDbEntity
  8
0
100
AcDbBlockBegin
  2
*D8
 70
     1
 10
0.0
 20
0.0
 30
0.0
  3
*D8
  1

  0
POINT
  5
1CC
330
1D5
100
AcDbEntity
  8
DEFPOINTS
  6
ByBlock
 62
     1
380
     1
100
AcDbPoint
 10
3055.387968565923
 20
2295.292940909099
 30
0.0
  0
POINT
  5
1CD
330
1D5
100
AcDbEntity
  8
DEFPOINTS
  6
ByBlock
 62
     1
380
     1
100
AcDbPoint
 10
2715.433479036722
 20
2295.292940909099
 30
0.0
  0
LINE
  5
1CE
330
1D5
100
AcDbEntity
  8
0
  6
ByBlock
 62
     1
370
    -2
380
     1
100
AcDbLine
 10
3055.387968565923
 20
2296.292940909099
 30
0.0
 11
3055.387968565923
 21
2430.354873573499
 31
0.0
  0
LINE
  5
1CF
330
1D5
100
AcDbEntity
  8
0
  6
ByBlock
 62
     1
370
    -2
380
     1
100
AcDbLine
 10
2715.433479036722
 20
2296.292940909099
 30
0.0
 11
2715.433479036722
 21
2430.354873573499
 31
0.0
  0
LINE
  5
1D0
330
1D5
100
AcDbEntity
  8
0
  6
ByBlock
 62
     1
370
    -2
380
     1
100
AcDbLine
 10
3053.687968565923
 20
2430.054873573499
 30
0.0
 11
2717.133479036722
 21
2430.054873573499
 31
0.0
  0
SOLID
  5
1D1
330
1D5
100
AcDbEntity
  8
0
  6
ByBlock
 62
     1
380
     1
100
AcDbTrace
 10
3055.387968565923
 20
2430.054873573499
 30
0.0
 11
3053.687968565923
 21
2430.338206906833
 31
0.0
 12
3053.687968565923
 22
2429.771540240166
 32
0.0
 13
3053.687968565923
 23
2429.771540240166
 33
0.0
  0
SOLID
  5
1D2
330
1D5
100
AcDbEntity
  8
0
  6
ByBlock
 62
     1
380
     1
100
AcDbTrace
 10
2715.433479036722
 20
2430.054873573499
 30
0.0
 11
2717.133479036722
 21
2430.338206906833
 31
0.0
 12
2717.133479036722
 22
2429.771540240166
 32
0.0
 13
2717.133479036722
 23
2429.771540240166
 33
0.0
  0
MTEXT
  5
1D3
330
1D5
100
AcDbEntity
  8
0
  6
ByBlock
 62
     0
370
    -2
380
     1
100
AcDbMText
 10
2885.410723801323
 20
2431.698973164222
 30
0.0
 40
1.75
 41
0.0
 71
     5
 72
     1
  1
340
  7
H
 73
     1
 44
1.0
  0
ENDBLK
  5
2C7
330
1D5
100
AcDbEntity
  8
0
100
AcDbBlockEnd
  0
BLOCK
  5
2C8
330
248
100
AcDbEntity
  8
0
100
AcDbBlockBegin
  2
*D9
 70
     1
 10
0.0
 20
0.0
 30
0.0
  3
*D9
  1

  0
POINT
  5
23F
330
248
100
AcDbEntity
  8
DEFPOINTS
  6
ByBlock
 62
     0
380
     1
100
AcDbPoint
 10
2715.433479036722
 20
2237.605318592885
 30
0.0
  0
POINT
  5
240
330
248
100
AcDbEntity
  8
DEFPOINTS
  6
ByBlock
 62
     0
380
     1
100
AcDbPoint
 10
3055.387968565923
 20
2237.605318592885
 30
0.0
  0
LINE
  5
241
330
248
100
AcDbEntity
  8
0
  6
ByBlock
 62
     0
370
    -2
380
     1
100
AcDbLine
 10
2715.433479036722
 20
2238.230318592885
 30
0.0
 11
2715.433479036722
 21
2481.272093475956
 31
0.0
  0
LINE
  5
242
330
248
100
AcDbEntity
  8
0
  6
ByBlock
 62
     0
370
    -2
380
     1
100
AcDbLine
 10
3055.387968565923
 20
2238.230318592885
 30
0.0
 11
3055.387968565923
 21
2481.272093475956
 31
0.0
  0
LINE
  5
243
330
248
100
AcDbEntity
  8
0
  6
ByBlock
 62
     0
370
    -2
380
     1
100
AcDbLine
 10
2717.933479036722
 20
2480.022093475956
 30
0.0
 11
3052.887968565923
 21
2480.022093475956
 31
0.0
  0
SOLID
  5
244
330
248
100
AcDbEntity
  8
0
  6
ByBlock
 62
     0
380
     1
100
AcDbTrace
 10
2715.433479036722
 20
2480.022093475956
 30
0.0
 11
2717.933479036722
 21
2479.605426809289
 31
0.0
 12
2717.933479036722
 22
2480.438760142622
 32
0.0
 13
2717.933479036722
 23
2480.438760142622
 33
0.0
  0
SOLID
  5
245
330
248
100
AcDbEntity
  8
0
  6
ByBlock
 62
     0
380
     1
100
AcDbTrace
 10
3055.387968565923
 20
2480.022093475956
 30
0.0
 11
3052.887968565923
 21
2479.605426809289
 31
0.0
 12
3052.887968565923
 22
2480.438760142622
 32
0.0
 13
3052.887968565923
 23
2480.438760142622
 33
0.0
  0
MTEXT
  5
246
330
248
100
AcDbEntity
  8
0
  6
ByBlock
 62
     0
370
    -2
380
     1
100
AcDbMText
 10
2885.410723801323
 20
2482.105426809289
 30
0.0
 40
2.5
 41
0.0
 71
     5
 72
     1
  1
\A1;339,95
 73
     1
 44
1.0
  0
ENDBLK
  5
2C9
330
248
100
AcDbEntity
  8
0
100
AcDbBlockEnd
  0
BLOCK
  5
2CA
330
254
100
AcDbEntity
  8
0
100
AcDbBlockBegin
  2
*D10
 70
     1
 10
0.0
 20
0.0
 30
0.0
  3
*D10
  1

  0
POINT
  5
24B
330
254
100
AcDbEntity
  8
DEFPOINTS
  6
ByBlock
 62
     0
380
     1
100
AcDbPoint
 10
2935.933316554402
 20
2374.912035811599
 30
0.0
  0
POINT
  5
24C
330
254
100
AcDbEntity
  8
DEFPOINTS
  6
ByBlock
 62
     0
380
     1
100
AcDbPoint
 10
2943.659858280556
 20
2074.925944997599
 30
0.0
  0
LINE
  5
24D
330
254
100
AcDbEntity
  8
0
  6
ByBlock
 62
     0
370
    -2
380
     1
100
AcDbLine
 10
2936.558316554402
 20
2374.912035811599
 30
0.0
 11
3182.325413138776
 21
2374.912035811599
 31
0.0
  0
LINE
  5
24E
330
254
100
AcDbEntity
  8
0
  6
ByBlock
 62
     0
370
    -2
380
     1
100
AcDbLine
 10
2944.284858280556
 20
2074.925944997599
 30
0.0
 11
3182.325413138776
 21
2074.925944997599
 31
0.0
  0
LINE
  5
24F
330
254
100
AcDbEntity
  8
0
  6
ByBlock
 62
     0
370
    -2
380
     1
100
AcDbLine
 10
3181.075413138776
 20
2372.412035811599
 30
0.0
 11
3181.075413138776
 21
2077.425944997599
 31
0.0
  0
SOLID
  5
250
330
254
100
AcDbEntity
  8
0
  6
ByBlock
 62
     0
380
     1
100
AcDbTrace
 10
3181.075413138776
 20
2374.912035811599
 30
0.0
 11
3180.658746472109
 21
2372.412035811599
 31
0.0
 12
3181.492079805442
 22
2372.412035811599
 32
0.0
 13
3181.492079805442
 23
2372.412035811599
 33
0.0
  0
SOLID
  5
251
330
254
100
AcDbEntity
  8
0
  6
ByBlock
 62
     0
380
     1
100
AcDbTrace
 10
3181.075413138776
 20
2074.925944997599
 30
0.0
 11
3180.658746472109
 21
2077.425944997599
 31
0.0
 12
3181.492079805442
 22
2077.425944997599
 32
0.0
 13
3181.492079805442
 23
2077.425944997599
 33
0.0
  0
MTEXT
  5
252
330
254
100
AcDbEntity
  8
0
  6
ByBlock
 62
     0
370
    -2
380
     1
100
AcDbMText
 10
3178.992079805443
 20
2224.918990404599
 30
0.0
 40
2.5
 41
0.0
 71
     5
 72
     1
  1
\A1;299,99
 11
6.123031769111886E-17
 21
1.0
 31
0.0
 73
     1
 44
1.0
  0
ENDBLK
  5
2CB
330
254
100
AcDbEntity
  8
0
100
AcDbBlockEnd
  0
BLOCK
  5
2CC
330
261
100
AcDbEntity
  8
0
100
AcDbBlockBegin
  2
*D11
 70
     1
 10
0.0
 20
0.0
 30
0.0
  3
*D11
  1

  0
POINT
  5
258
330
261
100
AcDbEntity
  8
DEFPOINTS
  6
ByBlock
 62
     0
380
     1
100
AcDbPoint
 10
2715.433479036722
 20
2242.099905282531
 30
0.0
  0
POINT
  5
259
330
261
100
AcDbEntity
  8
DEFPOINTS
  6
ByBlock
 62
     0
380
     1
100
AcDbPoint
 10
3055.387968565923
 20
2242.099905282531
 30
0.0
  0
LINE
  5
25A
330
261
100
AcDbEntity
  8
0
  6
ByBlock
 62
     0
370
    -2
380
     1
100
AcDbLine
 10
2715.433479036722
 20
2242.724905282531
 30
0.0
 11
2715.433479036722
 21
2445.711936833829
 31
0.0
  0
LINE
  5
25B
330
261
100
AcDbEntity
  8
0
  6
ByBlock
 62
     0
370
    -2
380
     1
100
AcDbLine
 10
3055.387968565923
 20
2242.724905282531
 30
0.0
 11
3055.387968565923
 21
2445.711936833829
 31
0.0
  0
LINE
  5
25C
330
261
100
AcDbEntity
  8
0
  6
ByBlock
 62
     0
370
    -2
380
     1
100
AcDbLine
 10
2717.933479036722
 20
2444.461936833829
 30
0.0
 11
3052.887968565923
 21
2444.461936833829
 31
0.0
  0
SOLID
  5
25D
330
261
100
AcDbEntity
  8
0
  6
ByBlock
 62
     0
380
     1
100
AcDbTrace
 10
2715.433479036722
 20
2444.461936833829
 30
0.0
 11
2717.933479036722
 21
2444.045270167162
 31
0.0
 12
2717.933479036722
 22
2444.878603500495
 32
0.0
 13
2717.933479036722
 23
2444.878603500495
 33
0.0
  0
SOLID
  5
25E
330
261
100
AcDbEntity
  8
0
  6
ByBlock
 62
     0
380
     1
100
AcDbTrace
 10
3055.387968565923
 20
2444.461936833829
 30
0.0
 11
3052.887968565923
 21
2444.045270167162
 31
0.0
 12
3052.887968565923
 22
2444.878603500495
 32
0.0
 13
3052.887968565923
 23
2444.878603500495
 33
0.0
  0
MTEXT
  5
25F
330
261
100
AcDbEntity
  8
0
  6
ByBlock
 62
     0
370
    -2
380
     1
100
AcDbMText
 10
2885.410723801323
 20
2446.545270167162
 30
0.0
 40
2.5
 41
0.0
 71
     5
 72
     1
  1
\A1;339,95
 73
     1
 44
1.0
  0
ENDBLK
  5
2CD
330
261
100
AcDbEntity
  8
0
100
AcDbBlockEnd
  0
BLOCK
  5
2CE
330
26C
100
AcDbEntity
  8
0
100
AcDbBlockBegin
  2
*D12
 70
     1
 10
0.0
 20
0.0
 30
0.0
  3
*D12
  1

  0
POINT
  5
263
330
26C
100
AcDbEntity
  8
DEFPOINTS
  6
ByBlock
 62
     0
380
     1
100
AcDbPoint
 10
2715.433479036722
 20
2242.099905282531
 30
0.0
  0
POINT
  5
264
330
26C
100
AcDbEntity
  8
DEFPOINTS
  6
ByBlock
 62
     0
380
     1
100
AcDbPoint
 10
3055.387968565923
 20
2242.099905282531
 30
0.0
  0
LINE
  5
265
330
26C
100
AcDbEntity
  8
0
  6
ByBlock
 62
     0
370
    -2
380
     1
100
AcDbLine
 10
2715.433479036722
 20
2242.724905282531
 30
0.0
 11
2715.433479036722
 21
2445.711936833829
 31
0.0
  0
LINE
  5
266
330
26C
100
AcDbEntity
  8
0
  6
ByBlock
 62
     0
370
    -2
380
     1
100
AcDbLine
 10
3055.387968565923
 20
2242.724905282531
 30
0.0
 11
3055.387968565923
 21
2445.711936833829
 31
0.0
  0
LINE
  5
267
330
26C
100
AcDbEntity
  8
0
  6
ByBlock
 62
     0
370
    -2
380
     1
100
AcDbLine
 10
2717.933479036722
 20
2444.461936833829
 30
0.0
 11
3052.887968565923
 21
2444.461936833829
 31
0.0
  0
SOLID
  5
268
330
26C
100
AcDbEntity
  8
0
  6
ByBlock
 62
     0
380
     1
100
AcDbTrace
 10
2715.433479036722
 20
2444.461936833829
 30
0.0
 11
2717.933479036722
 21
2444.045270167162
 31
0.0
 12
2717.933479036722
 22
2444.878603500495
 32
0.0
 13
2717.933479036722
 23
2444.878603500495
 33
0.0
  0
SOLID
  5
269
330
26C
100
AcDbEntity
  8
0
  6
ByBlock
 62
     0
380
     1
100
AcDbTrace
 10
3055.387968565923
 20
2444.461936833829
 30
0.0
 11
3052.887968565923
 21
2444.045270167162
 31
0.0
 12
3052.887968565923
 22
2444.878603500495
 32
0.0
 13
3052.887968565923
 23
2444.878603500495
 33
0.0
  0
MTEXT
  5
26A
330
26C
100
AcDbEntity
  8
0
  6
ByBlock
 62
     0
370
    -2
380
     1
100
AcDbMText
 10
2885.410723801323
 20
2446.545270167162
 30
0.0
 40
2.5
 41
0.0
 71
     5
 72
     1
  1
\A1;339,95
 73
     1
 44
1.0
  0
ENDBLK
  5
2CF
330
26C
100
AcDbEntity
  8
0
100
AcDbBlockEnd
  0
BLOCK
  5
2D0
330
277
100
AcDbEntity
  8
0
100
AcDbBlockBegin
  2
*D13
 70
     1
 10
0.0
 20
0.0
 30
0.0
  3
*D13
  1

  0
POINT
  5
26E
330
277
100
AcDbEntity
  8
DEFPOINTS
  6
ByBlock
 62
     7
380
     1
100
AcDbPoint
 10
2715.433479036722
 20
2242.099905282531
 30
0.0
  0
POINT
  5
26F
330
277
100
AcDbEntity
  8
DEFPOINTS
  6
ByBlock
 62
     7
380
     1
100
AcDbPoint
 10
3055.387968565923
 20
2242.099905282531
 30
0.0
  0
LINE
  5
270
330
277
100
AcDbEntity
  8
0
  6
ByBlock
 62
     7
370
    -2
380
     1
100
AcDbLine
 10
2715.433479036722
 20
2242.724905282531
 30
0.0
 11
2715.433479036722
 21
2445.711936833829
 31
0.0
  0
LINE
  5
271
330
277
100
AcDbEntity
  8
0
  6
ByBlock
 62
     7
370
    -2
380
     1
100
AcDbLine
 10
3055.387968565923
 20
2242.724905282531
 30
0.0
 11
3055.387968565923
 21
2445.711936833829
 31
0.0
  0
LINE
  5
272
330
277
100
AcDbEntity
  8
0
  6
ByBlock
 62
     7
370
    -2
380
     1
100
AcDbLine
 10
2725.433479036722
 20
2444.461936833829
 30
0.0
 11
3045.387968565923
 21
2444.461936833829
 31
0.0
  0
SOLID
  5
273
330
277
100
AcDbEntity
  8
0
  6
ByBlock
 62
     7
380
     1
100
AcDbTrace
 10
2715.433479036722
 20
2444.461936833829
 30
0.0
 11
2725.433479036722
 21
2442.795270167162
 31
0.0
 12
2725.433479036722
 22
2446.128603500495
 32
0.0
 13
2725.433479036722
 23
2446.128603500495
 33
0.0
  0
SOLID
  5
274
330
277
100
AcDbEntity
  8
0
  6
ByBlock
 62
     7
380
     1
100
AcDbTrace
 10
3055.387968565923
 20
2444.461936833829
 30
0.0
 11
3045.387968565923
 21
2442.795270167162
 31
0.0
 12
3045.387968565923
 22
2446.128603500495
 32
0.0
 13
3045.387968565923
 23
2446.128603500495
 33
0.0
  0
MTEXT
  5
275
330
277
100
AcDbEntity
  8
0
  6
ByBlock
 62
     0
370
    -2
380
     1
100
AcDbMText
 10
2885.410723801323
 20
2457.628603500495
 30
0.0
 40
14.0
 41
0.0
 71
     5
 72
     1
  1
\A1;339,95
 73
     1
 44
1.0
  0
ENDBLK
  5
2D1
330
277
100
AcDbEntity
  8
0
100
AcDbBlockEnd
  0
BLOCK
  5
2D2
330
282
100
AcDbEntity
  8
0
100
AcDbBlockBegin
  2
*D14
 70
     1
 10
0.0
 20
0.0
 30
0.0
  3
*D14
  1

  0
POINT
  5
279
330
282
100
AcDbEntity
  8
DEFPOINTS
  6
ByBlock
 62
     7
380
     1
100
AcDbPoint
 10
2715.433479036722
 20
2242.099905282531
 30
0.0
  0
POINT
  5
27A
330
282
100
AcDbEntity
  8
DEFPOINTS
  6
ByBlock
 62
     7
380
     1
100
AcDbPoint
 10
3055.387968565923
 20
2242.099905282531
 30
0.0
  0
LINE
  5
27B
330
282
100
AcDbEntity
  8
0
  6
ByBlock
 62
     7
370
    -2
380
     1
100
AcDbLine
 10
2715.433479036722
 20
2242.724905282531
 30
0.0
 11
2715.433479036722
 21
2445.711936833829
 31
0.0
  0
LINE
  5
27C
330
282
100
AcDbEntity
  8
0
  6
ByBlock
 62
     7
370
    -2
380
     1
100
AcDbLine
 10
3055.387968565923
 20
2242.724905282531
 30
0.0
 11
3055.387968565923
 21
2445.711936833829
 31
0.0
  0
LINE
  5
27D
330
282
100
AcDbEntity
  8
0
  6
ByBlock
 62
     7
370
    -2
380
     1
100
AcDbLine
 10
2725.433479036722
 20
2444.461936833829
 30
0.0
 11
3045.387968565923
 21
2444.461936833829
 31
0.0
  0
SOLID
  5
27E
330
282
100
AcDbEntity
  8
0
  6
ByBlock
 62
     7
380
     1
100
AcDbTrace
 10
2715.433479036722
 20
2444.461936833829
 30
0.0
 11
2725.433479036722
 21
2442.795270167162
 31
0.0
 12
2725.433479036722
 22
2446.128603500495
 32
0.0
 13
2725.433479036722
 23
2446.128603500495
 33
0.0
  0
SOLID
  5
27F
330
282
100
AcDbEntity
  8
0
  6
ByBlock
 62
     7
380
     1
100
AcDbTrace
 10
3055.387968565923
 20
2444.461936833829
 30
0.0
 11
3045.387968565923
 21
2442.795270167162
 31
0.0
 12
3045.387968565923
 22
2446.128603500495
 32
0.0
 13
3045.387968565923
 23
2446.128603500495
 33
0.0
  0
MTEXT
  5
280
330
282
100
AcDbEntity
  8
0
  6
ByBlock
 62
     0
370
    -2
380
     1
100
AcDbMText
 10
2885.410723801323
 20
2456.461936833829
 30
0.0
 40
14.0
 41
0.0
 71
     5
 72
     1
  1
340
 73
     1
 44
1.0
  0
ENDBLK
  5
2D3
330
282
100
AcDbEntity
  8
0
100
AcDbBlockEnd
  0
BLOCK
  5
2D4
330
28E
100
AcDbEntity
  8
0
100
AcDbBlockBegin
  2
*D15
 70
     1
 10
0.0
 20
0.0
 30
0.0
  3
*D15
  1

  0
POINT
  5
285
330
28E
100
AcDbEntity
  8
DEFPOINTS
  6
ByBlock
 62
     0
380
     1
100
AcDbPoint
 10
2925.786346035024
 20
2374.912035811599
 30
0.0
  0
POINT
  5
286
330
28E
100
AcDbEntity
  8
DEFPOINTS
  6
ByBlock
 62
     0
380
     1
100
AcDbPoint
 10
2925.786346035024
 20
2074.925944997599
 30
0.0
  0
LINE
  5
287
330
28E
100
AcDbEntity
  8
0
  6
ByBlock
 62
     0
370
    -2
380
     1
100
AcDbLine
 10
2926.411346035024
 20
2374.912035811599
 30
0.0
 11
3109.43801494645
 21
2374.912035811599
 31
0.0
  0
LINE
  5
288
330
28E
100
AcDbEntity
  8
0
  6
ByBlock
 62
     0
370
    -2
380
     1
100
AcDbLine
 10
2926.411346035024
 20
2074.925944997599
 30
0.0
 11
3109.43801494645
 21
2074.925944997599
 31
0.0
  0
LINE
  5
289
330
28E
100
AcDbEntity
  8
0
  6
ByBlock
 62
     0
370
    -2
380
     1
100
AcDbLine
 10
3108.18801494645
 20
2372.412035811599
 30
0.0
 11
3108.18801494645
 21
2077.425944997599
 31
0.0
  0
SOLID
  5
28A
330
28E
100
AcDbEntity
  8
0
  6
ByBlock
 62
     0
380
     1
100
AcDbTrace
 10
3108.18801494645
 20
2374.912035811599
 30
0.0
 11
3107.771348279784
 21
2372.412035811599
 31
0.0
 12
3108.604681613117
 22
2372.412035811599
 32
0.0
 13
3108.604681613117
 23
2372.412035811599
 33
0.0
  0
SOLID
  5
28B
330
28E
100
AcDbEntity
  8
0
  6
ByBlock
 62
     0
380
     1
100
AcDbTrace
 10
3108.18801494645
 20
2074.925944997599
 30
0.0
 11
3107.771348279784
 21
2077.425944997599
 31
0.0
 12
3108.604681613117
 22
2077.425944997599
 32
0.0
 13
3108.604681613117
 23
2077.425944997599
 33
0.0
  0
MTEXT
  5
28C
330
28E
100
AcDbEntity
  8
0
  6
ByBlock
 62
     0
370
    -2
380
     1
100
AcDbMText
 10
3106.104681613117
 20
2224.918990404599
 30
0.0
 40
2.5
 41
0.0
 71
     5
 72
     1
  1
\A1;299,99
 11
6.123031769111886E-17
 21
1.0
 31
0.0
 73
     1
 44
1.0
  0
ENDBLK
  5
2D5
330
28E
100
AcDbEntity
  8
0
100
AcDbBlockEnd
  0
BLOCK
  5
2D6
330
299
100
AcDbEntity
  8
0
100
AcDbBlockBegin
  2
*D16
 70
     1
 10
0.0
 20
0.0
 30
0.0
  3
*D16
  1

  0
POINT
  5
290
330
299
100
AcDbEntity
  8
DEFPOINTS
  6
ByBlock
 62
     0
380
     1
100
AcDbPoint
 10
2925.786346035024
 20
2374.912035811599
 30
0.0
  0
POINT
  5
291
330
299
100
AcDbEntity
  8
DEFPOINTS
  6
ByBlock
 62
     0
380
     1
100
AcDbPoint
 10
2925.786346035024
 20
2074.925944997599
 30
0.0
  0
LINE
  5
292
330
299
100
AcDbEntity
  8
0
  6
ByBlock
 62
     0
370
    -2
380
     1
100
AcDbLine
 10
2926.411346035024
 20
2374.912035811599
 30
0.0
 11
3109.43801494645
 21
2374.912035811599
 31
0.0
  0
LINE
  5
293
330
299
100
AcDbEntity
  8
0
  6
ByBlock
 62
     0
370
    -2
380
     1
100
AcDbLine
 10
2926.411346035024
 20
2074.925944997599
 30
0.0
 11
3109.43801494645
 21
2074.925944997599
 31
0.0
  0
LINE
  5
294
330
299
100
AcDbEntity
  8
0
  6
ByBlock
 62
     0
370
    -2
380
     1
100
AcDbLine
 10
3108.18801494645
 20
2372.412035811599
 30
0.0
 11
3108.18801494645
 21
2077.425944997599
 31
0.0
  0
SOLID
  5
295
330
299
100
AcDbEntity
  8
0
  6
ByBlock
 62
     0
380
     1
100
AcDbTrace
 10
3108.18801494645
 20
2374.912035811599
 30
0.0
 11
3107.771348279784
 21
2372.412035811599
 31
0.0
 12
3108.604681613117
 22
2372.412035811599
 32
0.0
 13
3108.604681613117
 23
2372.412035811599
 33
0.0
  0
SOLID
  5
296
330
299
100
AcDbEntity
  8
0
  6
ByBlock
 62
     0
380
     1
100
AcDbTrace
 10
3108.18801494645
 20
2074.925944997599
 30
0.0
 11
3107.771348279784
 21
2077.425944997599
 31
0.0
 12
3108.604681613117
 22
2077.425944997599
 32
0.0
 13
3108.604681613117
 23
2077.425944997599
 33
0.0
  0
MTEXT
  5
297
330
299
100
AcDbEntity
  8
0
  6
ByBlock
 62
     0
370
    -2
380
     1
100
AcDbMText
 10
3106.104681613117
 20
2224.918990404599
 30
0.0
 40
2.5
 41
0.0
 71
     5
 72
     1
  1
\A1;299,99
 11
6.123031769111886E-17
 21
1.0
 31
0.0
 73
     1
 44
1.0
  0
ENDBLK
  5
2D7
330
299
100
AcDbEntity
  8
0
100
AcDbBlockEnd
  0
BLOCK
  5
2D8
330
2A4
100
AcDbEntity
  8
0
100
AcDbBlockBegin
  2
*D17
 70
     1
 10
0.0
 20
0.0
 30
0.0
  3
*D17
  1

  0
POINT
  5
29B
330
2A4
100
AcDbEntity
  8
DEFPOINTS
  6
ByBlock
 62
     7
380
     1
100
AcDbPoint
 10
2925.786346035024
 20
2374.912035811599
 30
0.0
  0
POINT
  5
29C
330
2A4
100
AcDbEntity
  8
DEFPOINTS
  6
ByBlock
 62
     7
380
     1
100
AcDbPoint
 10
2925.786346035024
 20
2074.925944997599
 30
0.0
  0
LINE
  5
29D
330
2A4
100
AcDbEntity
  8
0
  6
ByBlock
 62
     7
370
    -2
380
     1
100
AcDbLine
 10
2926.411346035024
 20
2374.912035811599
 30
0.0
 11
3109.43801494645
 21
2374.912035811599
 31
0.0
  0
LINE
  5
29E
330
2A4
100
AcDbEntity
  8
0
  6
ByBlock
 62
     7
370
    -2
380
     1
100
AcDbLine
 10
2926.411346035024
 20
2074.925944997599
 30
0.0
 11
3109.43801494645
 21
2074.925944997599
 31
0.0
  0
LINE
  5
29F
330
2A4
100
AcDbEntity
  8
0
  6
ByBlock
 62
     7
370
    -2
380
     1
100
AcDbLine
 10
3108.18801494645
 20
2364.912035811599
 30
0.0
 11
3108.18801494645
 21
2084.925944997599
 31
0.0
  0
SOLID
  5
2A0
330
2A4
100
AcDbEntity
  8
0
  6
ByBlock
 62
     7
380
     1
100
AcDbTrace
 10
3108.18801494645
 20
2374.912035811599
 30
0.0
 11
3106.521348279784
 21
2364.912035811599
 31
0.0
 12
3109.854681613117
 22
2364.912035811599
 32
0.0
 13
3109.854681613117
 23
2364.912035811599
 33
0.0
  0
SOLID
  5
2A1
330
2A4
100
AcDbEntity
  8
0
  6
ByBlock
 62
     7
380
     1
100
AcDbTrace
 10
3108.18801494645
 20
2074.925944997599
 30
0.0
 11
3106.521348279784
 21
2084.925944997599
 31
0.0
 12
3109.854681613117
 22
2084.925944997599
 32
0.0
 13
3109.854681613117
 23
2084.925944997599
 33
0.0
  0
MTEXT
  5
2A2
330
2A4
100
AcDbEntity
  8
0
  6
ByBlock
 62
     0
370
    -2
380
     1
100
AcDbMText
 10
3095.021348279784
 20
2224.918990404599
 30
0.0
 40
14.0
 41
0.0
 71
     5
 72
     1
  1
\A1;299,99
 11
6.123031769111886E-17
 21
1.0
 31
0.0
 73
     1
 44
1.0
  0
ENDBLK
  5
2D9
330
2A4
100
AcDbEntity
  8
0
100
AcDbBlockEnd
  0
BLOCK
  5
2DA
330
2AF
100
AcDbEntity
  8
0
100
AcDbBlockBegin
  2
*D18
 70
     1
 10
0.0
 20
0.0
 30
0.0
  3
*D18
  1

  0
POINT
  5
2A6
330
2AF
100
AcDbEntity
  8
DEFPOINTS
  6
ByBlock
 62
     7
380
     1
100
AcDbPoint
 10
2925.786346035024
 20
2374.912035811599
 30
0.0
  0
POINT
  5
2A7
330
2AF
100
AcDbEntity
  8
DEFPOINTS
  6
ByBlock
 62
     7
380
     1
100
AcDbPoint
 10
2925.786346035024
 20
2074.925944997599
 30
0.0
  0
LINE
  5
2A8
330
2AF
100
AcDbEntity
  8
0
  6
ByBlock
 62
     7
370
    -2
380
     1
100
AcDbLine
 10
2926.411346035024
 20
2374.912035811599
 30
0.0
 11
3109.43801494645
 21
2374.912035811599
 31
0.0
  0
LINE
  5
2A9
330
2AF
100
AcDbEntity
  8
0
  6
ByBlock
 62
     7
370
    -2
380
     1
100
AcDbLine
 10
2926.411346035024
 20
2074.925944997599
 30
0.0
 11
3109.43801494645
 21
2074.925944997599
 31
0.0
  0
LINE
  5
2AA
330
2AF
100
AcDbEntity
  8
0
  6
ByBlock
 62
     7
370
    -2
380
     1
100
AcDbLine
 10
3108.18801494645
 20
2364.912035811599
 30
0.0
 11
3108.18801494645
 21
2084.925944997599
 31
0.0
  0
SOLID
  5
2AB
330
2AF
100
AcDbEntity
  8
0
  6
ByBlock
 62
     7
380
     1
100
AcDbTrace
 10
3108.18801494645
 20
2374.912035811599
 30
0.0
 11
3106.521348279784
 21
2364.912035811599
 31
0.0
 12
3109.854681613117
 22
2364.912035811599
 32
0.0
 13
3109.854681613117
 23
2364.912035811599
 33
0.0
  0
SOLID
  5
2AC
330
2AF
100
AcDbEntity
  8
0
  6
ByBlock
 62
     7
380
     1
100
AcDbTrace
 10
3108.18801494645
 20
2074.925944997599
 30
0.0
 11
3106.521348279784
 21
2084.925944997599
 31
0.0
 12
3109.854681613117
 22
2084.925944997599
 32
0.0
 13
3109.854681613117
 23
2084.925944997599
 33
0.0
  0
MTEXT
  5
2AD
330
2AF
100
AcDbEntity
  8
0
  6
ByBlock
 62
     0
370
    -2
380
     1
100
AcDbMText
 10
3096.18801494645
 20
2224.918990404599
 30
0.0
 40
14.0
 41
0.0
 71
     5
 72
     1
  1
300
 11
6.123031769111886E-17
 21
1.0
 31
0.0
 73
     1
 44
1.0
  0
ENDBLK
  5
2DB
330
2AF
100
AcDbEntity
  8
0
100
AcDbBlockEnd
  0
ENDSEC
  0
SECTION
  2
ENTITIES
  0
LINE
  5
1B5
330
1F
100
AcDbEntity
  8
0
370
    60
100
AcDbLine
 10
2967.584654681923
 20
2147.794022448399
 30
0.0
 11
2980.185329732523
 21
2092.716560207599
 31
0.0
  0
LINE
  5
1B6
330
1F
100
AcDbEntity
  8
0
370
    60
100
AcDbLine
 10
2803.236792920723
 20
2147.794022448399
 30
0.0
 11
2790.636117870123
 21
2092.716560207599
 31
0.0
  0
LINE
  5
1B7
330
1F
100
AcDbEntity
  8
0
  6
BORDER
370
    25
100
AcDbLine
 10
2885.410723801324
 20
2410.214143736099
 30
0.0
 11
2885.410723801324
 21
2042.086702789699
 31
0.0
  0
LINE
  5
1C4
330
1F
100
AcDbEntity
  8
0
370
    60
100
AcDbLine
 10
2861.589092911123
 20
2157.024803578699
 30
0.0
 11
2885.410723801324
 21
2157.024803578699
 31
0.0
  0
LINE
  5
1C5
330
1F
100
AcDbEntity
  8
0
370
    60
100
AcDbLine
 10
2814.938408690723
 20
2154.019929608499
 30
0.0
 11
2885.410723801324
 21
2154.019929608499
 31
0.0
  0
LINE
  5
1C6
330
1F
100
AcDbEntity
  8
0
370
    60
100
AcDbLine
 10
2861.589092911123
 20
2292.813177230499
 30
0.0
 11
2885.410723801324
 21
2292.813177230499
 31
0.0
  0
LINE
  5
1C7
330
1F
100
AcDbEntity
  8
0
370
    60
100
AcDbLine
 10
2814.938408690723
 20
2295.818051200699
 30
0.0
 11
2885.410723801324
 21
2295.818051200699
 31
0.0
  0
LINE
  5
1C8
330
1F
100
AcDbEntity
  8
0
370
    60
100
AcDbLine
 10
2804.659479333923
 20
2374.912035811599
 30
0.0
 11
2885.410723801324
 21
2374.912035811599
 31
0.0
  0
LINE
  5
1C9
330
1F
100
AcDbEntity
  8
0
  6
BORDER
370
    25
100
AcDbLine
 10
3063.178865152122
 20
2224.918990404599
 30
0.0
 11
2695.712358352523
 21
2224.918990404599
 31
0.0
  0
LINE
  5
1D6
330
1F
100
AcDbEntity
  8
0
370
    60
100
AcDbLine
 10
2803.236792920723
 20
2302.043958360799
 30
0.0
 11
2790.636117870123
 21
2357.121420601599
 31
0.0
  0
ELLIPSE
  5
1D7
330
1F
100
AcDbEntity
  8
0
370
    60
100
AcDbEllipse
 10
2804.659479333923
 20
2360.388506860399
 30
0.0
 11
0.0
 21
14.5235289511998
 31
0.0
210
0.0
220
0.0
230
1.0
 40
0.9909595015067497
 41
-0.0000000000000036
 42
1.797689129554155
  0
LINE
  5
1D8
330
1F
100
AcDbEntity
  8
0
370
    60
100
AcDbLine
 10
2795.087051637923
 20
2234.9352206454
 30
0.0
 11
2795.087051637923
 21
2224.918990404599
 31
0.0
  0
LINE
  5
1D9
330
1F
100
AcDbEntity
  8
0
370
    60
100
AcDbLine
 10
2797.072182489524
 20
2234.9352206454
 30
0.0
 11
2797.072182489524
 21
2224.918990404599
 31
0.0
  0
LINE
  5
1DA
330
1F
100
AcDbEntity
  8
0
370
    60
100
AcDbLine
 10
2799.335805365323
 20
2234.9352206454
 30
0.0
 11
2799.335805365323
 21
2228.424668539899
 31
0.0
  0
LINE
  5
1DB
330
1F
100
AcDbEntity
  8
0
370
    60
100
AcDbLine
 10
2715.433479036722
 20
2295.292940909099
 30
0.0
 11
2715.433479036722
 21
2224.918990404599
 31
0.0
  0
LINE
  5
1DC
330
1F
100
AcDbEntity
  8
0
370
    60
100
AcDbLine
 10
2715.433479036722
 20
2224.918990404599
 30
0.0
 11
2715.433479036722
 21
2295.292940909099
 31
0.0
  0
ELLIPSE
  5
1DD
330
1F
100
AcDbEntity
  8
0
370
    60
100
AcDbEllipse
 10
2729.825708046324
 20
2295.292940909099
 30
0.0
 11
0.0
 21
14.52352895119988
 31
0.0
210
0.0
220
0.0
230
1.0
 40
0.9909595015067497
 41
-0.2268928027592487
 42
1.570796326794893
  0
LINE
  5
1DE
330
1F
100
AcDbEntity
  8
0
370
    60
100
AcDbLine
 10
2797.072182489524
 20
2296.034222665299
 30
0.0
 11
2797.072182489524
 21
2283.013130699199
 31
0.0
  0
LINE
  5
1DF
330
1F
100
AcDbEntity
  8
0
370
    60
100
AcDbLine
 10
2800.049890901123
 20
2296.034222665299
 30
0.0
 11
2800.049890901123
 21
2234.9352206454
 31
0.0
  0
LINE
  5
1E0
330
1F
100
AcDbEntity
  8
0
370
    60
100
AcDbLine
 10
2803.027587178524
 20
2299.039096635499
 30
0.0
 11
2814.938408690723
 21
2299.039096635499
 31
0.0
  0
LINE
  5
1E1
330
1F
100
AcDbEntity
  8
0
370
    60
100
AcDbLine
 10
2803.027587178524
 20
2302.043958360799
 30
0.0
 11
2814.938408690723
 21
2302.043958360799
 31
0.0
  0
LINE
  5
1E2
330
1F
100
AcDbEntity
  8
0
370
    60
100
AcDbLine
 10
2797.072182489524
 20
2294.531785680199
 30
0.0
 11
2733.063258216723
 21
2309.444237145199
 31
0.0
  0
ELLIPSE
  5
1E3
330
1F
100
AcDbEntity
  8
0
370
    60
100
AcDbEllipse
 10
2803.027587178524
 20
2296.034222665299
 30
0.0
 11
0.0
 21
3.00487397020028
 31
0.0
210
0.0
220
0.0
230
1.0
 40
0.9909595015067496
 41
-0.0000000000000036
 42
1.570796326794893
  0
ELLIPSE
  5
1E4
330
1F
100
AcDbEntity
  8
0
370
    60
100
AcDbEllipse
 10
2803.027587178524
 20
2296.034222665299
 30
0.0
 11
0.0
 21
6.009735695500243
 31
0.0
210
0.0
220
0.0
230
1.0
 40
0.9909595015067497
 41
-0.0000000000000036
 42
1.570796326794893
  0
LINE
  5
1E5
330
1F
100
AcDbEntity
  8
0
370
    60
100
AcDbLine
 10
2804.955444606122
 20
2302.043958360799
 30
0.0
 11
2814.938408690723
 21
2302.043958360799
 31
0.0
  0
LINE
  5
1E6
330
1F
100
AcDbEntity
  8
0
370
    60
100
AcDbLine
 10
2814.938408690723
 20
2302.043958360799
 30
0.0
 11
2814.938408690723
 21
2295.818051200699
 31
0.0
  0
LINE
  5
1E7
330
1F
100
AcDbEntity
  8
0
370
    60
100
AcDbLine
 10
2861.589092911123
 20
2295.818051200699
 30
0.0
 11
2861.589092911123
 21
2292.813177230499
 31
0.0
  0
LINE
  5
1E8
330
1F
100
AcDbEntity
  8
0
370
    60
100
AcDbLine
 10
2803.027587178524
 20
2283.013130699199
 30
0.0
 11
2803.027587178524
 21
2234.9352206454
 31
0.0
  0
LINE
  5
1E9
330
1F
100
AcDbEntity
  8
0
370
    60
100
AcDbLine
 10
2797.072182489524
 20
2283.013130699199
 30
0.0
 11
2803.027587178524
 21
2283.013130699199
 31
0.0
  0
LINE
  5
1EA
330
1F
100
AcDbEntity
  8
0
370
    60
100
AcDbLine
 10
2795.087051637923
 20
2234.9352206454
 30
0.0
 11
2803.027587178524
 21
2234.9352206454
 31
0.0
  0
ELLIPSE
  5
1EB
330
1F
100
AcDbEntity
  8
0
370
    60
100
AcDbEllipse
 10
2729.825708046324
 20
2154.545052144999
 30
0.0
 11
0.0
 21
14.52352895120015
 31
0.0
210
0.0
220
0.0
230
1.0
 40
0.9909595015067497
 41
1.570796326794893
 42
3.368485456349053
  0
LINE
  5
1EC
330
1F
100
AcDbEntity
  8
0
370
    60
100
AcDbLine
 10
2715.433479036722
 20
2224.918990404599
 30
0.0
 11
2715.433479036722
 21
2154.545052144999
 31
0.0
  0
LINE
  5
1ED
330
1F
100
AcDbEntity
  8
0
370
    60
100
AcDbLine
 10
2715.433479036722
 20
2154.545052144999
 30
0.0
 11
2715.433479036722
 21
2224.918990404599
 31
0.0
  0
LINE
  5
1EE
330
1F
100
AcDbEntity
  8
0
370
    60
100
AcDbLine
 10
2803.027587178524
 20
2166.824850109999
 30
0.0
 11
2803.027587178524
 21
2214.902760163799
 31
0.0
  0
LINE
  5
1EF
330
1F
100
AcDbEntity
  8
0
370
    60
100
AcDbLine
 10
2800.049890901123
 20
2153.803758143899
 30
0.0
 11
2800.049890901123
 21
2214.902760163799
 31
0.0
  0
LINE
  5
1F0
330
1F
100
AcDbEntity
  8
0
370
    60
100
AcDbLine
 10
2800.049890901123
 20
2226.421427389699
 30
0.0
 11
2805.568391584923
 21
2226.421427389699
 31
0.0
  0
LINE
  5
1F1
330
1F
100
AcDbEntity
  8
0
370
    60
100
AcDbLine
 10
2797.072182489524
 20
2228.424668539899
 30
0.0
 11
2806.997861015923
 21
2228.424668539899
 31
0.0
  0
LINE
  5
1F2
330
1F
100
AcDbEntity
  8
0
370
    60
100
AcDbLine
 10
2797.072182489524
 20
2221.413312269299
 30
0.0
 11
2806.997861015923
 21
2221.413312269299
 31
0.0
  0
LINE
  5
1F3
330
1F
100
AcDbEntity
  8
0
370
    60
100
AcDbLine
 10
2800.049890901123
 20
2223.416553419499
 30
0.0
 11
2805.568391584923
 21
2223.416553419499
 31
0.0
  0
LINE
  5
1F4
330
1F
100
AcDbEntity
  8
0
370
    60
100
AcDbLine
 10
2799.335805365323
 20
2214.902760163799
 30
0.0
 11
2799.335805365323
 21
2221.413312269299
 31
0.0
  0
LINE
  5
1F5
330
1F
100
AcDbEntity
  8
0
370
    60
100
AcDbLine
 10
2795.087051637923
 20
2214.902760163799
 30
0.0
 11
2795.087051637923
 21
2224.918990404599
 31
0.0
  0
LINE
  5
1F6
330
1F
100
AcDbEntity
  8
0
370
    60
100
AcDbLine
 10
2797.072182489524
 20
2214.902760163799
 30
0.0
 11
2797.072182489524
 21
2224.918990404599
 31
0.0
  0
ELLIPSE
  5
1F7
330
1F
100
AcDbEntity
  8
0
370
    60
100
AcDbEllipse
 10
2802.495381166524
 20
2224.918990404599
 30
0.0
 11
0.0
 21
2.889171910100413
 31
0.0
210
0.0
220
0.0
230
1.0
 40
0.9909595015067497
 41
1.023919955336439
 42
2.117672698253405
  0
LINE
  5
1F8
330
1F
100
AcDbEntity
  8
0
370
    60
100
AcDbLine
 10
2795.087051637923
 20
2214.902760163799
 30
0.0
 11
2803.027587178524
 21
2214.902760163799
 31
0.0
  0
ELLIPSE
  5
1F9
330
1F
100
AcDbEntity
  8
0
370
    60
100
AcDbEllipse
 10
2803.122913453724
 20
2224.918990404599
 30
0.0
 11
0.0
 21
2.889171910099818
 31
0.0
210
0.0
220
0.0
230
1.0
 40
0.9909595015067497
 41
4.165512608926107
 42
5.259265351843079
  0
ELLIPSE
  5
1FA
330
1F
100
AcDbEntity
  8
0
370
    60
100
AcDbEllipse
 10
2802.377315400523
 20
2224.918990404599
 30
0.0
 11
0.0
 21
5.833568319199845
 31
0.0
210
0.0
220
0.0
230
1.0
 40
0.9909595015067497
 41
4.067700919345812
 42
5.357077041423563
  0
LINE
  5
1FB
330
1F
100
AcDbEntity
  8
0
370
    60
100
AcDbLine
 10
2803.027587178524
 20
2147.794022448399
 30
0.0
 11
2814.938408690723
 21
2147.794022448399
 31
0.0
  0
LINE
  5
1FC
330
1F
100
AcDbEntity
  8
0
370
    60
100
AcDbLine
 10
2803.027587178524
 20
2150.798884173699
 30
0.0
 11
2814.938408690723
 21
2150.798884173699
 31
0.0
  0
ELLIPSE
  5
1FD
330
1F
100
AcDbEntity
  8
0
370
    60
100
AcDbEllipse
 10
2803.027587178524
 20
2153.803758143899
 30
0.0
 11
0.0
 21
6.009735695500243
 31
0.0
210
0.0
220
0.0
230
1.0
 40
0.9909595015067497
 41
1.570796326794893
 42
3.14159265358979
  0
LINE
  5
1FE
330
1F
100
AcDbEntity
  8
0
370
    60
100
AcDbLine
 10
2797.072182489524
 20
2155.306195128999
 30
0.0
 11
2733.063258216723
 21
2140.393755908899
 31
0.0
  0
LINE
  5
1FF
330
1F
100
AcDbEntity
  8
0
370
    60
100
AcDbLine
 10
2797.072182489524
 20
2153.803758143899
 30
0.0
 11
2797.072182489524
 21
2166.824850109999
 31
0.0
  0
LINE
  5
200
330
1F
100
AcDbEntity
  8
0
370
    60
100
AcDbLine
 10
2797.072182489524
 20
2166.824850109999
 30
0.0
 11
2803.027587178524
 21
2166.824850109999
 31
0.0
  0
ELLIPSE
  5
201
330
1F
100
AcDbEntity
  8
0
370
    60
100
AcDbEllipse
 10
2803.027587178524
 20
2153.803758143899
 30
0.0
 11
0.0
 21
3.00487397020028
 31
0.0
210
0.0
220
0.0
230
1.0
 40
0.9909595015067496
 41
1.570796326794893
 42
3.14159265358979
  0
LINE
  5
202
330
1F
100
AcDbEntity
  8
0
370
    60
100
AcDbLine
 10
2814.938408690723
 20
2147.794022448399
 30
0.0
 11
2814.938408690723
 21
2154.019929608499
 31
0.0
  0
LINE
  5
203
330
1F
100
AcDbEntity
  8
0
370
    60
100
AcDbLine
 10
2861.589092911123
 20
2154.019929608499
 30
0.0
 11
2861.589092911123
 21
2157.024803578699
 31
0.0
  0
LINE
  5
204
330
1F
100
AcDbEntity
  8
0
370
    60
100
AcDbLine
 10
2804.955444606122
 20
2147.794022448399
 30
0.0
 11
2814.938408690723
 21
2147.794022448399
 31
0.0
  0
LINE
  5
205
330
1F
100
AcDbEntity
  8
0
370
    60
100
AcDbLine
 10
2967.584654681923
 20
2302.043958360799
 30
0.0
 11
2980.185329732523
 21
2357.121420601599
 31
0.0
  0
LINE
  5
206
330
1F
100
AcDbEntity
  8
0
370
    60
100
AcDbLine
 10
2966.161968268723
 20
2374.912035811599
 30
0.0
 11
2885.410723801324
 21
2374.912035811599
 31
0.0
  0
ELLIPSE
  5
207
330
1F
100
AcDbEntity
  8
0
370
    60
100
AcDbEllipse
 10
2966.161968268723
 20
2360.388506860399
 30
0.0
 11
0.0
 21
14.52352895119996
 31
0.0
210
0.0
220
0.0
230
1.0
 40
0.9909595015067497
 41
4.485496177625418
 42
6.283185307179577
  0
LINE
  5
208
330
1F
100
AcDbEntity
  8
0
370
    60
100
AcDbLine
 10
2975.734395964723
 20
2234.9352206454
 30
0.0
 11
2975.734395964723
 21
2224.918990404599
 31
0.0
  0
LINE
  5
209
330
1F
100
AcDbEntity
  8
0
370
    60
100
AcDbLine
 10
2971.485642237323
 20
2234.9352206454
 30
0.0
 11
2971.485642237323
 21
2228.424668539899
 31
0.0
  0
LINE
  5
20A
330
1F
100
AcDbEntity
  8
0
370
    60
100
AcDbLine
 10
2973.749265113123
 20
2234.9352206454
 30
0.0
 11
2973.749265113123
 21
2224.918990404599
 31
0.0
  0
LINE
  5
20B
330
1F
100
AcDbEntity
  8
0
370
    60
100
AcDbLine
 10
3055.387968565923
 20
2224.918990404599
 30
0.0
 11
3055.387968565923
 21
2295.292940909099
 31
0.0
  0
LINE
  5
20C
330
1F
100
AcDbEntity
  8
0
370
    60
100
AcDbLine
 10
3055.387968565923
 20
2295.292940909099
 30
0.0
 11
3055.387968565923
 21
2224.918990404599
 31
0.0
  0
ELLIPSE
  5
20D
330
1F
100
AcDbEntity
  8
0
370
    60
100
AcDbEllipse
 10
3040.995739556323
 20
2295.292940909099
 30
0.0
 11
0.0
 21
14.5235289511998
 31
0.0
210
0.0
220
0.0
230
1.0
 40
0.9909595015067497
 41
-1.5707963267949
 42
0.2268928027592594
  0
LINE
  5
20E
330
1F
100
AcDbEntity
  8
0
370
    60
100
AcDbLine
 10
2973.749265113123
 20
2296.034222665299
 30
0.0
 11
2973.749265113123
 21
2283.013130699199
 31
0.0
  0
LINE
  5
20F
330
1F
100
AcDbEntity
  8
0
370
    60
100
AcDbLine
 10
2970.771556701523
 20
2296.034222665299
 30
0.0
 11
2970.771556701523
 21
2234.9352206454
 31
0.0
  0
LINE
  5
210
330
1F
100
AcDbEntity
  8
0
370
    60
100
AcDbLine
 10
2967.793860424123
 20
2299.039096635499
 30
0.0
 11
2955.883038911923
 21
2299.039096635499
 31
0.0
  0
LINE
  5
211
330
1F
100
AcDbEntity
  8
0
370
    60
100
AcDbLine
 10
2967.793860424123
 20
2302.043958360799
 30
0.0
 11
2955.883038911923
 21
2302.043958360799
 31
0.0
  0
LINE
  5
212
330
1F
100
AcDbEntity
  8
0
370
    60
100
AcDbLine
 10
2965.866002996523
 20
2302.043958360799
 30
0.0
 11
2955.883038911923
 21
2302.043958360799
 31
0.0
  0
LINE
  5
213
330
1F
100
AcDbEntity
  8
0
370
    60
100
AcDbLine
 10
2955.883038911923
 20
2295.818051200699
 30
0.0
 11
2885.410723801324
 21
2295.818051200699
 31
0.0
  0
LINE
  5
214
330
1F
100
AcDbEntity
  8
0
370
    60
100
AcDbLine
 10
2909.232354691523
 20
2295.818051200699
 30
0.0
 11
2909.232354691523
 21
2292.813177230499
 31
0.0
  0
LINE
  5
215
330
1F
100
AcDbEntity
  8
0
370
    60
100
AcDbLine
 10
2909.232354691523
 20
2292.813177230499
 30
0.0
 11
2885.410723801324
 21
2292.813177230499
 31
0.0
  0
LINE
  5
216
330
1F
100
AcDbEntity
  8
0
370
    60
100
AcDbLine
 10
2955.883038911923
 20
2302.043958360799
 30
0.0
 11
2955.883038911923
 21
2295.818051200699
 31
0.0
  0
LINE
  5
217
330
1F
100
AcDbEntity
  8
0
370
    60
100
AcDbLine
 10
2973.749265113123
 20
2294.531785680199
 30
0.0
 11
3037.758189385923
 21
2309.444237145199
 31
0.0
  0
ELLIPSE
  5
218
330
1F
100
AcDbEntity
  8
0
370
    60
100
AcDbEllipse
 10
2967.793860424123
 20
2296.034222665299
 30
0.0
 11
0.0
 21
3.004873970199932
 31
0.0
210
0.0
220
0.0
230
1.0
 40
0.9909595015067496
 41
-1.5707963267949
 42
-0.0000000000000036
  0
ELLIPSE
  5
219
330
1F
100
AcDbEntity
  8
0
370
    60
100
AcDbEllipse
 10
2967.793860424123
 20
2296.034222665299
 30
0.0
 11
0.0
 21
6.009735695499895
 31
0.0
210
0.0
220
0.0
230
1.0
 40
0.9909595015067497
 41
-1.5707963267949
 42
-0.0000000000000036
  0
LINE
  5
21A
330
1F
100
AcDbEntity
  8
0
370
    60
100
AcDbLine
 10
2967.793860424123
 20
2283.013130699199
 30
0.0
 11
2967.793860424123
 21
2234.9352206454
 31
0.0
  0
LINE
  5
21B
330
1F
100
AcDbEntity
  8
0
370
    60
100
AcDbLine
 10
2973.749265113123
 20
2283.013130699199
 30
0.0
 11
2967.793860424123
 21
2283.013130699199
 31
0.0
  0
LINE
  5
21C
330
1F
100
AcDbEntity
  8
0
370
    60
100
AcDbLine
 10
2975.734395964723
 20
2234.9352206454
 30
0.0
 11
2967.793860424123
 21
2234.9352206454
 31
0.0
  0
ELLIPSE
  5
21D
330
1F
100
AcDbEntity
  8
0
370
    60
100
AcDbEllipse
 10
3040.995739556323
 20
2154.545052144999
 30
0.0
 11
0.0
 21
14.52352895119996
 31
0.0
210
0.0
220
0.0
230
1.0
 40
0.9909595015067497
 41
2.914699850830521
 42
4.712388980384686
  0
LINE
  5
21E
330
1F
100
AcDbEntity
  8
0
370
    60
100
AcDbLine
 10
2967.793860424123
 20
2166.824850109999
 30
0.0
 11
2967.793860424123
 21
2214.902760163799
 31
0.0
  0
LINE
  5
21F
330
1F
100
AcDbEntity
  8
0
370
    60
100
AcDbLine
 10
2970.771556701523
 20
2153.803758143899
 30
0.0
 11
2970.771556701523
 21
2214.902760163799
 31
0.0
  0
ELLIPSE
  5
220
330
1F
100
AcDbEntity
  8
0
370
    60
100
AcDbEllipse
 10
2968.444132202123
 20
2224.918990404599
 30
0.0
 11
0.0
 21
5.833568319199845
 31
0.0
210
0.0
220
0.0
230
1.0
 40
0.9909595015067497
 41
0.9261082657560196
 42
2.215484387833774
  0
LINE
  5
221
330
1F
100
AcDbEntity
  8
0
370
    60
100
AcDbLine
 10
2971.485642237323
 20
2214.902760163799
 30
0.0
 11
2971.485642237323
 21
2221.413312269299
 31
0.0
  0
LINE
  5
222
330
1F
100
AcDbEntity
  8
0
370
    60
100
AcDbLine
 10
2973.749265113123
 20
2214.902760163799
 30
0.0
 11
2973.749265113123
 21
2224.918990404599
 31
0.0
  0
LINE
  5
223
330
1F
100
AcDbEntity
  8
0
370
    60
100
AcDbLine
 10
2975.734395964723
 20
2214.902760163799
 30
0.0
 11
2975.734395964723
 21
2224.918990404599
 31
0.0
  0
LINE
  5
224
330
1F
100
AcDbEntity
  8
0
370
    60
100
AcDbLine
 10
2973.749265113123
 20
2221.413312269299
 30
0.0
 11
2963.823586586723
 21
2221.413312269299
 31
0.0
  0
ELLIPSE
  5
225
330
1F
100
AcDbEntity
  8
0
370
    60
100
AcDbEllipse
 10
2967.698546283123
 20
2224.918990404599
 30
0.0
 11
0.0
 21
2.889171910100115
 31
0.0
210
0.0
220
0.0
230
1.0
 40
0.9909595015067497
 41
1.023919955336376
 42
2.117672698253352
  0
ELLIPSE
  5
226
330
1F
100
AcDbEntity
  8
0
370
    60
100
AcDbEllipse
 10
2968.326066436123
 20
2224.918990404599
 30
0.0
 11
0.0
 21
2.889171910100115
 31
0.0
210
0.0
220
0.0
230
1.0
 40
0.9909595015067497
 41
4.165512608926161
 42
5.259265351843145
  0
LINE
  5
227
330
1F
100
AcDbEntity
  8
0
370
    60
100
AcDbLine
 10
2970.771556701523
 20
2226.421427389699
 30
0.0
 11
2965.253056017723
 21
2226.421427389699
 31
0.0
  0
LINE
  5
228
330
1F
100
AcDbEntity
  8
0
370
    60
100
AcDbLine
 10
2973.749265113123
 20
2228.424668539899
 30
0.0
 11
2963.823586586723
 21
2228.424668539899
 31
0.0
  0
LINE
  5
229
330
1F
100
AcDbEntity
  8
0
370
    60
100
AcDbLine
 10
2970.771556701523
 20
2223.416553419499
 30
0.0
 11
2965.253056017723
 21
2223.416553419499
 31
0.0
  0
LINE
  5
22A
330
1F
100
AcDbEntity
  8
0
370
    60
100
AcDbLine
 10
2975.734395964723
 20
2214.902760163799
 30
0.0
 11
2967.793860424123
 21
2214.902760163799
 31
0.0
  0
LINE
  5
22B
330
1F
100
AcDbEntity
  8
0
370
    60
100
AcDbLine
 10
2965.866002996523
 20
2147.794022448399
 30
0.0
 11
2955.883038911923
 21
2147.794022448399
 31
0.0
  0
LINE
  5
22C
330
1F
100
AcDbEntity
  8
0
370
    60
100
AcDbLine
 10
2967.793860424123
 20
2147.794022448399
 30
0.0
 11
2955.883038911923
 21
2147.794022448399
 31
0.0
  0
LINE
  5
22D
330
1F
100
AcDbEntity
  8
0
370
    60
100
AcDbLine
 10
2967.793860424123
 20
2150.798884173699
 30
0.0
 11
2955.883038911923
 21
2150.798884173699
 31
0.0
  0
LINE
  5
22E
330
1F
100
AcDbEntity
  8
0
370
    60
100
AcDbLine
 10
2955.883038911923
 20
2147.794022448399
 30
0.0
 11
2955.883038911923
 21
2154.019929608499
 31
0.0
  0
LINE
  5
22F
330
1F
100
AcDbEntity
  8
0
370
    60
100
AcDbLine
 10
2955.883038911923
 20
2154.019929608499
 30
0.0
 11
2885.410723801324
 21
2154.019929608499
 31
0.0
  0
LINE
  5
230
330
1F
100
AcDbEntity
  8
0
370
    60
100
AcDbLine
 10
2909.232354691523
 20
2154.019929608499
 30
0.0
 11
2909.232354691523
 21
2157.024803578699
 31
0.0
  0
LINE
  5
231
330
1F
100
AcDbEntity
  8
0
370
    60
100
AcDbLine
 10
2909.232354691523
 20
2157.024803578699
 30
0.0
 11
2885.410723801324
 21
2157.024803578699
 31
0.0
  0
ELLIPSE
  5
232
330
1F
100
AcDbEntity
  8
0
370
    60
100
AcDbEllipse
 10
2967.793860424123
 20
2153.803758143899
 30
0.0
 11
0.0
 21
6.009735695500243
 31
0.0
210
0.0
220
0.0
230
1.0
 40
0.9909595015067497
 41
3.14159265358979
 42
4.712388980384686
  0
LINE
  5
233
330
1F
100
AcDbEntity
  8
0
370
    60
100
AcDbLine
 10
2973.749265113123
 20
2155.306195128999
 30
0.0
 11
3037.758189385923
 21
2140.393755908899
 31
0.0
  0
LINE
  5
234
330
1F
100
AcDbEntity
  8
0
370
    60
100
AcDbLine
 10
2973.749265113123
 20
2153.803758143899
 30
0.0
 11
2973.749265113123
 21
2166.824850109999
 31
0.0
  0
LINE
  5
235
330
1F
100
AcDbEntity
  8
0
370
    60
100
AcDbLine
 10
2973.749265113123
 20
2166.824850109999
 30
0.0
 11
2967.793860424123
 21
2166.824850109999
 31
0.0
  0
ELLIPSE
  5
236
330
1F
100
AcDbEntity
  8
0
370
    60
100
AcDbEllipse
 10
2967.793860424123
 20
2153.803758143899
 30
0.0
 11
0.0
 21
3.00487397020028
 31
0.0
210
0.0
220
0.0
230
1.0
 40
0.9909595015067496
 41
3.14159265358979
 42
4.712388980384686
  0
LINE
  5
237
330
1F
100
AcDbEntity
  8
0
370
    60
100
AcDbLine
 10
3055.387968565923
 20
2154.545052144999
 30
0.0
 11
3055.387968565923
 21
2224.918990404599
 31
0.0
  0
LINE
  5
238
330
1F
100
AcDbEntity
  8
0
370
    60
100
AcDbLine
 10
3055.387968565923
 20
2224.918990404599
 30
0.0
 11
3055.387968565923
 21
2154.545052144999
 31
0.0
  0
LINE
  5
239
330
1F
100
AcDbEntity
  8
0
370
    60
100
AcDbLine
 10
2804.659479333923
 20
2074.925944997599
 30
0.0
 11
2885.410723801324
 21
2074.925944997599
 31
0.0
  0
ELLIPSE
  5
23A
330
1F
100
AcDbEntity
  8
0
370
    60
100
AcDbEllipse
 10
2804.659479333923
 20
2089.449473948799
 30
0.0
 11
0.0
 21
14.52352895119962
 31
0.0
210
0.0
220
0.0
230
1.0
 40
0.9909595015067497
 41
1.34390352403562
 42
3.141592653589779
  0
LINE
  5
23B
330
1F
100
AcDbEntity
  8
0
370
    60
100
AcDbLine
 10
2966.161968268723
 20
2074.925944997599
 30
0.0
 11
2885.410723801324
 21
2074.925944997599
 31
0.0
  0
ELLIPSE
  5
23C
330
1F
100
AcDbEntity
  8
0
370
    60
100
AcDbEllipse
 10
2966.161968268723
 20
2089.449473948799
 30
0.0
 11
0.0
 21
14.5235289511998
 31
0.0
210
0.0
220
0.0
230
1.0
 40
0.9909595015067497
 41
3.14159265358979
 42
4.939281783143948
  0
DIMENSION
  5
256
330
1F
100
AcDbEntity
  8
0
370
    25
100
AcDbDimension
  2
*D14
 10
3055.387968565923
 20
2444.461936833829
 30
0.0
 11
2885.410723801323
 21
2456.461936833829
 31
0.0
 70
    32
  1
340
 71
     5
 41
2.5
 42
339.9544895292002
  3
ISO-25
100
AcDbAlignedDimension
 13
2715.433479036722
 23
2242.099905282531
 33
0.0
 14
3055.387968565923
 24
2242.099905282531
 34
0.0
100
AcDbRotatedDimension
1001
ACAD
1000
DSTYLE
1002
{
1070
    41
1040
10.0
1070
   140
1040
14.0
1070
   147
1040
5.0
1070
   176
1070
     7
1070
   177
1070
     7
1002
}
  0
DIMENSION
  5
283
330
1F
100
AcDbEntity
  8
0
370
    25
100
AcDbDimension
  2
*D18
 10
3108.18801494645
 20
2074.925944997599
 30
0.0
 11
3096.18801494645
 21
2224.918990404599
 31
0.0
 70
    32
  1
300
 71
     5
 41
2.5
 42
299.9860908139999
  3
ISO-25
100
AcDbAlignedDimension
 13
2925.786346035024
 23
2374.912035811599
 33
0.0
 14
2925.786346035024
 24
2074.925944997599
 34
0.0
 50
90.0
100
AcDbRotatedDimension
1001
ACAD
1000
DSTYLE
1002
{
1070
    41
1040
10.0
1070
   140
1040
14.0
1070
   147
1040
5.0
1070
   176
1070
     7
1070
   177
1070
     7
1002
}
  0
VIEWPORT
  5
BB
330
73
100
AcDbEntity
 67
     1
  8
0
100
AcDbViewport
 10
7.8
 20
4.5
 30
0.0
 40
15.64
 41
9.0
 68
     1
 69
     1
 12
6.0
 22
4.5
 13
0.0
 23
0.0
 14
0.5
 24
0.5
 15
0.5
 25
0.5
 16
0.0
 26
0.0
 36
1.0
 17
0.0
 27
0.0
 37
0.0
 42
50.0
 43
0.0
 44
0.0
 45
12.0
 50
0.0
 51
0.0
 72
   100
 90
   557152
  1

281
     0
 71
     1
 74
     0
110
0.0
120
0.0
130
0.0
111
1.0
121
0.0
131
0.0
112
0.0
122
1.0
132
0.0
 79
     0
146
0.0
  0
ENDSEC
  0
SECTION
  2
OBJECTS
  0
DICTIONARY
  5
C
330
0
100
AcDbDictionary
281
     1
  3
ACAD_COLOR
350
6C
  3
ACAD_GROUP
350
D
  3
ACAD_LAYOUT
350
1A
  3
ACAD_MATERIAL
350
6B
  3
ACAD_MLEADERSTYLE
350
2DD
  3
ACAD_MLINESTYLE
350
17
  3
ACAD_PLOTSETTINGS
350
19
  3
ACAD_PLOTSTYLENAME
350
E
  3
ACAD_SCALELIST
350
99
  3
ACAD_TABLESTYLE
350
92
  3
ACDBHEADERROUNDTRIPXREC
350
2DE
  3
AcDbVariableDictionary
350
59
  3
DWGPROPS
350
2E1
  0
DICTIONARY
  5
6C
102
{ACAD_REACTORS
330
C
102
}
330
C
100
AcDbDictionary
281
     1
  0
DICTIONARY
  5
D
102
{ACAD_REACTORS
330
C
102
}
330
C
100
AcDbDictionary
281
     1
  0
DICTIONARY
  5
1A
102
{ACAD_REACTORS
330
C
102
}
330
C
100
AcDbDictionary
281
     1
  3
Layout1
350
74
  3
Layout2
350
2B5
  3
Model
350
22
  0
DICTIONARY
  5
6B
102
{ACAD_REACTORS
330
C
102
}
330
C
100
AcDbDictionary
281
     1
  0
DICTIONARY
  5
2DD
102
{ACAD_REACTORS
330
C
102
}
330
C
100
AcDbDictionary
281
     1
  0
DICTIONARY
  5
17
102
{ACAD_REACTORS
330
C
102
}
330
C
100
AcDbDictionary
281
     1
  3
Standard
350
18
  0
DICTIONARY
  5
19
102
{ACAD_REACTORS
330
C
102
}
330
C
100
AcDbDictionary
281
     1
  0
ACDBDICTIONARYWDFLT
  5
E
102
{ACAD_REACTORS
330
C
102
}
330
C
100
AcDbDictionary
281
     1
  3
Normal
350
F
100
AcDbDictionaryWithDefault
340
F
  0
DICTIONARY
  5
99
102
{ACAD_REACTORS
330
C
102
}
330
C
100
AcDbDictionary
281
     1
  3
A0
350
D5
  3
A1
350
D6
  3
A2
350
D7
  3
A3
350
D8
  3
A4
350
D9
  3
A5
350
DA
  3
A6
350
DB
  3
A7
350
DC
  3
A8
350
DD
  3
A9
350
DE
  3
B0
350
DF
  3
B1
350
E0
  3
B2
350
E1
  3
B3
350
E2
  3
B4
350
E3
  3
B5
350
E4
  3
B6
350
E5
  3
B7
350
E6
  3
B8
350
E7
  3
B9
350
E8
  3
C0
350
E9
  3
C1
350
EA
  3
C2
350
EB
  3
C3
350
EC
  3
C4
350
ED
  3
C5
350
EE
  3
C6
350
EF
  3
C7
350
F0
  3
C8
350
F1
  3
C9
350
F2
  3
D0
350
F3
  3
D1
350
F4
  3
D2
350
F5
  0
DICTIONARY
  5
92
102
{ACAD_REACTORS
330
C
102
}
330
C
100
AcDbDictionary
281
     1
  0
DICTIONARY
  5
2DE
102
{ACAD_REACTORS
330
C
102
}
330
C
100
AcDbDictionary
281
     1
  3
COLORDICT
350
2DF
  3
MATERIALDICT
350
2E0
  0
DICTIONARY
  5
59
102
{ACAD_REACTORS
330
C
102
}
330
C
100
AcDbDictionary
281
     1
  3
CTABLESTYLE
350
98
  3
DIMASSOC
350
5A
  3
HIDETEXT
350
5E
  0
XRECORD
  5
2E1
102
{ACAD_REACTORS
330
C
102
}
330
C
100
AcDbXrecord
280
     1
  1
DWGPROPS COOKIE
  2

  3

  4

  6

  7

  8
BelottiMc
  9

300
=
301
=
302
=
303
=
304
=
305
=
306
=
307
=
308
=
309
=
 40
0.0
 41
2455091.510897083
 42
2455091.55256375
  1

 90
        0
  0
LAYOUT
  5
74
102
{ACAD_REACTORS
330
1A
102
}
330
1A
100
AcDbPlotSettings
  1

  2
ProgeSOFT PDF Wizard
  4
A4
  6

 40
5.926666666666667
 41
6.011333333333317
 42
6.095999999999985
 43
5.926666666666667
 44
210.0
 45
297.0
 46
88.56200000000001
 47
136.531
 48
0.0
 49
0.0
140
0.0
141
0.0
142
1.0
143
1.0
 70
   692
 72
     1
 73
     0
 74
     0
  7

 75
    16
147
1.0
148
4.426666666666668
149
1.5
100
AcDbLayout
  1
Layout1
 70
     1
 71
     1
 10
0.0
 20
0.0
 11
0.0
 21
0.0
 12
0.0
 22
0.0
 32
0.0
 14
0.0
 24
0.0
 34
0.0
 15
0.0
 25
0.0
 35
0.0
146
0.0
 13
0.0
 23
0.0
 33
0.0
 16
1.0
 26
0.0
 36
0.0
 17
0.0
 27
1.0
 37
0.0
 76
     0
330
D1
331
2DC
1001
PROGE_PRINT_SETTINGS
1070
    73
1070
     1
  0
LAYOUT
  5
2B5
102
{ACAD_REACTORS
330
1A
102
}
330
1A
100
AcDbPlotSettings
  1

  2
ProgeSOFT PDF Wizard
  4
A4
  6

 40
5.926666666666667
 41
6.011333333333317
 42
6.095999999999985
 43
5.926666666666667
 44
210.0
 45
297.0
 46
88.562
 47
136.531
 48
0.0
 49
0.0
140
0.0
141
0.0
142
1.0
143
1.0
 70
   692
 72
     1
 73
     0
 74
     0
  7

 75
    16
147
1.0
148
0.0
149
0.0
100
AcDbLayout
  1
Layout2
 70
     1
 71
     2
 10
0.0
 20
0.0
 11
12.0
 21
9.0
 12
0.0
 22
0.0
 32
0.0
 14
0.0
 24
0.0
 34
0.0
 15
12.0
 25
9.0
 35
0.0
146
0.0
 13
0.0
 23
0.0
 33
0.0
 16
1.0
 26
0.0
 36
0.0
 17
0.0
 27
1.0
 37
0.0
 76
     0
330
73
331
BB
1001
PROGE_PRINT_SETTINGS
1070
    73
1070
     1
  0
LAYOUT
  5
22
102
{ACAD_REACTORS
330
1A
102
}
330
1A
100
AcDbPlotSettings
  1

  2
ProgeSOFT PDF Wizard
  4
A4
  6

 40
5.926666666666667
 41
6.011333333333317
 42
6.095999999999985
 43
5.926666666666667
 44
210.0
 45
297.0
 46
-0.0000000000000019
 47
83.07219027892847
 48
0.0
 49
0.0
140
0.0
141
0.0
142
1.0
143
4.1461330103877
 70
 11956
 72
     1
 73
     0
 74
     0
  7

 75
     0
147
0.2411885960953508
148
-2451.805171095954
149
-2007.107070496991
100
AcDbLayout
  1
Model
 70
     1
 71
     0
 10
0.0
 20
0.0
 11
0.0
 21
0.0
 12
0.0
 22
0.0
 32
0.0
 14
0.0
 24
0.0
 34
0.0
 15
3182.325413138776
 25
2483.563760142623
 35
0.0
146
0.0
 13
0.0
 23
0.0
 33
0.0
 16
1.0
 26
0.0
 36
0.0
 17
0.0
 27
1.0
 37
0.0
 76
     0
330
1F
331
97
1001
PROGE_PRINT_SETTINGS
1070
    73
1070
     1
  0
MLINESTYLE
  5
18
102
{ACAD_REACTORS
330
17
102
}
330
17
100
AcDbMlineStyle
  2
STANDARD
 70
     0
  3

 62
   256
 51
90.0
 52
90.0
 71
     2
 49
0.5
 62
   256
  6
BYLAYER
 49
-0.5
 62
   256
  6
BYLAYER
  0
ACDBPLACEHOLDER
  5
F
102
{ACAD_REACTORS
330
E
102
}
330
E
  0
SCALE
  5
D5
102
{ACAD_REACTORS
330
99
102
}
330
99
100
AcDbScale
 70
     0
300
1:1
140
1.0
141
1.0
290
     1
  0
SCALE
  5
D6
102
{ACAD_REACTORS
330
99
102
}
330
99
100
AcDbScale
 70
     0
300
1:2
140
1.0
141
2.0
290
     0
  0
SCALE
  5
D7
102
{ACAD_REACTORS
330
99
102
}
330
99
100
AcDbScale
 70
     0
300
1:4
140
1.0
141
4.0
290
     0
  0
SCALE
  5
D8
102
{ACAD_REACTORS
330
99
102
}
330
99
100
AcDbScale
 70
     0
300
1:5
140
1.0
141
5.0
290
     0
  0
SCALE
  5
D9
102
{ACAD_REACTORS
330
99
102
}
330
99
100
AcDbScale
 70
     0
300
1:8
140
1.0
141
8.0
290
     0
  0
SCALE
  5
DA
102
{ACAD_REACTORS
330
99
102
}
330
99
100
AcDbScale
 70
     0
300
1:10
140
1.0
141
10.0
290
     0
  0
SCALE
  5
DB
102
{ACAD_REACTORS
330
99
102
}
330
99
100
AcDbScale
 70
     0
300
1:16
140
1.0
141
16.0
290
     0
  0
SCALE
  5
DC
102
{ACAD_REACTORS
330
99
102
}
330
99
100
AcDbScale
 70
     0
300
1:20
140
1.0
141
20.0
290
     0
  0
SCALE
  5
DD
102
{ACAD_REACTORS
330
99
102
}
330
99
100
AcDbScale
 70
     0
300
1:30
140
1.0
141
30.0
290
     0
  0
SCALE
  5
DE
102
{ACAD_REACTORS
330
99
102
}
330
99
100
AcDbScale
 70
     0
300
1:40
140
1.0
141
40.0
290
     0
  0
SCALE
  5
DF
102
{ACAD_REACTORS
330
99
102
}
330
99
100
AcDbScale
 70
     0
300
1:50
140
1.0
141
50.0
290
     0
  0
SCALE
  5
E0
102
{ACAD_REACTORS
330
99
102
}
330
99
100
AcDbScale
 70
     0
300
1:100
140
1.0
141
100.0
290
     0
  0
SCALE
  5
E1
102
{ACAD_REACTORS
330
99
102
}
330
99
100
AcDbScale
 70
     0
300
2:1
140
2.0
141
1.0
290
     0
  0
SCALE
  5
E2
102
{ACAD_REACTORS
330
99
102
}
330
99
100
AcDbScale
 70
     0
300
4:1
140
4.0
141
1.0
290
     0
  0
SCALE
  5
E3
102
{ACAD_REACTORS
330
99
102
}
330
99
100
AcDbScale
 70
     0
300
8:1
140
8.0
141
1.0
290
     0
  0
SCALE
  5
E4
102
{ACAD_REACTORS
330
99
102
}
330
99
100
AcDbScale
 70
     0
300
10:1
140
10.0
141
1.0
290
     0
  0
SCALE
  5
E5
102
{ACAD_REACTORS
330
99
102
}
330
99
100
AcDbScale
 70
     0
300
100:1
140
100.0
141
1.0
290
     0
  0
SCALE
  5
E6
102
{ACAD_REACTORS
330
99
102
}
330
99
100
AcDbScale
 70
     0
300
1/128" = 1'-0"
140
0.0078125
141
12.0
290
     0
  0
SCALE
  5
E7
102
{ACAD_REACTORS
330
99
102
}
330
99
100
AcDbScale
 70
     0
300
1/64" = 1'-0"
140
0.015625
141
12.0
290
     0
  0
SCALE
  5
E8
102
{ACAD_REACTORS
330
99
102
}
330
99
100
AcDbScale
 70
     0
300
1/32" = 1'-0"
140
0.03125
141
12.0
290
     0
  0
SCALE
  5
E9
102
{ACAD_REACTORS
330
99
102
}
330
99
100
AcDbScale
 70
     0
300
1/16" = 1'-0"
140
0.0625
141
12.0
290
     0
  0
SCALE
  5
EA
102
{ACAD_REACTORS
330
99
102
}
330
99
100
AcDbScale
 70
     0
300
3/32" = 1'-0"
140
0.09375
141
12.0
290
     0
  0
SCALE
  5
EB
102
{ACAD_REACTORS
330
99
102
}
330
99
100
AcDbScale
 70
     0
300
1/8" = 1'-0"
140
0.125
141
12.0
290
     0
  0
SCALE
  5
EC
102
{ACAD_REACTORS
330
99
102
}
330
99
100
AcDbScale
 70
     0
300
3/16" = 1'-0"
140
0.1875
141
12.0
290
     0
  0
SCALE
  5
ED
102
{ACAD_REACTORS
330
99
102
}
330
99
100
AcDbScale
 70
     0
300
1/4" = 1'-0"
140
0.25
141
12.0
290
     0
  0
SCALE
  5
EE
102
{ACAD_REACTORS
330
99
102
}
330
99
100
AcDbScale
 70
     0
300
3/8" = 1'-0"
140
0.375
141
12.0
290
     0
  0
SCALE
  5
EF
102
{ACAD_REACTORS
330
99
102
}
330
99
100
AcDbScale
 70
     0
300
1/2" = 1'-0"
140
0.5
141
12.0
290
     0
  0
SCALE
  5
F0
102
{ACAD_REACTORS
330
99
102
}
330
99
100
AcDbScale
 70
     0
300
3/4" = 1'-0"
140
0.75
141
12.0
290
     0
  0
SCALE
  5
F1
102
{ACAD_REACTORS
330
99
102
}
330
99
100
AcDbScale
 70
     0
300
1" = 1'-0"
140
1.0
141
12.0
290
     0
  0
SCALE
  5
F2
102
{ACAD_REACTORS
330
99
102
}
330
99
100
AcDbScale
 70
     0
300
1-1/2" = 1'-0"
140
1.5
141
12.0
290
     0
  0
SCALE
  5
F3
102
{ACAD_REACTORS
330
99
102
}
330
99
100
AcDbScale
 70
     0
300
3" = 1'-0"
140
3.0
141
12.0
290
     0
  0
SCALE
  5
F4
102
{ACAD_REACTORS
330
99
102
}
330
99
100
AcDbScale
 70
     0
300
6" = 1'-0"
140
6.0
141
12.0
290
     0
  0
SCALE
  5
F5
102
{ACAD_REACTORS
330
99
102
}
330
99
100
AcDbScale
 70
     0
300
1'-0" = 1'-0"
140
12.0
141
12.0
290
     0
  0
XRECORD
  5
2DF
102
{ACAD_REACTORS
330
2DE
102
}
330
2DE
100
AcDbXrecord
280
     1
340
6C
  0
XRECORD
  5
2E0
102
{ACAD_REACTORS
330
2DE
102
}
330
2DE
100
AcDbXrecord
280
     1
340
6B
  0
DICTIONARYVAR
  5
98
102
{ACAD_REACTORS
330
59
102
}
330
59
100
DictionaryVariables
280
     0
  1
Standard
  0
DICTIONARYVAR
  5
5A
102
{ACAD_REACTORS
330
59
102
}
330
59
100
DictionaryVariables
280
     0
  1
2
  0
DICTIONARYVAR
  5
5E
102
{ACAD_REACTORS
330
59
102
}
330
59
100
DictionaryVariables
280
     0
  1
1
  0
ENDSEC
  0
EOF
