  0
SECTION
  2
HEADER
  9
$ACADVER
  1
AC1015
  9
$ACADMAINTVER
 70
     6
  9
$DWGCODEPAGE
  3
ANSI_1252
  9
$INSBASE
 10
0.0
 20
0.0
 30
0.0
  9
$EXTMIN
 10
0.0
 20
0.0
 30
0.0
  9
$EXTMAX
 10
3731.667315386891
 20
3321.718490228585
 30
0.0
  9
$LIMMIN
 10
0.0
 20
0.0
  9
$LIMMAX
 10
0.0
 20
0.0
  9
$ORTHOMODE
 70
     0
  9
$REGENMODE
 70
     1
  9
$FILLMODE
 70
     1
  9
$QTEXTMODE
 70
     0
  9
$MIRRTEXT
 70
     0
  9
$LTSCALE
 40
1.0
  9
$ATTMODE
 70
     1
  9
$TEXTSIZE
 40
2.5
  9
$TRACEWID
 40
1.0
  9
$TEXTSTYLE
  7
Standard
  9
$CLAYER
  8
0
  9
$CELTYPE
  6
ByLayer
  9
$CECOLOR
 62
   256
  9
$CELTSCALE
 40
1.0
  9
$DISPSILH
 70
     0
  9
$DIMSCALE
 40
1.0
  9
$DIMASZ
 40
2.5
  9
$DIMEXO
 40
0.625
  9
$DIMDLI
 40
3.75
  9
$DIMRND
 40
0.0
  9
$DIMDLE
 40
0.0
  9
$DIMEXE
 40
1.25
  9
$DIMTP
 40
0.0
  9
$DIMTM
 40
0.0
  9
$DIMTXT
 40
2.5
  9
$DIMCEN
 40
2.5
  9
$DIMTSZ
 40
0.0
  9
$DIMTOL
 70
     0
  9
$DIMLIM
 70
     0
  9
$DIMTIH
 70
     0
  9
$DIMTOH
 70
     0
  9
$DIMSE1
 70
     0
  9
$DIMSE2
 70
     0
  9
$DIMTAD
 70
     1
  9
$DIMZIN
 70
     8
  9
$DIMBLK
  1

  9
$DIMASO
 70
     1
  9
$DIMSHO
 70
     1
  9
$DIMPOST
  1

  9
$DIMAPOST
  1

  9
$DIMALT
 70
     0
  9
$DIMALTD
 70
     3
  9
$DIMALTF
 40
0.03937007874016
  9
$DIMLFAC
 40
1.0
  9
$DIMTOFL
 70
     1
  9
$DIMTVP
 40
0.0
  9
$DIMTIX
 70
     0
  9
$DIMSOXD
 70
     0
  9
$DIMSAH
 70
     0
  9
$DIMBLK1
  1

  9
$DIMBLK2
  1

  9
$DIMSTYLE
  2
ISO-25
  9
$DIMCLRD
 70
     0
  9
$DIMCLRE
 70
     0
  9
$DIMCLRT
 70
     0
  9
$DIMTFAC
 40
1.0
  9
$DIMGAP
 40
0.625
  9
$DIMJUST
 70
     0
  9
$DIMSD1
 70
     0
  9
$DIMSD2
 70
     0
  9
$DIMTOLJ
 70
     0
  9
$DIMTZIN
 70
     8
  9
$DIMALTZ
 70
     0
  9
$DIMALTTZ
 70
     0
  9
$DIMUPT
 70
     0
  9
$DIMDEC
 70
     2
  9
$DIMTDEC
 70
     2
  9
$DIMALTU
 70
     2
  9
$DIMALTTD
 70
     3
  9
$DIMTXSTY
  7
Standard
  9
$DIMAUNIT
 70
     0
  9
$DIMADEC
 70
     0
  9
$DIMALTRND
 40
0.0
  9
$DIMAZIN
 70
     0
  9
$DIMDSEP
 70
    44
  9
$DIMATFIT
 70
     3
  9
$DIMFRAC
 70
     0
  9
$DIMLDRBLK
  1

  9
$DIMLUNIT
 70
     2
  9
$DIMLWD
 70
    -2
  9
$DIMLWE
 70
    -2
  9
$DIMTMOVE
 70
     0
  9
$LUNITS
 70
     2
  9
$LUPREC
 70
     4
  9
$SKETCHINC
 40
1.0
  9
$FILLETRAD
 40
0.0
  9
$AUNITS
 70
     0
  9
$AUPREC
 70
     0
  9
$MENU
  1
.
  9
$ELEVATION
 40
0.0
  9
$PELEVATION
 40
0.0
  9
$THICKNESS
 40
0.0
  9
$LIMCHECK
 70
     0
  9
$CHAMFERA
 40
0.0
  9
$CHAMFERB
 40
0.0
  9
$CHAMFERC
 40
0.0
  9
$CHAMFERD
 40
0.0
  9
$SKPOLY
 70
     0
  9
$TDCREATE
 40
2455091.518246887
  9
$TDUCREATE
 40
2455091.434913553
  9
$TDUPDATE
 40
2455091.559913542
  9
$TDUUPDATE
 40
2455091.476580208
  9
$TDINDWG
 40
0.0963011574
  9
$TDUSRTIMER
 40
0.0962987963
  9
$USRTIMER
 70
     1
  9
$ANGBASE
 50
0.0
  9
$ANGDIR
 70
     0
  9
$PDMODE
 70
     0
  9
$PDSIZE
 40
0.0
  9
$PLINEWID
 40
0.0
  9
$SPLFRAME
 70
     0
  9
$SPLINETYPE
 70
     6
  9
$SPLINESEGS
 70
     8
  9
$HANDSEED
  5
3A3
  9
$SURFTAB1
 70
     6
  9
$SURFTAB2
 70
     6
  9
$SURFTYPE
 70
     6
  9
$SURFU
 70
     6
  9
$SURFV
 70
     6
  9
$UCSBASE
  2

  9
$UCSNAME
  2

  9
$UCSORG
 10
0.0
 20
0.0
 30
0.0
  9
$UCSXDIR
 10
1.0
 20
0.0
 30
0.0
  9
$UCSYDIR
 10
0.0
 20
1.0
 30
0.0
  9
$UCSORTHOREF
  2

  9
$UCSORTHOVIEW
 70
     0
  9
$UCSORGTOP
 10
0.0
 20
0.0
 30
0.0
  9
$UCSORGBOTTOM
 10
0.0
 20
0.0
 30
0.0
  9
$UCSORGLEFT
 10
0.0
 20
0.0
 30
0.0
  9
$UCSORGRIGHT
 10
0.0
 20
0.0
 30
0.0
  9
$UCSORGFRONT
 10
0.0
 20
0.0
 30
0.0
  9
$UCSORGBACK
 10
0.0
 20
0.0
 30
0.0
  9
$PUCSBASE
  2

  9
$PUCSNAME
  2

  9
$PUCSORG
 10
0.0
 20
0.0
 30
0.0
  9
$PUCSXDIR
 10
1.0
 20
0.0
 30
0.0
  9
$PUCSYDIR
 10
0.0
 20
1.0
 30
0.0
  9
$PUCSORTHOREF
  2

  9
$PUCSORTHOVIEW
 70
     0
  9
$PUCSORGTOP
 10
0.0
 20
0.0
 30
0.0
  9
$PUCSORGBOTTOM
 10
0.0
 20
0.0
 30
0.0
  9
$PUCSORGLEFT
 10
0.0
 20
0.0
 30
0.0
  9
$PUCSORGRIGHT
 10
0.0
 20
0.0
 30
0.0
  9
$PUCSORGFRONT
 10
0.0
 20
0.0
 30
0.0
  9
$PUCSORGBACK
 10
0.0
 20
0.0
 30
0.0
  9
$USERI1
 70
     0
  9
$USERI2
 70
     0
  9
$USERI3
 70
     0
  9
$USERI4
 70
     0
  9
$USERI5
 70
     0
  9
$USERR1
 40
0.0
  9
$USERR2
 40
0.0
  9
$USERR3
 40
0.0
  9
$USERR4
 40
0.0
  9
$USERR5
 40
0.0
  9
$WORLDVIEW
 70
     1
  9
$SHADEDGE
 70
     3
  9
$SHADEDIF
 70
    70
  9
$TILEMODE
 70
     1
  9
$MAXACTVP
 70
    64
  9
$PINSBASE
 10
0.0
 20
0.0
 30
0.0
  9
$PLIMCHECK
 70
     0
  9
$PEXTMIN
 10
0.0
 20
0.0
 30
0.0
  9
$PEXTMAX
 10
12.0
 20
9.0
 30
0.0
  9
$PLIMMIN
 10
0.0
 20
0.0
  9
$PLIMMAX
 10
12.0
 20
9.0
  9
$UNITMODE
 70
     0
  9
$VISRETAIN
 70
     1
  9
$PLINEGEN
 70
     0
  9
$PSLTSCALE
 70
     1
  9
$TREEDEPTH
 70
  3020
  9
$CMLSTYLE
  2
Standard
  9
$CMLJUST
 70
     0
  9
$CMLSCALE
 40
20.0
  9
$PROXYGRAPHICS
 70
     1
  9
$MEASUREMENT
 70
     1
  9
$CELWEIGHT
370
    -1
  9
$ENDCAPS
280
     0
  9
$JOINSTYLE
280
     0
  9
$LWDISPLAY
290
     0
  9
$INSUNITS
 70
     4
  9
$HYPERLINKBASE
  1

  9
$STYLESHEET
  1

  9
$XEDIT
290
     1
  9
$CEPSNTYPE
380
     0
  9
$PSTYLEMODE
290
     1
  9
$FINGERPRINTGUID
  2
{5559452E-1E62-4159-8551-BF76FFF3E7E8}
  9
$VERSIONGUID
  2
{3CEB9EF8-4431-4551-B596-6734A9F966A9}
  9
$EXTNAMES
290
     1
  9
$PSVPSCALE
 40
0.0
  9
$OLESTARTUP
290
     0
  0
ENDSEC
  0
SECTION
  2
CLASSES
  0
CLASS
  1
ACDBDICTIONARYWDFLT
  2
AcDbDictionaryWithDefault
  3
ObjectDBX Classes
 90
        0
280
     0
281
     0
  0
CLASS
  1
ACDBPLACEHOLDER
  2
AcDbPlaceHolder
  3
ObjectDBX Classes
 90
        0
280
     0
281
     0
  0
CLASS
  1
LAYOUT
  2
AcDbLayout
  3
ObjectDBX Classes
 90
        0
280
     0
281
     0
  0
CLASS
  1
DICTIONARYVAR
  2
AcDbDictionaryVar
  3
ObjectDBX Classes
 90
        0
280
     0
281
     0
  0
CLASS
  1
TABLESTYLE
  2
AcDbTableStyle
  3
ObjectDBX Classes
 90
     4095
280
     0
281
     0
  0
CLASS
  1
SCALE
  2
AcDbScale
  3
ObjectDBX Classes
 90
     1153
280
     0
281
     0
  0
ENDSEC
  0
SECTION
  2
TABLES
  0
TABLE
  2
VPORT
  5
8
330
0
100
AcDbSymbolTable
 70
     2
  0
VPORT
  5
97
330
8
100
AcDbSymbolTableRecord
100
AcDbViewportTableRecord
  2
*Active
 70
     0
 10
0.0
 20
0.0
 11
1.0
 21
1.0
 12
3505.631064569126
 22
2997.839260284538
 13
0.0
 23
0.0
 14
10.0
 24
10.0
 15
10.0
 25
10.0
 16
0.0
 26
0.0
 36
1.0
 17
0.0
 27
0.0
 37
0.0
 40
449.1966694478871
 41
1.664827586206897
 42
50.0
 43
0.0
 44
0.0
 50
0.0
 51
0.0
 71
     0
 72
  1000
 73
     1
 74
     3
 75
     0
 76
     0
 77
     0
 78
     0
281
     0
 65
     1
110
0.0
120
0.0
130
0.0
111
1.0
121
0.0
131
0.0
112
0.0
122
1.0
132
0.0
 79
     0
146
0.0
  0
ENDTAB
  0
TABLE
  2
LTYPE
  5
5
330
0
100
AcDbSymbolTable
 70
     3
  0
LTYPE
  5
14
330
5
100
AcDbSymbolTableRecord
100
AcDbLinetypeTableRecord
  2
ByBlock
 70
     0
  3

 72
    65
 73
     0
 40
0.0
  0
LTYPE
  5
15
330
5
100
AcDbSymbolTableRecord
100
AcDbLinetypeTableRecord
  2
ByLayer
 70
     0
  3

 72
    65
 73
     0
 40
0.0
  0
LTYPE
  5
16
330
5
100
AcDbSymbolTableRecord
100
AcDbLinetypeTableRecord
  2
Continuous
 70
     0
  3
Solid line
 72
    65
 73
     0
 40
0.0
  0
LTYPE
  5
369
330
5
100
AcDbSymbolTableRecord
100
AcDbLinetypeTableRecord
  2
TRATTO-PUNTO
 70
     0
  3
__ . __ . __ . __ . __ . __ . __ . __ . __ . __
 72
    65
 73
     4
 40
1.0
 49
0.5
 74
     0
 49
-0.25
 74
     0
 49
0.0
 74
     0
 49
-0.25
 74
     0
  0
LTYPE
  5
36A
330
5
100
AcDbSymbolTableRecord
100
AcDbLinetypeTableRecord
  2
BORDER
 70
     0
  3
Border __ __ . __ __ . __ __ . __ __ . __ __ .
 72
    65
 73
     6
 40
44.45
 49
12.7
 74
     0
 49
-6.35
 74
     0
 49
12.7
 74
     0
 49
-6.35
 74
     0
 49
0.0
 74
     0
 49
-6.35
 74
     0
  0
ENDTAB
  0
TABLE
  2
LAYER
  5
2
330
0
100
AcDbSymbolTable
 70
     2
  0
LAYER
  5
10
330
2
100
AcDbSymbolTableRecord
100
AcDbLayerTableRecord
  2
0
 70
     0
 62
     7
  6
Continuous
370
    -3
390
F
  0
LAYER
  5
FA
330
2
100
AcDbSymbolTableRecord
100
AcDbLayerTableRecord
  2
DEFPOINTS
 70
     0
 62
     7
  6
Continuous
290
     0
370
    -3
390
F
  0
ENDTAB
  0
TABLE
  2
STYLE
  5
3
330
0
100
AcDbSymbolTable
 70
     2
  0
STYLE
  5
11
330
3
100
AcDbSymbolTableRecord
100
AcDbTextStyleTableRecord
  2
Standard
 70
     0
 40
0.0
 41
1.0
 50
0.0
 71
     0
 42
2.5
  3
txt
  4

  0
STYLE
  5
F8
330
3
100
AcDbSymbolTableRecord
100
AcDbTextStyleTableRecord
  2
H
 70
     0
 40
1.75
 41
1.0
 50
0.0
 71
     0
 42
1.75
  3
swiss.ttf
  4

1001
ACAD
1000
Swis721 BT
1071
       34
  0
ENDTAB
  0
TABLE
  2
VIEW
  5
6
330
0
100
AcDbSymbolTable
 70
     0
  0
ENDTAB
  0
TABLE
  2
UCS
  5
7
330
0
100
AcDbSymbolTable
 70
     0
  0
ENDTAB
  0
TABLE
  2
APPID
  5
9
330
0
100
AcDbSymbolTable
 70
     2
  0
APPID
  5
12
330
9
100
AcDbSymbolTableRecord
100
AcDbRegAppTableRecord
  2
ACAD
 70
     0
  0
APPID
  5
368
330
9
100
AcDbSymbolTableRecord
100
AcDbRegAppTableRecord
  2
PROGE_PRINT_SETTINGS
 70
     0
  0
ENDTAB
  0
TABLE
  2
DIMSTYLE
  5
A
330
0
100
AcDbSymbolTable
 70
     3
100
AcDbDimStyleTable
  0
DIMSTYLE
105
27
330
A
100
AcDbSymbolTableRecord
100
AcDbDimStyleTableRecord
  2
Standard
 70
     0
278
     0
340
11
  0
DIMSTYLE
105
29
102
{ACAD_REACTORS
330
300
330
35B
102
}
330
A
100
AcDbSymbolTableRecord
100
AcDbDimStyleTableRecord
  2
ISO-25
 70
     0
 41
2.5
 42
0.625
 43
3.75
 44
1.25
 73
     0
 74
     0
 77
     1
 78
     8
140
2.5
141
2.5
143
0.03937007874016
147
0.625
171
     3
172
     1
271
     2
272
     2
274
     3
278
    44
283
     0
284
     8
340
11
  0
DIMSTYLE
105
FB
102
{ACAD_REACTORS
330
108
330
109
102
}
330
A
100
AcDbSymbolTableRecord
100
AcDbDimStyleTableRecord
  2
GEWISS
 70
     0
 41
1.7
 42
1.0
 43
7.0
 44
0.3
 73
     0
 74
     0
 77
     1
140
1.75
141
1.5
147
0.75
172
     1
176
     1
177
     1
340
F8
  0
ENDTAB
  0
TABLE
  2
BLOCK_RECORD
  5
1
330
0
100
AcDbSymbolTable
 70
    24
  0
BLOCK_RECORD
  5
1F
330
1
100
AcDbSymbolTableRecord
100
AcDbBlockTableRecord
  2
*Model_Space
340
22
  0
BLOCK_RECORD
  5
73
330
1
100
AcDbSymbolTableRecord
100
AcDbBlockTableRecord
  2
*Paper_Space
340
36C
  0
BLOCK_RECORD
  5
D1
330
1
100
AcDbSymbolTableRecord
100
AcDbBlockTableRecord
  2
*Paper_Space0
340
74
  0
BLOCK_RECORD
  5
106
330
1
100
AcDbSymbolTableRecord
100
AcDbBlockTableRecord
  2
*D1
340
0
  0
BLOCK_RECORD
  5
111
330
1
100
AcDbSymbolTableRecord
100
AcDbBlockTableRecord
  2
*D2
340
0
  0
BLOCK_RECORD
  5
11C
330
1
100
AcDbSymbolTableRecord
100
AcDbBlockTableRecord
  2
*D3
340
0
  0
BLOCK_RECORD
  5
127
330
1
100
AcDbSymbolTableRecord
100
AcDbBlockTableRecord
  2
*D4
340
0
  0
BLOCK_RECORD
  5
132
330
1
100
AcDbSymbolTableRecord
100
AcDbBlockTableRecord
  2
*D5
340
0
  0
BLOCK_RECORD
  5
13E
330
1
100
AcDbSymbolTableRecord
100
AcDbBlockTableRecord
  2
*D6
340
0
  0
BLOCK_RECORD
  5
20C
330
1
100
AcDbSymbolTableRecord
100
AcDbBlockTableRecord
  2
*D7
340
0
  0
BLOCK_RECORD
  5
218
330
1
100
AcDbSymbolTableRecord
100
AcDbBlockTableRecord
  2
*D8
340
0
  0
BLOCK_RECORD
  5
2C5
330
1
100
AcDbSymbolTableRecord
100
AcDbBlockTableRecord
  2
*D9
340
0
  0
BLOCK_RECORD
  5
2D1
330
1
100
AcDbSymbolTableRecord
100
AcDbBlockTableRecord
  2
*D10
340
0
  0
BLOCK_RECORD
  5
2DE
330
1
100
AcDbSymbolTableRecord
100
AcDbBlockTableRecord
  2
*D11
340
0
  0
BLOCK_RECORD
  5
2E9
330
1
100
AcDbSymbolTableRecord
100
AcDbBlockTableRecord
  2
*D12
340
0
  0
BLOCK_RECORD
  5
2F4
330
1
100
AcDbSymbolTableRecord
100
AcDbBlockTableRecord
  2
*D13
340
0
  0
BLOCK_RECORD
  5
2FF
330
1
100
AcDbSymbolTableRecord
100
AcDbBlockTableRecord
  2
*D14
340
0
  0
BLOCK_RECORD
  5
30B
330
1
100
AcDbSymbolTableRecord
100
AcDbBlockTableRecord
  2
*D15
340
0
  0
BLOCK_RECORD
  5
316
330
1
100
AcDbSymbolTableRecord
100
AcDbBlockTableRecord
  2
*D16
340
0
  0
BLOCK_RECORD
  5
321
330
1
100
AcDbSymbolTableRecord
100
AcDbBlockTableRecord
  2
*D17
340
0
  0
BLOCK_RECORD
  5
32D
330
1
100
AcDbSymbolTableRecord
100
AcDbBlockTableRecord
  2
*D18
340
0
  0
BLOCK_RECORD
  5
338
330
1
100
AcDbSymbolTableRecord
100
AcDbBlockTableRecord
  2
*D19
340
0
  0
BLOCK_RECORD
  5
343
330
1
100
AcDbSymbolTableRecord
100
AcDbBlockTableRecord
  2
*D20
340
0
  0
BLOCK_RECORD
  5
34E
330
1
100
AcDbSymbolTableRecord
100
AcDbBlockTableRecord
  2
*D21
340
0
  0
BLOCK_RECORD
  5
35A
330
1
100
AcDbSymbolTableRecord
100
AcDbBlockTableRecord
  2
*D22
340
0
  0
BLOCK_RECORD
  5
366
330
1
100
AcDbSymbolTableRecord
100
AcDbBlockTableRecord
  2
*D23
340
0
  0
ENDTAB
  0
ENDSEC
  0
SECTION
  2
BLOCKS
  0
BLOCK
  5
20
330
1F
100
AcDbEntity
  8
0
100
AcDbBlockBegin
  2
*Model_Space
 70
     0
 10
0.0
 20
0.0
 30
0.0
  3
*Model_Space
  1

  0
ENDBLK
  5
21
330
1F
100
AcDbEntity
  8
0
100
AcDbBlockEnd
  0
BLOCK
  5
75
330
73
100
AcDbEntity
 67
     1
  8
0
100
AcDbBlockBegin
  2
*Paper_Space
 70
     0
 10
0.0
 20
0.0
 30
0.0
  3
*Paper_Space
  1

  0
ENDBLK
  5
76
330
73
100
AcDbEntity
 67
     1
  8
0
100
AcDbBlockEnd
  0
BLOCK
  5
36D
330
D1
100
AcDbEntity
  8
0
100
AcDbBlockBegin
  2
*Paper_Space0
 70
     0
 10
0.0
 20
0.0
 30
0.0
  3
*Paper_Space0
  1

  0
VIEWPORT
  5
39D
330
D1
100
AcDbEntity
  8
0
100
AcDbViewport
 10
7.8
 20
4.5
 30
0.0
 40
15.64
 41
9.0
 68
     1
 69
     1
 12
6.0
 22
4.5
 13
0.0
 23
0.0
 14
0.5
 24
0.5
 15
0.5
 25
0.5
 16
0.0
 26
0.0
 36
1.0
 17
0.0
 27
0.0
 37
0.0
 42
50.0
 43
0.0
 44
0.0
 45
12.0
 50
0.0
 51
0.0
 72
   100
 90
   557152
  1

281
     0
 71
     1
 74
     0
110
0.0
120
0.0
130
0.0
111
1.0
121
0.0
131
0.0
112
0.0
122
1.0
132
0.0
 79
     0
146
0.0
  0
ENDBLK
  5
36E
330
D1
100
AcDbEntity
  8
0
100
AcDbBlockEnd
  0
BLOCK
  5
36F
330
106
100
AcDbEntity
  8
0
100
AcDbBlockBegin
  2
*D1
 70
     1
 10
0.0
 20
0.0
 30
0.0
  3
*D1
  1

  0
POINT
  5
FD
330
106
100
AcDbEntity
  8
DEFPOINTS
  6
ByBlock
 62
     1
100
AcDbPoint
 10
53.586454
 20
52.970822
 30
0.0
  0
POINT
  5
FE
330
106
100
AcDbEntity
  8
DEFPOINTS
  6
ByBlock
 62
     1
100
AcDbPoint
 10
75.986454
 20
52.970822
 30
0.0
  0
LINE
  5
FF
330
106
100
AcDbEntity
  8
0
  6
ByBlock
 62
     1
370
    -2
100
AcDbLine
 10
53.586454
 20
53.970822
 30
0.0
 11
53.586454
 21
61.80999300000001
 31
0.0
  0
LINE
  5
100
330
106
100
AcDbEntity
  8
0
  6
ByBlock
 62
     1
370
    -2
100
AcDbLine
 10
75.986454
 20
53.970822
 30
0.0
 11
75.986454
 21
61.80999300000001
 31
0.0
  0
LINE
  5
101
330
106
100
AcDbEntity
  8
0
  6
ByBlock
 62
     1
370
    -2
100
AcDbLine
 10
55.28645400000001
 20
61.509993
 30
0.0
 11
74.28645399999999
 21
61.509993
 31
0.0
  0
SOLID
  5
102
330
106
100
AcDbEntity
  8
0
  6
ByBlock
 62
     1
100
AcDbTrace
 10
53.586454
 20
61.509993
 30
0.0
 11
55.28645400000001
 21
61.22665966666667
 31
0.0
 12
55.28645400000001
 22
61.79332633333333
 32
0.0
 13
55.28645400000001
 23
61.79332633333333
 33
0.0
  0
SOLID
  5
103
330
106
100
AcDbEntity
  8
0
  6
ByBlock
 62
     1
100
AcDbTrace
 10
75.986454
 20
61.509993
 30
0.0
 11
74.28645399999999
 21
61.22665966666667
 31
0.0
 12
74.28645399999999
 22
61.79332633333333
 32
0.0
 13
74.28645399999999
 23
61.79332633333333
 33
0.0
  0
MTEXT
  5
104
330
106
100
AcDbEntity
  8
0
  6
ByBlock
 62
     0
370
    -2
100
AcDbMText
 10
64.78645399999999
 20
63.15409259072305
 30
0.0
 40
1.75
 41
0.0
 71
     5
 72
     1
  1
350
  7
H
 73
     1
 44
1.0
  0
ENDBLK
  5
370
330
106
100
AcDbEntity
  8
0
100
AcDbBlockEnd
  0
BLOCK
  5
371
330
111
100
AcDbEntity
  8
0
100
AcDbBlockBegin
  2
*D2
 70
     1
 10
0.0
 20
0.0
 30
0.0
  3
*D2
  1

  0
POINT
  5
108
330
111
100
AcDbEntity
  8
DEFPOINTS
  6
ByBlock
 62
     1
100
AcDbPoint
 10
54.674454
 20
54.058822
 30
0.0
  0
POINT
  5
109
330
111
100
AcDbEntity
  8
DEFPOINTS
  6
ByBlock
 62
     1
100
AcDbPoint
 10
54.674454
 20
39.850822
 30
0.0
  0
LINE
  5
10A
330
111
100
AcDbEntity
  8
0
  6
ByBlock
 62
     1
370
    -2
100
AcDbLine
 10
53.674454
 20
54.058822
 30
0.0
 11
49.73929800000001
 21
54.058822
 31
0.0
  0
LINE
  5
10B
330
111
100
AcDbEntity
  8
0
  6
ByBlock
 62
     1
370
    -2
100
AcDbLine
 10
53.674454
 20
39.850822
 30
0.0
 11
49.73929800000001
 21
39.850822
 31
0.0
  0
LINE
  5
10C
330
111
100
AcDbEntity
  8
0
  6
ByBlock
 62
     1
370
    -2
100
AcDbLine
 10
50.039298
 20
52.358822
 30
0.0
 11
50.039298
 21
41.550822
 31
0.0
  0
SOLID
  5
10D
330
111
100
AcDbEntity
  8
0
  6
ByBlock
 62
     1
100
AcDbTrace
 10
50.039298
 20
54.058822
 30
0.0
 11
49.75596466666667
 21
52.358822
 31
0.0
 12
50.32263133333333
 22
52.358822
 32
0.0
 13
50.32263133333333
 23
52.358822
 33
0.0
  0
SOLID
  5
10E
330
111
100
AcDbEntity
  8
0
  6
ByBlock
 62
     1
100
AcDbTrace
 10
50.039298
 20
39.850822
 30
0.0
 11
49.75596466666667
 21
41.550822
 31
0.0
 12
50.32263133333333
 22
41.550822
 32
0.0
 13
50.32263133333333
 23
41.550822
 33
0.0
  0
MTEXT
  5
10F
330
111
100
AcDbEntity
  8
0
  6
ByBlock
 62
     0
370
    -2
100
AcDbMText
 10
48.39579527148704
 20
46.954822
 30
0.0
 40
1.75
 41
0.0
 71
     5
 72
     1
  1
220
  7
H
 11
6.123031769111886E-17
 21
1.0
 31
0.0
 73
     1
 44
1.0
  0
ENDBLK
  5
372
330
111
100
AcDbEntity
  8
0
100
AcDbBlockEnd
  0
BLOCK
  5
373
330
11C
100
AcDbEntity
  8
0
100
AcDbBlockBegin
  2
*D3
 70
     1
 10
0.0
 20
0.0
 30
0.0
  3
*D3
  1

  0
POINT
  5
113
330
11C
100
AcDbEntity
  8
DEFPOINTS
  6
ByBlock
 62
     1
100
AcDbPoint
 10
212.5307918826822
 20
202.8337244592275
 30
0.0
  0
POINT
  5
114
330
11C
100
AcDbEntity
  8
DEFPOINTS
  6
ByBlock
 62
     1
100
AcDbPoint
 10
234.9307918826822
 20
202.8337244592275
 30
0.0
  0
LINE
  5
115
330
11C
100
AcDbEntity
  8
0
  6
ByBlock
 62
     1
370
    -2
100
AcDbLine
 10
212.5307918826822
 20
203.8337244592275
 30
0.0
 11
212.5307918826822
 21
211.6728954592275
 31
0.0
  0
LINE
  5
116
330
11C
100
AcDbEntity
  8
0
  6
ByBlock
 62
     1
370
    -2
100
AcDbLine
 10
234.9307918826822
 20
203.8337244592275
 30
0.0
 11
234.9307918826822
 21
211.6728954592275
 31
0.0
  0
LINE
  5
117
330
11C
100
AcDbEntity
  8
0
  6
ByBlock
 62
     1
370
    -2
100
AcDbLine
 10
214.2307918826822
 20
211.3728954592275
 30
0.0
 11
233.2307918826822
 21
211.3728954592275
 31
0.0
  0
SOLID
  5
118
330
11C
100
AcDbEntity
  8
0
  6
ByBlock
 62
     1
100
AcDbTrace
 10
212.5307918826822
 20
211.3728954592275
 30
0.0
 11
214.2307918826822
 21
211.0895621258941
 31
0.0
 12
214.2307918826822
 22
211.6562287925608
 32
0.0
 13
214.2307918826822
 23
211.6562287925608
 33
0.0
  0
SOLID
  5
119
330
11C
100
AcDbEntity
  8
0
  6
ByBlock
 62
     1
100
AcDbTrace
 10
234.9307918826822
 20
211.3728954592275
 30
0.0
 11
233.2307918826822
 21
211.0895621258941
 31
0.0
 12
233.2307918826822
 22
211.6562287925608
 32
0.0
 13
233.2307918826822
 23
211.6562287925608
 33
0.0
  0
MTEXT
  5
11A
330
11C
100
AcDbEntity
  8
0
  6
ByBlock
 62
     0
370
    -2
100
AcDbMText
 10
223.7307918826822
 20
213.0169950499505
 30
0.0
 40
1.75
 41
0.0
 71
     5
 72
     1
  1
350
  7
H
 73
     1
 44
1.0
  0
ENDBLK
  5
374
330
11C
100
AcDbEntity
  8
0
100
AcDbBlockEnd
  0
BLOCK
  5
375
330
127
100
AcDbEntity
  8
0
100
AcDbBlockBegin
  2
*D4
 70
     1
 10
0.0
 20
0.0
 30
0.0
  3
*D4
  1

  0
POINT
  5
11E
330
127
100
AcDbEntity
  8
DEFPOINTS
  6
ByBlock
 62
     1
100
AcDbPoint
 10
213.6187918826822
 20
203.9217244592274
 30
0.0
  0
POINT
  5
11F
330
127
100
AcDbEntity
  8
DEFPOINTS
  6
ByBlock
 62
     1
100
AcDbPoint
 10
213.6187918826822
 20
189.7137244592274
 30
0.0
  0
LINE
  5
120
330
127
100
AcDbEntity
  8
0
  6
ByBlock
 62
     1
370
    -2
100
AcDbLine
 10
212.6187918826822
 20
203.9217244592274
 30
0.0
 11
208.6836358826822
 21
203.9217244592274
 31
0.0
  0
LINE
  5
121
330
127
100
AcDbEntity
  8
0
  6
ByBlock
 62
     1
370
    -2
100
AcDbLine
 10
212.6187918826822
 20
189.7137244592274
 30
0.0
 11
208.6836358826822
 21
189.7137244592274
 31
0.0
  0
LINE
  5
122
330
127
100
AcDbEntity
  8
0
  6
ByBlock
 62
     1
370
    -2
100
AcDbLine
 10
208.9836358826822
 20
202.2217244592275
 30
0.0
 11
208.9836358826822
 21
191.4137244592274
 31
0.0
  0
SOLID
  5
123
330
127
100
AcDbEntity
  8
0
  6
ByBlock
 62
     1
100
AcDbTrace
 10
208.9836358826822
 20
203.9217244592274
 30
0.0
 11
208.7003025493489
 21
202.2217244592275
 31
0.0
 12
209.2669692160156
 22
202.2217244592275
 32
0.0
 13
209.2669692160156
 23
202.2217244592275
 33
0.0
  0
SOLID
  5
124
330
127
100
AcDbEntity
  8
0
  6
ByBlock
 62
     1
100
AcDbTrace
 10
208.9836358826822
 20
189.7137244592274
 30
0.0
 11
208.7003025493489
 21
191.4137244592274
 31
0.0
 12
209.2669692160156
 22
191.4137244592274
 32
0.0
 13
209.2669692160156
 23
191.4137244592274
 33
0.0
  0
MTEXT
  5
125
330
127
100
AcDbEntity
  8
0
  6
ByBlock
 62
     0
370
    -2
100
AcDbMText
 10
207.3401331541693
 20
196.8177244592275
 30
0.0
 40
1.75
 41
0.0
 71
     5
 72
     1
  1
220
  7
H
 11
6.123031769111886E-17
 21
1.0
 31
0.0
 73
     1
 44
1.0
  0
ENDBLK
  5
376
330
127
100
AcDbEntity
  8
0
100
AcDbBlockEnd
  0
BLOCK
  5
377
330
132
100
AcDbEntity
  8
0
100
AcDbBlockBegin
  2
*D5
 70
     1
 10
0.0
 20
0.0
 30
0.0
  3
*D5
  1

  0
POINT
  5
129
330
132
100
AcDbEntity
  8
DEFPOINTS
  6
ByBlock
 62
     0
100
AcDbPoint
 10
212.5307918826822
 20
208.280611608057
 30
0.0
  0
POINT
  5
12A
330
132
100
AcDbEntity
  8
DEFPOINTS
  6
ByBlock
 62
     0
100
AcDbPoint
 10
234.9307918826822
 20
208.280611608057
 30
0.0
  0
LINE
  5
12B
330
132
100
AcDbEntity
  8
0
  6
ByBlock
 62
     0
370
    -2
100
AcDbLine
 10
212.5307918826822
 20
208.905611608057
 30
0.0
 11
212.5307918826822
 21
215.6294244333711
 31
0.0
  0
LINE
  5
12C
330
132
100
AcDbEntity
  8
0
  6
ByBlock
 62
     0
370
    -2
100
AcDbLine
 10
234.9307918826822
 20
208.905611608057
 30
0.0
 11
234.9307918826822
 21
215.6294244333711
 31
0.0
  0
LINE
  5
12D
330
132
100
AcDbEntity
  8
0
  6
ByBlock
 62
     0
370
    -2
100
AcDbLine
 10
215.0307918826822
 20
214.3794244333711
 30
0.0
 11
232.4307918826822
 21
214.3794244333711
 31
0.0
  0
SOLID
  5
12E
330
132
100
AcDbEntity
  8
0
  6
ByBlock
 62
     0
100
AcDbTrace
 10
212.5307918826822
 20
214.3794244333711
 30
0.0
 11
215.0307918826822
 21
213.9627577667044
 31
0.0
 12
215.0307918826822
 22
214.7960911000378
 32
0.0
 13
215.0307918826822
 23
214.7960911000378
 33
0.0
  0
SOLID
  5
12F
330
132
100
AcDbEntity
  8
0
  6
ByBlock
 62
     0
100
AcDbTrace
 10
234.9307918826822
 20
214.3794244333711
 30
0.0
 11
232.4307918826822
 21
213.9627577667044
 31
0.0
 12
232.4307918826822
 22
214.7960911000378
 32
0.0
 13
232.4307918826822
 23
214.7960911000378
 33
0.0
  0
MTEXT
  5
130
330
132
100
AcDbEntity
  8
0
  6
ByBlock
 62
     0
370
    -2
100
AcDbMText
 10
223.7307918826822
 20
216.4627577667044
 30
0.0
 40
2.5
 41
0.0
 71
     5
 72
     1
  1
\A1;22,4
 73
     1
 44
1.0
  0
ENDBLK
  5
378
330
132
100
AcDbEntity
  8
0
100
AcDbBlockEnd
  0
BLOCK
  5
379
330
13E
100
AcDbEntity
  8
0
100
AcDbBlockBegin
  2
*D6
 70
     1
 10
0.0
 20
0.0
 30
0.0
  3
*D6
  1

  0
POINT
  5
134
330
13E
100
AcDbEntity
  8
DEFPOINTS
  6
ByBlock
 62
     0
100
AcDbPoint
 10
211.2081479297865
 20
203.9217244592274
 30
0.0
  0
POINT
  5
135
330
13E
100
AcDbEntity
  8
DEFPOINTS
  6
ByBlock
 62
     0
100
AcDbPoint
 10
211.2081479297865
 20
189.7137244592274
 30
0.0
  0
LINE
  5
136
330
13E
100
AcDbEntity
  8
0
  6
ByBlock
 62
     0
370
    -2
100
AcDbLine
 10
210.5831479297865
 20
203.9217244592274
 30
0.0
 11
204.2211290856351
 21
203.9217244592274
 31
0.0
  0
LINE
  5
137
330
13E
100
AcDbEntity
  8
0
  6
ByBlock
 62
     0
370
    -2
100
AcDbLine
 10
210.5831479297865
 20
189.7137244592274
 30
0.0
 11
204.2211290856351
 21
189.7137244592274
 31
0.0
  0
LINE
  5
138
330
13E
100
AcDbEntity
  8
0
  6
ByBlock
 62
     0
370
    -2
100
AcDbLine
 10
205.4711290856351
 20
206.4217244592274
 30
0.0
 11
205.4711290856351
 21
208.9217244592274
 31
0.0
  0
LINE
  5
139
330
13E
100
AcDbEntity
  8
0
  6
ByBlock
 62
     0
370
    -2
100
AcDbLine
 10
205.4711290856351
 20
187.2137244592274
 30
0.0
 11
205.4711290856351
 21
184.7137244592274
 31
0.0
  0
SOLID
  5
13A
330
13E
100
AcDbEntity
  8
0
  6
ByBlock
 62
     0
100
AcDbTrace
 10
205.4711290856351
 20
203.9217244592274
 30
0.0
 11
205.0544624189684
 21
206.4217244592274
 31
0.0
 12
205.8877957523017
 22
206.4217244592274
 32
0.0
 13
205.8877957523017
 23
206.4217244592274
 33
0.0
  0
SOLID
  5
13B
330
13E
100
AcDbEntity
  8
0
  6
ByBlock
 62
     0
100
AcDbTrace
 10
205.4711290856351
 20
189.7137244592274
 30
0.0
 11
205.0544624189684
 21
187.2137244592274
 31
0.0
 12
205.8877957523017
 22
187.2137244592274
 32
0.0
 13
205.8877957523017
 23
187.2137244592274
 33
0.0
  0
MTEXT
  5
13C
330
13E
100
AcDbEntity
  8
0
  6
ByBlock
 62
     0
370
    -2
100
AcDbMText
 10
203.3877957523018
 20
196.8177244592275
 30
0.0
 40
2.5
 41
0.0
 71
     5
 72
     1
  1
\A1;14,21
 11
6.123031769111886E-17
 21
1.0
 31
0.0
 73
     1
 44
1.0
  0
ENDBLK
  5
37A
330
13E
100
AcDbEntity
  8
0
100
AcDbBlockEnd
  0
BLOCK
  5
37B
330
20C
100
AcDbEntity
  8
0
100
AcDbBlockBegin
  2
*D7
 70
     1
 10
0.0
 20
0.0
 30
0.0
  3
*D7
  1

  0
POINT
  5
203
330
20C
100
AcDbEntity
  8
DEFPOINTS
  6
ByBlock
 62
     1
380
     1
100
AcDbPoint
 10
3320.793623166909
 20
3139.866054628842
 30
0.0
  0
POINT
  5
204
330
20C
100
AcDbEntity
  8
DEFPOINTS
  6
ByBlock
 62
     1
380
     1
100
AcDbPoint
 10
3670.79362316691
 20
3139.866054628842
 30
0.0
  0
LINE
  5
205
330
20C
100
AcDbEntity
  8
0
  6
ByBlock
 62
     1
370
    -2
380
     1
100
AcDbLine
 10
3320.793623166909
 20
3140.866054628842
 30
0.0
 11
3320.793623166909
 21
3272.352421708842
 31
0.0
  0
LINE
  5
206
330
20C
100
AcDbEntity
  8
0
  6
ByBlock
 62
     1
370
    -2
380
     1
100
AcDbLine
 10
3670.79362316691
 20
3140.866054628842
 30
0.0
 11
3670.79362316691
 21
3272.352421708842
 31
0.0
  0
LINE
  5
207
330
20C
100
AcDbEntity
  8
0
  6
ByBlock
 62
     1
370
    -2
380
     1
100
AcDbLine
 10
3322.493623166909
 20
3272.052421708842
 30
0.0
 11
3669.09362316691
 21
3272.052421708842
 31
0.0
  0
SOLID
  5
208
330
20C
100
AcDbEntity
  8
0
  6
ByBlock
 62
     1
380
     1
100
AcDbTrace
 10
3320.793623166909
 20
3272.052421708842
 30
0.0
 11
3322.493623166909
 21
3271.769088375509
 31
0.0
 12
3322.493623166909
 22
3272.335755042175
 32
0.0
 13
3322.493623166909
 23
3272.335755042175
 33
0.0
  0
SOLID
  5
209
330
20C
100
AcDbEntity
  8
0
  6
ByBlock
 62
     1
380
     1
100
AcDbTrace
 10
3670.79362316691
 20
3272.052421708842
 30
0.0
 11
3669.09362316691
 21
3271.769088375509
 31
0.0
 12
3669.09362316691
 22
3272.335755042175
 32
0.0
 13
3669.09362316691
 23
3272.335755042175
 33
0.0
  0
MTEXT
  5
20A
330
20C
100
AcDbEntity
  8
0
  6
ByBlock
 62
     0
370
    -2
380
     1
100
AcDbMText
 10
3495.793623166909
 20
3273.696521299565
 30
0.0
 40
1.75
 41
0.0
 71
     5
 72
     1
  1
350
  7
H
 73
     1
 44
1.0
  0
ENDBLK
  5
37C
330
20C
100
AcDbEntity
  8
0
100
AcDbBlockEnd
  0
BLOCK
  5
37D
330
218
100
AcDbEntity
  8
0
100
AcDbBlockBegin
  2
*D8
 70
     1
 10
0.0
 20
0.0
 30
0.0
  3
*D8
  1

  0
POINT
  5
20F
330
218
100
AcDbEntity
  8
DEFPOINTS
  6
ByBlock
 62
     1
380
     1
100
AcDbPoint
 10
3337.793623166909
 20
3156.70829462884
 30
0.0
  0
POINT
  5
210
330
218
100
AcDbEntity
  8
DEFPOINTS
  6
ByBlock
 62
     1
380
     1
100
AcDbPoint
 10
3337.793623166909
 20
2936.76845462884
 30
0.0
  0
LINE
  5
211
330
218
100
AcDbEntity
  8
0
  6
ByBlock
 62
     1
370
    -2
380
     1
100
AcDbLine
 10
3336.793623166909
 20
3156.70829462884
 30
0.0
 11
3265.069310666909
 21
3156.70829462884
 31
0.0
  0
LINE
  5
212
330
218
100
AcDbEntity
  8
0
  6
ByBlock
 62
     1
370
    -2
380
     1
100
AcDbLine
 10
3336.793623166909
 20
2936.76845462884
 30
0.0
 11
3265.069310666909
 21
2936.76845462884
 31
0.0
  0
LINE
  5
213
330
218
100
AcDbEntity
  8
0
  6
ByBlock
 62
     1
370
    -2
380
     1
100
AcDbLine
 10
3265.369310666909
 20
3155.00829462884
 30
0.0
 11
3265.369310666909
 21
2938.46845462884
 31
0.0
  0
SOLID
  5
214
330
218
100
AcDbEntity
  8
0
  6
ByBlock
 62
     1
380
     1
100
AcDbTrace
 10
3265.369310666909
 20
3156.70829462884
 30
0.0
 11
3265.085977333576
 21
3155.00829462884
 31
0.0
 12
3265.652644000243
 22
3155.00829462884
 32
0.0
 13
3265.652644000243
 23
3155.00829462884
 33
0.0
  0
SOLID
  5
215
330
218
100
AcDbEntity
  8
0
  6
ByBlock
 62
     1
380
     1
100
AcDbTrace
 10
3265.369310666909
 20
2936.76845462884
 30
0.0
 11
3265.085977333576
 21
2938.46845462884
 31
0.0
 12
3265.652644000243
 22
2938.46845462884
 32
0.0
 13
3265.652644000243
 23
2938.46845462884
 33
0.0
  0
MTEXT
  5
216
330
218
100
AcDbEntity
  8
0
  6
ByBlock
 62
     0
370
    -2
380
     1
100
AcDbMText
 10
3263.725807938396
 20
3046.73837462884
 30
0.0
 40
1.75
 41
0.0
 71
     5
 72
     1
  1
220
  7
H
 11
6.123031769111886E-17
 21
1.0
 31
0.0
 73
     1
 44
1.0
  0
ENDBLK
  5
37E
330
218
100
AcDbEntity
  8
0
100
AcDbBlockEnd
  0
BLOCK
  5
37F
330
2C5
100
AcDbEntity
  8
0
100
AcDbBlockBegin
  2
*D9
 70
     1
 10
0.0
 20
0.0
 30
0.0
  3
*D9
  1

  0
POINT
  5
2BC
330
2C5
100
AcDbEntity
  8
DEFPOINTS
  6
ByBlock
 62
     0
380
     1
100
AcDbPoint
 10
3320.793623166909
 20
3224.183867692722
 30
0.0
  0
POINT
  5
2BD
330
2C5
100
AcDbEntity
  8
DEFPOINTS
  6
ByBlock
 62
     0
380
     1
100
AcDbPoint
 10
3670.79362316691
 20
3224.183867692722
 30
0.0
  0
LINE
  5
2BE
330
2C5
100
AcDbEntity
  8
0
  6
ByBlock
 62
     0
370
    -2
380
     1
100
AcDbLine
 10
3320.793623166909
 20
3224.808867692722
 30
0.0
 11
3320.793623166909
 21
3319.843490228585
 31
0.0
  0
LINE
  5
2BF
330
2C5
100
AcDbEntity
  8
0
  6
ByBlock
 62
     0
370
    -2
380
     1
100
AcDbLine
 10
3670.79362316691
 20
3224.808867692722
 30
0.0
 11
3670.79362316691
 21
3319.843490228585
 31
0.0
  0
LINE
  5
2C0
330
2C5
100
AcDbEntity
  8
0
  6
ByBlock
 62
     0
370
    -2
380
     1
100
AcDbLine
 10
3323.293623166909
 20
3318.593490228585
 30
0.0
 11
3668.29362316691
 21
3318.593490228585
 31
0.0
  0
SOLID
  5
2C1
330
2C5
100
AcDbEntity
  8
0
  6
ByBlock
 62
     0
380
     1
100
AcDbTrace
 10
3320.793623166909
 20
3318.593490228585
 30
0.0
 11
3323.293623166909
 21
3318.176823561918
 31
0.0
 12
3323.293623166909
 22
3319.010156895251
 32
0.0
 13
3323.293623166909
 23
3319.010156895251
 33
0.0
  0
SOLID
  5
2C2
330
2C5
100
AcDbEntity
  8
0
  6
ByBlock
 62
     0
380
     1
100
AcDbTrace
 10
3670.79362316691
 20
3318.593490228585
 30
0.0
 11
3668.29362316691
 21
3318.176823561918
 31
0.0
 12
3668.29362316691
 22
3319.010156895251
 32
0.0
 13
3668.29362316691
 23
3319.010156895251
 33
0.0
  0
MTEXT
  5
2C3
330
2C5
100
AcDbEntity
  8
0
  6
ByBlock
 62
     0
370
    -2
380
     1
100
AcDbMText
 10
3495.793623166909
 20
3320.468490228585
 30
0.0
 40
2.5
 41
0.0
 71
     5
 72
     1
  1
\A1;350
 73
     1
 44
1.0
  0
ENDBLK
  5
380
330
2C5
100
AcDbEntity
  8
0
100
AcDbBlockEnd
  0
BLOCK
  5
381
330
2D1
100
AcDbEntity
  8
0
100
AcDbBlockBegin
  2
*D10
 70
     1
 10
0.0
 20
0.0
 30
0.0
  3
*D10
  1

  0
POINT
  5
2C8
330
2D1
100
AcDbEntity
  8
DEFPOINTS
  6
ByBlock
 62
     0
380
     1
100
AcDbPoint
 10
3300.127311402914
 20
3156.70829462884
 30
0.0
  0
POINT
  5
2C9
330
2D1
100
AcDbEntity
  8
DEFPOINTS
  6
ByBlock
 62
     0
380
     1
100
AcDbPoint
 10
3300.127311402914
 20
2936.76845462884
 30
0.0
  0
LINE
  5
2CA
330
2D1
100
AcDbEntity
  8
0
  6
ByBlock
 62
     0
370
    -2
380
     1
100
AcDbLine
 10
3299.502311402914
 20
3156.70829462884
 30
0.0
 11
3209.236391963049
 21
3156.70829462884
 31
0.0
  0
LINE
  5
2CB
330
2D1
100
AcDbEntity
  8
0
  6
ByBlock
 62
     0
370
    -2
380
     1
100
AcDbLine
 10
3299.502311402914
 20
2936.76845462884
 30
0.0
 11
3209.236391963049
 21
2936.76845462884
 31
0.0
  0
LINE
  5
2CC
330
2D1
100
AcDbEntity
  8
0
  6
ByBlock
 62
     0
370
    -2
380
     1
100
AcDbLine
 10
3210.486391963049
 20
3154.20829462884
 30
0.0
 11
3210.486391963049
 21
2939.26845462884
 31
0.0
  0
SOLID
  5
2CD
330
2D1
100
AcDbEntity
  8
0
  6
ByBlock
 62
     0
380
     1
100
AcDbTrace
 10
3210.486391963049
 20
3156.70829462884
 30
0.0
 11
3210.069725296382
 21
3154.20829462884
 31
0.0
 12
3210.903058629715
 22
3154.20829462884
 32
0.0
 13
3210.903058629715
 23
3154.20829462884
 33
0.0
  0
SOLID
  5
2CE
330
2D1
100
AcDbEntity
  8
0
  6
ByBlock
 62
     0
380
     1
100
AcDbTrace
 10
3210.486391963049
 20
2936.76845462884
 30
0.0
 11
3210.069725296382
 21
2939.26845462884
 31
0.0
 12
3210.903058629715
 22
2939.26845462884
 32
0.0
 13
3210.903058629715
 23
2939.26845462884
 33
0.0
  0
MTEXT
  5
2CF
330
2D1
100
AcDbEntity
  8
0
  6
ByBlock
 62
     0
370
    -2
380
     1
100
AcDbMText
 10
3208.403058629716
 20
3046.73837462884
 30
0.0
 40
2.5
 41
0.0
 71
     5
 72
     1
  1
\A1;219,94
 11
6.123031769111886E-17
 21
1.0
 31
0.0
 73
     1
 44
1.0
  0
ENDBLK
  5
382
330
2D1
100
AcDbEntity
  8
0
100
AcDbBlockEnd
  0
BLOCK
  5
383
330
2DE
100
AcDbEntity
  8
0
100
AcDbBlockBegin
  2
*D11
 70
     1
 10
0.0
 20
0.0
 30
0.0
  3
*D11
  1

  0
POINT
  5
2D5
330
2DE
100
AcDbEntity
  8
DEFPOINTS
  6
ByBlock
 62
     0
380
     1
100
AcDbPoint
 10
3361.009230256995
 20
3156.70829462884
 30
0.0
  0
POINT
  5
2D6
330
2DE
100
AcDbEntity
  8
DEFPOINTS
  6
ByBlock
 62
     0
380
     1
100
AcDbPoint
 10
3361.009230256995
 20
2936.76845462884
 30
0.0
  0
LINE
  5
2D7
330
2DE
100
AcDbEntity
  8
0
  6
ByBlock
 62
     0
370
    -2
380
     1
100
AcDbLine
 10
3360.384230256995
 20
3156.70829462884
 30
0.0
 11
3261.768296679143
 21
3156.70829462884
 31
0.0
  0
LINE
  5
2D8
330
2DE
100
AcDbEntity
  8
0
  6
ByBlock
 62
     0
370
    -2
380
     1
100
AcDbLine
 10
3360.384230256995
 20
2936.76845462884
 30
0.0
 11
3261.768296679143
 21
2936.76845462884
 31
0.0
  0
LINE
  5
2D9
330
2DE
100
AcDbEntity
  8
0
  6
ByBlock
 62
     0
370
    -2
380
     1
100
AcDbLine
 10
3263.018296679143
 20
3154.20829462884
 30
0.0
 11
3263.018296679143
 21
2939.26845462884
 31
0.0
  0
SOLID
  5
2DA
330
2DE
100
AcDbEntity
  8
0
  6
ByBlock
 62
     0
380
     1
100
AcDbTrace
 10
3263.018296679143
 20
3156.70829462884
 30
0.0
 11
3262.601630012476
 21
3154.20829462884
 31
0.0
 12
3263.434963345809
 22
3154.20829462884
 32
0.0
 13
3263.434963345809
 23
3154.20829462884
 33
0.0
  0
SOLID
  5
2DB
330
2DE
100
AcDbEntity
  8
0
  6
ByBlock
 62
     0
380
     1
100
AcDbTrace
 10
3263.018296679143
 20
2936.76845462884
 30
0.0
 11
3262.601630012476
 21
2939.26845462884
 31
0.0
 12
3263.434963345809
 22
2939.26845462884
 32
0.0
 13
3263.434963345809
 23
2939.26845462884
 33
0.0
  0
MTEXT
  5
2DC
330
2DE
100
AcDbEntity
  8
0
  6
ByBlock
 62
     0
370
    -2
380
     1
100
AcDbMText
 10
3260.93496334581
 20
3046.73837462884
 30
0.0
 40
2.5
 41
0.0
 71
     5
 72
     1
  1
\A1;219,94
 11
6.123031769111886E-17
 21
1.0
 31
0.0
 73
     1
 44
1.0
  0
ENDBLK
  5
384
330
2DE
100
AcDbEntity
  8
0
100
AcDbBlockEnd
  0
BLOCK
  5
385
330
2E9
100
AcDbEntity
  8
0
100
AcDbBlockBegin
  2
*D12
 70
     1
 10
0.0
 20
0.0
 30
0.0
  3
*D12
  1

  0
POINT
  5
2E0
330
2E9
100
AcDbEntity
  8
DEFPOINTS
  6
ByBlock
 62
     0
380
     1
100
AcDbPoint
 10
3361.009230256995
 20
3156.70829462884
 30
0.0
  0
POINT
  5
2E1
330
2E9
100
AcDbEntity
  8
DEFPOINTS
  6
ByBlock
 62
     0
380
     1
100
AcDbPoint
 10
3361.009230256995
 20
2936.76845462884
 30
0.0
  0
LINE
  5
2E2
330
2E9
100
AcDbEntity
  8
0
  6
ByBlock
 62
     0
370
    -2
380
     1
100
AcDbLine
 10
3360.384230256995
 20
3156.70829462884
 30
0.0
 11
3261.768296679143
 21
3156.70829462884
 31
0.0
  0
LINE
  5
2E3
330
2E9
100
AcDbEntity
  8
0
  6
ByBlock
 62
     0
370
    -2
380
     1
100
AcDbLine
 10
3360.384230256995
 20
2936.76845462884
 30
0.0
 11
3261.768296679143
 21
2936.76845462884
 31
0.0
  0
LINE
  5
2E4
330
2E9
100
AcDbEntity
  8
0
  6
ByBlock
 62
     0
370
    -2
380
     1
100
AcDbLine
 10
3263.018296679143
 20
3154.20829462884
 30
0.0
 11
3263.018296679143
 21
2939.26845462884
 31
0.0
  0
SOLID
  5
2E5
330
2E9
100
AcDbEntity
  8
0
  6
ByBlock
 62
     0
380
     1
100
AcDbTrace
 10
3263.018296679143
 20
3156.70829462884
 30
0.0
 11
3262.601630012476
 21
3154.20829462884
 31
0.0
 12
3263.434963345809
 22
3154.20829462884
 32
0.0
 13
3263.434963345809
 23
3154.20829462884
 33
0.0
  0
SOLID
  5
2E6
330
2E9
100
AcDbEntity
  8
0
  6
ByBlock
 62
     0
380
     1
100
AcDbTrace
 10
3263.018296679143
 20
2936.76845462884
 30
0.0
 11
3262.601630012476
 21
2939.26845462884
 31
0.0
 12
3263.434963345809
 22
2939.26845462884
 32
0.0
 13
3263.434963345809
 23
2939.26845462884
 33
0.0
  0
MTEXT
  5
2E7
330
2E9
100
AcDbEntity
  8
0
  6
ByBlock
 62
     0
370
    -2
380
     1
100
AcDbMText
 10
3261.143296679143
 20
3046.73837462884
 30
0.0
 40
2.5
 41
0.0
 71
     5
 72
     1
  1
220
 11
6.123031769111886E-17
 21
1.0
 31
0.0
 73
     1
 44
1.0
  0
ENDBLK
  5
386
330
2E9
100
AcDbEntity
  8
0
100
AcDbBlockEnd
  0
BLOCK
  5
387
330
2F4
100
AcDbEntity
  8
0
100
AcDbBlockBegin
  2
*D13
 70
     1
 10
0.0
 20
0.0
 30
0.0
  3
*D13
  1

  0
POINT
  5
2EB
330
2F4
100
AcDbEntity
  8
DEFPOINTS
  6
ByBlock
 62
     0
380
     1
100
AcDbPoint
 10
3361.009230256995
 20
3156.70829462884
 30
0.0
  0
POINT
  5
2EC
330
2F4
100
AcDbEntity
  8
DEFPOINTS
  6
ByBlock
 62
     0
380
     1
100
AcDbPoint
 10
3361.009230256995
 20
2936.76845462884
 30
0.0
  0
LINE
  5
2ED
330
2F4
100
AcDbEntity
  8
0
  6
ByBlock
 62
     0
370
    -2
380
     1
100
AcDbLine
 10
3360.384230256995
 20
3156.70829462884
 30
0.0
 11
3261.768296679143
 21
3156.70829462884
 31
0.0
  0
LINE
  5
2EE
330
2F4
100
AcDbEntity
  8
0
  6
ByBlock
 62
     0
370
    -2
380
     1
100
AcDbLine
 10
3360.384230256995
 20
2936.76845462884
 30
0.0
 11
3261.768296679143
 21
2936.76845462884
 31
0.0
  0
LINE
  5
2EF
330
2F4
100
AcDbEntity
  8
0
  6
ByBlock
 62
     0
370
    -2
380
     1
100
AcDbLine
 10
3263.018296679143
 20
3154.20829462884
 30
0.0
 11
3263.018296679143
 21
2939.26845462884
 31
0.0
  0
SOLID
  5
2F0
330
2F4
100
AcDbEntity
  8
0
  6
ByBlock
 62
     0
380
     1
100
AcDbTrace
 10
3263.018296679143
 20
3156.70829462884
 30
0.0
 11
3262.601630012476
 21
3154.20829462884
 31
0.0
 12
3263.434963345809
 22
3154.20829462884
 32
0.0
 13
3263.434963345809
 23
3154.20829462884
 33
0.0
  0
SOLID
  5
2F1
330
2F4
100
AcDbEntity
  8
0
  6
ByBlock
 62
     0
380
     1
100
AcDbTrace
 10
3263.018296679143
 20
2936.76845462884
 30
0.0
 11
3262.601630012476
 21
2939.26845462884
 31
0.0
 12
3263.434963345809
 22
2939.26845462884
 32
0.0
 13
3263.434963345809
 23
2939.26845462884
 33
0.0
  0
MTEXT
  5
2F2
330
2F4
100
AcDbEntity
  8
0
  6
ByBlock
 62
     0
370
    -2
380
     1
100
AcDbMText
 10
3261.143296679143
 20
3046.73837462884
 30
0.0
 40
2.5
 41
0.0
 71
     5
 72
     1
  1
220
 11
6.123031769111886E-17
 21
1.0
 31
0.0
 73
     1
 44
1.0
  0
ENDBLK
  5
388
330
2F4
100
AcDbEntity
  8
0
100
AcDbBlockEnd
  0
BLOCK
  5
389
330
2FF
100
AcDbEntity
  8
0
100
AcDbBlockBegin
  2
*D14
 70
     1
 10
0.0
 20
0.0
 30
0.0
  3
*D14
  1

  0
POINT
  5
2F6
330
2FF
100
AcDbEntity
  8
DEFPOINTS
  6
ByBlock
 62
     7
380
     1
100
AcDbPoint
 10
3361.009230256995
 20
3156.70829462884
 30
0.0
  0
POINT
  5
2F7
330
2FF
100
AcDbEntity
  8
DEFPOINTS
  6
ByBlock
 62
     7
380
     1
100
AcDbPoint
 10
3361.009230256995
 20
2936.76845462884
 30
0.0
  0
LINE
  5
2F8
330
2FF
100
AcDbEntity
  8
0
  6
ByBlock
 62
     7
370
    -2
380
     1
100
AcDbLine
 10
3360.384230256995
 20
3156.70829462884
 30
0.0
 11
3261.768296679143
 21
3156.70829462884
 31
0.0
  0
LINE
  5
2F9
330
2FF
100
AcDbEntity
  8
0
  6
ByBlock
 62
     7
370
    -2
380
     1
100
AcDbLine
 10
3360.384230256995
 20
2936.76845462884
 30
0.0
 11
3261.768296679143
 21
2936.76845462884
 31
0.0
  0
LINE
  5
2FA
330
2FF
100
AcDbEntity
  8
0
  6
ByBlock
 62
     7
370
    -2
380
     1
100
AcDbLine
 10
3263.018296679143
 20
3146.70829462884
 30
0.0
 11
3263.018296679143
 21
2946.76845462884
 31
0.0
  0
SOLID
  5
2FB
330
2FF
100
AcDbEntity
  8
0
  6
ByBlock
 62
     7
380
     1
100
AcDbTrace
 10
3263.018296679143
 20
3156.70829462884
 30
0.0
 11
3261.351630012476
 21
3146.70829462884
 31
0.0
 12
3264.684963345809
 22
3146.70829462884
 32
0.0
 13
3264.684963345809
 23
3146.70829462884
 33
0.0
  0
SOLID
  5
2FC
330
2FF
100
AcDbEntity
  8
0
  6
ByBlock
 62
     7
380
     1
100
AcDbTrace
 10
3263.018296679143
 20
2936.76845462884
 30
0.0
 11
3261.351630012476
 21
2946.76845462884
 31
0.0
 12
3264.684963345809
 22
2946.76845462884
 32
0.0
 13
3264.684963345809
 23
2946.76845462884
 33
0.0
  0
MTEXT
  5
2FD
330
2FF
100
AcDbEntity
  8
0
  6
ByBlock
 62
     0
370
    -2
380
     1
100
AcDbMText
 10
3251.018296679143
 20
3046.73837462884
 30
0.0
 40
14.0
 41
0.0
 71
     5
 72
     1
  1
220
 11
6.123031769111886E-17
 21
1.0
 31
0.0
 73
     1
 44
1.0
  0
ENDBLK
  5
38A
330
2FF
100
AcDbEntity
  8
0
100
AcDbBlockEnd
  0
BLOCK
  5
38B
330
30B
100
AcDbEntity
  8
0
100
AcDbBlockBegin
  2
*D15
 70
     1
 10
0.0
 20
0.0
 30
0.0
  3
*D15
  1

  0
POINT
  5
302
330
30B
100
AcDbEntity
  8
DEFPOINTS
  6
ByBlock
 62
     0
380
     1
100
AcDbPoint
 10
3320.793623166909
 20
3099.073583328863
 30
0.0
  0
POINT
  5
303
330
30B
100
AcDbEntity
  8
DEFPOINTS
  6
ByBlock
 62
     0
380
     1
100
AcDbPoint
 10
3670.79362316691
 20
3096.384511077082
 30
0.0
  0
LINE
  5
304
330
30B
100
AcDbEntity
  8
0
  6
ByBlock
 62
     0
370
    -2
380
     1
100
AcDbLine
 10
3320.793623166909
 20
3099.698583328863
 30
0.0
 11
3320.793623166909
 21
3210.580725524127
 31
0.0
  0
LINE
  5
305
330
30B
100
AcDbEntity
  8
0
  6
ByBlock
 62
     0
370
    -2
380
     1
100
AcDbLine
 10
3670.79362316691
 20
3097.009511077082
 30
0.0
 11
3670.79362316691
 21
3210.580725524127
 31
0.0
  0
LINE
  5
306
330
30B
100
AcDbEntity
  8
0
  6
ByBlock
 62
     0
370
    -2
380
     1
100
AcDbLine
 10
3323.293623166909
 20
3209.330725524127
 30
0.0
 11
3668.29362316691
 21
3209.330725524127
 31
0.0
  0
SOLID
  5
307
330
30B
100
AcDbEntity
  8
0
  6
ByBlock
 62
     0
380
     1
100
AcDbTrace
 10
3320.793623166909
 20
3209.330725524127
 30
0.0
 11
3323.293623166909
 21
3208.91405885746
 31
0.0
 12
3323.293623166909
 22
3209.747392190793
 32
0.0
 13
3323.293623166909
 23
3209.747392190793
 33
0.0
  0
SOLID
  5
308
330
30B
100
AcDbEntity
  8
0
  6
ByBlock
 62
     0
380
     1
100
AcDbTrace
 10
3670.79362316691
 20
3209.330725524127
 30
0.0
 11
3668.29362316691
 21
3208.91405885746
 31
0.0
 12
3668.29362316691
 22
3209.747392190793
 32
0.0
 13
3668.29362316691
 23
3209.747392190793
 33
0.0
  0
MTEXT
  5
309
330
30B
100
AcDbEntity
  8
0
  6
ByBlock
 62
     0
370
    -2
380
     1
100
AcDbMText
 10
3495.793623166909
 20
3211.205725524127
 30
0.0
 40
2.5
 41
0.0
 71
     5
 72
     1
  1
\A1;350
 73
     1
 44
1.0
  0
ENDBLK
  5
38C
330
30B
100
AcDbEntity
  8
0
100
AcDbBlockEnd
  0
BLOCK
  5
38D
330
316
100
AcDbEntity
  8
0
100
AcDbBlockBegin
  2
*D16
 70
     1
 10
0.0
 20
0.0
 30
0.0
  3
*D16
  1

  0
POINT
  5
30D
330
316
100
AcDbEntity
  8
DEFPOINTS
  6
ByBlock
 62
     0
380
     1
100
AcDbPoint
 10
3320.793623166909
 20
3099.073583328863
 30
0.0
  0
POINT
  5
30E
330
316
100
AcDbEntity
  8
DEFPOINTS
  6
ByBlock
 62
     0
380
     1
100
AcDbPoint
 10
3670.79362316691
 20
3096.384511077082
 30
0.0
  0
LINE
  5
30F
330
316
100
AcDbEntity
  8
0
  6
ByBlock
 62
     0
370
    -2
380
     1
100
AcDbLine
 10
3320.793623166909
 20
3099.698583328863
 30
0.0
 11
3320.793623166909
 21
3210.580725524127
 31
0.0
  0
LINE
  5
310
330
316
100
AcDbEntity
  8
0
  6
ByBlock
 62
     0
370
    -2
380
     1
100
AcDbLine
 10
3670.79362316691
 20
3097.009511077082
 30
0.0
 11
3670.79362316691
 21
3210.580725524127
 31
0.0
  0
LINE
  5
311
330
316
100
AcDbEntity
  8
0
  6
ByBlock
 62
     0
370
    -2
380
     1
100
AcDbLine
 10
3323.293623166909
 20
3209.330725524127
 30
0.0
 11
3668.29362316691
 21
3209.330725524127
 31
0.0
  0
SOLID
  5
312
330
316
100
AcDbEntity
  8
0
  6
ByBlock
 62
     0
380
     1
100
AcDbTrace
 10
3320.793623166909
 20
3209.330725524127
 30
0.0
 11
3323.293623166909
 21
3208.91405885746
 31
0.0
 12
3323.293623166909
 22
3209.747392190793
 32
0.0
 13
3323.293623166909
 23
3209.747392190793
 33
0.0
  0
SOLID
  5
313
330
316
100
AcDbEntity
  8
0
  6
ByBlock
 62
     0
380
     1
100
AcDbTrace
 10
3670.79362316691
 20
3209.330725524127
 30
0.0
 11
3668.29362316691
 21
3208.91405885746
 31
0.0
 12
3668.29362316691
 22
3209.747392190793
 32
0.0
 13
3668.29362316691
 23
3209.747392190793
 33
0.0
  0
MTEXT
  5
314
330
316
100
AcDbEntity
  8
0
  6
ByBlock
 62
     0
370
    -2
380
     1
100
AcDbMText
 10
3495.793623166909
 20
3211.205725524127
 30
0.0
 40
2.5
 41
0.0
 71
     5
 72
     1
  1
\A1;350
 73
     1
 44
1.0
  0
ENDBLK
  5
38E
330
316
100
AcDbEntity
  8
0
100
AcDbBlockEnd
  0
BLOCK
  5
38F
330
321
100
AcDbEntity
  8
0
100
AcDbBlockBegin
  2
*D17
 70
     1
 10
0.0
 20
0.0
 30
0.0
  3
*D17
  1

  0
POINT
  5
318
330
321
100
AcDbEntity
  8
DEFPOINTS
  6
ByBlock
 62
     7
380
     1
100
AcDbPoint
 10
3320.793623166909
 20
3099.073583328863
 30
0.0
  0
POINT
  5
319
330
321
100
AcDbEntity
  8
DEFPOINTS
  6
ByBlock
 62
     7
380
     1
100
AcDbPoint
 10
3670.79362316691
 20
3096.384511077082
 30
0.0
  0
LINE
  5
31A
330
321
100
AcDbEntity
  8
0
  6
ByBlock
 62
     7
370
    -2
380
     1
100
AcDbLine
 10
3320.793623166909
 20
3099.698583328863
 30
0.0
 11
3320.793623166909
 21
3210.580725524127
 31
0.0
  0
LINE
  5
31B
330
321
100
AcDbEntity
  8
0
  6
ByBlock
 62
     7
370
    -2
380
     1
100
AcDbLine
 10
3670.79362316691
 20
3097.009511077082
 30
0.0
 11
3670.79362316691
 21
3210.580725524127
 31
0.0
  0
LINE
  5
31C
330
321
100
AcDbEntity
  8
0
  6
ByBlock
 62
     7
370
    -2
380
     1
100
AcDbLine
 10
3330.793623166909
 20
3209.330725524127
 30
0.0
 11
3660.79362316691
 21
3209.330725524127
 31
0.0
  0
SOLID
  5
31D
330
321
100
AcDbEntity
  8
0
  6
ByBlock
 62
     7
380
     1
100
AcDbTrace
 10
3320.793623166909
 20
3209.330725524127
 30
0.0
 11
3330.793623166909
 21
3207.66405885746
 31
0.0
 12
3330.793623166909
 22
3210.997392190793
 32
0.0
 13
3330.793623166909
 23
3210.997392190793
 33
0.0
  0
SOLID
  5
31E
330
321
100
AcDbEntity
  8
0
  6
ByBlock
 62
     7
380
     1
100
AcDbTrace
 10
3670.79362316691
 20
3209.330725524127
 30
0.0
 11
3660.79362316691
 21
3207.66405885746
 31
0.0
 12
3660.79362316691
 22
3210.997392190793
 32
0.0
 13
3660.79362316691
 23
3210.997392190793
 33
0.0
  0
MTEXT
  5
31F
330
321
100
AcDbEntity
  8
0
  6
ByBlock
 62
     0
370
    -2
380
     1
100
AcDbMText
 10
3495.793623166909
 20
3221.330725524127
 30
0.0
 40
14.0
 41
0.0
 71
     5
 72
     1
  1
\A1;350
 73
     1
 44
1.0
  0
ENDBLK
  5
390
330
321
100
AcDbEntity
  8
0
100
AcDbBlockEnd
  0
BLOCK
  5
391
330
32D
100
AcDbEntity
  8
0
100
AcDbBlockBegin
  2
*D18
 70
     1
 10
0.0
 20
0.0
 30
0.0
  3
*D18
  1

  0
POINT
  5
324
330
32D
100
AcDbEntity
  8
DEFPOINTS
  6
ByBlock
 62
     0
380
     1
100
AcDbPoint
 10
3612.996836717724
 20
3156.70829462884
 30
0.0
  0
POINT
  5
325
330
32D
100
AcDbEntity
  8
DEFPOINTS
  6
ByBlock
 62
     0
380
     1
100
AcDbPoint
 10
3612.996836717724
 20
2936.76845462884
 30
0.0
  0
LINE
  5
326
330
32D
100
AcDbEntity
  8
0
  6
ByBlock
 62
     0
370
    -2
380
     1
100
AcDbLine
 10
3613.621836717724
 20
3156.70829462884
 30
0.0
 11
3717.409854983734
 21
3156.70829462884
 31
0.0
  0
LINE
  5
327
330
32D
100
AcDbEntity
  8
0
  6
ByBlock
 62
     0
370
    -2
380
     1
100
AcDbLine
 10
3613.621836717724
 20
2936.76845462884
 30
0.0
 11
3717.409854983734
 21
2936.76845462884
 31
0.0
  0
LINE
  5
328
330
32D
100
AcDbEntity
  8
0
  6
ByBlock
 62
     0
370
    -2
380
     1
100
AcDbLine
 10
3716.159854983734
 20
3154.20829462884
 30
0.0
 11
3716.159854983734
 21
2939.26845462884
 31
0.0
  0
SOLID
  5
329
330
32D
100
AcDbEntity
  8
0
  6
ByBlock
 62
     0
380
     1
100
AcDbTrace
 10
3716.159854983734
 20
3156.70829462884
 30
0.0
 11
3715.743188317068
 21
3154.20829462884
 31
0.0
 12
3716.576521650401
 22
3154.20829462884
 32
0.0
 13
3716.576521650401
 23
3154.20829462884
 33
0.0
  0
SOLID
  5
32A
330
32D
100
AcDbEntity
  8
0
  6
ByBlock
 62
     0
380
     1
100
AcDbTrace
 10
3716.159854983734
 20
2936.76845462884
 30
0.0
 11
3715.743188317068
 21
2939.26845462884
 31
0.0
 12
3716.576521650401
 22
2939.26845462884
 32
0.0
 13
3716.576521650401
 23
2939.26845462884
 33
0.0
  0
MTEXT
  5
32B
330
32D
100
AcDbEntity
  8
0
  6
ByBlock
 62
     0
370
    -2
380
     1
100
AcDbMText
 10
3714.076521650401
 20
3046.73837462884
 30
0.0
 40
2.5
 41
0.0
 71
     5
 72
     1
  1
\A1;219,94
 11
6.123031769111886E-17
 21
1.0
 31
0.0
 73
     1
 44
1.0
  0
ENDBLK
  5
392
330
32D
100
AcDbEntity
  8
0
100
AcDbBlockEnd
  0
BLOCK
  5
393
330
338
100
AcDbEntity
  8
0
100
AcDbBlockBegin
  2
*D19
 70
     1
 10
0.0
 20
0.0
 30
0.0
  3
*D19
  1

  0
POINT
  5
32F
330
338
100
AcDbEntity
  8
DEFPOINTS
  6
ByBlock
 62
     0
380
     1
100
AcDbPoint
 10
3612.996836717724
 20
3156.70829462884
 30
0.0
  0
POINT
  5
330
330
338
100
AcDbEntity
  8
DEFPOINTS
  6
ByBlock
 62
     0
380
     1
100
AcDbPoint
 10
3612.996836717724
 20
2936.76845462884
 30
0.0
  0
LINE
  5
331
330
338
100
AcDbEntity
  8
0
  6
ByBlock
 62
     0
370
    -2
380
     1
100
AcDbLine
 10
3613.621836717724
 20
3156.70829462884
 30
0.0
 11
3717.409854983734
 21
3156.70829462884
 31
0.0
  0
LINE
  5
332
330
338
100
AcDbEntity
  8
0
  6
ByBlock
 62
     0
370
    -2
380
     1
100
AcDbLine
 10
3613.621836717724
 20
2936.76845462884
 30
0.0
 11
3717.409854983734
 21
2936.76845462884
 31
0.0
  0
LINE
  5
333
330
338
100
AcDbEntity
  8
0
  6
ByBlock
 62
     0
370
    -2
380
     1
100
AcDbLine
 10
3716.159854983734
 20
3154.20829462884
 30
0.0
 11
3716.159854983734
 21
2939.26845462884
 31
0.0
  0
SOLID
  5
334
330
338
100
AcDbEntity
  8
0
  6
ByBlock
 62
     0
380
     1
100
AcDbTrace
 10
3716.159854983734
 20
3156.70829462884
 30
0.0
 11
3715.743188317068
 21
3154.20829462884
 31
0.0
 12
3716.576521650401
 22
3154.20829462884
 32
0.0
 13
3716.576521650401
 23
3154.20829462884
 33
0.0
  0
SOLID
  5
335
330
338
100
AcDbEntity
  8
0
  6
ByBlock
 62
     0
380
     1
100
AcDbTrace
 10
3716.159854983734
 20
2936.76845462884
 30
0.0
 11
3715.743188317068
 21
2939.26845462884
 31
0.0
 12
3716.576521650401
 22
2939.26845462884
 32
0.0
 13
3716.576521650401
 23
2939.26845462884
 33
0.0
  0
MTEXT
  5
336
330
338
100
AcDbEntity
  8
0
  6
ByBlock
 62
     0
370
    -2
380
     1
100
AcDbMText
 10
3714.076521650401
 20
3046.73837462884
 30
0.0
 40
2.5
 41
0.0
 71
     5
 72
     1
  1
\A1;219,94
 11
6.123031769111886E-17
 21
1.0
 31
0.0
 73
     1
 44
1.0
  0
ENDBLK
  5
394
330
338
100
AcDbEntity
  8
0
100
AcDbBlockEnd
  0
BLOCK
  5
395
330
343
100
AcDbEntity
  8
0
100
AcDbBlockBegin
  2
*D20
 70
     1
 10
0.0
 20
0.0
 30
0.0
  3
*D20
  1

  0
POINT
  5
33A
330
343
100
AcDbEntity
  8
DEFPOINTS
  6
ByBlock
 62
     7
380
     1
100
AcDbPoint
 10
3612.996836717724
 20
3156.70829462884
 30
0.0
  0
POINT
  5
33B
330
343
100
AcDbEntity
  8
DEFPOINTS
  6
ByBlock
 62
     7
380
     1
100
AcDbPoint
 10
3612.996836717724
 20
2936.76845462884
 30
0.0
  0
LINE
  5
33C
330
343
100
AcDbEntity
  8
0
  6
ByBlock
 62
     7
370
    -2
380
     1
100
AcDbLine
 10
3613.621836717724
 20
3156.70829462884
 30
0.0
 11
3717.409854983734
 21
3156.70829462884
 31
0.0
  0
LINE
  5
33D
330
343
100
AcDbEntity
  8
0
  6
ByBlock
 62
     7
370
    -2
380
     1
100
AcDbLine
 10
3613.621836717724
 20
2936.76845462884
 30
0.0
 11
3717.409854983734
 21
2936.76845462884
 31
0.0
  0
LINE
  5
33E
330
343
100
AcDbEntity
  8
0
  6
ByBlock
 62
     7
370
    -2
380
     1
100
AcDbLine
 10
3716.159854983734
 20
3146.70829462884
 30
0.0
 11
3716.159854983734
 21
2946.76845462884
 31
0.0
  0
SOLID
  5
33F
330
343
100
AcDbEntity
  8
0
  6
ByBlock
 62
     7
380
     1
100
AcDbTrace
 10
3716.159854983734
 20
3156.70829462884
 30
0.0
 11
3714.493188317068
 21
3146.70829462884
 31
0.0
 12
3717.826521650401
 22
3146.70829462884
 32
0.0
 13
3717.826521650401
 23
3146.70829462884
 33
0.0
  0
SOLID
  5
340
330
343
100
AcDbEntity
  8
0
  6
ByBlock
 62
     7
380
     1
100
AcDbTrace
 10
3716.159854983734
 20
2936.76845462884
 30
0.0
 11
3714.493188317068
 21
2946.76845462884
 31
0.0
 12
3717.826521650401
 22
2946.76845462884
 32
0.0
 13
3717.826521650401
 23
2946.76845462884
 33
0.0
  0
MTEXT
  5
341
330
343
100
AcDbEntity
  8
0
  6
ByBlock
 62
     0
370
    -2
380
     1
100
AcDbMText
 10
3702.993188317068
 20
3046.73837462884
 30
0.0
 40
14.0
 41
0.0
 71
     5
 72
     1
  1
\A1;219,94
 11
6.123031769111886E-17
 21
1.0
 31
0.0
 73
     1
 44
1.0
  0
ENDBLK
  5
396
330
343
100
AcDbEntity
  8
0
100
AcDbBlockEnd
  0
BLOCK
  5
397
330
34E
100
AcDbEntity
  8
0
100
AcDbBlockBegin
  2
*D21
 70
     1
 10
0.0
 20
0.0
 30
0.0
  3
*D21
  1

  0
POINT
  5
345
330
34E
100
AcDbEntity
  8
DEFPOINTS
  6
ByBlock
 62
     7
380
     1
100
AcDbPoint
 10
3612.996836717724
 20
3156.70829462884
 30
0.0
  0
POINT
  5
346
330
34E
100
AcDbEntity
  8
DEFPOINTS
  6
ByBlock
 62
     7
380
     1
100
AcDbPoint
 10
3612.996836717724
 20
2936.76845462884
 30
0.0
  0
LINE
  5
347
330
34E
100
AcDbEntity
  8
0
  6
ByBlock
 62
     7
370
    -2
380
     1
100
AcDbLine
 10
3613.621836717724
 20
3156.70829462884
 30
0.0
 11
3717.409854983734
 21
3156.70829462884
 31
0.0
  0
LINE
  5
348
330
34E
100
AcDbEntity
  8
0
  6
ByBlock
 62
     7
370
    -2
380
     1
100
AcDbLine
 10
3613.621836717724
 20
2936.76845462884
 30
0.0
 11
3717.409854983734
 21
2936.76845462884
 31
0.0
  0
LINE
  5
349
330
34E
100
AcDbEntity
  8
0
  6
ByBlock
 62
     7
370
    -2
380
     1
100
AcDbLine
 10
3716.159854983734
 20
3146.70829462884
 30
0.0
 11
3716.159854983734
 21
2946.76845462884
 31
0.0
  0
SOLID
  5
34A
330
34E
100
AcDbEntity
  8
0
  6
ByBlock
 62
     7
380
     1
100
AcDbTrace
 10
3716.159854983734
 20
3156.70829462884
 30
0.0
 11
3714.493188317068
 21
3146.70829462884
 31
0.0
 12
3717.826521650401
 22
3146.70829462884
 32
0.0
 13
3717.826521650401
 23
3146.70829462884
 33
0.0
  0
SOLID
  5
34B
330
34E
100
AcDbEntity
  8
0
  6
ByBlock
 62
     7
380
     1
100
AcDbTrace
 10
3716.159854983734
 20
2936.76845462884
 30
0.0
 11
3714.493188317068
 21
2946.76845462884
 31
0.0
 12
3717.826521650401
 22
2946.76845462884
 32
0.0
 13
3717.826521650401
 23
2946.76845462884
 33
0.0
  0
MTEXT
  5
34C
330
34E
100
AcDbEntity
  8
0
  6
ByBlock
 62
     0
370
    -2
380
     1
100
AcDbMText
 10
3704.159854983734
 20
3046.73837462884
 30
0.0
 40
14.0
 41
0.0
 71
     5
 72
     1
  1
220
 11
6.123031769111886E-17
 21
1.0
 31
0.0
 73
     1
 44
1.0
  0
ENDBLK
  5
398
330
34E
100
AcDbEntity
  8
0
100
AcDbBlockEnd
  0
BLOCK
  5
399
330
35A
100
AcDbEntity
  8
0
100
AcDbBlockBegin
  2
*D22
 70
     1
 10
0.0
 20
0.0
 30
0.0
  3
*D22
  1

  0
POINT
  5
351
330
35A
100
AcDbEntity
  8
DEFPOINTS
  6
ByBlock
 62
     7
380
     1
100
AcDbPoint
 10
3621.804614550036
 20
3156.70829462884
 30
0.0
  0
POINT
  5
352
330
35A
100
AcDbEntity
  8
DEFPOINTS
  6
ByBlock
 62
     7
380
     1
100
AcDbPoint
 10
3621.804614550036
 20
2936.76845462884
 30
0.0
  0
LINE
  5
353
330
35A
100
AcDbEntity
  8
0
  6
ByBlock
 62
     7
370
    -2
380
     1
100
AcDbLine
 10
3622.429614550036
 20
3156.70829462884
 30
0.0
 11
3726.217632816046
 21
3156.70829462884
 31
0.0
  0
LINE
  5
354
330
35A
100
AcDbEntity
  8
0
  6
ByBlock
 62
     7
370
    -2
380
     1
100
AcDbLine
 10
3622.429614550036
 20
2936.76845462884
 30
0.0
 11
3726.217632816046
 21
2936.76845462884
 31
0.0
  0
LINE
  5
355
330
35A
100
AcDbEntity
  8
0
  6
ByBlock
 62
     7
370
    -2
380
     1
100
AcDbLine
 10
3724.967632816046
 20
3146.70829462884
 30
0.0
 11
3724.967632816046
 21
2946.76845462884
 31
0.0
  0
SOLID
  5
356
330
35A
100
AcDbEntity
  8
0
  6
ByBlock
 62
     7
380
     1
100
AcDbTrace
 10
3724.967632816046
 20
3156.70829462884
 30
0.0
 11
3723.30096614938
 21
3146.70829462884
 31
0.0
 12
3726.634299482713
 22
3146.70829462884
 32
0.0
 13
3726.634299482713
 23
3146.70829462884
 33
0.0
  0
SOLID
  5
357
330
35A
100
AcDbEntity
  8
0
  6
ByBlock
 62
     7
380
     1
100
AcDbTrace
 10
3724.967632816046
 20
2936.76845462884
 30
0.0
 11
3723.30096614938
 21
2946.76845462884
 31
0.0
 12
3726.634299482713
 22
2946.76845462884
 32
0.0
 13
3726.634299482713
 23
2946.76845462884
 33
0.0
  0
MTEXT
  5
358
330
35A
100
AcDbEntity
  8
0
  6
ByBlock
 62
     0
370
    -2
380
     1
100
AcDbMText
 10
3712.967632816046
 20
3046.73837462884
 30
0.0
 40
14.0
 41
0.0
 71
     5
 72
     1
  1
220
 11
6.123031769111886E-17
 21
1.0
 31
0.0
 73
     1
 44
1.0
  0
ENDBLK
  5
39A
330
35A
100
AcDbEntity
  8
0
100
AcDbBlockEnd
  0
BLOCK
  5
39B
330
366
100
AcDbEntity
  8
0
100
AcDbBlockBegin
  2
*D23
 70
     1
 10
0.0
 20
0.0
 30
0.0
  3
*D23
  1

  0
POINT
  5
35D
330
366
100
AcDbEntity
  8
DEFPOINTS
  6
ByBlock
 62
     7
380
     1
100
AcDbPoint
 10
3626.837630454214
 20
3156.70829462884
 30
0.0
  0
POINT
  5
35E
330
366
100
AcDbEntity
  8
DEFPOINTS
  6
ByBlock
 62
     7
380
     1
100
AcDbPoint
 10
3626.837630454214
 20
2936.76845462884
 30
0.0
  0
LINE
  5
35F
330
366
100
AcDbEntity
  8
0
  6
ByBlock
 62
     7
370
    -2
380
     1
100
AcDbLine
 10
3627.462630454214
 20
3156.70829462884
 30
0.0
 11
3731.250648720224
 21
3156.70829462884
 31
0.0
  0
LINE
  5
360
330
366
100
AcDbEntity
  8
0
  6
ByBlock
 62
     7
370
    -2
380
     1
100
AcDbLine
 10
3627.462630454214
 20
2936.76845462884
 30
0.0
 11
3731.250648720224
 21
2936.76845462884
 31
0.0
  0
LINE
  5
361
330
366
100
AcDbEntity
  8
0
  6
ByBlock
 62
     7
370
    -2
380
     1
100
AcDbLine
 10
3730.000648720224
 20
3146.70829462884
 30
0.0
 11
3730.000648720224
 21
2946.76845462884
 31
0.0
  0
SOLID
  5
362
330
366
100
AcDbEntity
  8
0
  6
ByBlock
 62
     7
380
     1
100
AcDbTrace
 10
3730.000648720224
 20
3156.70829462884
 30
0.0
 11
3728.333982053558
 21
3146.70829462884
 31
0.0
 12
3731.667315386891
 22
3146.70829462884
 32
0.0
 13
3731.667315386891
 23
3146.70829462884
 33
0.0
  0
SOLID
  5
363
330
366
100
AcDbEntity
  8
0
  6
ByBlock
 62
     7
380
     1
100
AcDbTrace
 10
3730.000648720224
 20
2936.76845462884
 30
0.0
 11
3728.333982053558
 21
2946.76845462884
 31
0.0
 12
3731.667315386891
 22
2946.76845462884
 32
0.0
 13
3731.667315386891
 23
2946.76845462884
 33
0.0
  0
MTEXT
  5
364
330
366
100
AcDbEntity
  8
0
  6
ByBlock
 62
     0
370
    -2
380
     1
100
AcDbMText
 10
3718.000648720224
 20
3046.73837462884
 30
0.0
 40
14.0
 41
0.0
 71
     5
 72
     1
  1
220
 11
6.123031769111886E-17
 21
1.0
 31
0.0
 73
     1
 44
1.0
  0
ENDBLK
  5
39C
330
366
100
AcDbEntity
  8
0
100
AcDbBlockEnd
  0
ENDSEC
  0
SECTION
  2
ENTITIES
  0
LINE
  5
1F4
330
1F
100
AcDbEntity
  8
0
370
    60
100
AcDbLine
 10
3529.293623166909
 20
3153.73613462884
 30
0.0
 11
3497.293623166909
 21
3153.73613462884
 31
0.0
  0
LINE
  5
1F5
330
1F
100
AcDbEntity
  8
0
370
    60
100
AcDbLine
 10
3529.293623166909
 20
3112.125894628842
 30
0.0
 11
3497.293623166909
 21
3112.125894628842
 31
0.0
  0
LINE
  5
1F6
330
1F
100
AcDbEntity
  8
0
370
    60
100
AcDbLine
 10
3529.293623166909
 20
3115.098054628842
 30
0.0
 11
3497.293623166909
 21
3115.098054628842
 31
0.0
  0
LINE
  5
1F7
330
1F
100
AcDbEntity
  8
0
370
    60
100
AcDbLine
 10
3529.293623166909
 20
3025.933254628842
 30
0.0
 11
3497.293623166909
 21
3025.933254628842
 31
0.0
  0
LINE
  5
1F8
330
1F
100
AcDbEntity
  8
0
370
    60
100
AcDbLine
 10
3529.293623166909
 20
3022.961094628842
 30
0.0
 11
3497.293623166909
 21
3022.961094628842
 31
0.0
  0
LINE
  5
1F9
330
1F
100
AcDbEntity
  8
0
370
    60
100
AcDbLine
 10
3529.293623166909
 20
3070.515654628842
 30
0.0
 11
3497.293623166909
 21
3070.515654628842
 31
0.0
  0
LINE
  5
1FA
330
1F
100
AcDbEntity
  8
0
370
    60
100
AcDbLine
 10
3529.293623166909
 20
3067.543494628841
 30
0.0
 11
3497.293623166909
 21
3067.543494628841
 31
0.0
  0
LINE
  5
1FB
330
1F
100
AcDbEntity
  8
0
370
    60
100
AcDbLine
 10
3529.293623166909
 20
2939.740614628842
 30
0.0
 11
3497.293623166909
 21
2939.740614628842
 31
0.0
  0
LINE
  5
1FC
330
1F
100
AcDbEntity
  8
0
370
    60
100
AcDbLine
 10
3529.293623166909
 20
2978.378694628842
 30
0.0
 11
3497.293623166909
 21
2978.378694628842
 31
0.0
  0
LINE
  5
1FD
330
1F
100
AcDbEntity
  8
0
370
    60
100
AcDbLine
 10
3529.293623166909
 20
2981.350854628842
 30
0.0
 11
3497.293623166909
 21
2981.350854628842
 31
0.0
  0
LINE
  5
1FE
330
1F
100
AcDbEntity
  8
0
370
    60
100
AcDbLine
 10
3337.793623166909
 20
2936.76845462884
 30
0.0
 11
3653.79362316691
 21
2936.76845462884
 31
0.0
  0
LINE
  5
1FF
330
1F
100
AcDbEntity
  8
0
370
    60
100
AcDbLine
 10
3337.793623166909
 20
3156.70829462884
 30
0.0
 11
3653.79362316691
 21
3156.70829462884
 31
0.0
  0
LINE
  5
200
330
1F
100
AcDbEntity
  8
0
  6
BORDER
370
    25
100
AcDbLine
 10
3298.09213879191
 20
3046.738374628841
 30
0.0
 11
3691.93106066691
 21
3046.738374628841
 31
0.0
  0
LINE
  5
219
330
1F
100
AcDbEntity
  8
0
370
    60
100
AcDbLine
 10
3392.293623166909
 20
3153.73613462884
 30
0.0
 11
3424.293623166909
 21
3153.73613462884
 31
0.0
  0
LINE
  5
21A
330
1F
100
AcDbEntity
  8
0
370
    60
100
AcDbLine
 10
3392.293623166909
 20
3115.098054628842
 30
0.0
 11
3424.293623166909
 21
3115.098054628842
 31
0.0
  0
LINE
  5
21B
330
1F
100
AcDbEntity
  8
0
370
    60
100
AcDbLine
 10
3392.293623166909
 20
3112.125894628842
 30
0.0
 11
3424.293623166909
 21
3112.125894628842
 31
0.0
  0
LINE
  5
21C
330
1F
100
AcDbEntity
  8
0
370
    60
100
AcDbLine
 10
3392.293623166909
 20
3067.543494628841
 30
0.0
 11
3424.293623166909
 21
3067.543494628841
 31
0.0
  0
LINE
  5
21D
330
1F
100
AcDbEntity
  8
0
370
    60
100
AcDbLine
 10
3392.293623166909
 20
3070.515654628842
 30
0.0
 11
3424.293623166909
 21
3070.515654628842
 31
0.0
  0
LINE
  5
21E
330
1F
100
AcDbEntity
  8
0
370
    60
100
AcDbLine
 10
3392.293623166909
 20
3022.961094628842
 30
0.0
 11
3424.293623166909
 21
3022.961094628842
 31
0.0
  0
LINE
  5
21F
330
1F
100
AcDbEntity
  8
0
370
    60
100
AcDbLine
 10
3392.293623166909
 20
3025.933254628842
 30
0.0
 11
3424.293623166909
 21
3025.933254628842
 31
0.0
  0
LINE
  5
220
330
1F
100
AcDbEntity
  8
0
370
    60
100
AcDbLine
 10
3392.293623166909
 20
2978.378694628842
 30
0.0
 11
3424.293623166909
 21
2978.378694628842
 31
0.0
  0
LINE
  5
221
330
1F
100
AcDbEntity
  8
0
370
    60
100
AcDbLine
 10
3392.293623166909
 20
2981.350854628842
 30
0.0
 11
3424.293623166909
 21
2981.350854628842
 31
0.0
  0
LINE
  5
222
330
1F
100
AcDbEntity
  8
0
370
    60
100
AcDbLine
 10
3392.293623166909
 20
2939.740614628842
 30
0.0
 11
3424.293623166909
 21
2939.740614628842
 31
0.0
  0
LINE
  5
223
330
1F
100
AcDbEntity
  8
0
370
    60
100
AcDbLine
 10
3357.29362316691
 20
3156.70829462884
 30
0.0
 11
3357.29362316691
 21
3046.738374628841
 31
0.0
  0
LINE
  5
224
330
1F
100
AcDbEntity
  8
0
370
    60
100
AcDbLine
 10
3354.29362316691
 20
3156.70829462884
 30
0.0
 11
3354.29362316691
 21
3046.738374628841
 31
0.0
  0
LINE
  5
225
330
1F
100
AcDbEntity
  8
0
370
    60
100
AcDbLine
 10
3389.29362316691
 20
3156.70829462884
 30
0.0
 11
3389.29362316691
 21
3046.738374628841
 31
0.0
  0
LINE
  5
226
330
1F
100
AcDbEntity
  8
0
370
    60
100
AcDbLine
 10
3392.293623166909
 20
3156.70829462884
 30
0.0
 11
3392.293623166909
 21
3046.738374628841
 31
0.0
  0
LINE
  5
227
330
1F
100
AcDbEntity
  8
0
370
    60
100
AcDbLine
 10
3323.79362316691
 20
3112.125894628842
 30
0.0
 11
3323.79362316691
 21
3070.515654628842
 31
0.0
  0
LINE
  5
228
330
1F
100
AcDbEntity
  8
0
370
    60
100
AcDbLine
 10
3320.793623166909
 20
3139.866054628842
 30
0.0
 11
3320.793623166909
 21
2953.61069462884
 31
0.0
  0
ELLIPSE
  5
229
330
1F
100
AcDbEntity
  8
0
370
    60
100
AcDbEllipse
 10
3329.793623166909
 20
3046.738374628841
 30
0.0
 11
6.000000000000227
 21
0.0
 31
0.0
210
0.0
220
0.0
230
1.0
 40
0.9907200000000002
 41
4.71238898038469
 42
7.853981633974483
  0
LINE
  5
22A
330
1F
100
AcDbEntity
  8
0
370
    60
100
AcDbLine
 10
3320.793623166909
 20
3022.961094628842
 30
0.0
 11
3354.29362316691
 21
3022.961094628842
 31
0.0
  0
LINE
  5
22B
330
1F
100
AcDbEntity
  8
0
370
    60
100
AcDbLine
 10
3320.793623166909
 20
3025.933254628842
 30
0.0
 11
3354.29362316691
 21
3025.933254628842
 31
0.0
  0
LINE
  5
22C
330
1F
100
AcDbEntity
  8
0
370
    60
100
AcDbLine
 10
3320.793623166909
 20
3067.543494628841
 30
0.0
 11
3354.29362316691
 21
3067.543494628841
 31
0.0
  0
LINE
  5
22D
330
1F
100
AcDbEntity
  8
0
370
    60
100
AcDbLine
 10
3320.793623166909
 20
3070.515654628842
 30
0.0
 11
3354.29362316691
 21
3070.515654628842
 31
0.0
  0
ELLIPSE
  5
22E
330
1F
100
AcDbEntity
  8
0
370
    60
100
AcDbEllipse
 10
3337.793623166909
 20
2953.61069462884
 30
0.0
 11
14.00000000000023
 21
0.0
 31
0.0
210
0.0
220
0.0
230
1.0
 40
0.99072
 41
3.141592653589793
 42
4.71238898038469
  0
ELLIPSE
  5
22F
330
1F
100
AcDbEntity
  8
0
370
    60
100
AcDbEllipse
 10
3337.793623166909
 20
2953.61069462884
 30
0.0
 11
16.9999999999999
 21
0.0
 31
0.0
210
0.0
220
0.0
230
1.0
 40
0.9907199999999999
 41
3.141592653589793
 42
4.71238898038469
  0
LINE
  5
230
330
1F
100
AcDbEntity
  8
0
370
    60
100
AcDbLine
 10
3320.793623166909
 20
2978.378694628842
 30
0.0
 11
3354.29362316691
 21
2978.378694628842
 31
0.0
  0
LINE
  5
231
330
1F
100
AcDbEntity
  8
0
370
    60
100
AcDbLine
 10
3320.793623166909
 20
2981.350854628842
 30
0.0
 11
3354.29362316691
 21
2981.350854628842
 31
0.0
  0
LINE
  5
232
330
1F
100
AcDbEntity
  8
0
370
    60
100
AcDbLine
 10
3323.79362316691
 20
2981.350854628842
 30
0.0
 11
3323.79362316691
 21
3022.961094628842
 31
0.0
  0
LINE
  5
233
330
1F
100
AcDbEntity
  8
0
370
    60
100
AcDbLine
 10
3323.79362316691
 20
2953.61069462884
 30
0.0
 11
3323.79362316691
 21
2978.378694628842
 31
0.0
  0
LINE
  5
234
330
1F
100
AcDbEntity
  8
0
370
    60
100
AcDbLine
 10
3323.79362316691
 20
3025.933254628842
 30
0.0
 11
3323.79362316691
 21
3040.79405462884
 31
0.0
  0
ELLIPSE
  5
235
330
1F
100
AcDbEntity
  8
0
370
    60
100
AcDbEllipse
 10
3329.793623166909
 20
3046.738374628841
 30
0.0
 11
3.000000000000114
 21
0.0
 31
0.0
210
0.0
220
0.0
230
1.0
 40
0.9907200000000002
 41
4.71238898038469
 42
7.853981633974483
  0
LINE
  5
236
330
1F
100
AcDbEntity
  8
0
370
    60
100
AcDbLine
 10
3320.793623166909
 20
3049.710534628842
 30
0.0
 11
3329.793623166909
 21
3049.710534628842
 31
0.0
  0
LINE
  5
237
330
1F
100
AcDbEntity
  8
0
370
    60
100
AcDbLine
 10
3320.793623166909
 20
3052.68269462884
 30
0.0
 11
3329.793623166909
 21
3052.68269462884
 31
0.0
  0
LINE
  5
238
330
1F
100
AcDbEntity
  8
0
370
    60
100
AcDbLine
 10
3320.793623166909
 20
3043.766214628842
 30
0.0
 11
3329.793623166909
 21
3043.766214628842
 31
0.0
  0
LINE
  5
239
330
1F
100
AcDbEntity
  8
0
370
    60
100
AcDbLine
 10
3320.793623166909
 20
3040.79405462884
 30
0.0
 11
3329.793623166909
 21
3040.79405462884
 31
0.0
  0
LINE
  5
23A
330
1F
100
AcDbEntity
  8
0
370
    60
100
AcDbLine
 10
3323.79362316691
 20
3067.543494628841
 30
0.0
 11
3323.79362316691
 21
3052.68269462884
 31
0.0
  0
LINE
  5
23B
330
1F
100
AcDbEntity
  8
0
370
    60
100
AcDbLine
 10
3392.293623166909
 20
2936.76845462884
 30
0.0
 11
3392.293623166909
 21
3046.738374628841
 31
0.0
  0
LINE
  5
23C
330
1F
100
AcDbEntity
  8
0
370
    60
100
AcDbLine
 10
3389.29362316691
 20
2936.76845462884
 30
0.0
 11
3389.29362316691
 21
3046.738374628841
 31
0.0
  0
LINE
  5
23D
330
1F
100
AcDbEntity
  8
0
370
    60
100
AcDbLine
 10
3357.29362316691
 20
2936.76845462884
 30
0.0
 11
3357.29362316691
 21
3046.738374628841
 31
0.0
  0
LINE
  5
23E
330
1F
100
AcDbEntity
  8
0
370
    60
100
AcDbLine
 10
3354.29362316691
 20
2936.76845462884
 30
0.0
 11
3354.29362316691
 21
3046.738374628841
 31
0.0
  0
LINE
  5
23F
330
1F
100
AcDbEntity
  8
0
370
    60
100
AcDbLine
 10
3357.29362316691
 20
2981.350854628842
 30
0.0
 11
3389.29362316691
 21
2981.350854628842
 31
0.0
  0
LINE
  5
240
330
1F
100
AcDbEntity
  8
0
370
    60
100
AcDbLine
 10
3357.29362316691
 20
2978.378694628842
 30
0.0
 11
3389.29362316691
 21
2978.378694628842
 31
0.0
  0
LINE
  5
241
330
1F
100
AcDbEntity
  8
0
370
    60
100
AcDbLine
 10
3357.29362316691
 20
2939.740614628842
 30
0.0
 11
3389.29362316691
 21
2939.740614628842
 31
0.0
  0
LINE
  5
242
330
1F
100
AcDbEntity
  8
0
370
    60
100
AcDbLine
 10
3337.793623166909
 20
2939.740614628842
 30
0.0
 11
3354.29362316691
 21
2939.740614628842
 31
0.0
  0
LINE
  5
243
330
1F
100
AcDbEntity
  8
0
370
    60
100
AcDbLine
 10
3357.29362316691
 20
3067.543494628841
 30
0.0
 11
3389.29362316691
 21
3067.543494628841
 31
0.0
  0
LINE
  5
244
330
1F
100
AcDbEntity
  8
0
370
    60
100
AcDbLine
 10
3357.29362316691
 20
3070.515654628842
 30
0.0
 11
3389.29362316691
 21
3070.515654628842
 31
0.0
  0
LINE
  5
245
330
1F
100
AcDbEntity
  8
0
370
    60
100
AcDbLine
 10
3357.29362316691
 20
3022.961094628842
 30
0.0
 11
3389.29362316691
 21
3022.961094628842
 31
0.0
  0
LINE
  5
246
330
1F
100
AcDbEntity
  8
0
370
    60
100
AcDbLine
 10
3357.29362316691
 20
3025.933254628842
 30
0.0
 11
3389.29362316691
 21
3025.933254628842
 31
0.0
  0
ELLIPSE
  5
247
330
1F
100
AcDbEntity
  8
0
370
    60
100
AcDbEllipse
 10
3337.793623166909
 20
3139.866054628842
 30
0.0
 11
13.99999999999979
 21
0.0
 31
0.0
210
0.0
220
0.0
230
1.0
 40
0.99072
 41
1.570796326794897
 42
3.141592653589793
  0
ELLIPSE
  5
248
330
1F
100
AcDbEntity
  8
0
370
    60
100
AcDbEllipse
 10
3337.793623166909
 20
3139.866054628842
 30
0.0
 11
16.9999999999999
 21
0.0
 31
0.0
210
0.0
220
0.0
230
1.0
 40
0.9907199999999999
 41
1.570796326794897
 42
3.141592653589793
  0
LINE
  5
249
330
1F
100
AcDbEntity
  8
0
370
    60
100
AcDbLine
 10
3320.793623166909
 20
3112.125894628842
 30
0.0
 11
3354.29362316691
 21
3112.125894628842
 31
0.0
  0
LINE
  5
24A
330
1F
100
AcDbEntity
  8
0
370
    60
100
AcDbLine
 10
3320.793623166909
 20
3115.098054628842
 30
0.0
 11
3354.29362316691
 21
3115.098054628842
 31
0.0
  0
LINE
  5
24B
330
1F
100
AcDbEntity
  8
0
370
    60
100
AcDbLine
 10
3323.79362316691
 20
3139.866054628842
 30
0.0
 11
3323.79362316691
 21
3115.098054628842
 31
0.0
  0
LINE
  5
24C
330
1F
100
AcDbEntity
  8
0
370
    60
100
AcDbLine
 10
3357.29362316691
 20
3153.73613462884
 30
0.0
 11
3389.29362316691
 21
3153.73613462884
 31
0.0
  0
LINE
  5
24D
330
1F
100
AcDbEntity
  8
0
370
    60
100
AcDbLine
 10
3357.29362316691
 20
3115.098054628842
 30
0.0
 11
3389.29362316691
 21
3115.098054628842
 31
0.0
  0
LINE
  5
24E
330
1F
100
AcDbEntity
  8
0
370
    60
100
AcDbLine
 10
3357.29362316691
 20
3112.125894628842
 30
0.0
 11
3389.29362316691
 21
3112.125894628842
 31
0.0
  0
LINE
  5
24F
330
1F
100
AcDbEntity
  8
0
370
    60
100
AcDbLine
 10
3337.793623166909
 20
3153.73613462884
 30
0.0
 11
3354.29362316691
 21
3153.73613462884
 31
0.0
  0
LINE
  5
250
330
1F
100
AcDbEntity
  8
0
370
    60
100
AcDbLine
 10
3497.293623166909
 20
3156.70829462884
 30
0.0
 11
3497.293623166909
 21
3046.738374628841
 31
0.0
  0
LINE
  5
251
330
1F
100
AcDbEntity
  8
0
370
    60
100
AcDbLine
 10
3494.29362316691
 20
3156.70829462884
 30
0.0
 11
3494.29362316691
 21
3046.738374628841
 31
0.0
  0
LINE
  5
252
330
1F
100
AcDbEntity
  8
0
370
    60
100
AcDbLine
 10
3459.29362316691
 20
3156.70829462884
 30
0.0
 11
3459.29362316691
 21
3046.738374628841
 31
0.0
  0
LINE
  5
253
330
1F
100
AcDbEntity
  8
0
370
    60
100
AcDbLine
 10
3462.29362316691
 20
3156.70829462884
 30
0.0
 11
3462.29362316691
 21
3046.738374628841
 31
0.0
  0
LINE
  5
254
330
1F
100
AcDbEntity
  8
0
370
    60
100
AcDbLine
 10
3424.293623166909
 20
3156.70829462884
 30
0.0
 11
3424.293623166909
 21
3046.738374628841
 31
0.0
  0
LINE
  5
255
330
1F
100
AcDbEntity
  8
0
370
    60
100
AcDbLine
 10
3427.293623166909
 20
3156.70829462884
 30
0.0
 11
3427.293623166909
 21
3046.738374628841
 31
0.0
  0
LINE
  5
256
330
1F
100
AcDbEntity
  8
0
  6
BORDER
370
    25
100
AcDbLine
 10
3495.79362316691
 20
3183.362702908842
 30
0.0
 11
3495.79362316691
 21
2910.472532188842
 31
0.0
  0
LINE
  5
257
330
1F
100
AcDbEntity
  8
0
370
    60
100
AcDbLine
 10
3459.29362316691
 20
2936.76845462884
 30
0.0
 11
3459.29362316691
 21
3046.738374628841
 31
0.0
  0
LINE
  5
258
330
1F
100
AcDbEntity
  8
0
370
    60
100
AcDbLine
 10
3424.293623166909
 20
2936.76845462884
 30
0.0
 11
3424.293623166909
 21
3046.738374628841
 31
0.0
  0
LINE
  5
259
330
1F
100
AcDbEntity
  8
0
370
    60
100
AcDbLine
 10
3427.293623166909
 20
2936.76845462884
 30
0.0
 11
3427.293623166909
 21
3046.738374628841
 31
0.0
  0
LINE
  5
25A
330
1F
100
AcDbEntity
  8
0
370
    60
100
AcDbLine
 10
3427.293623166909
 20
2981.350854628842
 30
0.0
 11
3459.29362316691
 21
2981.350854628842
 31
0.0
  0
LINE
  5
25B
330
1F
100
AcDbEntity
  8
0
370
    60
100
AcDbLine
 10
3427.293623166909
 20
2978.378694628842
 30
0.0
 11
3459.29362316691
 21
2978.378694628842
 31
0.0
  0
LINE
  5
25C
330
1F
100
AcDbEntity
  8
0
370
    60
100
AcDbLine
 10
3427.293623166909
 20
2939.740614628842
 30
0.0
 11
3459.29362316691
 21
2939.740614628842
 31
0.0
  0
LINE
  5
25D
330
1F
100
AcDbEntity
  8
0
370
    60
100
AcDbLine
 10
3427.293623166909
 20
3067.543494628841
 30
0.0
 11
3459.29362316691
 21
3067.543494628841
 31
0.0
  0
LINE
  5
25E
330
1F
100
AcDbEntity
  8
0
370
    60
100
AcDbLine
 10
3427.293623166909
 20
3070.515654628842
 30
0.0
 11
3459.29362316691
 21
3070.515654628842
 31
0.0
  0
LINE
  5
25F
330
1F
100
AcDbEntity
  8
0
370
    60
100
AcDbLine
 10
3427.293623166909
 20
3022.961094628842
 30
0.0
 11
3459.29362316691
 21
3022.961094628842
 31
0.0
  0
LINE
  5
260
330
1F
100
AcDbEntity
  8
0
370
    60
100
AcDbLine
 10
3427.293623166909
 20
3025.933254628842
 30
0.0
 11
3459.29362316691
 21
3025.933254628842
 31
0.0
  0
LINE
  5
261
330
1F
100
AcDbEntity
  8
0
370
    60
100
AcDbLine
 10
3462.29362316691
 20
2936.76845462884
 30
0.0
 11
3462.29362316691
 21
3046.738374628841
 31
0.0
  0
LINE
  5
262
330
1F
100
AcDbEntity
  8
0
370
    60
100
AcDbLine
 10
3494.29362316691
 20
2936.76845462884
 30
0.0
 11
3494.29362316691
 21
3046.738374628841
 31
0.0
  0
LINE
  5
263
330
1F
100
AcDbEntity
  8
0
370
    60
100
AcDbLine
 10
3497.293623166909
 20
2936.76845462884
 30
0.0
 11
3497.293623166909
 21
3046.738374628841
 31
0.0
  0
LINE
  5
264
330
1F
100
AcDbEntity
  8
0
370
    60
100
AcDbLine
 10
3462.29362316691
 20
2978.378694628842
 30
0.0
 11
3494.29362316691
 21
2978.378694628842
 31
0.0
  0
LINE
  5
265
330
1F
100
AcDbEntity
  8
0
370
    60
100
AcDbLine
 10
3462.29362316691
 20
2981.350854628842
 30
0.0
 11
3494.29362316691
 21
2981.350854628842
 31
0.0
  0
LINE
  5
266
330
1F
100
AcDbEntity
  8
0
370
    60
100
AcDbLine
 10
3462.29362316691
 20
2939.740614628842
 30
0.0
 11
3494.29362316691
 21
2939.740614628842
 31
0.0
  0
LINE
  5
267
330
1F
100
AcDbEntity
  8
0
370
    60
100
AcDbLine
 10
3462.29362316691
 20
3067.543494628841
 30
0.0
 11
3494.29362316691
 21
3067.543494628841
 31
0.0
  0
LINE
  5
268
330
1F
100
AcDbEntity
  8
0
370
    60
100
AcDbLine
 10
3462.29362316691
 20
3070.515654628842
 30
0.0
 11
3494.29362316691
 21
3070.515654628842
 31
0.0
  0
LINE
  5
269
330
1F
100
AcDbEntity
  8
0
370
    60
100
AcDbLine
 10
3462.29362316691
 20
3022.961094628842
 30
0.0
 11
3494.29362316691
 21
3022.961094628842
 31
0.0
  0
LINE
  5
26A
330
1F
100
AcDbEntity
  8
0
370
    60
100
AcDbLine
 10
3462.29362316691
 20
3025.933254628842
 30
0.0
 11
3494.29362316691
 21
3025.933254628842
 31
0.0
  0
LINE
  5
26B
330
1F
100
AcDbEntity
  8
0
370
    60
100
AcDbLine
 10
3427.293623166909
 20
3153.73613462884
 30
0.0
 11
3459.29362316691
 21
3153.73613462884
 31
0.0
  0
LINE
  5
26C
330
1F
100
AcDbEntity
  8
0
370
    60
100
AcDbLine
 10
3427.293623166909
 20
3115.098054628842
 30
0.0
 11
3459.29362316691
 21
3115.098054628842
 31
0.0
  0
LINE
  5
26D
330
1F
100
AcDbEntity
  8
0
370
    60
100
AcDbLine
 10
3427.293623166909
 20
3112.125894628842
 30
0.0
 11
3459.29362316691
 21
3112.125894628842
 31
0.0
  0
LINE
  5
26E
330
1F
100
AcDbEntity
  8
0
370
    60
100
AcDbLine
 10
3462.29362316691
 20
3115.098054628842
 30
0.0
 11
3494.29362316691
 21
3115.098054628842
 31
0.0
  0
LINE
  5
26F
330
1F
100
AcDbEntity
  8
0
370
    60
100
AcDbLine
 10
3462.29362316691
 20
3112.125894628842
 30
0.0
 11
3494.29362316691
 21
3112.125894628842
 31
0.0
  0
LINE
  5
270
330
1F
100
AcDbEntity
  8
0
370
    60
100
AcDbLine
 10
3462.29362316691
 20
3153.73613462884
 30
0.0
 11
3494.29362316691
 21
3153.73613462884
 31
0.0
  0
LINE
  5
271
330
1F
100
AcDbEntity
  8
0
370
    60
100
AcDbLine
 10
3670.79362316691
 20
3025.933254628842
 30
0.0
 11
3637.293623166909
 21
3025.933254628842
 31
0.0
  0
LINE
  5
272
330
1F
100
AcDbEntity
  8
0
370
    60
100
AcDbLine
 10
3670.79362316691
 20
3022.961094628842
 30
0.0
 11
3637.293623166909
 21
3022.961094628842
 31
0.0
  0
LINE
  5
273
330
1F
100
AcDbEntity
  8
0
370
    60
100
AcDbLine
 10
3670.79362316691
 20
3070.515654628842
 30
0.0
 11
3637.293623166909
 21
3070.515654628842
 31
0.0
  0
LINE
  5
274
330
1F
100
AcDbEntity
  8
0
370
    60
100
AcDbLine
 10
3670.79362316691
 20
3067.543494628841
 30
0.0
 11
3637.293623166909
 21
3067.543494628841
 31
0.0
  0
LINE
  5
275
330
1F
100
AcDbEntity
  8
0
370
    60
100
AcDbLine
 10
3670.79362316691
 20
3115.098054628842
 30
0.0
 11
3637.293623166909
 21
3115.098054628842
 31
0.0
  0
LINE
  5
276
330
1F
100
AcDbEntity
  8
0
370
    60
100
AcDbLine
 10
3670.79362316691
 20
3112.125894628842
 30
0.0
 11
3637.293623166909
 21
3112.125894628842
 31
0.0
  0
ELLIPSE
  5
277
330
1F
100
AcDbEntity
  8
0
370
    60
100
AcDbEllipse
 10
3653.79362316691
 20
3139.866054628842
 30
0.0
 11
14.00000000000023
 21
0.0
 31
0.0
210
0.0
220
0.0
230
1.0
 40
0.99072
 41
0.0
 42
1.570796326794897
  0
ELLIPSE
  5
278
330
1F
100
AcDbEntity
  8
0
370
    60
100
AcDbEllipse
 10
3653.79362316691
 20
3139.866054628842
 30
0.0
 11
17.00000000000035
 21
0.0
 31
0.0
210
0.0
220
0.0
230
1.0
 40
0.99072
 41
0.0
 42
1.570796326794897
  0
LINE
  5
279
330
1F
100
AcDbEntity
  8
0
370
    60
100
AcDbLine
 10
3670.79362316691
 20
2981.350854628842
 30
0.0
 11
3637.293623166909
 21
2981.350854628842
 31
0.0
  0
LINE
  5
27A
330
1F
100
AcDbEntity
  8
0
370
    60
100
AcDbLine
 10
3670.79362316691
 20
2978.378694628842
 30
0.0
 11
3637.293623166909
 21
2978.378694628842
 31
0.0
  0
ELLIPSE
  5
27B
330
1F
100
AcDbEntity
  8
0
370
    60
100
AcDbEllipse
 10
3653.79362316691
 20
2953.61069462884
 30
0.0
 11
13.99999999999979
 21
0.0
 31
0.0
210
0.0
220
0.0
230
1.0
 40
0.99072
 41
4.71238898038469
 42
6.283185307179586
  0
ELLIPSE
  5
27C
330
1F
100
AcDbEntity
  8
0
370
    60
100
AcDbEllipse
 10
3653.79362316691
 20
2953.61069462884
 30
0.0
 11
16.9999999999999
 21
0.0
 31
0.0
210
0.0
220
0.0
230
1.0
 40
0.9907199999999999
 41
4.71238898038469
 42
6.283185307179586
  0
LINE
  5
27D
330
1F
100
AcDbEntity
  8
0
370
    60
100
AcDbLine
 10
3637.293623166909
 20
3156.70829462884
 30
0.0
 11
3637.293623166909
 21
3046.738374628841
 31
0.0
  0
LINE
  5
27E
330
1F
100
AcDbEntity
  8
0
370
    60
100
AcDbLine
 10
3634.293623166909
 20
3156.70829462884
 30
0.0
 11
3634.293623166909
 21
3046.738374628841
 31
0.0
  0
LINE
  5
27F
330
1F
100
AcDbEntity
  8
0
370
    60
100
AcDbLine
 10
3599.29362316691
 20
3156.70829462884
 30
0.0
 11
3599.29362316691
 21
3046.738374628841
 31
0.0
  0
LINE
  5
280
330
1F
100
AcDbEntity
  8
0
370
    60
100
AcDbLine
 10
3602.293623166909
 20
3156.70829462884
 30
0.0
 11
3602.293623166909
 21
3046.738374628841
 31
0.0
  0
LINE
  5
281
330
1F
100
AcDbEntity
  8
0
370
    60
100
AcDbLine
 10
3564.293623166909
 20
3156.70829462884
 30
0.0
 11
3564.293623166909
 21
3046.738374628841
 31
0.0
  0
LINE
  5
282
330
1F
100
AcDbEntity
  8
0
370
    60
100
AcDbLine
 10
3567.29362316691
 20
3156.70829462884
 30
0.0
 11
3567.29362316691
 21
3046.738374628841
 31
0.0
  0
LINE
  5
283
330
1F
100
AcDbEntity
  8
0
370
    60
100
AcDbLine
 10
3529.293623166909
 20
3156.70829462884
 30
0.0
 11
3529.293623166909
 21
3046.738374628841
 31
0.0
  0
LINE
  5
284
330
1F
100
AcDbEntity
  8
0
370
    60
100
AcDbLine
 10
3532.293623166909
 20
3156.70829462884
 30
0.0
 11
3532.293623166909
 21
3046.738374628841
 31
0.0
  0
LINE
  5
285
330
1F
100
AcDbEntity
  8
0
370
    60
100
AcDbLine
 10
3599.29362316691
 20
3025.933254628842
 30
0.0
 11
3567.29362316691
 21
3025.933254628842
 31
0.0
  0
LINE
  5
286
330
1F
100
AcDbEntity
  8
0
370
    60
100
AcDbLine
 10
3599.29362316691
 20
3022.961094628842
 30
0.0
 11
3567.29362316691
 21
3022.961094628842
 31
0.0
  0
LINE
  5
287
330
1F
100
AcDbEntity
  8
0
370
    60
100
AcDbLine
 10
3599.29362316691
 20
3070.515654628842
 30
0.0
 11
3567.29362316691
 21
3070.515654628842
 31
0.0
  0
LINE
  5
288
330
1F
100
AcDbEntity
  8
0
370
    60
100
AcDbLine
 10
3599.29362316691
 20
3067.543494628841
 30
0.0
 11
3567.29362316691
 21
3067.543494628841
 31
0.0
  0
LINE
  5
289
330
1F
100
AcDbEntity
  8
0
370
    60
100
AcDbLine
 10
3599.29362316691
 20
2939.740614628842
 30
0.0
 11
3567.29362316691
 21
2939.740614628842
 31
0.0
  0
LINE
  5
28A
330
1F
100
AcDbEntity
  8
0
370
    60
100
AcDbLine
 10
3599.29362316691
 20
2978.378694628842
 30
0.0
 11
3567.29362316691
 21
2978.378694628842
 31
0.0
  0
LINE
  5
28B
330
1F
100
AcDbEntity
  8
0
370
    60
100
AcDbLine
 10
3599.29362316691
 20
2981.350854628842
 30
0.0
 11
3567.29362316691
 21
2981.350854628842
 31
0.0
  0
LINE
  5
28C
330
1F
100
AcDbEntity
  8
0
370
    60
100
AcDbLine
 10
3564.293623166909
 20
2936.76845462884
 30
0.0
 11
3564.293623166909
 21
3046.738374628841
 31
0.0
  0
LINE
  5
28D
330
1F
100
AcDbEntity
  8
0
370
    60
100
AcDbLine
 10
3567.29362316691
 20
2936.76845462884
 30
0.0
 11
3567.29362316691
 21
3046.738374628841
 31
0.0
  0
LINE
  5
28E
330
1F
100
AcDbEntity
  8
0
370
    60
100
AcDbLine
 10
3532.293623166909
 20
2936.76845462884
 30
0.0
 11
3532.293623166909
 21
3046.738374628841
 31
0.0
  0
LINE
  5
28F
330
1F
100
AcDbEntity
  8
0
370
    60
100
AcDbLine
 10
3529.293623166909
 20
2936.76845462884
 30
0.0
 11
3529.293623166909
 21
3046.738374628841
 31
0.0
  0
LINE
  5
290
330
1F
100
AcDbEntity
  8
0
370
    60
100
AcDbLine
 10
3564.293623166909
 20
2978.378694628842
 30
0.0
 11
3532.293623166909
 21
2978.378694628842
 31
0.0
  0
LINE
  5
291
330
1F
100
AcDbEntity
  8
0
370
    60
100
AcDbLine
 10
3564.293623166909
 20
2981.350854628842
 30
0.0
 11
3532.293623166909
 21
2981.350854628842
 31
0.0
  0
LINE
  5
292
330
1F
100
AcDbEntity
  8
0
370
    60
100
AcDbLine
 10
3564.293623166909
 20
2939.740614628842
 30
0.0
 11
3532.293623166909
 21
2939.740614628842
 31
0.0
  0
LINE
  5
293
330
1F
100
AcDbEntity
  8
0
370
    60
100
AcDbLine
 10
3564.293623166909
 20
3070.515654628842
 30
0.0
 11
3532.293623166909
 21
3070.515654628842
 31
0.0
  0
LINE
  5
294
330
1F
100
AcDbEntity
  8
0
370
    60
100
AcDbLine
 10
3564.293623166909
 20
3067.543494628841
 30
0.0
 11
3532.293623166909
 21
3067.543494628841
 31
0.0
  0
LINE
  5
295
330
1F
100
AcDbEntity
  8
0
370
    60
100
AcDbLine
 10
3564.293623166909
 20
3025.933254628842
 30
0.0
 11
3532.293623166909
 21
3025.933254628842
 31
0.0
  0
LINE
  5
296
330
1F
100
AcDbEntity
  8
0
370
    60
100
AcDbLine
 10
3564.293623166909
 20
3022.961094628842
 30
0.0
 11
3532.293623166909
 21
3022.961094628842
 31
0.0
  0
LINE
  5
297
330
1F
100
AcDbEntity
  8
0
370
    60
100
AcDbLine
 10
3634.293623166909
 20
2936.76845462884
 30
0.0
 11
3634.293623166909
 21
3046.738374628841
 31
0.0
  0
LINE
  5
298
330
1F
100
AcDbEntity
  8
0
370
    60
100
AcDbLine
 10
3637.293623166909
 20
2936.76845462884
 30
0.0
 11
3637.293623166909
 21
3046.738374628841
 31
0.0
  0
LINE
  5
299
330
1F
100
AcDbEntity
  8
0
370
    60
100
AcDbLine
 10
3602.293623166909
 20
2936.76845462884
 30
0.0
 11
3602.293623166909
 21
3046.738374628841
 31
0.0
  0
LINE
  5
29A
330
1F
100
AcDbEntity
  8
0
370
    60
100
AcDbLine
 10
3599.29362316691
 20
2936.76845462884
 30
0.0
 11
3599.29362316691
 21
3046.738374628841
 31
0.0
  0
LINE
  5
29B
330
1F
100
AcDbEntity
  8
0
370
    60
100
AcDbLine
 10
3634.293623166909
 20
2978.378694628842
 30
0.0
 11
3602.293623166909
 21
2978.378694628842
 31
0.0
  0
LINE
  5
29C
330
1F
100
AcDbEntity
  8
0
370
    60
100
AcDbLine
 10
3634.293623166909
 20
2981.350854628842
 30
0.0
 11
3602.293623166909
 21
2981.350854628842
 31
0.0
  0
LINE
  5
29D
330
1F
100
AcDbEntity
  8
0
370
    60
100
AcDbLine
 10
3634.293623166909
 20
2939.740614628842
 30
0.0
 11
3602.293623166909
 21
2939.740614628842
 31
0.0
  0
LINE
  5
29E
330
1F
100
AcDbEntity
  8
0
370
    60
100
AcDbLine
 10
3653.79362316691
 20
2939.740614628842
 30
0.0
 11
3637.293623166909
 21
2939.740614628842
 31
0.0
  0
LINE
  5
29F
330
1F
100
AcDbEntity
  8
0
370
    60
100
AcDbLine
 10
3634.293623166909
 20
3070.515654628842
 30
0.0
 11
3602.293623166909
 21
3070.515654628842
 31
0.0
  0
LINE
  5
2A0
330
1F
100
AcDbEntity
  8
0
370
    60
100
AcDbLine
 10
3634.293623166909
 20
3067.543494628841
 30
0.0
 11
3602.293623166909
 21
3067.543494628841
 31
0.0
  0
LINE
  5
2A1
330
1F
100
AcDbEntity
  8
0
370
    60
100
AcDbLine
 10
3634.293623166909
 20
3025.933254628842
 30
0.0
 11
3602.293623166909
 21
3025.933254628842
 31
0.0
  0
LINE
  5
2A2
330
1F
100
AcDbEntity
  8
0
370
    60
100
AcDbLine
 10
3634.293623166909
 20
3022.961094628842
 30
0.0
 11
3602.293623166909
 21
3022.961094628842
 31
0.0
  0
LINE
  5
2A3
330
1F
100
AcDbEntity
  8
0
370
    60
100
AcDbLine
 10
3599.29362316691
 20
3153.73613462884
 30
0.0
 11
3567.29362316691
 21
3153.73613462884
 31
0.0
  0
LINE
  5
2A4
330
1F
100
AcDbEntity
  8
0
370
    60
100
AcDbLine
 10
3599.29362316691
 20
3112.125894628842
 30
0.0
 11
3567.29362316691
 21
3112.125894628842
 31
0.0
  0
LINE
  5
2A5
330
1F
100
AcDbEntity
  8
0
370
    60
100
AcDbLine
 10
3599.29362316691
 20
3115.098054628842
 30
0.0
 11
3567.29362316691
 21
3115.098054628842
 31
0.0
  0
LINE
  5
2A6
330
1F
100
AcDbEntity
  8
0
370
    60
100
AcDbLine
 10
3564.293623166909
 20
3112.125894628842
 30
0.0
 11
3532.293623166909
 21
3112.125894628842
 31
0.0
  0
LINE
  5
2A7
330
1F
100
AcDbEntity
  8
0
370
    60
100
AcDbLine
 10
3564.293623166909
 20
3115.098054628842
 30
0.0
 11
3532.293623166909
 21
3115.098054628842
 31
0.0
  0
LINE
  5
2A8
330
1F
100
AcDbEntity
  8
0
370
    60
100
AcDbLine
 10
3564.293623166909
 20
3153.73613462884
 30
0.0
 11
3532.293623166909
 21
3153.73613462884
 31
0.0
  0
LINE
  5
2A9
330
1F
100
AcDbEntity
  8
0
370
    60
100
AcDbLine
 10
3634.293623166909
 20
3112.125894628842
 30
0.0
 11
3602.293623166909
 21
3112.125894628842
 31
0.0
  0
LINE
  5
2AA
330
1F
100
AcDbEntity
  8
0
370
    60
100
AcDbLine
 10
3634.293623166909
 20
3115.098054628842
 30
0.0
 11
3602.293623166909
 21
3115.098054628842
 31
0.0
  0
LINE
  5
2AB
330
1F
100
AcDbEntity
  8
0
370
    60
100
AcDbLine
 10
3634.293623166909
 20
3153.73613462884
 30
0.0
 11
3602.293623166909
 21
3153.73613462884
 31
0.0
  0
LINE
  5
2AC
330
1F
100
AcDbEntity
  8
0
370
    60
100
AcDbLine
 10
3653.79362316691
 20
3153.73613462884
 30
0.0
 11
3637.293623166909
 21
3153.73613462884
 31
0.0
  0
LINE
  5
2AD
330
1F
100
AcDbEntity
  8
0
370
    60
100
AcDbLine
 10
3667.793623166909
 20
3112.125894628842
 30
0.0
 11
3667.793623166909
 21
3070.515654628842
 31
0.0
  0
LINE
  5
2AE
330
1F
100
AcDbEntity
  8
0
370
    60
100
AcDbLine
 10
3670.79362316691
 20
3139.866054628842
 30
0.0
 11
3670.79362316691
 21
2953.61069462884
 31
0.0
  0
LINE
  5
2AF
330
1F
100
AcDbEntity
  8
0
370
    60
100
AcDbLine
 10
3667.793623166909
 20
2981.350854628842
 30
0.0
 11
3667.793623166909
 21
3022.961094628842
 31
0.0
  0
LINE
  5
2B0
330
1F
100
AcDbEntity
  8
0
370
    60
100
AcDbLine
 10
3667.793623166909
 20
2953.61069462884
 30
0.0
 11
3667.793623166909
 21
2978.378694628842
 31
0.0
  0
LINE
  5
2B1
330
1F
100
AcDbEntity
  8
0
370
    60
100
AcDbLine
 10
3667.793623166909
 20
3025.933254628842
 30
0.0
 11
3667.793623166909
 21
3040.79405462884
 31
0.0
  0
LINE
  5
2B2
330
1F
100
AcDbEntity
  8
0
370
    60
100
AcDbLine
 10
3670.79362316691
 20
3052.68269462884
 30
0.0
 11
3661.79362316691
 21
3052.68269462884
 31
0.0
  0
LINE
  5
2B3
330
1F
100
AcDbEntity
  8
0
370
    60
100
AcDbLine
 10
3670.79362316691
 20
3049.710534628842
 30
0.0
 11
3661.79362316691
 21
3049.710534628842
 31
0.0
  0
LINE
  5
2B4
330
1F
100
AcDbEntity
  8
0
370
    60
100
AcDbLine
 10
3670.79362316691
 20
3040.79405462884
 30
0.0
 11
3661.79362316691
 21
3040.79405462884
 31
0.0
  0
LINE
  5
2B5
330
1F
100
AcDbEntity
  8
0
370
    60
100
AcDbLine
 10
3670.79362316691
 20
3043.766214628842
 30
0.0
 11
3661.79362316691
 21
3043.766214628842
 31
0.0
  0
LINE
  5
2B6
330
1F
100
AcDbEntity
  8
0
370
    60
100
AcDbLine
 10
3667.793623166909
 20
3067.543494628841
 30
0.0
 11
3667.793623166909
 21
3052.68269462884
 31
0.0
  0
ELLIPSE
  5
2B7
330
1F
100
AcDbEntity
  8
0
370
    60
100
AcDbEllipse
 10
3661.79362316691
 20
3046.738374628841
 30
0.0
 11
3.000000000000114
 21
0.0
 31
0.0
210
0.0
220
0.0
230
1.0
 40
0.9907200000000002
 41
1.570796326794897
 42
4.71238898038469
  0
ELLIPSE
  5
2B8
330
1F
100
AcDbEntity
  8
0
370
    60
100
AcDbEllipse
 10
3661.79362316691
 20
3046.738374628841
 30
0.0
 11
5.999999999999783
 21
0.0
 31
0.0
210
0.0
220
0.0
230
1.0
 40
0.99072
 41
1.570796326794897
 42
4.71238898038469
  0
LINE
  5
2B9
330
1F
100
AcDbEntity
  8
0
370
    60
100
AcDbLine
 10
3667.793623166909
 20
3139.866054628842
 30
0.0
 11
3667.793623166909
 21
3115.098054628842
 31
0.0
  0
DIMENSION
  5
300
330
1F
100
AcDbEntity
  8
0
370
    25
100
AcDbDimension
  2
*D17
 10
3670.79362316691
 20
3209.330725524127
 30
0.0
 11
3495.793623166909
 21
3221.330725524127
 31
0.0
 70
    32
 71
     5
 41
2.5
 42
350.0000000000005
  3
ISO-25
100
AcDbAlignedDimension
 13
3320.793623166909
 23
3099.073583328863
 33
0.0
 14
3670.79362316691
 24
3096.384511077082
 34
0.0
100
AcDbRotatedDimension
1001
ACAD
1000
DSTYLE
1002
{
1070
    41
1040
10.0
1070
   140
1040
14.0
1070
   147
1040
5.0
1070
   176
1070
     7
1070
   177
1070
     7
1002
}
  0
DIMENSION
  5
35B
330
1F
100
AcDbEntity
  8
0
370
    25
100
AcDbDimension
  2
*D23
 10
3730.000648720224
 20
2936.76845462884
 30
0.0
 11
3718.000648720224
 21
3046.73837462884
 31
0.0
 70
    32
  1
220
 71
     5
 41
2.5
 42
219.93984
  3
ISO-25
100
AcDbAlignedDimension
 13
3626.837630454214
 23
3156.70829462884
 33
0.0
 14
3626.837630454214
 24
2936.76845462884
 34
0.0
 50
90.0
100
AcDbRotatedDimension
1001
ACAD
1000
DSTYLE
1002
{
1070
    41
1040
10.0
1070
   140
1040
14.0
1070
   147
1040
5.0
1070
   176
1070
     7
1070
   177
1070
     7
1002
}
  0
VIEWPORT
  5
BB
330
73
100
AcDbEntity
 67
     1
  8
0
100
AcDbViewport
 10
7.8
 20
4.5
 30
0.0
 40
15.64
 41
9.0
 68
     1
 69
     1
 12
6.0
 22
4.5
 13
0.0
 23
0.0
 14
0.5
 24
0.5
 15
0.5
 25
0.5
 16
0.0
 26
0.0
 36
1.0
 17
0.0
 27
0.0
 37
0.0
 42
50.0
 43
0.0
 44
0.0
 45
12.0
 50
0.0
 51
0.0
 72
   100
 90
   557152
  1

281
     0
 71
     1
 74
     0
110
0.0
120
0.0
130
0.0
111
1.0
121
0.0
131
0.0
112
0.0
122
1.0
132
0.0
 79
     0
146
0.0
  0
ENDSEC
  0
SECTION
  2
OBJECTS
  0
DICTIONARY
  5
C
330
0
100
AcDbDictionary
281
     1
  3
ACAD_COLOR
350
6C
  3
ACAD_GROUP
350
D
  3
ACAD_LAYOUT
350
1A
  3
ACAD_MATERIAL
350
6B
  3
ACAD_MLEADERSTYLE
350
39E
  3
ACAD_MLINESTYLE
350
17
  3
ACAD_PLOTSETTINGS
350
19
  3
ACAD_PLOTSTYLENAME
350
E
  3
ACAD_SCALELIST
350
99
  3
ACAD_TABLESTYLE
350
92
  3
ACDBHEADERROUNDTRIPXREC
350
39F
  3
AcDbVariableDictionary
350
59
  3
DWGPROPS
350
3A2
  0
DICTIONARY
  5
6C
102
{ACAD_REACTORS
330
C
102
}
330
C
100
AcDbDictionary
281
     1
  0
DICTIONARY
  5
D
102
{ACAD_REACTORS
330
C
102
}
330
C
100
AcDbDictionary
281
     1
  0
DICTIONARY
  5
1A
102
{ACAD_REACTORS
330
C
102
}
330
C
100
AcDbDictionary
281
     1
  3
Layout1
350
74
  3
Layout2
350
36C
  3
Model
350
22
  0
DICTIONARY
  5
6B
102
{ACAD_REACTORS
330
C
102
}
330
C
100
AcDbDictionary
281
     1
  0
DICTIONARY
  5
39E
102
{ACAD_REACTORS
330
C
102
}
330
C
100
AcDbDictionary
281
     1
  0
DICTIONARY
  5
17
102
{ACAD_REACTORS
330
C
102
}
330
C
100
AcDbDictionary
281
     1
  3
Standard
350
18
  0
DICTIONARY
  5
19
102
{ACAD_REACTORS
330
C
102
}
330
C
100
AcDbDictionary
281
     1
  0
ACDBDICTIONARYWDFLT
  5
E
102
{ACAD_REACTORS
330
C
102
}
330
C
100
AcDbDictionary
281
     1
  3
Normal
350
F
100
AcDbDictionaryWithDefault
340
F
  0
DICTIONARY
  5
99
102
{ACAD_REACTORS
330
C
102
}
330
C
100
AcDbDictionary
281
     1
  3
A0
350
D5
  3
A1
350
D6
  3
A2
350
D7
  3
A3
350
D8
  3
A4
350
D9
  3
A5
350
DA
  3
A6
350
DB
  3
A7
350
DC
  3
A8
350
DD
  3
A9
350
DE
  3
B0
350
DF
  3
B1
350
E0
  3
B2
350
E1
  3
B3
350
E2
  3
B4
350
E3
  3
B5
350
E4
  3
B6
350
E5
  3
B7
350
E6
  3
B8
350
E7
  3
B9
350
E8
  3
C0
350
E9
  3
C1
350
EA
  3
C2
350
EB
  3
C3
350
EC
  3
C4
350
ED
  3
C5
350
EE
  3
C6
350
EF
  3
C7
350
F0
  3
C8
350
F1
  3
C9
350
F2
  3
D0
350
F3
  3
D1
350
F4
  3
D2
350
F5
  0
DICTIONARY
  5
92
102
{ACAD_REACTORS
330
C
102
}
330
C
100
AcDbDictionary
281
     1
  0
DICTIONARY
  5
39F
102
{ACAD_REACTORS
330
C
102
}
330
C
100
AcDbDictionary
281
     1
  3
COLORDICT
350
3A0
  3
MATERIALDICT
350
3A1
  0
DICTIONARY
  5
59
102
{ACAD_REACTORS
330
C
102
}
330
C
100
AcDbDictionary
281
     1
  3
CTABLESTYLE
350
98
  3
DIMASSOC
350
5A
  3
HIDETEXT
350
5E
  0
XRECORD
  5
3A2
102
{ACAD_REACTORS
330
C
102
}
330
C
100
AcDbXrecord
280
     1
  1
DWGPROPS COOKIE
  2

  3

  4

  6

  7

  8
BelottiMc
  9

300
=
301
=
302
=
303
=
304
=
305
=
306
=
307
=
308
=
309
=
 40
0.0
 41
2455091.434913553
 42
2455091.476580208
  1

 90
        0
  0
LAYOUT
  5
74
330
1A
100
AcDbPlotSettings
  1

  2
ProgeSOFT PDF Wizard
  4
A4
  6

 40
5.926666666666667
 41
6.011333333333317
 42
6.095999999999985
 43
5.926666666666667
 44
210.0
 45
297.0
 46
88.56200000000001
 47
136.531
 48
0.0
 49
0.0
140
0.0
141
0.0
142
1.0
143
1.0
 70
   692
 72
     1
 73
     0
 74
     0
  7

 75
    16
147
1.0
148
4.426666666666668
149
1.5
100
AcDbLayout
  1
Layout1
 70
     1
 71
     1
 10
0.0
 20
0.0
 11
0.0
 21
0.0
 12
0.0
 22
0.0
 32
0.0
 14
0.0
 24
0.0
 34
0.0
 15
0.0
 25
0.0
 35
0.0
146
0.0
 13
0.0
 23
0.0
 33
0.0
 16
1.0
 26
0.0
 36
0.0
 17
0.0
 27
1.0
 37
0.0
 76
     0
330
D1
331
39D
1001
PROGE_PRINT_SETTINGS
1070
    73
1070
     1
  0
LAYOUT
  5
36C
102
{ACAD_REACTORS
330
1A
102
}
330
1A
100
AcDbPlotSettings
  1

  2
ProgeSOFT PDF Wizard
  4
A4
  6

 40
5.926666666666667
 41
6.011333333333317
 42
6.095999999999985
 43
5.926666666666667
 44
210.0
 45
297.0
 46
88.562
 47
136.531
 48
0.0
 49
0.0
140
0.0
141
0.0
142
1.0
143
1.0
 70
   692
 72
     1
 73
     0
 74
     0
  7

 75
    16
147
1.0
148
0.0
149
0.0
100
AcDbLayout
  1
Layout2
 70
     1
 71
     2
 10
0.0
 20
0.0
 11
12.0
 21
9.0
 12
0.0
 22
0.0
 32
0.0
 14
0.0
 24
0.0
 34
0.0
 15
12.0
 25
9.0
 35
0.0
146
0.0
 13
0.0
 23
0.0
 33
0.0
 16
1.0
 26
0.0
 36
0.0
 17
0.0
 27
1.0
 37
0.0
 76
     0
330
73
331
BB
1001
PROGE_PRINT_SETTINGS
1070
    73
1070
     1
  0
LAYOUT
  5
22
330
1A
100
AcDbPlotSettings
  1

  2
ProgeSOFT PDF Wizard
  4
A4
  6

 40
5.926666666666667
 41
6.011333333333317
 42
6.095999999999985
 43
5.926666666666667
 44
210.0
 45
297.0
 46
-0.0000000000000053
 47
83.07219027892847
 48
0.0
 49
0.0
140
0.0
141
0.0
142
1.0
143
3.777376906425835
 70
 11956
 72
     1
 73
     0
 74
     0
  7

 75
     0
147
0.2647339740704358
148
-3131.713561104574
149
-2773.240925560595
100
AcDbLayout
  1
Model
 70
     1
 71
     0
 10
0.0
 20
0.0
 11
0.0
 21
0.0
 12
0.0
 22
0.0
 32
0.0
 14
0.0
 24
0.0
 34
0.0
 15
3731.667315386891
 25
3321.718490228585
 35
0.0
146
0.0
 13
0.0
 23
0.0
 33
0.0
 16
1.0
 26
0.0
 36
0.0
 17
0.0
 27
1.0
 37
0.0
 76
     0
330
1F
331
97
1001
PROGE_PRINT_SETTINGS
1070
    73
1070
     1
  0
MLINESTYLE
  5
18
102
{ACAD_REACTORS
330
17
102
}
330
17
100
AcDbMlineStyle
  2
STANDARD
 70
     0
  3

 62
   256
 51
90.0
 52
90.0
 71
     2
 49
0.5
 62
   256
  6
BYLAYER
 49
-0.5
 62
   256
  6
BYLAYER
  0
ACDBPLACEHOLDER
  5
F
102
{ACAD_REACTORS
330
E
102
}
330
E
  0
SCALE
  5
D5
102
{ACAD_REACTORS
330
99
102
}
330
99
100
AcDbScale
 70
     0
300
1:1
140
1.0
141
1.0
290
     1
  0
SCALE
  5
D6
102
{ACAD_REACTORS
330
99
102
}
330
99
100
AcDbScale
 70
     0
300
1:2
140
1.0
141
2.0
290
     0
  0
SCALE
  5
D7
102
{ACAD_REACTORS
330
99
102
}
330
99
100
AcDbScale
 70
     0
300
1:4
140
1.0
141
4.0
290
     0
  0
SCALE
  5
D8
102
{ACAD_REACTORS
330
99
102
}
330
99
100
AcDbScale
 70
     0
300
1:5
140
1.0
141
5.0
290
     0
  0
SCALE
  5
D9
102
{ACAD_REACTORS
330
99
102
}
330
99
100
AcDbScale
 70
     0
300
1:8
140
1.0
141
8.0
290
     0
  0
SCALE
  5
DA
102
{ACAD_REACTORS
330
99
102
}
330
99
100
AcDbScale
 70
     0
300
1:10
140
1.0
141
10.0
290
     0
  0
SCALE
  5
DB
102
{ACAD_REACTORS
330
99
102
}
330
99
100
AcDbScale
 70
     0
300
1:16
140
1.0
141
16.0
290
     0
  0
SCALE
  5
DC
102
{ACAD_REACTORS
330
99
102
}
330
99
100
AcDbScale
 70
     0
300
1:20
140
1.0
141
20.0
290
     0
  0
SCALE
  5
DD
102
{ACAD_REACTORS
330
99
102
}
330
99
100
AcDbScale
 70
     0
300
1:30
140
1.0
141
30.0
290
     0
  0
SCALE
  5
DE
102
{ACAD_REACTORS
330
99
102
}
330
99
100
AcDbScale
 70
     0
300
1:40
140
1.0
141
40.0
290
     0
  0
SCALE
  5
DF
102
{ACAD_REACTORS
330
99
102
}
330
99
100
AcDbScale
 70
     0
300
1:50
140
1.0
141
50.0
290
     0
  0
SCALE
  5
E0
102
{ACAD_REACTORS
330
99
102
}
330
99
100
AcDbScale
 70
     0
300
1:100
140
1.0
141
100.0
290
     0
  0
SCALE
  5
E1
102
{ACAD_REACTORS
330
99
102
}
330
99
100
AcDbScale
 70
     0
300
2:1
140
2.0
141
1.0
290
     0
  0
SCALE
  5
E2
102
{ACAD_REACTORS
330
99
102
}
330
99
100
AcDbScale
 70
     0
300
4:1
140
4.0
141
1.0
290
     0
  0
SCALE
  5
E3
102
{ACAD_REACTORS
330
99
102
}
330
99
100
AcDbScale
 70
     0
300
8:1
140
8.0
141
1.0
290
     0
  0
SCALE
  5
E4
102
{ACAD_REACTORS
330
99
102
}
330
99
100
AcDbScale
 70
     0
300
10:1
140
10.0
141
1.0
290
     0
  0
SCALE
  5
E5
102
{ACAD_REACTORS
330
99
102
}
330
99
100
AcDbScale
 70
     0
300
100:1
140
100.0
141
1.0
290
     0
  0
SCALE
  5
E6
102
{ACAD_REACTORS
330
99
102
}
330
99
100
AcDbScale
 70
     0
300
1/128" = 1'-0"
140
0.0078125
141
12.0
290
     0
  0
SCALE
  5
E7
102
{ACAD_REACTORS
330
99
102
}
330
99
100
AcDbScale
 70
     0
300
1/64" = 1'-0"
140
0.015625
141
12.0
290
     0
  0
SCALE
  5
E8
102
{ACAD_REACTORS
330
99
102
}
330
99
100
AcDbScale
 70
     0
300
1/32" = 1'-0"
140
0.03125
141
12.0
290
     0
  0
SCALE
  5
E9
102
{ACAD_REACTORS
330
99
102
}
330
99
100
AcDbScale
 70
     0
300
1/16" = 1'-0"
140
0.0625
141
12.0
290
     0
  0
SCALE
  5
EA
102
{ACAD_REACTORS
330
99
102
}
330
99
100
AcDbScale
 70
     0
300
3/32" = 1'-0"
140
0.09375
141
12.0
290
     0
  0
SCALE
  5
EB
102
{ACAD_REACTORS
330
99
102
}
330
99
100
AcDbScale
 70
     0
300
1/8" = 1'-0"
140
0.125
141
12.0
290
     0
  0
SCALE
  5
EC
102
{ACAD_REACTORS
330
99
102
}
330
99
100
AcDbScale
 70
     0
300
3/16" = 1'-0"
140
0.1875
141
12.0
290
     0
  0
SCALE
  5
ED
102
{ACAD_REACTORS
330
99
102
}
330
99
100
AcDbScale
 70
     0
300
1/4" = 1'-0"
140
0.25
141
12.0
290
     0
  0
SCALE
  5
EE
102
{ACAD_REACTORS
330
99
102
}
330
99
100
AcDbScale
 70
     0
300
3/8" = 1'-0"
140
0.375
141
12.0
290
     0
  0
SCALE
  5
EF
102
{ACAD_REACTORS
330
99
102
}
330
99
100
AcDbScale
 70
     0
300
1/2" = 1'-0"
140
0.5
141
12.0
290
     0
  0
SCALE
  5
F0
102
{ACAD_REACTORS
330
99
102
}
330
99
100
AcDbScale
 70
     0
300
3/4" = 1'-0"
140
0.75
141
12.0
290
     0
  0
SCALE
  5
F1
102
{ACAD_REACTORS
330
99
102
}
330
99
100
AcDbScale
 70
     0
300
1" = 1'-0"
140
1.0
141
12.0
290
     0
  0
SCALE
  5
F2
102
{ACAD_REACTORS
330
99
102
}
330
99
100
AcDbScale
 70
     0
300
1-1/2" = 1'-0"
140
1.5
141
12.0
290
     0
  0
SCALE
  5
F3
102
{ACAD_REACTORS
330
99
102
}
330
99
100
AcDbScale
 70
     0
300
3" = 1'-0"
140
3.0
141
12.0
290
     0
  0
SCALE
  5
F4
102
{ACAD_REACTORS
330
99
102
}
330
99
100
AcDbScale
 70
     0
300
6" = 1'-0"
140
6.0
141
12.0
290
     0
  0
SCALE
  5
F5
102
{ACAD_REACTORS
330
99
102
}
330
99
100
AcDbScale
 70
     0
300
1'-0" = 1'-0"
140
12.0
141
12.0
290
     0
  0
XRECORD
  5
3A0
102
{ACAD_REACTORS
330
39F
102
}
330
39F
100
AcDbXrecord
280
     1
340
6C
  0
XRECORD
  5
3A1
102
{ACAD_REACTORS
330
39F
102
}
330
39F
100
AcDbXrecord
280
     1
340
6B
  0
DICTIONARYVAR
  5
98
102
{ACAD_REACTORS
330
59
102
}
330
59
100
DictionaryVariables
280
     0
  1
Standard
  0
DICTIONARYVAR
  5
5A
102
{ACAD_REACTORS
330
59
102
}
330
59
100
DictionaryVariables
280
     0
  1
2
  0
DICTIONARYVAR
  5
5E
102
{ACAD_REACTORS
330
59
102
}
330
59
100
DictionaryVariables
280
     0
  1
1
  0
ENDSEC
  0
EOF
