  0
SECTION
  2
HEADER
  9
$ACADVER
  1
AC1015
  9
$ACADMAINTVER
 70
     6
  9
$DWGCODEPAGE
  3
ANSI_1252
  9
$INSBASE
 10
0.0
 20
0.0
 30
0.0
  9
$EXTMIN
 10
1415.710657481131
 20
1299.056330472103
 30
0.0
  9
$EXTMAX
 10
1651.903367910978
 20
1512.194237969968
 30
0.0
  9
$LIMMIN
 10
0.0
 20
0.0
  9
$LIMMAX
 10
0.0
 20
0.0
  9
$ORTHOMODE
 70
     0
  9
$REGENMODE
 70
     1
  9
$FILLMODE
 70
     1
  9
$QTEXTMODE
 70
     0
  9
$MIRRTEXT
 70
     0
  9
$LTSCALE
 40
1.0
  9
$ATTMODE
 70
     1
  9
$TEXTSIZE
 40
2.5
  9
$TRACEWID
 40
1.0
  9
$TEXTSTYLE
  7
Standard
  9
$CLAYER
  8
0
  9
$CELTYPE
  6
TRATTO-PUNTO
  9
$CECOLOR
 62
   256
  9
$CELTSCALE
 40
1.0
  9
$DISPSILH
 70
     0
  9
$DIMSCALE
 40
1.0
  9
$DIMASZ
 40
2.5
  9
$DIMEXO
 40
0.625
  9
$DIMDLI
 40
3.75
  9
$DIMRND
 40
0.0
  9
$DIMDLE
 40
0.0
  9
$DIMEXE
 40
1.25
  9
$DIMTP
 40
0.0
  9
$DIMTM
 40
0.0
  9
$DIMTXT
 40
2.5
  9
$DIMCEN
 40
2.5
  9
$DIMTSZ
 40
0.0
  9
$DIMTOL
 70
     0
  9
$DIMLIM
 70
     0
  9
$DIMTIH
 70
     0
  9
$DIMTOH
 70
     0
  9
$DIMSE1
 70
     0
  9
$DIMSE2
 70
     0
  9
$DIMTAD
 70
     1
  9
$DIMZIN
 70
     8
  9
$DIMBLK
  1

  9
$DIMASO
 70
     1
  9
$DIMSHO
 70
     1
  9
$DIMPOST
  1

  9
$DIMAPOST
  1

  9
$DIMALT
 70
     0
  9
$DIMALTD
 70
     3
  9
$DIMALTF
 40
0.03937007874016
  9
$DIMLFAC
 40
1.0
  9
$DIMTOFL
 70
     1
  9
$DIMTVP
 40
0.0
  9
$DIMTIX
 70
     0
  9
$DIMSOXD
 70
     0
  9
$DIMSAH
 70
     0
  9
$DIMBLK1
  1

  9
$DIMBLK2
  1

  9
$DIMSTYLE
  2
ISO-25
  9
$DIMCLRD
 70
     0
  9
$DIMCLRE
 70
     0
  9
$DIMCLRT
 70
     0
  9
$DIMTFAC
 40
1.0
  9
$DIMGAP
 40
0.625
  9
$DIMJUST
 70
     0
  9
$DIMSD1
 70
     0
  9
$DIMSD2
 70
     0
  9
$DIMTOLJ
 70
     0
  9
$DIMTZIN
 70
     8
  9
$DIMALTZ
 70
     0
  9
$DIMALTTZ
 70
     0
  9
$DIMUPT
 70
     0
  9
$DIMDEC
 70
     2
  9
$DIMTDEC
 70
     2
  9
$DIMALTU
 70
     2
  9
$DIMALTTD
 70
     3
  9
$DIMTXSTY
  7
Standard
  9
$DIMAUNIT
 70
     0
  9
$DIMADEC
 70
     0
  9
$DIMALTRND
 40
0.0
  9
$DIMAZIN
 70
     0
  9
$DIMDSEP
 70
    44
  9
$DIMATFIT
 70
     3
  9
$DIMFRAC
 70
     0
  9
$DIMLDRBLK
  1

  9
$DIMLUNIT
 70
     2
  9
$DIMLWD
 70
    -2
  9
$DIMLWE
 70
    -2
  9
$DIMTMOVE
 70
     0
  9
$LUNITS
 70
     2
  9
$LUPREC
 70
     4
  9
$SKETCHINC
 40
1.0
  9
$FILLETRAD
 40
0.0
  9
$AUNITS
 70
     0
  9
$AUPREC
 70
     0
  9
$MENU
  1
.
  9
$ELEVATION
 40
0.0
  9
$PELEVATION
 40
0.0
  9
$THICKNESS
 40
0.0
  9
$LIMCHECK
 70
     0
  9
$CHAMFERA
 40
0.0
  9
$CHAMFERB
 40
0.0
  9
$CHAMFERC
 40
0.0
  9
$CHAMFERD
 40
0.0
  9
$SKPOLY
 70
     0
  9
$TDCREATE
 40
2455091.505384491
  9
$TDUCREATE
 40
2455091.422051157
  9
$TDUPDATE
 40
2455091.547051146
  9
$TDUUPDATE
 40
2455091.463717813
  9
$TDINDWG
 40
0.0402826273
  9
$TDUSRTIMER
 40
0.0402802662
  9
$USRTIMER
 70
     1
  9
$ANGBASE
 50
0.0
  9
$ANGDIR
 70
     0
  9
$PDMODE
 70
     0
  9
$PDSIZE
 40
0.0
  9
$PLINEWID
 40
0.0
  9
$SPLFRAME
 70
     0
  9
$SPLINETYPE
 70
     6
  9
$SPLINESEGS
 70
     8
  9
$HANDSEED
  5
3BF
  9
$SURFTAB1
 70
     6
  9
$SURFTAB2
 70
     6
  9
$SURFTYPE
 70
     6
  9
$SURFU
 70
     6
  9
$SURFV
 70
     6
  9
$UCSBASE
  2

  9
$UCSNAME
  2

  9
$UCSORG
 10
0.0
 20
0.0
 30
0.0
  9
$UCSXDIR
 10
1.0
 20
0.0
 30
0.0
  9
$UCSYDIR
 10
0.0
 20
1.0
 30
0.0
  9
$UCSORTHOREF
  2

  9
$UCSORTHOVIEW
 70
     0
  9
$UCSORGTOP
 10
0.0
 20
0.0
 30
0.0
  9
$UCSORGBOTTOM
 10
0.0
 20
0.0
 30
0.0
  9
$UCSORGLEFT
 10
0.0
 20
0.0
 30
0.0
  9
$UCSORGRIGHT
 10
0.0
 20
0.0
 30
0.0
  9
$UCSORGFRONT
 10
0.0
 20
0.0
 30
0.0
  9
$UCSORGBACK
 10
0.0
 20
0.0
 30
0.0
  9
$PUCSBASE
  2

  9
$PUCSNAME
  2

  9
$PUCSORG
 10
0.0
 20
0.0
 30
0.0
  9
$PUCSXDIR
 10
1.0
 20
0.0
 30
0.0
  9
$PUCSYDIR
 10
0.0
 20
1.0
 30
0.0
  9
$PUCSORTHOREF
  2

  9
$PUCSORTHOVIEW
 70
     0
  9
$PUCSORGTOP
 10
0.0
 20
0.0
 30
0.0
  9
$PUCSORGBOTTOM
 10
0.0
 20
0.0
 30
0.0
  9
$PUCSORGLEFT
 10
0.0
 20
0.0
 30
0.0
  9
$PUCSORGRIGHT
 10
0.0
 20
0.0
 30
0.0
  9
$PUCSORGFRONT
 10
0.0
 20
0.0
 30
0.0
  9
$PUCSORGBACK
 10
0.0
 20
0.0
 30
0.0
  9
$USERI1
 70
     0
  9
$USERI2
 70
     0
  9
$USERI3
 70
     0
  9
$USERI4
 70
     0
  9
$USERI5
 70
     0
  9
$USERR1
 40
0.0
  9
$USERR2
 40
0.0
  9
$USERR3
 40
0.0
  9
$USERR4
 40
0.0
  9
$USERR5
 40
0.0
  9
$WORLDVIEW
 70
     1
  9
$SHADEDGE
 70
     3
  9
$SHADEDIF
 70
    70
  9
$TILEMODE
 70
     1
  9
$MAXACTVP
 70
    64
  9
$PINSBASE
 10
0.0
 20
0.0
 30
0.0
  9
$PLIMCHECK
 70
     0
  9
$PEXTMIN
 10
0.0
 20
0.0
 30
0.0
  9
$PEXTMAX
 10
12.0
 20
9.0
 30
0.0
  9
$PLIMMIN
 10
0.0
 20
0.0
  9
$PLIMMAX
 10
12.0
 20
9.0
  9
$UNITMODE
 70
     0
  9
$VISRETAIN
 70
     1
  9
$PLINEGEN
 70
     0
  9
$PSLTSCALE
 70
     1
  9
$TREEDEPTH
 70
  3020
  9
$CMLSTYLE
  2
Standard
  9
$CMLJUST
 70
     0
  9
$CMLSCALE
 40
20.0
  9
$PROXYGRAPHICS
 70
     1
  9
$MEASUREMENT
 70
     1
  9
$CELWEIGHT
370
    -1
  9
$ENDCAPS
280
     0
  9
$JOINSTYLE
280
     0
  9
$LWDISPLAY
290
     0
  9
$INSUNITS
 70
     4
  9
$HYPERLINKBASE
  1

  9
$STYLESHEET
  1

  9
$XEDIT
290
     1
  9
$CEPSNTYPE
380
     0
  9
$PSTYLEMODE
290
     1
  9
$FINGERPRINTGUID
  2
{5559452E-1E62-4159-8551-BF76FFF3E7E8}
  9
$VERSIONGUID
  2
{3CEB9EF8-4431-4551-B596-6734A9F966A9}
  9
$EXTNAMES
290
     1
  9
$PSVPSCALE
 40
0.0
  9
$OLESTARTUP
290
     0
  0
ENDSEC
  0
SECTION
  2
CLASSES
  0
CLASS
  1
ACDBDICTIONARYWDFLT
  2
AcDbDictionaryWithDefault
  3
ObjectDBX Classes
 90
        0
280
     0
281
     0
  0
CLASS
  1
ACDBPLACEHOLDER
  2
AcDbPlaceHolder
  3
ObjectDBX Classes
 90
        0
280
     0
281
     0
  0
CLASS
  1
LAYOUT
  2
AcDbLayout
  3
ObjectDBX Classes
 90
        0
280
     0
281
     0
  0
CLASS
  1
DICTIONARYVAR
  2
AcDbDictionaryVar
  3
ObjectDBX Classes
 90
        0
280
     0
281
     0
  0
CLASS
  1
TABLESTYLE
  2
AcDbTableStyle
  3
ObjectDBX Classes
 90
     4095
280
     0
281
     0
  0
CLASS
  1
SCALE
  2
AcDbScale
  3
ObjectDBX Classes
 90
     1153
280
     0
281
     0
  0
ENDSEC
  0
SECTION
  2
TABLES
  0
TABLE
  2
VPORT
  5
8
330
0
100
AcDbSymbolTable
 70
     2
  0
VPORT
  5
97
330
8
100
AcDbSymbolTableRecord
100
AcDbViewportTableRecord
  2
*Active
 70
     0
 10
0.0
 20
0.0
 11
1.0
 21
1.0
 12
1527.233949278087
 22
1373.436854190747
 13
0.0
 23
0.0
 14
10.0
 24
10.0
 15
10.0
 25
10.0
 16
0.0
 26
0.0
 36
1.0
 17
0.0
 27
0.0
 37
0.0
 40
358.0968347001646
 41
1.664827586206897
 42
50.0
 43
0.0
 44
0.0
 50
0.0
 51
0.0
 71
     0
 72
  1000
 73
     1
 74
     3
 75
     0
 76
     0
 77
     0
 78
     0
281
     0
 65
     1
110
0.0
120
0.0
130
0.0
111
1.0
121
0.0
131
0.0
112
0.0
122
1.0
132
0.0
 79
     0
146
0.0
  0
ENDTAB
  0
TABLE
  2
LTYPE
  5
5
330
0
100
AcDbSymbolTable
 70
     3
  0
LTYPE
  5
14
330
5
100
AcDbSymbolTableRecord
100
AcDbLinetypeTableRecord
  2
ByBlock
 70
     0
  3

 72
    65
 73
     0
 40
0.0
  0
LTYPE
  5
15
330
5
100
AcDbSymbolTableRecord
100
AcDbLinetypeTableRecord
  2
ByLayer
 70
     0
  3

 72
    65
 73
     0
 40
0.0
  0
LTYPE
  5
16
330
5
100
AcDbSymbolTableRecord
100
AcDbLinetypeTableRecord
  2
Continuous
 70
     0
  3
Solid line
 72
    65
 73
     0
 40
0.0
  0
LTYPE
  5
38F
330
5
100
AcDbSymbolTableRecord
100
AcDbLinetypeTableRecord
  2
TRATTO-PUNTO
 70
     0
  3
__ . __ . __ . __ . __ . __ . __ . __ . __ . __
 72
    65
 73
     4
 40
1.0
 49
0.5
 74
     0
 49
-0.25
 74
     0
 49
0.0
 74
     0
 49
-0.25
 74
     0
  0
LTYPE
  5
390
330
5
100
AcDbSymbolTableRecord
100
AcDbLinetypeTableRecord
  2
BORDER
 70
     0
  3
Border __ __ . __ __ . __ __ . __ __ . __ __ .
 72
    65
 73
     6
 40
44.45
 49
12.7
 74
     0
 49
-6.35
 74
     0
 49
12.7
 74
     0
 49
-6.35
 74
     0
 49
0.0
 74
     0
 49
-6.35
 74
     0
  0
ENDTAB
  0
TABLE
  2
LAYER
  5
2
330
0
100
AcDbSymbolTable
 70
     2
  0
LAYER
  5
10
330
2
100
AcDbSymbolTableRecord
100
AcDbLayerTableRecord
  2
0
 70
     0
 62
     7
  6
Continuous
370
    -3
390
F
  0
LAYER
  5
FA
330
2
100
AcDbSymbolTableRecord
100
AcDbLayerTableRecord
  2
DEFPOINTS
 70
     0
 62
     7
  6
Continuous
290
     0
370
    -3
390
F
  0
ENDTAB
  0
TABLE
  2
STYLE
  5
3
330
0
100
AcDbSymbolTable
 70
     2
  0
STYLE
  5
11
330
3
100
AcDbSymbolTableRecord
100
AcDbTextStyleTableRecord
  2
Standard
 70
     0
 40
0.0
 41
1.0
 50
0.0
 71
     0
 42
2.5
  3
txt
  4

  0
STYLE
  5
F8
330
3
100
AcDbSymbolTableRecord
100
AcDbTextStyleTableRecord
  2
H
 70
     0
 40
1.75
 41
1.0
 50
0.0
 71
     0
 42
1.75
  3
swiss.ttf
  4

1001
ACAD
1000
Swis721 BT
1071
       34
  0
ENDTAB
  0
TABLE
  2
VIEW
  5
6
330
0
100
AcDbSymbolTable
 70
     0
  0
ENDTAB
  0
TABLE
  2
UCS
  5
7
330
0
100
AcDbSymbolTable
 70
     0
  0
ENDTAB
  0
TABLE
  2
APPID
  5
9
330
0
100
AcDbSymbolTable
 70
     2
  0
APPID
  5
12
330
9
100
AcDbSymbolTableRecord
100
AcDbRegAppTableRecord
  2
ACAD
 70
     0
  0
APPID
  5
38E
330
9
100
AcDbSymbolTableRecord
100
AcDbRegAppTableRecord
  2
PROGE_PRINT_SETTINGS
 70
     0
  0
ENDTAB
  0
TABLE
  2
DIMSTYLE
  5
A
330
0
100
AcDbSymbolTable
 70
     3
100
AcDbDimStyleTable
  0
DIMSTYLE
105
27
330
A
100
AcDbSymbolTableRecord
100
AcDbDimStyleTableRecord
  2
Standard
 70
     0
278
     0
340
11
  0
DIMSTYLE
105
29
102
{ACAD_REACTORS
330
333
330
355
102
}
330
A
100
AcDbSymbolTableRecord
100
AcDbDimStyleTableRecord
  2
ISO-25
 70
     0
 41
2.5
 42
0.625
 43
3.75
 44
1.25
 73
     0
 74
     0
 77
     1
 78
     8
140
2.5
141
2.5
143
0.03937007874016
147
0.625
171
     3
172
     1
271
     2
272
     2
274
     3
278
    44
283
     0
284
     8
340
11
  0
DIMSTYLE
105
FB
102
{ACAD_REACTORS
330
FE
102
}
330
A
100
AcDbSymbolTableRecord
100
AcDbDimStyleTableRecord
  2
GEWISS
 70
     0
 41
1.7
 42
1.0
 43
7.0
 44
0.3
 73
     0
 74
     0
 77
     1
140
1.75
141
1.5
147
0.75
172
     1
176
     1
177
     1
340
F8
  0
ENDTAB
  0
TABLE
  2
BLOCK_RECORD
  5
1
330
0
100
AcDbSymbolTable
 70
    19
  0
BLOCK_RECORD
  5
1F
330
1
100
AcDbSymbolTableRecord
100
AcDbBlockTableRecord
  2
*Model_Space
340
22
  0
BLOCK_RECORD
  5
73
330
1
100
AcDbSymbolTableRecord
100
AcDbBlockTableRecord
  2
*Paper_Space
340
392
  0
BLOCK_RECORD
  5
D1
330
1
100
AcDbSymbolTableRecord
100
AcDbBlockTableRecord
  2
*Paper_Space0
340
74
  0
BLOCK_RECORD
  5
106
330
1
100
AcDbSymbolTableRecord
100
AcDbBlockTableRecord
  2
*D1
340
0
  0
BLOCK_RECORD
  5
111
330
1
100
AcDbSymbolTableRecord
100
AcDbBlockTableRecord
  2
*D2
340
0
  0
BLOCK_RECORD
  5
11C
330
1
100
AcDbSymbolTableRecord
100
AcDbBlockTableRecord
  2
*D3
340
0
  0
BLOCK_RECORD
  5
127
330
1
100
AcDbSymbolTableRecord
100
AcDbBlockTableRecord
  2
*D4
340
0
  0
BLOCK_RECORD
  5
132
330
1
100
AcDbSymbolTableRecord
100
AcDbBlockTableRecord
  2
*D5
340
0
  0
BLOCK_RECORD
  5
13D
330
1
100
AcDbSymbolTableRecord
100
AcDbBlockTableRecord
  2
*D6
340
0
  0
BLOCK_RECORD
  5
231
330
1
100
AcDbSymbolTableRecord
100
AcDbBlockTableRecord
  2
*D7
340
0
  0
BLOCK_RECORD
  5
2D5
330
1
100
AcDbSymbolTableRecord
100
AcDbBlockTableRecord
  2
*D8
340
0
  0
BLOCK_RECORD
  5
324
330
1
100
AcDbSymbolTableRecord
100
AcDbBlockTableRecord
  2
*D9
340
0
  0
BLOCK_RECORD
  5
330
330
1
100
AcDbSymbolTableRecord
100
AcDbBlockTableRecord
  2
*D10
340
0
  0
BLOCK_RECORD
  5
33E
330
1
100
AcDbSymbolTableRecord
100
AcDbBlockTableRecord
  2
*D11
340
0
  0
BLOCK_RECORD
  5
349
330
1
100
AcDbSymbolTableRecord
100
AcDbBlockTableRecord
  2
*D12
340
0
  0
BLOCK_RECORD
  5
354
330
1
100
AcDbSymbolTableRecord
100
AcDbBlockTableRecord
  2
*D13
340
0
  0
BLOCK_RECORD
  5
360
330
1
100
AcDbSymbolTableRecord
100
AcDbBlockTableRecord
  2
*D14
340
0
  0
BLOCK_RECORD
  5
36B
330
1
100
AcDbSymbolTableRecord
100
AcDbBlockTableRecord
  2
*D15
340
0
  0
BLOCK_RECORD
  5
376
330
1
100
AcDbSymbolTableRecord
100
AcDbBlockTableRecord
  2
*D16
340
0
  0
BLOCK_RECORD
  5
381
330
1
100
AcDbSymbolTableRecord
100
AcDbBlockTableRecord
  2
*D17
340
0
  0
BLOCK_RECORD
  5
38C
330
1
100
AcDbSymbolTableRecord
100
AcDbBlockTableRecord
  2
*D18
340
0
  0
ENDTAB
  0
ENDSEC
  0
SECTION
  2
BLOCKS
  0
BLOCK
  5
20
330
1F
100
AcDbEntity
  8
0
100
AcDbBlockBegin
  2
*Model_Space
 70
     0
 10
0.0
 20
0.0
 30
0.0
  3
*Model_Space
  1

  0
ENDBLK
  5
21
330
1F
100
AcDbEntity
  8
0
100
AcDbBlockEnd
  0
BLOCK
  5
75
330
73
100
AcDbEntity
 67
     1
  8
0
100
AcDbBlockBegin
  2
*Paper_Space
 70
     0
 10
0.0
 20
0.0
 30
0.0
  3
*Paper_Space
  1

  0
ENDBLK
  5
76
330
73
100
AcDbEntity
 67
     1
  8
0
100
AcDbBlockEnd
  0
BLOCK
  5
393
330
D1
100
AcDbEntity
  8
0
100
AcDbBlockBegin
  2
*Paper_Space0
 70
     0
 10
0.0
 20
0.0
 30
0.0
  3
*Paper_Space0
  1

  0
VIEWPORT
  5
3B9
330
D1
100
AcDbEntity
  8
0
100
AcDbViewport
 10
7.8
 20
4.5
 30
0.0
 40
15.64
 41
9.0
 68
     1
 69
     1
 12
6.0
 22
4.5
 13
0.0
 23
0.0
 14
0.5
 24
0.5
 15
0.5
 25
0.5
 16
0.0
 26
0.0
 36
1.0
 17
0.0
 27
0.0
 37
0.0
 42
50.0
 43
0.0
 44
0.0
 45
12.0
 50
0.0
 51
0.0
 72
   100
 90
   557152
  1

281
     0
 71
     1
 74
     0
110
0.0
120
0.0
130
0.0
111
1.0
121
0.0
131
0.0
112
0.0
122
1.0
132
0.0
 79
     0
146
0.0
  0
ENDBLK
  5
394
330
D1
100
AcDbEntity
  8
0
100
AcDbBlockEnd
  0
BLOCK
  5
395
330
106
100
AcDbEntity
  8
0
100
AcDbBlockBegin
  2
*D1
 70
     1
 10
0.0
 20
0.0
 30
0.0
  3
*D1
  1

  0
POINT
  5
FD
330
106
100
AcDbEntity
  8
DEFPOINTS
  6
ByBlock
 62
     1
100
AcDbPoint
 10
5.066563
 20
54.454822
 30
0.0
  0
POINT
  5
FE
330
106
100
AcDbEntity
  8
DEFPOINTS
  6
ByBlock
 62
     1
100
AcDbPoint
 10
27.316563
 20
54.454822
 30
0.0
  0
LINE
  5
FF
330
106
100
AcDbEntity
  8
0
  6
ByBlock
 62
     1
370
    -2
100
AcDbLine
 10
5.066563
 20
55.454822
 30
0.0
 11
5.066563
 21
61.816934
 31
0.0
  0
LINE
  5
100
330
106
100
AcDbEntity
  8
0
  6
ByBlock
 62
     1
370
    -2
100
AcDbLine
 10
27.316563
 20
55.454822
 30
0.0
 11
27.316563
 21
61.816934
 31
0.0
  0
LINE
  5
101
330
106
100
AcDbEntity
  8
0
  6
ByBlock
 62
     1
370
    -2
100
AcDbLine
 10
6.766563000000001
 20
61.516934
 30
0.0
 11
25.616563
 21
61.516934
 31
0.0
  0
SOLID
  5
102
330
106
100
AcDbEntity
  8
0
  6
ByBlock
 62
     1
100
AcDbTrace
 10
5.066563
 20
61.516934
 30
0.0
 11
6.766563000000001
 21
61.23360066666667
 31
0.0
 12
6.766563000000001
 22
61.80026733333333
 32
0.0
 13
6.766563000000001
 23
61.80026733333333
 33
0.0
  0
SOLID
  5
103
330
106
100
AcDbEntity
  8
0
  6
ByBlock
 62
     1
100
AcDbTrace
 10
27.316563
 20
61.516934
 30
0.0
 11
25.616563
 21
61.23360066666667
 31
0.0
 12
25.616563
 22
61.80026733333333
 32
0.0
 13
25.616563
 23
61.80026733333333
 33
0.0
  0
MTEXT
  5
104
330
106
100
AcDbEntity
  8
0
  6
ByBlock
 62
     0
370
    -2
100
AcDbMText
 10
16.191563
 20
63.16043672851296
 30
0.0
 40
1.75
 41
0.0
 71
     5
 72
     1
  1
180
  7
H
 73
     1
 44
1.0
  0
ENDBLK
  5
396
330
106
100
AcDbEntity
  8
0
100
AcDbBlockEnd
  0
BLOCK
  5
397
330
111
100
AcDbEntity
  8
0
100
AcDbBlockBegin
  2
*D2
 70
     1
 10
0.0
 20
0.0
 30
0.0
  3
*D2
  1

  0
POINT
  5
108
330
111
100
AcDbEntity
  8
DEFPOINTS
  6
ByBlock
 62
     1
100
AcDbPoint
 10
25.316563
 20
56.454822
 30
0.0
  0
POINT
  5
109
330
111
100
AcDbEntity
  8
DEFPOINTS
  6
ByBlock
 62
     1
100
AcDbPoint
 10
25.316563
 20
37.454822
 30
0.0
  0
LINE
  5
10A
330
111
100
AcDbEntity
  8
0
  6
ByBlock
 62
     1
370
    -2
100
AcDbLine
 10
26.316563
 20
56.454822
 30
0.0
 11
33.18232
 21
56.454822
 31
0.0
  0
LINE
  5
10B
330
111
100
AcDbEntity
  8
0
  6
ByBlock
 62
     1
370
    -2
100
AcDbLine
 10
26.316563
 20
37.454822
 30
0.0
 11
33.18232
 21
37.454822
 31
0.0
  0
LINE
  5
10C
330
111
100
AcDbEntity
  8
0
  6
ByBlock
 62
     1
370
    -2
100
AcDbLine
 10
32.88232
 20
54.754822
 30
0.0
 11
32.88232
 21
39.154822
 31
0.0
  0
SOLID
  5
10D
330
111
100
AcDbEntity
  8
0
  6
ByBlock
 62
     1
100
AcDbTrace
 10
32.88232
 20
56.454822
 30
0.0
 11
32.59898666666667
 21
54.754822
 31
0.0
 12
33.16565333333333
 22
54.754822
 32
0.0
 13
33.16565333333333
 23
54.754822
 33
0.0
  0
SOLID
  5
10E
330
111
100
AcDbEntity
  8
0
  6
ByBlock
 62
     1
100
AcDbTrace
 10
32.88232
 20
37.454822
 30
0.0
 11
32.59898666666667
 21
39.154822
 31
0.0
 12
33.16565333333333
 22
39.154822
 32
0.0
 13
33.16565333333333
 23
39.154822
 33
0.0
  0
MTEXT
  5
10F
330
111
100
AcDbEntity
  8
0
  6
ByBlock
 62
     0
370
    -2
100
AcDbMText
 10
31.23881727148704
 20
46.954822
 30
0.0
 40
1.75
 41
0.0
 71
     5
 72
     1
  1
150
  7
H
 11
6.123031769111886E-17
 21
1.0
 31
0.0
 73
     1
 44
1.0
  0
ENDBLK
  5
398
330
111
100
AcDbEntity
  8
0
100
AcDbBlockEnd
  0
BLOCK
  5
399
330
11C
100
AcDbEntity
  8
0
100
AcDbBlockBegin
  2
*D3
 70
     1
 10
0.0
 20
0.0
 30
0.0
  3
*D3
  1

  0
POINT
  5
113
330
11C
100
AcDbEntity
  8
DEFPOINTS
  6
ByBlock
 62
     1
100
AcDbPoint
 10
177.5428278950718
 20
184.3446627467811
 30
0.0
  0
POINT
  5
114
330
11C
100
AcDbEntity
  8
DEFPOINTS
  6
ByBlock
 62
     1
100
AcDbPoint
 10
199.7928278950718
 20
184.3446627467811
 30
0.0
  0
LINE
  5
115
330
11C
100
AcDbEntity
  8
0
  6
ByBlock
 62
     1
370
    -2
100
AcDbLine
 10
177.5428278950718
 20
185.3446627467811
 30
0.0
 11
177.5428278950718
 21
191.7067747467811
 31
0.0
  0
LINE
  5
116
330
11C
100
AcDbEntity
  8
0
  6
ByBlock
 62
     1
370
    -2
100
AcDbLine
 10
199.7928278950718
 20
185.3446627467811
 30
0.0
 11
199.7928278950718
 21
191.7067747467811
 31
0.0
  0
LINE
  5
117
330
11C
100
AcDbEntity
  8
0
  6
ByBlock
 62
     1
370
    -2
100
AcDbLine
 10
179.2428278950718
 20
191.4067747467811
 30
0.0
 11
198.0928278950718
 21
191.4067747467811
 31
0.0
  0
SOLID
  5
118
330
11C
100
AcDbEntity
  8
0
  6
ByBlock
 62
     1
100
AcDbTrace
 10
177.5428278950718
 20
191.4067747467811
 30
0.0
 11
179.2428278950718
 21
191.1234414134478
 31
0.0
 12
179.2428278950718
 22
191.6901080801144
 32
0.0
 13
179.2428278950718
 23
191.6901080801144
 33
0.0
  0
SOLID
  5
119
330
11C
100
AcDbEntity
  8
0
  6
ByBlock
 62
     1
100
AcDbTrace
 10
199.7928278950718
 20
191.4067747467811
 30
0.0
 11
198.0928278950718
 21
191.1234414134478
 31
0.0
 12
198.0928278950718
 22
191.6901080801144
 32
0.0
 13
198.0928278950718
 23
191.6901080801144
 33
0.0
  0
MTEXT
  5
11A
330
11C
100
AcDbEntity
  8
0
  6
ByBlock
 62
     0
370
    -2
100
AcDbMText
 10
188.6678278950718
 20
193.0502774752941
 30
0.0
 40
1.75
 41
0.0
 71
     5
 72
     1
  1
180
  7
H
 73
     1
 44
1.0
  0
ENDBLK
  5
39A
330
11C
100
AcDbEntity
  8
0
100
AcDbBlockEnd
  0
BLOCK
  5
39B
330
127
100
AcDbEntity
  8
0
100
AcDbBlockBegin
  2
*D4
 70
     1
 10
0.0
 20
0.0
 30
0.0
  3
*D4
  1

  0
POINT
  5
11E
330
127
100
AcDbEntity
  8
DEFPOINTS
  6
ByBlock
 62
     1
100
AcDbPoint
 10
197.7928278950718
 20
186.3446627467811
 30
0.0
  0
POINT
  5
11F
330
127
100
AcDbEntity
  8
DEFPOINTS
  6
ByBlock
 62
     1
100
AcDbPoint
 10
197.7928278950718
 20
167.3446627467811
 30
0.0
  0
LINE
  5
120
330
127
100
AcDbEntity
  8
0
  6
ByBlock
 62
     1
370
    -2
100
AcDbLine
 10
198.7928278950718
 20
186.3446627467811
 30
0.0
 11
205.6585848950718
 21
186.3446627467811
 31
0.0
  0
LINE
  5
121
330
127
100
AcDbEntity
  8
0
  6
ByBlock
 62
     1
370
    -2
100
AcDbLine
 10
198.7928278950718
 20
167.3446627467811
 30
0.0
 11
205.6585848950718
 21
167.3446627467811
 31
0.0
  0
LINE
  5
122
330
127
100
AcDbEntity
  8
0
  6
ByBlock
 62
     1
370
    -2
100
AcDbLine
 10
205.3585848950718
 20
184.6446627467811
 30
0.0
 11
205.3585848950718
 21
169.0446627467811
 31
0.0
  0
SOLID
  5
123
330
127
100
AcDbEntity
  8
0
  6
ByBlock
 62
     1
100
AcDbTrace
 10
205.3585848950718
 20
186.3446627467811
 30
0.0
 11
205.0752515617385
 21
184.6446627467811
 31
0.0
 12
205.6419182284051
 22
184.6446627467811
 32
0.0
 13
205.6419182284051
 23
184.6446627467811
 33
0.0
  0
SOLID
  5
124
330
127
100
AcDbEntity
  8
0
  6
ByBlock
 62
     1
100
AcDbTrace
 10
205.3585848950718
 20
167.3446627467811
 30
0.0
 11
205.0752515617385
 21
169.0446627467811
 31
0.0
 12
205.6419182284051
 22
169.0446627467811
 32
0.0
 13
205.6419182284051
 23
169.0446627467811
 33
0.0
  0
MTEXT
  5
125
330
127
100
AcDbEntity
  8
0
  6
ByBlock
 62
     0
370
    -2
100
AcDbMText
 10
203.7150821665588
 20
176.8446627467811
 30
0.0
 40
1.75
 41
0.0
 71
     5
 72
     1
  1
150
  7
H
 11
6.123031769111886E-17
 21
1.0
 31
0.0
 73
     1
 44
1.0
  0
ENDBLK
  5
39C
330
127
100
AcDbEntity
  8
0
100
AcDbBlockEnd
  0
BLOCK
  5
39D
330
132
100
AcDbEntity
  8
0
100
AcDbBlockBegin
  2
*D5
 70
     1
 10
0.0
 20
0.0
 30
0.0
  3
*D5
  1

  0
POINT
  5
129
330
132
100
AcDbEntity
  8
DEFPOINTS
  6
ByBlock
 62
     0
100
AcDbPoint
 10
177.5428278950718
 20
188.5257187467811
 30
0.0
  0
POINT
  5
12A
330
132
100
AcDbEntity
  8
DEFPOINTS
  6
ByBlock
 62
     0
100
AcDbPoint
 10
199.7928278950718
 20
188.5257187467811
 30
0.0
  0
LINE
  5
12B
330
132
100
AcDbEntity
  8
0
  6
ByBlock
 62
     0
370
    -2
100
AcDbLine
 10
177.5428278950718
 20
189.1507187467811
 30
0.0
 11
177.5428278950718
 21
196.9180693401288
 31
0.0
  0
LINE
  5
12C
330
132
100
AcDbEntity
  8
0
  6
ByBlock
 62
     0
370
    -2
100
AcDbLine
 10
199.7928278950718
 20
189.1507187467811
 30
0.0
 11
199.7928278950718
 21
196.9180693401288
 31
0.0
  0
LINE
  5
12D
330
132
100
AcDbEntity
  8
0
  6
ByBlock
 62
     0
370
    -2
100
AcDbLine
 10
180.0428278950718
 20
195.6680693401288
 30
0.0
 11
197.2928278950718
 21
195.6680693401288
 31
0.0
  0
SOLID
  5
12E
330
132
100
AcDbEntity
  8
0
  6
ByBlock
 62
     0
100
AcDbTrace
 10
177.5428278950718
 20
195.6680693401288
 30
0.0
 11
180.0428278950718
 21
195.2514026734621
 31
0.0
 12
180.0428278950718
 22
196.0847360067955
 32
0.0
 13
180.0428278950718
 23
196.0847360067955
 33
0.0
  0
SOLID
  5
12F
330
132
100
AcDbEntity
  8
0
  6
ByBlock
 62
     0
100
AcDbTrace
 10
199.7928278950718
 20
195.6680693401288
 30
0.0
 11
197.2928278950718
 21
195.2514026734621
 31
0.0
 12
197.2928278950718
 22
196.0847360067955
 32
0.0
 13
197.2928278950718
 23
196.0847360067955
 33
0.0
  0
MTEXT
  5
130
330
132
100
AcDbEntity
  8
0
  6
ByBlock
 62
     0
370
    -2
100
AcDbMText
 10
188.6678278950718
 20
197.7514026734621
 30
0.0
 40
2.5
 41
0.0
 71
     5
 72
     1
  1
\A1;22,25
 73
     1
 44
1.0
  0
ENDBLK
  5
39E
330
132
100
AcDbEntity
  8
0
100
AcDbBlockEnd
  0
BLOCK
  5
39F
330
13D
100
AcDbEntity
  8
0
100
AcDbBlockBegin
  2
*D6
 70
     1
 10
0.0
 20
0.0
 30
0.0
  3
*D6
  1

  0
POINT
  5
134
330
13D
100
AcDbEntity
  8
DEFPOINTS
  6
ByBlock
 62
     0
100
AcDbPoint
 10
202.92374095556
 20
186.3446627467811
 30
0.0
  0
POINT
  5
135
330
13D
100
AcDbEntity
  8
DEFPOINTS
  6
ByBlock
 62
     0
100
AcDbPoint
 10
202.2257063950718
 20
167.3446627467811
 30
0.0
  0
LINE
  5
136
330
13D
100
AcDbEntity
  8
0
  6
ByBlock
 62
     0
370
    -2
100
AcDbLine
 10
203.54874095556
 20
186.3446627467811
 30
0.0
 11
212.0185922079071
 21
186.3446627467811
 31
0.0
  0
LINE
  5
137
330
13D
100
AcDbEntity
  8
0
  6
ByBlock
 62
     0
370
    -2
100
AcDbLine
 10
202.8507063950718
 20
167.3446627467811
 30
0.0
 11
212.0185922079071
 21
167.3446627467811
 31
0.0
  0
LINE
  5
138
330
13D
100
AcDbEntity
  8
0
  6
ByBlock
 62
     0
370
    -2
100
AcDbLine
 10
210.7685922079071
 20
183.8446627467811
 30
0.0
 11
210.7685922079071
 21
169.8446627467811
 31
0.0
  0
SOLID
  5
139
330
13D
100
AcDbEntity
  8
0
  6
ByBlock
 62
     0
100
AcDbTrace
 10
210.7685922079071
 20
186.3446627467811
 30
0.0
 11
210.3519255412404
 21
183.8446627467811
 31
0.0
 12
211.1852588745737
 22
183.8446627467811
 32
0.0
 13
211.1852588745737
 23
183.8446627467811
 33
0.0
  0
SOLID
  5
13A
330
13D
100
AcDbEntity
  8
0
  6
ByBlock
 62
     0
100
AcDbTrace
 10
210.7685922079071
 20
167.3446627467811
 30
0.0
 11
210.3519255412404
 21
169.8446627467811
 31
0.0
 12
211.1852588745737
 22
169.8446627467811
 32
0.0
 13
211.1852588745737
 23
169.8446627467811
 33
0.0
  0
MTEXT
  5
13B
330
13D
100
AcDbEntity
  8
0
  6
ByBlock
 62
     0
370
    -2
100
AcDbMText
 10
208.8935922079071
 20
176.8446627467811
 30
0.0
 40
2.5
 41
0.0
 71
     5
 72
     1
  1
\A1;19
 11
6.123031769111886E-17
 21
1.0
 31
0.0
 73
     1
 44
1.0
  0
ENDBLK
  5
3A0
330
13D
100
AcDbEntity
  8
0
100
AcDbBlockEnd
  0
BLOCK
  5
3A1
330
231
100
AcDbEntity
  8
0
100
AcDbBlockBegin
  2
*D7
 70
     1
 10
0.0
 20
0.0
 30
0.0
  3
*D7
  1

  0
POINT
  5
228
330
231
100
AcDbEntity
  8
DEFPOINTS
  6
ByBlock
 62
     1
380
     1
100
AcDbPoint
 10
1436.321477671131
 20
1454.479389072103
 30
0.0
  0
POINT
  5
229
330
231
100
AcDbEntity
  8
DEFPOINTS
  6
ByBlock
 62
     1
380
     1
100
AcDbPoint
 10
1616.323977671131
 20
1454.479389072103
 30
0.0
  0
LINE
  5
22A
330
231
100
AcDbEntity
  8
0
  6
ByBlock
 62
     1
370
    -2
380
     1
100
AcDbLine
 10
1436.321477671131
 20
1455.479389072103
 30
0.0
 11
1436.321477671131
 21
1510.499452752103
 31
0.0
  0
LINE
  5
22B
330
231
100
AcDbEntity
  8
0
  6
ByBlock
 62
     1
370
    -2
380
     1
100
AcDbLine
 10
1616.323977671131
 20
1455.479389072103
 30
0.0
 11
1616.323977671131
 21
1510.499452752103
 31
0.0
  0
LINE
  5
22C
330
231
100
AcDbEntity
  8
0
  6
ByBlock
 62
     1
370
    -2
380
     1
100
AcDbLine
 10
1438.021477671131
 20
1510.199452752103
 30
0.0
 11
1614.623977671131
 21
1510.199452752103
 31
0.0
  0
SOLID
  5
22D
330
231
100
AcDbEntity
  8
0
  6
ByBlock
 62
     1
380
     1
100
AcDbTrace
 10
1436.321477671131
 20
1510.199452752103
 30
0.0
 11
1438.021477671131
 21
1509.91611941877
 31
0.0
 12
1438.021477671131
 22
1510.482786085436
 32
0.0
 13
1438.021477671131
 23
1510.482786085436
 33
0.0
  0
SOLID
  5
22E
330
231
100
AcDbEntity
  8
0
  6
ByBlock
 62
     1
380
     1
100
AcDbTrace
 10
1616.323977671131
 20
1510.199452752103
 30
0.0
 11
1614.623977671131
 21
1509.91611941877
 31
0.0
 12
1614.623977671131
 22
1510.482786085436
 32
0.0
 13
1614.623977671131
 23
1510.482786085436
 33
0.0
  0
MTEXT
  5
22F
330
231
100
AcDbEntity
  8
0
  6
ByBlock
 62
     0
370
    -2
380
     1
100
AcDbMText
 10
1526.322727671131
 20
1511.842955480616
 30
0.0
 40
1.75
 41
0.0
 71
     5
 72
     1
  1
180
  7
H
 73
     1
 44
1.0
  0
ENDBLK
  5
3A2
330
231
100
AcDbEntity
  8
0
100
AcDbBlockEnd
  0
BLOCK
  5
3A3
330
2D5
100
AcDbEntity
  8
0
100
AcDbBlockBegin
  2
*D8
 70
     1
 10
0.0
 20
0.0
 30
0.0
  3
*D8
  1

  0
POINT
  5
2CC
330
2D5
100
AcDbEntity
  8
DEFPOINTS
  6
ByBlock
 62
     1
380
     1
100
AcDbPoint
 10
1600.143977671131
 20
1470.259389072103
 30
0.0
  0
POINT
  5
2CD
330
2D5
100
AcDbEntity
  8
DEFPOINTS
  6
ByBlock
 62
     1
380
     1
100
AcDbPoint
 10
1600.143977671131
 20
1320.349389072103
 30
0.0
  0
LINE
  5
2CE
330
2D5
100
AcDbEntity
  8
0
  6
ByBlock
 62
     1
370
    -2
380
     1
100
AcDbLine
 10
1601.143977671131
 20
1470.259389072103
 30
0.0
 11
1661.650951801131
 21
1470.259389072103
 31
0.0
  0
LINE
  5
2CF
330
2D5
100
AcDbEntity
  8
0
  6
ByBlock
 62
     1
370
    -2
380
     1
100
AcDbLine
 10
1601.143977671131
 20
1320.349389072103
 30
0.0
 11
1661.650951801131
 21
1320.349389072103
 31
0.0
  0
LINE
  5
2D0
330
2D5
100
AcDbEntity
  8
0
  6
ByBlock
 62
     1
370
    -2
380
     1
100
AcDbLine
 10
1661.350951801131
 20
1468.559389072103
 30
0.0
 11
1661.350951801131
 21
1322.049389072103
 31
0.0
  0
SOLID
  5
2D1
330
2D5
100
AcDbEntity
  8
0
  6
ByBlock
 62
     1
380
     1
100
AcDbTrace
 10
1661.350951801131
 20
1470.259389072103
 30
0.0
 11
1661.067618467798
 21
1468.559389072103
 31
0.0
 12
1661.634285134464
 22
1468.559389072103
 32
0.0
 13
1661.634285134464
 23
1468.559389072103
 33
0.0
  0
SOLID
  5
2D2
330
2D5
100
AcDbEntity
  8
0
  6
ByBlock
 62
     1
380
     1
100
AcDbTrace
 10
1661.350951801131
 20
1320.349389072103
 30
0.0
 11
1661.067618467798
 21
1322.049389072103
 31
0.0
 12
1661.634285134464
 22
1322.049389072103
 32
0.0
 13
1661.634285134464
 23
1322.049389072103
 33
0.0
  0
MTEXT
  5
2D3
330
2D5
100
AcDbEntity
  8
0
  6
ByBlock
 62
     0
370
    -2
380
     1
100
AcDbMText
 10
1659.707449072618
 20
1395.304389072103
 30
0.0
 40
1.75
 41
0.0
 71
     5
 72
     1
  1
150
  7
H
 11
6.123031769111886E-17
 21
1.0
 31
0.0
 73
     1
 44
1.0
  0
ENDBLK
  5
3A4
330
2D5
100
AcDbEntity
  8
0
100
AcDbBlockEnd
  0
BLOCK
  5
3A5
330
324
100
AcDbEntity
  8
0
100
AcDbBlockBegin
  2
*D9
 70
     1
 10
0.0
 20
0.0
 30
0.0
  3
*D9
  1

  0
POINT
  5
31B
330
324
100
AcDbEntity
  8
DEFPOINTS
  6
ByBlock
 62
     0
380
     1
100
AcDbPoint
 10
1436.321477671131
 20
1487.467920912103
 30
0.0
  0
POINT
  5
31C
330
324
100
AcDbEntity
  8
DEFPOINTS
  6
ByBlock
 62
     0
380
     1
100
AcDbPoint
 10
1616.323977671131
 20
1487.467920912103
 30
0.0
  0
LINE
  5
31D
330
324
100
AcDbEntity
  8
0
  6
ByBlock
 62
     0
370
    -2
380
     1
100
AcDbLine
 10
1436.321477671131
 20
1488.092920912103
 30
0.0
 11
1436.321477671131
 21
1545.071067093616
 31
0.0
  0
LINE
  5
31E
330
324
100
AcDbEntity
  8
0
  6
ByBlock
 62
     0
370
    -2
380
     1
100
AcDbLine
 10
1616.323977671131
 20
1488.092920912103
 30
0.0
 11
1616.323977671131
 21
1545.071067093616
 31
0.0
  0
LINE
  5
31F
330
324
100
AcDbEntity
  8
0
  6
ByBlock
 62
     0
370
    -2
380
     1
100
AcDbLine
 10
1438.821477671131
 20
1543.821067093616
 30
0.0
 11
1613.823977671131
 21
1543.821067093616
 31
0.0
  0
SOLID
  5
320
330
324
100
AcDbEntity
  8
0
  6
ByBlock
 62
     0
380
     1
100
AcDbTrace
 10
1436.321477671131
 20
1543.821067093616
 30
0.0
 11
1438.821477671131
 21
1543.404400426949
 31
0.0
 12
1438.821477671131
 22
1544.237733760283
 32
0.0
 13
1438.821477671131
 23
1544.237733760283
 33
0.0
  0
SOLID
  5
321
330
324
100
AcDbEntity
  8
0
  6
ByBlock
 62
     0
380
     1
100
AcDbTrace
 10
1616.323977671131
 20
1543.821067093616
 30
0.0
 11
1613.823977671131
 21
1543.404400426949
 31
0.0
 12
1613.823977671131
 22
1544.237733760283
 32
0.0
 13
1613.823977671131
 23
1544.237733760283
 33
0.0
  0
MTEXT
  5
322
330
324
100
AcDbEntity
  8
0
  6
ByBlock
 62
     0
370
    -2
380
     1
100
AcDbMText
 10
1526.322727671131
 20
1545.696067093616
 30
0.0
 40
2.5
 41
0.0
 71
     5
 72
     1
  1
\A1;180
 73
     1
 44
1.0
  0
ENDBLK
  5
3A6
330
324
100
AcDbEntity
  8
0
100
AcDbBlockEnd
  0
BLOCK
  5
3A7
330
330
100
AcDbEntity
  8
0
100
AcDbBlockBegin
  2
*D10
 70
     1
 10
0.0
 20
0.0
 30
0.0
  3
*D10
  1

  0
POINT
  5
327
330
330
100
AcDbEntity
  8
DEFPOINTS
  6
ByBlock
 62
     0
380
     1
100
AcDbPoint
 10
1641.65306433048
 20
1470.259389072103
 30
0.0
  0
POINT
  5
328
330
330
100
AcDbEntity
  8
DEFPOINTS
  6
ByBlock
 62
     0
380
     1
100
AcDbPoint
 10
1636.005964736131
 20
1320.349389072103
 30
0.0
  0
LINE
  5
329
330
330
100
AcDbEntity
  8
0
  6
ByBlock
 62
     0
370
    -2
380
     1
100
AcDbLine
 10
1642.27806433048
 20
1470.259389072103
 30
0.0
 11
1706.367910961968
 21
1470.259389072103
 31
0.0
  0
LINE
  5
32A
330
330
100
AcDbEntity
  8
0
  6
ByBlock
 62
     0
370
    -2
380
     1
100
AcDbLine
 10
1636.630964736131
 20
1320.349389072103
 30
0.0
 11
1706.367910961968
 21
1320.349389072103
 31
0.0
  0
LINE
  5
32B
330
330
100
AcDbEntity
  8
0
  6
ByBlock
 62
     0
370
    -2
380
     1
100
AcDbLine
 10
1705.117910961968
 20
1467.759389072103
 30
0.0
 11
1705.117910961968
 21
1322.849389072103
 31
0.0
  0
SOLID
  5
32C
330
330
100
AcDbEntity
  8
0
  6
ByBlock
 62
     0
380
     1
100
AcDbTrace
 10
1705.117910961968
 20
1470.259389072103
 30
0.0
 11
1704.701244295302
 21
1467.759389072103
 31
0.0
 12
1705.534577628635
 22
1467.759389072103
 32
0.0
 13
1705.534577628635
 23
1467.759389072103
 33
0.0
  0
SOLID
  5
32D
330
330
100
AcDbEntity
  8
0
  6
ByBlock
 62
     0
380
     1
100
AcDbTrace
 10
1705.117910961968
 20
1320.349389072103
 30
0.0
 11
1704.701244295302
 21
1322.849389072103
 31
0.0
 12
1705.534577628635
 22
1322.849389072103
 32
0.0
 13
1705.534577628635
 23
1322.849389072103
 33
0.0
  0
MTEXT
  5
32E
330
330
100
AcDbEntity
  8
0
  6
ByBlock
 62
     0
370
    -2
380
     1
100
AcDbMText
 10
1703.034577628635
 20
1395.304389072103
 30
0.0
 40
2.5
 41
0.0
 71
     5
 72
     1
  1
\A1;149,91
 11
6.123031769111886E-17
 21
1.0
 31
0.0
 73
     1
 44
1.0
  0
ENDBLK
  5
3A8
330
330
100
AcDbEntity
  8
0
100
AcDbBlockEnd
  0
BLOCK
  5
3A9
330
33E
100
AcDbEntity
  8
0
100
AcDbBlockBegin
  2
*D11
 70
     1
 10
0.0
 20
0.0
 30
0.0
  3
*D11
  1

  0
POINT
  5
335
330
33E
100
AcDbEntity
  8
DEFPOINTS
  6
ByBlock
 62
     0
380
     1
100
AcDbPoint
 10
1436.321477671131
 20
1438.531938419085
 30
0.0
  0
POINT
  5
336
330
33E
100
AcDbEntity
  8
DEFPOINTS
  6
ByBlock
 62
     0
380
     1
100
AcDbPoint
 10
1616.323977671131
 20
1438.531938419085
 30
0.0
  0
LINE
  5
337
330
33E
100
AcDbEntity
  8
0
  6
ByBlock
 62
     0
370
    -2
380
     1
100
AcDbLine
 10
1436.321477671131
 20
1439.156938419085
 30
0.0
 11
1436.321477671131
 21
1494.444237969968
 31
0.0
  0
LINE
  5
338
330
33E
100
AcDbEntity
  8
0
  6
ByBlock
 62
     0
370
    -2
380
     1
100
AcDbLine
 10
1616.323977671131
 20
1439.156938419085
 30
0.0
 11
1616.323977671131
 21
1494.444237969968
 31
0.0
  0
LINE
  5
339
330
33E
100
AcDbEntity
  8
0
  6
ByBlock
 62
     0
370
    -2
380
     1
100
AcDbLine
 10
1438.821477671131
 20
1493.194237969968
 30
0.0
 11
1613.823977671131
 21
1493.194237969968
 31
0.0
  0
SOLID
  5
33A
330
33E
100
AcDbEntity
  8
0
  6
ByBlock
 62
     0
380
     1
100
AcDbTrace
 10
1436.321477671131
 20
1493.194237969968
 30
0.0
 11
1438.821477671131
 21
1492.777571303301
 31
0.0
 12
1438.821477671131
 22
1493.610904636635
 32
0.0
 13
1438.821477671131
 23
1493.610904636635
 33
0.0
  0
SOLID
  5
33B
330
33E
100
AcDbEntity
  8
0
  6
ByBlock
 62
     0
380
     1
100
AcDbTrace
 10
1616.323977671131
 20
1493.194237969968
 30
0.0
 11
1613.823977671131
 21
1492.777571303301
 31
0.0
 12
1613.823977671131
 22
1493.610904636635
 32
0.0
 13
1613.823977671131
 23
1493.610904636635
 33
0.0
  0
MTEXT
  5
33C
330
33E
100
AcDbEntity
  8
0
  6
ByBlock
 62
     0
370
    -2
380
     1
100
AcDbMText
 10
1526.322727671131
 20
1495.069237969968
 30
0.0
 40
2.5
 41
0.0
 71
     5
 72
     1
  1
\A1;180
 73
     1
 44
1.0
  0
ENDBLK
  5
3AA
330
33E
100
AcDbEntity
  8
0
100
AcDbBlockEnd
  0
BLOCK
  5
3AB
330
349
100
AcDbEntity
  8
0
100
AcDbBlockBegin
  2
*D12
 70
     1
 10
0.0
 20
0.0
 30
0.0
  3
*D12
  1

  0
POINT
  5
340
330
349
100
AcDbEntity
  8
DEFPOINTS
  6
ByBlock
 62
     0
380
     1
100
AcDbPoint
 10
1436.321477671131
 20
1438.531938419085
 30
0.0
  0
POINT
  5
341
330
349
100
AcDbEntity
  8
DEFPOINTS
  6
ByBlock
 62
     0
380
     1
100
AcDbPoint
 10
1616.323977671131
 20
1438.531938419085
 30
0.0
  0
LINE
  5
342
330
349
100
AcDbEntity
  8
0
  6
ByBlock
 62
     0
370
    -2
380
     1
100
AcDbLine
 10
1436.321477671131
 20
1439.156938419085
 30
0.0
 11
1436.321477671131
 21
1494.444237969968
 31
0.0
  0
LINE
  5
343
330
349
100
AcDbEntity
  8
0
  6
ByBlock
 62
     0
370
    -2
380
     1
100
AcDbLine
 10
1616.323977671131
 20
1439.156938419085
 30
0.0
 11
1616.323977671131
 21
1494.444237969968
 31
0.0
  0
LINE
  5
344
330
349
100
AcDbEntity
  8
0
  6
ByBlock
 62
     0
370
    -2
380
     1
100
AcDbLine
 10
1438.821477671131
 20
1493.194237969968
 30
0.0
 11
1613.823977671131
 21
1493.194237969968
 31
0.0
  0
SOLID
  5
345
330
349
100
AcDbEntity
  8
0
  6
ByBlock
 62
     0
380
     1
100
AcDbTrace
 10
1436.321477671131
 20
1493.194237969968
 30
0.0
 11
1438.821477671131
 21
1492.777571303301
 31
0.0
 12
1438.821477671131
 22
1493.610904636635
 32
0.0
 13
1438.821477671131
 23
1493.610904636635
 33
0.0
  0
SOLID
  5
346
330
349
100
AcDbEntity
  8
0
  6
ByBlock
 62
     0
380
     1
100
AcDbTrace
 10
1616.323977671131
 20
1493.194237969968
 30
0.0
 11
1613.823977671131
 21
1492.777571303301
 31
0.0
 12
1613.823977671131
 22
1493.610904636635
 32
0.0
 13
1613.823977671131
 23
1493.610904636635
 33
0.0
  0
MTEXT
  5
347
330
349
100
AcDbEntity
  8
0
  6
ByBlock
 62
     0
370
    -2
380
     1
100
AcDbMText
 10
1526.322727671131
 20
1495.069237969968
 30
0.0
 40
2.5
 41
0.0
 71
     5
 72
     1
  1
\A1;180
 73
     1
 44
1.0
  0
ENDBLK
  5
3AC
330
349
100
AcDbEntity
  8
0
100
AcDbBlockEnd
  0
BLOCK
  5
3AD
330
354
100
AcDbEntity
  8
0
100
AcDbBlockBegin
  2
*D13
 70
     1
 10
0.0
 20
0.0
 30
0.0
  3
*D13
  1

  0
POINT
  5
34B
330
354
100
AcDbEntity
  8
DEFPOINTS
  6
ByBlock
 62
     7
380
     1
100
AcDbPoint
 10
1436.321477671131
 20
1438.531938419085
 30
0.0
  0
POINT
  5
34C
330
354
100
AcDbEntity
  8
DEFPOINTS
  6
ByBlock
 62
     7
380
     1
100
AcDbPoint
 10
1616.323977671131
 20
1438.531938419085
 30
0.0
  0
LINE
  5
34D
330
354
100
AcDbEntity
  8
0
  6
ByBlock
 62
     7
370
    -2
380
     1
100
AcDbLine
 10
1436.321477671131
 20
1439.156938419085
 30
0.0
 11
1436.321477671131
 21
1494.444237969968
 31
0.0
  0
LINE
  5
34E
330
354
100
AcDbEntity
  8
0
  6
ByBlock
 62
     7
370
    -2
380
     1
100
AcDbLine
 10
1616.323977671131
 20
1439.156938419085
 30
0.0
 11
1616.323977671131
 21
1494.444237969968
 31
0.0
  0
LINE
  5
34F
330
354
100
AcDbEntity
  8
0
  6
ByBlock
 62
     7
370
    -2
380
     1
100
AcDbLine
 10
1446.321477671131
 20
1493.194237969968
 30
0.0
 11
1606.323977671131
 21
1493.194237969968
 31
0.0
  0
SOLID
  5
350
330
354
100
AcDbEntity
  8
0
  6
ByBlock
 62
     7
380
     1
100
AcDbTrace
 10
1436.321477671131
 20
1493.194237969968
 30
0.0
 11
1446.321477671131
 21
1491.527571303301
 31
0.0
 12
1446.321477671131
 22
1494.860904636635
 32
0.0
 13
1446.321477671131
 23
1494.860904636635
 33
0.0
  0
SOLID
  5
351
330
354
100
AcDbEntity
  8
0
  6
ByBlock
 62
     7
380
     1
100
AcDbTrace
 10
1616.323977671131
 20
1493.194237969968
 30
0.0
 11
1606.323977671131
 21
1491.527571303301
 31
0.0
 12
1606.323977671131
 22
1494.860904636635
 32
0.0
 13
1606.323977671131
 23
1494.860904636635
 33
0.0
  0
MTEXT
  5
352
330
354
100
AcDbEntity
  8
0
  6
ByBlock
 62
     0
370
    -2
380
     1
100
AcDbMText
 10
1526.322727671131
 20
1505.194237969968
 30
0.0
 40
14.0
 41
0.0
 71
     5
 72
     1
  1
\A1;180
 73
     1
 44
1.0
  0
ENDBLK
  5
3AE
330
354
100
AcDbEntity
  8
0
100
AcDbBlockEnd
  0
BLOCK
  5
3AF
330
360
100
AcDbEntity
  8
0
100
AcDbBlockBegin
  2
*D14
 70
     1
 10
0.0
 20
0.0
 30
0.0
  3
*D14
  1

  0
POINT
  5
357
330
360
100
AcDbEntity
  8
DEFPOINTS
  6
ByBlock
 62
     0
380
     1
100
AcDbPoint
 10
1584.469602671131
 20
1468.780014072103
 30
0.0
  0
POINT
  5
358
330
360
100
AcDbEntity
  8
DEFPOINTS
  6
ByBlock
 62
     0
380
     1
100
AcDbPoint
 10
1584.469602671131
 20
1320.349389072103
 30
0.0
  0
LINE
  5
359
330
360
100
AcDbEntity
  8
0
  6
ByBlock
 62
     0
370
    -2
380
     1
100
AcDbLine
 10
1585.094602671131
 20
1468.780014072103
 30
0.0
 11
1651.486701244311
 21
1468.780014072103
 31
0.0
  0
LINE
  5
35A
330
360
100
AcDbEntity
  8
0
  6
ByBlock
 62
     0
370
    -2
380
     1
100
AcDbLine
 10
1585.094602671131
 20
1320.349389072103
 30
0.0
 11
1651.486701244311
 21
1320.349389072103
 31
0.0
  0
LINE
  5
35B
330
360
100
AcDbEntity
  8
0
  6
ByBlock
 62
     0
370
    -2
380
     1
100
AcDbLine
 10
1650.236701244311
 20
1466.280014072103
 30
0.0
 11
1650.236701244311
 21
1322.849389072103
 31
0.0
  0
SOLID
  5
35C
330
360
100
AcDbEntity
  8
0
  6
ByBlock
 62
     0
380
     1
100
AcDbTrace
 10
1650.236701244311
 20
1468.780014072103
 30
0.0
 11
1649.820034577644
 21
1466.280014072103
 31
0.0
 12
1650.653367910978
 22
1466.280014072103
 32
0.0
 13
1650.653367910978
 23
1466.280014072103
 33
0.0
  0
SOLID
  5
35D
330
360
100
AcDbEntity
  8
0
  6
ByBlock
 62
     0
380
     1
100
AcDbTrace
 10
1650.236701244311
 20
1320.349389072103
 30
0.0
 11
1649.820034577644
 21
1322.849389072103
 31
0.0
 12
1650.653367910978
 22
1322.849389072103
 32
0.0
 13
1650.653367910978
 23
1322.849389072103
 33
0.0
  0
MTEXT
  5
35E
330
360
100
AcDbEntity
  8
0
  6
ByBlock
 62
     0
370
    -2
380
     1
100
AcDbMText
 10
1648.153367910978
 20
1394.564701572103
 30
0.0
 40
2.5
 41
0.0
 71
     5
 72
     1
  1
\A1;148,43
 11
6.123031769111886E-17
 21
1.0
 31
0.0
 73
     1
 44
1.0
  0
ENDBLK
  5
3B0
330
360
100
AcDbEntity
  8
0
100
AcDbBlockEnd
  0
BLOCK
  5
3B1
330
36B
100
AcDbEntity
  8
0
100
AcDbBlockBegin
  2
*D15
 70
     1
 10
0.0
 20
0.0
 30
0.0
  3
*D15
  1

  0
POINT
  5
362
330
36B
100
AcDbEntity
  8
DEFPOINTS
  6
ByBlock
 62
     0
380
     1
100
AcDbPoint
 10
1584.469602671131
 20
1468.780014072103
 30
0.0
  0
POINT
  5
363
330
36B
100
AcDbEntity
  8
DEFPOINTS
  6
ByBlock
 62
     0
380
     1
100
AcDbPoint
 10
1584.469602671131
 20
1320.349389072103
 30
0.0
  0
LINE
  5
364
330
36B
100
AcDbEntity
  8
0
  6
ByBlock
 62
     0
370
    -2
380
     1
100
AcDbLine
 10
1585.094602671131
 20
1468.780014072103
 30
0.0
 11
1651.486701244311
 21
1468.780014072103
 31
0.0
  0
LINE
  5
365
330
36B
100
AcDbEntity
  8
0
  6
ByBlock
 62
     0
370
    -2
380
     1
100
AcDbLine
 10
1585.094602671131
 20
1320.349389072103
 30
0.0
 11
1651.486701244311
 21
1320.349389072103
 31
0.0
  0
LINE
  5
366
330
36B
100
AcDbEntity
  8
0
  6
ByBlock
 62
     0
370
    -2
380
     1
100
AcDbLine
 10
1650.236701244311
 20
1466.280014072103
 30
0.0
 11
1650.236701244311
 21
1322.849389072103
 31
0.0
  0
SOLID
  5
367
330
36B
100
AcDbEntity
  8
0
  6
ByBlock
 62
     0
380
     1
100
AcDbTrace
 10
1650.236701244311
 20
1468.780014072103
 30
0.0
 11
1649.820034577644
 21
1466.280014072103
 31
0.0
 12
1650.653367910978
 22
1466.280014072103
 32
0.0
 13
1650.653367910978
 23
1466.280014072103
 33
0.0
  0
SOLID
  5
368
330
36B
100
AcDbEntity
  8
0
  6
ByBlock
 62
     0
380
     1
100
AcDbTrace
 10
1650.236701244311
 20
1320.349389072103
 30
0.0
 11
1649.820034577644
 21
1322.849389072103
 31
0.0
 12
1650.653367910978
 22
1322.849389072103
 32
0.0
 13
1650.653367910978
 23
1322.849389072103
 33
0.0
  0
MTEXT
  5
369
330
36B
100
AcDbEntity
  8
0
  6
ByBlock
 62
     0
370
    -2
380
     1
100
AcDbMText
 10
1648.153367910978
 20
1394.564701572103
 30
0.0
 40
2.5
 41
0.0
 71
     5
 72
     1
  1
\A1;148,43
 11
6.123031769111886E-17
 21
1.0
 31
0.0
 73
     1
 44
1.0
  0
ENDBLK
  5
3B2
330
36B
100
AcDbEntity
  8
0
100
AcDbBlockEnd
  0
BLOCK
  5
3B3
330
376
100
AcDbEntity
  8
0
100
AcDbBlockBegin
  2
*D16
 70
     1
 10
0.0
 20
0.0
 30
0.0
  3
*D16
  1

  0
POINT
  5
36D
330
376
100
AcDbEntity
  8
DEFPOINTS
  6
ByBlock
 62
     7
380
     1
100
AcDbPoint
 10
1584.469602671131
 20
1468.780014072103
 30
0.0
  0
POINT
  5
36E
330
376
100
AcDbEntity
  8
DEFPOINTS
  6
ByBlock
 62
     7
380
     1
100
AcDbPoint
 10
1584.469602671131
 20
1320.349389072103
 30
0.0
  0
LINE
  5
36F
330
376
100
AcDbEntity
  8
0
  6
ByBlock
 62
     7
370
    -2
380
     1
100
AcDbLine
 10
1585.094602671131
 20
1468.780014072103
 30
0.0
 11
1651.486701244311
 21
1468.780014072103
 31
0.0
  0
LINE
  5
370
330
376
100
AcDbEntity
  8
0
  6
ByBlock
 62
     7
370
    -2
380
     1
100
AcDbLine
 10
1585.094602671131
 20
1320.349389072103
 30
0.0
 11
1651.486701244311
 21
1320.349389072103
 31
0.0
  0
LINE
  5
371
330
376
100
AcDbEntity
  8
0
  6
ByBlock
 62
     7
370
    -2
380
     1
100
AcDbLine
 10
1650.236701244311
 20
1458.780014072103
 30
0.0
 11
1650.236701244311
 21
1330.349389072103
 31
0.0
  0
SOLID
  5
372
330
376
100
AcDbEntity
  8
0
  6
ByBlock
 62
     7
380
     1
100
AcDbTrace
 10
1650.236701244311
 20
1468.780014072103
 30
0.0
 11
1648.570034577644
 21
1458.780014072103
 31
0.0
 12
1651.903367910978
 22
1458.780014072103
 32
0.0
 13
1651.903367910978
 23
1458.780014072103
 33
0.0
  0
SOLID
  5
373
330
376
100
AcDbEntity
  8
0
  6
ByBlock
 62
     7
380
     1
100
AcDbTrace
 10
1650.236701244311
 20
1320.349389072103
 30
0.0
 11
1648.570034577644
 21
1330.349389072103
 31
0.0
 12
1651.903367910978
 22
1330.349389072103
 32
0.0
 13
1651.903367910978
 23
1330.349389072103
 33
0.0
  0
MTEXT
  5
374
330
376
100
AcDbEntity
  8
0
  6
ByBlock
 62
     0
370
    -2
380
     1
100
AcDbMText
 10
1637.070034577644
 20
1394.564701572103
 30
0.0
 40
14.0
 41
0.0
 71
     5
 72
     1
  1
\A1;148,43
 11
6.123031769111886E-17
 21
1.0
 31
0.0
 73
     1
 44
1.0
  0
ENDBLK
  5
3B4
330
376
100
AcDbEntity
  8
0
100
AcDbBlockEnd
  0
BLOCK
  5
3B5
330
381
100
AcDbEntity
  8
0
100
AcDbBlockBegin
  2
*D17
 70
     1
 10
0.0
 20
0.0
 30
0.0
  3
*D17
  1

  0
POINT
  5
378
330
381
100
AcDbEntity
  8
DEFPOINTS
  6
ByBlock
 62
     7
380
     1
100
AcDbPoint
 10
1589.023207030272
 20
1470.259389072103
 30
0.0
  0
POINT
  5
379
330
381
100
AcDbEntity
  8
DEFPOINTS
  6
ByBlock
 62
     7
380
     1
100
AcDbPoint
 10
1584.469602671131
 20
1320.349389072103
 30
0.0
  0
LINE
  5
37A
330
381
100
AcDbEntity
  8
0
  6
ByBlock
 62
     7
370
    -2
380
     1
100
AcDbLine
 10
1589.648207030272
 20
1470.259389072103
 30
0.0
 11
1651.486701244311
 21
1470.259389072103
 31
0.0
  0
LINE
  5
37B
330
381
100
AcDbEntity
  8
0
  6
ByBlock
 62
     7
370
    -2
380
     1
100
AcDbLine
 10
1585.094602671131
 20
1320.349389072103
 30
0.0
 11
1651.486701244311
 21
1320.349389072103
 31
0.0
  0
LINE
  5
37C
330
381
100
AcDbEntity
  8
0
  6
ByBlock
 62
     7
370
    -2
380
     1
100
AcDbLine
 10
1650.236701244311
 20
1460.259389072103
 30
0.0
 11
1650.236701244311
 21
1330.349389072103
 31
0.0
  0
SOLID
  5
37D
330
381
100
AcDbEntity
  8
0
  6
ByBlock
 62
     7
380
     1
100
AcDbTrace
 10
1650.236701244311
 20
1470.259389072103
 30
0.0
 11
1648.570034577644
 21
1460.259389072103
 31
0.0
 12
1651.903367910978
 22
1460.259389072103
 32
0.0
 13
1651.903367910978
 23
1460.259389072103
 33
0.0
  0
SOLID
  5
37E
330
381
100
AcDbEntity
  8
0
  6
ByBlock
 62
     7
380
     1
100
AcDbTrace
 10
1650.236701244311
 20
1320.349389072103
 30
0.0
 11
1648.570034577644
 21
1330.349389072103
 31
0.0
 12
1651.903367910978
 22
1330.349389072103
 32
0.0
 13
1651.903367910978
 23
1330.349389072103
 33
0.0
  0
MTEXT
  5
37F
330
381
100
AcDbEntity
  8
0
  6
ByBlock
 62
     0
370
    -2
380
     1
100
AcDbMText
 10
1637.070034577644
 20
1395.304389072103
 30
0.0
 40
14.0
 41
0.0
 71
     5
 72
     1
  1
\A1;149,91
 11
6.123031769111886E-17
 21
1.0
 31
0.0
 73
     1
 44
1.0
  0
ENDBLK
  5
3B6
330
381
100
AcDbEntity
  8
0
100
AcDbBlockEnd
  0
BLOCK
  5
3B7
330
38C
100
AcDbEntity
  8
0
100
AcDbBlockBegin
  2
*D18
 70
     1
 10
0.0
 20
0.0
 30
0.0
  3
*D18
  1

  0
POINT
  5
383
330
38C
100
AcDbEntity
  8
DEFPOINTS
  6
ByBlock
 62
     7
380
     1
100
AcDbPoint
 10
1589.023207030272
 20
1470.259389072103
 30
0.0
  0
POINT
  5
384
330
38C
100
AcDbEntity
  8
DEFPOINTS
  6
ByBlock
 62
     7
380
     1
100
AcDbPoint
 10
1584.469602671131
 20
1320.349389072103
 30
0.0
  0
LINE
  5
385
330
38C
100
AcDbEntity
  8
0
  6
ByBlock
 62
     7
370
    -2
380
     1
100
AcDbLine
 10
1589.648207030272
 20
1470.259389072103
 30
0.0
 11
1651.486701244311
 21
1470.259389072103
 31
0.0
  0
LINE
  5
386
330
38C
100
AcDbEntity
  8
0
  6
ByBlock
 62
     7
370
    -2
380
     1
100
AcDbLine
 10
1585.094602671131
 20
1320.349389072103
 30
0.0
 11
1651.486701244311
 21
1320.349389072103
 31
0.0
  0
LINE
  5
387
330
38C
100
AcDbEntity
  8
0
  6
ByBlock
 62
     7
370
    -2
380
     1
100
AcDbLine
 10
1650.236701244311
 20
1460.259389072103
 30
0.0
 11
1650.236701244311
 21
1330.349389072103
 31
0.0
  0
SOLID
  5
388
330
38C
100
AcDbEntity
  8
0
  6
ByBlock
 62
     7
380
     1
100
AcDbTrace
 10
1650.236701244311
 20
1470.259389072103
 30
0.0
 11
1648.570034577644
 21
1460.259389072103
 31
0.0
 12
1651.903367910978
 22
1460.259389072103
 32
0.0
 13
1651.903367910978
 23
1460.259389072103
 33
0.0
  0
SOLID
  5
389
330
38C
100
AcDbEntity
  8
0
  6
ByBlock
 62
     7
380
     1
100
AcDbTrace
 10
1650.236701244311
 20
1320.349389072103
 30
0.0
 11
1648.570034577644
 21
1330.349389072103
 31
0.0
 12
1651.903367910978
 22
1330.349389072103
 32
0.0
 13
1651.903367910978
 23
1330.349389072103
 33
0.0
  0
MTEXT
  5
38A
330
38C
100
AcDbEntity
  8
0
  6
ByBlock
 62
     0
370
    -2
380
     1
100
AcDbMText
 10
1638.236701244311
 20
1395.304389072103
 30
0.0
 40
14.0
 41
0.0
 71
     5
 72
     1
  1
150
 11
6.123031769111886E-17
 21
1.0
 31
0.0
 73
     1
 44
1.0
  0
ENDBLK
  5
3B8
330
38C
100
AcDbEntity
  8
0
100
AcDbBlockEnd
  0
ENDSEC
  0
SECTION
  2
ENTITIES
  0
LINE
  5
223
330
1F
100
AcDbEntity
  8
0
370
    60
100
AcDbLine
 10
1600.143977671131
 20
1470.259389072103
 30
0.0
 11
1526.322727671131
 21
1470.259389072103
 31
0.0
  0
LINE
  5
224
330
1F
100
AcDbEntity
  8
0
370
    60
100
AcDbLine
 10
1600.143977671131
 20
1320.349389072103
 30
0.0
 11
1526.322727671131
 21
1320.349389072103
 31
0.0
  0
LINE
  5
225
330
1F
100
AcDbEntity
  8
0
  6
BORDER
370
    25
100
AcDbLine
 10
1415.710657481131
 20
1395.304389072103
 30
0.0
 11
1629.478163961131
 21
1395.304389072103
 31
0.0
  0
LINE
  5
232
330
1F
100
AcDbEntity
  8
0
370
    60
100
AcDbLine
 10
1537.446477671131
 20
1320.349389072103
 30
0.0
 11
1537.446477671131
 21
1395.304389072103
 31
0.0
  0
LINE
  5
233
330
1F
100
AcDbEntity
  8
0
370
    60
100
AcDbLine
 10
1535.423977671131
 20
1320.349389072103
 30
0.0
 11
1535.423977671131
 21
1395.304389072103
 31
0.0
  0
LINE
  5
234
330
1F
100
AcDbEntity
  8
0
370
    60
100
AcDbLine
 10
1554.637727671131
 20
1320.349389072103
 30
0.0
 11
1554.637727671131
 21
1395.304389072103
 31
0.0
  0
LINE
  5
235
330
1F
100
AcDbEntity
  8
0
370
    60
100
AcDbLine
 10
1436.321477671131
 20
1336.129389072103
 30
0.0
 11
1436.321477671131
 21
1395.304389072103
 31
0.0
  0
LINE
  5
236
330
1F
100
AcDbEntity
  8
0
370
    60
100
AcDbLine
 10
1437.838352671131
 20
1366.703139072103
 30
0.0
 11
1437.838352671131
 21
1389.633451572103
 31
0.0
  0
LINE
  5
237
330
1F
100
AcDbEntity
  8
0
370
    60
100
AcDbLine
 10
1478.793977671131
 20
1320.349389072103
 30
0.0
 11
1478.793977671131
 21
1395.304389072103
 31
0.0
  0
LINE
  5
238
330
1F
100
AcDbEntity
  8
0
370
    60
100
AcDbLine
 10
1476.771477671131
 20
1320.349389072103
 30
0.0
 11
1476.771477671131
 21
1395.304389072103
 31
0.0
  0
LINE
  5
239
330
1F
100
AcDbEntity
  8
0
370
    60
100
AcDbLine
 10
1459.580227671131
 20
1320.349389072103
 30
0.0
 11
1459.580227671131
 21
1395.304389072103
 31
0.0
  0
LINE
  5
23A
330
1F
100
AcDbEntity
  8
0
370
    60
100
AcDbLine
 10
1457.557727671131
 20
1320.349389072103
 30
0.0
 11
1457.557727671131
 21
1395.304389072103
 31
0.0
  0
LINE
  5
23B
330
1F
100
AcDbEntity
  8
0
370
    60
100
AcDbLine
 10
1498.007727671131
 20
1320.349389072103
 30
0.0
 11
1498.007727671131
 21
1395.304389072103
 31
0.0
  0
LINE
  5
23C
330
1F
100
AcDbEntity
  8
0
370
    60
100
AcDbLine
 10
1495.985227671131
 20
1320.349389072103
 30
0.0
 11
1495.985227671131
 21
1395.304389072103
 31
0.0
  0
LINE
  5
23D
330
1F
100
AcDbEntity
  8
0
370
    60
100
AcDbLine
 10
1517.221477671131
 20
1320.349389072103
 30
0.0
 11
1517.221477671131
 21
1395.304389072103
 31
0.0
  0
LINE
  5
23E
330
1F
100
AcDbEntity
  8
0
370
    60
100
AcDbLine
 10
1515.198977671131
 20
1320.349389072103
 30
0.0
 11
1515.198977671131
 21
1395.304389072103
 31
0.0
  0
LINE
  5
23F
330
1F
100
AcDbEntity
  8
0
  6
BORDER
370
    25
100
AcDbLine
 10
1526.322727671131
 20
1479.263977812103
 30
0.0
 11
1526.322727671131
 21
1299.056330472103
 31
0.0
  0
LINE
  5
240
330
1F
100
AcDbEntity
  8
0
370
    60
100
AcDbLine
 10
1478.793977671131
 20
1345.005639072103
 30
0.0
 11
1495.985227671131
 21
1345.005639072103
 31
0.0
  0
LINE
  5
241
330
1F
100
AcDbEntity
  8
0
370
    60
100
AcDbLine
 10
1478.793977671131
 20
1346.978139072103
 30
0.0
 11
1495.985227671131
 21
1346.978139072103
 31
0.0
  0
LINE
  5
242
330
1F
100
AcDbEntity
  8
0
370
    60
100
AcDbLine
 10
1478.793977671131
 20
1364.730639072103
 30
0.0
 11
1495.985227671131
 21
1364.730639072103
 31
0.0
  0
LINE
  5
243
330
1F
100
AcDbEntity
  8
0
370
    60
100
AcDbLine
 10
1478.793977671131
 20
1366.703139072103
 30
0.0
 11
1495.985227671131
 21
1366.703139072103
 31
0.0
  0
LINE
  5
244
330
1F
100
AcDbEntity
  8
0
370
    60
100
AcDbLine
 10
1478.793977671131
 20
1321.828764072103
 30
0.0
 11
1495.985227671131
 21
1321.828764072103
 31
0.0
  0
LINE
  5
245
330
1F
100
AcDbEntity
  8
0
370
    60
100
AcDbLine
 10
1452.501477671131
 20
1320.349389072103
 30
0.0
 11
1526.322727671131
 21
1320.349389072103
 31
0.0
  0
LINE
  5
246
330
1F
100
AcDbEntity
  8
0
370
    60
100
AcDbLine
 10
1436.321477671131
 20
1345.005639072103
 30
0.0
 11
1457.557727671131
 21
1345.005639072103
 31
0.0
  0
LINE
  5
247
330
1F
100
AcDbEntity
  8
0
370
    60
100
AcDbLine
 10
1436.321477671131
 20
1346.978139072103
 30
0.0
 11
1457.557727671131
 21
1346.978139072103
 31
0.0
  0
LINE
  5
248
330
1F
100
AcDbEntity
  8
0
370
    60
100
AcDbLine
 10
1436.321477671131
 20
1364.730639072103
 30
0.0
 11
1457.557727671131
 21
1364.730639072103
 31
0.0
  0
LINE
  5
249
330
1F
100
AcDbEntity
  8
0
370
    60
100
AcDbLine
 10
1436.321477671131
 20
1366.703139072103
 30
0.0
 11
1457.557727671131
 21
1366.703139072103
 31
0.0
  0
LINE
  5
24A
330
1F
100
AcDbEntity
  8
0
370
    60
100
AcDbLine
 10
1452.501477671131
 20
1321.828764072103
 30
0.0
 11
1457.557727671131
 21
1321.828764072103
 31
0.0
  0
ELLIPSE
  5
24B
330
1F
100
AcDbEntity
  8
0
370
    60
100
AcDbEllipse
 10
1452.501477671131
 20
1336.129389072103
 30
0.0
 11
16.18
 21
0.0
 31
0.0
210
0.0
220
0.0
230
1.0
 40
0.9752781211372065
 41
3.141592653589793
 42
4.71238898038469
  0
ELLIPSE
  5
24C
330
1F
100
AcDbEntity
  8
0
370
    60
100
AcDbEllipse
 10
1452.501477671131
 20
1336.129389072103
 30
0.0
 11
14.663125
 21
0.0
 31
0.0
210
0.0
220
0.0
230
1.0
 40
0.9752781211372065
 41
3.141592653589793
 42
4.71238898038469
  0
LINE
  5
24D
330
1F
100
AcDbEntity
  8
0
370
    60
100
AcDbLine
 10
1437.838352671131
 20
1346.978139072103
 30
0.0
 11
1437.838352671131
 21
1364.730639072103
 31
0.0
  0
LINE
  5
24E
330
1F
100
AcDbEntity
  8
0
370
    60
100
AcDbLine
 10
1437.838352671131
 20
1336.129389072103
 30
0.0
 11
1437.838352671131
 21
1345.005639072103
 31
0.0
  0
LINE
  5
24F
330
1F
100
AcDbEntity
  8
0
370
    60
100
AcDbLine
 10
1459.580227671131
 20
1321.828764072103
 30
0.0
 11
1476.771477671131
 21
1321.828764072103
 31
0.0
  0
LINE
  5
250
330
1F
100
AcDbEntity
  8
0
370
    60
100
AcDbLine
 10
1459.580227671131
 20
1345.005639072103
 30
0.0
 11
1476.771477671131
 21
1345.005639072103
 31
0.0
  0
LINE
  5
251
330
1F
100
AcDbEntity
  8
0
370
    60
100
AcDbLine
 10
1459.580227671131
 20
1346.978139072103
 30
0.0
 11
1476.771477671131
 21
1346.978139072103
 31
0.0
  0
LINE
  5
252
330
1F
100
AcDbEntity
  8
0
370
    60
100
AcDbLine
 10
1459.580227671131
 20
1366.703139072103
 30
0.0
 11
1476.771477671131
 21
1366.703139072103
 31
0.0
  0
LINE
  5
253
330
1F
100
AcDbEntity
  8
0
370
    60
100
AcDbLine
 10
1459.580227671131
 20
1364.730639072103
 30
0.0
 11
1476.771477671131
 21
1364.730639072103
 31
0.0
  0
LINE
  5
254
330
1F
100
AcDbEntity
  8
0
370
    60
100
AcDbLine
 10
1517.221477671131
 20
1321.828764072103
 30
0.0
 11
1526.322727671131
 21
1321.828764072103
 31
0.0
  0
LINE
  5
255
330
1F
100
AcDbEntity
  8
0
370
    60
100
AcDbLine
 10
1517.221477671131
 20
1345.005639072103
 30
0.0
 11
1526.322727671131
 21
1345.005639072103
 31
0.0
  0
LINE
  5
256
330
1F
100
AcDbEntity
  8
0
370
    60
100
AcDbLine
 10
1517.221477671131
 20
1346.978139072103
 30
0.0
 11
1526.322727671131
 21
1346.978139072103
 31
0.0
  0
LINE
  5
257
330
1F
100
AcDbEntity
  8
0
370
    60
100
AcDbLine
 10
1517.221477671131
 20
1366.703139072103
 30
0.0
 11
1526.322727671131
 21
1366.703139072103
 31
0.0
  0
LINE
  5
258
330
1F
100
AcDbEntity
  8
0
370
    60
100
AcDbLine
 10
1517.221477671131
 20
1364.730639072103
 30
0.0
 11
1526.322727671131
 21
1364.730639072103
 31
0.0
  0
LINE
  5
259
330
1F
100
AcDbEntity
  8
0
370
    60
100
AcDbLine
 10
1498.007727671131
 20
1321.828764072103
 30
0.0
 11
1515.198977671131
 21
1321.828764072103
 31
0.0
  0
LINE
  5
25A
330
1F
100
AcDbEntity
  8
0
370
    60
100
AcDbLine
 10
1498.007727671131
 20
1366.703139072103
 30
0.0
 11
1515.198977671131
 21
1366.703139072103
 31
0.0
  0
LINE
  5
25B
330
1F
100
AcDbEntity
  8
0
370
    60
100
AcDbLine
 10
1498.007727671131
 20
1364.730639072103
 30
0.0
 11
1515.198977671131
 21
1364.730639072103
 31
0.0
  0
LINE
  5
25C
330
1F
100
AcDbEntity
  8
0
370
    60
100
AcDbLine
 10
1498.007727671131
 20
1345.005639072103
 30
0.0
 11
1515.198977671131
 21
1345.005639072103
 31
0.0
  0
LINE
  5
25D
330
1F
100
AcDbEntity
  8
0
370
    60
100
AcDbLine
 10
1498.007727671131
 20
1346.978139072103
 30
0.0
 11
1515.198977671131
 21
1346.978139072103
 31
0.0
  0
LINE
  5
25E
330
1F
100
AcDbEntity
  8
0
370
    60
100
AcDbLine
 10
1554.637727671131
 20
1321.828764072103
 30
0.0
 11
1537.446477671131
 21
1321.828764072103
 31
0.0
  0
LINE
  5
25F
330
1F
100
AcDbEntity
  8
0
370
    60
100
AcDbLine
 10
1535.423977671131
 20
1321.828764072103
 30
0.0
 11
1526.322727671131
 21
1321.828764072103
 31
0.0
  0
LINE
  5
260
330
1F
100
AcDbEntity
  8
0
370
    60
100
AcDbLine
 10
1554.637727671131
 20
1346.978139072103
 30
0.0
 11
1537.446477671131
 21
1346.978139072103
 31
0.0
  0
LINE
  5
261
330
1F
100
AcDbEntity
  8
0
370
    60
100
AcDbLine
 10
1554.637727671131
 20
1345.005639072103
 30
0.0
 11
1537.446477671131
 21
1345.005639072103
 31
0.0
  0
LINE
  5
262
330
1F
100
AcDbEntity
  8
0
370
    60
100
AcDbLine
 10
1554.637727671131
 20
1366.703139072103
 30
0.0
 11
1537.446477671131
 21
1366.703139072103
 31
0.0
  0
LINE
  5
263
330
1F
100
AcDbEntity
  8
0
370
    60
100
AcDbLine
 10
1554.637727671131
 20
1364.730639072103
 30
0.0
 11
1537.446477671131
 21
1364.730639072103
 31
0.0
  0
LINE
  5
264
330
1F
100
AcDbEntity
  8
0
370
    60
100
AcDbLine
 10
1535.423977671131
 20
1346.978139072103
 30
0.0
 11
1526.322727671131
 21
1346.978139072103
 31
0.0
  0
LINE
  5
265
330
1F
100
AcDbEntity
  8
0
370
    60
100
AcDbLine
 10
1535.423977671131
 20
1345.005639072103
 30
0.0
 11
1526.322727671131
 21
1345.005639072103
 31
0.0
  0
LINE
  5
266
330
1F
100
AcDbEntity
  8
0
370
    60
100
AcDbLine
 10
1535.423977671131
 20
1366.703139072103
 30
0.0
 11
1526.322727671131
 21
1366.703139072103
 31
0.0
  0
LINE
  5
267
330
1F
100
AcDbEntity
  8
0
370
    60
100
AcDbLine
 10
1535.423977671131
 20
1364.730639072103
 30
0.0
 11
1526.322727671131
 21
1364.730639072103
 31
0.0
  0
LINE
  5
268
330
1F
100
AcDbEntity
  8
0
370
    60
100
AcDbLine
 10
1478.793977671131
 20
1443.630639072103
 30
0.0
 11
1495.985227671131
 21
1443.630639072103
 31
0.0
  0
LINE
  5
269
330
1F
100
AcDbEntity
  8
0
370
    60
100
AcDbLine
 10
1478.793977671131
 20
1445.603139072103
 30
0.0
 11
1495.985227671131
 21
1445.603139072103
 31
0.0
  0
LINE
  5
26A
330
1F
100
AcDbEntity
  8
0
370
    60
100
AcDbLine
 10
1478.793977671131
 20
1468.780014072103
 30
0.0
 11
1495.985227671131
 21
1468.780014072103
 31
0.0
  0
LINE
  5
26B
330
1F
100
AcDbEntity
  8
0
370
    60
100
AcDbLine
 10
1478.793977671131
 20
1404.180639072103
 30
0.0
 11
1495.985227671131
 21
1404.180639072103
 31
0.0
  0
LINE
  5
26C
330
1F
100
AcDbEntity
  8
0
370
    60
100
AcDbLine
 10
1478.793977671131
 20
1406.153139072103
 30
0.0
 11
1495.985227671131
 21
1406.153139072103
 31
0.0
  0
LINE
  5
26D
330
1F
100
AcDbEntity
  8
0
370
    60
100
AcDbLine
 10
1478.793977671131
 20
1423.905639072103
 30
0.0
 11
1495.985227671131
 21
1423.905639072103
 31
0.0
  0
LINE
  5
26E
330
1F
100
AcDbEntity
  8
0
370
    60
100
AcDbLine
 10
1478.793977671131
 20
1425.878139072103
 30
0.0
 11
1495.985227671131
 21
1425.878139072103
 31
0.0
  0
LINE
  5
26F
330
1F
100
AcDbEntity
  8
0
370
    60
100
AcDbLine
 10
1478.793977671131
 20
1384.455639072103
 30
0.0
 11
1495.985227671131
 21
1384.455639072103
 31
0.0
  0
LINE
  5
270
330
1F
100
AcDbEntity
  8
0
370
    60
100
AcDbLine
 10
1478.793977671131
 20
1386.428139072103
 30
0.0
 11
1495.985227671131
 21
1386.428139072103
 31
0.0
  0
LINE
  5
271
330
1F
100
AcDbEntity
  8
0
370
    60
100
AcDbLine
 10
1452.501477671131
 20
1470.259389072103
 30
0.0
 11
1526.322727671131
 21
1470.259389072103
 31
0.0
  0
LINE
  5
272
330
1F
100
AcDbEntity
  8
0
370
    60
100
AcDbLine
 10
1476.771477671131
 20
1470.259389072103
 30
0.0
 11
1476.771477671131
 21
1395.304389072103
 31
0.0
  0
LINE
  5
273
330
1F
100
AcDbEntity
  8
0
370
    60
100
AcDbLine
 10
1478.793977671131
 20
1470.259389072103
 30
0.0
 11
1478.793977671131
 21
1395.304389072103
 31
0.0
  0
ELLIPSE
  5
274
330
1F
100
AcDbEntity
  8
0
370
    60
100
AcDbEllipse
 10
1452.501477671131
 20
1454.479389072103
 30
0.0
 11
14.663125
 21
0.0
 31
0.0
210
0.0
220
0.0
230
1.0
 40
0.9752781211372065
 41
1.570796326794897
 42
3.141592653589793
  0
ELLIPSE
  5
275
330
1F
100
AcDbEntity
  8
0
370
    60
100
AcDbEllipse
 10
1452.501477671131
 20
1454.479389072103
 30
0.0
 11
16.18
 21
0.0
 31
0.0
210
0.0
220
0.0
230
1.0
 40
0.9752781211372065
 41
1.570796326794897
 42
3.141592653589793
  0
LINE
  5
276
330
1F
100
AcDbEntity
  8
0
370
    60
100
AcDbLine
 10
1457.557727671131
 20
1470.259389072103
 30
0.0
 11
1457.557727671131
 21
1395.304389072103
 31
0.0
  0
LINE
  5
277
330
1F
100
AcDbEntity
  8
0
370
    60
100
AcDbLine
 10
1459.580227671131
 20
1470.259389072103
 30
0.0
 11
1459.580227671131
 21
1395.304389072103
 31
0.0
  0
LINE
  5
278
330
1F
100
AcDbEntity
  8
0
370
    60
100
AcDbLine
 10
1436.321477671131
 20
1443.630639072103
 30
0.0
 11
1457.557727671131
 21
1443.630639072103
 31
0.0
  0
LINE
  5
279
330
1F
100
AcDbEntity
  8
0
370
    60
100
AcDbLine
 10
1436.321477671131
 20
1445.603139072103
 30
0.0
 11
1457.557727671131
 21
1445.603139072103
 31
0.0
  0
LINE
  5
27A
330
1F
100
AcDbEntity
  8
0
370
    60
100
AcDbLine
 10
1436.321477671131
 20
1400.975326572103
 30
0.0
 11
1456.546477671131
 21
1400.975326572103
 31
0.0
  0
LINE
  5
27B
330
1F
100
AcDbEntity
  8
0
370
    60
100
AcDbLine
 10
1436.321477671131
 20
1399.002826572103
 30
0.0
 11
1456.546477671131
 21
1399.002826572103
 31
0.0
  0
LINE
  5
27C
330
1F
100
AcDbEntity
  8
0
370
    60
100
AcDbLine
 10
1436.321477671131
 20
1391.605951572103
 30
0.0
 11
1456.546477671131
 21
1391.605951572103
 31
0.0
  0
LINE
  5
27D
330
1F
100
AcDbEntity
  8
0
370
    60
100
AcDbLine
 10
1436.321477671131
 20
1389.633451572103
 30
0.0
 11
1456.546477671131
 21
1389.633451572103
 31
0.0
  0
LINE
  5
27E
330
1F
100
AcDbEntity
  8
0
370
    60
100
AcDbLine
 10
1436.321477671131
 20
1423.905639072103
 30
0.0
 11
1457.557727671131
 21
1423.905639072103
 31
0.0
  0
LINE
  5
27F
330
1F
100
AcDbEntity
  8
0
370
    60
100
AcDbLine
 10
1436.321477671131
 20
1425.878139072103
 30
0.0
 11
1457.557727671131
 21
1425.878139072103
 31
0.0
  0
LINE
  5
280
330
1F
100
AcDbEntity
  8
0
370
    60
100
AcDbLine
 10
1437.838352671131
 20
1423.905639072103
 30
0.0
 11
1437.838352671131
 21
1400.975326572103
 31
0.0
  0
LINE
  5
281
330
1F
100
AcDbEntity
  8
0
370
    60
100
AcDbLine
 10
1436.321477671131
 20
1454.479389072103
 30
0.0
 11
1436.321477671131
 21
1395.304389072103
 31
0.0
  0
LINE
  5
282
330
1F
100
AcDbEntity
  8
0
370
    60
100
AcDbLine
 10
1437.838352671131
 20
1399.002826572103
 30
0.0
 11
1437.838352671131
 21
1395.304389072103
 31
0.0
  0
LINE
  5
283
330
1F
100
AcDbEntity
  8
0
370
    60
100
AcDbLine
 10
1437.838352671131
 20
1391.605951572103
 30
0.0
 11
1437.838352671131
 21
1395.304389072103
 31
0.0
  0
LINE
  5
284
330
1F
100
AcDbEntity
  8
0
370
    60
100
AcDbLine
 10
1437.838352671131
 20
1443.630639072103
 30
0.0
 11
1437.838352671131
 21
1425.878139072103
 31
0.0
  0
LINE
  5
285
330
1F
100
AcDbEntity
  8
0
370
    60
100
AcDbLine
 10
1437.838352671131
 20
1454.479389072103
 30
0.0
 11
1437.838352671131
 21
1445.603139072103
 31
0.0
  0
LINE
  5
286
330
1F
100
AcDbEntity
  8
0
370
    60
100
AcDbLine
 10
1460.591477671131
 20
1404.180639072103
 30
0.0
 11
1476.771477671131
 21
1404.180639072103
 31
0.0
  0
LINE
  5
287
330
1F
100
AcDbEntity
  8
0
370
    60
100
AcDbLine
 10
1460.591477671131
 20
1406.153139072103
 30
0.0
 11
1476.771477671131
 21
1406.153139072103
 31
0.0
  0
LINE
  5
288
330
1F
100
AcDbEntity
  8
0
370
    60
100
AcDbLine
 10
1460.591477671131
 20
1384.455639072103
 30
0.0
 11
1476.771477671131
 21
1384.455639072103
 31
0.0
  0
LINE
  5
289
330
1F
100
AcDbEntity
  8
0
370
    60
100
AcDbLine
 10
1460.591477671131
 20
1386.428139072103
 30
0.0
 11
1476.771477671131
 21
1386.428139072103
 31
0.0
  0
ELLIPSE
  5
28A
330
1F
100
AcDbEntity
  8
0
370
    60
100
AcDbEllipse
 10
1456.546477671131
 20
1388.647201572103
 30
0.0
 11
1.01125
 21
0.0
 31
0.0
210
0.0
220
0.0
230
1.0
 40
0.9752781211372065
 41
0.0
 42
1.570796326794897
  0
ELLIPSE
  5
28B
330
1F
100
AcDbEntity
  8
0
370
    60
100
AcDbEllipse
 10
1456.546477671131
 20
1390.619701572103
 30
0.0
 11
1.01125
 21
0.0
 31
0.0
210
0.0
220
0.0
230
1.0
 40
0.9752781211372065
 41
0.0
 42
1.570796326794897
  0
ELLIPSE
  5
28C
330
1F
100
AcDbEntity
  8
0
370
    60
100
AcDbEllipse
 10
1460.591477671131
 20
1385.441889072103
 30
0.0
 11
1.01125
 21
0.0
 31
0.0
210
0.0
220
0.0
230
1.0
 40
0.9752781211372065
 41
3.141592653589793
 42
4.71238898038469
  0
ELLIPSE
  5
28D
330
1F
100
AcDbEntity
  8
0
370
    60
100
AcDbEllipse
 10
1460.591477671131
 20
1387.414389072103
 30
0.0
 11
1.01125
 21
0.0
 31
0.0
210
0.0
220
0.0
230
1.0
 40
0.9752781211372065
 41
3.141592653589793
 42
4.71238898038469
  0
ELLIPSE
  5
28E
330
1F
100
AcDbEntity
  8
0
370
    60
100
AcDbEllipse
 10
1460.591477671131
 20
1403.194389072103
 30
0.0
 11
1.01125
 21
0.0
 31
0.0
210
0.0
220
0.0
230
1.0
 40
0.9752781211372065
 41
1.570796326794897
 42
3.141592653589793
  0
ELLIPSE
  5
28F
330
1F
100
AcDbEntity
  8
0
370
    60
100
AcDbEllipse
 10
1460.591477671131
 20
1405.166889072103
 30
0.0
 11
1.01125
 21
0.0
 31
0.0
210
0.0
220
0.0
230
1.0
 40
0.9752781211372065
 41
1.570796326794897
 42
3.141592653589793
  0
ELLIPSE
  5
290
330
1F
100
AcDbEntity
  8
0
370
    60
100
AcDbEllipse
 10
1456.546477671131
 20
1401.961576572103
 30
0.0
 11
1.01125
 21
0.0
 31
0.0
210
0.0
220
0.0
230
1.0
 40
0.9752781211372065
 41
4.71238898038469
 42
6.283185307179586
  0
ELLIPSE
  5
291
330
1F
100
AcDbEntity
  8
0
370
    60
100
AcDbEllipse
 10
1456.546477671131
 20
1399.989076572103
 30
0.0
 11
1.01125
 21
0.0
 31
0.0
210
0.0
220
0.0
230
1.0
 40
0.9752781211372065
 41
4.71238898038469
 42
6.283185307179586
  0
LINE
  5
292
330
1F
100
AcDbEntity
  8
0
370
    60
100
AcDbLine
 10
1459.580227671131
 20
1425.878139072103
 30
0.0
 11
1476.771477671131
 21
1425.878139072103
 31
0.0
  0
LINE
  5
293
330
1F
100
AcDbEntity
  8
0
370
    60
100
AcDbLine
 10
1459.580227671131
 20
1423.905639072103
 30
0.0
 11
1476.771477671131
 21
1423.905639072103
 31
0.0
  0
LINE
  5
294
330
1F
100
AcDbEntity
  8
0
370
    60
100
AcDbLine
 10
1459.580227671131
 20
1443.630639072103
 30
0.0
 11
1476.771477671131
 21
1443.630639072103
 31
0.0
  0
LINE
  5
295
330
1F
100
AcDbEntity
  8
0
370
    60
100
AcDbLine
 10
1459.580227671131
 20
1445.603139072103
 30
0.0
 11
1476.771477671131
 21
1445.603139072103
 31
0.0
  0
LINE
  5
296
330
1F
100
AcDbEntity
  8
0
370
    60
100
AcDbLine
 10
1452.501477671131
 20
1468.780014072103
 30
0.0
 11
1457.557727671131
 21
1468.780014072103
 31
0.0
  0
LINE
  5
297
330
1F
100
AcDbEntity
  8
0
370
    60
100
AcDbLine
 10
1459.580227671131
 20
1468.780014072103
 30
0.0
 11
1476.771477671131
 21
1468.780014072103
 31
0.0
  0
LINE
  5
298
330
1F
100
AcDbEntity
  8
0
370
    60
100
AcDbLine
 10
1535.423977671131
 20
1470.259389072103
 30
0.0
 11
1535.423977671131
 21
1395.304389072103
 31
0.0
  0
LINE
  5
299
330
1F
100
AcDbEntity
  8
0
370
    60
100
AcDbLine
 10
1554.637727671131
 20
1470.259389072103
 30
0.0
 11
1554.637727671131
 21
1395.304389072103
 31
0.0
  0
LINE
  5
29A
330
1F
100
AcDbEntity
  8
0
370
    60
100
AcDbLine
 10
1537.446477671131
 20
1470.259389072103
 30
0.0
 11
1537.446477671131
 21
1395.304389072103
 31
0.0
  0
LINE
  5
29B
330
1F
100
AcDbEntity
  8
0
370
    60
100
AcDbLine
 10
1515.198977671131
 20
1470.259389072103
 30
0.0
 11
1515.198977671131
 21
1395.304389072103
 31
0.0
  0
LINE
  5
29C
330
1F
100
AcDbEntity
  8
0
370
    60
100
AcDbLine
 10
1495.985227671131
 20
1470.259389072103
 30
0.0
 11
1495.985227671131
 21
1395.304389072103
 31
0.0
  0
LINE
  5
29D
330
1F
100
AcDbEntity
  8
0
370
    60
100
AcDbLine
 10
1498.007727671131
 20
1470.259389072103
 30
0.0
 11
1498.007727671131
 21
1395.304389072103
 31
0.0
  0
LINE
  5
29E
330
1F
100
AcDbEntity
  8
0
370
    60
100
AcDbLine
 10
1517.221477671131
 20
1470.259389072103
 30
0.0
 11
1517.221477671131
 21
1395.304389072103
 31
0.0
  0
LINE
  5
29F
330
1F
100
AcDbEntity
  8
0
370
    60
100
AcDbLine
 10
1517.221477671131
 20
1384.455639072103
 30
0.0
 11
1526.322727671131
 21
1384.455639072103
 31
0.0
  0
LINE
  5
2A0
330
1F
100
AcDbEntity
  8
0
370
    60
100
AcDbLine
 10
1517.221477671131
 20
1404.180639072103
 30
0.0
 11
1526.322727671131
 21
1404.180639072103
 31
0.0
  0
LINE
  5
2A1
330
1F
100
AcDbEntity
  8
0
370
    60
100
AcDbLine
 10
1517.221477671131
 20
1406.153139072103
 30
0.0
 11
1526.322727671131
 21
1406.153139072103
 31
0.0
  0
LINE
  5
2A2
330
1F
100
AcDbEntity
  8
0
370
    60
100
AcDbLine
 10
1517.221477671131
 20
1386.428139072103
 30
0.0
 11
1526.322727671131
 21
1386.428139072103
 31
0.0
  0
LINE
  5
2A3
330
1F
100
AcDbEntity
  8
0
370
    60
100
AcDbLine
 10
1517.221477671131
 20
1425.878139072103
 30
0.0
 11
1526.322727671131
 21
1425.878139072103
 31
0.0
  0
LINE
  5
2A4
330
1F
100
AcDbEntity
  8
0
370
    60
100
AcDbLine
 10
1517.221477671131
 20
1423.905639072103
 30
0.0
 11
1526.322727671131
 21
1423.905639072103
 31
0.0
  0
LINE
  5
2A5
330
1F
100
AcDbEntity
  8
0
370
    60
100
AcDbLine
 10
1517.221477671131
 20
1443.630639072103
 30
0.0
 11
1526.322727671131
 21
1443.630639072103
 31
0.0
  0
LINE
  5
2A6
330
1F
100
AcDbEntity
  8
0
370
    60
100
AcDbLine
 10
1517.221477671131
 20
1445.603139072103
 30
0.0
 11
1526.322727671131
 21
1445.603139072103
 31
0.0
  0
LINE
  5
2A7
330
1F
100
AcDbEntity
  8
0
370
    60
100
AcDbLine
 10
1498.007727671131
 20
1404.180639072103
 30
0.0
 11
1515.198977671131
 21
1404.180639072103
 31
0.0
  0
LINE
  5
2A8
330
1F
100
AcDbEntity
  8
0
370
    60
100
AcDbLine
 10
1498.007727671131
 20
1406.153139072103
 30
0.0
 11
1515.198977671131
 21
1406.153139072103
 31
0.0
  0
LINE
  5
2A9
330
1F
100
AcDbEntity
  8
0
370
    60
100
AcDbLine
 10
1498.007727671131
 20
1384.455639072103
 30
0.0
 11
1515.198977671131
 21
1384.455639072103
 31
0.0
  0
LINE
  5
2AA
330
1F
100
AcDbEntity
  8
0
370
    60
100
AcDbLine
 10
1498.007727671131
 20
1386.428139072103
 30
0.0
 11
1515.198977671131
 21
1386.428139072103
 31
0.0
  0
LINE
  5
2AB
330
1F
100
AcDbEntity
  8
0
370
    60
100
AcDbLine
 10
1498.007727671131
 20
1443.630639072103
 30
0.0
 11
1515.198977671131
 21
1443.630639072103
 31
0.0
  0
LINE
  5
2AC
330
1F
100
AcDbEntity
  8
0
370
    60
100
AcDbLine
 10
1498.007727671131
 20
1445.603139072103
 30
0.0
 11
1515.198977671131
 21
1445.603139072103
 31
0.0
  0
LINE
  5
2AD
330
1F
100
AcDbEntity
  8
0
370
    60
100
AcDbLine
 10
1498.007727671131
 20
1425.878139072103
 30
0.0
 11
1515.198977671131
 21
1425.878139072103
 31
0.0
  0
LINE
  5
2AE
330
1F
100
AcDbEntity
  8
0
370
    60
100
AcDbLine
 10
1498.007727671131
 20
1423.905639072103
 30
0.0
 11
1515.198977671131
 21
1423.905639072103
 31
0.0
  0
LINE
  5
2AF
330
1F
100
AcDbEntity
  8
0
370
    60
100
AcDbLine
 10
1554.637727671131
 20
1406.153139072103
 30
0.0
 11
1537.446477671131
 21
1406.153139072103
 31
0.0
  0
LINE
  5
2B0
330
1F
100
AcDbEntity
  8
0
370
    60
100
AcDbLine
 10
1554.637727671131
 20
1404.180639072103
 30
0.0
 11
1537.446477671131
 21
1404.180639072103
 31
0.0
  0
LINE
  5
2B1
330
1F
100
AcDbEntity
  8
0
370
    60
100
AcDbLine
 10
1554.637727671131
 20
1386.428139072103
 30
0.0
 11
1537.446477671131
 21
1386.428139072103
 31
0.0
  0
LINE
  5
2B2
330
1F
100
AcDbEntity
  8
0
370
    60
100
AcDbLine
 10
1554.637727671131
 20
1384.455639072103
 30
0.0
 11
1537.446477671131
 21
1384.455639072103
 31
0.0
  0
LINE
  5
2B3
330
1F
100
AcDbEntity
  8
0
370
    60
100
AcDbLine
 10
1535.423977671131
 20
1386.428139072103
 30
0.0
 11
1526.322727671131
 21
1386.428139072103
 31
0.0
  0
LINE
  5
2B4
330
1F
100
AcDbEntity
  8
0
370
    60
100
AcDbLine
 10
1535.423977671131
 20
1384.455639072103
 30
0.0
 11
1526.322727671131
 21
1384.455639072103
 31
0.0
  0
LINE
  5
2B5
330
1F
100
AcDbEntity
  8
0
370
    60
100
AcDbLine
 10
1535.423977671131
 20
1406.153139072103
 30
0.0
 11
1526.322727671131
 21
1406.153139072103
 31
0.0
  0
LINE
  5
2B6
330
1F
100
AcDbEntity
  8
0
370
    60
100
AcDbLine
 10
1535.423977671131
 20
1404.180639072103
 30
0.0
 11
1526.322727671131
 21
1404.180639072103
 31
0.0
  0
LINE
  5
2B7
330
1F
100
AcDbEntity
  8
0
370
    60
100
AcDbLine
 10
1554.637727671131
 20
1445.603139072103
 30
0.0
 11
1537.446477671131
 21
1445.603139072103
 31
0.0
  0
LINE
  5
2B8
330
1F
100
AcDbEntity
  8
0
370
    60
100
AcDbLine
 10
1554.637727671131
 20
1443.630639072103
 30
0.0
 11
1537.446477671131
 21
1443.630639072103
 31
0.0
  0
LINE
  5
2B9
330
1F
100
AcDbEntity
  8
0
370
    60
100
AcDbLine
 10
1554.637727671131
 20
1423.905639072103
 30
0.0
 11
1537.446477671131
 21
1423.905639072103
 31
0.0
  0
LINE
  5
2BA
330
1F
100
AcDbEntity
  8
0
370
    60
100
AcDbLine
 10
1554.637727671131
 20
1425.878139072103
 30
0.0
 11
1537.446477671131
 21
1425.878139072103
 31
0.0
  0
LINE
  5
2BB
330
1F
100
AcDbEntity
  8
0
370
    60
100
AcDbLine
 10
1535.423977671131
 20
1443.630639072103
 30
0.0
 11
1526.322727671131
 21
1443.630639072103
 31
0.0
  0
LINE
  5
2BC
330
1F
100
AcDbEntity
  8
0
370
    60
100
AcDbLine
 10
1535.423977671131
 20
1423.905639072103
 30
0.0
 11
1526.322727671131
 21
1423.905639072103
 31
0.0
  0
LINE
  5
2BD
330
1F
100
AcDbEntity
  8
0
370
    60
100
AcDbLine
 10
1535.423977671131
 20
1425.878139072103
 30
0.0
 11
1526.322727671131
 21
1425.878139072103
 31
0.0
  0
LINE
  5
2BE
330
1F
100
AcDbEntity
  8
0
370
    60
100
AcDbLine
 10
1535.423977671131
 20
1445.603139072103
 30
0.0
 11
1526.322727671131
 21
1445.603139072103
 31
0.0
  0
LINE
  5
2BF
330
1F
100
AcDbEntity
  8
0
370
    60
100
AcDbLine
 10
1517.221477671131
 20
1468.780014072103
 30
0.0
 11
1526.322727671131
 21
1468.780014072103
 31
0.0
  0
LINE
  5
2C0
330
1F
100
AcDbEntity
  8
0
370
    60
100
AcDbLine
 10
1498.007727671131
 20
1468.780014072103
 30
0.0
 11
1515.198977671131
 21
1468.780014072103
 31
0.0
  0
LINE
  5
2C1
330
1F
100
AcDbEntity
  8
0
370
    60
100
AcDbLine
 10
1554.637727671131
 20
1468.780014072103
 30
0.0
 11
1537.446477671131
 21
1468.780014072103
 31
0.0
  0
LINE
  5
2C2
330
1F
100
AcDbEntity
  8
0
370
    60
100
AcDbLine
 10
1535.423977671131
 20
1468.780014072103
 30
0.0
 11
1526.322727671131
 21
1468.780014072103
 31
0.0
  0
LINE
  5
2C3
330
1F
100
AcDbEntity
  8
0
370
    60
100
AcDbLine
 10
1616.323977671131
 20
1336.129389072103
 30
0.0
 11
1616.323977671131
 21
1395.304389072103
 31
0.0
  0
LINE
  5
2C4
330
1F
100
AcDbEntity
  8
0
370
    60
100
AcDbLine
 10
1614.807102671131
 20
1366.703139072103
 30
0.0
 11
1614.807102671131
 21
1389.633451572103
 31
0.0
  0
LINE
  5
2C5
330
1F
100
AcDbEntity
  8
0
370
    60
100
AcDbLine
 10
1575.873977671131
 20
1320.349389072103
 30
0.0
 11
1575.873977671131
 21
1395.304389072103
 31
0.0
  0
LINE
  5
2C6
330
1F
100
AcDbEntity
  8
0
370
    60
100
AcDbLine
 10
1573.851477671131
 20
1320.349389072103
 30
0.0
 11
1573.851477671131
 21
1395.304389072103
 31
0.0
  0
LINE
  5
2C7
330
1F
100
AcDbEntity
  8
0
370
    60
100
AcDbLine
 10
1556.660227671131
 20
1320.349389072103
 30
0.0
 11
1556.660227671131
 21
1395.304389072103
 31
0.0
  0
LINE
  5
2C8
330
1F
100
AcDbEntity
  8
0
370
    60
100
AcDbLine
 10
1595.087727671131
 20
1320.349389072103
 30
0.0
 11
1595.087727671131
 21
1395.304389072103
 31
0.0
  0
LINE
  5
2C9
330
1F
100
AcDbEntity
  8
0
370
    60
100
AcDbLine
 10
1593.065227671131
 20
1320.349389072103
 30
0.0
 11
1593.065227671131
 21
1395.304389072103
 31
0.0
  0
LINE
  5
2D6
330
1F
100
AcDbEntity
  8
0
370
    60
100
AcDbLine
 10
1593.065227671131
 20
1364.730639072103
 30
0.0
 11
1575.873977671131
 21
1364.730639072103
 31
0.0
  0
LINE
  5
2D7
330
1F
100
AcDbEntity
  8
0
370
    60
100
AcDbLine
 10
1593.065227671131
 20
1346.978139072103
 30
0.0
 11
1575.873977671131
 21
1346.978139072103
 31
0.0
  0
LINE
  5
2D8
330
1F
100
AcDbEntity
  8
0
370
    60
100
AcDbLine
 10
1593.065227671131
 20
1345.005639072103
 30
0.0
 11
1575.873977671131
 21
1345.005639072103
 31
0.0
  0
LINE
  5
2D9
330
1F
100
AcDbEntity
  8
0
370
    60
100
AcDbLine
 10
1593.065227671131
 20
1366.703139072103
 30
0.0
 11
1575.873977671131
 21
1366.703139072103
 31
0.0
  0
LINE
  5
2DA
330
1F
100
AcDbEntity
  8
0
370
    60
100
AcDbLine
 10
1593.065227671131
 20
1321.828764072103
 30
0.0
 11
1575.873977671131
 21
1321.828764072103
 31
0.0
  0
LINE
  5
2DB
330
1F
100
AcDbEntity
  8
0
370
    60
100
AcDbLine
 10
1573.851477671131
 20
1321.828764072103
 30
0.0
 11
1556.660227671131
 21
1321.828764072103
 31
0.0
  0
LINE
  5
2DC
330
1F
100
AcDbEntity
  8
0
370
    60
100
AcDbLine
 10
1573.851477671131
 20
1346.978139072103
 30
0.0
 11
1556.660227671131
 21
1346.978139072103
 31
0.0
  0
LINE
  5
2DD
330
1F
100
AcDbEntity
  8
0
370
    60
100
AcDbLine
 10
1573.851477671131
 20
1345.005639072103
 30
0.0
 11
1556.660227671131
 21
1345.005639072103
 31
0.0
  0
LINE
  5
2DE
330
1F
100
AcDbEntity
  8
0
370
    60
100
AcDbLine
 10
1573.851477671131
 20
1366.703139072103
 30
0.0
 11
1556.660227671131
 21
1366.703139072103
 31
0.0
  0
LINE
  5
2DF
330
1F
100
AcDbEntity
  8
0
370
    60
100
AcDbLine
 10
1573.851477671131
 20
1364.730639072103
 30
0.0
 11
1556.660227671131
 21
1364.730639072103
 31
0.0
  0
ELLIPSE
  5
2E0
330
1F
100
AcDbEntity
  8
0
370
    60
100
AcDbEllipse
 10
1600.143977671131
 20
1336.129389072103
 30
0.0
 11
14.663125
 21
0.0
 31
0.0
210
0.0
220
0.0
230
1.0
 40
0.9752781211372065
 41
4.71238898038469
 42
6.283185307179586
  0
ELLIPSE
  5
2E1
330
1F
100
AcDbEntity
  8
0
370
    60
100
AcDbEllipse
 10
1600.143977671131
 20
1336.129389072103
 30
0.0
 11
16.18
 21
0.0
 31
0.0
210
0.0
220
0.0
230
1.0
 40
0.9752781211372065
 41
4.71238898038469
 42
6.283185307179586
  0
LINE
  5
2E2
330
1F
100
AcDbEntity
  8
0
370
    60
100
AcDbLine
 10
1600.143977671131
 20
1321.828764072103
 30
0.0
 11
1595.087727671131
 21
1321.828764072103
 31
0.0
  0
LINE
  5
2E3
330
1F
100
AcDbEntity
  8
0
370
    60
100
AcDbLine
 10
1616.323977671131
 20
1346.978139072103
 30
0.0
 11
1595.087727671131
 21
1346.978139072103
 31
0.0
  0
LINE
  5
2E4
330
1F
100
AcDbEntity
  8
0
370
    60
100
AcDbLine
 10
1616.323977671131
 20
1345.005639072103
 30
0.0
 11
1595.087727671131
 21
1345.005639072103
 31
0.0
  0
LINE
  5
2E5
330
1F
100
AcDbEntity
  8
0
370
    60
100
AcDbLine
 10
1616.323977671131
 20
1366.703139072103
 30
0.0
 11
1595.087727671131
 21
1366.703139072103
 31
0.0
  0
LINE
  5
2E6
330
1F
100
AcDbEntity
  8
0
370
    60
100
AcDbLine
 10
1616.323977671131
 20
1364.730639072103
 30
0.0
 11
1595.087727671131
 21
1364.730639072103
 31
0.0
  0
LINE
  5
2E7
330
1F
100
AcDbEntity
  8
0
370
    60
100
AcDbLine
 10
1614.807102671131
 20
1346.978139072103
 30
0.0
 11
1614.807102671131
 21
1364.730639072103
 31
0.0
  0
LINE
  5
2E8
330
1F
100
AcDbEntity
  8
0
370
    60
100
AcDbLine
 10
1614.807102671131
 20
1336.129389072103
 30
0.0
 11
1614.807102671131
 21
1345.005639072103
 31
0.0
  0
LINE
  5
2E9
330
1F
100
AcDbEntity
  8
0
370
    60
100
AcDbLine
 10
1573.851477671131
 20
1470.259389072103
 30
0.0
 11
1573.851477671131
 21
1395.304389072103
 31
0.0
  0
LINE
  5
2EA
330
1F
100
AcDbEntity
  8
0
370
    60
100
AcDbLine
 10
1575.873977671131
 20
1470.259389072103
 30
0.0
 11
1575.873977671131
 21
1395.304389072103
 31
0.0
  0
LINE
  5
2EB
330
1F
100
AcDbEntity
  8
0
370
    60
100
AcDbLine
 10
1593.065227671131
 20
1470.259389072103
 30
0.0
 11
1593.065227671131
 21
1395.304389072103
 31
0.0
  0
LINE
  5
2EC
330
1F
100
AcDbEntity
  8
0
370
    60
100
AcDbLine
 10
1595.087727671131
 20
1470.259389072103
 30
0.0
 11
1595.087727671131
 21
1395.304389072103
 31
0.0
  0
LINE
  5
2ED
330
1F
100
AcDbEntity
  8
0
370
    60
100
AcDbLine
 10
1556.660227671131
 20
1470.259389072103
 30
0.0
 11
1556.660227671131
 21
1395.304389072103
 31
0.0
  0
ELLIPSE
  5
2EE
330
1F
100
AcDbEntity
  8
0
370
    60
100
AcDbEllipse
 10
1600.143977671131
 20
1454.479389072103
 30
0.0
 11
16.18
 21
0.0
 31
0.0
210
0.0
220
0.0
230
1.0
 40
0.9752781211372065
 41
0.0
 42
1.570796326794897
  0
ELLIPSE
  5
2EF
330
1F
100
AcDbEntity
  8
0
370
    60
100
AcDbEllipse
 10
1600.143977671131
 20
1454.479389072103
 30
0.0
 11
14.663125
 21
0.0
 31
0.0
210
0.0
220
0.0
230
1.0
 40
0.9752781211372065
 41
0.0
 42
1.570796326794897
  0
LINE
  5
2F0
330
1F
100
AcDbEntity
  8
0
370
    60
100
AcDbLine
 10
1593.065227671131
 20
1445.603139072103
 30
0.0
 11
1575.873977671131
 21
1445.603139072103
 31
0.0
  0
LINE
  5
2F1
330
1F
100
AcDbEntity
  8
0
370
    60
100
AcDbLine
 10
1593.065227671131
 20
1443.630639072103
 30
0.0
 11
1575.873977671131
 21
1443.630639072103
 31
0.0
  0
LINE
  5
2F2
330
1F
100
AcDbEntity
  8
0
370
    60
100
AcDbLine
 10
1593.065227671131
 20
1423.905639072103
 30
0.0
 11
1575.873977671131
 21
1423.905639072103
 31
0.0
  0
LINE
  5
2F3
330
1F
100
AcDbEntity
  8
0
370
    60
100
AcDbLine
 10
1593.065227671131
 20
1425.878139072103
 30
0.0
 11
1575.873977671131
 21
1425.878139072103
 31
0.0
  0
LINE
  5
2F4
330
1F
100
AcDbEntity
  8
0
370
    60
100
AcDbLine
 10
1592.053977671131
 20
1406.153139072103
 30
0.0
 11
1575.873977671131
 21
1406.153139072103
 31
0.0
  0
LINE
  5
2F5
330
1F
100
AcDbEntity
  8
0
370
    60
100
AcDbLine
 10
1592.053977671131
 20
1404.180639072103
 30
0.0
 11
1575.873977671131
 21
1404.180639072103
 31
0.0
  0
LINE
  5
2F6
330
1F
100
AcDbEntity
  8
0
370
    60
100
AcDbLine
 10
1592.053977671131
 20
1386.428139072103
 30
0.0
 11
1575.873977671131
 21
1386.428139072103
 31
0.0
  0
LINE
  5
2F7
330
1F
100
AcDbEntity
  8
0
370
    60
100
AcDbLine
 10
1592.053977671131
 20
1384.455639072103
 30
0.0
 11
1575.873977671131
 21
1384.455639072103
 31
0.0
  0
LINE
  5
2F8
330
1F
100
AcDbEntity
  8
0
370
    60
100
AcDbLine
 10
1573.851477671131
 20
1406.153139072103
 30
0.0
 11
1556.660227671131
 21
1406.153139072103
 31
0.0
  0
LINE
  5
2F9
330
1F
100
AcDbEntity
  8
0
370
    60
100
AcDbLine
 10
1573.851477671131
 20
1404.180639072103
 30
0.0
 11
1556.660227671131
 21
1404.180639072103
 31
0.0
  0
LINE
  5
2FA
330
1F
100
AcDbEntity
  8
0
370
    60
100
AcDbLine
 10
1573.851477671131
 20
1386.428139072103
 30
0.0
 11
1556.660227671131
 21
1386.428139072103
 31
0.0
  0
LINE
  5
2FB
330
1F
100
AcDbEntity
  8
0
370
    60
100
AcDbLine
 10
1573.851477671131
 20
1384.455639072103
 30
0.0
 11
1556.660227671131
 21
1384.455639072103
 31
0.0
  0
LINE
  5
2FC
330
1F
100
AcDbEntity
  8
0
370
    60
100
AcDbLine
 10
1573.851477671131
 20
1443.630639072103
 30
0.0
 11
1556.660227671131
 21
1443.630639072103
 31
0.0
  0
LINE
  5
2FD
330
1F
100
AcDbEntity
  8
0
370
    60
100
AcDbLine
 10
1573.851477671131
 20
1425.878139072103
 30
0.0
 11
1556.660227671131
 21
1425.878139072103
 31
0.0
  0
LINE
  5
2FE
330
1F
100
AcDbEntity
  8
0
370
    60
100
AcDbLine
 10
1573.851477671131
 20
1423.905639072103
 30
0.0
 11
1556.660227671131
 21
1423.905639072103
 31
0.0
  0
LINE
  5
2FF
330
1F
100
AcDbEntity
  8
0
370
    60
100
AcDbLine
 10
1573.851477671131
 20
1445.603139072103
 30
0.0
 11
1556.660227671131
 21
1445.603139072103
 31
0.0
  0
LINE
  5
300
330
1F
100
AcDbEntity
  8
0
370
    60
100
AcDbLine
 10
1614.807102671131
 20
1423.905639072103
 30
0.0
 11
1614.807102671131
 21
1400.975326572103
 31
0.0
  0
LINE
  5
301
330
1F
100
AcDbEntity
  8
0
370
    60
100
AcDbLine
 10
1616.323977671131
 20
1454.479389072103
 30
0.0
 11
1616.323977671131
 21
1395.304389072103
 31
0.0
  0
LINE
  5
302
330
1F
100
AcDbEntity
  8
0
370
    60
100
AcDbLine
 10
1616.323977671131
 20
1389.633451572103
 30
0.0
 11
1596.098977671131
 21
1389.633451572103
 31
0.0
  0
LINE
  5
303
330
1F
100
AcDbEntity
  8
0
370
    60
100
AcDbLine
 10
1616.323977671131
 20
1391.605951572103
 30
0.0
 11
1596.098977671131
 21
1391.605951572103
 31
0.0
  0
LINE
  5
304
330
1F
100
AcDbEntity
  8
0
370
    60
100
AcDbLine
 10
1616.323977671131
 20
1399.002826572103
 30
0.0
 11
1596.098977671131
 21
1399.002826572103
 31
0.0
  0
LINE
  5
305
330
1F
100
AcDbEntity
  8
0
370
    60
100
AcDbLine
 10
1616.323977671131
 20
1400.975326572103
 30
0.0
 11
1596.098977671131
 21
1400.975326572103
 31
0.0
  0
ELLIPSE
  5
306
330
1F
100
AcDbEntity
  8
0
370
    60
100
AcDbEllipse
 10
1596.098977671131
 20
1390.619701572103
 30
0.0
 11
1.01125
 21
0.0
 31
0.0
210
0.0
220
0.0
230
1.0
 40
0.9752781211372065
 41
1.570796326794897
 42
3.141592653589793
  0
ELLIPSE
  5
307
330
1F
100
AcDbEntity
  8
0
370
    60
100
AcDbEllipse
 10
1596.098977671131
 20
1388.647201572103
 30
0.0
 11
1.01125
 21
0.0
 31
0.0
210
0.0
220
0.0
230
1.0
 40
0.9752781211372065
 41
1.570796326794897
 42
3.141592653589793
  0
ELLIPSE
  5
308
330
1F
100
AcDbEntity
  8
0
370
    60
100
AcDbEllipse
 10
1592.053977671131
 20
1385.441889072103
 30
0.0
 11
1.01125
 21
0.0
 31
0.0
210
0.0
220
0.0
230
1.0
 40
0.9752781211372065
 41
4.71238898038469
 42
6.283185307179586
  0
ELLIPSE
  5
309
330
1F
100
AcDbEntity
  8
0
370
    60
100
AcDbEllipse
 10
1592.053977671131
 20
1387.414389072103
 30
0.0
 11
1.01125
 21
0.0
 31
0.0
210
0.0
220
0.0
230
1.0
 40
0.9752781211372065
 41
4.71238898038469
 42
6.283185307179586
  0
ELLIPSE
  5
30A
330
1F
100
AcDbEntity
  8
0
370
    60
100
AcDbEllipse
 10
1592.053977671131
 20
1403.194389072103
 30
0.0
 11
1.01125
 21
0.0
 31
0.0
210
0.0
220
0.0
230
1.0
 40
0.9752781211372065
 41
0.0
 42
1.570796326794897
  0
ELLIPSE
  5
30B
330
1F
100
AcDbEntity
  8
0
370
    60
100
AcDbEllipse
 10
1592.053977671131
 20
1405.166889072103
 30
0.0
 11
1.01125
 21
0.0
 31
0.0
210
0.0
220
0.0
230
1.0
 40
0.9752781211372065
 41
0.0
 42
1.570796326794897
  0
ELLIPSE
  5
30C
330
1F
100
AcDbEntity
  8
0
370
    60
100
AcDbEllipse
 10
1596.098977671131
 20
1401.961576572103
 30
0.0
 11
1.01125
 21
0.0
 31
0.0
210
0.0
220
0.0
230
1.0
 40
0.9752781211372065
 41
3.141592653589793
 42
4.71238898038469
  0
ELLIPSE
  5
30D
330
1F
100
AcDbEntity
  8
0
370
    60
100
AcDbEllipse
 10
1596.098977671131
 20
1399.989076572103
 30
0.0
 11
1.01125
 21
0.0
 31
0.0
210
0.0
220
0.0
230
1.0
 40
0.9752781211372065
 41
3.141592653589793
 42
4.71238898038469
  0
LINE
  5
30E
330
1F
100
AcDbEntity
  8
0
370
    60
100
AcDbLine
 10
1614.807102671131
 20
1399.002826572103
 30
0.0
 11
1614.807102671131
 21
1395.304389072103
 31
0.0
  0
LINE
  5
30F
330
1F
100
AcDbEntity
  8
0
370
    60
100
AcDbLine
 10
1614.807102671131
 20
1391.605951572103
 30
0.0
 11
1614.807102671131
 21
1395.304389072103
 31
0.0
  0
LINE
  5
310
330
1F
100
AcDbEntity
  8
0
370
    60
100
AcDbLine
 10
1616.323977671131
 20
1443.630639072103
 30
0.0
 11
1595.087727671131
 21
1443.630639072103
 31
0.0
  0
LINE
  5
311
330
1F
100
AcDbEntity
  8
0
370
    60
100
AcDbLine
 10
1616.323977671131
 20
1425.878139072103
 30
0.0
 11
1595.087727671131
 21
1425.878139072103
 31
0.0
  0
LINE
  5
312
330
1F
100
AcDbEntity
  8
0
370
    60
100
AcDbLine
 10
1616.323977671131
 20
1423.905639072103
 30
0.0
 11
1595.087727671131
 21
1423.905639072103
 31
0.0
  0
LINE
  5
313
330
1F
100
AcDbEntity
  8
0
370
    60
100
AcDbLine
 10
1616.323977671131
 20
1445.603139072103
 30
0.0
 11
1595.087727671131
 21
1445.603139072103
 31
0.0
  0
LINE
  5
314
330
1F
100
AcDbEntity
  8
0
370
    60
100
AcDbLine
 10
1614.807102671131
 20
1443.630639072103
 30
0.0
 11
1614.807102671131
 21
1425.878139072103
 31
0.0
  0
LINE
  5
315
330
1F
100
AcDbEntity
  8
0
370
    60
100
AcDbLine
 10
1614.807102671131
 20
1454.479389072103
 30
0.0
 11
1614.807102671131
 21
1445.603139072103
 31
0.0
  0
LINE
  5
316
330
1F
100
AcDbEntity
  8
0
370
    60
100
AcDbLine
 10
1593.065227671131
 20
1468.780014072103
 30
0.0
 11
1575.873977671131
 21
1468.780014072103
 31
0.0
  0
LINE
  5
317
330
1F
100
AcDbEntity
  8
0
370
    60
100
AcDbLine
 10
1573.851477671131
 20
1468.780014072103
 30
0.0
 11
1556.660227671131
 21
1468.780014072103
 31
0.0
  0
LINE
  5
318
330
1F
100
AcDbEntity
  8
0
370
    60
100
AcDbLine
 10
1600.143977671131
 20
1468.780014072103
 30
0.0
 11
1595.087727671131
 21
1468.780014072103
 31
0.0
  0
DIMENSION
  5
333
330
1F
100
AcDbEntity
  8
0
  6
TRATTO-PUNTO
370
    25
100
AcDbDimension
  2
*D13
 10
1616.323977671131
 20
1493.194237969968
 30
0.0
 11
1526.322727671131
 21
1505.194237969968
 31
0.0
 70
    32
 71
     5
 41
2.5
 42
180.0025000000001
  3
ISO-25
100
AcDbAlignedDimension
 13
1436.321477671131
 23
1438.531938419085
 33
0.0
 14
1616.323977671131
 24
1438.531938419085
 34
0.0
100
AcDbRotatedDimension
1001
ACAD
1000
DSTYLE
1002
{
1070
    41
1040
10.0
1070
   140
1040
14.0
1070
   147
1040
5.0
1070
   176
1070
     7
1070
   177
1070
     7
1002
}
  0
DIMENSION
  5
355
330
1F
100
AcDbEntity
  8
0
  6
TRATTO-PUNTO
370
    25
100
AcDbDimension
  2
*D18
 10
1650.236701244311
 20
1320.349389072103
 30
0.0
 11
1638.236701244311
 21
1395.304389072103
 31
0.0
 70
    32
  1
150
 71
     5
 41
2.5
 42
149.9100000000001
  3
ISO-25
100
AcDbAlignedDimension
 13
1589.023207030272
 23
1470.259389072103
 33
0.0
 14
1584.469602671131
 24
1320.349389072103
 34
0.0
 50
90.0
100
AcDbRotatedDimension
1001
ACAD
1000
DSTYLE
1002
{
1070
    41
1040
10.0
1070
   140
1040
14.0
1070
   147
1040
5.0
1070
   176
1070
     7
1070
   177
1070
     7
1002
}
  0
VIEWPORT
  5
BB
330
73
100
AcDbEntity
 67
     1
  8
0
100
AcDbViewport
 10
7.8
 20
4.5
 30
0.0
 40
15.64
 41
9.0
 68
     1
 69
     1
 12
6.0
 22
4.5
 13
0.0
 23
0.0
 14
0.5
 24
0.5
 15
0.5
 25
0.5
 16
0.0
 26
0.0
 36
1.0
 17
0.0
 27
0.0
 37
0.0
 42
50.0
 43
0.0
 44
0.0
 45
12.0
 50
0.0
 51
0.0
 72
   100
 90
   557152
  1

281
     0
 71
     1
 74
     0
110
0.0
120
0.0
130
0.0
111
1.0
121
0.0
131
0.0
112
0.0
122
1.0
132
0.0
 79
     0
146
0.0
  0
ENDSEC
  0
SECTION
  2
OBJECTS
  0
DICTIONARY
  5
C
330
0
100
AcDbDictionary
281
     1
  3
ACAD_COLOR
350
6C
  3
ACAD_GROUP
350
D
  3
ACAD_LAYOUT
350
1A
  3
ACAD_MATERIAL
350
6B
  3
ACAD_MLEADERSTYLE
350
3BA
  3
ACAD_MLINESTYLE
350
17
  3
ACAD_PLOTSETTINGS
350
19
  3
ACAD_PLOTSTYLENAME
350
E
  3
ACAD_SCALELIST
350
99
  3
ACAD_TABLESTYLE
350
92
  3
ACDBHEADERROUNDTRIPXREC
350
3BB
  3
AcDbVariableDictionary
350
59
  3
DWGPROPS
350
3BE
  0
DICTIONARY
  5
6C
102
{ACAD_REACTORS
330
C
102
}
330
C
100
AcDbDictionary
281
     1
  0
DICTIONARY
  5
D
102
{ACAD_REACTORS
330
C
102
}
330
C
100
AcDbDictionary
281
     1
  0
DICTIONARY
  5
1A
102
{ACAD_REACTORS
330
C
102
}
330
C
100
AcDbDictionary
281
     1
  3
Layout1
350
74
  3
Layout2
350
392
  3
Model
350
22
  0
DICTIONARY
  5
6B
102
{ACAD_REACTORS
330
C
102
}
330
C
100
AcDbDictionary
281
     1
  0
DICTIONARY
  5
3BA
102
{ACAD_REACTORS
330
C
102
}
330
C
100
AcDbDictionary
281
     1
  0
DICTIONARY
  5
17
102
{ACAD_REACTORS
330
C
102
}
330
C
100
AcDbDictionary
281
     1
  3
Standard
350
18
  0
DICTIONARY
  5
19
102
{ACAD_REACTORS
330
C
102
}
330
C
100
AcDbDictionary
281
     1
  0
ACDBDICTIONARYWDFLT
  5
E
102
{ACAD_REACTORS
330
C
102
}
330
C
100
AcDbDictionary
281
     1
  3
Normal
350
F
100
AcDbDictionaryWithDefault
340
F
  0
DICTIONARY
  5
99
102
{ACAD_REACTORS
330
C
102
}
330
C
100
AcDbDictionary
281
     1
  3
A0
350
D5
  3
A1
350
D6
  3
A2
350
D7
  3
A3
350
D8
  3
A4
350
D9
  3
A5
350
DA
  3
A6
350
DB
  3
A7
350
DC
  3
A8
350
DD
  3
A9
350
DE
  3
B0
350
DF
  3
B1
350
E0
  3
B2
350
E1
  3
B3
350
E2
  3
B4
350
E3
  3
B5
350
E4
  3
B6
350
E5
  3
B7
350
E6
  3
B8
350
E7
  3
B9
350
E8
  3
C0
350
E9
  3
C1
350
EA
  3
C2
350
EB
  3
C3
350
EC
  3
C4
350
ED
  3
C5
350
EE
  3
C6
350
EF
  3
C7
350
F0
  3
C8
350
F1
  3
C9
350
F2
  3
D0
350
F3
  3
D1
350
F4
  3
D2
350
F5
  0
DICTIONARY
  5
92
102
{ACAD_REACTORS
330
C
102
}
330
C
100
AcDbDictionary
281
     1
  0
DICTIONARY
  5
3BB
102
{ACAD_REACTORS
330
C
102
}
330
C
100
AcDbDictionary
281
     1
  3
COLORDICT
350
3BC
  3
MATERIALDICT
350
3BD
  0
DICTIONARY
  5
59
102
{ACAD_REACTORS
330
C
102
}
330
C
100
AcDbDictionary
281
     1
  3
CTABLESTYLE
350
98
  3
DIMASSOC
350
5A
  3
HIDETEXT
350
5E
  0
XRECORD
  5
3BE
102
{ACAD_REACTORS
330
C
102
}
330
C
100
AcDbXrecord
280
     1
  1
DWGPROPS COOKIE
  2

  3

  4

  6

  7

  8
BelottiMc
  9

300
=
301
=
302
=
303
=
304
=
305
=
306
=
307
=
308
=
309
=
 40
0.0
 41
2455091.422051157
 42
2455091.463717813
  1

 90
        0
  0
LAYOUT
  5
74
330
1A
100
AcDbPlotSettings
  1

  2
ProgeSOFT PDF Wizard
  4
A4
  6

 40
5.926666666666667
 41
6.011333333333317
 42
6.095999999999985
 43
5.926666666666667
 44
210.0
 45
297.0
 46
88.56200000000001
 47
136.531
 48
0.0
 49
0.0
140
0.0
141
0.0
142
1.0
143
1.0
 70
   692
 72
     1
 73
     0
 74
     0
  7

 75
    16
147
1.0
148
4.426666666666668
149
1.5
100
AcDbLayout
  1
Layout1
 70
     1
 71
     1
 10
0.0
 20
0.0
 11
0.0
 21
0.0
 12
0.0
 22
0.0
 32
0.0
 14
0.0
 24
0.0
 34
0.0
 15
0.0
 25
0.0
 35
0.0
146
0.0
 13
0.0
 23
0.0
 33
0.0
 16
1.0
 26
0.0
 36
0.0
 17
0.0
 27
1.0
 37
0.0
 76
     0
330
D1
331
3B9
1001
PROGE_PRINT_SETTINGS
1070
    73
1070
     1
  0
LAYOUT
  5
392
102
{ACAD_REACTORS
330
1A
102
}
330
1A
100
AcDbPlotSettings
  1

  2
ProgeSOFT PDF Wizard
  4
A4
  6

 40
5.926666666666667
 41
6.011333333333317
 42
6.095999999999985
 43
5.926666666666667
 44
210.0
 45
297.0
 46
88.562
 47
136.531
 48
0.0
 49
0.0
140
0.0
141
0.0
142
1.0
143
1.0
 70
   692
 72
     1
 73
     0
 74
     0
  7

 75
    16
147
1.0
148
0.0
149
0.0
100
AcDbLayout
  1
Layout2
 70
     1
 71
     2
 10
0.0
 20
0.0
 11
12.0
 21
9.0
 12
0.0
 22
0.0
 32
0.0
 14
0.0
 24
0.0
 34
0.0
 15
12.0
 25
9.0
 35
0.0
146
0.0
 13
0.0
 23
0.0
 33
0.0
 16
1.0
 26
0.0
 36
0.0
 17
0.0
 27
1.0
 37
0.0
 76
     0
330
73
331
BB
1001
PROGE_PRINT_SETTINGS
1070
    73
1070
     1
  0
LAYOUT
  5
22
330
1A
100
AcDbPlotSettings
  1

  2
ProgeSOFT PDF Wizard
  4
A4
  6

 40
5.926666666666667
 41
6.011333333333317
 42
6.095999999999985
 43
5.926666666666667
 44
210.0
 45
297.0
 46
13.37559707263189
 47
0.0000000000000146
 48
0.0
 49
0.0
140
0.0
141
0.0
142
1.0
143
2.091367803994237
 70
 11956
 72
     1
 73
     1
 74
     0
  7

 75
     0
147
0.4781559695478393
148
-1229.149204806984
149
-1194.388436840665
100
AcDbLayout
  1
Model
 70
     1
 71
     0
 10
0.0
 20
0.0
 11
0.0
 21
0.0
 12
0.0
 22
0.0
 32
0.0
 14
1415.710657481131
 24
1299.056330472103
 34
0.0
 15
1651.903367910978
 25
1512.194237969968
 35
0.0
146
0.0
 13
0.0
 23
0.0
 33
0.0
 16
1.0
 26
0.0
 36
0.0
 17
0.0
 27
1.0
 37
0.0
 76
     0
330
1F
331
97
  0
MLINESTYLE
  5
18
102
{ACAD_REACTORS
330
17
102
}
330
17
100
AcDbMlineStyle
  2
STANDARD
 70
     0
  3

 62
   256
 51
90.0
 52
90.0
 71
     2
 49
0.5
 62
   256
  6
BYLAYER
 49
-0.5
 62
   256
  6
BYLAYER
  0
ACDBPLACEHOLDER
  5
F
102
{ACAD_REACTORS
330
E
102
}
330
E
  0
SCALE
  5
D5
102
{ACAD_REACTORS
330
99
102
}
330
99
100
AcDbScale
 70
     0
300
1:1
140
1.0
141
1.0
290
     1
  0
SCALE
  5
D6
102
{ACAD_REACTORS
330
99
102
}
330
99
100
AcDbScale
 70
     0
300
1:2
140
1.0
141
2.0
290
     0
  0
SCALE
  5
D7
102
{ACAD_REACTORS
330
99
102
}
330
99
100
AcDbScale
 70
     0
300
1:4
140
1.0
141
4.0
290
     0
  0
SCALE
  5
D8
102
{ACAD_REACTORS
330
99
102
}
330
99
100
AcDbScale
 70
     0
300
1:5
140
1.0
141
5.0
290
     0
  0
SCALE
  5
D9
102
{ACAD_REACTORS
330
99
102
}
330
99
100
AcDbScale
 70
     0
300
1:8
140
1.0
141
8.0
290
     0
  0
SCALE
  5
DA
102
{ACAD_REACTORS
330
99
102
}
330
99
100
AcDbScale
 70
     0
300
1:10
140
1.0
141
10.0
290
     0
  0
SCALE
  5
DB
102
{ACAD_REACTORS
330
99
102
}
330
99
100
AcDbScale
 70
     0
300
1:16
140
1.0
141
16.0
290
     0
  0
SCALE
  5
DC
102
{ACAD_REACTORS
330
99
102
}
330
99
100
AcDbScale
 70
     0
300
1:20
140
1.0
141
20.0
290
     0
  0
SCALE
  5
DD
102
{ACAD_REACTORS
330
99
102
}
330
99
100
AcDbScale
 70
     0
300
1:30
140
1.0
141
30.0
290
     0
  0
SCALE
  5
DE
102
{ACAD_REACTORS
330
99
102
}
330
99
100
AcDbScale
 70
     0
300
1:40
140
1.0
141
40.0
290
     0
  0
SCALE
  5
DF
102
{ACAD_REACTORS
330
99
102
}
330
99
100
AcDbScale
 70
     0
300
1:50
140
1.0
141
50.0
290
     0
  0
SCALE
  5
E0
102
{ACAD_REACTORS
330
99
102
}
330
99
100
AcDbScale
 70
     0
300
1:100
140
1.0
141
100.0
290
     0
  0
SCALE
  5
E1
102
{ACAD_REACTORS
330
99
102
}
330
99
100
AcDbScale
 70
     0
300
2:1
140
2.0
141
1.0
290
     0
  0
SCALE
  5
E2
102
{ACAD_REACTORS
330
99
102
}
330
99
100
AcDbScale
 70
     0
300
4:1
140
4.0
141
1.0
290
     0
  0
SCALE
  5
E3
102
{ACAD_REACTORS
330
99
102
}
330
99
100
AcDbScale
 70
     0
300
8:1
140
8.0
141
1.0
290
     0
  0
SCALE
  5
E4
102
{ACAD_REACTORS
330
99
102
}
330
99
100
AcDbScale
 70
     0
300
10:1
140
10.0
141
1.0
290
     0
  0
SCALE
  5
E5
102
{ACAD_REACTORS
330
99
102
}
330
99
100
AcDbScale
 70
     0
300
100:1
140
100.0
141
1.0
290
     0
  0
SCALE
  5
E6
102
{ACAD_REACTORS
330
99
102
}
330
99
100
AcDbScale
 70
     0
300
1/128" = 1'-0"
140
0.0078125
141
12.0
290
     0
  0
SCALE
  5
E7
102
{ACAD_REACTORS
330
99
102
}
330
99
100
AcDbScale
 70
     0
300
1/64" = 1'-0"
140
0.015625
141
12.0
290
     0
  0
SCALE
  5
E8
102
{ACAD_REACTORS
330
99
102
}
330
99
100
AcDbScale
 70
     0
300
1/32" = 1'-0"
140
0.03125
141
12.0
290
     0
  0
SCALE
  5
E9
102
{ACAD_REACTORS
330
99
102
}
330
99
100
AcDbScale
 70
     0
300
1/16" = 1'-0"
140
0.0625
141
12.0
290
     0
  0
SCALE
  5
EA
102
{ACAD_REACTORS
330
99
102
}
330
99
100
AcDbScale
 70
     0
300
3/32" = 1'-0"
140
0.09375
141
12.0
290
     0
  0
SCALE
  5
EB
102
{ACAD_REACTORS
330
99
102
}
330
99
100
AcDbScale
 70
     0
300
1/8" = 1'-0"
140
0.125
141
12.0
290
     0
  0
SCALE
  5
EC
102
{ACAD_REACTORS
330
99
102
}
330
99
100
AcDbScale
 70
     0
300
3/16" = 1'-0"
140
0.1875
141
12.0
290
     0
  0
SCALE
  5
ED
102
{ACAD_REACTORS
330
99
102
}
330
99
100
AcDbScale
 70
     0
300
1/4" = 1'-0"
140
0.25
141
12.0
290
     0
  0
SCALE
  5
EE
102
{ACAD_REACTORS
330
99
102
}
330
99
100
AcDbScale
 70
     0
300
3/8" = 1'-0"
140
0.375
141
12.0
290
     0
  0
SCALE
  5
EF
102
{ACAD_REACTORS
330
99
102
}
330
99
100
AcDbScale
 70
     0
300
1/2" = 1'-0"
140
0.5
141
12.0
290
     0
  0
SCALE
  5
F0
102
{ACAD_REACTORS
330
99
102
}
330
99
100
AcDbScale
 70
     0
300
3/4" = 1'-0"
140
0.75
141
12.0
290
     0
  0
SCALE
  5
F1
102
{ACAD_REACTORS
330
99
102
}
330
99
100
AcDbScale
 70
     0
300
1" = 1'-0"
140
1.0
141
12.0
290
     0
  0
SCALE
  5
F2
102
{ACAD_REACTORS
330
99
102
}
330
99
100
AcDbScale
 70
     0
300
1-1/2" = 1'-0"
140
1.5
141
12.0
290
     0
  0
SCALE
  5
F3
102
{ACAD_REACTORS
330
99
102
}
330
99
100
AcDbScale
 70
     0
300
3" = 1'-0"
140
3.0
141
12.0
290
     0
  0
SCALE
  5
F4
102
{ACAD_REACTORS
330
99
102
}
330
99
100
AcDbScale
 70
     0
300
6" = 1'-0"
140
6.0
141
12.0
290
     0
  0
SCALE
  5
F5
102
{ACAD_REACTORS
330
99
102
}
330
99
100
AcDbScale
 70
     0
300
1'-0" = 1'-0"
140
12.0
141
12.0
290
     0
  0
XRECORD
  5
3BC
102
{ACAD_REACTORS
330
3BB
102
}
330
3BB
100
AcDbXrecord
280
     1
340
6C
  0
XRECORD
  5
3BD
102
{ACAD_REACTORS
330
3BB
102
}
330
3BB
100
AcDbXrecord
280
     1
340
6B
  0
DICTIONARYVAR
  5
98
102
{ACAD_REACTORS
330
59
102
}
330
59
100
DictionaryVariables
280
     0
  1
Standard
  0
DICTIONARYVAR
  5
5A
102
{ACAD_REACTORS
330
59
102
}
330
59
100
DictionaryVariables
280
     0
  1
2
  0
DICTIONARYVAR
  5
5E
102
{ACAD_REACTORS
330
59
102
}
330
59
100
DictionaryVariables
280
     0
  1
1
  0
ENDSEC
  0
EOF
