  0
SECTION
  2
HEADER
  9
$ACADVER
  1
AC1015
  9
$ACADMAINTVER
 70
     6
  9
$DWGCODEPAGE
  3
ANSI_1252
  9
$INSBASE
 10
0.0
 20
0.0
 30
0.0
  9
$EXTMIN
 10
0.0
 20
0.0
 30
0.0
  9
$EXTMAX
 10
1642.835268686765
 20
3080.3202861768
 30
0.0
  9
$LIMMIN
 10
0.0
 20
0.0
  9
$LIMMAX
 10
0.0
 20
0.0
  9
$ORTHOMODE
 70
     0
  9
$REGENMODE
 70
     1
  9
$FILLMODE
 70
     1
  9
$QTEXTMODE
 70
     0
  9
$MIRRTEXT
 70
     0
  9
$LTSCALE
 40
1.0
  9
$ATTMODE
 70
     1
  9
$TEXTSIZE
 40
2.5
  9
$TRACEWID
 40
1.0
  9
$TEXTSTYLE
  7
Standard
  9
$CLAYER
  8
0
  9
$CELTYPE
  6
ByLayer
  9
$CECOLOR
 62
   256
  9
$CELTSCALE
 40
1.0
  9
$DISPSILH
 70
     0
  9
$DIMSCALE
 40
1.0
  9
$DIMASZ
 40
2.5
  9
$DIMEXO
 40
0.625
  9
$DIMDLI
 40
3.75
  9
$DIMRND
 40
0.0
  9
$DIMDLE
 40
0.0
  9
$DIMEXE
 40
1.25
  9
$DIMTP
 40
0.0
  9
$DIMTM
 40
0.0
  9
$DIMTXT
 40
2.5
  9
$DIMCEN
 40
2.5
  9
$DIMTSZ
 40
0.0
  9
$DIMTOL
 70
     0
  9
$DIMLIM
 70
     0
  9
$DIMTIH
 70
     0
  9
$DIMTOH
 70
     0
  9
$DIMSE1
 70
     0
  9
$DIMSE2
 70
     0
  9
$DIMTAD
 70
     1
  9
$DIMZIN
 70
     8
  9
$DIMBLK
  1

  9
$DIMASO
 70
     1
  9
$DIMSHO
 70
     1
  9
$DIMPOST
  1

  9
$DIMAPOST
  1

  9
$DIMALT
 70
     0
  9
$DIMALTD
 70
     3
  9
$DIMALTF
 40
0.03937007874016
  9
$DIMLFAC
 40
1.0
  9
$DIMTOFL
 70
     1
  9
$DIMTVP
 40
0.0
  9
$DIMTIX
 70
     0
  9
$DIMSOXD
 70
     0
  9
$DIMSAH
 70
     0
  9
$DIMBLK1
  1

  9
$DIMBLK2
  1

  9
$DIMSTYLE
  2
ISO-25
  9
$DIMCLRD
 70
     0
  9
$DIMCLRE
 70
     0
  9
$DIMCLRT
 70
     0
  9
$DIMTFAC
 40
1.0
  9
$DIMGAP
 40
0.625
  9
$DIMJUST
 70
     0
  9
$DIMSD1
 70
     0
  9
$DIMSD2
 70
     0
  9
$DIMTOLJ
 70
     0
  9
$DIMTZIN
 70
     8
  9
$DIMALTZ
 70
     0
  9
$DIMALTTZ
 70
     0
  9
$DIMUPT
 70
     0
  9
$DIMDEC
 70
     2
  9
$DIMTDEC
 70
     2
  9
$DIMALTU
 70
     2
  9
$DIMALTTD
 70
     3
  9
$DIMTXSTY
  7
Standard
  9
$DIMAUNIT
 70
     0
  9
$DIMADEC
 70
     0
  9
$DIMALTRND
 40
0.0
  9
$DIMAZIN
 70
     0
  9
$DIMDSEP
 70
    44
  9
$DIMATFIT
 70
     3
  9
$DIMFRAC
 70
     0
  9
$DIMLDRBLK
  1

  9
$DIMLUNIT
 70
     2
  9
$DIMLWD
 70
    -2
  9
$DIMLWE
 70
    -2
  9
$DIMTMOVE
 70
     0
  9
$LUNITS
 70
     2
  9
$LUPREC
 70
     4
  9
$SKETCHINC
 40
1.0
  9
$FILLETRAD
 40
0.0
  9
$AUNITS
 70
     0
  9
$AUPREC
 70
     0
  9
$MENU
  1
.
  9
$ELEVATION
 40
0.0
  9
$PELEVATION
 40
0.0
  9
$THICKNESS
 40
0.0
  9
$LIMCHECK
 70
     0
  9
$CHAMFERA
 40
0.0
  9
$CHAMFERB
 40
0.0
  9
$CHAMFERC
 40
0.0
  9
$CHAMFERD
 40
0.0
  9
$SKPOLY
 70
     0
  9
$TDCREATE
 40
2455091.720678148
  9
$TDUCREATE
 40
2455091.637344815
  9
$TDUPDATE
 40
2455091.762344803
  9
$TDUUPDATE
 40
2455091.67901147
  9
$TDINDWG
 40
0.0329562384
  9
$TDUSRTIMER
 40
0.0329538773
  9
$USRTIMER
 70
     1
  9
$ANGBASE
 50
0.0
  9
$ANGDIR
 70
     0
  9
$PDMODE
 70
     0
  9
$PDSIZE
 40
0.0
  9
$PLINEWID
 40
0.0
  9
$SPLFRAME
 70
     0
  9
$SPLINETYPE
 70
     6
  9
$SPLINESEGS
 70
     8
  9
$HANDSEED
  5
5E7
  9
$SURFTAB1
 70
     6
  9
$SURFTAB2
 70
     6
  9
$SURFTYPE
 70
     6
  9
$SURFU
 70
     6
  9
$SURFV
 70
     6
  9
$UCSBASE
  2

  9
$UCSNAME
  2

  9
$UCSORG
 10
0.0
 20
0.0
 30
0.0
  9
$UCSXDIR
 10
1.0
 20
0.0
 30
0.0
  9
$UCSYDIR
 10
0.0
 20
1.0
 30
0.0
  9
$UCSORTHOREF
  2

  9
$UCSORTHOVIEW
 70
     0
  9
$UCSORGTOP
 10
0.0
 20
0.0
 30
0.0
  9
$UCSORGBOTTOM
 10
0.0
 20
0.0
 30
0.0
  9
$UCSORGLEFT
 10
0.0
 20
0.0
 30
0.0
  9
$UCSORGRIGHT
 10
0.0
 20
0.0
 30
0.0
  9
$UCSORGFRONT
 10
0.0
 20
0.0
 30
0.0
  9
$UCSORGBACK
 10
0.0
 20
0.0
 30
0.0
  9
$PUCSBASE
  2

  9
$PUCSNAME
  2

  9
$PUCSORG
 10
0.0
 20
0.0
 30
0.0
  9
$PUCSXDIR
 10
1.0
 20
0.0
 30
0.0
  9
$PUCSYDIR
 10
0.0
 20
1.0
 30
0.0
  9
$PUCSORTHOREF
  2

  9
$PUCSORTHOVIEW
 70
     0
  9
$PUCSORGTOP
 10
0.0
 20
0.0
 30
0.0
  9
$PUCSORGBOTTOM
 10
0.0
 20
0.0
 30
0.0
  9
$PUCSORGLEFT
 10
0.0
 20
0.0
 30
0.0
  9
$PUCSORGRIGHT
 10
0.0
 20
0.0
 30
0.0
  9
$PUCSORGFRONT
 10
0.0
 20
0.0
 30
0.0
  9
$PUCSORGBACK
 10
0.0
 20
0.0
 30
0.0
  9
$USERI1
 70
     0
  9
$USERI2
 70
     0
  9
$USERI3
 70
     0
  9
$USERI4
 70
     0
  9
$USERI5
 70
     0
  9
$USERR1
 40
0.0
  9
$USERR2
 40
0.0
  9
$USERR3
 40
0.0
  9
$USERR4
 40
0.0
  9
$USERR5
 40
0.0
  9
$WORLDVIEW
 70
     1
  9
$SHADEDGE
 70
     3
  9
$SHADEDIF
 70
    70
  9
$TILEMODE
 70
     1
  9
$MAXACTVP
 70
    64
  9
$PINSBASE
 10
0.0
 20
0.0
 30
0.0
  9
$PLIMCHECK
 70
     0
  9
$PEXTMIN
 10
0.0
 20
0.0
 30
0.0
  9
$PEXTMAX
 10
12.0
 20
9.0
 30
0.0
  9
$PLIMMIN
 10
0.0
 20
0.0
  9
$PLIMMAX
 10
12.0
 20
9.0
  9
$UNITMODE
 70
     0
  9
$VISRETAIN
 70
     1
  9
$PLINEGEN
 70
     0
  9
$PSLTSCALE
 70
     1
  9
$TREEDEPTH
 70
  3020
  9
$CMLSTYLE
  2
Standard
  9
$CMLJUST
 70
     0
  9
$CMLSCALE
 40
20.0
  9
$PROXYGRAPHICS
 70
     1
  9
$MEASUREMENT
 70
     1
  9
$CELWEIGHT
370
    -1
  9
$ENDCAPS
280
     0
  9
$JOINSTYLE
280
     0
  9
$LWDISPLAY
290
     0
  9
$INSUNITS
 70
     4
  9
$HYPERLINKBASE
  1

  9
$STYLESHEET
  1

  9
$XEDIT
290
     1
  9
$CEPSNTYPE
380
     0
  9
$PSTYLEMODE
290
     1
  9
$FINGERPRINTGUID
  2
{5559452E-1E62-4159-8551-BF76FFF3E7E8}
  9
$VERSIONGUID
  2
{3CEB9EF8-4431-4551-B596-6734A9F966A9}
  9
$EXTNAMES
290
     1
  9
$PSVPSCALE
 40
0.0
  9
$OLESTARTUP
290
     0
  0
ENDSEC
  0
SECTION
  2
CLASSES
  0
CLASS
  1
ACDBDICTIONARYWDFLT
  2
AcDbDictionaryWithDefault
  3
ObjectDBX Classes
 90
        0
280
     0
281
     0
  0
CLASS
  1
ACDBPLACEHOLDER
  2
AcDbPlaceHolder
  3
ObjectDBX Classes
 90
        0
280
     0
281
     0
  0
CLASS
  1
LAYOUT
  2
AcDbLayout
  3
ObjectDBX Classes
 90
        0
280
     0
281
     0
  0
CLASS
  1
DICTIONARYVAR
  2
AcDbDictionaryVar
  3
ObjectDBX Classes
 90
        0
280
     0
281
     0
  0
CLASS
  1
TABLESTYLE
  2
AcDbTableStyle
  3
ObjectDBX Classes
 90
     4095
280
     0
281
     0
  0
CLASS
  1
SCALE
  2
AcDbScale
  3
ObjectDBX Classes
 90
     1153
280
     0
281
     0
  0
ENDSEC
  0
SECTION
  2
TABLES
  0
TABLE
  2
VPORT
  5
8
330
0
100
AcDbSymbolTable
 70
     2
  0
VPORT
  5
97
330
8
100
AcDbSymbolTableRecord
100
AcDbViewportTableRecord
  2
*Active
 70
     0
 10
0.0
 20
0.0
 11
1.0
 21
1.0
 12
718.0095845622587
 22
2390.090557976667
 13
0.0
 23
0.0
 14
10.0
 24
10.0
 15
10.0
 25
10.0
 16
0.0
 26
0.0
 36
1.0
 17
0.0
 27
0.0
 37
0.0
 40
1266.620823236196
 41
1.664827586206897
 42
50.0
 43
0.0
 44
0.0
 50
0.0
 51
0.0
 71
     0
 72
  1000
 73
     1
 74
     3
 75
     0
 76
     0
 77
     0
 78
     0
281
     0
 65
     1
110
0.0
120
0.0
130
0.0
111
1.0
121
0.0
131
0.0
112
0.0
122
1.0
132
0.0
 79
     0
146
0.0
  0
ENDTAB
  0
TABLE
  2
LTYPE
  5
5
330
0
100
AcDbSymbolTable
 70
     7
  0
LTYPE
  5
14
330
5
100
AcDbSymbolTableRecord
100
AcDbLinetypeTableRecord
  2
ByBlock
 70
     0
  3

 72
    65
 73
     0
 40
0.0
  0
LTYPE
  5
15
330
5
100
AcDbSymbolTableRecord
100
AcDbLinetypeTableRecord
  2
ByLayer
 70
     0
  3

 72
    65
 73
     0
 40
0.0
  0
LTYPE
  5
16
330
5
100
AcDbSymbolTableRecord
100
AcDbLinetypeTableRecord
  2
Continuous
 70
     0
  3
Solid line
 72
    65
 73
     0
 40
0.0
  0
LTYPE
  5
589
330
5
100
AcDbSymbolTableRecord
100
AcDbLinetypeTableRecord
  2
CONTINUA
 70
     0
  3
Linea continua
 72
    65
 73
     0
 40
0.0
  0
LTYPE
  5
58A
330
5
100
AcDbSymbolTableRecord
100
AcDbLinetypeTableRecord
  2
TRATTO-PUNTO
 70
     0
  3
__ . __ . __ . __ . __ . __ . __ . __ . __ . __
 72
    65
 73
     4
 40
1.0
 49
0.5
 74
     0
 49
-0.25
 74
     0
 49
0.0
 74
     0
 49
-0.25
 74
     0
  0
LTYPE
  5
58B
330
5
100
AcDbSymbolTableRecord
100
AcDbLinetypeTableRecord
  2
NASCOSTA
 70
     0
  3
__ __ __ __ __ __ __ __ __ __ __ __ __ __ __ __
 72
    65
 73
     2
 40
0.375
 49
0.25
 74
     0
 49
-0.125
 74
     0
  0
LTYPE
  5
58C
330
5
100
AcDbSymbolTableRecord
100
AcDbLinetypeTableRecord
  2
CENTER
 70
     0
  3
____ _ ____ _ ____ _ ____ _ ____ _ ____ _ ____
 72
    65
 73
     4
 40
2.0
 49
1.25
 74
     0
 49
-0.25
 74
     0
 49
0.25
 74
     0
 49
-0.25
 74
     0
  0
LTYPE
  5
58D
330
5
100
AcDbSymbolTableRecord
100
AcDbLinetypeTableRecord
  2
SOLID
 70
     0
  3

 72
    65
 73
     0
 40
0.0
  0
LTYPE
  5
58E
330
5
100
AcDbSymbolTableRecord
100
AcDbLinetypeTableRecord
  2
ARROW
 70
     0
  3

 72
    65
 73
     0
 40
0.0
  0
ENDTAB
  0
TABLE
  2
LAYER
  5
2
330
0
100
AcDbSymbolTable
 70
     8
  0
LAYER
  5
10
330
2
100
AcDbSymbolTableRecord
100
AcDbLayerTableRecord
  2
0
 70
     0
 62
     7
  6
Continuous
370
    -3
390
F
  0
LAYER
  5
106
330
2
100
AcDbSymbolTableRecord
100
AcDbLayerTableRecord
  2
DEFPOINTS
 70
     0
 62
    -7
  6
CONTINUA
290
     0
370
    -3
390
F
  0
LAYER
  5
107
330
2
100
AcDbSymbolTableRecord
100
AcDbLayerTableRecord
  2
BASE
 70
     0
 62
     7
  6
CONTINUA
370
    -3
390
F
  0
LAYER
  5
108
330
2
100
AcDbSymbolTableRecord
100
AcDbLayerTableRecord
  2
A
 70
     0
 62
     7
  6
CONTINUA
370
    -3
390
F
  0
LAYER
  5
109
330
2
100
AcDbSymbolTableRecord
100
AcDbLayerTableRecord
  2
ASHADE
 70
     4
 62
     7
  6
CONTINUA
370
    -3
390
F
  0
LAYER
  5
10A
330
2
100
AcDbSymbolTableRecord
100
AcDbLayerTableRecord
  2
LAYER_STANDARD
 70
     0
 62
     7
  6
Continuous
370
    -3
390
F
  0
LAYER
  5
10B
330
2
100
AcDbSymbolTableRecord
100
AcDbLayerTableRecord
  2
LIVELLO_1
 70
     0
 62
     7
  6
Continuous
370
    -3
390
F
  0
LAYER
  5
10C
330
2
100
AcDbSymbolTableRecord
100
AcDbLayerTableRecord
  2
STANDARD_LAYER
 70
     0
 62
     7
  6
SOLID
370
    -3
390
F
  0
ENDTAB
  0
TABLE
  2
STYLE
  5
3
330
0
100
AcDbSymbolTable
 70
     3
  0
STYLE
  5
11
330
3
100
AcDbSymbolTableRecord
100
AcDbTextStyleTableRecord
  2
Standard
 70
     0
 40
0.0
 41
1.0
 50
0.0
 71
     0
 42
2.5
  3
txt
  4

  0
STYLE
  5
FE
330
3
100
AcDbSymbolTableRecord
100
AcDbTextStyleTableRecord
  2
H
 70
     0
 40
1.75
 41
1.0
 50
0.0
 71
     0
 42
1.75
  3
swiss.ttf
  4

1001
ACAD
1000
Swis721 BT
1071
       34
  0
STYLE
  5
FF
330
3
100
AcDbSymbolTableRecord
100
AcDbTextStyleTableRecord
  2
HB
 70
     0
 40
3.0
 41
1.0
 50
0.0
 71
     0
 42
1.5
  3
swissb.ttf
  4

1001
ACAD
1000
Swis721 BT
1071
 33554466
  0
ENDTAB
  0
TABLE
  2
VIEW
  5
6
330
0
100
AcDbSymbolTable
 70
     0
  0
ENDTAB
  0
TABLE
  2
UCS
  5
7
330
0
100
AcDbSymbolTable
 70
     0
  0
ENDTAB
  0
TABLE
  2
APPID
  5
9
330
0
100
AcDbSymbolTable
 70
     8
  0
APPID
  5
12
330
9
100
AcDbSymbolTableRecord
100
AcDbRegAppTableRecord
  2
ACAD
 70
     0
  0
APPID
  5
582
330
9
100
AcDbSymbolTableRecord
100
AcDbRegAppTableRecord
  2
PROGE_PRINT_SETTINGS
 70
     0
  0
APPID
  5
583
330
9
100
AcDbSymbolTableRecord
100
AcDbRegAppTableRecord
  2
AVE_RENDER
 70
     0
  0
APPID
  5
584
330
9
100
AcDbSymbolTableRecord
100
AcDbRegAppTableRecord
  2
AVE_ENTITY_MATERIAL
 70
     0
  0
APPID
  5
585
330
9
100
AcDbSymbolTableRecord
100
AcDbRegAppTableRecord
  2
AVE_FINISH
 70
     0
  0
APPID
  5
586
330
9
100
AcDbSymbolTableRecord
100
AcDbRegAppTableRecord
  2
AVE_MATERIAL
 70
     0
  0
APPID
  5
587
330
9
100
AcDbSymbolTableRecord
100
AcDbRegAppTableRecord
  2
AVE_GLOBAL
 70
     0
  0
APPID
  5
588
330
9
100
AcDbSymbolTableRecord
100
AcDbRegAppTableRecord
  2
Conv5506CA
 70
     0
  0
ENDTAB
  0
TABLE
  2
DIMSTYLE
  5
A
330
0
100
AcDbSymbolTable
 70
     4
100
AcDbDimStyleTable
  0
DIMSTYLE
105
27
330
A
100
AcDbSymbolTableRecord
100
AcDbDimStyleTableRecord
  2
Standard
 70
     0
278
     0
340
11
  0
DIMSTYLE
105
29
102
{ACAD_REACTORS
330
505
330
527
330
554
102
}
330
A
100
AcDbSymbolTableRecord
100
AcDbDimStyleTableRecord
  2
ISO-25
 70
     0
 41
2.5
 42
0.625
 43
3.75
 44
1.25
 73
     0
 74
     0
 77
     1
 78
     8
140
2.5
141
2.5
143
0.03937007874016
147
0.625
171
     3
172
     1
271
     2
272
     2
274
     3
278
    44
283
     0
284
     8
340
11
  0
DIMSTYLE
105
10D
102
{ACAD_REACTORS
330
353
330
37F
330
38B
330
445
330
452
330
45F
102
}
330
A
100
AcDbSymbolTableRecord
100
AcDbDimStyleTableRecord
  2
GEWISS
 70
     0
 41
1.7
 42
1.0
 43
7.0
 44
0.3
 73
     0
 74
     0
 77
     1
140
1.75
141
1.5
147
0.75
172
     1
176
     1
177
     1
340
FE
  0
DIMSTYLE
105
10E
330
A
100
AcDbSymbolTableRecord
100
AcDbDimStyleTableRecord
  2
GEW1-1
 70
     0
 41
5.0
 42
0.5
 43
7.0
 44
1.0
 73
     0
 74
     0
 77
     1
140
3.0
141
1.5
147
1.0
172
     1
176
     1
177
     1
340
FE
  0
ENDTAB
  0
TABLE
  2
BLOCK_RECORD
  5
1
330
0
100
AcDbSymbolTable
 70
    40
  0
BLOCK_RECORD
  5
1F
330
1
100
AcDbSymbolTableRecord
100
AcDbBlockTableRecord
  2
*Model_Space
340
22
  0
BLOCK_RECORD
  5
73
330
1
100
AcDbSymbolTableRecord
100
AcDbBlockTableRecord
  2
*Paper_Space
340
590
  0
BLOCK_RECORD
  5
D1
330
1
100
AcDbSymbolTableRecord
100
AcDbBlockTableRecord
  2
*Paper_Space0
340
74
  0
BLOCK_RECORD
  5
111
330
1
100
AcDbSymbolTableRecord
100
AcDbBlockTableRecord
  2
AVE_RENDER
340
0
102
{BLKREFS
331
33D
331
33E
331
33F
331
340
331
341
331
342
331
343
331
344
331
346
331
347
331
348
331
349
331
34A
331
34B
331
34C
331
34D
331
34F
331
350
331
351
331
352
331
353
331
354
331
355
331
356
331
358
331
359
331
35A
331
35B
331
35C
331
35D
331
35E
331
35F
331
361
331
362
331
363
331
364
331
365
331
366
331
367
331
368
331
36A
331
36B
331
36C
331
36D
331
36E
331
36F
331
370
331
371
331
373
331
374
331
375
331
376
331
377
331
378
331
379
331
37A
331
37C
331
37D
331
37E
331
37F
331
380
331
381
331
382
331
383
331
385
331
386
331
387
331
388
331
389
331
38A
331
38B
331
38C
331
38E
331
38F
331
390
331
391
331
392
331
393
331
394
331
395
331
397
331
398
331
399
331
39A
331
39B
331
39C
331
39D
331
39E
331
3A0
331
3A1
331
3A2
331
3A3
331
3A4
331
3A5
331
3A6
331
3A7
331
3A9
331
3AA
331
3AB
331
3AC
331
3AD
331
3AE
331
3AF
331
3B0
331
3B2
331
3B3
331
3B4
331
3B5
331
3B6
331
3B7
331
3B8
331
3B9
331
3BB
331
3BC
331
3BD
331
3BE
331
3BF
331
3C0
331
3C1
331
3C2
102
}
  0
BLOCK_RECORD
  5
114
330
1
100
AcDbSymbolTableRecord
100
AcDbBlockTableRecord
  2
AVE_GLOBAL
340
0
102
{BLKREFS
331
345
331
34E
331
357
331
360
331
369
331
372
331
37B
331
384
331
38D
331
396
331
39F
331
3A8
331
3B1
331
3BA
331
3C3
102
}
  0
BLOCK_RECORD
  5
120
330
1
100
AcDbSymbolTableRecord
100
AcDbBlockTableRecord
  2
*D3
340
0
  0
BLOCK_RECORD
  5
12C
330
1
100
AcDbSymbolTableRecord
100
AcDbBlockTableRecord
  2
*D4
340
0
  0
BLOCK_RECORD
  5
138
330
1
100
AcDbSymbolTableRecord
100
AcDbBlockTableRecord
  2
*D5
340
0
  0
BLOCK_RECORD
  5
144
330
1
100
AcDbSymbolTableRecord
100
AcDbBlockTableRecord
  2
*D6
340
0
  0
BLOCK_RECORD
  5
14F
330
1
100
AcDbSymbolTableRecord
100
AcDbBlockTableRecord
  2
*D7
340
0
  0
BLOCK_RECORD
  5
15A
330
1
100
AcDbSymbolTableRecord
100
AcDbBlockTableRecord
  2
*D8
340
0
  0
BLOCK_RECORD
  5
165
330
1
100
AcDbSymbolTableRecord
100
AcDbBlockTableRecord
  2
*D9
340
0
  0
BLOCK_RECORD
  5
170
330
1
100
AcDbSymbolTableRecord
100
AcDbBlockTableRecord
  2
*D10
340
0
  0
BLOCK_RECORD
  5
17B
330
1
100
AcDbSymbolTableRecord
100
AcDbBlockTableRecord
  2
*D11
340
0
  0
BLOCK_RECORD
  5
186
330
1
100
AcDbSymbolTableRecord
100
AcDbBlockTableRecord
  2
*D12
340
0
  0
BLOCK_RECORD
  5
192
330
1
100
AcDbSymbolTableRecord
100
AcDbBlockTableRecord
  2
*D13
340
0
  0
BLOCK_RECORD
  5
19E
330
1
100
AcDbSymbolTableRecord
100
AcDbBlockTableRecord
  2
*D14
340
0
  0
BLOCK_RECORD
  5
1AA
330
1
100
AcDbSymbolTableRecord
100
AcDbBlockTableRecord
  2
*D15
340
0
  0
BLOCK_RECORD
  5
1B5
330
1
100
AcDbSymbolTableRecord
100
AcDbBlockTableRecord
  2
*D16
340
0
  0
BLOCK_RECORD
  5
1C0
330
1
100
AcDbSymbolTableRecord
100
AcDbBlockTableRecord
  2
*D17
340
0
  0
BLOCK_RECORD
  5
1CC
330
1
100
AcDbSymbolTableRecord
100
AcDbBlockTableRecord
  2
*D18
340
0
  0
BLOCK_RECORD
  5
1D7
330
1
100
AcDbSymbolTableRecord
100
AcDbBlockTableRecord
  2
*D19
340
0
  0
BLOCK_RECORD
  5
3D3
330
1
100
AcDbSymbolTableRecord
100
AcDbBlockTableRecord
  2
*D20
340
0
  0
BLOCK_RECORD
  5
3FF
330
1
100
AcDbSymbolTableRecord
100
AcDbBlockTableRecord
  2
*D21
340
0
  0
BLOCK_RECORD
  5
40B
330
1
100
AcDbSymbolTableRecord
100
AcDbBlockTableRecord
  2
*D22
340
0
  0
BLOCK_RECORD
  5
4C6
330
1
100
AcDbSymbolTableRecord
100
AcDbBlockTableRecord
  2
*D23
340
0
  0
BLOCK_RECORD
  5
4D3
330
1
100
AcDbSymbolTableRecord
100
AcDbBlockTableRecord
  2
*D24
340
0
  0
BLOCK_RECORD
  5
4E0
330
1
100
AcDbSymbolTableRecord
100
AcDbBlockTableRecord
  2
*D25
340
0
  0
BLOCK_RECORD
  5
4EC
330
1
100
AcDbSymbolTableRecord
100
AcDbBlockTableRecord
  2
*D26
340
0
  0
BLOCK_RECORD
  5
4F8
330
1
100
AcDbSymbolTableRecord
100
AcDbBlockTableRecord
  2
*D27
340
0
  0
BLOCK_RECORD
  5
504
330
1
100
AcDbSymbolTableRecord
100
AcDbBlockTableRecord
  2
*D28
340
0
  0
BLOCK_RECORD
  5
510
330
1
100
AcDbSymbolTableRecord
100
AcDbBlockTableRecord
  2
*D29
340
0
  0
BLOCK_RECORD
  5
51B
330
1
100
AcDbSymbolTableRecord
100
AcDbBlockTableRecord
  2
*D30
340
0
  0
BLOCK_RECORD
  5
526
330
1
100
AcDbSymbolTableRecord
100
AcDbBlockTableRecord
  2
*D31
340
0
  0
BLOCK_RECORD
  5
532
330
1
100
AcDbSymbolTableRecord
100
AcDbBlockTableRecord
  2
*D32
340
0
  0
BLOCK_RECORD
  5
53D
330
1
100
AcDbSymbolTableRecord
100
AcDbBlockTableRecord
  2
*D33
340
0
  0
BLOCK_RECORD
  5
548
330
1
100
AcDbSymbolTableRecord
100
AcDbBlockTableRecord
  2
*D34
340
0
  0
BLOCK_RECORD
  5
553
330
1
100
AcDbSymbolTableRecord
100
AcDbBlockTableRecord
  2
*D35
340
0
  0
BLOCK_RECORD
  5
55F
330
1
100
AcDbSymbolTableRecord
100
AcDbBlockTableRecord
  2
*D36
340
0
  0
BLOCK_RECORD
  5
56A
330
1
100
AcDbSymbolTableRecord
100
AcDbBlockTableRecord
  2
*D37
340
0
  0
BLOCK_RECORD
  5
575
330
1
100
AcDbSymbolTableRecord
100
AcDbBlockTableRecord
  2
*D38
340
0
  0
BLOCK_RECORD
  5
580
330
1
100
AcDbSymbolTableRecord
100
AcDbBlockTableRecord
  2
*D39
340
0
  0
ENDTAB
  0
ENDSEC
  0
SECTION
  2
BLOCKS
  0
BLOCK
  5
20
330
1F
100
AcDbEntity
  8
0
100
AcDbBlockBegin
  2
*Model_Space
 70
     0
 10
0.0
 20
0.0
 30
0.0
  3
*Model_Space
  1

  0
ENDBLK
  5
21
330
1F
100
AcDbEntity
  8
0
100
AcDbBlockEnd
  0
BLOCK
  5
75
330
73
100
AcDbEntity
 67
     1
  8
0
100
AcDbBlockBegin
  2
*Paper_Space
 70
     0
 10
0.0
 20
0.0
 30
0.0
  3
*Paper_Space
  1

  0
ENDBLK
  5
76
330
73
100
AcDbEntity
 67
     1
  8
0
100
AcDbBlockEnd
  0
BLOCK
  5
591
330
D1
100
AcDbEntity
  8
0
100
AcDbBlockBegin
  2
*Paper_Space0
 70
     0
 10
0.0
 20
0.0
 30
0.0
  3
*Paper_Space0
  1

  0
VIEWPORT
  5
5E1
330
D1
100
AcDbEntity
  8
0
100
AcDbViewport
 10
7.8
 20
4.5
 30
0.0
 40
15.64
 41
9.0
 68
     1
 69
     1
 12
6.0
 22
4.5
 13
0.0
 23
0.0
 14
0.5
 24
0.5
 15
0.5
 25
0.5
 16
0.0
 26
0.0
 36
1.0
 17
0.0
 27
0.0
 37
0.0
 42
50.0
 43
0.0
 44
0.0
 45
12.0
 50
0.0
 51
0.0
 72
   100
 90
   557152
  1

281
     0
 71
     1
 74
     0
110
0.0
120
0.0
130
0.0
111
1.0
121
0.0
131
0.0
112
0.0
122
1.0
132
0.0
 79
     0
146
0.0
  0
ENDBLK
  5
592
330
D1
100
AcDbEntity
  8
0
100
AcDbBlockEnd
  0
BLOCK
  5
593
330
111
100
AcDbEntity
  8
0
100
AcDbBlockBegin
  2
AVE_RENDER
 70
     0
 10
0.0
 20
0.0
 30
0.0
  3
AVE_RENDER
  1

  0
ENDBLK
  5
594
330
111
100
AcDbEntity
  8
0
100
AcDbBlockEnd
  0
BLOCK
  5
595
330
114
100
AcDbEntity
  8
0
100
AcDbBlockBegin
  2
AVE_GLOBAL
 70
     0
 10
0.0
 20
0.0
 30
0.0
  3
AVE_GLOBAL
  1

  0
ENDBLK
  5
596
330
114
100
AcDbEntity
  8
0
100
AcDbBlockEnd
  0
BLOCK
  5
597
330
120
100
AcDbEntity
  8
0
100
AcDbBlockBegin
  2
*D3
 70
     1
 10
0.0
 20
0.0
 30
0.0
  3
*D3
  1

  0
LINE
  5
116
330
120
100
AcDbEntity
  8
0
  6
ByBlock
 62
     1
100
AcDbLine
 10
21.588729
 20
60.035354
 30
0.0
 11
4.57627
 21
60.035354
 31
0.0
  0
LINE
  5
117
330
120
100
AcDbEntity
  8
0
  6
ByBlock
 62
     1
100
AcDbLine
 10
7.502775
 20
7.178319
 30
0.0
 11
4.57627
 21
7.178319
 31
0.0
  0
LINE
  5
118
330
120
100
AcDbEntity
  8
0
  6
ByBlock
 62
     1
100
AcDbLine
 10
4.87627
 20
58.335354
 30
0.0
 11
4.87627
 21
8.878319
 31
0.0
  0
SOLID
  5
119
330
120
100
AcDbEntity
  8
0
  6
ByBlock
 62
     1
100
AcDbTrace
 10
4.592937
 20
58.335354
 30
0.0
 11
5.159604
 21
58.335354
 31
0.0
 12
4.87627
 22
60.035354
 32
0.0
 13
4.87627
 23
60.035354
 33
0.0
  0
SOLID
  5
11A
330
120
100
AcDbEntity
  8
0
  6
ByBlock
 62
     1
100
AcDbTrace
 10
4.592937
 20
8.878319
 30
0.0
 11
5.159604
 21
8.878319
 31
0.0
 12
4.87627
 22
7.178319
 32
0.0
 13
4.87627
 23
7.178319
 33
0.0
  0
MTEXT
  5
11B
330
120
100
AcDbEntity
  8
0
  6
ByBlock
 62
     0
100
AcDbMText
 10
3.226915
 20
33.606836
 30
0.0
 40
1.75
 41
0.0
 71
     5
 72
     1
  1
\A1;min. 1000            max. 1750
  7
H
 11
0.0
 21
1.0
 31
0.0
 73
     1
 44
1.0
  0
POINT
  5
11C
330
120
100
AcDbEntity
  8
DEFPOINTS
  6
ByBlock
 62
     0
100
AcDbPoint
 10
22.588729
 20
60.035354
 30
0.0
  0
POINT
  5
11D
330
120
100
AcDbEntity
  8
DEFPOINTS
  6
ByBlock
 62
     0
100
AcDbPoint
 10
8.502775
 20
7.178319
 30
0.0
  0
POINT
  5
11E
330
120
100
AcDbEntity
  8
DEFPOINTS
  6
ByBlock
 62
     0
100
AcDbPoint
 10
4.87627
 20
7.178319
 30
0.0
  0
ENDBLK
  5
598
330
120
100
AcDbEntity
  8
0
100
AcDbBlockEnd
  0
BLOCK
  5
599
330
12C
100
AcDbEntity
  8
0
100
AcDbBlockBegin
  2
*D4
 70
     1
 10
0.0
 20
0.0
 30
0.0
  3
*D4
  1

  0
LINE
  5
122
330
12C
100
AcDbEntity
  8
0
  6
ByBlock
 62
     1
100
AcDbLine
 10
3.479007
 20
95.568781
 30
0.0
 11
3.479007
 21
88.980374
 31
0.0
  0
LINE
  5
123
330
12C
100
AcDbEntity
  8
0
  6
ByBlock
 62
     1
100
AcDbLine
 10
17.031981
 20
93.626881
 30
0.0
 11
17.031981
 21
88.980374
 31
0.0
  0
LINE
  5
124
330
12C
100
AcDbEntity
  8
0
  6
ByBlock
 62
     1
100
AcDbLine
 10
5.179007
 20
89.280374
 30
0.0
 11
15.331981
 21
89.280374
 31
0.0
  0
SOLID
  5
125
330
12C
100
AcDbEntity
  8
0
  6
ByBlock
 62
     1
100
AcDbTrace
 10
5.179007
 20
89.563708
 30
0.0
 11
5.179007
 21
88.997041
 31
0.0
 12
3.479007
 22
89.280374
 32
0.0
 13
3.479007
 23
89.280374
 33
0.0
  0
SOLID
  5
126
330
12C
100
AcDbEntity
  8
0
  6
ByBlock
 62
     1
100
AcDbTrace
 10
15.331981
 20
89.563708
 30
0.0
 11
15.331981
 21
88.997041
 31
0.0
 12
17.031981
 22
89.280374
 32
0.0
 13
17.031981
 23
89.280374
 33
0.0
  0
MTEXT
  5
127
330
12C
100
AcDbEntity
  8
0
  6
ByBlock
 62
     0
100
AcDbMText
 10
10.255494
 20
90.952302
 30
0.0
 40
1.75
 41
0.0
 71
     5
 72
     1
  1
\A1;C
  7
H
 73
     1
 44
1.0
  0
POINT
  5
128
330
12C
100
AcDbEntity
  8
DEFPOINTS
  6
ByBlock
 62
     0
100
AcDbPoint
 10
3.479007
 20
96.568781
 30
0.0
  0
POINT
  5
129
330
12C
100
AcDbEntity
  8
DEFPOINTS
  6
ByBlock
 62
     0
100
AcDbPoint
 10
17.031981
 20
94.626881
 30
0.0
  0
POINT
  5
12A
330
12C
100
AcDbEntity
  8
DEFPOINTS
  6
ByBlock
 62
     0
100
AcDbPoint
 10
17.031981
 20
89.280374
 30
0.0
  0
ENDBLK
  5
59A
330
12C
100
AcDbEntity
  8
0
100
AcDbBlockEnd
  0
BLOCK
  5
59B
330
138
100
AcDbEntity
  8
0
100
AcDbBlockBegin
  2
*D5
 70
     1
 10
0.0
 20
0.0
 30
0.0
  3
*D5
  1

  0
LINE
  5
12E
330
138
100
AcDbEntity
  8
0
  6
ByBlock
 62
     1
100
AcDbLine
 10
377.22315
 20
109.040354
 30
0.0
 11
384.311804
 21
109.040354
 31
0.0
  0
LINE
  5
12F
330
138
100
AcDbEntity
  8
0
  6
ByBlock
 62
     1
100
AcDbLine
 10
378.091952
 20
89.600354
 30
0.0
 11
384.311804
 21
89.600354
 31
0.0
  0
LINE
  5
130
330
138
100
AcDbEntity
  8
0
  6
ByBlock
 62
     1
100
AcDbLine
 10
384.011804
 20
107.340354
 30
0.0
 11
384.011804
 21
91.300354
 31
0.0
  0
SOLID
  5
131
330
138
100
AcDbEntity
  8
0
  6
ByBlock
 62
     1
100
AcDbTrace
 10
383.72847
 20
107.340354
 30
0.0
 11
384.295137
 21
107.340354
 31
0.0
 12
384.011804
 22
109.040354
 32
0.0
 13
384.011804
 23
109.040354
 33
0.0
  0
SOLID
  5
132
330
138
100
AcDbEntity
  8
0
  6
ByBlock
 62
     1
100
AcDbTrace
 10
383.72847
 20
91.300354
 30
0.0
 11
384.295137
 21
91.300354
 31
0.0
 12
384.011804
 22
89.600354
 32
0.0
 13
384.011804
 23
89.600354
 33
0.0
  0
MTEXT
  5
133
330
138
100
AcDbEntity
  8
0
  6
ByBlock
 62
     0
100
AcDbMText
 10
382.386804
 20
99.320354
 30
0.0
 40
1.75
 41
0.0
 71
     5
 72
     1
  1
\A1;B
  7
H
 11
0.0
 21
1.0
 31
0.0
 73
     1
 44
1.0
  0
POINT
  5
134
330
138
100
AcDbEntity
  8
DEFPOINTS
  6
ByBlock
 62
     0
100
AcDbPoint
 10
376.22315
 20
109.040354
 30
0.0
  0
POINT
  5
135
330
138
100
AcDbEntity
  8
DEFPOINTS
  6
ByBlock
 62
     0
100
AcDbPoint
 10
377.091952
 20
89.600354
 30
0.0
  0
POINT
  5
136
330
138
100
AcDbEntity
  8
DEFPOINTS
  6
ByBlock
 62
     0
100
AcDbPoint
 10
384.011804
 20
89.600354
 30
0.0
  0
ENDBLK
  5
59C
330
138
100
AcDbEntity
  8
0
100
AcDbBlockEnd
  0
BLOCK
  5
59D
330
144
100
AcDbEntity
  8
0
100
AcDbBlockBegin
  2
*D6
 70
     1
 10
0.0
 20
0.0
 30
0.0
  3
*D6
  1

  0
LINE
  5
13A
330
144
100
AcDbEntity
  8
0
  6
ByBlock
 62
     1
100
AcDbLine
 10
363.53315
 20
107.610354
 30
0.0
 11
363.53315
 21
113.02761
 31
0.0
  0
LINE
  5
13B
330
144
100
AcDbEntity
  8
0
  6
ByBlock
 62
     1
100
AcDbLine
 10
378.65315
 20
107.610354
 30
0.0
 11
378.65315
 21
113.02761
 31
0.0
  0
LINE
  5
13C
330
144
100
AcDbEntity
  8
0
  6
ByBlock
 62
     1
100
AcDbLine
 10
365.23315
 20
112.72761
 30
0.0
 11
376.95315
 21
112.72761
 31
0.0
  0
SOLID
  5
13D
330
144
100
AcDbEntity
  8
0
  6
ByBlock
 62
     1
100
AcDbTrace
 10
365.23315
 20
113.010944
 30
0.0
 11
365.23315
 21
112.444277
 31
0.0
 12
363.53315
 22
112.72761
 32
0.0
 13
363.53315
 23
112.72761
 33
0.0
  0
SOLID
  5
13E
330
144
100
AcDbEntity
  8
0
  6
ByBlock
 62
     1
100
AcDbTrace
 10
376.95315
 20
113.010944
 30
0.0
 11
376.95315
 21
112.444277
 31
0.0
 12
378.65315
 22
112.72761
 32
0.0
 13
378.65315
 23
112.72761
 33
0.0
  0
MTEXT
  5
13F
330
144
100
AcDbEntity
  8
0
  6
ByBlock
 62
     0
100
AcDbMText
 10
371.09315
 20
114.35261
 30
0.0
 40
1.75
 41
0.0
 71
     5
 72
     1
  1
\A1;A
  7
H
 73
     1
 44
1.0
  0
POINT
  5
140
330
144
100
AcDbEntity
  8
DEFPOINTS
  6
ByBlock
 62
     0
100
AcDbPoint
 10
363.53315
 20
106.610354
 30
0.0
  0
POINT
  5
141
330
144
100
AcDbEntity
  8
DEFPOINTS
  6
ByBlock
 62
     0
100
AcDbPoint
 10
378.65315
 20
106.610354
 30
0.0
  0
POINT
  5
142
330
144
100
AcDbEntity
  8
DEFPOINTS
  6
ByBlock
 62
     0
100
AcDbPoint
 10
378.65315
 20
112.72761
 30
0.0
  0
ENDBLK
  5
59E
330
144
100
AcDbEntity
  8
0
100
AcDbBlockEnd
  0
BLOCK
  5
59F
330
14F
100
AcDbEntity
  8
0
100
AcDbBlockBegin
  2
*D7
 70
     1
 10
0.0
 20
0.0
 30
0.0
  3
*D7
  1

  0
POINT
  5
146
330
14F
100
AcDbEntity
  8
DEFPOINTS
  6
ByBlock
 62
     1
100
AcDbPoint
 10
23.67391
 20
108.1789205
 30
0.0
  0
POINT
  5
147
330
14F
100
AcDbEntity
  8
DEFPOINTS
  6
ByBlock
 62
     1
100
AcDbPoint
 10
38.79391
 20
106.3848234028912
 30
0.0
  0
LINE
  5
148
330
14F
100
AcDbEntity
  8
0
  6
ByBlock
 62
     1
370
    -2
100
AcDbLine
 10
23.67391
 20
109.1789205
 30
0.0
 11
23.67391
 21
124.9448830543033
 31
0.0
  0
LINE
  5
149
330
14F
100
AcDbEntity
  8
0
  6
ByBlock
 62
     1
370
    -2
100
AcDbLine
 10
38.79391
 20
107.3848234028912
 30
0.0
 11
38.79391
 21
124.9448830543033
 31
0.0
  0
LINE
  5
14A
330
14F
100
AcDbEntity
  8
0
  6
ByBlock
 62
     1
370
    -2
100
AcDbLine
 10
25.37391
 20
124.6448830543033
 30
0.0
 11
37.09390999999999
 21
124.6448830543033
 31
0.0
  0
SOLID
  5
14B
330
14F
100
AcDbEntity
  8
0
  6
ByBlock
 62
     1
100
AcDbTrace
 10
23.67391
 20
124.6448830543033
 30
0.0
 11
25.37391
 21
124.36154972097
 31
0.0
 12
25.37391
 22
124.9282163876366
 32
0.0
 13
25.37391
 23
124.9282163876366
 33
0.0
  0
SOLID
  5
14C
330
14F
100
AcDbEntity
  8
0
  6
ByBlock
 62
     1
100
AcDbTrace
 10
38.79391
 20
124.6448830543033
 30
0.0
 11
37.09390999999999
 21
124.36154972097
 31
0.0
 12
37.09390999999999
 22
124.9282163876366
 32
0.0
 13
37.09390999999999
 23
124.9282163876366
 33
0.0
  0
MTEXT
  5
14D
330
14F
100
AcDbEntity
  8
0
  6
ByBlock
 62
     0
370
    -2
100
AcDbMText
 10
31.23391
 20
126.2883857828162
 30
0.0
 40
1.749999999999986
 41
0.0
 71
     5
 72
     1
  1
\A1;84
  7
H
 73
     1
 44
1.0
  0
ENDBLK
  5
5A0
330
14F
100
AcDbEntity
  8
0
100
AcDbBlockEnd
  0
BLOCK
  5
5A1
330
15A
100
AcDbEntity
  8
0
100
AcDbBlockBegin
  2
*D8
 70
     1
 10
0.0
 20
0.0
 30
0.0
  3
*D8
  1

  0
POINT
  5
151
330
15A
100
AcDbEntity
  8
DEFPOINTS
  6
ByBlock
 62
     1
100
AcDbPoint
 10
3.803129
 20
93.3544765
 30
0.0
  0
POINT
  5
152
330
15A
100
AcDbEntity
  8
DEFPOINTS
  6
ByBlock
 62
     1
100
AcDbPoint
 10
17.356103
 20
92.38352649999999
 30
0.0
  0
LINE
  5
153
330
15A
100
AcDbEntity
  8
0
  6
ByBlock
 62
     1
370
    -2
100
AcDbLine
 10
3.803129
 20
92.3544765
 30
0.0
 11
3.803129
 21
85.779899
 31
0.0
  0
LINE
  5
154
330
15A
100
AcDbEntity
  8
0
  6
ByBlock
 62
     1
370
    -2
100
AcDbLine
 10
17.356103
 20
91.38352649999999
 30
0.0
 11
17.356103
 21
85.779899
 31
0.0
  0
LINE
  5
155
330
15A
100
AcDbEntity
  8
0
  6
ByBlock
 62
     1
370
    -2
100
AcDbLine
 10
5.503129
 20
86.079899
 30
0.0
 11
15.656103
 21
86.079899
 31
0.0
  0
SOLID
  5
156
330
15A
100
AcDbEntity
  8
0
  6
ByBlock
 62
     1
100
AcDbTrace
 10
3.803129
 20
86.079899
 30
0.0
 11
5.503129
 21
85.79656566666667
 31
0.0
 12
5.503129
 22
86.36323233333333
 32
0.0
 13
5.503129
 23
86.36323233333333
 33
0.0
  0
SOLID
  5
157
330
15A
100
AcDbEntity
  8
0
  6
ByBlock
 62
     1
100
AcDbTrace
 10
17.356103
 20
86.079899
 30
0.0
 11
15.656103
 21
85.79656566666667
 31
0.0
 12
15.656103
 22
86.36323233333333
 32
0.0
 13
15.656103
 23
86.36323233333333
 33
0.0
  0
MTEXT
  5
158
330
15A
100
AcDbEntity
  8
0
  6
ByBlock
 62
     0
370
    -2
100
AcDbMText
 10
10.579616
 20
87.72399859072306
 30
0.0
 40
1.75
 41
0.0
 71
     5
 72
     1
  1
\A1;75.2943
  7
H
 73
     1
 44
1.0
  0
ENDBLK
  5
5A2
330
15A
100
AcDbEntity
  8
0
100
AcDbBlockEnd
  0
BLOCK
  5
5A3
330
165
100
AcDbEntity
  8
0
100
AcDbBlockBegin
  2
*D9
 70
     1
 10
0.0
 20
0.0
 30
0.0
  3
*D9
  1

  0
POINT
  5
15C
330
165
100
AcDbEntity
  8
DEFPOINTS
  6
ByBlock
 62
     1
100
AcDbPoint
 10
40.90823699999999
 20
114.653114
 30
0.0
  0
POINT
  5
15D
330
165
100
AcDbEntity
  8
DEFPOINTS
  6
ByBlock
 62
     1
100
AcDbPoint
 10
40.90823699999999
 20
95.21311399999999
 30
0.0
  0
LINE
  5
15E
330
165
100
AcDbEntity
  8
0
  6
ByBlock
 62
     1
370
    -2
100
AcDbLine
 10
41.90823699999999
 20
114.653114
 30
0.0
 11
52.939604064398
 21
114.653114
 31
0.0
  0
LINE
  5
15F
330
165
100
AcDbEntity
  8
0
  6
ByBlock
 62
     1
370
    -2
100
AcDbLine
 10
41.90823699999999
 20
95.21311399999999
 30
0.0
 11
52.939604064398
 21
95.21311399999999
 31
0.0
  0
LINE
  5
160
330
165
100
AcDbEntity
  8
0
  6
ByBlock
 62
     1
370
    -2
100
AcDbLine
 10
52.63960406439799
 20
112.953114
 30
0.0
 11
52.63960406439799
 21
96.913114
 31
0.0
  0
SOLID
  5
161
330
165
100
AcDbEntity
  8
0
  6
ByBlock
 62
     1
100
AcDbTrace
 10
52.63960406439799
 20
114.653114
 30
0.0
 11
52.35627073106466
 21
112.953114
 31
0.0
 12
52.92293739773132
 22
112.953114
 32
0.0
 13
52.92293739773132
 23
112.953114
 33
0.0
  0
SOLID
  5
162
330
165
100
AcDbEntity
  8
0
  6
ByBlock
 62
     1
100
AcDbTrace
 10
52.63960406439799
 20
95.21311399999999
 30
0.0
 11
52.35627073106466
 21
96.913114
 31
0.0
 12
52.92293739773132
 22
96.913114
 32
0.0
 13
52.92293739773132
 23
96.913114
 33
0.0
  0
MTEXT
  5
163
330
165
100
AcDbEntity
  8
0
  6
ByBlock
 62
     0
370
    -2
100
AcDbMText
 10
50.99610133588504
 20
104.933114
 30
0.0
 40
1.75
 41
0.0
 71
     5
 72
     1
  1
\A1;108
  7
H
 11
6.123031769111886E-17
 21
1.0
 31
0.0
 73
     1
 44
1.0
  0
ENDBLK
  5
5A4
330
165
100
AcDbEntity
  8
0
100
AcDbBlockEnd
  0
BLOCK
  5
5A5
330
170
100
AcDbEntity
  8
0
100
AcDbBlockBegin
  2
*D10
 70
     1
 10
0.0
 20
0.0
 30
0.0
  3
*D10
  1

  0
POINT
  5
167
330
170
100
AcDbEntity
  8
DEFPOINTS
  6
ByBlock
 62
     1
100
AcDbPoint
 10
19.015645
 20
424.957290492
 30
0.0
  0
POINT
  5
168
330
170
100
AcDbEntity
  8
DEFPOINTS
  6
ByBlock
 62
     1
100
AcDbPoint
 10
86.78051500000001
 20
416.5063315301001
 30
0.0
  0
LINE
  5
169
330
170
100
AcDbEntity
  8
0
  6
ByBlock
 62
     1
370
    -2
100
AcDbLine
 10
19.015645
 20
423.957290492
 30
0.0
 11
19.015645
 21
392.9388720687001
 31
0.0
  0
LINE
  5
16A
330
170
100
AcDbEntity
  8
0
  6
ByBlock
 62
     1
370
    -2
100
AcDbLine
 10
86.78051500000001
 20
415.5063315301001
 30
0.0
 11
86.78051500000001
 21
392.9388720687001
 31
0.0
  0
LINE
  5
16B
330
170
100
AcDbEntity
  8
0
  6
ByBlock
 62
     1
370
    -2
100
AcDbLine
 10
20.715645
 20
393.2388720687001
 30
0.0
 11
85.08051499999999
 21
393.2388720687001
 31
0.0
  0
SOLID
  5
16C
330
170
100
AcDbEntity
  8
0
  6
ByBlock
 62
     1
100
AcDbTrace
 10
19.015645
 20
393.2388720687001
 30
0.0
 11
20.715645
 21
392.9555387353668
 31
0.0
 12
20.715645
 22
393.5222054020334
 32
0.0
 13
20.715645
 23
393.5222054020334
 33
0.0
  0
SOLID
  5
16D
330
170
100
AcDbEntity
  8
0
  6
ByBlock
 62
     1
100
AcDbTrace
 10
86.78051500000001
 20
393.2388720687001
 30
0.0
 11
85.08051499999999
 21
392.9555387353668
 31
0.0
 12
85.08051499999999
 22
393.5222054020334
 32
0.0
 13
85.08051499999999
 23
393.5222054020334
 33
0.0
  0
MTEXT
  5
16E
330
170
100
AcDbEntity
  8
0
  6
ByBlock
 62
     0
370
    -2
100
AcDbMText
 10
52.89808
 20
394.8937151792048
 30
0.0
 40
1.75
 41
0.0
 71
     5
 72
     1
  1
C
  7
H
 73
     1
 44
1.0
  0
ENDBLK
  5
5A6
330
170
100
AcDbEntity
  8
0
100
AcDbBlockEnd
  0
BLOCK
  5
5A7
330
17B
100
AcDbEntity
  8
0
100
AcDbBlockBegin
  2
*D11
 70
     1
 10
0.0
 20
0.0
 30
0.0
  3
*D11
  1

  0
POINT
  5
172
330
17B
100
AcDbEntity
  8
DEFPOINTS
  6
ByBlock
 62
     1
100
AcDbPoint
 10
181.81955
 20
498.9588868166001
 30
0.0
  0
POINT
  5
173
330
17B
100
AcDbEntity
  8
DEFPOINTS
  6
ByBlock
 62
     1
100
AcDbPoint
 10
186.16356
 20
414.3579508166001
 30
0.0
  0
LINE
  5
174
330
17B
100
AcDbEntity
  8
0
  6
ByBlock
 62
     1
370
    -2
100
AcDbLine
 10
182.81955
 20
498.9588868166001
 30
0.0
 11
221.06282
 21
498.9588868166001
 31
0.0
  0
LINE
  5
175
330
17B
100
AcDbEntity
  8
0
  6
ByBlock
 62
     1
370
    -2
100
AcDbLine
 10
187.16356
 20
414.3579508166001
 30
0.0
 11
221.06282
 21
414.3579508166001
 31
0.0
  0
LINE
  5
176
330
17B
100
AcDbEntity
  8
0
  6
ByBlock
 62
     1
370
    -2
100
AcDbLine
 10
220.76282
 20
497.2588868166001
 30
0.0
 11
220.76282
 21
416.0579508166001
 31
0.0
  0
SOLID
  5
177
330
17B
100
AcDbEntity
  8
0
  6
ByBlock
 62
     1
100
AcDbTrace
 10
220.76282
 20
498.9588868166001
 30
0.0
 11
220.4794866666666
 21
497.2588868166001
 31
0.0
 12
221.0461533333333
 22
497.2588868166001
 32
0.0
 13
221.0461533333333
 23
497.2588868166001
 33
0.0
  0
SOLID
  5
178
330
17B
100
AcDbEntity
  8
0
  6
ByBlock
 62
     1
100
AcDbTrace
 10
220.76282
 20
414.3579508166001
 30
0.0
 11
220.4794866666666
 21
416.0579508166001
 31
0.0
 12
221.0461533333333
 22
416.0579508166001
 32
0.0
 13
221.0461533333333
 23
416.0579508166001
 33
0.0
  0
MTEXT
  5
179
330
17B
100
AcDbEntity
  8
0
  6
ByBlock
 62
     0
370
    -2
100
AcDbMText
 10
219.13782
 20
456.6584188166
 30
0.0
 40
1.75
 41
0.0
 71
     5
 72
     1
  1
B
  7
H
 11
6.123031769111886E-17
 21
1.0
 31
0.0
 73
     1
 44
1.0
  0
ENDBLK
  5
5A8
330
17B
100
AcDbEntity
  8
0
100
AcDbBlockEnd
  0
BLOCK
  5
5A9
330
186
100
AcDbEntity
  8
0
100
AcDbBlockBegin
  2
*D12
 70
     1
 10
0.0
 20
0.0
 30
0.0
  3
*D12
  1

  0
POINT
  5
17D
330
186
100
AcDbEntity
  8
DEFPOINTS
  6
ByBlock
 62
     1
100
AcDbPoint
 10
118.36955
 20
488.3837698166
 30
0.0
  0
POINT
  5
17E
330
186
100
AcDbEntity
  8
DEFPOINTS
  6
ByBlock
 62
     1
100
AcDbPoint
 10
193.96955
 20
488.3837698166
 30
0.0
  0
LINE
  5
17F
330
186
100
AcDbEntity
  8
0
  6
ByBlock
 62
     1
370
    -2
100
AcDbLine
 10
118.36955
 20
489.3837698166
 30
0.0
 11
118.36955
 21
515.305456203
 31
0.0
  0
LINE
  5
180
330
186
100
AcDbEntity
  8
0
  6
ByBlock
 62
     1
370
    -2
100
AcDbLine
 10
193.96955
 20
489.3837698166
 30
0.0
 11
193.96955
 21
515.305456203
 31
0.0
  0
LINE
  5
181
330
186
100
AcDbEntity
  8
0
  6
ByBlock
 62
     1
370
    -2
100
AcDbLine
 10
120.06955
 20
515.005456203
 30
0.0
 11
192.26955
 21
515.005456203
 31
0.0
  0
SOLID
  5
182
330
186
100
AcDbEntity
  8
0
  6
ByBlock
 62
     1
100
AcDbTrace
 10
118.36955
 20
515.005456203
 30
0.0
 11
120.06955
 21
514.7221228696667
 31
0.0
 12
120.06955
 22
515.2887895363333
 32
0.0
 13
120.06955
 23
515.2887895363333
 33
0.0
  0
SOLID
  5
183
330
186
100
AcDbEntity
  8
0
  6
ByBlock
 62
     1
100
AcDbTrace
 10
193.96955
 20
515.005456203
 30
0.0
 11
192.26955
 21
514.7221228696667
 31
0.0
 12
192.26955
 22
515.2887895363333
 32
0.0
 13
192.26955
 23
515.2887895363333
 33
0.0
  0
MTEXT
  5
184
330
186
100
AcDbEntity
  8
0
  6
ByBlock
 62
     0
370
    -2
100
AcDbMText
 10
156.16955
 20
516.630456203
 30
0.0
 40
1.75
 41
0.0
 71
     5
 72
     1
  1
A
  7
H
 73
     1
 44
1.0
  0
ENDBLK
  5
5AA
330
186
100
AcDbEntity
  8
0
100
AcDbBlockEnd
  0
BLOCK
  5
5AB
330
192
100
AcDbEntity
  8
0
100
AcDbBlockBegin
  2
*D13
 70
     1
 10
0.0
 20
0.0
 30
0.0
  3
*D13
  1

  0
POINT
  5
188
330
192
100
AcDbEntity
  8
DEFPOINTS
  6
ByBlock
 62
     1
100
AcDbPoint
 10
118.36955
 20
470.7838441239501
 30
0.0
  0
POINT
  5
189
330
192
100
AcDbEntity
  8
DEFPOINTS
  6
ByBlock
 62
     1
100
AcDbPoint
 10
193.96955
 20
462.9761129670423
 30
0.0
  0
LINE
  5
18A
330
192
100
AcDbEntity
  8
0
  6
ByBlock
 62
     1
370
    -2
100
AcDbLine
 10
118.36955
 20
471.7838441239501
 30
0.0
 11
118.36955
 21
542.7420665640226
 31
0.0
  0
LINE
  5
18B
330
192
100
AcDbEntity
  8
0
  6
ByBlock
 62
     1
370
    -2
100
AcDbLine
 10
193.96955
 20
463.9761129670423
 30
0.0
 11
193.96955
 21
542.7420665640226
 31
0.0
  0
LINE
  5
18C
330
192
100
AcDbEntity
  8
0
  6
ByBlock
 62
     1
370
    -2
100
AcDbLine
 10
118.36955
 20
542.4420665640226
 30
0.0
 11
193.96955
 21
542.4420665640226
 31
0.0
  0
SOLID
  5
18D
330
192
100
AcDbEntity
  8
0
  6
ByBlock
 62
     1
100
AcDbTrace
 10
118.36955
 20
542.4420665640226
 30
0.0
 11
120.06955
 21
542.1587332306893
 31
0.0
 12
120.06955
 22
542.7253998973559
 32
0.0
 13
120.06955
 23
542.7253998973559
 33
0.0
  0
SOLID
  5
18E
330
192
100
AcDbEntity
  8
0
  6
ByBlock
 62
     1
100
AcDbTrace
 10
193.96955
 20
542.4420665640226
 30
0.0
 11
192.26955
 21
542.1587332306893
 31
0.0
 12
192.26955
 22
542.7253998973559
 32
0.0
 13
192.26955
 23
542.7253998973559
 33
0.0
  0
LINE
  5
18F
330
192
100
AcDbEntity
  8
0
  6
ByBlock
 62
     1
370
    -2
100
AcDbLine
 10
118.36955
 20
470.7838441239501
 30
0.0
 11
118.36955
 21
470.7838441239501
 31
0.0
  0
MTEXT
  5
190
330
192
100
AcDbEntity
  8
0
  6
ByBlock
 62
     0
370
    -2
100
AcDbMText
 10
156.16955
 20
549.5944260882379
 30
0.0
 40
1.75
 41
0.0
 71
     5
 72
     1
  1
\A1;420
  7
H
 73
     1
 44
1.0
  0
ENDBLK
  5
5AC
330
192
100
AcDbEntity
  8
0
100
AcDbBlockEnd
  0
BLOCK
  5
5AD
330
19E
100
AcDbEntity
  8
0
100
AcDbBlockBegin
  2
*D14
 70
     1
 10
0.0
 20
0.0
 30
0.0
  3
*D14
  1

  0
POINT
  5
194
330
19E
100
AcDbEntity
  8
DEFPOINTS
  6
ByBlock
 62
     1
100
AcDbPoint
 10
19.015645
 20
406.2693462803501
 30
0.0
  0
POINT
  5
195
330
19E
100
AcDbEntity
  8
DEFPOINTS
  6
ByBlock
 62
     1
100
AcDbPoint
 10
86.78051500000001
 20
402.04386897535
 30
0.0
  0
LINE
  5
196
330
19E
100
AcDbEntity
  8
0
  6
ByBlock
 62
     1
370
    -2
100
AcDbLine
 10
19.015645
 20
405.2693462803501
 30
0.0
 11
19.015645
 21
374.3111124581
 31
0.0
  0
LINE
  5
197
330
19E
100
AcDbEntity
  8
0
  6
ByBlock
 62
     1
370
    -2
100
AcDbLine
 10
86.78051500000001
 20
401.04386897535
 30
0.0
 11
86.78051500000001
 21
374.3111124581
 31
0.0
  0
LINE
  5
198
330
19E
100
AcDbEntity
  8
0
  6
ByBlock
 62
     1
370
    -2
100
AcDbLine
 10
19.015645
 20
374.6111124581
 30
0.0
 11
86.78051500000001
 21
374.6111124581
 31
0.0
  0
SOLID
  5
199
330
19E
100
AcDbEntity
  8
0
  6
ByBlock
 62
     1
100
AcDbTrace
 10
19.015645
 20
374.6111124581
 30
0.0
 11
20.715645
 21
374.3277791247667
 31
0.0
 12
20.715645
 22
374.8944457914334
 32
0.0
 13
20.715645
 23
374.8944457914334
 33
0.0
  0
SOLID
  5
19A
330
19E
100
AcDbEntity
  8
0
  6
ByBlock
 62
     1
100
AcDbTrace
 10
86.78051500000001
 20
374.6111124581
 30
0.0
 11
85.08051499999999
 21
374.3277791247667
 31
0.0
 12
85.08051499999999
 22
374.8944457914334
 32
0.0
 13
85.08051499999999
 23
374.8944457914334
 33
0.0
  0
LINE
  5
19B
330
19E
100
AcDbEntity
  8
0
  6
ByBlock
 62
     1
370
    -2
100
AcDbLine
 10
19.015645
 20
406.2693462803501
 30
0.0
 11
19.015645
 21
406.2693462803501
 31
0.0
  0
MTEXT
  5
19C
330
19E
100
AcDbEntity
  8
0
  6
ByBlock
 62
     0
370
    -2
100
AcDbMText
 10
52.89808
 20
381.7660694669677
 30
0.0
 40
1.75
 41
0.0
 71
     5
 72
     1
  1
\A1;376.4715
  7
H
 73
     1
 44
1.0
  0
ENDBLK
  5
5AE
330
19E
100
AcDbEntity
  8
0
100
AcDbBlockEnd
  0
BLOCK
  5
5AF
330
1AA
100
AcDbEntity
  8
0
100
AcDbBlockBegin
  2
*D15
 70
     1
 10
0.0
 20
0.0
 30
0.0
  3
*D15
  1

  0
POINT
  5
1A0
330
1AA
100
AcDbEntity
  8
DEFPOINTS
  6
ByBlock
 62
     1
100
AcDbPoint
 10
204.541185
 20
498.9588868166001
 30
0.0
  0
POINT
  5
1A1
330
1AA
100
AcDbEntity
  8
DEFPOINTS
  6
ByBlock
 62
     1
100
AcDbPoint
 10
204.541185
 20
414.3579508166
 30
0.0
  0
LINE
  5
1A2
330
1AA
100
AcDbEntity
  8
0
  6
ByBlock
 62
     1
370
    -2
100
AcDbLine
 10
205.541185
 20
498.9588868166001
 30
0.0
 11
263.49802032199
 21
498.9588868166001
 31
0.0
  0
LINE
  5
1A3
330
1AA
100
AcDbEntity
  8
0
  6
ByBlock
 62
     1
370
    -2
100
AcDbLine
 10
205.541185
 20
414.3579508166
 30
0.0
 11
263.49802032199
 21
414.3579508166
 31
0.0
  0
LINE
  5
1A4
330
1AA
100
AcDbEntity
  8
0
  6
ByBlock
 62
     1
370
    -2
100
AcDbLine
 10
263.19802032199
 20
498.9588868166001
 30
0.0
 11
263.19802032199
 21
414.3579508166
 31
0.0
  0
SOLID
  5
1A5
330
1AA
100
AcDbEntity
  8
0
  6
ByBlock
 62
     1
100
AcDbTrace
 10
263.19802032199
 20
498.9588868166001
 30
0.0
 11
262.9146869886566
 21
497.2588868166001
 31
0.0
 12
263.4813536553233
 22
497.2588868166001
 32
0.0
 13
263.4813536553233
 23
497.2588868166001
 33
0.0
  0
SOLID
  5
1A6
330
1AA
100
AcDbEntity
  8
0
  6
ByBlock
 62
     1
100
AcDbTrace
 10
263.19802032199
 20
414.3579508166
 30
0.0
 11
262.9146869886566
 21
416.0579508166
 31
0.0
 12
263.4813536553233
 22
416.0579508166
 32
0.0
 13
263.4813536553233
 23
416.0579508166
 33
0.0
  0
LINE
  5
1A7
330
1AA
100
AcDbEntity
  8
0
  6
ByBlock
 62
     1
370
    -2
100
AcDbLine
 10
204.541185
 20
498.9588868166001
 30
0.0
 11
204.541185
 21
498.9588868166001
 31
0.0
  0
MTEXT
  5
1A8
330
1AA
100
AcDbEntity
  8
0
  6
ByBlock
 62
     0
370
    -2
100
AcDbMText
 10
254.9805066794252
 20
456.6584188166001
 30
0.0
 40
1.75
 41
0.0
 71
     5
 72
     1
  1
\A1;470.0052
  7
H
 11
6.123031769111886E-17
 21
1.0
 31
0.0
 73
     1
 44
1.0
  0
ENDBLK
  5
5B0
330
1AA
100
AcDbEntity
  8
0
100
AcDbBlockEnd
  0
BLOCK
  5
5B1
330
1B5
100
AcDbEntity
  8
0
100
AcDbBlockBegin
  2
*D16
 70
     1
 10
0.0
 20
0.0
 30
0.0
  3
*D16
  1

  0
POINT
  5
1AC
330
1B5
100
AcDbEntity
  8
DEFPOINTS
  6
ByBlock
 62
     0
100
AcDbPoint
 10
19.015645
 20
405.2693462803501
 30
0.0
  0
POINT
  5
1AD
330
1B5
100
AcDbEntity
  8
DEFPOINTS
  6
ByBlock
 62
     0
100
AcDbPoint
 10
86.78051500000001
 20
405.2693462803501
 30
0.0
  0
LINE
  5
1AE
330
1B5
100
AcDbEntity
  8
0
  6
ByBlock
 62
     0
370
    -2
100
AcDbLine
 10
19.015645
 20
404.6443462803501
 30
0.0
 11
19.015645
 21
354.7470095808259
 31
0.0
  0
LINE
  5
1AF
330
1B5
100
AcDbEntity
  8
0
  6
ByBlock
 62
     0
370
    -2
100
AcDbLine
 10
86.78051500000001
 20
404.6443462803501
 30
0.0
 11
86.78051500000001
 21
354.7470095808259
 31
0.0
  0
LINE
  5
1B0
330
1B5
100
AcDbEntity
  8
0
  6
ByBlock
 62
     0
370
    -2
100
AcDbLine
 10
21.515645
 20
355.9970095808259
 30
0.0
 11
84.28051500000001
 21
355.9970095808259
 31
0.0
  0
SOLID
  5
1B1
330
1B5
100
AcDbEntity
  8
0
  6
ByBlock
 62
     0
100
AcDbTrace
 10
19.015645
 20
355.9970095808259
 30
0.0
 11
21.515645
 21
355.5803429141592
 31
0.0
 12
21.515645
 22
356.4136762474926
 32
0.0
 13
21.515645
 23
356.4136762474926
 33
0.0
  0
SOLID
  5
1B2
330
1B5
100
AcDbEntity
  8
0
  6
ByBlock
 62
     0
100
AcDbTrace
 10
86.78051500000001
 20
355.9970095808259
 30
0.0
 11
84.28051500000001
 21
355.5803429141592
 31
0.0
 12
84.28051500000001
 22
356.4136762474926
 32
0.0
 13
84.28051500000001
 23
356.4136762474926
 33
0.0
  0
MTEXT
  5
1B3
330
1B5
100
AcDbEntity
  8
0
  6
ByBlock
 62
     0
370
    -2
100
AcDbMText
 10
52.89808
 20
358.0803429141592
 30
0.0
 40
2.5
 41
0.0
 71
     5
 72
     1
  1
\A1;67,76
 73
     1
 44
1.0
  0
ENDBLK
  5
5B2
330
1B5
100
AcDbEntity
  8
0
100
AcDbBlockEnd
  0
BLOCK
  5
5B3
330
1C0
100
AcDbEntity
  8
0
100
AcDbBlockBegin
  2
*D17
 70
     1
 10
0.0
 20
0.0
 30
0.0
  3
*D17
  1

  0
POINT
  5
1B7
330
1C0
100
AcDbEntity
  8
DEFPOINTS
  6
ByBlock
 62
     0
100
AcDbPoint
 10
118.36955
 20
531.1714715410998
 30
0.0
  0
POINT
  5
1B8
330
1C0
100
AcDbEntity
  8
DEFPOINTS
  6
ByBlock
 62
     0
100
AcDbPoint
 10
193.96955
 20
529.7057135511022
 30
0.0
  0
LINE
  5
1B9
330
1C0
100
AcDbEntity
  8
0
  6
ByBlock
 62
     0
370
    -2
100
AcDbLine
 10
118.36955
 20
531.7964715410998
 30
0.0
 11
118.36955
 21
555.1407203860609
 31
0.0
  0
LINE
  5
1BA
330
1C0
100
AcDbEntity
  8
0
  6
ByBlock
 62
     0
370
    -2
100
AcDbLine
 10
193.96955
 20
530.3307135511022
 30
0.0
 11
193.96955
 21
555.1407203860609
 31
0.0
  0
LINE
  5
1BB
330
1C0
100
AcDbEntity
  8
0
  6
ByBlock
 62
     0
370
    -2
100
AcDbLine
 10
120.86955
 20
553.8907203860609
 30
0.0
 11
191.46955
 21
553.8907203860609
 31
0.0
  0
SOLID
  5
1BC
330
1C0
100
AcDbEntity
  8
0
  6
ByBlock
 62
     0
100
AcDbTrace
 10
118.36955
 20
553.8907203860609
 30
0.0
 11
120.86955
 21
553.4740537193943
 31
0.0
 12
120.86955
 22
554.3073870527276
 32
0.0
 13
120.86955
 23
554.3073870527276
 33
0.0
  0
SOLID
  5
1BD
330
1C0
100
AcDbEntity
  8
0
  6
ByBlock
 62
     0
100
AcDbTrace
 10
193.96955
 20
553.8907203860609
 30
0.0
 11
191.46955
 21
553.4740537193943
 31
0.0
 12
191.46955
 22
554.3073870527276
 32
0.0
 13
191.46955
 23
554.3073870527276
 33
0.0
  0
MTEXT
  5
1BE
330
1C0
100
AcDbEntity
  8
0
  6
ByBlock
 62
     0
370
    -2
100
AcDbMText
 10
156.16955
 20
555.9740537193943
 30
0.0
 40
2.5
 41
0.0
 71
     5
 72
     1
  1
\A1;75,6
 73
     1
 44
1.0
  0
ENDBLK
  5
5B4
330
1C0
100
AcDbEntity
  8
0
100
AcDbBlockEnd
  0
BLOCK
  5
5B5
330
1CC
100
AcDbEntity
  8
0
100
AcDbBlockBegin
  2
*D18
 70
     1
 10
0.0
 20
0.0
 30
0.0
  3
*D18
  1

  0
POINT
  5
1C2
330
1CC
100
AcDbEntity
  8
DEFPOINTS
  6
ByBlock
 62
     1
100
AcDbPoint
 10
118.36955
 20
470.7838441239501
 30
0.0
  0
POINT
  5
1C3
330
1CC
100
AcDbEntity
  8
DEFPOINTS
  6
ByBlock
 62
     1
100
AcDbPoint
 10
193.96955
 20
462.9761129670423
 30
0.0
  0
LINE
  5
1C4
330
1CC
100
AcDbEntity
  8
0
  6
ByBlock
 62
     1
370
    -2
100
AcDbLine
 10
118.36955
 20
471.7838441239501
 30
0.0
 11
118.36955
 21
542.7420665640226
 31
0.0
  0
LINE
  5
1C5
330
1CC
100
AcDbEntity
  8
0
  6
ByBlock
 62
     1
370
    -2
100
AcDbLine
 10
193.96955
 20
463.9761129670423
 30
0.0
 11
193.96955
 21
542.7420665640226
 31
0.0
  0
LINE
  5
1C6
330
1CC
100
AcDbEntity
  8
0
  6
ByBlock
 62
     1
370
    -2
100
AcDbLine
 10
118.36955
 20
542.4420665640226
 30
0.0
 11
193.96955
 21
542.4420665640226
 31
0.0
  0
SOLID
  5
1C7
330
1CC
100
AcDbEntity
  8
0
  6
ByBlock
 62
     1
100
AcDbTrace
 10
118.36955
 20
542.4420665640226
 30
0.0
 11
120.06955
 21
542.1587332306893
 31
0.0
 12
120.06955
 22
542.7253998973559
 32
0.0
 13
120.06955
 23
542.7253998973559
 33
0.0
  0
SOLID
  5
1C8
330
1CC
100
AcDbEntity
  8
0
  6
ByBlock
 62
     1
100
AcDbTrace
 10
193.96955
 20
542.4420665640226
 30
0.0
 11
192.26955
 21
542.1587332306893
 31
0.0
 12
192.26955
 22
542.7253998973559
 32
0.0
 13
192.26955
 23
542.7253998973559
 33
0.0
  0
LINE
  5
1C9
330
1CC
100
AcDbEntity
  8
0
  6
ByBlock
 62
     1
370
    -2
100
AcDbLine
 10
118.36955
 20
470.7838441239501
 30
0.0
 11
118.36955
 21
470.7838441239501
 31
0.0
  0
MTEXT
  5
1CA
330
1CC
100
AcDbEntity
  8
0
  6
ByBlock
 62
     0
370
    -2
100
AcDbMText
 10
156.16955
 20
549.5944260882379
 30
0.0
 40
1.75
 41
0.0
 71
     5
 72
     1
  1
\A1;420
  7
H
 73
     1
 44
1.0
  0
ENDBLK
  5
5B6
330
1CC
100
AcDbEntity
  8
0
100
AcDbBlockEnd
  0
BLOCK
  5
5B7
330
1D7
100
AcDbEntity
  8
0
100
AcDbBlockBegin
  2
*D19
 70
     1
 10
0.0
 20
0.0
 30
0.0
  3
*D19
  1

  0
POINT
  5
1CE
330
1D7
100
AcDbEntity
  8
DEFPOINTS
  6
ByBlock
 62
     0
100
AcDbPoint
 10
240.1715432787032
 20
498.9588868166001
 30
0.0
  0
POINT
  5
1CF
330
1D7
100
AcDbEntity
  8
DEFPOINTS
  6
ByBlock
 62
     0
100
AcDbPoint
 10
240.1715432787032
 20
414.3579508166
 30
0.0
  0
LINE
  5
1D0
330
1D7
100
AcDbEntity
  8
0
  6
ByBlock
 62
     0
370
    -2
100
AcDbLine
 10
240.7965432787032
 20
498.9588868166001
 30
0.0
 11
296.7329844997417
 21
498.9588868166001
 31
0.0
  0
LINE
  5
1D1
330
1D7
100
AcDbEntity
  8
0
  6
ByBlock
 62
     0
370
    -2
100
AcDbLine
 10
240.7965432787032
 20
414.3579508166
 30
0.0
 11
296.7329844997417
 21
414.3579508166
 31
0.0
  0
LINE
  5
1D2
330
1D7
100
AcDbEntity
  8
0
  6
ByBlock
 62
     0
370
    -2
100
AcDbLine
 10
295.4829844997417
 20
496.4588868166001
 30
0.0
 11
295.4829844997417
 21
416.8579508166
 31
0.0
  0
SOLID
  5
1D3
330
1D7
100
AcDbEntity
  8
0
  6
ByBlock
 62
     0
100
AcDbTrace
 10
295.4829844997417
 20
498.9588868166001
 30
0.0
 11
295.066317833075
 21
496.4588868166001
 31
0.0
 12
295.8996511664084
 22
496.4588868166001
 32
0.0
 13
295.8996511664084
 23
496.4588868166001
 33
0.0
  0
SOLID
  5
1D4
330
1D7
100
AcDbEntity
  8
0
  6
ByBlock
 62
     0
100
AcDbTrace
 10
295.4829844997417
 20
414.3579508166
 30
0.0
 11
295.066317833075
 21
416.8579508166
 31
0.0
 12
295.8996511664084
 22
416.8579508166
 32
0.0
 13
295.8996511664084
 23
416.8579508166
 33
0.0
  0
MTEXT
  5
1D5
330
1D7
100
AcDbEntity
  8
0
  6
ByBlock
 62
     0
370
    -2
100
AcDbMText
 10
293.3996511664084
 20
456.6584188166
 30
0.0
 40
2.5
 41
0.0
 71
     5
 72
     1
  1
\A1;84,6
 11
6.123031769111886E-17
 21
1.0
 31
0.0
 73
     1
 44
1.0
  0
ENDBLK
  5
5B8
330
1D7
100
AcDbEntity
  8
0
100
AcDbBlockEnd
  0
BLOCK
  5
5B9
330
3D3
100
AcDbEntity
  8
0
100
AcDbBlockBegin
  2
*D20
 70
     1
 10
0.0
 20
0.0
 30
0.0
  3
*D20
  1

  0
POINT
  5
3CA
330
3D3
100
AcDbEntity
  8
DEFPOINTS
  6
ByBlock
 62
     1
380
     1
100
AcDbPoint
 10
105.643317362
 20
2360.892723057355
 30
0.0
  0
POINT
  5
3CB
330
3D3
100
AcDbEntity
  8
DEFPOINTS
  6
ByBlock
 62
     1
380
     1
100
AcDbPoint
 10
482.117829134
 20
2313.942575448624
 30
0.0
  0
LINE
  5
3CC
330
3D3
100
AcDbEntity
  8
0
  6
ByBlock
 62
     1
370
    -2
380
     1
100
AcDbLine
 10
105.643317362
 20
2359.892723057355
 30
0.0
 11
105.643317362
 21
2184.37787766487
 31
0.0
  0
LINE
  5
3CD
330
3D3
100
AcDbEntity
  8
0
  6
ByBlock
 62
     1
370
    -2
380
     1
100
AcDbLine
 10
482.117829134
 20
2312.942575448624
 30
0.0
 11
482.117829134
 21
2184.37787766487
 31
0.0
  0
LINE
  5
3CE
330
3D3
100
AcDbEntity
  8
0
  6
ByBlock
 62
     1
370
    -2
380
     1
100
AcDbLine
 10
107.343317362
 20
2184.67787766487
 30
0.0
 11
480.417829134
 21
2184.67787766487
 31
0.0
  0
SOLID
  5
3CF
330
3D3
100
AcDbEntity
  8
0
  6
ByBlock
 62
     1
380
     1
100
AcDbTrace
 10
105.643317362
 20
2184.67787766487
 30
0.0
 11
107.343317362
 21
2184.394544331537
 31
0.0
 12
107.343317362
 22
2184.961210998204
 32
0.0
 13
107.343317362
 23
2184.961210998204
 33
0.0
  0
SOLID
  5
3D0
330
3D3
100
AcDbEntity
  8
0
  6
ByBlock
 62
     1
380
     1
100
AcDbTrace
 10
482.117829134
 20
2184.67787766487
 30
0.0
 11
480.417829134
 21
2184.394544331537
 31
0.0
 12
480.417829134
 22
2184.961210998204
 32
0.0
 13
480.417829134
 23
2184.961210998204
 33
0.0
  0
MTEXT
  5
3D1
330
3D3
100
AcDbEntity
  8
0
  6
ByBlock
 62
     0
370
    -2
380
     1
100
AcDbMText
 10
293.880573248
 20
2186.332720775375
 30
0.0
 40
1.75
 41
0.0
 71
     5
 72
     1
  1
C
  7
H
 73
     1
 44
1.0
  0
ENDBLK
  5
5BA
330
3D3
100
AcDbEntity
  8
0
100
AcDbBlockEnd
  0
BLOCK
  5
5BB
330
3FF
100
AcDbEntity
  8
0
100
AcDbBlockBegin
  2
*D21
 70
     1
 10
0.0
 20
0.0
 30
0.0
  3
*D21
  1

  0
POINT
  5
3F6
330
3FF
100
AcDbEntity
  8
DEFPOINTS
  6
ByBlock
 62
     1
380
     1
100
AcDbPoint
 10
1010.11669198
 20
2772.015991598304
 30
0.0
  0
POINT
  5
3F7
330
3FF
100
AcDbEntity
  8
DEFPOINTS
  6
ByBlock
 62
     1
380
     1
100
AcDbPoint
 10
1034.250273936
 20
2302.007031556704
 30
0.0
  0
LINE
  5
3F8
330
3FF
100
AcDbEntity
  8
0
  6
ByBlock
 62
     1
370
    -2
380
     1
100
AcDbLine
 10
1011.11669198
 20
2772.015991598304
 30
0.0
 11
1226.769922792
 21
2772.015991598304
 31
0.0
  0
LINE
  5
3F9
330
3FF
100
AcDbEntity
  8
0
  6
ByBlock
 62
     1
370
    -2
380
     1
100
AcDbLine
 10
1035.250273936
 20
2302.007031556704
 30
0.0
 11
1226.769922792
 21
2302.007031556704
 31
0.0
  0
LINE
  5
3FA
330
3FF
100
AcDbEntity
  8
0
  6
ByBlock
 62
     1
370
    -2
380
     1
100
AcDbLine
 10
1226.469922792
 20
2770.315991598304
 30
0.0
 11
1226.469922792
 21
2303.707031556703
 31
0.0
  0
SOLID
  5
3FB
330
3FF
100
AcDbEntity
  8
0
  6
ByBlock
 62
     1
380
     1
100
AcDbTrace
 10
1226.469922792
 20
2772.015991598304
 30
0.0
 11
1226.186589458667
 21
2770.315991598304
 31
0.0
 12
1226.753256125333
 22
2770.315991598304
 32
0.0
 13
1226.753256125333
 23
2770.315991598304
 33
0.0
  0
SOLID
  5
3FC
330
3FF
100
AcDbEntity
  8
0
  6
ByBlock
 62
     1
380
     1
100
AcDbTrace
 10
1226.469922792
 20
2302.007031556704
 30
0.0
 11
1226.186589458667
 21
2303.707031556703
 31
0.0
 12
1226.753256125333
 22
2303.707031556703
 32
0.0
 13
1226.753256125333
 23
2303.707031556703
 33
0.0
  0
MTEXT
  5
3FD
330
3FF
100
AcDbEntity
  8
0
  6
ByBlock
 62
     0
370
    -2
380
     1
100
AcDbMText
 10
1224.844922792
 20
2537.011511577503
 30
0.0
 40
1.75
 41
0.0
 71
     5
 72
     1
  1
B
  7
H
 11
6.123031769111886E-17
 21
1.0
 31
0.0
 73
     1
 44
1.0
  0
ENDBLK
  5
5BC
330
3FF
100
AcDbEntity
  8
0
100
AcDbBlockEnd
  0
BLOCK
  5
5BD
330
40B
100
AcDbEntity
  8
0
100
AcDbBlockBegin
  2
*D22
 70
     1
 10
0.0
 20
0.0
 30
0.0
  3
*D22
  1

  0
POINT
  5
402
330
40B
100
AcDbEntity
  8
DEFPOINTS
  6
ByBlock
 62
     1
380
     1
100
AcDbPoint
 10
657.61387198
 20
2713.264871593103
 30
0.0
  0
POINT
  5
403
330
40B
100
AcDbEntity
  8
DEFPOINTS
  6
ByBlock
 62
     1
380
     1
100
AcDbPoint
 10
1077.61723198
 20
2713.264871593103
 30
0.0
  0
LINE
  5
404
330
40B
100
AcDbEntity
  8
0
  6
ByBlock
 62
     1
370
    -2
380
     1
100
AcDbLine
 10
657.61387198
 20
2714.264871593103
 30
0.0
 11
657.61387198
 21
2861.464312481387
 31
0.0
  0
LINE
  5
405
330
40B
100
AcDbEntity
  8
0
  6
ByBlock
 62
     1
370
    -2
380
     1
100
AcDbLine
 10
1077.61723198
 20
2714.264871593103
 30
0.0
 11
1077.61723198
 21
2861.464312481387
 31
0.0
  0
LINE
  5
406
330
40B
100
AcDbEntity
  8
0
  6
ByBlock
 62
     1
370
    -2
380
     1
100
AcDbLine
 10
659.31387198
 20
2861.164312481387
 30
0.0
 11
1075.91723198
 21
2861.164312481387
 31
0.0
  0
SOLID
  5
407
330
40B
100
AcDbEntity
  8
0
  6
ByBlock
 62
     1
380
     1
100
AcDbTrace
 10
657.61387198
 20
2861.164312481387
 30
0.0
 11
659.31387198
 21
2860.880979148053
 31
0.0
 12
659.31387198
 22
2861.44764581472
 32
0.0
 13
659.31387198
 23
2861.44764581472
 33
0.0
  0
SOLID
  5
408
330
40B
100
AcDbEntity
  8
0
  6
ByBlock
 62
     1
380
     1
100
AcDbTrace
 10
1077.61723198
 20
2861.164312481387
 30
0.0
 11
1075.91723198
 21
2860.880979148053
 31
0.0
 12
1075.91723198
 22
2861.44764581472
 32
0.0
 13
1075.91723198
 23
2861.44764581472
 33
0.0
  0
MTEXT
  5
409
330
40B
100
AcDbEntity
  8
0
  6
ByBlock
 62
     0
370
    -2
380
     1
100
AcDbMText
 10
867.61555198
 20
2862.789312481387
 30
0.0
 40
1.75
 41
0.0
 71
     5
 72
     1
  1
A
  7
H
 73
     1
 44
1.0
  0
ENDBLK
  5
5BE
330
40B
100
AcDbEntity
  8
0
100
AcDbBlockEnd
  0
BLOCK
  5
5BF
330
4C6
100
AcDbEntity
  8
0
100
AcDbBlockBegin
  2
*D23
 70
     1
 10
0.0
 20
0.0
 30
0.0
  3
*D23
  1

  0
POINT
  5
4BC
330
4C6
100
AcDbEntity
  8
DEFPOINTS
  6
ByBlock
 62
     1
380
     1
100
AcDbPoint
 10
657.61387198
 20
2615.486724415017
 30
0.0
  0
POINT
  5
4BD
330
4C6
100
AcDbEntity
  8
DEFPOINTS
  6
ByBlock
 62
     1
380
     1
100
AcDbPoint
 10
1077.61723198
 20
2572.1100931997
 30
0.0
  0
LINE
  5
4BE
330
4C6
100
AcDbEntity
  8
0
  6
ByBlock
 62
     1
370
    -2
380
     1
100
AcDbLine
 10
657.61387198
 20
2616.486724415017
 30
0.0
 11
657.61387198
 21
3013.891145003085
 31
0.0
  0
LINE
  5
4BF
330
4C6
100
AcDbEntity
  8
0
  6
ByBlock
 62
     1
370
    -2
380
     1
100
AcDbLine
 10
1077.61723198
 20
2573.1100931997
 30
0.0
 11
1077.61723198
 21
3013.891145003085
 31
0.0
  0
LINE
  5
4C0
330
4C6
100
AcDbEntity
  8
0
  6
ByBlock
 62
     1
370
    -2
380
     1
100
AcDbLine
 10
657.61387198
 20
3013.591145003084
 30
0.0
 11
1077.61723198
 21
3013.591145003084
 31
0.0
  0
SOLID
  5
4C1
330
4C6
100
AcDbEntity
  8
0
  6
ByBlock
 62
     1
380
     1
100
AcDbTrace
 10
657.61387198
 20
3013.591145003084
 30
0.0
 11
659.31387198
 21
3013.307811669751
 31
0.0
 12
659.31387198
 22
3013.874478336418
 32
0.0
 13
659.31387198
 23
3013.874478336418
 33
0.0
  0
SOLID
  5
4C2
330
4C6
100
AcDbEntity
  8
0
  6
ByBlock
 62
     1
380
     1
100
AcDbTrace
 10
1077.61723198
 20
3013.591145003084
 30
0.0
 11
1075.91723198
 21
3013.307811669751
 31
0.0
 12
1075.91723198
 22
3013.874478336418
 32
0.0
 13
1075.91723198
 23
3013.874478336418
 33
0.0
  0
LINE
  5
4C3
330
4C6
100
AcDbEntity
  8
0
  6
ByBlock
 62
     1
370
    -2
380
     1
100
AcDbLine
 10
657.61387198
 20
2615.486724415017
 30
0.0
 11
657.61387198
 21
2615.486724415017
 31
0.0
  0
MTEXT
  5
4C4
330
4C6
100
AcDbEntity
  8
0
  6
ByBlock
 62
     0
370
    -2
380
     1
100
AcDbMText
 10
867.61555198
 20
3053.326793575814
 30
0.0
 40
1.75
 41
0.0
 71
     5
 72
     1
  1
\A1;2333.3522
  7
H
 73
     1
 44
1.0
  0
ENDBLK
  5
5C0
330
4C6
100
AcDbEntity
  8
0
100
AcDbBlockEnd
  0
BLOCK
  5
5C1
330
4D3
100
AcDbEntity
  8
0
100
AcDbBlockBegin
  2
*D24
 70
     1
 10
0.0
 20
0.0
 30
0.0
  3
*D24
  1

  0
POINT
  5
4C9
330
4D3
100
AcDbEntity
  8
DEFPOINTS
  6
ByBlock
 62
     1
380
     1
100
AcDbPoint
 10
105.643317362
 20
2257.069980195113
 30
0.0
  0
POINT
  5
4CA
330
4D3
100
AcDbEntity
  8
DEFPOINTS
  6
ByBlock
 62
     1
380
     1
100
AcDbPoint
 10
482.117829134
 20
2233.594918479454
 30
0.0
  0
LINE
  5
4CB
330
4D3
100
AcDbEntity
  8
0
  6
ByBlock
 62
     1
370
    -2
380
     1
100
AcDbLine
 10
105.643317362
 20
2256.069980195113
 30
0.0
 11
105.643317362
 21
2080.88949637222
 31
0.0
  0
LINE
  5
4CC
330
4D3
100
AcDbEntity
  8
0
  6
ByBlock
 62
     1
370
    -2
380
     1
100
AcDbLine
 10
482.117829134
 20
2232.594918479454
 30
0.0
 11
482.117829134
 21
2080.88949637222
 31
0.0
  0
LINE
  5
4CD
330
4D3
100
AcDbEntity
  8
0
  6
ByBlock
 62
     1
370
    -2
380
     1
100
AcDbLine
 10
105.643317362
 20
2081.189496372221
 30
0.0
 11
482.117829134
 21
2081.189496372221
 31
0.0
  0
SOLID
  5
4CE
330
4D3
100
AcDbEntity
  8
0
  6
ByBlock
 62
     1
380
     1
100
AcDbTrace
 10
105.643317362
 20
2081.189496372221
 30
0.0
 11
107.343317362
 21
2080.906163038887
 31
0.0
 12
107.343317362
 22
2081.472829705554
 32
0.0
 13
107.343317362
 23
2081.472829705554
 33
0.0
  0
SOLID
  5
4CF
330
4D3
100
AcDbEntity
  8
0
  6
ByBlock
 62
     1
380
     1
100
AcDbTrace
 10
482.117829134
 20
2081.189496372221
 30
0.0
 11
480.417829134
 21
2080.906163038887
 31
0.0
 12
480.417829134
 22
2081.472829705554
 32
0.0
 13
480.417829134
 23
2081.472829705554
 33
0.0
  0
LINE
  5
4D0
330
4D3
100
AcDbEntity
  8
0
  6
ByBlock
 62
     1
370
    -2
380
     1
100
AcDbLine
 10
105.643317362
 20
2257.069980195113
 30
0.0
 11
105.643317362
 21
2257.069980195113
 31
0.0
  0
MTEXT
  5
4D1
330
4D3
100
AcDbEntity
  8
0
  6
ByBlock
 62
     0
370
    -2
380
     1
100
AcDbMText
 10
293.880573248
 20
2120.939575530685
 30
0.0
 40
1.75
 41
0.0
 71
     5
 72
     1
  1
\A1;2091.5252
  7
H
 73
     1
 44
1.0
  0
ENDBLK
  5
5C2
330
4D3
100
AcDbEntity
  8
0
100
AcDbBlockEnd
  0
BLOCK
  5
5C3
330
4E0
100
AcDbEntity
  8
0
100
AcDbBlockBegin
  2
*D25
 70
     1
 10
0.0
 20
0.0
 30
0.0
  3
*D25
  1

  0
POINT
  5
4D6
330
4E0
100
AcDbEntity
  8
DEFPOINTS
  6
ByBlock
 62
     1
380
     1
100
AcDbPoint
 10
1136.349007386
 20
2772.015991598304
 30
0.0
  0
POINT
  5
4D7
330
4E0
100
AcDbEntity
  8
DEFPOINTS
  6
ByBlock
 62
     1
380
     1
100
AcDbPoint
 10
1136.349007386
 20
2302.007031556703
 30
0.0
  0
LINE
  5
4D8
330
4E0
100
AcDbEntity
  8
0
  6
ByBlock
 62
     1
370
    -2
380
     1
100
AcDbLine
 10
1137.349007386
 20
2772.015991598304
 30
0.0
 11
1462.522921700848
 21
2772.015991598304
 31
0.0
  0
LINE
  5
4D9
330
4E0
100
AcDbEntity
  8
0
  6
ByBlock
 62
     1
370
    -2
380
     1
100
AcDbLine
 10
1137.349007386
 20
2302.007031556703
 30
0.0
 11
1462.522921700848
 21
2302.007031556703
 31
0.0
  0
LINE
  5
4DA
330
4E0
100
AcDbEntity
  8
0
  6
ByBlock
 62
     1
370
    -2
380
     1
100
AcDbLine
 10
1462.222921700848
 20
2772.015991598304
 30
0.0
 11
1462.222921700848
 21
2302.007031556703
 31
0.0
  0
SOLID
  5
4DB
330
4E0
100
AcDbEntity
  8
0
  6
ByBlock
 62
     1
380
     1
100
AcDbTrace
 10
1462.222921700848
 20
2772.015991598304
 30
0.0
 11
1461.939588367514
 21
2770.315991598304
 31
0.0
 12
1462.506255034181
 22
2770.315991598304
 32
0.0
 13
1462.506255034181
 23
2770.315991598304
 33
0.0
  0
SOLID
  5
4DC
330
4E0
100
AcDbEntity
  8
0
  6
ByBlock
 62
     1
380
     1
100
AcDbTrace
 10
1462.222921700848
 20
2302.007031556703
 30
0.0
 11
1461.939588367514
 21
2303.707031556703
 31
0.0
 12
1462.506255034181
 22
2303.707031556703
 32
0.0
 13
1462.506255034181
 23
2303.707031556703
 33
0.0
  0
LINE
  5
4DD
330
4E0
100
AcDbEntity
  8
0
  6
ByBlock
 62
     1
370
    -2
380
     1
100
AcDbLine
 10
1136.349007386
 20
2772.015991598304
 30
0.0
 11
1136.349007386
 21
2772.015991598304
 31
0.0
  0
MTEXT
  5
4DE
330
4E0
100
AcDbEntity
  8
0
  6
ByBlock
 62
     0
370
    -2
380
     1
100
AcDbMText
 10
1416.569702908215
 20
2537.011511577503
 30
0.0
 40
1.75
 41
0.0
 71
     5
 72
     1
  1
\A1;2611.1611
  7
H
 11
6.123031769111886E-17
 21
1.0
 31
0.0
 73
     1
 44
1.0
  0
ENDBLK
  5
5C4
330
4E0
100
AcDbEntity
  8
0
100
AcDbBlockEnd
  0
BLOCK
  5
5C5
330
4EC
100
AcDbEntity
  8
0
100
AcDbBlockBegin
  2
*D26
 70
     1
 10
0.0
 20
0.0
 30
0.0
  3
*D26
  1

  0
POINT
  5
4E3
330
4EC
100
AcDbEntity
  8
DEFPOINTS
  6
ByBlock
 62
     0
380
     1
100
AcDbPoint
 10
105.643317362
 20
2251.514380195113
 30
0.0
  0
POINT
  5
4E4
330
4EC
100
AcDbEntity
  8
DEFPOINTS
  6
ByBlock
 62
     0
380
     1
100
AcDbPoint
 10
482.117829134
 20
2251.514380195113
 30
0.0
  0
LINE
  5
4E5
330
4EC
100
AcDbEntity
  8
0
  6
ByBlock
 62
     0
370
    -2
380
     1
100
AcDbLine
 10
105.643317362
 20
2250.889380195113
 30
0.0
 11
105.643317362
 21
1976.526986427236
 31
0.0
  0
LINE
  5
4E6
330
4EC
100
AcDbEntity
  8
0
  6
ByBlock
 62
     0
370
    -2
380
     1
100
AcDbLine
 10
482.117829134
 20
2250.889380195113
 30
0.0
 11
482.117829134
 21
1976.526986427236
 31
0.0
  0
LINE
  5
4E7
330
4EC
100
AcDbEntity
  8
0
  6
ByBlock
 62
     0
370
    -2
380
     1
100
AcDbLine
 10
108.143317362
 20
1977.776986427236
 30
0.0
 11
479.617829134
 21
1977.776986427236
 31
0.0
  0
SOLID
  5
4E8
330
4EC
100
AcDbEntity
  8
0
  6
ByBlock
 62
     0
380
     1
100
AcDbTrace
 10
105.643317362
 20
1977.776986427236
 30
0.0
 11
108.143317362
 21
1977.36031976057
 31
0.0
 12
108.143317362
 22
1978.193653093903
 32
0.0
 13
108.143317362
 23
1978.193653093903
 33
0.0
  0
SOLID
  5
4E9
330
4EC
100
AcDbEntity
  8
0
  6
ByBlock
 62
     0
380
     1
100
AcDbTrace
 10
482.117829134
 20
1977.776986427236
 30
0.0
 11
479.617829134
 21
1977.36031976057
 31
0.0
 12
479.617829134
 22
1978.193653093903
 32
0.0
 13
479.617829134
 23
1978.193653093903
 33
0.0
  0
MTEXT
  5
4EA
330
4EC
100
AcDbEntity
  8
0
  6
ByBlock
 62
     0
370
    -2
380
     1
100
AcDbMText
 10
293.880573248
 20
1979.86031976057
 30
0.0
 40
2.5
 41
0.0
 71
     5
 72
     1
  1
\A1;376,47
 73
     1
 44
1.0
  0
ENDBLK
  5
5C6
330
4EC
100
AcDbEntity
  8
0
100
AcDbBlockEnd
  0
BLOCK
  5
5C7
330
4F8
100
AcDbEntity
  8
0
100
AcDbBlockBegin
  2
*D27
 70
     1
 10
0.0
 20
0.0
 30
0.0
  3
*D27
  1

  0
POINT
  5
4EF
330
4F8
100
AcDbEntity
  8
DEFPOINTS
  6
ByBlock
 62
     0
380
     1
100
AcDbPoint
 10
657.61387198
 20
2950.976227293734
 30
0.0
  0
POINT
  5
4F0
330
4F8
100
AcDbEntity
  8
DEFPOINTS
  6
ByBlock
 62
     0
380
     1
100
AcDbPoint
 10
1077.61723198
 20
2942.833062204504
 30
0.0
  0
LINE
  5
4F1
330
4F8
100
AcDbEntity
  8
0
  6
ByBlock
 62
     0
370
    -2
380
     1
100
AcDbLine
 10
657.61387198
 20
2951.601227293734
 30
0.0
 11
657.61387198
 21
3078.4452861768
 31
0.0
  0
LINE
  5
4F2
330
4F8
100
AcDbEntity
  8
0
  6
ByBlock
 62
     0
370
    -2
380
     1
100
AcDbLine
 10
1077.61723198
 20
2943.458062204504
 30
0.0
 11
1077.61723198
 21
3078.4452861768
 31
0.0
  0
LINE
  5
4F3
330
4F8
100
AcDbEntity
  8
0
  6
ByBlock
 62
     0
370
    -2
380
     1
100
AcDbLine
 10
660.11387198
 20
3077.1952861768
 30
0.0
 11
1075.11723198
 21
3077.1952861768
 31
0.0
  0
SOLID
  5
4F4
330
4F8
100
AcDbEntity
  8
0
  6
ByBlock
 62
     0
380
     1
100
AcDbTrace
 10
657.61387198
 20
3077.1952861768
 30
0.0
 11
660.11387198
 21
3076.778619510133
 31
0.0
 12
660.11387198
 22
3077.611952843466
 32
0.0
 13
660.11387198
 23
3077.611952843466
 33
0.0
  0
SOLID
  5
4F5
330
4F8
100
AcDbEntity
  8
0
  6
ByBlock
 62
     0
380
     1
100
AcDbTrace
 10
1077.61723198
 20
3077.1952861768
 30
0.0
 11
1075.11723198
 21
3076.778619510133
 31
0.0
 12
1075.11723198
 22
3077.611952843466
 32
0.0
 13
1075.11723198
 23
3077.611952843466
 33
0.0
  0
MTEXT
  5
4F6
330
4F8
100
AcDbEntity
  8
0
  6
ByBlock
 62
     0
370
    -2
380
     1
100
AcDbMText
 10
867.61555198
 20
3079.0702861768
 30
0.0
 40
2.5
 41
0.0
 71
     5
 72
     1
  1
\A1;420
 73
     1
 44
1.0
  0
ENDBLK
  5
5C8
330
4F8
100
AcDbEntity
  8
0
100
AcDbBlockEnd
  0
BLOCK
  5
5C9
330
504
100
AcDbEntity
  8
0
100
AcDbBlockBegin
  2
*D28
 70
     1
 10
0.0
 20
0.0
 30
0.0
  3
*D28
  1

  0
POINT
  5
4FB
330
504
100
AcDbEntity
  8
DEFPOINTS
  6
ByBlock
 62
     0
380
     1
100
AcDbPoint
 10
1334.297025839164
 20
2772.015991598304
 30
0.0
  0
POINT
  5
4FC
330
504
100
AcDbEntity
  8
DEFPOINTS
  6
ByBlock
 62
     0
380
     1
100
AcDbPoint
 10
1334.297025839164
 20
2302.007031556703
 30
0.0
  0
LINE
  5
4FD
330
504
100
AcDbEntity
  8
0
  6
ByBlock
 62
     0
370
    -2
380
     1
100
AcDbLine
 10
1334.922025839164
 20
2772.015991598304
 30
0.0
 11
1642.835268686765
 21
2772.015991598304
 31
0.0
  0
LINE
  5
4FE
330
504
100
AcDbEntity
  8
0
  6
ByBlock
 62
     0
370
    -2
380
     1
100
AcDbLine
 10
1334.922025839164
 20
2302.007031556703
 30
0.0
 11
1642.835268686765
 21
2302.007031556703
 31
0.0
  0
LINE
  5
4FF
330
504
100
AcDbEntity
  8
0
  6
ByBlock
 62
     0
370
    -2
380
     1
100
AcDbLine
 10
1641.585268686765
 20
2769.515991598304
 30
0.0
 11
1641.585268686765
 21
2304.507031556703
 31
0.0
  0
SOLID
  5
500
330
504
100
AcDbEntity
  8
0
  6
ByBlock
 62
     0
380
     1
100
AcDbTrace
 10
1641.585268686765
 20
2772.015991598304
 30
0.0
 11
1641.168602020098
 21
2769.515991598304
 31
0.0
 12
1642.001935353432
 22
2769.515991598304
 32
0.0
 13
1642.001935353432
 23
2769.515991598304
 33
0.0
  0
SOLID
  5
501
330
504
100
AcDbEntity
  8
0
  6
ByBlock
 62
     0
380
     1
100
AcDbTrace
 10
1641.585268686765
 20
2302.007031556703
 30
0.0
 11
1641.168602020098
 21
2304.507031556703
 31
0.0
 12
1642.001935353432
 22
2304.507031556703
 32
0.0
 13
1642.001935353432
 23
2304.507031556703
 33
0.0
  0
MTEXT
  5
502
330
504
100
AcDbEntity
  8
0
  6
ByBlock
 62
     0
370
    -2
380
     1
100
AcDbMText
 10
1639.501935353432
 20
2537.011511577503
 30
0.0
 40
2.5
 41
0.0
 71
     5
 72
     1
  1
\A1;470,01
 11
6.123031769111886E-17
 21
1.0
 31
0.0
 73
     1
 44
1.0
  0
ENDBLK
  5
5CA
330
504
100
AcDbEntity
  8
0
100
AcDbBlockEnd
  0
BLOCK
  5
5CB
330
510
100
AcDbEntity
  8
0
100
AcDbBlockBegin
  2
*D29
 70
     1
 10
0.0
 20
0.0
 30
0.0
  3
*D29
  1

  0
POINT
  5
507
330
510
100
AcDbEntity
  8
DEFPOINTS
  6
ByBlock
 62
     0
380
     1
100
AcDbPoint
 10
657.61387198
 20
2642.262356237013
 30
0.0
  0
POINT
  5
508
330
510
100
AcDbEntity
  8
DEFPOINTS
  6
ByBlock
 62
     0
380
     1
100
AcDbPoint
 10
1077.61723198
 20
2642.262356237013
 30
0.0
  0
LINE
  5
509
330
510
100
AcDbEntity
  8
0
  6
ByBlock
 62
     0
370
    -2
380
     1
100
AcDbLine
 10
657.61387198
 20
2642.887356237013
 30
0.0
 11
657.61387198
 21
2838.546966023218
 31
0.0
  0
LINE
  5
50A
330
510
100
AcDbEntity
  8
0
  6
ByBlock
 62
     0
370
    -2
380
     1
100
AcDbLine
 10
1077.61723198
 20
2642.887356237013
 30
0.0
 11
1077.61723198
 21
2838.546966023218
 31
0.0
  0
LINE
  5
50B
330
510
100
AcDbEntity
  8
0
  6
ByBlock
 62
     0
370
    -2
380
     1
100
AcDbLine
 10
660.11387198
 20
2837.296966023218
 30
0.0
 11
1075.11723198
 21
2837.296966023218
 31
0.0
  0
SOLID
  5
50C
330
510
100
AcDbEntity
  8
0
  6
ByBlock
 62
     0
380
     1
100
AcDbTrace
 10
657.61387198
 20
2837.296966023218
 30
0.0
 11
660.11387198
 21
2836.880299356551
 31
0.0
 12
660.11387198
 22
2837.713632689884
 32
0.0
 13
660.11387198
 23
2837.713632689884
 33
0.0
  0
SOLID
  5
50D
330
510
100
AcDbEntity
  8
0
  6
ByBlock
 62
     0
380
     1
100
AcDbTrace
 10
1077.61723198
 20
2837.296966023218
 30
0.0
 11
1075.11723198
 21
2836.880299356551
 31
0.0
 12
1075.11723198
 22
2837.713632689884
 32
0.0
 13
1075.11723198
 23
2837.713632689884
 33
0.0
  0
MTEXT
  5
50E
330
510
100
AcDbEntity
  8
0
  6
ByBlock
 62
     0
370
    -2
380
     1
100
AcDbMText
 10
867.61555198
 20
2839.171966023218
 30
0.0
 40
2.5
 41
0.0
 71
     5
 72
     1
  1
\A1;420
 73
     1
 44
1.0
  0
ENDBLK
  5
5CC
330
510
100
AcDbEntity
  8
0
100
AcDbBlockEnd
  0
BLOCK
  5
5CD
330
51B
100
AcDbEntity
  8
0
100
AcDbBlockBegin
  2
*D30
 70
     1
 10
0.0
 20
0.0
 30
0.0
  3
*D30
  1

  0
POINT
  5
512
330
51B
100
AcDbEntity
  8
DEFPOINTS
  6
ByBlock
 62
     0
380
     1
100
AcDbPoint
 10
657.61387198
 20
2642.262356237013
 30
0.0
  0
POINT
  5
513
330
51B
100
AcDbEntity
  8
DEFPOINTS
  6
ByBlock
 62
     0
380
     1
100
AcDbPoint
 10
1077.61723198
 20
2642.262356237013
 30
0.0
  0
LINE
  5
514
330
51B
100
AcDbEntity
  8
0
  6
ByBlock
 62
     0
370
    -2
380
     1
100
AcDbLine
 10
657.61387198
 20
2642.887356237013
 30
0.0
 11
657.61387198
 21
2838.546966023218
 31
0.0
  0
LINE
  5
515
330
51B
100
AcDbEntity
  8
0
  6
ByBlock
 62
     0
370
    -2
380
     1
100
AcDbLine
 10
1077.61723198
 20
2642.887356237013
 30
0.0
 11
1077.61723198
 21
2838.546966023218
 31
0.0
  0
LINE
  5
516
330
51B
100
AcDbEntity
  8
0
  6
ByBlock
 62
     0
370
    -2
380
     1
100
AcDbLine
 10
660.11387198
 20
2837.296966023218
 30
0.0
 11
1075.11723198
 21
2837.296966023218
 31
0.0
  0
SOLID
  5
517
330
51B
100
AcDbEntity
  8
0
  6
ByBlock
 62
     0
380
     1
100
AcDbTrace
 10
657.61387198
 20
2837.296966023218
 30
0.0
 11
660.11387198
 21
2836.880299356551
 31
0.0
 12
660.11387198
 22
2837.713632689884
 32
0.0
 13
660.11387198
 23
2837.713632689884
 33
0.0
  0
SOLID
  5
518
330
51B
100
AcDbEntity
  8
0
  6
ByBlock
 62
     0
380
     1
100
AcDbTrace
 10
1077.61723198
 20
2837.296966023218
 30
0.0
 11
1075.11723198
 21
2836.880299356551
 31
0.0
 12
1075.11723198
 22
2837.713632689884
 32
0.0
 13
1075.11723198
 23
2837.713632689884
 33
0.0
  0
MTEXT
  5
519
330
51B
100
AcDbEntity
  8
0
  6
ByBlock
 62
     0
370
    -2
380
     1
100
AcDbMText
 10
867.61555198
 20
2839.171966023218
 30
0.0
 40
2.5
 41
0.0
 71
     5
 72
     1
  1
\A1;420
 73
     1
 44
1.0
  0
ENDBLK
  5
5CE
330
51B
100
AcDbEntity
  8
0
100
AcDbBlockEnd
  0
BLOCK
  5
5CF
330
526
100
AcDbEntity
  8
0
100
AcDbBlockBegin
  2
*D31
 70
     1
 10
0.0
 20
0.0
 30
0.0
  3
*D31
  1

  0
POINT
  5
51D
330
526
100
AcDbEntity
  8
DEFPOINTS
  6
ByBlock
 62
     7
380
     1
100
AcDbPoint
 10
657.61387198
 20
2642.262356237013
 30
0.0
  0
POINT
  5
51E
330
526
100
AcDbEntity
  8
DEFPOINTS
  6
ByBlock
 62
     7
380
     1
100
AcDbPoint
 10
1077.61723198
 20
2642.262356237013
 30
0.0
  0
LINE
  5
51F
330
526
100
AcDbEntity
  8
0
  6
ByBlock
 62
     7
370
    -2
380
     1
100
AcDbLine
 10
657.61387198
 20
2642.887356237013
 30
0.0
 11
657.61387198
 21
2838.546966023218
 31
0.0
  0
LINE
  5
520
330
526
100
AcDbEntity
  8
0
  6
ByBlock
 62
     7
370
    -2
380
     1
100
AcDbLine
 10
1077.61723198
 20
2642.887356237013
 30
0.0
 11
1077.61723198
 21
2838.546966023218
 31
0.0
  0
LINE
  5
521
330
526
100
AcDbEntity
  8
0
  6
ByBlock
 62
     7
370
    -2
380
     1
100
AcDbLine
 10
667.61387198
 20
2837.296966023218
 30
0.0
 11
1067.61723198
 21
2837.296966023218
 31
0.0
  0
SOLID
  5
522
330
526
100
AcDbEntity
  8
0
  6
ByBlock
 62
     7
380
     1
100
AcDbTrace
 10
657.61387198
 20
2837.296966023218
 30
0.0
 11
667.61387198
 21
2835.630299356551
 31
0.0
 12
667.61387198
 22
2838.963632689884
 32
0.0
 13
667.61387198
 23
2838.963632689884
 33
0.0
  0
SOLID
  5
523
330
526
100
AcDbEntity
  8
0
  6
ByBlock
 62
     7
380
     1
100
AcDbTrace
 10
1077.61723198
 20
2837.296966023218
 30
0.0
 11
1067.61723198
 21
2835.630299356551
 31
0.0
 12
1067.61723198
 22
2838.963632689884
 32
0.0
 13
1067.61723198
 23
2838.963632689884
 33
0.0
  0
MTEXT
  5
524
330
526
100
AcDbEntity
  8
0
  6
ByBlock
 62
     0
370
    -2
380
     1
100
AcDbMText
 10
867.61555198
 20
2849.296966023218
 30
0.0
 40
14.0
 41
0.0
 71
     5
 72
     1
  1
\A1;420
 73
     1
 44
1.0
  0
ENDBLK
  5
5D0
330
526
100
AcDbEntity
  8
0
100
AcDbBlockEnd
  0
BLOCK
  5
5D1
330
532
100
AcDbEntity
  8
0
100
AcDbBlockBegin
  2
*D32
 70
     1
 10
0.0
 20
0.0
 30
0.0
  3
*D32
  1

  0
POINT
  5
529
330
532
100
AcDbEntity
  8
DEFPOINTS
  6
ByBlock
 62
     0
380
     1
100
AcDbPoint
 10
938.8661219799999
 20
2772.015991598304
 30
0.0
  0
POINT
  5
52A
330
532
100
AcDbEntity
  8
DEFPOINTS
  6
ByBlock
 62
     0
380
     1
100
AcDbPoint
 10
938.8661219799999
 20
2302.007031556704
 30
0.0
  0
LINE
  5
52B
330
532
100
AcDbEntity
  8
0
  6
ByBlock
 62
     0
370
    -2
380
     1
100
AcDbLine
 10
939.4911219799999
 20
2772.015991598304
 30
0.0
 11
1180.676552081929
 21
2772.015991598304
 31
0.0
  0
LINE
  5
52C
330
532
100
AcDbEntity
  8
0
  6
ByBlock
 62
     0
370
    -2
380
     1
100
AcDbLine
 10
939.4911219799999
 20
2302.007031556704
 30
0.0
 11
1180.676552081929
 21
2302.007031556704
 31
0.0
  0
LINE
  5
52D
330
532
100
AcDbEntity
  8
0
  6
ByBlock
 62
     0
370
    -2
380
     1
100
AcDbLine
 10
1179.426552081929
 20
2769.515991598304
 30
0.0
 11
1179.426552081929
 21
2304.507031556704
 31
0.0
  0
SOLID
  5
52E
330
532
100
AcDbEntity
  8
0
  6
ByBlock
 62
     0
380
     1
100
AcDbTrace
 10
1179.426552081929
 20
2772.015991598304
 30
0.0
 11
1179.009885415262
 21
2769.515991598304
 31
0.0
 12
1179.843218748595
 22
2769.515991598304
 32
0.0
 13
1179.843218748595
 23
2769.515991598304
 33
0.0
  0
SOLID
  5
52F
330
532
100
AcDbEntity
  8
0
  6
ByBlock
 62
     0
380
     1
100
AcDbTrace
 10
1179.426552081929
 20
2302.007031556704
 30
0.0
 11
1179.009885415262
 21
2304.507031556704
 31
0.0
 12
1179.843218748595
 22
2304.507031556704
 32
0.0
 13
1179.843218748595
 23
2304.507031556704
 33
0.0
  0
MTEXT
  5
530
330
532
100
AcDbEntity
  8
0
  6
ByBlock
 62
     0
370
    -2
380
     1
100
AcDbMText
 10
1177.343218748595
 20
2537.011511577503
 30
0.0
 40
2.5
 41
0.0
 71
     5
 72
     1
  1
\A1;470,01
 11
6.123031769111886E-17
 21
1.0
 31
0.0
 73
     1
 44
1.0
  0
ENDBLK
  5
5D2
330
532
100
AcDbEntity
  8
0
100
AcDbBlockEnd
  0
BLOCK
  5
5D3
330
53D
100
AcDbEntity
  8
0
100
AcDbBlockBegin
  2
*D33
 70
     1
 10
0.0
 20
0.0
 30
0.0
  3
*D33
  1

  0
POINT
  5
534
330
53D
100
AcDbEntity
  8
DEFPOINTS
  6
ByBlock
 62
     0
380
     1
100
AcDbPoint
 10
938.8661219799999
 20
2772.015991598304
 30
0.0
  0
POINT
  5
535
330
53D
100
AcDbEntity
  8
DEFPOINTS
  6
ByBlock
 62
     0
380
     1
100
AcDbPoint
 10
938.8661219799999
 20
2302.007031556704
 30
0.0
  0
LINE
  5
536
330
53D
100
AcDbEntity
  8
0
  6
ByBlock
 62
     0
370
    -2
380
     1
100
AcDbLine
 10
939.4911219799999
 20
2772.015991598304
 30
0.0
 11
1180.676552081929
 21
2772.015991598304
 31
0.0
  0
LINE
  5
537
330
53D
100
AcDbEntity
  8
0
  6
ByBlock
 62
     0
370
    -2
380
     1
100
AcDbLine
 10
939.4911219799999
 20
2302.007031556704
 30
0.0
 11
1180.676552081929
 21
2302.007031556704
 31
0.0
  0
LINE
  5
538
330
53D
100
AcDbEntity
  8
0
  6
ByBlock
 62
     0
370
    -2
380
     1
100
AcDbLine
 10
1179.426552081929
 20
2769.515991598304
 30
0.0
 11
1179.426552081929
 21
2304.507031556704
 31
0.0
  0
SOLID
  5
539
330
53D
100
AcDbEntity
  8
0
  6
ByBlock
 62
     0
380
     1
100
AcDbTrace
 10
1179.426552081929
 20
2772.015991598304
 30
0.0
 11
1179.009885415262
 21
2769.515991598304
 31
0.0
 12
1179.843218748595
 22
2769.515991598304
 32
0.0
 13
1179.843218748595
 23
2769.515991598304
 33
0.0
  0
SOLID
  5
53A
330
53D
100
AcDbEntity
  8
0
  6
ByBlock
 62
     0
380
     1
100
AcDbTrace
 10
1179.426552081929
 20
2302.007031556704
 30
0.0
 11
1179.009885415262
 21
2304.507031556704
 31
0.0
 12
1179.843218748595
 22
2304.507031556704
 32
0.0
 13
1179.843218748595
 23
2304.507031556704
 33
0.0
  0
MTEXT
  5
53B
330
53D
100
AcDbEntity
  8
0
  6
ByBlock
 62
     0
370
    -2
380
     1
100
AcDbMText
 10
1177.343218748595
 20
2537.011511577503
 30
0.0
 40
2.5
 41
0.0
 71
     5
 72
     1
  1
\A1;470,01
 11
6.123031769111886E-17
 21
1.0
 31
0.0
 73
     1
 44
1.0
  0
ENDBLK
  5
5D4
330
53D
100
AcDbEntity
  8
0
100
AcDbBlockEnd
  0
BLOCK
  5
5D5
330
548
100
AcDbEntity
  8
0
100
AcDbBlockBegin
  2
*D34
 70
     1
 10
0.0
 20
0.0
 30
0.0
  3
*D34
  1

  0
POINT
  5
53F
330
548
100
AcDbEntity
  8
DEFPOINTS
  6
ByBlock
 62
     7
380
     1
100
AcDbPoint
 10
938.8661219799999
 20
2772.015991598304
 30
0.0
  0
POINT
  5
540
330
548
100
AcDbEntity
  8
DEFPOINTS
  6
ByBlock
 62
     7
380
     1
100
AcDbPoint
 10
938.8661219799999
 20
2302.007031556704
 30
0.0
  0
LINE
  5
541
330
548
100
AcDbEntity
  8
0
  6
ByBlock
 62
     7
370
    -2
380
     1
100
AcDbLine
 10
939.4911219799999
 20
2772.015991598304
 30
0.0
 11
1180.676552081929
 21
2772.015991598304
 31
0.0
  0
LINE
  5
542
330
548
100
AcDbEntity
  8
0
  6
ByBlock
 62
     7
370
    -2
380
     1
100
AcDbLine
 10
939.4911219799999
 20
2302.007031556704
 30
0.0
 11
1180.676552081929
 21
2302.007031556704
 31
0.0
  0
LINE
  5
543
330
548
100
AcDbEntity
  8
0
  6
ByBlock
 62
     7
370
    -2
380
     1
100
AcDbLine
 10
1179.426552081929
 20
2762.015991598304
 30
0.0
 11
1179.426552081929
 21
2312.007031556704
 31
0.0
  0
SOLID
  5
544
330
548
100
AcDbEntity
  8
0
  6
ByBlock
 62
     7
380
     1
100
AcDbTrace
 10
1179.426552081929
 20
2772.015991598304
 30
0.0
 11
1177.759885415262
 21
2762.015991598304
 31
0.0
 12
1181.093218748595
 22
2762.015991598304
 32
0.0
 13
1181.093218748595
 23
2762.015991598304
 33
0.0
  0
SOLID
  5
545
330
548
100
AcDbEntity
  8
0
  6
ByBlock
 62
     7
380
     1
100
AcDbTrace
 10
1179.426552081929
 20
2302.007031556704
 30
0.0
 11
1177.759885415262
 21
2312.007031556704
 31
0.0
 12
1181.093218748595
 22
2312.007031556704
 32
0.0
 13
1181.093218748595
 23
2312.007031556704
 33
0.0
  0
MTEXT
  5
546
330
548
100
AcDbEntity
  8
0
  6
ByBlock
 62
     0
370
    -2
380
     1
100
AcDbMText
 10
1166.259885415262
 20
2537.011511577503
 30
0.0
 40
14.0
 41
0.0
 71
     5
 72
     1
  1
\A1;470,01
 11
6.123031769111886E-17
 21
1.0
 31
0.0
 73
     1
 44
1.0
  0
ENDBLK
  5
5D6
330
548
100
AcDbEntity
  8
0
100
AcDbBlockEnd
  0
BLOCK
  5
5D7
330
553
100
AcDbEntity
  8
0
100
AcDbBlockBegin
  2
*D35
 70
     1
 10
0.0
 20
0.0
 30
0.0
  3
*D35
  1

  0
POINT
  5
54A
330
553
100
AcDbEntity
  8
DEFPOINTS
  6
ByBlock
 62
     7
380
     1
100
AcDbPoint
 10
938.8661219799999
 20
2772.015991598304
 30
0.0
  0
POINT
  5
54B
330
553
100
AcDbEntity
  8
DEFPOINTS
  6
ByBlock
 62
     7
380
     1
100
AcDbPoint
 10
938.8661219799999
 20
2302.007031556704
 30
0.0
  0
LINE
  5
54C
330
553
100
AcDbEntity
  8
0
  6
ByBlock
 62
     7
370
    -2
380
     1
100
AcDbLine
 10
939.4911219799999
 20
2772.015991598304
 30
0.0
 11
1180.676552081929
 21
2772.015991598304
 31
0.0
  0
LINE
  5
54D
330
553
100
AcDbEntity
  8
0
  6
ByBlock
 62
     7
370
    -2
380
     1
100
AcDbLine
 10
939.4911219799999
 20
2302.007031556704
 30
0.0
 11
1180.676552081929
 21
2302.007031556704
 31
0.0
  0
LINE
  5
54E
330
553
100
AcDbEntity
  8
0
  6
ByBlock
 62
     7
370
    -2
380
     1
100
AcDbLine
 10
1179.426552081929
 20
2762.015991598304
 30
0.0
 11
1179.426552081929
 21
2312.007031556704
 31
0.0
  0
SOLID
  5
54F
330
553
100
AcDbEntity
  8
0
  6
ByBlock
 62
     7
380
     1
100
AcDbTrace
 10
1179.426552081929
 20
2772.015991598304
 30
0.0
 11
1177.759885415262
 21
2762.015991598304
 31
0.0
 12
1181.093218748595
 22
2762.015991598304
 32
0.0
 13
1181.093218748595
 23
2762.015991598304
 33
0.0
  0
SOLID
  5
550
330
553
100
AcDbEntity
  8
0
  6
ByBlock
 62
     7
380
     1
100
AcDbTrace
 10
1179.426552081929
 20
2302.007031556704
 30
0.0
 11
1177.759885415262
 21
2312.007031556704
 31
0.0
 12
1181.093218748595
 22
2312.007031556704
 32
0.0
 13
1181.093218748595
 23
2312.007031556704
 33
0.0
  0
MTEXT
  5
551
330
553
100
AcDbEntity
  8
0
  6
ByBlock
 62
     0
370
    -2
380
     1
100
AcDbMText
 10
1167.426552081929
 20
2537.011511577503
 30
0.0
 40
14.0
 41
0.0
 71
     5
 72
     1
  1
470
 11
6.123031769111886E-17
 21
1.0
 31
0.0
 73
     1
 44
1.0
  0
ENDBLK
  5
5D8
330
553
100
AcDbEntity
  8
0
100
AcDbBlockEnd
  0
BLOCK
  5
5D9
330
55F
100
AcDbEntity
  8
0
100
AcDbBlockBegin
  2
*D36
 70
     1
 10
0.0
 20
0.0
 30
0.0
  3
*D36
  1

  0
POINT
  5
556
330
55F
100
AcDbEntity
  8
DEFPOINTS
  6
ByBlock
 62
     0
380
     1
100
AcDbPoint
 10
106.039886358109
 20
2371.263019135848
 30
0.0
  0
POINT
  5
557
330
55F
100
AcDbEntity
  8
DEFPOINTS
  6
ByBlock
 62
     0
380
     1
100
AcDbPoint
 10
482.1731629100001
 20
2315.062836002303
 30
0.0
  0
LINE
  5
558
330
55F
100
AcDbEntity
  8
0
  6
ByBlock
 62
     0
370
    -2
380
     1
100
AcDbLine
 10
106.039886358109
 20
2370.638019135848
 30
0.0
 11
106.039886358109
 21
2234.31350300511
 31
0.0
  0
LINE
  5
559
330
55F
100
AcDbEntity
  8
0
  6
ByBlock
 62
     0
370
    -2
380
     1
100
AcDbLine
 10
482.1731629100001
 20
2314.437836002303
 30
0.0
 11
482.1731629100001
 21
2234.31350300511
 31
0.0
  0
LINE
  5
55A
330
55F
100
AcDbEntity
  8
0
  6
ByBlock
 62
     0
370
    -2
380
     1
100
AcDbLine
 10
108.539886358109
 20
2235.56350300511
 30
0.0
 11
479.6731629100001
 21
2235.56350300511
 31
0.0
  0
SOLID
  5
55B
330
55F
100
AcDbEntity
  8
0
  6
ByBlock
 62
     0
380
     1
100
AcDbTrace
 10
106.039886358109
 20
2235.56350300511
 30
0.0
 11
108.539886358109
 21
2235.146836338443
 31
0.0
 12
108.539886358109
 22
2235.980169671776
 32
0.0
 13
108.539886358109
 23
2235.980169671776
 33
0.0
  0
SOLID
  5
55C
330
55F
100
AcDbEntity
  8
0
  6
ByBlock
 62
     0
380
     1
100
AcDbTrace
 10
482.1731629100001
 20
2235.56350300511
 30
0.0
 11
479.6731629100001
 21
2235.146836338443
 31
0.0
 12
479.6731629100001
 22
2235.980169671776
 32
0.0
 13
479.6731629100001
 23
2235.980169671776
 33
0.0
  0
MTEXT
  5
55D
330
55F
100
AcDbEntity
  8
0
  6
ByBlock
 62
     0
370
    -2
380
     1
100
AcDbMText
 10
294.1065246340546
 20
2237.646836338443
 30
0.0
 40
2.5
 41
0.0
 71
     5
 72
     1
  1
\A1;376,13
 73
     1
 44
1.0
  0
ENDBLK
  5
5DA
330
55F
100
AcDbEntity
  8
0
100
AcDbBlockEnd
  0
BLOCK
  5
5DB
330
56A
100
AcDbEntity
  8
0
100
AcDbBlockBegin
  2
*D37
 70
     1
 10
0.0
 20
0.0
 30
0.0
  3
*D37
  1

  0
POINT
  5
561
330
56A
100
AcDbEntity
  8
DEFPOINTS
  6
ByBlock
 62
     0
380
     1
100
AcDbPoint
 10
106.039886358109
 20
2371.263019135848
 30
0.0
  0
POINT
  5
562
330
56A
100
AcDbEntity
  8
DEFPOINTS
  6
ByBlock
 62
     0
380
     1
100
AcDbPoint
 10
482.1731629100001
 20
2315.062836002303
 30
0.0
  0
LINE
  5
563
330
56A
100
AcDbEntity
  8
0
  6
ByBlock
 62
     0
370
    -2
380
     1
100
AcDbLine
 10
106.039886358109
 20
2370.638019135848
 30
0.0
 11
106.039886358109
 21
2234.31350300511
 31
0.0
  0
LINE
  5
564
330
56A
100
AcDbEntity
  8
0
  6
ByBlock
 62
     0
370
    -2
380
     1
100
AcDbLine
 10
482.1731629100001
 20
2314.437836002303
 30
0.0
 11
482.1731629100001
 21
2234.31350300511
 31
0.0
  0
LINE
  5
565
330
56A
100
AcDbEntity
  8
0
  6
ByBlock
 62
     0
370
    -2
380
     1
100
AcDbLine
 10
108.539886358109
 20
2235.56350300511
 30
0.0
 11
479.6731629100001
 21
2235.56350300511
 31
0.0
  0
SOLID
  5
566
330
56A
100
AcDbEntity
  8
0
  6
ByBlock
 62
     0
380
     1
100
AcDbTrace
 10
106.039886358109
 20
2235.56350300511
 30
0.0
 11
108.539886358109
 21
2235.146836338443
 31
0.0
 12
108.539886358109
 22
2235.980169671776
 32
0.0
 13
108.539886358109
 23
2235.980169671776
 33
0.0
  0
SOLID
  5
567
330
56A
100
AcDbEntity
  8
0
  6
ByBlock
 62
     0
380
     1
100
AcDbTrace
 10
482.1731629100001
 20
2235.56350300511
 30
0.0
 11
479.6731629100001
 21
2235.146836338443
 31
0.0
 12
479.6731629100001
 22
2235.980169671776
 32
0.0
 13
479.6731629100001
 23
2235.980169671776
 33
0.0
  0
MTEXT
  5
568
330
56A
100
AcDbEntity
  8
0
  6
ByBlock
 62
     0
370
    -2
380
     1
100
AcDbMText
 10
294.1065246340546
 20
2237.646836338443
 30
0.0
 40
2.5
 41
0.0
 71
     5
 72
     1
  1
\A1;376,13
 73
     1
 44
1.0
  0
ENDBLK
  5
5DC
330
56A
100
AcDbEntity
  8
0
100
AcDbBlockEnd
  0
BLOCK
  5
5DD
330
575
100
AcDbEntity
  8
0
100
AcDbBlockBegin
  2
*D38
 70
     1
 10
0.0
 20
0.0
 30
0.0
  3
*D38
  1

  0
POINT
  5
56C
330
575
100
AcDbEntity
  8
DEFPOINTS
  6
ByBlock
 62
     7
380
     1
100
AcDbPoint
 10
106.039886358109
 20
2371.263019135848
 30
0.0
  0
POINT
  5
56D
330
575
100
AcDbEntity
  8
DEFPOINTS
  6
ByBlock
 62
     7
380
     1
100
AcDbPoint
 10
482.1731629100001
 20
2315.062836002303
 30
0.0
  0
LINE
  5
56E
330
575
100
AcDbEntity
  8
0
  6
ByBlock
 62
     7
370
    -2
380
     1
100
AcDbLine
 10
106.039886358109
 20
2370.638019135848
 30
0.0
 11
106.039886358109
 21
2234.31350300511
 31
0.0
  0
LINE
  5
56F
330
575
100
AcDbEntity
  8
0
  6
ByBlock
 62
     7
370
    -2
380
     1
100
AcDbLine
 10
482.1731629100001
 20
2314.437836002303
 30
0.0
 11
482.1731629100001
 21
2234.31350300511
 31
0.0
  0
LINE
  5
570
330
575
100
AcDbEntity
  8
0
  6
ByBlock
 62
     7
370
    -2
380
     1
100
AcDbLine
 10
116.039886358109
 20
2235.56350300511
 30
0.0
 11
472.1731629100001
 21
2235.56350300511
 31
0.0
  0
SOLID
  5
571
330
575
100
AcDbEntity
  8
0
  6
ByBlock
 62
     7
380
     1
100
AcDbTrace
 10
106.039886358109
 20
2235.56350300511
 30
0.0
 11
116.039886358109
 21
2233.896836338443
 31
0.0
 12
116.039886358109
 22
2237.230169671776
 32
0.0
 13
116.039886358109
 23
2237.230169671776
 33
0.0
  0
SOLID
  5
572
330
575
100
AcDbEntity
  8
0
  6
ByBlock
 62
     7
380
     1
100
AcDbTrace
 10
482.1731629100001
 20
2235.56350300511
 30
0.0
 11
472.1731629100001
 21
2233.896836338443
 31
0.0
 12
472.1731629100001
 22
2237.230169671776
 32
0.0
 13
472.1731629100001
 23
2237.230169671776
 33
0.0
  0
MTEXT
  5
573
330
575
100
AcDbEntity
  8
0
  6
ByBlock
 62
     0
370
    -2
380
     1
100
AcDbMText
 10
294.1065246340546
 20
2248.730169671777
 30
0.0
 40
14.0
 41
0.0
 71
     5
 72
     1
  1
\A1;376,13
 73
     1
 44
1.0
  0
ENDBLK
  5
5DE
330
575
100
AcDbEntity
  8
0
100
AcDbBlockEnd
  0
BLOCK
  5
5DF
330
580
100
AcDbEntity
  8
0
100
AcDbBlockBegin
  2
*D39
 70
     1
 10
0.0
 20
0.0
 30
0.0
  3
*D39
  1

  0
POINT
  5
577
330
580
100
AcDbEntity
  8
DEFPOINTS
  6
ByBlock
 62
     7
380
     1
100
AcDbPoint
 10
106.039886358109
 20
2371.263019135848
 30
0.0
  0
POINT
  5
578
330
580
100
AcDbEntity
  8
DEFPOINTS
  6
ByBlock
 62
     7
380
     1
100
AcDbPoint
 10
482.1731629100001
 20
2315.062836002303
 30
0.0
  0
LINE
  5
579
330
580
100
AcDbEntity
  8
0
  6
ByBlock
 62
     7
370
    -2
380
     1
100
AcDbLine
 10
106.039886358109
 20
2370.638019135848
 30
0.0
 11
106.039886358109
 21
2234.31350300511
 31
0.0
  0
LINE
  5
57A
330
580
100
AcDbEntity
  8
0
  6
ByBlock
 62
     7
370
    -2
380
     1
100
AcDbLine
 10
482.1731629100001
 20
2314.437836002303
 30
0.0
 11
482.1731629100001
 21
2234.31350300511
 31
0.0
  0
LINE
  5
57B
330
580
100
AcDbEntity
  8
0
  6
ByBlock
 62
     7
370
    -2
380
     1
100
AcDbLine
 10
116.039886358109
 20
2235.56350300511
 30
0.0
 11
472.1731629100001
 21
2235.56350300511
 31
0.0
  0
SOLID
  5
57C
330
580
100
AcDbEntity
  8
0
  6
ByBlock
 62
     7
380
     1
100
AcDbTrace
 10
106.039886358109
 20
2235.56350300511
 30
0.0
 11
116.039886358109
 21
2233.896836338443
 31
0.0
 12
116.039886358109
 22
2237.230169671776
 32
0.0
 13
116.039886358109
 23
2237.230169671776
 33
0.0
  0
SOLID
  5
57D
330
580
100
AcDbEntity
  8
0
  6
ByBlock
 62
     7
380
     1
100
AcDbTrace
 10
482.1731629100001
 20
2235.56350300511
 30
0.0
 11
472.1731629100001
 21
2233.896836338443
 31
0.0
 12
472.1731629100001
 22
2237.230169671776
 32
0.0
 13
472.1731629100001
 23
2237.230169671776
 33
0.0
  0
MTEXT
  5
57E
330
580
100
AcDbEntity
  8
0
  6
ByBlock
 62
     0
370
    -2
380
     1
100
AcDbMText
 10
294.1065246340546
 20
2247.56350300511
 30
0.0
 40
14.0
 41
0.0
 71
     5
 72
     1
  1
376
 73
     1
 44
1.0
  0
ENDBLK
  5
5E0
330
580
100
AcDbEntity
  8
0
100
AcDbBlockEnd
  0
ENDSEC
  0
SECTION
  2
ENTITIES
  0
INSERT
  5
33D
330
1F
100
AcDbEntity
  8
ASHADE
 62
     1
100
AcDbBlockReference
  2
AVE_RENDER
 10
24926.499799292
 20
1015.940396756488
 30
0.0
 41
27.778
 42
24.17741564000001
1001
AVE_RENDER
1002
{
1070
     6
1000
Pref
1070
    30
1070
    20
1070
     1
1070
     0
1000

1070
    10
1070
     1
1070
    30
1040
25.4
1070
     1
1040
0.3
1040
0.7
1040
0.0
1040
10.0
1010
-1.0
1020
-1.0
1030
-1.0
1040
0.3
1070
    49
1070
     0
1070
     0
1010
1.0
1020
1.0
1030
1.0
1040
45.0
1070
     1
1070
     0
1000
WCS
1040
0.0
1002
}
  0
INSERT
  5
33E
330
1F
100
AcDbEntity
  8
ASHADE
 62
     3
100
AcDbBlockReference
  2
AVE_RENDER
 10
24926.499799292
 20
1015.940396756488
 30
0.0
 41
27.778
 42
24.17741564000001
1001
AVE_RENDER
1002
{
1070
     0
1000
Full Opt
1070
     0
1070
     1
1070
     1
1070
     1
1070
     0
1070
     0
1070
     0
1070
     1
1070
     1
1040
0.0001
1040
0.0001
1002
}
  0
INSERT
  5
33F
330
1F
100
AcDbEntity
  8
ASHADE
 62
     4
100
AcDbBlockReference
  2
AVE_RENDER
 10
24926.499799292
 20
1015.940396756488
 30
0.0
 41
27.778
 42
24.17741564000001
1001
AVE_RENDER
1002
{
1070
     0
1000
Quick Opt
1070
     0
1070
     1
1070
     1
1070
     1
1070
     0
1070
     0
1070
     1
1002
}
  0
INSERT
  5
340
330
1F
100
AcDbEntity
  8
ASHADE
 62
     5
100
AcDbBlockReference
  2
AVE_RENDER
 10
24926.499799292
 20
1015.940396756488
 30
0.0
 41
27.778
 42
24.17741564000001
1001
AVE_RENDER
1002
{
1070
     1
1000
Scanl Opt
1070
     2
1070
     0
1070
     2
1040
2.0
1040
4.0
1070
     0
1070
     1
1070
     0
1040
0.03
1002
}
  0
INSERT
  5
341
330
1F
100
AcDbEntity
  8
ASHADE
 62
     6
100
AcDbBlockReference
  2
AVE_RENDER
 10
24926.499799292
 20
1015.940396756488
 30
0.0
 41
27.778
 42
24.17741564000001
1001
AVE_RENDER
1002
{
1070
     2
1000
Raytr Opt
1070
     2
1070
     0
1070
     2
1040
2.0
1040
4.0
1070
     0
1070
     1
1070
     1
1040
0.03
1070
     3
1040
0.03
1002
}
  0
INSERT
  5
342
330
1F
100
AcDbEntity
  8
ASHADE
 62
     7
100
AcDbBlockReference
  2
AVE_RENDER
 10
24926.499799292
 20
1015.940396756488
 30
0.0
 41
27.778
 42
24.17741564000001
1001
AVE_RENDER
1002
{
1070
     0
1000
RFile Opt
1070
     5
1070
   640
1070
   480
1070
 10000
1070
     3
1070
    32
1070
    24
1070
     0
1070
     0
1070
     0
1070
     1
1070
     0
1070
     0
1070
     0
1002
}
  0
INSERT
  5
343
330
1F
100
AcDbEntity
  8
ASHADE
 62
     8
100
AcDbBlockReference
  2
AVE_RENDER
 10
24926.499799292
 20
1015.940396756488
 30
0.0
 41
27.778
 42
24.17741564000001
1001
AVE_RENDER
1002
{
1070
     0
1000
Fog Opt
1070
     0
1070
     0
1040
0.0
1040
1.0
1040
0.0
1040
1.0
1010
0.5
1020
0.5
1030
0.5
1002
}
  0
INSERT
  5
344
330
1F
100
AcDbEntity
  8
ASHADE
 62
     9
100
AcDbBlockReference
  2
AVE_RENDER
 10
24926.499799292
 20
1015.940396756488
 30
0.0
 41
27.778
 42
24.17741564000001
1001
AVE_RENDER
1002
{
1070
     0
1000
BG Opt
1070
     0
1070
     1
1010
0.0
1020
0.0
1030
0.0
1010
1.0
1020
0.0
1030
0.0
1010
0.0
1020
1.0
1030
0.0
1010
0.0
1020
0.0
1030
1.0
1040
0.5
1040
0.33
1040
0.0
1000

1070
     1
1000

1070
     1
1070
     1
1040
1.0
1040
1.0
1040
0.0
1040
0.0
1070
     0
1002
}
  0
INSERT
  5
345
330
1F
100
AcDbEntity
  8
ASHADE
 62
     1
100
AcDbBlockReference
  2
AVE_GLOBAL
 10
24926.499799292
 20
1015.940396756488
 30
0.0
 41
27.778
 42
24.17741564000001
1001
AVE_MATERIAL
1002
{
1000
*GLOBALE*
1000
1
1000
Finitura globale.
1002
{
1002
}
1002
{
1070
    63
1002
{
1002
{
1010
-1.0
1020
-1.0
1030
-1.0
1002
}
1040
0.1
1000

1040
0.0
1002
{
1002
}
1040
0.0
1002
{
1002
}
1040
0.0
1002
}
1002
{
1002
{
1010
-1.0
1020
-1.0
1030
-1.0
1002
}
1040
0.7
1000

1040
0.0
1002
{
1002
}
1040
0.0
1002
{
1002
}
1040
0.0
1002
}
1002
{
1002
{
1010
-1.0
1020
-1.0
1030
-1.0
1002
}
1040
0.2
1000

1040
0.0
1002
{
1002
}
1040
0.0
1002
{
1002
}
1040
0.0
1002
}
1002
{
1070
     0
1002
{
1070
     1
1002
{
1040
1.0
1040
1.0
1000

1040
0.0
1002
{
1002
}
1040
0.0
1002
{
1002
}
1040
0.0
1002
}
1002
}
1040
1.0
1040
0.0
1040
0.0
1002
}
1002
{
1040
1.0
1040
1.0
1000

1040
0.0
1002
{
1002
}
1040
0.0
1002
{
1002
}
1040
0.0
1002
}
1002
{
1040
0.5
1040
1.0
1000

1040
0.0
1002
{
1002
}
1040
0.0
1002
{
1002
}
1040
0.0
1002
}
1002
{
1070
     0
1040
0.0
1002
{
1002
}
1040
1.0
1002
{
1002
}
1040
0.0
1002
}
1002
{
1040
0.0
1002
{
1002
{
1010
0.0
1020
0.0
1030
0.0
1002
}
1040
1.0
1000

1040
0.0
1002
{
1002
}
1040
0.0
1002
{
1002
}
1040
0.0
1002
}
1002
}
1002
{
1002
{
1070
     1
1002
{
1040
0.0
1040
1.0
1000

1040
0.0
1002
{
1002
}
1040
0.0
1002
{
1002
}
1040
0.0
1002
}
1002
}
1040
0.0
1002
{
1002
}
1010
1.0
1020
0.0
1030
0.0
1010
0.0
1020
1.0
1030
0.0
1010
0.0
1020
0.0
1030
1.0
1070
     0
1002
}
1002
{
1002
{
1040
1.0
1040
1.0
1002
{
1070
     1
1002
{
1040
1.0
1040
1.0
1000

1040
0.0
1002
{
1002
}
1040
0.0
1002
{
1002
}
1040
0.0
1002
}
1002
}
1002
}
1070
     0
1040
0.0
1002
{
1002
}
1002
}
1002
{
1002
}
1002
}
1002
{
1071
        3
1070
     3
1070
     0
1002
{
1070
     2
1070
     0
1070
     0
1040
0.0
1002
}
1070
     0
1070
     2
1002
{
1002
}
1002
}
1002
{
1040
8030.0
1040
190.300003
1040
0.305
1040
228.0
1040
545.0
1040
14.0
1040
17.4
1040
0.456
1002
}
1002
}
  0
INSERT
  5
346
330
1F
100
AcDbEntity
  8
ASHADE
 62
     1
100
AcDbBlockReference
  2
AVE_RENDER
 10
29648.83968882
 20
5842.690787291813
 30
0.0
 41
27.778
 42
24.17741564000001
1001
AVE_RENDER
1002
{
1070
     6
1000
Pref
1070
    30
1070
    20
1070
     1
1070
     0
1000

1070
    10
1070
     1
1070
    30
1040
25.4
1070
     1
1040
0.3
1040
0.7
1040
0.0
1040
10.0
1010
-1.0
1020
-1.0
1030
-1.0
1040
0.3
1070
    49
1070
     0
1070
     0
1010
1.0
1020
1.0
1030
1.0
1040
45.0
1070
     1
1070
     0
1000
WCS
1040
0.0
1002
}
  0
INSERT
  5
347
330
1F
100
AcDbEntity
  8
ASHADE
 62
     3
100
AcDbBlockReference
  2
AVE_RENDER
 10
29648.83968882
 20
5842.690787291813
 30
0.0
 41
27.778
 42
24.17741564000001
1001
AVE_RENDER
1002
{
1070
     0
1000
Full Opt
1070
     0
1070
     1
1070
     1
1070
     1
1070
     0
1070
     0
1070
     0
1070
     1
1070
     1
1040
0.0001
1040
0.0001
1002
}
  0
INSERT
  5
348
330
1F
100
AcDbEntity
  8
ASHADE
 62
     4
100
AcDbBlockReference
  2
AVE_RENDER
 10
29648.83968882
 20
5842.690787291813
 30
0.0
 41
27.778
 42
24.17741564000001
1001
AVE_RENDER
1002
{
1070
     0
1000
Quick Opt
1070
     0
1070
     1
1070
     1
1070
     1
1070
     0
1070
     0
1070
     1
1002
}
  0
INSERT
  5
349
330
1F
100
AcDbEntity
  8
ASHADE
 62
     5
100
AcDbBlockReference
  2
AVE_RENDER
 10
29648.83968882
 20
5842.690787291813
 30
0.0
 41
27.778
 42
24.17741564000001
1001
AVE_RENDER
1002
{
1070
     1
1000
Scanl Opt
1070
     2
1070
     0
1070
     2
1040
2.0
1040
4.0
1070
     0
1070
     1
1070
     0
1040
0.03
1002
}
  0
INSERT
  5
34A
330
1F
100
AcDbEntity
  8
ASHADE
 62
     6
100
AcDbBlockReference
  2
AVE_RENDER
 10
29648.83968882
 20
5842.690787291813
 30
0.0
 41
27.778
 42
24.17741564000001
1001
AVE_RENDER
1002
{
1070
     2
1000
Raytr Opt
1070
     2
1070
     0
1070
     2
1040
2.0
1040
4.0
1070
     0
1070
     1
1070
     1
1040
0.03
1070
     3
1040
0.03
1002
}
  0
INSERT
  5
34B
330
1F
100
AcDbEntity
  8
ASHADE
 62
     7
100
AcDbBlockReference
  2
AVE_RENDER
 10
29648.83968882
 20
5842.690787291813
 30
0.0
 41
27.778
 42
24.17741564000001
1001
AVE_RENDER
1002
{
1070
     0
1000
RFile Opt
1070
     5
1070
   640
1070
   480
1070
 10000
1070
     3
1070
    32
1070
    24
1070
     0
1070
     0
1070
     0
1070
     1
1070
     0
1070
     0
1070
     0
1002
}
  0
INSERT
  5
34C
330
1F
100
AcDbEntity
  8
ASHADE
 62
     8
100
AcDbBlockReference
  2
AVE_RENDER
 10
29648.83968882
 20
5842.690787291813
 30
0.0
 41
27.778
 42
24.17741564000001
1001
AVE_RENDER
1002
{
1070
     0
1000
Fog Opt
1070
     0
1070
     0
1040
0.0
1040
1.0
1040
0.0
1040
1.0
1010
0.5
1020
0.5
1030
0.5
1002
}
  0
INSERT
  5
34D
330
1F
100
AcDbEntity
  8
ASHADE
 62
     9
100
AcDbBlockReference
  2
AVE_RENDER
 10
29648.83968882
 20
5842.690787291813
 30
0.0
 41
27.778
 42
24.17741564000001
1001
AVE_RENDER
1002
{
1070
     0
1000
BG Opt
1070
     0
1070
     1
1010
0.0
1020
0.0
1030
0.0
1010
1.0
1020
0.0
1030
0.0
1010
0.0
1020
1.0
1030
0.0
1010
0.0
1020
0.0
1030
1.0
1040
0.5
1040
0.33
1040
0.0
1000

1070
     1
1000

1070
     1
1070
     1
1040
1.0
1040
1.0
1040
0.0
1040
0.0
1070
     0
1002
}
  0
INSERT
  5
34E
330
1F
100
AcDbEntity
  8
ASHADE
 62
     1
100
AcDbBlockReference
  2
AVE_GLOBAL
 10
29648.83968882
 20
5842.690787291813
 30
0.0
 41
27.778
 42
24.17741564000001
1001
AVE_MATERIAL
1002
{
1000
*GLOBALE*
1000
1
1000
Finitura globale.
1002
{
1002
}
1002
{
1070
    63
1002
{
1002
{
1010
-1.0
1020
-1.0
1030
-1.0
1002
}
1040
0.1
1000

1040
0.0
1002
{
1002
}
1040
0.0
1002
{
1002
}
1040
0.0
1002
}
1002
{
1002
{
1010
-1.0
1020
-1.0
1030
-1.0
1002
}
1040
0.7
1000

1040
0.0
1002
{
1002
}
1040
0.0
1002
{
1002
}
1040
0.0
1002
}
1002
{
1002
{
1010
-1.0
1020
-1.0
1030
-1.0
1002
}
1040
0.2
1000

1040
0.0
1002
{
1002
}
1040
0.0
1002
{
1002
}
1040
0.0
1002
}
1002
{
1070
     0
1002
{
1070
     1
1002
{
1040
1.0
1040
1.0
1000

1040
0.0
1002
{
1002
}
1040
0.0
1002
{
1002
}
1040
0.0
1002
}
1002
}
1040
1.0
1040
0.0
1040
0.0
1002
}
1002
{
1040
1.0
1040
1.0
1000

1040
0.0
1002
{
1002
}
1040
0.0
1002
{
1002
}
1040
0.0
1002
}
1002
{
1040
0.5
1040
1.0
1000

1040
0.0
1002
{
1002
}
1040
0.0
1002
{
1002
}
1040
0.0
1002
}
1002
{
1070
     0
1040
0.0
1002
{
1002
}
1040
1.0
1002
{
1002
}
1040
0.0
1002
}
1002
{
1040
0.0
1002
{
1002
{
1010
0.0
1020
0.0
1030
0.0
1002
}
1040
1.0
1000

1040
0.0
1002
{
1002
}
1040
0.0
1002
{
1002
}
1040
0.0
1002
}
1002
}
1002
{
1002
{
1070
     1
1002
{
1040
0.0
1040
1.0
1000

1040
0.0
1002
{
1002
}
1040
0.0
1002
{
1002
}
1040
0.0
1002
}
1002
}
1040
0.0
1002
{
1002
}
1010
1.0
1020
0.0
1030
0.0
1010
0.0
1020
1.0
1030
0.0
1010
0.0
1020
0.0
1030
1.0
1070
     0
1002
}
1002
{
1002
{
1040
1.0
1040
1.0
1002
{
1070
     1
1002
{
1040
1.0
1040
1.0
1000

1040
0.0
1002
{
1002
}
1040
0.0
1002
{
1002
}
1040
0.0
1002
}
1002
}
1002
}
1070
     0
1040
0.0
1002
{
1002
}
1002
}
1002
{
1002
}
1002
}
1002
{
1071
        3
1070
     3
1070
     0
1002
{
1070
     2
1070
     0
1070
     0
1040
0.0
1002
}
1070
     0
1070
     2
1002
{
1002
}
1002
}
1002
{
1040
8030.0
1040
190.300003
1040
0.305
1040
228.0
1040
545.0
1040
14.0
1040
17.4
1040
0.456
1002
}
1002
}
  0
INSERT
  5
34F
330
1F
100
AcDbEntity
  8
ASHADE
 62
     1
100
AcDbBlockReference
  2
AVE_RENDER
 10
35947.862358376
 20
10499.03263551026
 30
0.0
 41
27.778
 42
24.17741564000001
1001
AVE_RENDER
1002
{
1070
     6
1000
Pref
1070
    30
1070
    20
1070
     1
1070
     0
1000

1070
    10
1070
     1
1070
    30
1040
25.4
1070
     1
1040
0.3
1040
0.7
1040
0.0
1040
10.0
1010
-1.0
1020
-1.0
1030
-1.0
1040
0.3
1070
    49
1070
     0
1070
     0
1010
1.0
1020
1.0
1030
1.0
1040
45.0
1070
     1
1070
     0
1000
WCS
1040
0.0
1002
}
  0
INSERT
  5
350
330
1F
100
AcDbEntity
  8
ASHADE
 62
     3
100
AcDbBlockReference
  2
AVE_RENDER
 10
35947.862358376
 20
10499.03263551026
 30
0.0
 41
27.778
 42
24.17741564000001
1001
AVE_RENDER
1002
{
1070
     0
1000
Full Opt
1070
     0
1070
     1
1070
     1
1070
     1
1070
     0
1070
     0
1070
     0
1070
     1
1070
     1
1040
0.0001
1040
0.0001
1002
}
  0
INSERT
  5
351
330
1F
100
AcDbEntity
  8
ASHADE
 62
     4
100
AcDbBlockReference
  2
AVE_RENDER
 10
35947.862358376
 20
10499.03263551026
 30
0.0
 41
27.778
 42
24.17741564000001
1001
AVE_RENDER
1002
{
1070
     0
1000
Quick Opt
1070
     0
1070
     1
1070
     1
1070
     1
1070
     0
1070
     0
1070
     1
1002
}
  0
INSERT
  5
352
330
1F
100
AcDbEntity
  8
ASHADE
 62
     5
100
AcDbBlockReference
  2
AVE_RENDER
 10
35947.862358376
 20
10499.03263551026
 30
0.0
 41
27.778
 42
24.17741564000001
1001
AVE_RENDER
1002
{
1070
     1
1000
Scanl Opt
1070
     2
1070
     0
1070
     2
1040
2.0
1040
4.0
1070
     0
1070
     1
1070
     0
1040
0.03
1002
}
  0
INSERT
  5
353
330
1F
100
AcDbEntity
  8
ASHADE
 62
     6
100
AcDbBlockReference
  2
AVE_RENDER
 10
35947.862358376
 20
10499.03263551026
 30
0.0
 41
27.778
 42
24.17741564000001
1001
AVE_RENDER
1002
{
1070
     2
1000
Raytr Opt
1070
     2
1070
     0
1070
     2
1040
2.0
1040
4.0
1070
     0
1070
     1
1070
     1
1040
0.03
1070
     3
1040
0.03
1002
}
  0
INSERT
  5
354
330
1F
100
AcDbEntity
  8
ASHADE
 62
     7
100
AcDbBlockReference
  2
AVE_RENDER
 10
35947.862358376
 20
10499.03263551026
 30
0.0
 41
27.778
 42
24.17741564000001
1001
AVE_RENDER
1002
{
1070
     0
1000
RFile Opt
1070
     5
1070
   640
1070
   480
1070
 10000
1070
     3
1070
    32
1070
    24
1070
     0
1070
     0
1070
     0
1070
     1
1070
     0
1070
     0
1070
     0
1002
}
  0
INSERT
  5
355
330
1F
100
AcDbEntity
  8
ASHADE
 62
     8
100
AcDbBlockReference
  2
AVE_RENDER
 10
35947.862358376
 20
10499.03263551026
 30
0.0
 41
27.778
 42
24.17741564000001
1001
AVE_RENDER
1002
{
1070
     0
1000
Fog Opt
1070
     0
1070
     0
1040
0.0
1040
1.0
1040
0.0
1040
1.0
1010
0.5
1020
0.5
1030
0.5
1002
}
  0
INSERT
  5
356
330
1F
100
AcDbEntity
  8
ASHADE
 62
     9
100
AcDbBlockReference
  2
AVE_RENDER
 10
35947.862358376
 20
10499.03263551026
 30
0.0
 41
27.778
 42
24.17741564000001
1001
AVE_RENDER
1002
{
1070
     0
1000
BG Opt
1070
     0
1070
     1
1010
0.0
1020
0.0
1030
0.0
1010
1.0
1020
0.0
1030
0.0
1010
0.0
1020
1.0
1030
0.0
1010
0.0
1020
0.0
1030
1.0
1040
0.5
1040
0.33
1040
0.0
1000

1070
     1
1000

1070
     1
1070
     1
1040
1.0
1040
1.0
1040
0.0
1040
0.0
1070
     0
1002
}
  0
INSERT
  5
357
330
1F
100
AcDbEntity
  8
ASHADE
 62
     1
100
AcDbBlockReference
  2
AVE_GLOBAL
 10
35947.862358376
 20
10499.03263551026
 30
0.0
 41
27.778
 42
24.17741564000001
1001
AVE_MATERIAL
1002
{
1000
*GLOBALE*
1000
1
1000
Finitura globale.
1002
{
1002
}
1002
{
1070
    63
1002
{
1002
{
1010
-1.0
1020
-1.0
1030
-1.0
1002
}
1040
0.1
1000

1040
0.0
1002
{
1002
}
1040
0.0
1002
{
1002
}
1040
0.0
1002
}
1002
{
1002
{
1010
-1.0
1020
-1.0
1030
-1.0
1002
}
1040
0.7
1000

1040
0.0
1002
{
1002
}
1040
0.0
1002
{
1002
}
1040
0.0
1002
}
1002
{
1002
{
1010
-1.0
1020
-1.0
1030
-1.0
1002
}
1040
0.2
1000

1040
0.0
1002
{
1002
}
1040
0.0
1002
{
1002
}
1040
0.0
1002
}
1002
{
1070
     0
1002
{
1070
     1
1002
{
1040
1.0
1040
1.0
1000

1040
0.0
1002
{
1002
}
1040
0.0
1002
{
1002
}
1040
0.0
1002
}
1002
}
1040
1.0
1040
0.0
1040
0.0
1002
}
1002
{
1040
1.0
1040
1.0
1000

1040
0.0
1002
{
1002
}
1040
0.0
1002
{
1002
}
1040
0.0
1002
}
1002
{
1040
0.5
1040
1.0
1000

1040
0.0
1002
{
1002
}
1040
0.0
1002
{
1002
}
1040
0.0
1002
}
1002
{
1070
     0
1040
0.0
1002
{
1002
}
1040
1.0
1002
{
1002
}
1040
0.0
1002
}
1002
{
1040
0.0
1002
{
1002
{
1010
0.0
1020
0.0
1030
0.0
1002
}
1040
1.0
1000

1040
0.0
1002
{
1002
}
1040
0.0
1002
{
1002
}
1040
0.0
1002
}
1002
}
1002
{
1002
{
1070
     1
1002
{
1040
0.0
1040
1.0
1000

1040
0.0
1002
{
1002
}
1040
0.0
1002
{
1002
}
1040
0.0
1002
}
1002
}
1040
0.0
1002
{
1002
}
1010
1.0
1020
0.0
1030
0.0
1010
0.0
1020
1.0
1030
0.0
1010
0.0
1020
0.0
1030
1.0
1070
     0
1002
}
1002
{
1002
{
1040
1.0
1040
1.0
1002
{
1070
     1
1002
{
1040
1.0
1040
1.0
1000

1040
0.0
1002
{
1002
}
1040
0.0
1002
{
1002
}
1040
0.0
1002
}
1002
}
1002
}
1070
     0
1040
0.0
1002
{
1002
}
1002
}
1002
{
1002
}
1002
}
1002
{
1071
        3
1070
     3
1070
     0
1002
{
1070
     2
1070
     0
1070
     0
1040
0.0
1002
}
1070
     0
1070
     2
1002
{
1002
}
1002
}
1002
{
1040
8030.0
1040
190.300003
1040
0.305
1040
228.0
1040
545.0
1040
14.0
1040
17.4
1040
0.456
1002
}
1002
}
  0
INSERT
  5
358
330
1F
100
AcDbEntity
  8
ASHADE
 62
     1
100
AcDbBlockReference
  2
AVE_RENDER
 10
31046.733149656
 20
1548.305305297796
 30
0.0
 41
27.778
 42
24.17741564000001
1001
AVE_RENDER
1002
{
1070
     6
1000
Pref
1070
    30
1070
    20
1070
     1
1070
     0
1000

1070
    10
1070
     1
1070
    30
1040
25.4
1070
     1
1040
0.3
1040
0.7
1040
0.0
1040
10.0
1010
-1.0
1020
-1.0
1030
-1.0
1040
0.3
1070
    49
1070
     0
1070
     0
1010
1.0
1020
1.0
1030
1.0
1040
45.0
1070
     1
1070
     0
1000
WCS
1040
0.0
1002
}
  0
INSERT
  5
359
330
1F
100
AcDbEntity
  8
ASHADE
 62
     3
100
AcDbBlockReference
  2
AVE_RENDER
 10
31046.733149656
 20
1548.305305297796
 30
0.0
 41
27.778
 42
24.17741564000001
1001
AVE_RENDER
1002
{
1070
     0
1000
Full Opt
1070
     0
1070
     1
1070
     1
1070
     1
1070
     0
1070
     0
1070
     0
1070
     1
1070
     1
1040
0.0001
1040
0.0001
1002
}
  0
INSERT
  5
35A
330
1F
100
AcDbEntity
  8
ASHADE
 62
     4
100
AcDbBlockReference
  2
AVE_RENDER
 10
31046.733149656
 20
1548.305305297796
 30
0.0
 41
27.778
 42
24.17741564000001
1001
AVE_RENDER
1002
{
1070
     0
1000
Quick Opt
1070
     0
1070
     1
1070
     1
1070
     1
1070
     0
1070
     0
1070
     1
1002
}
  0
INSERT
  5
35B
330
1F
100
AcDbEntity
  8
ASHADE
 62
     5
100
AcDbBlockReference
  2
AVE_RENDER
 10
31046.733149656
 20
1548.305305297796
 30
0.0
 41
27.778
 42
24.17741564000001
1001
AVE_RENDER
1002
{
1070
     1
1000
Scanl Opt
1070
     2
1070
     0
1070
     2
1040
2.0
1040
4.0
1070
     0
1070
     1
1070
     0
1040
0.03
1002
}
  0
INSERT
  5
35C
330
1F
100
AcDbEntity
  8
ASHADE
 62
     6
100
AcDbBlockReference
  2
AVE_RENDER
 10
31046.733149656
 20
1548.305305297796
 30
0.0
 41
27.778
 42
24.17741564000001
1001
AVE_RENDER
1002
{
1070
     2
1000
Raytr Opt
1070
     2
1070
     0
1070
     2
1040
2.0
1040
4.0
1070
     0
1070
     1
1070
     1
1040
0.03
1070
     3
1040
0.03
1002
}
  0
INSERT
  5
35D
330
1F
100
AcDbEntity
  8
ASHADE
 62
     7
100
AcDbBlockReference
  2
AVE_RENDER
 10
31046.733149656
 20
1548.305305297796
 30
0.0
 41
27.778
 42
24.17741564000001
1001
AVE_RENDER
1002
{
1070
     0
1000
RFile Opt
1070
     5
1070
   640
1070
   480
1070
 10000
1070
     3
1070
    32
1070
    24
1070
     0
1070
     0
1070
     0
1070
     1
1070
     0
1070
     0
1070
     0
1002
}
  0
INSERT
  5
35E
330
1F
100
AcDbEntity
  8
ASHADE
 62
     8
100
AcDbBlockReference
  2
AVE_RENDER
 10
31046.733149656
 20
1548.305305297796
 30
0.0
 41
27.778
 42
24.17741564000001
1001
AVE_RENDER
1002
{
1070
     0
1000
Fog Opt
1070
     0
1070
     0
1040
0.0
1040
1.0
1040
0.0
1040
1.0
1010
0.5
1020
0.5
1030
0.5
1002
}
  0
INSERT
  5
35F
330
1F
100
AcDbEntity
  8
ASHADE
 62
     9
100
AcDbBlockReference
  2
AVE_RENDER
 10
31046.733149656
 20
1548.305305297796
 30
0.0
 41
27.778
 42
24.17741564000001
1001
AVE_RENDER
1002
{
1070
     0
1000
BG Opt
1070
     0
1070
     1
1010
0.0
1020
0.0
1030
0.0
1010
1.0
1020
0.0
1030
0.0
1010
0.0
1020
1.0
1030
0.0
1010
0.0
1020
0.0
1030
1.0
1040
0.5
1040
0.33
1040
0.0
1000

1070
     1
1000

1070
     1
1070
     1
1040
1.0
1040
1.0
1040
0.0
1040
0.0
1070
     0
1002
}
  0
INSERT
  5
360
330
1F
100
AcDbEntity
  8
ASHADE
 62
     1
100
AcDbBlockReference
  2
AVE_GLOBAL
 10
31046.733149656
 20
1548.305305297796
 30
0.0
 41
27.778
 42
24.17741564000001
1001
AVE_MATERIAL
1002
{
1000
*GLOBALE*
1000
1
1000
Finitura globale.
1002
{
1002
}
1002
{
1070
    63
1002
{
1002
{
1010
-1.0
1020
-1.0
1030
-1.0
1002
}
1040
0.1
1000

1040
0.0
1002
{
1002
}
1040
0.0
1002
{
1002
}
1040
0.0
1002
}
1002
{
1002
{
1010
-1.0
1020
-1.0
1030
-1.0
1002
}
1040
0.7
1000

1040
0.0
1002
{
1002
}
1040
0.0
1002
{
1002
}
1040
0.0
1002
}
1002
{
1002
{
1010
-1.0
1020
-1.0
1030
-1.0
1002
}
1040
0.2
1000

1040
0.0
1002
{
1002
}
1040
0.0
1002
{
1002
}
1040
0.0
1002
}
1002
{
1070
     0
1002
{
1070
     1
1002
{
1040
1.0
1040
1.0
1000

1040
0.0
1002
{
1002
}
1040
0.0
1002
{
1002
}
1040
0.0
1002
}
1002
}
1040
1.0
1040
0.0
1040
0.0
1002
}
1002
{
1040
1.0
1040
1.0
1000

1040
0.0
1002
{
1002
}
1040
0.0
1002
{
1002
}
1040
0.0
1002
}
1002
{
1040
0.5
1040
1.0
1000

1040
0.0
1002
{
1002
}
1040
0.0
1002
{
1002
}
1040
0.0
1002
}
1002
{
1070
     0
1040
0.0
1002
{
1002
}
1040
1.0
1002
{
1002
}
1040
0.0
1002
}
1002
{
1040
0.0
1002
{
1002
{
1010
0.0
1020
0.0
1030
0.0
1002
}
1040
1.0
1000

1040
0.0
1002
{
1002
}
1040
0.0
1002
{
1002
}
1040
0.0
1002
}
1002
}
1002
{
1002
{
1070
     1
1002
{
1040
0.0
1040
1.0
1000

1040
0.0
1002
{
1002
}
1040
0.0
1002
{
1002
}
1040
0.0
1002
}
1002
}
1040
0.0
1002
{
1002
}
1010
1.0
1020
0.0
1030
0.0
1010
0.0
1020
1.0
1030
0.0
1010
0.0
1020
0.0
1030
1.0
1070
     0
1002
}
1002
{
1002
{
1040
1.0
1040
1.0
1002
{
1070
     1
1002
{
1040
1.0
1040
1.0
1000

1040
0.0
1002
{
1002
}
1040
0.0
1002
{
1002
}
1040
0.0
1002
}
1002
}
1002
}
1070
     0
1040
0.0
1002
{
1002
}
1002
}
1002
{
1002
}
1002
}
1002
{
1071
        3
1070
     3
1070
     0
1002
{
1070
     2
1070
     0
1070
     0
1040
0.0
1002
}
1070
     0
1070
     2
1002
{
1002
}
1002
}
1002
{
1040
8030.0
1040
190.300003
1040
0.305
1040
228.0
1040
545.0
1040
14.0
1040
17.4
1040
0.456
1002
}
1002
}
  0
INSERT
  5
361
330
1F
100
AcDbEntity
  8
ASHADE
 62
     1
100
AcDbBlockReference
  2
AVE_RENDER
 10
35769.073039184
 20
6375.055695833123
 30
0.0
 41
27.778
 42
24.17741564000001
1001
AVE_RENDER
1002
{
1070
     6
1000
Pref
1070
    30
1070
    20
1070
     1
1070
     0
1000

1070
    10
1070
     1
1070
    30
1040
25.4
1070
     1
1040
0.3
1040
0.7
1040
0.0
1040
10.0
1010
-1.0
1020
-1.0
1030
-1.0
1040
0.3
1070
    49
1070
     0
1070
     0
1010
1.0
1020
1.0
1030
1.0
1040
45.0
1070
     1
1070
     0
1000
WCS
1040
0.0
1002
}
  0
INSERT
  5
362
330
1F
100
AcDbEntity
  8
ASHADE
 62
     3
100
AcDbBlockReference
  2
AVE_RENDER
 10
35769.073039184
 20
6375.055695833123
 30
0.0
 41
27.778
 42
24.17741564000001
1001
AVE_RENDER
1002
{
1070
     0
1000
Full Opt
1070
     0
1070
     1
1070
     1
1070
     1
1070
     0
1070
     0
1070
     0
1070
     1
1070
     1
1040
0.0001
1040
0.0001
1002
}
  0
INSERT
  5
363
330
1F
100
AcDbEntity
  8
ASHADE
 62
     4
100
AcDbBlockReference
  2
AVE_RENDER
 10
35769.073039184
 20
6375.055695833123
 30
0.0
 41
27.778
 42
24.17741564000001
1001
AVE_RENDER
1002
{
1070
     0
1000
Quick Opt
1070
     0
1070
     1
1070
     1
1070
     1
1070
     0
1070
     0
1070
     1
1002
}
  0
INSERT
  5
364
330
1F
100
AcDbEntity
  8
ASHADE
 62
     5
100
AcDbBlockReference
  2
AVE_RENDER
 10
35769.073039184
 20
6375.055695833123
 30
0.0
 41
27.778
 42
24.17741564000001
1001
AVE_RENDER
1002
{
1070
     1
1000
Scanl Opt
1070
     2
1070
     0
1070
     2
1040
2.0
1040
4.0
1070
     0
1070
     1
1070
     0
1040
0.03
1002
}
  0
INSERT
  5
365
330
1F
100
AcDbEntity
  8
ASHADE
 62
     6
100
AcDbBlockReference
  2
AVE_RENDER
 10
35769.073039184
 20
6375.055695833123
 30
0.0
 41
27.778
 42
24.17741564000001
1001
AVE_RENDER
1002
{
1070
     2
1000
Raytr Opt
1070
     2
1070
     0
1070
     2
1040
2.0
1040
4.0
1070
     0
1070
     1
1070
     1
1040
0.03
1070
     3
1040
0.03
1002
}
  0
INSERT
  5
366
330
1F
100
AcDbEntity
  8
ASHADE
 62
     7
100
AcDbBlockReference
  2
AVE_RENDER
 10
35769.073039184
 20
6375.055695833123
 30
0.0
 41
27.778
 42
24.17741564000001
1001
AVE_RENDER
1002
{
1070
     0
1000
RFile Opt
1070
     5
1070
   640
1070
   480
1070
 10000
1070
     3
1070
    32
1070
    24
1070
     0
1070
     0
1070
     0
1070
     1
1070
     0
1070
     0
1070
     0
1002
}
  0
INSERT
  5
367
330
1F
100
AcDbEntity
  8
ASHADE
 62
     8
100
AcDbBlockReference
  2
AVE_RENDER
 10
35769.073039184
 20
6375.055695833123
 30
0.0
 41
27.778
 42
24.17741564000001
1001
AVE_RENDER
1002
{
1070
     0
1000
Fog Opt
1070
     0
1070
     0
1040
0.0
1040
1.0
1040
0.0
1040
1.0
1010
0.5
1020
0.5
1030
0.5
1002
}
  0
INSERT
  5
368
330
1F
100
AcDbEntity
  8
ASHADE
 62
     9
100
AcDbBlockReference
  2
AVE_RENDER
 10
35769.073039184
 20
6375.055695833123
 30
0.0
 41
27.778
 42
24.17741564000001
1001
AVE_RENDER
1002
{
1070
     0
1000
BG Opt
1070
     0
1070
     1
1010
0.0
1020
0.0
1030
0.0
1010
1.0
1020
0.0
1030
0.0
1010
0.0
1020
1.0
1030
0.0
1010
0.0
1020
0.0
1030
1.0
1040
0.5
1040
0.33
1040
0.0
1000

1070
     1
1000

1070
     1
1070
     1
1040
1.0
1040
1.0
1040
0.0
1040
0.0
1070
     0
1002
}
  0
INSERT
  5
369
330
1F
100
AcDbEntity
  8
ASHADE
 62
     1
100
AcDbBlockReference
  2
AVE_GLOBAL
 10
35769.073039184
 20
6375.055695833123
 30
0.0
 41
27.778
 42
24.17741564000001
1001
AVE_MATERIAL
1002
{
1000
*GLOBALE*
1000
1
1000
Finitura globale.
1002
{
1002
}
1002
{
1070
    63
1002
{
1002
{
1010
-1.0
1020
-1.0
1030
-1.0
1002
}
1040
0.1
1000

1040
0.0
1002
{
1002
}
1040
0.0
1002
{
1002
}
1040
0.0
1002
}
1002
{
1002
{
1010
-1.0
1020
-1.0
1030
-1.0
1002
}
1040
0.7
1000

1040
0.0
1002
{
1002
}
1040
0.0
1002
{
1002
}
1040
0.0
1002
}
1002
{
1002
{
1010
-1.0
1020
-1.0
1030
-1.0
1002
}
1040
0.2
1000

1040
0.0
1002
{
1002
}
1040
0.0
1002
{
1002
}
1040
0.0
1002
}
1002
{
1070
     0
1002
{
1070
     1
1002
{
1040
1.0
1040
1.0
1000

1040
0.0
1002
{
1002
}
1040
0.0
1002
{
1002
}
1040
0.0
1002
}
1002
}
1040
1.0
1040
0.0
1040
0.0
1002
}
1002
{
1040
1.0
1040
1.0
1000

1040
0.0
1002
{
1002
}
1040
0.0
1002
{
1002
}
1040
0.0
1002
}
1002
{
1040
0.5
1040
1.0
1000

1040
0.0
1002
{
1002
}
1040
0.0
1002
{
1002
}
1040
0.0
1002
}
1002
{
1070
     0
1040
0.0
1002
{
1002
}
1040
1.0
1002
{
1002
}
1040
0.0
1002
}
1002
{
1040
0.0
1002
{
1002
{
1010
0.0
1020
0.0
1030
0.0
1002
}
1040
1.0
1000

1040
0.0
1002
{
1002
}
1040
0.0
1002
{
1002
}
1040
0.0
1002
}
1002
}
1002
{
1002
{
1070
     1
1002
{
1040
0.0
1040
1.0
1000

1040
0.0
1002
{
1002
}
1040
0.0
1002
{
1002
}
1040
0.0
1002
}
1002
}
1040
0.0
1002
{
1002
}
1010
1.0
1020
0.0
1030
0.0
1010
0.0
1020
1.0
1030
0.0
1010
0.0
1020
0.0
1030
1.0
1070
     0
1002
}
1002
{
1002
{
1040
1.0
1040
1.0
1002
{
1070
     1
1002
{
1040
1.0
1040
1.0
1000

1040
0.0
1002
{
1002
}
1040
0.0
1002
{
1002
}
1040
0.0
1002
}
1002
}
1002
}
1070
     0
1040
0.0
1002
{
1002
}
1002
}
1002
{
1002
}
1002
}
1002
{
1071
        3
1070
     3
1070
     0
1002
{
1070
     2
1070
     0
1070
     0
1040
0.0
1002
}
1070
     0
1070
     2
1002
{
1002
}
1002
}
1002
{
1040
8030.0
1040
190.300003
1040
0.305
1040
228.0
1040
545.0
1040
14.0
1040
17.4
1040
0.456
1002
}
1002
}
  0
INSERT
  5
36A
330
1F
100
AcDbEntity
  8
ASHADE
 62
     1
100
AcDbBlockReference
  2
AVE_RENDER
 10
42068.09570874
 20
11031.39756822899
 30
0.0
 41
27.778
 42
24.17741564000001
1001
AVE_RENDER
1002
{
1070
     6
1000
Pref
1070
    30
1070
    20
1070
     1
1070
     0
1000

1070
    10
1070
     1
1070
    30
1040
25.4
1070
     1
1040
0.3
1040
0.7
1040
0.0
1040
10.0
1010
-1.0
1020
-1.0
1030
-1.0
1040
0.3
1070
    49
1070
     0
1070
     0
1010
1.0
1020
1.0
1030
1.0
1040
45.0
1070
     1
1070
     0
1000
WCS
1040
0.0
1002
}
  0
INSERT
  5
36B
330
1F
100
AcDbEntity
  8
ASHADE
 62
     3
100
AcDbBlockReference
  2
AVE_RENDER
 10
42068.09570874
 20
11031.39756822899
 30
0.0
 41
27.778
 42
24.17741564000001
1001
AVE_RENDER
1002
{
1070
     0
1000
Full Opt
1070
     0
1070
     1
1070
     1
1070
     1
1070
     0
1070
     0
1070
     0
1070
     1
1070
     1
1040
0.0001
1040
0.0001
1002
}
  0
INSERT
  5
36C
330
1F
100
AcDbEntity
  8
ASHADE
 62
     4
100
AcDbBlockReference
  2
AVE_RENDER
 10
42068.09570874
 20
11031.39756822899
 30
0.0
 41
27.778
 42
24.17741564000001
1001
AVE_RENDER
1002
{
1070
     0
1000
Quick Opt
1070
     0
1070
     1
1070
     1
1070
     1
1070
     0
1070
     0
1070
     1
1002
}
  0
INSERT
  5
36D
330
1F
100
AcDbEntity
  8
ASHADE
 62
     5
100
AcDbBlockReference
  2
AVE_RENDER
 10
42068.09570874
 20
11031.39756822899
 30
0.0
 41
27.778
 42
24.17741564000001
1001
AVE_RENDER
1002
{
1070
     1
1000
Scanl Opt
1070
     2
1070
     0
1070
     2
1040
2.0
1040
4.0
1070
     0
1070
     1
1070
     0
1040
0.03
1002
}
  0
INSERT
  5
36E
330
1F
100
AcDbEntity
  8
ASHADE
 62
     6
100
AcDbBlockReference
  2
AVE_RENDER
 10
42068.09570874
 20
11031.39756822899
 30
0.0
 41
27.778
 42
24.17741564000001
1001
AVE_RENDER
1002
{
1070
     2
1000
Raytr Opt
1070
     2
1070
     0
1070
     2
1040
2.0
1040
4.0
1070
     0
1070
     1
1070
     1
1040
0.03
1070
     3
1040
0.03
1002
}
  0
INSERT
  5
36F
330
1F
100
AcDbEntity
  8
ASHADE
 62
     7
100
AcDbBlockReference
  2
AVE_RENDER
 10
42068.09570874
 20
11031.39756822899
 30
0.0
 41
27.778
 42
24.17741564000001
1001
AVE_RENDER
1002
{
1070
     0
1000
RFile Opt
1070
     5
1070
   640
1070
   480
1070
 10000
1070
     3
1070
    32
1070
    24
1070
     0
1070
     0
1070
     0
1070
     1
1070
     0
1070
     0
1070
     0
1002
}
  0
INSERT
  5
370
330
1F
100
AcDbEntity
  8
ASHADE
 62
     8
100
AcDbBlockReference
  2
AVE_RENDER
 10
42068.09570874
 20
11031.39756822899
 30
0.0
 41
27.778
 42
24.17741564000001
1001
AVE_RENDER
1002
{
1070
     0
1000
Fog Opt
1070
     0
1070
     0
1040
0.0
1040
1.0
1040
0.0
1040
1.0
1010
0.5
1020
0.5
1030
0.5
1002
}
  0
INSERT
  5
371
330
1F
100
AcDbEntity
  8
ASHADE
 62
     9
100
AcDbBlockReference
  2
AVE_RENDER
 10
42068.09570874
 20
11031.39756822899
 30
0.0
 41
27.778
 42
24.17741564000001
1001
AVE_RENDER
1002
{
1070
     0
1000
BG Opt
1070
     0
1070
     1
1010
0.0
1020
0.0
1030
0.0
1010
1.0
1020
0.0
1030
0.0
1010
0.0
1020
1.0
1030
0.0
1010
0.0
1020
0.0
1030
1.0
1040
0.5
1040
0.33
1040
0.0
1000

1070
     1
1000

1070
     1
1070
     1
1040
1.0
1040
1.0
1040
0.0
1040
0.0
1070
     0
1002
}
  0
INSERT
  5
372
330
1F
100
AcDbEntity
  8
ASHADE
 62
     1
100
AcDbBlockReference
  2
AVE_GLOBAL
 10
42068.09570874
 20
11031.39756822899
 30
0.0
 41
27.778
 42
24.17741564000001
1001
AVE_MATERIAL
1002
{
1000
*GLOBALE*
1000
1
1000
Finitura globale.
1002
{
1002
}
1002
{
1070
    63
1002
{
1002
{
1010
-1.0
1020
-1.0
1030
-1.0
1002
}
1040
0.1
1000

1040
0.0
1002
{
1002
}
1040
0.0
1002
{
1002
}
1040
0.0
1002
}
1002
{
1002
{
1010
-1.0
1020
-1.0
1030
-1.0
1002
}
1040
0.7
1000

1040
0.0
1002
{
1002
}
1040
0.0
1002
{
1002
}
1040
0.0
1002
}
1002
{
1002
{
1010
-1.0
1020
-1.0
1030
-1.0
1002
}
1040
0.2
1000

1040
0.0
1002
{
1002
}
1040
0.0
1002
{
1002
}
1040
0.0
1002
}
1002
{
1070
     0
1002
{
1070
     1
1002
{
1040
1.0
1040
1.0
1000

1040
0.0
1002
{
1002
}
1040
0.0
1002
{
1002
}
1040
0.0
1002
}
1002
}
1040
1.0
1040
0.0
1040
0.0
1002
}
1002
{
1040
1.0
1040
1.0
1000

1040
0.0
1002
{
1002
}
1040
0.0
1002
{
1002
}
1040
0.0
1002
}
1002
{
1040
0.5
1040
1.0
1000

1040
0.0
1002
{
1002
}
1040
0.0
1002
{
1002
}
1040
0.0
1002
}
1002
{
1070
     0
1040
0.0
1002
{
1002
}
1040
1.0
1002
{
1002
}
1040
0.0
1002
}
1002
{
1040
0.0
1002
{
1002
{
1010
0.0
1020
0.0
1030
0.0
1002
}
1040
1.0
1000

1040
0.0
1002
{
1002
}
1040
0.0
1002
{
1002
}
1040
0.0
1002
}
1002
}
1002
{
1002
{
1070
     1
1002
{
1040
0.0
1040
1.0
1000

1040
0.0
1002
{
1002
}
1040
0.0
1002
{
1002
}
1040
0.0
1002
}
1002
}
1040
0.0
1002
{
1002
}
1010
1.0
1020
0.0
1030
0.0
1010
0.0
1020
1.0
1030
0.0
1010
0.0
1020
0.0
1030
1.0
1070
     0
1002
}
1002
{
1002
{
1040
1.0
1040
1.0
1002
{
1070
     1
1002
{
1040
1.0
1040
1.0
1000

1040
0.0
1002
{
1002
}
1040
0.0
1002
{
1002
}
1040
0.0
1002
}
1002
}
1002
}
1070
     0
1040
0.0
1002
{
1002
}
1002
}
1002
{
1002
}
1002
}
1002
{
1071
        3
1070
     3
1070
     0
1002
{
1070
     2
1070
     0
1070
     0
1040
0.0
1002
}
1070
     0
1070
     2
1002
{
1002
}
1002
}
1002
{
1040
8030.0
1040
190.300003
1040
0.305
1040
228.0
1040
545.0
1040
14.0
1040
17.4
1040
0.456
1002
}
1002
}
  0
INSERT
  5
373
330
1F
100
AcDbEntity
  8
ASHADE
 62
     1
100
AcDbBlockReference
  2
AVE_RENDER
 10
12828.074873778
 20
248.0149034572438
 30
0.0
 41
27.778
 42
24.17741564000001
1001
AVE_RENDER
1002
{
1070
     6
1000
Pref
1070
    30
1070
    20
1070
     1
1070
     0
1000

1070
    10
1070
     1
1070
    30
1040
25.4
1070
     1
1040
0.3
1040
0.7
1040
0.0
1040
10.0
1010
-1.0
1020
-1.0
1030
-1.0
1040
0.3
1070
    49
1070
     0
1070
     0
1010
1.0
1020
1.0
1030
1.0
1040
45.0
1070
     1
1070
     0
1000
WCS
1040
0.0
1002
}
  0
INSERT
  5
374
330
1F
100
AcDbEntity
  8
ASHADE
 62
     3
100
AcDbBlockReference
  2
AVE_RENDER
 10
12828.074873778
 20
248.0149034572438
 30
0.0
 41
27.778
 42
24.17741564000001
1001
AVE_RENDER
1002
{
1070
     0
1000
Full Opt
1070
     0
1070
     1
1070
     1
1070
     1
1070
     0
1070
     0
1070
     0
1070
     1
1070
     1
1040
0.0001
1040
0.0001
1002
}
  0
INSERT
  5
375
330
1F
100
AcDbEntity
  8
ASHADE
 62
     4
100
AcDbBlockReference
  2
AVE_RENDER
 10
12828.074873778
 20
248.0149034572438
 30
0.0
 41
27.778
 42
24.17741564000001
1001
AVE_RENDER
1002
{
1070
     0
1000
Quick Opt
1070
     0
1070
     1
1070
     1
1070
     1
1070
     0
1070
     0
1070
     1
1002
}
  0
INSERT
  5
376
330
1F
100
AcDbEntity
  8
ASHADE
 62
     5
100
AcDbBlockReference
  2
AVE_RENDER
 10
12828.074873778
 20
248.0149034572438
 30
0.0
 41
27.778
 42
24.17741564000001
1001
AVE_RENDER
1002
{
1070
     1
1000
Scanl Opt
1070
     2
1070
     0
1070
     2
1040
2.0
1040
4.0
1070
     0
1070
     1
1070
     0
1040
0.03
1002
}
  0
INSERT
  5
377
330
1F
100
AcDbEntity
  8
ASHADE
 62
     6
100
AcDbBlockReference
  2
AVE_RENDER
 10
12828.074873778
 20
248.0149034572438
 30
0.0
 41
27.778
 42
24.17741564000001
1001
AVE_RENDER
1002
{
1070
     2
1000
Raytr Opt
1070
     2
1070
     0
1070
     2
1040
2.0
1040
4.0
1070
     0
1070
     1
1070
     1
1040
0.03
1070
     3
1040
0.03
1002
}
  0
INSERT
  5
378
330
1F
100
AcDbEntity
  8
ASHADE
 62
     7
100
AcDbBlockReference
  2
AVE_RENDER
 10
12828.074873778
 20
248.0149034572438
 30
0.0
 41
27.778
 42
24.17741564000001
1001
AVE_RENDER
1002
{
1070
     0
1000
RFile Opt
1070
     5
1070
   640
1070
   480
1070
 10000
1070
     3
1070
    32
1070
    24
1070
     0
1070
     0
1070
     0
1070
     1
1070
     0
1070
     0
1070
     0
1002
}
  0
INSERT
  5
379
330
1F
100
AcDbEntity
  8
ASHADE
 62
     8
100
AcDbBlockReference
  2
AVE_RENDER
 10
12828.074873778
 20
248.0149034572438
 30
0.0
 41
27.778
 42
24.17741564000001
1001
AVE_RENDER
1002
{
1070
     0
1000
Fog Opt
1070
     0
1070
     0
1040
0.0
1040
1.0
1040
0.0
1040
1.0
1010
0.5
1020
0.5
1030
0.5
1002
}
  0
INSERT
  5
37A
330
1F
100
AcDbEntity
  8
ASHADE
 62
     9
100
AcDbBlockReference
  2
AVE_RENDER
 10
12828.074873778
 20
248.0149034572438
 30
0.0
 41
27.778
 42
24.17741564000001
1001
AVE_RENDER
1002
{
1070
     0
1000
BG Opt
1070
     0
1070
     1
1010
0.0
1020
0.0
1030
0.0
1010
1.0
1020
0.0
1030
0.0
1010
0.0
1020
1.0
1030
0.0
1010
0.0
1020
0.0
1030
1.0
1040
0.5
1040
0.33
1040
0.0
1000

1070
     1
1000

1070
     1
1070
     1
1040
1.0
1040
1.0
1040
0.0
1040
0.0
1070
     0
1002
}
  0
INSERT
  5
37B
330
1F
100
AcDbEntity
  8
ASHADE
 62
     1
100
AcDbBlockReference
  2
AVE_GLOBAL
 10
12828.074873778
 20
248.0149034572438
 30
0.0
 41
27.778
 42
24.17741564000001
1001
AVE_MATERIAL
1002
{
1000
*GLOBALE*
1000
1
1000
Finitura globale.
1002
{
1002
}
1002
{
1070
    63
1002
{
1002
{
1010
-1.0
1020
-1.0
1030
-1.0
1002
}
1040
0.1
1000

1040
0.0
1002
{
1002
}
1040
0.0
1002
{
1002
}
1040
0.0
1002
}
1002
{
1002
{
1010
-1.0
1020
-1.0
1030
-1.0
1002
}
1040
0.7
1000

1040
0.0
1002
{
1002
}
1040
0.0
1002
{
1002
}
1040
0.0
1002
}
1002
{
1002
{
1010
-1.0
1020
-1.0
1030
-1.0
1002
}
1040
0.2
1000

1040
0.0
1002
{
1002
}
1040
0.0
1002
{
1002
}
1040
0.0
1002
}
1002
{
1070
     0
1002
{
1070
     1
1002
{
1040
1.0
1040
1.0
1000

1040
0.0
1002
{
1002
}
1040
0.0
1002
{
1002
}
1040
0.0
1002
}
1002
}
1040
1.0
1040
0.0
1040
0.0
1002
}
1002
{
1040
1.0
1040
1.0
1000

1040
0.0
1002
{
1002
}
1040
0.0
1002
{
1002
}
1040
0.0
1002
}
1002
{
1040
0.5
1040
1.0
1000

1040
0.0
1002
{
1002
}
1040
0.0
1002
{
1002
}
1040
0.0
1002
}
1002
{
1070
     0
1040
0.0
1002
{
1002
}
1040
1.0
1002
{
1002
}
1040
0.0
1002
}
1002
{
1040
0.0
1002
{
1002
{
1010
0.0
1020
0.0
1030
0.0
1002
}
1040
1.0
1000

1040
0.0
1002
{
1002
}
1040
0.0
1002
{
1002
}
1040
0.0
1002
}
1002
}
1002
{
1002
{
1070
     1
1002
{
1040
0.0
1040
1.0
1000

1040
0.0
1002
{
1002
}
1040
0.0
1002
{
1002
}
1040
0.0
1002
}
1002
}
1040
0.0
1002
{
1002
}
1010
1.0
1020
0.0
1030
0.0
1010
0.0
1020
1.0
1030
0.0
1010
0.0
1020
0.0
1030
1.0
1070
     0
1002
}
1002
{
1002
{
1040
1.0
1040
1.0
1002
{
1070
     1
1002
{
1040
1.0
1040
1.0
1000

1040
0.0
1002
{
1002
}
1040
0.0
1002
{
1002
}
1040
0.0
1002
}
1002
}
1002
}
1070
     0
1040
0.0
1002
{
1002
}
1002
}
1002
{
1002
}
1002
}
1002
{
1071
        3
1070
     3
1070
     0
1002
{
1070
     2
1070
     0
1070
     0
1040
0.0
1002
}
1070
     0
1070
     2
1002
{
1002
}
1002
}
1002
{
1040
8030.0
1040
190.300003
1040
0.305
1040
228.0
1040
545.0
1040
14.0
1040
17.4
1040
0.456
1002
}
1002
}
  0
INSERT
  5
37C
330
1F
100
AcDbEntity
  8
ASHADE
 62
     1
100
AcDbBlockReference
  2
AVE_RENDER
 10
17550.414763306
 20
5074.76529399257
 30
0.0
 41
27.778
 42
24.17741564000001
1001
AVE_RENDER
1002
{
1070
     6
1000
Pref
1070
    30
1070
    20
1070
     1
1070
     0
1000

1070
    10
1070
     1
1070
    30
1040
25.4
1070
     1
1040
0.3
1040
0.7
1040
0.0
1040
10.0
1010
-1.0
1020
-1.0
1030
-1.0
1040
0.3
1070
    49
1070
     0
1070
     0
1010
1.0
1020
1.0
1030
1.0
1040
45.0
1070
     1
1070
     0
1000
WCS
1040
0.0
1002
}
  0
INSERT
  5
37D
330
1F
100
AcDbEntity
  8
ASHADE
 62
     3
100
AcDbBlockReference
  2
AVE_RENDER
 10
17550.414763306
 20
5074.76529399257
 30
0.0
 41
27.778
 42
24.17741564000001
1001
AVE_RENDER
1002
{
1070
     0
1000
Full Opt
1070
     0
1070
     1
1070
     1
1070
     1
1070
     0
1070
     0
1070
     0
1070
     1
1070
     1
1040
0.0001
1040
0.0001
1002
}
  0
INSERT
  5
37E
330
1F
100
AcDbEntity
  8
ASHADE
 62
     4
100
AcDbBlockReference
  2
AVE_RENDER
 10
17550.414763306
 20
5074.76529399257
 30
0.0
 41
27.778
 42
24.17741564000001
1001
AVE_RENDER
1002
{
1070
     0
1000
Quick Opt
1070
     0
1070
     1
1070
     1
1070
     1
1070
     0
1070
     0
1070
     1
1002
}
  0
INSERT
  5
37F
330
1F
100
AcDbEntity
  8
ASHADE
 62
     5
100
AcDbBlockReference
  2
AVE_RENDER
 10
17550.414763306
 20
5074.76529399257
 30
0.0
 41
27.778
 42
24.17741564000001
1001
AVE_RENDER
1002
{
1070
     1
1000
Scanl Opt
1070
     2
1070
     0
1070
     2
1040
2.0
1040
4.0
1070
     0
1070
     1
1070
     0
1040
0.03
1002
}
  0
INSERT
  5
380
330
1F
100
AcDbEntity
  8
ASHADE
 62
     6
100
AcDbBlockReference
  2
AVE_RENDER
 10
17550.414763306
 20
5074.76529399257
 30
0.0
 41
27.778
 42
24.17741564000001
1001
AVE_RENDER
1002
{
1070
     2
1000
Raytr Opt
1070
     2
1070
     0
1070
     2
1040
2.0
1040
4.0
1070
     0
1070
     1
1070
     1
1040
0.03
1070
     3
1040
0.03
1002
}
  0
INSERT
  5
381
330
1F
100
AcDbEntity
  8
ASHADE
 62
     7
100
AcDbBlockReference
  2
AVE_RENDER
 10
17550.414763306
 20
5074.76529399257
 30
0.0
 41
27.778
 42
24.17741564000001
1001
AVE_RENDER
1002
{
1070
     0
1000
RFile Opt
1070
     5
1070
   640
1070
   480
1070
 10000
1070
     3
1070
    32
1070
    24
1070
     0
1070
     0
1070
     0
1070
     1
1070
     0
1070
     0
1070
     0
1002
}
  0
INSERT
  5
382
330
1F
100
AcDbEntity
  8
ASHADE
 62
     8
100
AcDbBlockReference
  2
AVE_RENDER
 10
17550.414763306
 20
5074.76529399257
 30
0.0
 41
27.778
 42
24.17741564000001
1001
AVE_RENDER
1002
{
1070
     0
1000
Fog Opt
1070
     0
1070
     0
1040
0.0
1040
1.0
1040
0.0
1040
1.0
1010
0.5
1020
0.5
1030
0.5
1002
}
  0
INSERT
  5
383
330
1F
100
AcDbEntity
  8
ASHADE
 62
     9
100
AcDbBlockReference
  2
AVE_RENDER
 10
17550.414763306
 20
5074.76529399257
 30
0.0
 41
27.778
 42
24.17741564000001
1001
AVE_RENDER
1002
{
1070
     0
1000
BG Opt
1070
     0
1070
     1
1010
0.0
1020
0.0
1030
0.0
1010
1.0
1020
0.0
1030
0.0
1010
0.0
1020
1.0
1030
0.0
1010
0.0
1020
0.0
1030
1.0
1040
0.5
1040
0.33
1040
0.0
1000

1070
     1
1000

1070
     1
1070
     1
1040
1.0
1040
1.0
1040
0.0
1040
0.0
1070
     0
1002
}
  0
INSERT
  5
384
330
1F
100
AcDbEntity
  8
ASHADE
 62
     1
100
AcDbBlockReference
  2
AVE_GLOBAL
 10
17550.414763306
 20
5074.76529399257
 30
0.0
 41
27.778
 42
24.17741564000001
1001
AVE_MATERIAL
1002
{
1000
*GLOBALE*
1000
1
1000
Finitura globale.
1002
{
1002
}
1002
{
1070
    63
1002
{
1002
{
1010
-1.0
1020
-1.0
1030
-1.0
1002
}
1040
0.1
1000

1040
0.0
1002
{
1002
}
1040
0.0
1002
{
1002
}
1040
0.0
1002
}
1002
{
1002
{
1010
-1.0
1020
-1.0
1030
-1.0
1002
}
1040
0.7
1000

1040
0.0
1002
{
1002
}
1040
0.0
1002
{
1002
}
1040
0.0
1002
}
1002
{
1002
{
1010
-1.0
1020
-1.0
1030
-1.0
1002
}
1040
0.2
1000

1040
0.0
1002
{
1002
}
1040
0.0
1002
{
1002
}
1040
0.0
1002
}
1002
{
1070
     0
1002
{
1070
     1
1002
{
1040
1.0
1040
1.0
1000

1040
0.0
1002
{
1002
}
1040
0.0
1002
{
1002
}
1040
0.0
1002
}
1002
}
1040
1.0
1040
0.0
1040
0.0
1002
}
1002
{
1040
1.0
1040
1.0
1000

1040
0.0
1002
{
1002
}
1040
0.0
1002
{
1002
}
1040
0.0
1002
}
1002
{
1040
0.5
1040
1.0
1000

1040
0.0
1002
{
1002
}
1040
0.0
1002
{
1002
}
1040
0.0
1002
}
1002
{
1070
     0
1040
0.0
1002
{
1002
}
1040
1.0
1002
{
1002
}
1040
0.0
1002
}
1002
{
1040
0.0
1002
{
1002
{
1010
0.0
1020
0.0
1030
0.0
1002
}
1040
1.0
1000

1040
0.0
1002
{
1002
}
1040
0.0
1002
{
1002
}
1040
0.0
1002
}
1002
}
1002
{
1002
{
1070
     1
1002
{
1040
0.0
1040
1.0
1000

1040
0.0
1002
{
1002
}
1040
0.0
1002
{
1002
}
1040
0.0
1002
}
1002
}
1040
0.0
1002
{
1002
}
1010
1.0
1020
0.0
1030
0.0
1010
0.0
1020
1.0
1030
0.0
1010
0.0
1020
0.0
1030
1.0
1070
     0
1002
}
1002
{
1002
{
1040
1.0
1040
1.0
1002
{
1070
     1
1002
{
1040
1.0
1040
1.0
1000

1040
0.0
1002
{
1002
}
1040
0.0
1002
{
1002
}
1040
0.0
1002
}
1002
}
1002
}
1070
     0
1040
0.0
1002
{
1002
}
1002
}
1002
{
1002
}
1002
}
1002
{
1071
        3
1070
     3
1070
     0
1002
{
1070
     2
1070
     0
1070
     0
1040
0.0
1002
}
1070
     0
1070
     2
1002
{
1002
}
1002
}
1002
{
1040
8030.0
1040
190.300003
1040
0.305
1040
228.0
1040
545.0
1040
14.0
1040
17.4
1040
0.456
1002
}
1002
}
  0
INSERT
  5
385
330
1F
100
AcDbEntity
  8
ASHADE
 62
     1
100
AcDbBlockReference
  2
AVE_RENDER
 10
23849.437432862
 20
9731.107166388434
 30
0.0
 41
27.778
 42
24.17741564000001
1001
AVE_RENDER
1002
{
1070
     6
1000
Pref
1070
    30
1070
    20
1070
     1
1070
     0
1000

1070
    10
1070
     1
1070
    30
1040
25.4
1070
     1
1040
0.3
1040
0.7
1040
0.0
1040
10.0
1010
-1.0
1020
-1.0
1030
-1.0
1040
0.3
1070
    49
1070
     0
1070
     0
1010
1.0
1020
1.0
1030
1.0
1040
45.0
1070
     1
1070
     0
1000
WCS
1040
0.0
1002
}
  0
INSERT
  5
386
330
1F
100
AcDbEntity
  8
ASHADE
 62
     3
100
AcDbBlockReference
  2
AVE_RENDER
 10
23849.437432862
 20
9731.107166388434
 30
0.0
 41
27.778
 42
24.17741564000001
1001
AVE_RENDER
1002
{
1070
     0
1000
Full Opt
1070
     0
1070
     1
1070
     1
1070
     1
1070
     0
1070
     0
1070
     0
1070
     1
1070
     1
1040
0.0001
1040
0.0001
1002
}
  0
INSERT
  5
387
330
1F
100
AcDbEntity
  8
ASHADE
 62
     4
100
AcDbBlockReference
  2
AVE_RENDER
 10
23849.437432862
 20
9731.107166388434
 30
0.0
 41
27.778
 42
24.17741564000001
1001
AVE_RENDER
1002
{
1070
     0
1000
Quick Opt
1070
     0
1070
     1
1070
     1
1070
     1
1070
     0
1070
     0
1070
     1
1002
}
  0
INSERT
  5
388
330
1F
100
AcDbEntity
  8
ASHADE
 62
     5
100
AcDbBlockReference
  2
AVE_RENDER
 10
23849.437432862
 20
9731.107166388434
 30
0.0
 41
27.778
 42
24.17741564000001
1001
AVE_RENDER
1002
{
1070
     1
1000
Scanl Opt
1070
     2
1070
     0
1070
     2
1040
2.0
1040
4.0
1070
     0
1070
     1
1070
     0
1040
0.03
1002
}
  0
INSERT
  5
389
330
1F
100
AcDbEntity
  8
ASHADE
 62
     6
100
AcDbBlockReference
  2
AVE_RENDER
 10
23849.437432862
 20
9731.107166388434
 30
0.0
 41
27.778
 42
24.17741564000001
1001
AVE_RENDER
1002
{
1070
     2
1000
Raytr Opt
1070
     2
1070
     0
1070
     2
1040
2.0
1040
4.0
1070
     0
1070
     1
1070
     1
1040
0.03
1070
     3
1040
0.03
1002
}
  0
INSERT
  5
38A
330
1F
100
AcDbEntity
  8
ASHADE
 62
     7
100
AcDbBlockReference
  2
AVE_RENDER
 10
23849.437432862
 20
9731.107166388434
 30
0.0
 41
27.778
 42
24.17741564000001
1001
AVE_RENDER
1002
{
1070
     0
1000
RFile Opt
1070
     5
1070
   640
1070
   480
1070
 10000
1070
     3
1070
    32
1070
    24
1070
     0
1070
     0
1070
     0
1070
     1
1070
     0
1070
     0
1070
     0
1002
}
  0
INSERT
  5
38B
330
1F
100
AcDbEntity
  8
ASHADE
 62
     8
100
AcDbBlockReference
  2
AVE_RENDER
 10
23849.437432862
 20
9731.107166388434
 30
0.0
 41
27.778
 42
24.17741564000001
1001
AVE_RENDER
1002
{
1070
     0
1000
Fog Opt
1070
     0
1070
     0
1040
0.0
1040
1.0
1040
0.0
1040
1.0
1010
0.5
1020
0.5
1030
0.5
1002
}
  0
INSERT
  5
38C
330
1F
100
AcDbEntity
  8
ASHADE
 62
     9
100
AcDbBlockReference
  2
AVE_RENDER
 10
23849.437432862
 20
9731.107166388434
 30
0.0
 41
27.778
 42
24.17741564000001
1001
AVE_RENDER
1002
{
1070
     0
1000
BG Opt
1070
     0
1070
     1
1010
0.0
1020
0.0
1030
0.0
1010
1.0
1020
0.0
1030
0.0
1010
0.0
1020
1.0
1030
0.0
1010
0.0
1020
0.0
1030
1.0
1040
0.5
1040
0.33
1040
0.0
1000

1070
     1
1000

1070
     1
1070
     1
1040
1.0
1040
1.0
1040
0.0
1040
0.0
1070
     0
1002
}
  0
INSERT
  5
38D
330
1F
100
AcDbEntity
  8
ASHADE
 62
     1
100
AcDbBlockReference
  2
AVE_GLOBAL
 10
23849.437432862
 20
9731.107166388434
 30
0.0
 41
27.778
 42
24.17741564000001
1001
AVE_MATERIAL
1002
{
1000
*GLOBALE*
1000
1
1000
Finitura globale.
1002
{
1002
}
1002
{
1070
    63
1002
{
1002
{
1010
-1.0
1020
-1.0
1030
-1.0
1002
}
1040
0.1
1000

1040
0.0
1002
{
1002
}
1040
0.0
1002
{
1002
}
1040
0.0
1002
}
1002
{
1002
{
1010
-1.0
1020
-1.0
1030
-1.0
1002
}
1040
0.7
1000

1040
0.0
1002
{
1002
}
1040
0.0
1002
{
1002
}
1040
0.0
1002
}
1002
{
1002
{
1010
-1.0
1020
-1.0
1030
-1.0
1002
}
1040
0.2
1000

1040
0.0
1002
{
1002
}
1040
0.0
1002
{
1002
}
1040
0.0
1002
}
1002
{
1070
     0
1002
{
1070
     1
1002
{
1040
1.0
1040
1.0
1000

1040
0.0
1002
{
1002
}
1040
0.0
1002
{
1002
}
1040
0.0
1002
}
1002
}
1040
1.0
1040
0.0
1040
0.0
1002
}
1002
{
1040
1.0
1040
1.0
1000

1040
0.0
1002
{
1002
}
1040
0.0
1002
{
1002
}
1040
0.0
1002
}
1002
{
1040
0.5
1040
1.0
1000

1040
0.0
1002
{
1002
}
1040
0.0
1002
{
1002
}
1040
0.0
1002
}
1002
{
1070
     0
1040
0.0
1002
{
1002
}
1040
1.0
1002
{
1002
}
1040
0.0
1002
}
1002
{
1040
0.0
1002
{
1002
{
1010
0.0
1020
0.0
1030
0.0
1002
}
1040
1.0
1000

1040
0.0
1002
{
1002
}
1040
0.0
1002
{
1002
}
1040
0.0
1002
}
1002
}
1002
{
1002
{
1070
     1
1002
{
1040
0.0
1040
1.0
1000

1040
0.0
1002
{
1002
}
1040
0.0
1002
{
1002
}
1040
0.0
1002
}
1002
}
1040
0.0
1002
{
1002
}
1010
1.0
1020
0.0
1030
0.0
1010
0.0
1020
1.0
1030
0.0
1010
0.0
1020
0.0
1030
1.0
1070
     0
1002
}
1002
{
1002
{
1040
1.0
1040
1.0
1002
{
1070
     1
1002
{
1040
1.0
1040
1.0
1000

1040
0.0
1002
{
1002
}
1040
0.0
1002
{
1002
}
1040
0.0
1002
}
1002
}
1002
}
1070
     0
1040
0.0
1002
{
1002
}
1002
}
1002
{
1002
}
1002
}
1002
{
1071
        3
1070
     3
1070
     0
1002
{
1070
     2
1070
     0
1070
     0
1040
0.0
1002
}
1070
     0
1070
     2
1002
{
1002
}
1002
}
1002
{
1040
8030.0
1040
190.300003
1040
0.305
1040
228.0
1040
545.0
1040
14.0
1040
17.4
1040
0.456
1002
}
1002
}
  0
INSERT
  5
38E
330
1F
100
AcDbEntity
  8
ASHADE
 62
     1
100
AcDbBlockReference
  2
AVE_RENDER
 10
18237.004394868
 20
1032.169172698434
 30
0.0
 41
27.778
 42
24.17741564000001
1001
AVE_RENDER
1002
{
1070
     6
1000
Pref
1070
    30
1070
    20
1070
     1
1070
     0
1000

1070
    10
1070
     1
1070
    30
1040
25.4
1070
     1
1040
0.3
1040
0.7
1040
0.0
1040
10.0
1010
-1.0
1020
-1.0
1030
-1.0
1040
0.3
1070
    49
1070
     0
1070
     0
1010
1.0
1020
1.0
1030
1.0
1040
45.0
1070
     1
1070
     0
1000
WCS
1040
0.0
1002
}
  0
INSERT
  5
38F
330
1F
100
AcDbEntity
  8
ASHADE
 62
     3
100
AcDbBlockReference
  2
AVE_RENDER
 10
18237.004394868
 20
1032.169172698434
 30
0.0
 41
27.778
 42
24.17741564000001
1001
AVE_RENDER
1002
{
1070
     0
1000
Full Opt
1070
     0
1070
     1
1070
     1
1070
     1
1070
     0
1070
     0
1070
     0
1070
     1
1070
     1
1040
0.0001
1040
0.0001
1002
}
  0
INSERT
  5
390
330
1F
100
AcDbEntity
  8
ASHADE
 62
     4
100
AcDbBlockReference
  2
AVE_RENDER
 10
18237.004394868
 20
1032.169172698434
 30
0.0
 41
27.778
 42
24.17741564000001
1001
AVE_RENDER
1002
{
1070
     0
1000
Quick Opt
1070
     0
1070
     1
1070
     1
1070
     1
1070
     0
1070
     0
1070
     1
1002
}
  0
INSERT
  5
391
330
1F
100
AcDbEntity
  8
ASHADE
 62
     5
100
AcDbBlockReference
  2
AVE_RENDER
 10
18237.004394868
 20
1032.169172698434
 30
0.0
 41
27.778
 42
24.17741564000001
1001
AVE_RENDER
1002
{
1070
     1
1000
Scanl Opt
1070
     2
1070
     0
1070
     2
1040
2.0
1040
4.0
1070
     0
1070
     1
1070
     0
1040
0.03
1002
}
  0
INSERT
  5
392
330
1F
100
AcDbEntity
  8
ASHADE
 62
     6
100
AcDbBlockReference
  2
AVE_RENDER
 10
18237.004394868
 20
1032.169172698434
 30
0.0
 41
27.778
 42
24.17741564000001
1001
AVE_RENDER
1002
{
1070
     2
1000
Raytr Opt
1070
     2
1070
     0
1070
     2
1040
2.0
1040
4.0
1070
     0
1070
     1
1070
     1
1040
0.03
1070
     3
1040
0.03
1002
}
  0
INSERT
  5
393
330
1F
100
AcDbEntity
  8
ASHADE
 62
     7
100
AcDbBlockReference
  2
AVE_RENDER
 10
18237.004394868
 20
1032.169172698434
 30
0.0
 41
27.778
 42
24.17741564000001
1001
AVE_RENDER
1002
{
1070
     0
1000
RFile Opt
1070
     5
1070
   640
1070
   480
1070
 10000
1070
     3
1070
    32
1070
    24
1070
     0
1070
     0
1070
     0
1070
     1
1070
     0
1070
     0
1070
     0
1002
}
  0
INSERT
  5
394
330
1F
100
AcDbEntity
  8
ASHADE
 62
     8
100
AcDbBlockReference
  2
AVE_RENDER
 10
18237.004394868
 20
1032.169172698434
 30
0.0
 41
27.778
 42
24.17741564000001
1001
AVE_RENDER
1002
{
1070
     0
1000
Fog Opt
1070
     0
1070
     0
1040
0.0
1040
1.0
1040
0.0
1040
1.0
1010
0.5
1020
0.5
1030
0.5
1002
}
  0
INSERT
  5
395
330
1F
100
AcDbEntity
  8
ASHADE
 62
     9
100
AcDbBlockReference
  2
AVE_RENDER
 10
18237.004394868
 20
1032.169172698434
 30
0.0
 41
27.778
 42
24.17741564000001
1001
AVE_RENDER
1002
{
1070
     0
1000
BG Opt
1070
     0
1070
     1
1010
0.0
1020
0.0
1030
0.0
1010
1.0
1020
0.0
1030
0.0
1010
0.0
1020
1.0
1030
0.0
1010
0.0
1020
0.0
1030
1.0
1040
0.5
1040
0.33
1040
0.0
1000

1070
     1
1000

1070
     1
1070
     1
1040
1.0
1040
1.0
1040
0.0
1040
0.0
1070
     0
1002
}
  0
INSERT
  5
396
330
1F
100
AcDbEntity
  8
ASHADE
 62
     1
100
AcDbBlockReference
  2
AVE_GLOBAL
 10
18237.004394868
 20
1032.169172698434
 30
0.0
 41
27.778
 42
24.17741564000001
1001
AVE_MATERIAL
1002
{
1000
*GLOBALE*
1000
1
1000
Finitura globale.
1002
{
1002
}
1002
{
1070
    63
1002
{
1002
{
1010
-1.0
1020
-1.0
1030
-1.0
1002
}
1040
0.1
1000

1040
0.0
1002
{
1002
}
1040
0.0
1002
{
1002
}
1040
0.0
1002
}
1002
{
1002
{
1010
-1.0
1020
-1.0
1030
-1.0
1002
}
1040
0.7
1000

1040
0.0
1002
{
1002
}
1040
0.0
1002
{
1002
}
1040
0.0
1002
}
1002
{
1002
{
1010
-1.0
1020
-1.0
1030
-1.0
1002
}
1040
0.2
1000

1040
0.0
1002
{
1002
}
1040
0.0
1002
{
1002
}
1040
0.0
1002
}
1002
{
1070
     0
1002
{
1070
     1
1002
{
1040
1.0
1040
1.0
1000

1040
0.0
1002
{
1002
}
1040
0.0
1002
{
1002
}
1040
0.0
1002
}
1002
}
1040
1.0
1040
0.0
1040
0.0
1002
}
1002
{
1040
1.0
1040
1.0
1000

1040
0.0
1002
{
1002
}
1040
0.0
1002
{
1002
}
1040
0.0
1002
}
1002
{
1040
0.5
1040
1.0
1000

1040
0.0
1002
{
1002
}
1040
0.0
1002
{
1002
}
1040
0.0
1002
}
1002
{
1070
     0
1040
0.0
1002
{
1002
}
1040
1.0
1002
{
1002
}
1040
0.0
1002
}
1002
{
1040
0.0
1002
{
1002
{
1010
0.0
1020
0.0
1030
0.0
1002
}
1040
1.0
1000

1040
0.0
1002
{
1002
}
1040
0.0
1002
{
1002
}
1040
0.0
1002
}
1002
}
1002
{
1002
{
1070
     1
1002
{
1040
0.0
1040
1.0
1000

1040
0.0
1002
{
1002
}
1040
0.0
1002
{
1002
}
1040
0.0
1002
}
1002
}
1040
0.0
1002
{
1002
}
1010
1.0
1020
0.0
1030
0.0
1010
0.0
1020
1.0
1030
0.0
1010
0.0
1020
0.0
1030
1.0
1070
     0
1002
}
1002
{
1002
{
1040
1.0
1040
1.0
1002
{
1070
     1
1002
{
1040
1.0
1040
1.0
1000

1040
0.0
1002
{
1002
}
1040
0.0
1002
{
1002
}
1040
0.0
1002
}
1002
}
1002
}
1070
     0
1040
0.0
1002
{
1002
}
1002
}
1002
{
1002
}
1002
}
1002
{
1071
        3
1070
     3
1070
     0
1002
{
1070
     2
1070
     0
1070
     0
1040
0.0
1002
}
1070
     0
1070
     2
1002
{
1002
}
1002
}
1002
{
1040
8030.0
1040
190.300003
1040
0.305
1040
228.0
1040
545.0
1040
14.0
1040
17.4
1040
0.456
1002
}
1002
}
  0
INSERT
  5
397
330
1F
100
AcDbEntity
  8
ASHADE
 62
     1
100
AcDbBlockReference
  2
AVE_RENDER
 10
22959.344284396
 20
5858.91956323376
 30
0.0
 41
27.778
 42
24.17741564000001
1001
AVE_RENDER
1002
{
1070
     6
1000
Pref
1070
    30
1070
    20
1070
     1
1070
     0
1000

1070
    10
1070
     1
1070
    30
1040
25.4
1070
     1
1040
0.3
1040
0.7
1040
0.0
1040
10.0
1010
-1.0
1020
-1.0
1030
-1.0
1040
0.3
1070
    49
1070
     0
1070
     0
1010
1.0
1020
1.0
1030
1.0
1040
45.0
1070
     1
1070
     0
1000
WCS
1040
0.0
1002
}
  0
INSERT
  5
398
330
1F
100
AcDbEntity
  8
ASHADE
 62
     3
100
AcDbBlockReference
  2
AVE_RENDER
 10
22959.344284396
 20
5858.91956323376
 30
0.0
 41
27.778
 42
24.17741564000001
1001
AVE_RENDER
1002
{
1070
     0
1000
Full Opt
1070
     0
1070
     1
1070
     1
1070
     1
1070
     0
1070
     0
1070
     0
1070
     1
1070
     1
1040
0.0001
1040
0.0001
1002
}
  0
INSERT
  5
399
330
1F
100
AcDbEntity
  8
ASHADE
 62
     4
100
AcDbBlockReference
  2
AVE_RENDER
 10
22959.344284396
 20
5858.91956323376
 30
0.0
 41
27.778
 42
24.17741564000001
1001
AVE_RENDER
1002
{
1070
     0
1000
Quick Opt
1070
     0
1070
     1
1070
     1
1070
     1
1070
     0
1070
     0
1070
     1
1002
}
  0
INSERT
  5
39A
330
1F
100
AcDbEntity
  8
ASHADE
 62
     5
100
AcDbBlockReference
  2
AVE_RENDER
 10
22959.344284396
 20
5858.91956323376
 30
0.0
 41
27.778
 42
24.17741564000001
1001
AVE_RENDER
1002
{
1070
     1
1000
Scanl Opt
1070
     2
1070
     0
1070
     2
1040
2.0
1040
4.0
1070
     0
1070
     1
1070
     0
1040
0.03
1002
}
  0
INSERT
  5
39B
330
1F
100
AcDbEntity
  8
ASHADE
 62
     6
100
AcDbBlockReference
  2
AVE_RENDER
 10
22959.344284396
 20
5858.91956323376
 30
0.0
 41
27.778
 42
24.17741564000001
1001
AVE_RENDER
1002
{
1070
     2
1000
Raytr Opt
1070
     2
1070
     0
1070
     2
1040
2.0
1040
4.0
1070
     0
1070
     1
1070
     1
1040
0.03
1070
     3
1040
0.03
1002
}
  0
INSERT
  5
39C
330
1F
100
AcDbEntity
  8
ASHADE
 62
     7
100
AcDbBlockReference
  2
AVE_RENDER
 10
22959.344284396
 20
5858.91956323376
 30
0.0
 41
27.778
 42
24.17741564000001
1001
AVE_RENDER
1002
{
1070
     0
1000
RFile Opt
1070
     5
1070
   640
1070
   480
1070
 10000
1070
     3
1070
    32
1070
    24
1070
     0
1070
     0
1070
     0
1070
     1
1070
     0
1070
     0
1070
     0
1002
}
  0
INSERT
  5
39D
330
1F
100
AcDbEntity
  8
ASHADE
 62
     8
100
AcDbBlockReference
  2
AVE_RENDER
 10
22959.344284396
 20
5858.91956323376
 30
0.0
 41
27.778
 42
24.17741564000001
1001
AVE_RENDER
1002
{
1070
     0
1000
Fog Opt
1070
     0
1070
     0
1040
0.0
1040
1.0
1040
0.0
1040
1.0
1010
0.5
1020
0.5
1030
0.5
1002
}
  0
INSERT
  5
39E
330
1F
100
AcDbEntity
  8
ASHADE
 62
     9
100
AcDbBlockReference
  2
AVE_RENDER
 10
22959.344284396
 20
5858.91956323376
 30
0.0
 41
27.778
 42
24.17741564000001
1001
AVE_RENDER
1002
{
1070
     0
1000
BG Opt
1070
     0
1070
     1
1010
0.0
1020
0.0
1030
0.0
1010
1.0
1020
0.0
1030
0.0
1010
0.0
1020
1.0
1030
0.0
1010
0.0
1020
0.0
1030
1.0
1040
0.5
1040
0.33
1040
0.0
1000

1070
     1
1000

1070
     1
1070
     1
1040
1.0
1040
1.0
1040
0.0
1040
0.0
1070
     0
1002
}
  0
INSERT
  5
39F
330
1F
100
AcDbEntity
  8
ASHADE
 62
     1
100
AcDbBlockReference
  2
AVE_GLOBAL
 10
22959.344284396
 20
5858.91956323376
 30
0.0
 41
27.778
 42
24.17741564000001
1001
AVE_MATERIAL
1002
{
1000
*GLOBALE*
1000
1
1000
Finitura globale.
1002
{
1002
}
1002
{
1070
    63
1002
{
1002
{
1010
-1.0
1020
-1.0
1030
-1.0
1002
}
1040
0.1
1000

1040
0.0
1002
{
1002
}
1040
0.0
1002
{
1002
}
1040
0.0
1002
}
1002
{
1002
{
1010
-1.0
1020
-1.0
1030
-1.0
1002
}
1040
0.7
1000

1040
0.0
1002
{
1002
}
1040
0.0
1002
{
1002
}
1040
0.0
1002
}
1002
{
1002
{
1010
-1.0
1020
-1.0
1030
-1.0
1002
}
1040
0.2
1000

1040
0.0
1002
{
1002
}
1040
0.0
1002
{
1002
}
1040
0.0
1002
}
1002
{
1070
     0
1002
{
1070
     1
1002
{
1040
1.0
1040
1.0
1000

1040
0.0
1002
{
1002
}
1040
0.0
1002
{
1002
}
1040
0.0
1002
}
1002
}
1040
1.0
1040
0.0
1040
0.0
1002
}
1002
{
1040
1.0
1040
1.0
1000

1040
0.0
1002
{
1002
}
1040
0.0
1002
{
1002
}
1040
0.0
1002
}
1002
{
1040
0.5
1040
1.0
1000

1040
0.0
1002
{
1002
}
1040
0.0
1002
{
1002
}
1040
0.0
1002
}
1002
{
1070
     0
1040
0.0
1002
{
1002
}
1040
1.0
1002
{
1002
}
1040
0.0
1002
}
1002
{
1040
0.0
1002
{
1002
{
1010
0.0
1020
0.0
1030
0.0
1002
}
1040
1.0
1000

1040
0.0
1002
{
1002
}
1040
0.0
1002
{
1002
}
1040
0.0
1002
}
1002
}
1002
{
1002
{
1070
     1
1002
{
1040
0.0
1040
1.0
1000

1040
0.0
1002
{
1002
}
1040
0.0
1002
{
1002
}
1040
0.0
1002
}
1002
}
1040
0.0
1002
{
1002
}
1010
1.0
1020
0.0
1030
0.0
1010
0.0
1020
1.0
1030
0.0
1010
0.0
1020
0.0
1030
1.0
1070
     0
1002
}
1002
{
1002
{
1040
1.0
1040
1.0
1002
{
1070
     1
1002
{
1040
1.0
1040
1.0
1000

1040
0.0
1002
{
1002
}
1040
0.0
1002
{
1002
}
1040
0.0
1002
}
1002
}
1002
}
1070
     0
1040
0.0
1002
{
1002
}
1002
}
1002
{
1002
}
1002
}
1002
{
1071
        3
1070
     3
1070
     0
1002
{
1070
     2
1070
     0
1070
     0
1040
0.0
1002
}
1070
     0
1070
     2
1002
{
1002
}
1002
}
1002
{
1040
8030.0
1040
190.300003
1040
0.305
1040
228.0
1040
545.0
1040
14.0
1040
17.4
1040
0.456
1002
}
1002
}
  0
INSERT
  5
3A0
330
1F
100
AcDbEntity
  8
ASHADE
 62
     1
100
AcDbBlockReference
  2
AVE_RENDER
 10
29258.366953952
 20
10515.26141145221
 30
0.0
 41
27.778
 42
24.17741564000001
1001
AVE_RENDER
1002
{
1070
     6
1000
Pref
1070
    30
1070
    20
1070
     1
1070
     0
1000

1070
    10
1070
     1
1070
    30
1040
25.4
1070
     1
1040
0.3
1040
0.7
1040
0.0
1040
10.0
1010
-1.0
1020
-1.0
1030
-1.0
1040
0.3
1070
    49
1070
     0
1070
     0
1010
1.0
1020
1.0
1030
1.0
1040
45.0
1070
     1
1070
     0
1000
WCS
1040
0.0
1002
}
  0
INSERT
  5
3A1
330
1F
100
AcDbEntity
  8
ASHADE
 62
     3
100
AcDbBlockReference
  2
AVE_RENDER
 10
29258.366953952
 20
10515.26141145221
 30
0.0
 41
27.778
 42
24.17741564000001
1001
AVE_RENDER
1002
{
1070
     0
1000
Full Opt
1070
     0
1070
     1
1070
     1
1070
     1
1070
     0
1070
     0
1070
     0
1070
     1
1070
     1
1040
0.0001
1040
0.0001
1002
}
  0
INSERT
  5
3A2
330
1F
100
AcDbEntity
  8
ASHADE
 62
     4
100
AcDbBlockReference
  2
AVE_RENDER
 10
29258.366953952
 20
10515.26141145221
 30
0.0
 41
27.778
 42
24.17741564000001
1001
AVE_RENDER
1002
{
1070
     0
1000
Quick Opt
1070
     0
1070
     1
1070
     1
1070
     1
1070
     0
1070
     0
1070
     1
1002
}
  0
INSERT
  5
3A3
330
1F
100
AcDbEntity
  8
ASHADE
 62
     5
100
AcDbBlockReference
  2
AVE_RENDER
 10
29258.366953952
 20
10515.26141145221
 30
0.0
 41
27.778
 42
24.17741564000001
1001
AVE_RENDER
1002
{
1070
     1
1000
Scanl Opt
1070
     2
1070
     0
1070
     2
1040
2.0
1040
4.0
1070
     0
1070
     1
1070
     0
1040
0.03
1002
}
  0
INSERT
  5
3A4
330
1F
100
AcDbEntity
  8
ASHADE
 62
     6
100
AcDbBlockReference
  2
AVE_RENDER
 10
29258.366953952
 20
10515.26141145221
 30
0.0
 41
27.778
 42
24.17741564000001
1001
AVE_RENDER
1002
{
1070
     2
1000
Raytr Opt
1070
     2
1070
     0
1070
     2
1040
2.0
1040
4.0
1070
     0
1070
     1
1070
     1
1040
0.03
1070
     3
1040
0.03
1002
}
  0
INSERT
  5
3A5
330
1F
100
AcDbEntity
  8
ASHADE
 62
     7
100
AcDbBlockReference
  2
AVE_RENDER
 10
29258.366953952
 20
10515.26141145221
 30
0.0
 41
27.778
 42
24.17741564000001
1001
AVE_RENDER
1002
{
1070
     0
1000
RFile Opt
1070
     5
1070
   640
1070
   480
1070
 10000
1070
     3
1070
    32
1070
    24
1070
     0
1070
     0
1070
     0
1070
     1
1070
     0
1070
     0
1070
     0
1002
}
  0
INSERT
  5
3A6
330
1F
100
AcDbEntity
  8
ASHADE
 62
     8
100
AcDbBlockReference
  2
AVE_RENDER
 10
29258.366953952
 20
10515.26141145221
 30
0.0
 41
27.778
 42
24.17741564000001
1001
AVE_RENDER
1002
{
1070
     0
1000
Fog Opt
1070
     0
1070
     0
1040
0.0
1040
1.0
1040
0.0
1040
1.0
1010
0.5
1020
0.5
1030
0.5
1002
}
  0
INSERT
  5
3A7
330
1F
100
AcDbEntity
  8
ASHADE
 62
     9
100
AcDbBlockReference
  2
AVE_RENDER
 10
29258.366953952
 20
10515.26141145221
 30
0.0
 41
27.778
 42
24.17741564000001
1001
AVE_RENDER
1002
{
1070
     0
1000
BG Opt
1070
     0
1070
     1
1010
0.0
1020
0.0
1030
0.0
1010
1.0
1020
0.0
1030
0.0
1010
0.0
1020
1.0
1030
0.0
1010
0.0
1020
0.0
1030
1.0
1040
0.5
1040
0.33
1040
0.0
1000

1070
     1
1000

1070
     1
1070
     1
1040
1.0
1040
1.0
1040
0.0
1040
0.0
1070
     0
1002
}
  0
INSERT
  5
3A8
330
1F
100
AcDbEntity
  8
ASHADE
 62
     1
100
AcDbBlockReference
  2
AVE_GLOBAL
 10
29258.366953952
 20
10515.26141145221
 30
0.0
 41
27.778
 42
24.17741564000001
1001
AVE_MATERIAL
1002
{
1000
*GLOBALE*
1000
1
1000
Finitura globale.
1002
{
1002
}
1002
{
1070
    63
1002
{
1002
{
1010
-1.0
1020
-1.0
1030
-1.0
1002
}
1040
0.1
1000

1040
0.0
1002
{
1002
}
1040
0.0
1002
{
1002
}
1040
0.0
1002
}
1002
{
1002
{
1010
-1.0
1020
-1.0
1030
-1.0
1002
}
1040
0.7
1000

1040
0.0
1002
{
1002
}
1040
0.0
1002
{
1002
}
1040
0.0
1002
}
1002
{
1002
{
1010
-1.0
1020
-1.0
1030
-1.0
1002
}
1040
0.2
1000

1040
0.0
1002
{
1002
}
1040
0.0
1002
{
1002
}
1040
0.0
1002
}
1002
{
1070
     0
1002
{
1070
     1
1002
{
1040
1.0
1040
1.0
1000

1040
0.0
1002
{
1002
}
1040
0.0
1002
{
1002
}
1040
0.0
1002
}
1002
}
1040
1.0
1040
0.0
1040
0.0
1002
}
1002
{
1040
1.0
1040
1.0
1000

1040
0.0
1002
{
1002
}
1040
0.0
1002
{
1002
}
1040
0.0
1002
}
1002
{
1040
0.5
1040
1.0
1000

1040
0.0
1002
{
1002
}
1040
0.0
1002
{
1002
}
1040
0.0
1002
}
1002
{
1070
     0
1040
0.0
1002
{
1002
}
1040
1.0
1002
{
1002
}
1040
0.0
1002
}
1002
{
1040
0.0
1002
{
1002
{
1010
0.0
1020
0.0
1030
0.0
1002
}
1040
1.0
1000

1040
0.0
1002
{
1002
}
1040
0.0
1002
{
1002
}
1040
0.0
1002
}
1002
}
1002
{
1002
{
1070
     1
1002
{
1040
0.0
1040
1.0
1000

1040
0.0
1002
{
1002
}
1040
0.0
1002
{
1002
}
1040
0.0
1002
}
1002
}
1040
0.0
1002
{
1002
}
1010
1.0
1020
0.0
1030
0.0
1010
0.0
1020
1.0
1030
0.0
1010
0.0
1020
0.0
1030
1.0
1070
     0
1002
}
1002
{
1002
{
1040
1.0
1040
1.0
1002
{
1070
     1
1002
{
1040
1.0
1040
1.0
1000

1040
0.0
1002
{
1002
}
1040
0.0
1002
{
1002
}
1040
0.0
1002
}
1002
}
1002
}
1070
     0
1040
0.0
1002
{
1002
}
1002
}
1002
{
1002
}
1002
}
1002
{
1071
        3
1070
     3
1070
     0
1002
{
1070
     2
1070
     0
1070
     0
1040
0.0
1002
}
1070
     0
1070
     2
1002
{
1002
}
1002
}
1002
{
1040
8030.0
1040
190.300003
1040
0.305
1040
228.0
1040
545.0
1040
14.0
1040
17.4
1040
0.456
1002
}
1002
}
  0
INSERT
  5
3A9
330
1F
100
AcDbEntity
  8
ASHADE
 62
     1
100
AcDbBlockReference
  2
AVE_RENDER
 10
23967.894019396
 20
1060.174695266378
 30
0.0
 41
27.778
 42
24.17741564000001
1001
AVE_RENDER
1002
{
1070
     6
1000
Pref
1070
    30
1070
    20
1070
     1
1070
     0
1000

1070
    10
1070
     1
1070
    30
1040
25.4
1070
     1
1040
0.3
1040
0.7
1040
0.0
1040
10.0
1010
-1.0
1020
-1.0
1030
-1.0
1040
0.3
1070
    49
1070
     0
1070
     0
1010
1.0
1020
1.0
1030
1.0
1040
45.0
1070
     1
1070
     0
1000
WCS
1040
0.0
1002
}
  0
INSERT
  5
3AA
330
1F
100
AcDbEntity
  8
ASHADE
 62
     3
100
AcDbBlockReference
  2
AVE_RENDER
 10
23967.894019396
 20
1060.174695266378
 30
0.0
 41
27.778
 42
24.17741564000001
1001
AVE_RENDER
1002
{
1070
     0
1000
Full Opt
1070
     0
1070
     1
1070
     1
1070
     1
1070
     0
1070
     0
1070
     0
1070
     1
1070
     1
1040
0.0001
1040
0.0001
1002
}
  0
INSERT
  5
3AB
330
1F
100
AcDbEntity
  8
ASHADE
 62
     4
100
AcDbBlockReference
  2
AVE_RENDER
 10
23967.894019396
 20
1060.174695266378
 30
0.0
 41
27.778
 42
24.17741564000001
1001
AVE_RENDER
1002
{
1070
     0
1000
Quick Opt
1070
     0
1070
     1
1070
     1
1070
     1
1070
     0
1070
     0
1070
     1
1002
}
  0
INSERT
  5
3AC
330
1F
100
AcDbEntity
  8
ASHADE
 62
     5
100
AcDbBlockReference
  2
AVE_RENDER
 10
23967.894019396
 20
1060.174695266378
 30
0.0
 41
27.778
 42
24.17741564000001
1001
AVE_RENDER
1002
{
1070
     1
1000
Scanl Opt
1070
     2
1070
     0
1070
     2
1040
2.0
1040
4.0
1070
     0
1070
     1
1070
     0
1040
0.03
1002
}
  0
INSERT
  5
3AD
330
1F
100
AcDbEntity
  8
ASHADE
 62
     6
100
AcDbBlockReference
  2
AVE_RENDER
 10
23967.894019396
 20
1060.174695266378
 30
0.0
 41
27.778
 42
24.17741564000001
1001
AVE_RENDER
1002
{
1070
     2
1000
Raytr Opt
1070
     2
1070
     0
1070
     2
1040
2.0
1040
4.0
1070
     0
1070
     1
1070
     1
1040
0.03
1070
     3
1040
0.03
1002
}
  0
INSERT
  5
3AE
330
1F
100
AcDbEntity
  8
ASHADE
 62
     7
100
AcDbBlockReference
  2
AVE_RENDER
 10
23967.894019396
 20
1060.174695266378
 30
0.0
 41
27.778
 42
24.17741564000001
1001
AVE_RENDER
1002
{
1070
     0
1000
RFile Opt
1070
     5
1070
   640
1070
   480
1070
 10000
1070
     3
1070
    32
1070
    24
1070
     0
1070
     0
1070
     0
1070
     1
1070
     0
1070
     0
1070
     0
1002
}
  0
INSERT
  5
3AF
330
1F
100
AcDbEntity
  8
ASHADE
 62
     8
100
AcDbBlockReference
  2
AVE_RENDER
 10
23967.894019396
 20
1060.174695266378
 30
0.0
 41
27.778
 42
24.17741564000001
1001
AVE_RENDER
1002
{
1070
     0
1000
Fog Opt
1070
     0
1070
     0
1040
0.0
1040
1.0
1040
0.0
1040
1.0
1010
0.5
1020
0.5
1030
0.5
1002
}
  0
INSERT
  5
3B0
330
1F
100
AcDbEntity
  8
ASHADE
 62
     9
100
AcDbBlockReference
  2
AVE_RENDER
 10
23967.894019396
 20
1060.174695266378
 30
0.0
 41
27.778
 42
24.17741564000001
1001
AVE_RENDER
1002
{
1070
     0
1000
BG Opt
1070
     0
1070
     1
1010
0.0
1020
0.0
1030
0.0
1010
1.0
1020
0.0
1030
0.0
1010
0.0
1020
1.0
1030
0.0
1010
0.0
1020
0.0
1030
1.0
1040
0.5
1040
0.33
1040
0.0
1000

1070
     1
1000

1070
     1
1070
     1
1040
1.0
1040
1.0
1040
0.0
1040
0.0
1070
     0
1002
}
  0
INSERT
  5
3B1
330
1F
100
AcDbEntity
  8
ASHADE
 62
     1
100
AcDbBlockReference
  2
AVE_GLOBAL
 10
23967.894019396
 20
1060.174695266378
 30
0.0
 41
27.778
 42
24.17741564000001
1001
AVE_MATERIAL
1002
{
1000
*GLOBALE*
1000
1
1000
Finitura globale.
1002
{
1002
}
1002
{
1070
    63
1002
{
1002
{
1010
-1.0
1020
-1.0
1030
-1.0
1002
}
1040
0.1
1000

1040
0.0
1002
{
1002
}
1040
0.0
1002
{
1002
}
1040
0.0
1002
}
1002
{
1002
{
1010
-1.0
1020
-1.0
1030
-1.0
1002
}
1040
0.7
1000

1040
0.0
1002
{
1002
}
1040
0.0
1002
{
1002
}
1040
0.0
1002
}
1002
{
1002
{
1010
-1.0
1020
-1.0
1030
-1.0
1002
}
1040
0.2
1000

1040
0.0
1002
{
1002
}
1040
0.0
1002
{
1002
}
1040
0.0
1002
}
1002
{
1070
     0
1002
{
1070
     1
1002
{
1040
1.0
1040
1.0
1000

1040
0.0
1002
{
1002
}
1040
0.0
1002
{
1002
}
1040
0.0
1002
}
1002
}
1040
1.0
1040
0.0
1040
0.0
1002
}
1002
{
1040
1.0
1040
1.0
1000

1040
0.0
1002
{
1002
}
1040
0.0
1002
{
1002
}
1040
0.0
1002
}
1002
{
1040
0.5
1040
1.0
1000

1040
0.0
1002
{
1002
}
1040
0.0
1002
{
1002
}
1040
0.0
1002
}
1002
{
1070
     0
1040
0.0
1002
{
1002
}
1040
1.0
1002
{
1002
}
1040
0.0
1002
}
1002
{
1040
0.0
1002
{
1002
{
1010
0.0
1020
0.0
1030
0.0
1002
}
1040
1.0
1000

1040
0.0
1002
{
1002
}
1040
0.0
1002
{
1002
}
1040
0.0
1002
}
1002
}
1002
{
1002
{
1070
     1
1002
{
1040
0.0
1040
1.0
1000

1040
0.0
1002
{
1002
}
1040
0.0
1002
{
1002
}
1040
0.0
1002
}
1002
}
1040
0.0
1002
{
1002
}
1010
1.0
1020
0.0
1030
0.0
1010
0.0
1020
1.0
1030
0.0
1010
0.0
1020
0.0
1030
1.0
1070
     0
1002
}
1002
{
1002
{
1040
1.0
1040
1.0
1002
{
1070
     1
1002
{
1040
1.0
1040
1.0
1000

1040
0.0
1002
{
1002
}
1040
0.0
1002
{
1002
}
1040
0.0
1002
}
1002
}
1002
}
1070
     0
1040
0.0
1002
{
1002
}
1002
}
1002
{
1002
}
1002
}
1002
{
1071
        3
1070
     3
1070
     0
1002
{
1070
     2
1070
     0
1070
     0
1040
0.0
1002
}
1070
     0
1070
     2
1002
{
1002
}
1002
}
1002
{
1040
8030.0
1040
190.300003
1040
0.305
1040
228.0
1040
545.0
1040
14.0
1040
17.4
1040
0.456
1002
}
1002
}
  0
INSERT
  5
3B2
330
1F
100
AcDbEntity
  8
ASHADE
 62
     1
100
AcDbBlockReference
  2
AVE_RENDER
 10
28690.23388114601
 20
5886.925085801705
 30
0.0
 41
27.778
 42
24.17741564000001
1001
AVE_RENDER
1002
{
1070
     6
1000
Pref
1070
    30
1070
    20
1070
     1
1070
     0
1000

1070
    10
1070
     1
1070
    30
1040
25.4
1070
     1
1040
0.3
1040
0.7
1040
0.0
1040
10.0
1010
-1.0
1020
-1.0
1030
-1.0
1040
0.3
1070
    49
1070
     0
1070
     0
1010
1.0
1020
1.0
1030
1.0
1040
45.0
1070
     1
1070
     0
1000
WCS
1040
0.0
1002
}
  0
INSERT
  5
3B3
330
1F
100
AcDbEntity
  8
ASHADE
 62
     3
100
AcDbBlockReference
  2
AVE_RENDER
 10
28690.23388114601
 20
5886.925085801705
 30
0.0
 41
27.778
 42
24.17741564000001
1001
AVE_RENDER
1002
{
1070
     0
1000
Full Opt
1070
     0
1070
     1
1070
     1
1070
     1
1070
     0
1070
     0
1070
     0
1070
     1
1070
     1
1040
0.0001
1040
0.0001
1002
}
  0
INSERT
  5
3B4
330
1F
100
AcDbEntity
  8
ASHADE
 62
     4
100
AcDbBlockReference
  2
AVE_RENDER
 10
28690.23388114601
 20
5886.925085801705
 30
0.0
 41
27.778
 42
24.17741564000001
1001
AVE_RENDER
1002
{
1070
     0
1000
Quick Opt
1070
     0
1070
     1
1070
     1
1070
     1
1070
     0
1070
     0
1070
     1
1002
}
  0
INSERT
  5
3B5
330
1F
100
AcDbEntity
  8
ASHADE
 62
     5
100
AcDbBlockReference
  2
AVE_RENDER
 10
28690.23388114601
 20
5886.925085801705
 30
0.0
 41
27.778
 42
24.17741564000001
1001
AVE_RENDER
1002
{
1070
     1
1000
Scanl Opt
1070
     2
1070
     0
1070
     2
1040
2.0
1040
4.0
1070
     0
1070
     1
1070
     0
1040
0.03
1002
}
  0
INSERT
  5
3B6
330
1F
100
AcDbEntity
  8
ASHADE
 62
     6
100
AcDbBlockReference
  2
AVE_RENDER
 10
28690.23388114601
 20
5886.925085801705
 30
0.0
 41
27.778
 42
24.17741564000001
1001
AVE_RENDER
1002
{
1070
     2
1000
Raytr Opt
1070
     2
1070
     0
1070
     2
1040
2.0
1040
4.0
1070
     0
1070
     1
1070
     1
1040
0.03
1070
     3
1040
0.03
1002
}
  0
INSERT
  5
3B7
330
1F
100
AcDbEntity
  8
ASHADE
 62
     7
100
AcDbBlockReference
  2
AVE_RENDER
 10
28690.23388114601
 20
5886.925085801705
 30
0.0
 41
27.778
 42
24.17741564000001
1001
AVE_RENDER
1002
{
1070
     0
1000
RFile Opt
1070
     5
1070
   640
1070
   480
1070
 10000
1070
     3
1070
    32
1070
    24
1070
     0
1070
     0
1070
     0
1070
     1
1070
     0
1070
     0
1070
     0
1002
}
  0
INSERT
  5
3B8
330
1F
100
AcDbEntity
  8
ASHADE
 62
     8
100
AcDbBlockReference
  2
AVE_RENDER
 10
28690.23388114601
 20
5886.925085801705
 30
0.0
 41
27.778
 42
24.17741564000001
1001
AVE_RENDER
1002
{
1070
     0
1000
Fog Opt
1070
     0
1070
     0
1040
0.0
1040
1.0
1040
0.0
1040
1.0
1010
0.5
1020
0.5
1030
0.5
1002
}
  0
INSERT
  5
3B9
330
1F
100
AcDbEntity
  8
ASHADE
 62
     9
100
AcDbBlockReference
  2
AVE_RENDER
 10
28690.23388114601
 20
5886.925085801705
 30
0.0
 41
27.778
 42
24.17741564000001
1001
AVE_RENDER
1002
{
1070
     0
1000
BG Opt
1070
     0
1070
     1
1010
0.0
1020
0.0
1030
0.0
1010
1.0
1020
0.0
1030
0.0
1010
0.0
1020
1.0
1030
0.0
1010
0.0
1020
0.0
1030
1.0
1040
0.5
1040
0.33
1040
0.0
1000

1070
     1
1000

1070
     1
1070
     1
1040
1.0
1040
1.0
1040
0.0
1040
0.0
1070
     0
1002
}
  0
INSERT
  5
3BA
330
1F
100
AcDbEntity
  8
ASHADE
 62
     1
100
AcDbBlockReference
  2
AVE_GLOBAL
 10
28690.23388114601
 20
5886.925085801705
 30
0.0
 41
27.778
 42
24.17741564000001
1001
AVE_MATERIAL
1002
{
1000
*GLOBALE*
1000
1
1000
Finitura globale.
1002
{
1002
}
1002
{
1070
    63
1002
{
1002
{
1010
-1.0
1020
-1.0
1030
-1.0
1002
}
1040
0.1
1000

1040
0.0
1002
{
1002
}
1040
0.0
1002
{
1002
}
1040
0.0
1002
}
1002
{
1002
{
1010
-1.0
1020
-1.0
1030
-1.0
1002
}
1040
0.7
1000

1040
0.0
1002
{
1002
}
1040
0.0
1002
{
1002
}
1040
0.0
1002
}
1002
{
1002
{
1010
-1.0
1020
-1.0
1030
-1.0
1002
}
1040
0.2
1000

1040
0.0
1002
{
1002
}
1040
0.0
1002
{
1002
}
1040
0.0
1002
}
1002
{
1070
     0
1002
{
1070
     1
1002
{
1040
1.0
1040
1.0
1000

1040
0.0
1002
{
1002
}
1040
0.0
1002
{
1002
}
1040
0.0
1002
}
1002
}
1040
1.0
1040
0.0
1040
0.0
1002
}
1002
{
1040
1.0
1040
1.0
1000

1040
0.0
1002
{
1002
}
1040
0.0
1002
{
1002
}
1040
0.0
1002
}
1002
{
1040
0.5
1040
1.0
1000

1040
0.0
1002
{
1002
}
1040
0.0
1002
{
1002
}
1040
0.0
1002
}
1002
{
1070
     0
1040
0.0
1002
{
1002
}
1040
1.0
1002
{
1002
}
1040
0.0
1002
}
1002
{
1040
0.0
1002
{
1002
{
1010
0.0
1020
0.0
1030
0.0
1002
}
1040
1.0
1000

1040
0.0
1002
{
1002
}
1040
0.0
1002
{
1002
}
1040
0.0
1002
}
1002
}
1002
{
1002
{
1070
     1
1002
{
1040
0.0
1040
1.0
1000

1040
0.0
1002
{
1002
}
1040
0.0
1002
{
1002
}
1040
0.0
1002
}
1002
}
1040
0.0
1002
{
1002
}
1010
1.0
1020
0.0
1030
0.0
1010
0.0
1020
1.0
1030
0.0
1010
0.0
1020
0.0
1030
1.0
1070
     0
1002
}
1002
{
1002
{
1040
1.0
1040
1.0
1002
{
1070
     1
1002
{
1040
1.0
1040
1.0
1000

1040
0.0
1002
{
1002
}
1040
0.0
1002
{
1002
}
1040
0.0
1002
}
1002
}
1002
}
1070
     0
1040
0.0
1002
{
1002
}
1002
}
1002
{
1002
}
1002
}
1002
{
1071
        3
1070
     3
1070
     0
1002
{
1070
     2
1070
     0
1070
     0
1040
0.0
1002
}
1070
     0
1070
     2
1002
{
1002
}
1002
}
1002
{
1040
8030.0
1040
190.300003
1040
0.305
1040
228.0
1040
545.0
1040
14.0
1040
17.4
1040
0.456
1002
}
1002
}
  0
INSERT
  5
3BB
330
1F
100
AcDbEntity
  8
ASHADE
 62
     1
100
AcDbBlockReference
  2
AVE_RENDER
 10
34989.256550702
 20
10543.26693402015
 30
0.0
 41
27.778
 42
24.17741564000001
1001
AVE_RENDER
1002
{
1070
     6
1000
Pref
1070
    30
1070
    20
1070
     1
1070
     0
1000

1070
    10
1070
     1
1070
    30
1040
25.4
1070
     1
1040
0.3
1040
0.7
1040
0.0
1040
10.0
1010
-1.0
1020
-1.0
1030
-1.0
1040
0.3
1070
    49
1070
     0
1070
     0
1010
1.0
1020
1.0
1030
1.0
1040
45.0
1070
     1
1070
     0
1000
WCS
1040
0.0
1002
}
  0
INSERT
  5
3BC
330
1F
100
AcDbEntity
  8
ASHADE
 62
     3
100
AcDbBlockReference
  2
AVE_RENDER
 10
34989.256550702
 20
10543.26693402015
 30
0.0
 41
27.778
 42
24.17741564000001
1001
AVE_RENDER
1002
{
1070
     0
1000
Full Opt
1070
     0
1070
     1
1070
     1
1070
     1
1070
     0
1070
     0
1070
     0
1070
     1
1070
     1
1040
0.0001
1040
0.0001
1002
}
  0
INSERT
  5
3BD
330
1F
100
AcDbEntity
  8
ASHADE
 62
     4
100
AcDbBlockReference
  2
AVE_RENDER
 10
34989.256550702
 20
10543.26693402015
 30
0.0
 41
27.778
 42
24.17741564000001
1001
AVE_RENDER
1002
{
1070
     0
1000
Quick Opt
1070
     0
1070
     1
1070
     1
1070
     1
1070
     0
1070
     0
1070
     1
1002
}
  0
INSERT
  5
3BE
330
1F
100
AcDbEntity
  8
ASHADE
 62
     5
100
AcDbBlockReference
  2
AVE_RENDER
 10
34989.256550702
 20
10543.26693402015
 30
0.0
 41
27.778
 42
24.17741564000001
1001
AVE_RENDER
1002
{
1070
     1
1000
Scanl Opt
1070
     2
1070
     0
1070
     2
1040
2.0
1040
4.0
1070
     0
1070
     1
1070
     0
1040
0.03
1002
}
  0
INSERT
  5
3BF
330
1F
100
AcDbEntity
  8
ASHADE
 62
     6
100
AcDbBlockReference
  2
AVE_RENDER
 10
34989.256550702
 20
10543.26693402015
 30
0.0
 41
27.778
 42
24.17741564000001
1001
AVE_RENDER
1002
{
1070
     2
1000
Raytr Opt
1070
     2
1070
     0
1070
     2
1040
2.0
1040
4.0
1070
     0
1070
     1
1070
     1
1040
0.03
1070
     3
1040
0.03
1002
}
  0
INSERT
  5
3C0
330
1F
100
AcDbEntity
  8
ASHADE
 62
     7
100
AcDbBlockReference
  2
AVE_RENDER
 10
34989.256550702
 20
10543.26693402015
 30
0.0
 41
27.778
 42
24.17741564000001
1001
AVE_RENDER
1002
{
1070
     0
1000
RFile Opt
1070
     5
1070
   640
1070
   480
1070
 10000
1070
     3
1070
    32
1070
    24
1070
     0
1070
     0
1070
     0
1070
     1
1070
     0
1070
     0
1070
     0
1002
}
  0
INSERT
  5
3C1
330
1F
100
AcDbEntity
  8
ASHADE
 62
     8
100
AcDbBlockReference
  2
AVE_RENDER
 10
34989.256550702
 20
10543.26693402015
 30
0.0
 41
27.778
 42
24.17741564000001
1001
AVE_RENDER
1002
{
1070
     0
1000
Fog Opt
1070
     0
1070
     0
1040
0.0
1040
1.0
1040
0.0
1040
1.0
1010
0.5
1020
0.5
1030
0.5
1002
}
  0
INSERT
  5
3C2
330
1F
100
AcDbEntity
  8
ASHADE
 62
     9
100
AcDbBlockReference
  2
AVE_RENDER
 10
34989.256550702
 20
10543.26693402015
 30
0.0
 41
27.778
 42
24.17741564000001
1001
AVE_RENDER
1002
{
1070
     0
1000
BG Opt
1070
     0
1070
     1
1010
0.0
1020
0.0
1030
0.0
1010
1.0
1020
0.0
1030
0.0
1010
0.0
1020
1.0
1030
0.0
1010
0.0
1020
0.0
1030
1.0
1040
0.5
1040
0.33
1040
0.0
1000

1070
     1
1000

1070
     1
1070
     1
1040
1.0
1040
1.0
1040
0.0
1040
0.0
1070
     0
1002
}
  0
INSERT
  5
3C3
330
1F
100
AcDbEntity
  8
ASHADE
 62
     1
100
AcDbBlockReference
  2
AVE_GLOBAL
 10
34989.256550702
 20
10543.26693402015
 30
0.0
 41
27.778
 42
24.17741564000001
1001
AVE_MATERIAL
1002
{
1000
*GLOBALE*
1000
1
1000
Finitura globale.
1002
{
1002
}
1002
{
1070
    63
1002
{
1002
{
1010
-1.0
1020
-1.0
1030
-1.0
1002
}
1040
0.1
1000

1040
0.0
1002
{
1002
}
1040
0.0
1002
{
1002
}
1040
0.0
1002
}
1002
{
1002
{
1010
-1.0
1020
-1.0
1030
-1.0
1002
}
1040
0.7
1000

1040
0.0
1002
{
1002
}
1040
0.0
1002
{
1002
}
1040
0.0
1002
}
1002
{
1002
{
1010
-1.0
1020
-1.0
1030
-1.0
1002
}
1040
0.2
1000

1040
0.0
1002
{
1002
}
1040
0.0
1002
{
1002
}
1040
0.0
1002
}
1002
{
1070
     0
1002
{
1070
     1
1002
{
1040
1.0
1040
1.0
1000

1040
0.0
1002
{
1002
}
1040
0.0
1002
{
1002
}
1040
0.0
1002
}
1002
}
1040
1.0
1040
0.0
1040
0.0
1002
}
1002
{
1040
1.0
1040
1.0
1000

1040
0.0
1002
{
1002
}
1040
0.0
1002
{
1002
}
1040
0.0
1002
}
1002
{
1040
0.5
1040
1.0
1000

1040
0.0
1002
{
1002
}
1040
0.0
1002
{
1002
}
1040
0.0
1002
}
1002
{
1070
     0
1040
0.0
1002
{
1002
}
1040
1.0
1002
{
1002
}
1040
0.0
1002
}
1002
{
1040
0.0
1002
{
1002
{
1010
0.0
1020
0.0
1030
0.0
1002
}
1040
1.0
1000

1040
0.0
1002
{
1002
}
1040
0.0
1002
{
1002
}
1040
0.0
1002
}
1002
}
1002
{
1002
{
1070
     1
1002
{
1040
0.0
1040
1.0
1000

1040
0.0
1002
{
1002
}
1040
0.0
1002
{
1002
}
1040
0.0
1002
}
1002
}
1040
0.0
1002
{
1002
}
1010
1.0
1020
0.0
1030
0.0
1010
0.0
1020
1.0
1030
0.0
1010
0.0
1020
0.0
1030
1.0
1070
     0
1002
}
1002
{
1002
{
1040
1.0
1040
1.0
1002
{
1070
     1
1002
{
1040
1.0
1040
1.0
1000

1040
0.0
1002
{
1002
}
1040
0.0
1002
{
1002
}
1040
0.0
1002
}
1002
}
1002
}
1070
     0
1040
0.0
1002
{
1002
}
1002
}
1002
{
1002
}
1002
}
1002
{
1071
        3
1070
     3
1070
     0
1002
{
1070
     2
1070
     0
1070
     0
1040
0.0
1002
}
1070
     0
1070
     2
1002
{
1002
}
1002
}
1002
{
1040
8030.0
1040
190.300003
1040
0.305
1040
228.0
1040
545.0
1040
14.0
1040
17.4
1040
0.456
1002
}
1002
}
  0
LINE
  5
3C4
330
1F
100
AcDbEntity
  8
0
370
    60
100
AcDbLine
 10
317.17184291
 20
2762.224138264104
 30
0.0
 11
317.17184291
 21
2500.105049264278
 31
0.0
  0
LINE
  5
3C5
330
1F
100
AcDbEntity
  8
0
370
    60
100
AcDbLine
 10
294.67166291
 20
2762.224138264104
 30
0.0
 11
294.67166291
 21
2521.458977951008
 31
0.0
  0
ELLIPSE
  5
3C6
330
1F
100
AcDbEntity
  8
0
370
    60
100
AcDbEllipse
 10
176.803108858
 20
2364.022102673304
 30
0.0
 11
71.25056999999984
 21
0.0
 31
0.0
210
0.0
220
0.0
230
1.0
 40
0.8703800000000003
 41
2.077894829458013
 42
4.712388980384691
  0
ELLIPSE
  5
3C7
330
1F
100
AcDbEntity
  8
0
370
    60
100
AcDbEllipse
 10
175.831378862
 20
2367.286053784703
 30
0.0
 11
45.00035999999993
 21
0.0
 31
0.0
210
0.0
220
0.0
230
1.0
 40
0.8703800000000002
 41
2.077894829458011
 42
4.71238898038469
  0
LINE
  5
3D4
330
1F
100
AcDbEntity
  8
0
370
    60
100
AcDbLine
 10
176.803108858
 20
2302.007031556704
 30
0.0
 11
467.17304291
 21
2302.007031556704
 31
0.0
  0
LINE
  5
3D5
330
1F
100
AcDbEntity
  8
0
370
    60
100
AcDbLine
 10
175.831378862
 20
2328.118640447903
 30
0.0
 11
467.17304291
 21
2328.118640447903
 31
0.0
  0
ELLIPSE
  5
3D6
330
1F
100
AcDbEntity
  8
0
370
    60
100
AcDbEllipse
 10
467.17304291
 20
2315.062836002303
 30
0.0
 11
15.00012000000017
 21
0.0
 31
0.0
210
0.0
220
0.0
230
1.0
 40
0.8703800000000002
 41
4.71238898038469
 42
6.283185307179586
  0
ELLIPSE
  5
3D7
330
1F
100
AcDbEntity
  8
0
370
    60
100
AcDbEllipse
 10
467.17304291
 20
2315.062836002303
 30
0.0
 11
15.00012000000002
 21
0.0
 31
0.0
210
0.0
220
0.0
230
1.0
 40
0.8703800000000002
 41
0.0
 42
1.570796326794897
  0
LINE
  5
3D8
330
1F
100
AcDbEntity
  8
0
370
    60
100
AcDbLine
 10
482.1731629099999
 20
2315.062836002303
 30
0.0
 11
482.1731629099999
 21
2315.062836002303
 31
0.0
  0
LINE
  5
3D9
330
1F
100
AcDbEntity
  8
0
370
    60
100
AcDbLine
 10
270.804471974
 20
2480.418612756824
 30
0.0
 11
142.200776486
 21
2418.233018327715
 31
0.0
  0
LINE
  5
3DA
330
1F
100
AcDbEntity
  8
0
370
    60
100
AcDbLine
 10
270.6306372500001
 20
2457.931609486126
 30
0.0
 11
153.977287364
 21
2401.524514104639
 31
0.0
  0
LINE
  5
3DB
330
1F
100
AcDbEntity
  8
0
370
    60
100
AcDbLine
 10
182.17076291
 20
2706.736969370303
 30
0.0
 11
212.17100291
 21
2706.736969370303
 31
0.0
  0
LINE
  5
3DC
330
1F
100
AcDbEntity
  8
0
370
    60
100
AcDbLine
 10
182.17076291
 20
2471.732489349503
 30
0.0
 11
212.17100291
 21
2471.732489349503
 31
0.0
  0
LINE
  5
3DD
330
1F
100
AcDbEntity
  8
0
370
    60
100
AcDbLine
 10
176.17071491
 20
2674.097458256304
 30
0.0
 11
176.17071491
 21
2504.372000463503
 31
0.0
  0
LINE
  5
3DE
330
1F
100
AcDbEntity
  8
0
370
    60
100
AcDbLine
 10
182.17076291
 20
2706.736969370303
 30
0.0
 11
182.17076291
 21
2471.732489349503
 31
0.0
  0
LINE
  5
3DF
330
1F
100
AcDbEntity
  8
0
370
    60
100
AcDbLine
 10
176.17071491
 20
2504.372000463503
 30
0.0
 11
182.17076291
 21
2498.668910775262
 31
0.0
  0
LINE
  5
3E0
330
1F
100
AcDbEntity
  8
0
370
    60
100
AcDbLine
 10
176.17071491
 20
2674.097458256304
 30
0.0
 11
182.17076291
 21
2679.800523767129
 31
0.0
  0
LINE
  5
3E1
330
1F
100
AcDbEntity
  8
0
370
    60
100
AcDbLine
 10
317.17184291
 20
2547.693529000737
 30
0.0
 11
332.24557461
 21
2554.849826433436
 31
0.0
  0
LINE
  5
3E2
330
1F
100
AcDbEntity
  8
0
370
    60
100
AcDbLine
 10
197.17088291
 20
2471.732489349503
 30
0.0
 11
197.17088291
 21
2706.736969370303
 31
0.0
  0
LINE
  5
3E3
330
1F
100
AcDbEntity
  8
0
370
    60
100
AcDbLine
 10
212.17100291
 20
2706.736969370303
 30
0.0
 11
212.17100291
 21
2471.732489349503
 31
0.0
  0
LINE
  5
3E4
330
1F
100
AcDbEntity
  8
0
370
    60
100
AcDbLine
 10
347.008970494
 20
2449.935412811509
 30
0.0
 11
336.385829954
 21
2449.935412811509
 31
0.0
  0
LINE
  5
3E5
330
1F
100
AcDbEntity
  8
0
370
    60
100
AcDbLine
 10
352.216401042
 20
2487.317952616101
 30
0.0
 11
336.935278794
 21
2487.317952616101
 31
0.0
  0
LINE
  5
3E6
330
1F
100
AcDbEntity
  8
0
370
    60
100
AcDbLine
 10
316.91600753
 20
2545.629599737212
 30
0.0
 11
352.216401042
 21
2545.629599737212
 31
0.0
  0
ELLIPSE
  5
3E7
330
1F
100
AcDbEntity
  8
0
370
    60
100
AcDbEllipse
 10
305.92175291
 20
2468.968938209604
 30
0.0
 11
37.5003
 21
0.0
 31
0.0
210
0.0
220
0.0
230
1.0
 40
0.8703800000000002
 41
0.0
 42
6.283185307179586
  0
LINE
  5
3E8
330
1F
100
AcDbEntity
  8
0
370
    60
100
AcDbLine
 10
212.17100291
 20
2497.844098240703
 30
0.0
 11
294.67166291
 21
2527.805114363026
 31
0.0
  0
LINE
  5
3E9
330
1F
100
AcDbEntity
  8
0
370
    60
100
AcDbLine
 10
212.17100291
 20
2497.844098240703
 30
0.0
 11
294.67166291
 21
2537.011487400088
 31
0.0
  0
ELLIPSE
  5
3EA
330
1F
100
AcDbEntity
  8
0
370
    60
100
AcDbEllipse
 10
335.39559981
 20
2488.886510810577
 30
0.0
 11
55.3076924580001
 21
0.0
 31
0.0
210
0.0
220
0.0
230
1.0
 40
0.8703799999999999
 41
2.398406150816452
 42
3.060693640793539
  0
LINE
  5
3EB
330
1F
100
AcDbEntity
  8
0
370
    60
100
AcDbLine
 10
347.008970494
 20
2487.317952616101
 30
0.0
 11
347.008970494
 21
2449.935412811509
 31
0.0
  0
LINE
  5
3EC
330
1F
100
AcDbEntity
  8
0
370
    60
100
AcDbLine
 10
352.216401042
 20
2545.629599737212
 30
0.0
 11
352.216401042
 21
2487.317952616101
 31
0.0
  0
ELLIPSE
  5
3ED
330
1F
100
AcDbEntity
  8
0
370
    60
100
AcDbEllipse
 10
310.6970688900001
 20
2589.234705182488
 30
0.0
 11
45.00035999999985
 21
0.0
 31
0.0
210
0.0
220
0.0
230
1.0
 40
0.87038
 41
5.211735707894826
 42
7.354634906464347
  0
LINE
  5
3EE
330
1F
100
AcDbEntity
  8
0
370
    60
100
AcDbLine
 10
317.17184291
 20
2630.775905541654
 30
0.0
 11
332.24557461
 21
2623.619608108955
 31
0.0
  0
LINE
  5
3EF
330
1F
100
AcDbEntity
  8
0
370
    60
100
AcDbLine
 10
212.17100291
 20
2680.625360479104
 30
0.0
 11
294.67166291
 21
2650.664320179365
 31
0.0
  0
LINE
  5
3F0
330
1F
100
AcDbEntity
  8
0
370
    60
100
AcDbLine
 10
212.17100291
 20
2680.625360479104
 30
0.0
 11
294.67166291
 21
2641.457922964888
 31
0.0
  0
ELLIPSE
  5
3F1
330
1F
100
AcDbEntity
  8
0
370
    60
100
AcDbEllipse
 10
305.92175291
 20
2762.224138264104
 30
0.0
 11
11.25008999999999
 21
0.0
 31
0.0
210
0.0
220
0.0
230
1.0
 40
0.8703800000000002
 41
0.0
 42
1.570796326794897
  0
ELLIPSE
  5
3F2
330
1F
100
AcDbEntity
  8
0
370
    60
100
AcDbEllipse
 10
305.92175291
 20
2762.224138264104
 30
0.0
 11
11.25009000000003
 21
0.0
 31
0.0
210
0.0
220
0.0
230
1.0
 40
0.8703800000000002
 41
1.570796326794897
 42
3.141592653589793
  0
LINE
  5
3F3
330
1F
100
AcDbEntity
  8
0
370
    60
100
AcDbLine
 10
305.92175291
 20
2772.015991598304
 30
0.0
 11
305.92175291
 21
2772.015991598304
 31
0.0
  0
LINE
  5
40C
330
1F
100
AcDbEntity
  8
0
370
    60
100
AcDbLine
 10
1055.11705198
 20
2723.056724927303
 30
0.0
 11
1055.11705198
 21
2517.708577236931
 31
0.0
  0
ELLIPSE
  5
40D
330
1F
100
AcDbEntity
  8
0
370
    60
100
AcDbEllipse
 10
1010.11669198
 20
2713.264871593103
 30
0.0
 11
67.50054000000003
 21
0.0
 31
0.0
210
0.0
220
0.0
230
1.0
 40
0.8703800000000002
 41
0.0
 42
1.570796326794897
  0
ELLIPSE
  5
40E
330
1F
100
AcDbEntity
  8
0
370
    60
100
AcDbEllipse
 10
867.61555198
 20
2713.31368579528
 30
0.0
 11
11.25009000000003
 21
0.0
 31
0.0
210
0.0
220
0.0
230
1.0
 40
0.8703800000000002
 41
0.0
 42
3.141592653589793
  0
ELLIPSE
  5
40F
330
1F
100
AcDbEntity
  8
0
370
    60
100
AcDbEllipse
 10
725.1144119800001
 20
2713.264871593103
 30
0.0
 11
67.50054000000019
 21
0.0
 31
0.0
210
0.0
220
0.0
230
1.0
 40
0.87038
 41
1.570796326794897
 42
3.141592653589793
  0
LINE
  5
410
330
1F
100
AcDbEntity
  8
0
370
    60
100
AcDbLine
 10
680.11405198
 20
2723.056724927303
 30
0.0
 11
680.11405198
 21
2517.708577236931
 31
0.0
  0
LINE
  5
411
330
1F
100
AcDbEntity
  8
0
370
    60
100
AcDbLine
 10
1063.206172248
 20
2482.024742655205
 30
0.0
 11
995.871744688
 21
2482.024742655205
 31
0.0
  0
LINE
  5
412
330
1F
100
AcDbEntity
  8
0
370
    60
100
AcDbLine
 10
1063.206172248
 20
2501.608449323605
 30
0.0
 11
1002.61663198
 21
2501.608449323605
 31
0.0
  0
ELLIPSE
  5
413
330
1F
100
AcDbEntity
  8
0
370
    60
100
AcDbEllipse
 10
1061.183322732
 20
2311.798884890904
 30
0.0
 11
11.25009000000003
 21
0.0
 31
0.0
210
0.0
220
0.0
230
1.0
 40
0.8703800000000002
 41
3.141592653589793
 42
4.71238898038469
  0
LINE
  5
414
330
1F
100
AcDbEntity
  8
0
370
    60
100
AcDbLine
 10
1061.183322732
 20
2302.007031556704
 30
0.0
 11
867.61555198
 21
2302.007031556704
 31
0.0
  0
ELLIPSE
  5
415
330
1F
100
AcDbEntity
  8
0
370
    60
100
AcDbEllipse
 10
1071.631850764
 20
2439.505807607557
 30
0.0
 11
21.7003958240001
 21
0.0
 31
0.0
210
0.0
220
0.0
230
1.0
 40
0.87038
 41
2.208864004915109
 42
3.15440534252149
  0
ELLIPSE
  5
416
330
1F
100
AcDbEntity
  8
0
370
    60
100
AcDbEllipse
 10
1076.815670012
 20
2517.46658548379
 30
0.0
 11
21.70039582399994
 21
0.0
 31
0.0
210
0.0
220
0.0
230
1.0
 40
0.8703800000000002
 41
3.128779964658105
 42
4.034494372263834
  0
LINE
  5
417
330
1F
100
AcDbEntity
  8
0
370
    60
100
AcDbLine
 10
1049.933232732
 20
2439.747799360697
 30
0.0
 11
1049.933232732
 21
2311.798884890904
 31
0.0
  0
LINE
  5
418
330
1F
100
AcDbEntity
  8
0
370
    60
100
AcDbLine
 10
685.2978712280001
 20
2439.747799360697
 30
0.0
 11
685.2978712280001
 21
2311.798884890904
 31
0.0
  0
LINE
  5
419
330
1F
100
AcDbEntity
  8
0
370
    60
100
AcDbLine
 10
662.797691228
 20
2439.747799360697
 30
0.0
 11
662.797691228
 21
2311.798884890904
 31
0.0
  0
LINE
  5
41A
330
1F
100
AcDbEntity
  8
0
370
    60
100
AcDbLine
 10
674.047781228
 20
2302.007031556704
 30
0.0
 11
867.61555198
 21
2302.007031556704
 31
0.0
  0
LINE
  5
41B
330
1F
100
AcDbEntity
  8
0
370
    60
100
AcDbLine
 10
685.2978712280001
 20
2328.118640447903
 30
0.0
 11
867.61555198
 21
2328.118640447903
 31
0.0
  0
ELLIPSE
  5
41C
330
1F
100
AcDbEntity
  8
0
370
    60
100
AcDbEllipse
 10
674.047781228
 20
2311.798884890904
 30
0.0
 11
11.25009000000003
 21
0.0
 31
0.0
210
0.0
220
0.0
230
1.0
 40
0.8703800000000002
 41
4.71238898038469
 42
6.283185307179586
  0
ELLIPSE
  5
41D
330
1F
100
AcDbEntity
  8
0
370
    60
100
AcDbEllipse
 10
674.047781228
 20
2311.798884890904
 30
0.0
 11
11.25009000000003
 21
0.0
 31
0.0
210
0.0
220
0.0
230
1.0
 40
0.8703800000000002
 41
3.141592653589793
 42
4.71238898038469
  0
LINE
  5
41E
330
1F
100
AcDbEntity
  8
0
370
    60
100
AcDbLine
 10
674.047781228
 20
2302.007031556704
 30
0.0
 11
674.047781228
 21
2302.007031556704
 31
0.0
  0
LINE
  5
41F
330
1F
100
AcDbEntity
  8
0
370
    60
100
AcDbLine
 10
1049.933232732
 20
2328.118640447903
 30
0.0
 11
867.61555198
 21
2328.118640447903
 31
0.0
  0
LINE
  5
420
330
1F
100
AcDbEntity
  8
0
370
    60
100
AcDbLine
 10
743.678838272
 20
2513.913810965155
 30
0.0
 11
867.61555198
 21
2513.913810965155
 31
0.0
  0
LINE
  5
421
330
1F
100
AcDbEntity
  8
0
370
    60
100
AcDbLine
 10
743.678838272
 20
2531.173342668081
 30
0.0
 11
867.61555198
 21
2531.173342668081
 31
0.0
  0
LINE
  5
422
330
1F
100
AcDbEntity
  8
0
370
    60
100
AcDbLine
 10
743.678838272
 20
2548.432874371008
 30
0.0
 11
867.61555198
 21
2548.432874371008
 31
0.0
  0
LINE
  5
423
330
1F
100
AcDbEntity
  8
0
370
    60
100
AcDbLine
 10
743.678838272
 20
2565.692406073934
 30
0.0
 11
867.61555198
 21
2565.692406073934
 31
0.0
  0
LINE
  5
424
330
1F
100
AcDbEntity
  8
0
370
    60
100
AcDbLine
 10
743.678838272
 20
2612.777028468456
 30
0.0
 11
867.61555198
 21
2612.777028468456
 31
0.0
  0
LINE
  5
425
330
1F
100
AcDbEntity
  8
0
370
    60
100
AcDbLine
 10
743.678838272
 20
2630.036560171383
 30
0.0
 11
867.61555198
 21
2630.036560171383
 31
0.0
  0
LINE
  5
426
330
1F
100
AcDbEntity
  8
0
370
    60
100
AcDbLine
 10
743.678838272
 20
2647.29609187431
 30
0.0
 11
867.61555198
 21
2647.29609187431
 31
0.0
  0
LINE
  5
427
330
1F
100
AcDbEntity
  8
0
370
    60
100
AcDbLine
 10
743.678838272
 20
2664.555623577237
 30
0.0
 11
867.61555198
 21
2664.555623577237
 31
0.0
  0
ELLIPSE
  5
428
330
1F
100
AcDbEntity
  8
0
370
    60
100
AcDbEllipse
 10
768.94517929
 20
2602.758511862631
 30
0.0
 11
25.45414807599993
 21
0.0
 31
0.0
210
0.0
220
0.0
230
1.0
 40
0.8703800000000002
 41
4.024713983467966
 42
4.701868030933912
  0
ELLIPSE
  5
429
330
1F
100
AcDbEntity
  8
0
370
    60
100
AcDbEllipse
 10
760.203748248
 20
2503.845754834683
 30
0.0
 11
8.26245498800006
 21
0.0
 31
0.0
210
0.0
220
0.0
230
1.0
 40
0.8703800000000002
 41
3.141592653589793
 42
4.71238898038469
  0
ELLIPSE
  5
42A
330
1F
100
AcDbEntity
  8
0
370
    60
100
AcDbEllipse
 10
760.203748248
 20
2674.623679707708
 30
0.0
 11
8.262454987999744
 21
0.0
 31
0.0
210
0.0
220
0.0
230
1.0
 40
0.8703800000000002
 41
1.570796326794897
 42
3.141592653589793
  0
ELLIPSE
  5
42B
330
1F
100
AcDbEntity
  8
0
370
    60
100
AcDbEllipse
 10
768.94517929
 20
2575.71092267976
 30
0.0
 11
25.45414807600008
 21
0.0
 31
0.0
210
0.0
220
0.0
230
1.0
 40
0.87038
 41
1.581317276245673
 42
2.258471323711617
  0
ELLIPSE
  5
42C
330
1F
100
AcDbEntity
  8
0
370
    60
100
AcDbEllipse
 10
589.387326172
 20
2588.854418611887
 30
0.0
 11
197.537469176
 21
0.0
 31
0.0
210
0.0
220
0.0
230
1.0
 40
0.8703800000000002
 41
5.722049054680237
 42
6.84827027984511
  0
ELLIPSE
  5
42D
330
1F
100
AcDbEntity
  8
0
370
    60
100
AcDbEllipse
 10
762.61471198
 20
2497.844098240703
 30
0.0
 11
30.00023999999987
 21
0.0
 31
0.0
210
0.0
220
0.0
230
1.0
 40
0.87038
 41
3.141592653589793
 42
4.71238898038469
  0
ELLIPSE
  5
42E
330
1F
100
AcDbEntity
  8
0
370
    60
100
AcDbEllipse
 10
760.203748248
 20
2503.845754834683
 30
0.0
 11
16.52488219800003
 21
0.0
 31
0.0
210
0.0
220
0.0
230
1.0
 40
0.8703800000000002
 41
3.141592653589793
 42
4.71238898038469
  0
ELLIPSE
  5
42F
330
1F
100
AcDbEntity
  8
0
370
    60
100
AcDbEllipse
 10
760.203748248
 20
2674.623679707708
 30
0.0
 11
16.52488219800003
 21
0.0
 31
0.0
210
0.0
220
0.0
230
1.0
 40
0.8703800000000002
 41
1.570796326794897
 42
3.141592653589793
  0
ELLIPSE
  5
430
330
1F
100
AcDbEntity
  8
0
370
    60
100
AcDbEllipse
 10
762.61471198
 20
2680.625360479104
 30
0.0
 11
30.00023999999987
 21
0.0
 31
0.0
210
0.0
220
0.0
230
1.0
 40
0.87038
 41
1.570796326794897
 42
3.141592653589793
  0
LINE
  5
431
330
1F
100
AcDbEntity
  8
0
370
    60
100
AcDbLine
 10
751.9412932600001
 20
2503.845754834683
 30
0.0
 11
751.9412932600001
 21
2589.234729359903
 31
0.0
  0
LINE
  5
432
330
1F
100
AcDbEntity
  8
0
370
    60
100
AcDbLine
 10
732.6144719800001
 20
2497.844098240703
 30
0.0
 11
732.6144719800001
 21
2589.234729359903
 31
0.0
  0
LINE
  5
433
330
1F
100
AcDbEntity
  8
0
370
    60
100
AcDbLine
 10
743.678838272
 20
2503.845754834683
 30
0.0
 11
743.678838272
 21
2589.234729359903
 31
0.0
  0
LINE
  5
434
330
1F
100
AcDbEntity
  8
0
370
    60
100
AcDbLine
 10
657.61387198
 20
2713.264871593103
 30
0.0
 11
657.61387198
 21
2517.708577236931
 31
0.0
  0
LINE
  5
435
330
1F
100
AcDbEntity
  8
0
370
    60
100
AcDbLine
 10
676.52499549
 20
2478.760791543804
 30
0.0
 11
676.52499549
 21
2454.677208453903
 31
0.0
  0
LINE
  5
436
330
1F
100
AcDbEntity
  8
0
370
    60
100
AcDbLine
 10
672.02495949
 20
2478.760791543804
 30
0.0
 11
672.02495949
 21
2454.962622845534
 31
0.0
  0
LINE
  5
437
330
1F
100
AcDbEntity
  8
0
370
    60
100
AcDbLine
 10
667.52492349
 20
2482.024742655205
 30
0.0
 11
667.52492349
 21
2459.177084875404
 31
0.0
  0
LINE
  5
438
330
1F
100
AcDbEntity
  8
0
370
    60
100
AcDbLine
 10
632.686978122
 20
2501.608449323605
 30
0.0
 11
632.686978122
 21
2436.329427095604
 31
0.0
  0
LINE
  5
439
330
1F
100
AcDbEntity
  8
0
370
    60
100
AcDbLine
 10
647.6870981220001
 20
2501.608449323605
 30
0.0
 11
647.6870981220001
 21
2436.329427095604
 31
0.0
  0
ELLIPSE
  5
43A
330
1F
100
AcDbEntity
  8
0
370
    60
100
AcDbEllipse
 10
663.5992809740001
 20
2439.505807607557
 30
0.0
 11
21.70039582400003
 21
0.0
 31
0.0
210
0.0
220
0.0
230
1.0
 40
0.8703800000000002
 41
6.270372618247898
 42
7.215913955854274
  0
LINE
  5
43B
330
1F
100
AcDbEntity
  8
0
370
    60
100
AcDbLine
 10
647.6870981220001
 20
2459.177084875404
 30
0.0
 11
667.52492349
 21
2459.177084875404
 31
0.0
  0
LINE
  5
43C
330
1F
100
AcDbEntity
  8
0
370
    60
100
AcDbLine
 10
632.686978122
 20
2436.329427095604
 30
0.0
 11
647.6870981220001
 21
2436.329427095604
 31
0.0
  0
ELLIPSE
  5
43D
330
1F
100
AcDbEntity
  8
0
370
    60
100
AcDbEllipse
 10
684.49630926
 20
2439.505807607557
 30
0.0
 11
21.70039582400018
 21
0.0
 31
0.0
210
0.0
220
0.0
230
1.0
 40
0.8703800000000003
 41
2.183042015711482
 42
3.154405342521481
  0
LINE
  5
43E
330
1F
100
AcDbEntity
  8
0
370
    60
100
AcDbLine
 10
667.52492349
 20
2459.177084875404
 30
0.0
 11
672.02495949
 21
2459.177084875404
 31
0.0
  0
LINE
  5
43F
330
1F
100
AcDbEntity
  8
0
370
    60
100
AcDbLine
 10
672.02495949
 20
2482.024742655205
 30
0.0
 11
739.3593870500001
 21
2482.024742655205
 31
0.0
  0
LINE
  5
440
330
1F
100
AcDbEntity
  8
0
370
    60
100
AcDbLine
 10
672.02495949
 20
2501.608449323605
 30
0.0
 11
732.6144719800001
 21
2501.608449323605
 31
0.0
  0
ELLIPSE
  5
441
330
1F
100
AcDbEntity
  8
0
370
    60
100
AcDbEllipse
 10
658.415461726
 20
2517.46658548379
 30
0.0
 11
21.7003958240001
 21
0.0
 31
0.0
210
0.0
220
0.0
230
1.0
 40
0.87038
 41
5.390283588505544
 42
6.295997996111274
  0
ELLIPSE
  5
442
330
1F
100
AcDbEntity
  8
0
370
    60
100
AcDbEllipse
 10
679.312490012
 20
2517.46658548379
 30
0.0
 11
21.70039582400003
 21
0.0
 31
0.0
210
0.0
220
0.0
230
1.0
 40
0.8703800000000002
 41
3.128779964658105
 42
4.138149319460146
  0
LINE
  5
443
330
1F
100
AcDbEntity
  8
0
370
    60
100
AcDbLine
 10
647.6870981220001
 20
2478.760791543804
 30
0.0
 11
667.52492349
 21
2478.760791543804
 31
0.0
  0
LINE
  5
444
330
1F
100
AcDbEntity
  8
0
370
    60
100
AcDbLine
 10
632.686978122
 20
2501.608449323605
 30
0.0
 11
647.6870981220001
 21
2501.608449323605
 31
0.0
  0
LINE
  5
445
330
1F
100
AcDbEntity
  8
0
370
    60
100
AcDbLine
 10
672.02495949
 20
2478.760791543804
 30
0.0
 11
676.52499549
 21
2478.760791543804
 31
0.0
  0
LINE
  5
446
330
1F
100
AcDbEntity
  8
0
370
    60
100
AcDbLine
 10
672.02495949
 20
2502.755135792579
 30
0.0
 11
672.02495949
 21
2478.760791543804
 31
0.0
  0
LINE
  5
447
330
1F
100
AcDbEntity
  8
0
370
    60
100
AcDbLine
 10
660.02486349
 20
2482.024742655205
 30
0.0
 11
667.52492349
 21
2482.024742655205
 31
0.0
  0
LINE
  5
448
330
1F
100
AcDbEntity
  8
0
370
    60
100
AcDbLine
 10
667.52492349
 20
2501.608449323605
 30
0.0
 11
667.52492349
 21
2482.024742655205
 31
0.0
  0
LINE
  5
449
330
1F
100
AcDbEntity
  8
0
370
    60
100
AcDbLine
 10
660.02486349
 20
2501.608449323605
 30
0.0
 11
667.52492349
 21
2501.608449323605
 31
0.0
  0
LINE
  5
44A
330
1F
100
AcDbEntity
  8
0
370
    60
100
AcDbLine
 10
660.02486349
 20
2501.608449323605
 30
0.0
 11
660.02486349
 21
2482.024742655205
 31
0.0
  0
LINE
  5
44B
330
1F
100
AcDbEntity
  8
0
370
    60
100
AcDbLine
 10
751.9412932600001
 20
2674.623679707708
 30
0.0
 11
751.9412932600001
 21
2589.234729359903
 31
0.0
  0
LINE
  5
44C
330
1F
100
AcDbEntity
  8
0
370
    60
100
AcDbLine
 10
743.678838272
 20
2674.623679707708
 30
0.0
 11
743.678838272
 21
2589.234729359903
 31
0.0
  0
LINE
  5
44D
330
1F
100
AcDbEntity
  8
0
370
    60
100
AcDbLine
 10
732.6144719800001
 20
2680.625360479104
 30
0.0
 11
732.6144719800001
 21
2589.234729359903
 31
0.0
  0
LINE
  5
44E
330
1F
100
AcDbEntity
  8
0
370
    60
100
AcDbLine
 10
743.678838272
 20
2585.638991573675
 30
0.0
 11
752.788355592
 21
2585.638991573675
 31
0.0
  0
LINE
  5
44F
330
1F
100
AcDbEntity
  8
0
370
    60
100
AcDbLine
 10
743.678838272
 20
2592.830442968715
 30
0.0
 11
752.788355592
 21
2592.830442968715
 31
0.0
  0
LINE
  5
450
330
1F
100
AcDbEntity
  8
0
370
    60
100
AcDbLine
 10
867.61555198
 20
2689.006606675203
 30
0.0
 11
867.61555198
 21
2489.462827867188
 31
0.0
  0
ELLIPSE
  5
451
330
1F
100
AcDbEntity
  8
0
370
    60
100
AcDbEllipse
 10
1145.843805566
 20
2588.854418611887
 30
0.0
 11
197.5374691759999
 21
0.0
 31
0.0
210
0.0
220
0.0
230
1.0
 40
0.8703800000000002
 41
2.57650768092427
 42
3.702728906089142
  0
LINE
  5
452
330
1F
100
AcDbEntity
  8
0
370
    60
100
AcDbLine
 10
983.2898107
 20
2503.845754834683
 30
0.0
 11
983.2898107
 21
2589.234729359903
 31
0.0
  0
LINE
  5
453
330
1F
100
AcDbEntity
  8
0
370
    60
100
AcDbLine
 10
1002.61663198
 20
2497.844098240703
 30
0.0
 11
1002.61663198
 21
2589.234729359903
 31
0.0
  0
LINE
  5
454
330
1F
100
AcDbEntity
  8
0
370
    60
100
AcDbLine
 10
991.552265688
 20
2503.845754834683
 30
0.0
 11
991.552265688
 21
2589.234729359903
 31
0.0
  0
LINE
  5
455
330
1F
100
AcDbEntity
  8
0
370
    60
100
AcDbLine
 10
963.459957618
 20
2489.462827867188
 30
0.0
 11
963.459957618
 21
2589.234729359903
 31
0.0
  0
LINE
  5
456
330
1F
100
AcDbEntity
  8
0
370
    60
100
AcDbLine
 10
884.1404619560001
 20
2489.462827867188
 30
0.0
 11
884.1404619560001
 21
2589.234729359903
 31
0.0
  0
LINE
  5
457
330
1F
100
AcDbEntity
  8
0
370
    60
100
AcDbLine
 10
903.970342816
 20
2489.462827867188
 30
0.0
 11
903.970342816
 21
2589.234729359903
 31
0.0
  0
LINE
  5
458
330
1F
100
AcDbEntity
  8
0
370
    60
100
AcDbLine
 10
923.800195898
 20
2489.462827867188
 30
0.0
 11
923.800195898
 21
2589.234729359903
 31
0.0
  0
LINE
  5
459
330
1F
100
AcDbEntity
  8
0
370
    60
100
AcDbLine
 10
943.6300767580001
 20
2489.462827867188
 30
0.0
 11
943.6300767580001
 21
2589.234729359903
 31
0.0
  0
LINE
  5
45A
330
1F
100
AcDbEntity
  8
0
370
    60
100
AcDbLine
 10
771.77117412
 20
2489.462827867188
 30
0.0
 11
771.77117412
 21
2589.234729359903
 31
0.0
  0
LINE
  5
45B
330
1F
100
AcDbEntity
  8
0
370
    60
100
AcDbLine
 10
831.260788922
 20
2489.462827867188
 30
0.0
 11
831.260788922
 21
2589.234729359903
 31
0.0
  0
LINE
  5
45C
330
1F
100
AcDbEntity
  8
0
370
    60
100
AcDbLine
 10
851.0906697820001
 20
2489.462827867188
 30
0.0
 11
851.0906697820001
 21
2589.234729359903
 31
0.0
  0
LINE
  5
45D
330
1F
100
AcDbEntity
  8
0
370
    60
100
AcDbLine
 10
791.6010549800001
 20
2489.462827867188
 30
0.0
 11
791.6010549800001
 21
2589.234729359903
 31
0.0
  0
LINE
  5
45E
330
1F
100
AcDbEntity
  8
0
370
    60
100
AcDbLine
 10
811.4309080620001
 20
2489.462827867188
 30
0.0
 11
811.4309080620001
 21
2589.234729359903
 31
0.0
  0
LINE
  5
45F
330
1F
100
AcDbEntity
  8
0
370
    60
100
AcDbLine
 10
873.749434384
 20
2437.701253659018
 30
0.0
 11
916.918279732
 21
2437.701253659018
 31
0.0
  0
LINE
  5
460
330
1F
100
AcDbEntity
  8
0
370
    60
100
AcDbLine
 10
877.241517876
 20
2461.495699035281
 30
0.0
 11
920.11597198
 21
2461.495699035281
 31
0.0
  0
LINE
  5
461
330
1F
100
AcDbEntity
  8
0
370
    60
100
AcDbLine
 10
975.02738349
 20
2496.654303439644
 30
0.0
 11
867.61555198
 21
2496.654303439644
 31
0.0
  0
LINE
  5
462
330
1F
100
AcDbEntity
  8
0
370
    60
100
AcDbLine
 10
972.61639198
 20
2471.732489349503
 30
0.0
 11
878.86564198
 21
2471.732489349503
 31
0.0
  0
LINE
  5
463
330
1F
100
AcDbEntity
  8
0
370
    60
100
AcDbLine
 10
975.02738349
 20
2489.462827867188
 30
0.0
 11
867.61555198
 21
2489.462827867188
 31
0.0
  0
LINE
  5
464
330
1F
100
AcDbEntity
  8
0
370
    60
100
AcDbLine
 10
991.552265688
 20
2548.432874371008
 30
0.0
 11
867.61555198
 21
2548.432874371008
 31
0.0
  0
LINE
  5
465
330
1F
100
AcDbEntity
  8
0
370
    60
100
AcDbLine
 10
991.552265688
 20
2531.173342668081
 30
0.0
 11
867.61555198
 21
2531.173342668081
 31
0.0
  0
LINE
  5
466
330
1F
100
AcDbEntity
  8
0
370
    60
100
AcDbLine
 10
991.552265688
 20
2513.913810965155
 30
0.0
 11
867.61555198
 21
2513.913810965155
 31
0.0
  0
LINE
  5
467
330
1F
100
AcDbEntity
  8
0
370
    60
100
AcDbLine
 10
815.11513198
 20
2471.732489349503
 30
0.0
 11
815.11513198
 21
2461.495699035281
 31
0.0
  0
LINE
  5
468
330
1F
100
AcDbEntity
  8
0
370
    60
100
AcDbLine
 10
878.86564198
 20
2465.155748747111
 30
0.0
 11
878.86564198
 21
2471.732489349503
 31
0.0
  0
ELLIPSE
  5
469
330
1F
100
AcDbEntity
  8
0
370
    60
100
AcDbEllipse
 10
867.61555198
 20
2465.155748747111
 30
0.0
 11
5.065401634000015
 21
0.0
 31
0.0
210
0.0
220
0.0
230
1.0
 40
0.8703800000000003
 41
0.0
 42
6.283185307179586
  0
LINE
  5
46A
330
1F
100
AcDbEntity
  8
0
370
    60
100
AcDbLine
 10
856.3654619800001
 20
2465.155748747111
 30
0.0
 11
856.3654619800001
 21
2471.732489349503
 31
0.0
  0
LINE
  5
46B
330
1F
100
AcDbEntity
  8
0
370
    60
100
AcDbLine
 10
815.11513198
 20
2461.495699035281
 30
0.0
 11
857.9896138619999
 21
2461.495699035281
 31
0.0
  0
ELLIPSE
  5
46C
330
1F
100
AcDbEntity
  8
0
370
    60
100
AcDbEllipse
 10
867.61555198
 20
2465.155748747111
 30
0.0
 11
11.25009000000003
 21
0.0
 31
0.0
210
0.0
220
0.0
230
1.0
 40
0.8703800000000002
 41
3.141592653589793
 42
6.283185307179586
  0
LINE
  5
46D
330
1F
100
AcDbEntity
  8
0
370
    60
100
AcDbLine
 10
873.749434384
 20
2456.947371072837
 30
0.0
 11
873.749434384
 21
2437.701253659018
 31
0.0
  0
LINE
  5
46E
330
1F
100
AcDbEntity
  8
0
370
    60
100
AcDbLine
 10
760.203748248
 20
2496.654303439644
 30
0.0
 11
867.61555198
 21
2496.654303439644
 31
0.0
  0
LINE
  5
46F
330
1F
100
AcDbEntity
  8
0
370
    60
100
AcDbLine
 10
760.203748248
 20
2489.462827867188
 30
0.0
 11
867.61555198
 21
2489.462827867188
 31
0.0
  0
LINE
  5
470
330
1F
100
AcDbEntity
  8
0
370
    60
100
AcDbLine
 10
762.61471198
 20
2471.732489349503
 30
0.0
 11
856.3654619800001
 21
2471.732489349503
 31
0.0
  0
LINE
  5
471
330
1F
100
AcDbEntity
  8
0
370
    60
100
AcDbLine
 10
920.11597198
 20
2471.732489349503
 30
0.0
 11
920.11597198
 21
2461.495699035281
 31
0.0
  0
ELLIPSE
  5
472
330
1F
100
AcDbEntity
  8
0
370
    60
100
AcDbEllipse
 10
972.61639198
 20
2497.844098240703
 30
0.0
 11
30.00023999999987
 21
0.0
 31
0.0
210
0.0
220
0.0
230
1.0
 40
0.87038
 41
4.71238898038469
 42
6.283185307179586
  0
LINE
  5
473
330
1F
100
AcDbEntity
  8
0
370
    60
100
AcDbLine
 10
916.918279732
 20
2461.495699035281
 30
0.0
 11
916.918279732
 21
2437.701253659018
 31
0.0
  0
ELLIPSE
  5
474
330
1F
100
AcDbEntity
  8
0
370
    60
100
AcDbEllipse
 10
975.02738349
 20
2503.845754834683
 30
0.0
 11
8.262454987999744
 21
0.0
 31
0.0
210
0.0
220
0.0
230
1.0
 40
0.8703800000000002
 41
4.71238898038469
 42
6.283185307179586
  0
ELLIPSE
  5
475
330
1F
100
AcDbEntity
  8
0
370
    60
100
AcDbEllipse
 10
975.02738349
 20
2503.845754834683
 30
0.0
 11
16.52488219800003
 21
0.0
 31
0.0
210
0.0
220
0.0
230
1.0
 40
0.8703800000000002
 41
4.71238898038469
 42
6.283185307179586
  0
LINE
  5
476
330
1F
100
AcDbEntity
  8
0
370
    60
100
AcDbLine
 10
975.02738349
 20
2681.815131102748
 30
0.0
 11
867.61555198
 21
2681.815131102748
 31
0.0
  0
LINE
  5
477
330
1F
100
AcDbEntity
  8
0
370
    60
100
AcDbLine
 10
966.553732368
 20
2597.864471033951
 30
0.0
 11
867.61555198
 21
2597.864471033951
 31
0.0
  0
LINE
  5
478
330
1F
100
AcDbEntity
  8
0
370
    60
100
AcDbLine
 10
966.553732368
 20
2580.60496350844
 30
0.0
 11
867.61555198
 21
2580.60496350844
 31
0.0
  0
LINE
  5
479
330
1F
100
AcDbEntity
  8
0
370
    60
100
AcDbLine
 10
972.61639198
 20
2706.736969370303
 30
0.0
 11
878.86564198
 21
2706.736969370303
 31
0.0
  0
LINE
  5
47A
330
1F
100
AcDbEntity
  8
0
370
    60
100
AcDbLine
 10
975.02738349
 20
2689.006606675203
 30
0.0
 11
867.61555198
 21
2689.006606675203
 31
0.0
  0
LINE
  5
47B
330
1F
100
AcDbEntity
  8
0
370
    60
100
AcDbLine
 10
991.552265688
 20
2664.555623577237
 30
0.0
 11
867.61555198
 21
2664.555623577237
 31
0.0
  0
LINE
  5
47C
330
1F
100
AcDbEntity
  8
0
370
    60
100
AcDbLine
 10
991.552265688
 20
2647.29609187431
 30
0.0
 11
867.61555198
 21
2647.29609187431
 31
0.0
  0
LINE
  5
47D
330
1F
100
AcDbEntity
  8
0
370
    60
100
AcDbLine
 10
991.552265688
 20
2630.036560171383
 30
0.0
 11
867.61555198
 21
2630.036560171383
 31
0.0
  0
LINE
  5
47E
330
1F
100
AcDbEntity
  8
0
370
    60
100
AcDbLine
 10
991.552265688
 20
2612.777028468456
 30
0.0
 11
867.61555198
 21
2612.777028468456
 31
0.0
  0
LINE
  5
47F
330
1F
100
AcDbEntity
  8
0
370
    60
100
AcDbLine
 10
991.552265688
 20
2565.692406073934
 30
0.0
 11
867.61555198
 21
2565.692406073934
 31
0.0
  0
LINE
  5
480
330
1F
100
AcDbEntity
  8
0
370
    60
100
AcDbLine
 10
903.970342816
 20
2689.006606675203
 30
0.0
 11
903.970342816
 21
2589.234729359903
 31
0.0
  0
LINE
  5
481
330
1F
100
AcDbEntity
  8
0
370
    60
100
AcDbLine
 10
884.1404619560001
 20
2689.006606675203
 30
0.0
 11
884.1404619560001
 21
2589.234729359903
 31
0.0
  0
LINE
  5
482
330
1F
100
AcDbEntity
  8
0
370
    60
100
AcDbLine
 10
851.0906697820001
 20
2689.006606675203
 30
0.0
 11
851.0906697820001
 21
2589.234729359903
 31
0.0
  0
LINE
  5
483
330
1F
100
AcDbEntity
  8
0
370
    60
100
AcDbLine
 10
831.260788922
 20
2689.006606675203
 30
0.0
 11
831.260788922
 21
2589.234729359903
 31
0.0
  0
LINE
  5
484
330
1F
100
AcDbEntity
  8
0
370
    60
100
AcDbLine
 10
811.4309080620001
 20
2689.006606675203
 30
0.0
 11
811.4309080620001
 21
2589.234729359903
 31
0.0
  0
LINE
  5
485
330
1F
100
AcDbEntity
  8
0
370
    60
100
AcDbLine
 10
791.6010549800001
 20
2689.006606675203
 30
0.0
 11
791.6010549800001
 21
2589.234729359903
 31
0.0
  0
LINE
  5
486
330
1F
100
AcDbEntity
  8
0
370
    60
100
AcDbLine
 10
771.77117412
 20
2689.006606675203
 30
0.0
 11
771.77117412
 21
2589.234729359903
 31
0.0
  0
LINE
  5
487
330
1F
100
AcDbEntity
  8
0
370
    60
100
AcDbLine
 10
768.67739937
 20
2580.60496350844
 30
0.0
 11
867.61555198
 21
2580.60496350844
 31
0.0
  0
LINE
  5
488
330
1F
100
AcDbEntity
  8
0
370
    60
100
AcDbLine
 10
768.67739937
 20
2597.864471033951
 30
0.0
 11
867.61555198
 21
2597.864471033951
 31
0.0
  0
LINE
  5
489
330
1F
100
AcDbEntity
  8
0
370
    60
100
AcDbLine
 10
778.7180908060001
 20
2597.864471033951
 30
0.0
 11
778.7180908060001
 21
2580.60496350844
 31
0.0
  0
LINE
  5
48A
330
1F
100
AcDbEntity
  8
0
370
    60
100
AcDbLine
 10
760.203748248
 20
2681.815131102748
 30
0.0
 11
867.61555198
 21
2681.815131102748
 31
0.0
  0
LINE
  5
48B
330
1F
100
AcDbEntity
  8
0
370
    60
100
AcDbLine
 10
760.203748248
 20
2689.006606675203
 30
0.0
 11
867.61555198
 21
2689.006606675203
 31
0.0
  0
LINE
  5
48C
330
1F
100
AcDbEntity
  8
0
370
    60
100
AcDbLine
 10
762.61471198
 20
2706.736969370303
 30
0.0
 11
856.3654619800001
 21
2706.736969370303
 31
0.0
  0
ELLIPSE
  5
48D
330
1F
100
AcDbEntity
  8
0
370
    60
100
AcDbEllipse
 10
867.61555198
 20
2713.31368579528
 30
0.0
 11
5.065401634000015
 21
0.0
 31
0.0
210
0.0
220
0.0
230
1.0
 40
0.8703800000000003
 41
0.0
 42
6.283185307179586
  0
LINE
  5
48E
330
1F
100
AcDbEntity
  8
0
370
    60
100
AcDbLine
 10
856.3654619800001
 20
2713.31368579528
 30
0.0
 11
856.3654619800001
 21
2706.736969370303
 31
0.0
  0
LINE
  5
48F
330
1F
100
AcDbEntity
  8
0
370
    60
100
AcDbLine
 10
878.86564198
 20
2713.31368579528
 30
0.0
 11
878.86564198
 21
2706.736969370303
 31
0.0
  0
LINE
  5
490
330
1F
100
AcDbEntity
  8
0
370
    60
100
AcDbLine
 10
983.2898107
 20
2674.623679707708
 30
0.0
 11
983.2898107
 21
2589.234729359903
 31
0.0
  0
LINE
  5
491
330
1F
100
AcDbEntity
  8
0
370
    60
100
AcDbLine
 10
1002.61663198
 20
2680.625360479104
 30
0.0
 11
1002.61663198
 21
2589.234729359903
 31
0.0
  0
LINE
  5
492
330
1F
100
AcDbEntity
  8
0
370
    60
100
AcDbLine
 10
991.552265688
 20
2674.623679707708
 30
0.0
 11
991.552265688
 21
2589.234729359903
 31
0.0
  0
LINE
  5
493
330
1F
100
AcDbEntity
  8
0
370
    60
100
AcDbLine
 10
963.459957618
 20
2689.006606675203
 30
0.0
 11
963.459957618
 21
2589.234729359903
 31
0.0
  0
LINE
  5
494
330
1F
100
AcDbEntity
  8
0
370
    60
100
AcDbLine
 10
943.6300767580001
 20
2689.006606675203
 30
0.0
 11
943.6300767580001
 21
2589.234729359903
 31
0.0
  0
LINE
  5
495
330
1F
100
AcDbEntity
  8
0
370
    60
100
AcDbLine
 10
923.800195898
 20
2689.006606675203
 30
0.0
 11
923.800195898
 21
2589.234729359903
 31
0.0
  0
ELLIPSE
  5
496
330
1F
100
AcDbEntity
  8
0
370
    60
100
AcDbEllipse
 10
966.28592467
 20
2575.71092267976
 30
0.0
 11
25.45414807599993
 21
0.0
 31
0.0
210
0.0
220
0.0
230
1.0
 40
0.8703800000000002
 41
0.8831213298781759
 42
1.560275377344118
  0
ELLIPSE
  5
497
330
1F
100
AcDbEntity
  8
0
370
    60
100
AcDbEllipse
 10
966.28592467
 20
2602.758511862631
 30
0.0
 11
25.45414807600008
 21
0.0
 31
0.0
210
0.0
220
0.0
230
1.0
 40
0.87038
 41
4.722909929835466
 42
5.40006397730141
  0
LINE
  5
498
330
1F
100
AcDbEntity
  8
0
370
    60
100
AcDbLine
 10
956.5130409320001
 20
2597.864471033951
 30
0.0
 11
956.5130409320001
 21
2580.60496350844
 31
0.0
  0
LINE
  5
499
330
1F
100
AcDbEntity
  8
0
370
    60
100
AcDbLine
 10
991.552265688
 20
2592.830442968715
 30
0.0
 11
982.4427761460001
 21
2592.830442968715
 31
0.0
  0
LINE
  5
49A
330
1F
100
AcDbEntity
  8
0
370
    60
100
AcDbLine
 10
991.552265688
 20
2585.638991573675
 30
0.0
 11
982.4427761460001
 21
2585.638991573675
 31
0.0
  0
ELLIPSE
  5
49B
330
1F
100
AcDbEntity
  8
0
370
    60
100
AcDbEllipse
 10
975.02738349
 20
2674.623679707708
 30
0.0
 11
8.26245498800006
 21
0.0
 31
0.0
210
0.0
220
0.0
230
1.0
 40
0.8703800000000002
 41
0.0
 42
1.570796326794897
  0
ELLIPSE
  5
49C
330
1F
100
AcDbEntity
  8
0
370
    60
100
AcDbEllipse
 10
972.61639198
 20
2680.625360479104
 30
0.0
 11
30.00023999999987
 21
0.0
 31
0.0
210
0.0
220
0.0
230
1.0
 40
0.87038
 41
0.0
 42
1.570796326794897
  0
ELLIPSE
  5
49D
330
1F
100
AcDbEntity
  8
0
370
    60
100
AcDbEllipse
 10
975.02738349
 20
2674.623679707708
 30
0.0
 11
16.52488219799988
 21
0.0
 31
0.0
210
0.0
220
0.0
230
1.0
 40
0.8703800000000002
 41
0.0
 42
1.570796326794897
  0
LINE
  5
49E
330
1F
100
AcDbEntity
  8
0
370
    60
100
AcDbLine
 10
1072.433412732
 20
2439.747799360697
 30
0.0
 11
1072.433412732
 21
2311.798884890904
 31
0.0
  0
ELLIPSE
  5
49F
330
1F
100
AcDbEntity
  8
0
370
    60
100
AcDbEllipse
 10
1061.183322732
 20
2311.798884890904
 30
0.0
 11
11.25009000000003
 21
0.0
 31
0.0
210
0.0
220
0.0
230
1.0
 40
0.8703800000000002
 41
4.71238898038469
 42
6.283185307179586
  0
LINE
  5
4A0
330
1F
100
AcDbEntity
  8
0
370
    60
100
AcDbLine
 10
1061.183322732
 20
2302.007031556704
 30
0.0
 11
1061.183322732
 21
2302.007031556704
 31
0.0
  0
LINE
  5
4A1
330
1F
100
AcDbEntity
  8
0
370
    60
100
AcDbLine
 10
1077.61723198
 20
2713.264871593103
 30
0.0
 11
1077.61723198
 21
2517.708577236931
 31
0.0
  0
LINE
  5
4A2
330
1F
100
AcDbEntity
  8
0
370
    60
100
AcDbLine
 10
1087.544033616
 20
2501.608449323605
 30
0.0
 11
1087.544033616
 21
2436.329427095604
 31
0.0
  0
LINE
  5
4A3
330
1F
100
AcDbEntity
  8
0
370
    60
100
AcDbLine
 10
1067.706208248
 20
2482.024742655205
 30
0.0
 11
1067.706208248
 21
2459.177084875404
 31
0.0
  0
LINE
  5
4A4
330
1F
100
AcDbEntity
  8
0
370
    60
100
AcDbLine
 10
1058.706136248
 20
2478.760791543804
 30
0.0
 11
1058.706136248
 21
2454.677208453903
 31
0.0
  0
LINE
  5
4A5
330
1F
100
AcDbEntity
  8
0
370
    60
100
AcDbLine
 10
1063.206172248
 20
2478.760791543804
 30
0.0
 11
1063.206172248
 21
2454.962622845534
 31
0.0
  0
LINE
  5
4A6
330
1F
100
AcDbEntity
  8
0
370
    60
100
AcDbLine
 10
1102.544153616
 20
2501.608449323605
 30
0.0
 11
1102.544153616
 21
2436.329427095604
 31
0.0
  0
LINE
  5
4A7
330
1F
100
AcDbEntity
  8
0
370
    60
100
AcDbLine
 10
1102.544153616
 20
2436.329427095604
 30
0.0
 11
1087.544033616
 21
2436.329427095604
 31
0.0
  0
LINE
  5
4A8
330
1F
100
AcDbEntity
  8
0
370
    60
100
AcDbLine
 10
1087.544033616
 20
2459.177084875404
 30
0.0
 11
1067.706208248
 21
2459.177084875404
 31
0.0
  0
LINE
  5
4A9
330
1F
100
AcDbEntity
  8
0
370
    60
100
AcDbLine
 10
1067.706208248
 20
2459.177084875404
 30
0.0
 11
1063.206172248
 21
2459.177084875404
 31
0.0
  0
ELLIPSE
  5
4AA
330
1F
100
AcDbEntity
  8
0
370
    60
100
AcDbEllipse
 10
1050.734822478
 20
2439.505807607557
 30
0.0
 11
21.70039582399994
 21
0.0
 31
0.0
210
0.0
220
0.0
230
1.0
 40
0.8703800000000002
 41
6.270372618247898
 42
7.241735945057897
  0
ELLIPSE
  5
4AB
330
1F
100
AcDbEntity
  8
0
370
    60
100
AcDbEllipse
 10
1055.918641726
 20
2517.46658548379
 30
0.0
 11
21.7003958240001
 21
0.0
 31
0.0
210
0.0
220
0.0
230
1.0
 40
0.87038
 41
5.286628641309236
 42
6.295997996111274
  0
LINE
  5
4AC
330
1F
100
AcDbEntity
  8
0
370
    60
100
AcDbLine
 10
1102.544153616
 20
2501.608449323605
 30
0.0
 11
1087.544033616
 21
2501.608449323605
 31
0.0
  0
LINE
  5
4AD
330
1F
100
AcDbEntity
  8
0
370
    60
100
AcDbLine
 10
1075.206268248
 20
2501.608449323605
 30
0.0
 11
1075.206268248
 21
2482.024742655205
 31
0.0
  0
LINE
  5
4AE
330
1F
100
AcDbEntity
  8
0
370
    60
100
AcDbLine
 10
1075.206268248
 20
2501.608449323605
 30
0.0
 11
1067.706208248
 21
2501.608449323605
 31
0.0
  0
LINE
  5
4AF
330
1F
100
AcDbEntity
  8
0
370
    60
100
AcDbLine
 10
1067.706208248
 20
2501.608449323605
 30
0.0
 11
1067.706208248
 21
2482.024742655205
 31
0.0
  0
LINE
  5
4B0
330
1F
100
AcDbEntity
  8
0
370
    60
100
AcDbLine
 10
1075.206268248
 20
2482.024742655205
 30
0.0
 11
1067.706208248
 21
2482.024742655205
 31
0.0
  0
LINE
  5
4B1
330
1F
100
AcDbEntity
  8
0
370
    60
100
AcDbLine
 10
1087.544033616
 20
2478.760791543804
 30
0.0
 11
1067.706208248
 21
2478.760791543804
 31
0.0
  0
LINE
  5
4B2
330
1F
100
AcDbEntity
  8
0
370
    60
100
AcDbLine
 10
1063.206172248
 20
2478.760791543804
 30
0.0
 11
1058.706136248
 21
2478.760791543804
 31
0.0
  0
LINE
  5
4B3
330
1F
100
AcDbEntity
  8
0
370
    60
100
AcDbLine
 10
1063.206172248
 20
2502.755135792579
 30
0.0
 11
1063.206172248
 21
2478.760791543804
 31
0.0
  0
ELLIPSE
  5
4B4
330
1F
100
AcDbEntity
  8
0
370
    60
100
AcDbEllipse
 10
1021.36678198
 20
2723.056724927303
 30
0.0
 11
33.75027000000009
 21
0.0
 31
0.0
210
0.0
220
0.0
230
1.0
 40
0.87038
 41
0.0
 42
1.570796326794897
  0
LINE
  5
4B5
330
1F
100
AcDbEntity
  8
0
370
    60
100
AcDbLine
 10
713.86432198
 20
2752.432284929904
 30
0.0
 11
867.61555198
 21
2752.432284929904
 31
0.0
  0
LINE
  5
4B6
330
1F
100
AcDbEntity
  8
0
370
    60
100
AcDbLine
 10
725.1144119800001
 20
2772.015991598304
 30
0.0
 11
867.61555198
 21
2772.015991598304
 31
0.0
  0
ELLIPSE
  5
4B7
330
1F
100
AcDbEntity
  8
0
370
    60
100
AcDbEllipse
 10
713.86432198
 20
2723.056724927303
 30
0.0
 11
33.75027000000009
 21
0.0
 31
0.0
210
0.0
220
0.0
230
1.0
 40
0.87038
 41
1.570796326794897
 42
3.141592653589793
  0
LINE
  5
4B8
330
1F
100
AcDbEntity
  8
0
370
    60
100
AcDbLine
 10
1010.11669198
 20
2772.015991598304
 30
0.0
 11
867.61555198
 21
2772.015991598304
 31
0.0
  0
LINE
  5
4B9
330
1F
100
AcDbEntity
  8
0
370
    60
100
AcDbLine
 10
1021.36678198
 20
2752.432284929904
 30
0.0
 11
867.61555198
 21
2752.432284929904
 31
0.0
  0
DIMENSION
  5
505
330
1F
100
AcDbEntity
  8
0
370
    25
100
AcDbDimension
  2
*D31
 10
1077.61723198
 20
2837.296966023218
 30
0.0
 11
867.61555198
 21
2849.296966023218
 31
0.0
 70
    32
 71
     5
 41
2.5
 42
420.00336
  3
ISO-25
100
AcDbAlignedDimension
 13
657.61387198
 23
2642.262356237013
 33
0.0
 14
1077.61723198
 24
2642.262356237013
 34
0.0
100
AcDbRotatedDimension
1001
ACAD
1000
DSTYLE
1002
{
1070
    41
1040
10.0
1070
   140
1040
14.0
1070
   147
1040
5.0
1070
   176
1070
     7
1070
   177
1070
     7
1002
}
  0
DIMENSION
  5
527
330
1F
100
AcDbEntity
  8
0
370
    25
100
AcDbDimension
  2
*D35
 10
1179.426552081929
 20
2302.007031556704
 30
0.0
 11
1167.426552081929
 21
2537.011511577503
 31
0.0
 70
    32
  1
470
 71
     5
 41
2.5
 42
470.0089600415999
  3
ISO-25
100
AcDbAlignedDimension
 13
938.8661219799999
 23
2772.015991598304
 33
0.0
 14
938.8661219799999
 24
2302.007031556704
 34
0.0
 50
90.0
100
AcDbRotatedDimension
1001
ACAD
1000
DSTYLE
1002
{
1070
    41
1040
10.0
1070
   140
1040
14.0
1070
   147
1040
5.0
1070
   176
1070
     7
1070
   177
1070
     7
1002
}
  0
DIMENSION
  5
554
330
1F
100
AcDbEntity
  8
0
370
    25
100
AcDbDimension
  2
*D39
 10
482.1731629100001
 20
2235.56350300511
 30
0.0
 11
294.1065246340546
 21
2247.56350300511
 31
0.0
 70
    32
  1
376
 71
     5
 41
2.5
 42
376.1332765518911
  3
ISO-25
100
AcDbAlignedDimension
 13
106.039886358109
 23
2371.263019135848
 33
0.0
 14
482.1731629100001
 24
2315.062836002303
 34
0.0
100
AcDbRotatedDimension
1001
ACAD
1000
DSTYLE
1002
{
1070
    41
1040
10.0
1070
   140
1040
14.0
1070
   147
1040
5.0
1070
   176
1070
     7
1070
   177
1070
     7
1002
}
  0
VIEWPORT
  5
BB
330
73
100
AcDbEntity
 67
     1
  8
0
100
AcDbViewport
 10
7.8
 20
4.5
 30
0.0
 40
15.64
 41
9.0
 68
     1
 69
     1
 12
6.0
 22
4.5
 13
0.0
 23
0.0
 14
0.5
 24
0.5
 15
0.5
 25
0.5
 16
0.0
 26
0.0
 36
1.0
 17
0.0
 27
0.0
 37
0.0
 42
50.0
 43
0.0
 44
0.0
 45
12.0
 50
0.0
 51
0.0
 72
   100
 90
   557152
  1

281
     0
 71
     1
 74
     0
110
0.0
120
0.0
130
0.0
111
1.0
121
0.0
131
0.0
112
0.0
122
1.0
132
0.0
 79
     0
146
0.0
  0
ENDSEC
  0
SECTION
  2
OBJECTS
  0
DICTIONARY
  5
C
330
0
100
AcDbDictionary
281
     1
  3
ACAD_COLOR
350
6C
  3
ACAD_GROUP
350
D
  3
ACAD_LAYOUT
350
1A
  3
ACAD_MATERIAL
350
6B
  3
ACAD_MLEADERSTYLE
350
5E2
  3
ACAD_MLINESTYLE
350
17
  3
ACAD_PLOTSETTINGS
350
19
  3
ACAD_PLOTSTYLENAME
350
E
  3
ACAD_SCALELIST
350
99
  3
ACAD_TABLESTYLE
350
92
  3
ACDBHEADERROUNDTRIPXREC
350
5E3
  3
AcDbVariableDictionary
350
59
  3
DWGPROPS
350
5E6
  0
DICTIONARY
  5
6C
102
{ACAD_REACTORS
330
C
102
}
330
C
100
AcDbDictionary
281
     1
  0
DICTIONARY
  5
D
102
{ACAD_REACTORS
330
C
102
}
330
C
100
AcDbDictionary
281
     1
  0
DICTIONARY
  5
1A
102
{ACAD_REACTORS
330
C
102
}
330
C
100
AcDbDictionary
281
     1
  3
Layout1
350
74
  3
Layout2
350
590
  3
Model
350
22
  0
DICTIONARY
  5
6B
102
{ACAD_REACTORS
330
C
102
}
330
C
100
AcDbDictionary
281
     1
  0
DICTIONARY
  5
5E2
102
{ACAD_REACTORS
330
C
102
}
330
C
100
AcDbDictionary
281
     1
  0
DICTIONARY
  5
17
102
{ACAD_REACTORS
330
C
102
}
330
C
100
AcDbDictionary
281
     1
  3
Standard
350
18
  0
DICTIONARY
  5
19
102
{ACAD_REACTORS
330
C
102
}
330
C
100
AcDbDictionary
281
     1
  0
ACDBDICTIONARYWDFLT
  5
E
102
{ACAD_REACTORS
330
C
102
}
330
C
100
AcDbDictionary
281
     1
  3
Normal
350
F
100
AcDbDictionaryWithDefault
340
F
  0
DICTIONARY
  5
99
102
{ACAD_REACTORS
330
C
102
}
330
C
100
AcDbDictionary
281
     1
  3
A0
350
D5
  3
A1
350
D6
  3
A2
350
D7
  3
A3
350
D8
  3
A4
350
D9
  3
A5
350
DA
  3
A6
350
DB
  3
A7
350
DC
  3
A8
350
DD
  3
A9
350
DE
  3
B0
350
DF
  3
B1
350
E0
  3
B2
350
E1
  3
B3
350
E2
  3
B4
350
E3
  3
B5
350
E4
  3
B6
350
E5
  3
B7
350
E6
  3
B8
350
E7
  3
B9
350
E8
  3
C0
350
E9
  3
C1
350
EA
  3
C2
350
EB
  3
C3
350
EC
  3
C4
350
ED
  3
C5
350
EE
  3
C6
350
EF
  3
C7
350
F0
  3
C8
350
F1
  3
C9
350
F2
  3
D0
350
F3
  3
D1
350
F4
  3
D2
350
F5
  0
DICTIONARY
  5
92
102
{ACAD_REACTORS
330
C
102
}
330
C
100
AcDbDictionary
281
     1
  0
DICTIONARY
  5
5E3
102
{ACAD_REACTORS
330
C
102
}
330
C
100
AcDbDictionary
281
     1
  3
COLORDICT
350
5E4
  3
MATERIALDICT
350
5E5
  0
DICTIONARY
  5
59
102
{ACAD_REACTORS
330
C
102
}
330
C
100
AcDbDictionary
281
     1
  3
CTABLESTYLE
350
98
  3
DIMASSOC
350
5A
  3
HIDETEXT
350
5E
  0
XRECORD
  5
5E6
102
{ACAD_REACTORS
330
C
102
}
330
C
100
AcDbXrecord
280
     1
  1
DWGPROPS COOKIE
  2

  3

  4

  6

  7

  8
BelottiMc
  9

300
=
301
=
302
=
303
=
304
=
305
=
306
=
307
=
308
=
309
=
 40
0.0
 41
2455091.637344815
 42
2455091.67901147
  1

 90
        0
  0
LAYOUT
  5
74
102
{ACAD_REACTORS
330
1A
102
}
330
1A
100
AcDbPlotSettings
  1

  2
ProgeSOFT PDF Wizard
  4
A4
  6

 40
5.926666666666667
 41
6.011333333333317
 42
6.095999999999985
 43
5.926666666666667
 44
210.0
 45
297.0
 46
88.56200000000001
 47
136.531
 48
0.0
 49
0.0
140
0.0
141
0.0
142
1.0
143
1.0
 70
   692
 72
     1
 73
     0
 74
     0
  7

 75
    16
147
1.0
148
4.426666666666668
149
1.5
100
AcDbLayout
  1
Layout1
 70
     1
 71
     1
 10
0.0
 20
0.0
 11
0.0
 21
0.0
 12
0.0
 22
0.0
 32
0.0
 14
0.0
 24
0.0
 34
0.0
 15
0.0
 25
0.0
 35
0.0
146
0.0
 13
0.0
 23
0.0
 33
0.0
 16
1.0
 26
0.0
 36
0.0
 17
0.0
 27
1.0
 37
0.0
 76
     0
330
D1
331
5E1
1001
PROGE_PRINT_SETTINGS
1070
    73
1070
     1
  0
LAYOUT
  5
590
102
{ACAD_REACTORS
330
1A
102
}
330
1A
100
AcDbPlotSettings
  1

  2
ProgeSOFT PDF Wizard
  4
A4
  6

 40
5.926666666666667
 41
6.011333333333317
 42
6.095999999999985
 43
5.926666666666667
 44
210.0
 45
297.0
 46
88.562
 47
136.531
 48
0.0
 49
0.0
140
0.0
141
0.0
142
1.0
143
1.0
 70
   692
 72
     1
 73
     0
 74
     0
  7

 75
    16
147
1.0
148
0.0
149
0.0
100
AcDbLayout
  1
Layout2
 70
     1
 71
     2
 10
0.0
 20
0.0
 11
12.0
 21
9.0
 12
0.0
 22
0.0
 32
0.0
 14
0.0
 24
0.0
 34
0.0
 15
12.0
 25
9.0
 35
0.0
146
0.0
 13
0.0
 23
0.0
 33
0.0
 16
1.0
 26
0.0
 36
0.0
 17
0.0
 27
1.0
 37
0.0
 76
     0
330
73
331
BB
1001
PROGE_PRINT_SETTINGS
1070
    73
1070
     1
  0
LAYOUT
  5
22
102
{ACAD_REACTORS
330
1A
102
}
330
1A
100
AcDbPlotSettings
  1

  2
ProgeSOFT PDF Wizard
  4
A4
  6

 40
5.926666666666667
 41
6.011333333333317
 42
6.095999999999985
 43
5.926666666666667
 44
210.0
 45
297.0
 46
0.0000000000000061
 47
83.07219027892849
 48
0.0
 49
0.0
140
0.0
141
0.0
142
1.0
143
10.6512460405621
 70
 11956
 72
     1
 73
     0
 74
     0
  7

 75
     0
147
0.0938857290679229
148
336.3430593315958
149
-1756.780146358569
100
AcDbLayout
  1
Model
 70
     1
 71
     0
 10
0.0
 20
0.0
 11
0.0
 21
0.0
 12
0.0
 22
0.0
 32
0.0
 14
0.0
 24
0.0
 34
0.0
 15
1642.835268686765
 25
3080.3202861768
 35
0.0
146
0.0
 13
0.0
 23
0.0
 33
0.0
 16
1.0
 26
0.0
 36
0.0
 17
0.0
 27
1.0
 37
0.0
 76
     0
330
1F
331
97
1001
PROGE_PRINT_SETTINGS
1070
    73
1070
     1
  0
MLINESTYLE
  5
18
102
{ACAD_REACTORS
330
17
102
}
330
17
100
AcDbMlineStyle
  2
STANDARD
 70
     0
  3

 62
   256
 51
90.0
 52
90.0
 71
     2
 49
0.5
 62
   256
  6
BYLAYER
 49
-0.5
 62
   256
  6
BYLAYER
  0
ACDBPLACEHOLDER
  5
F
102
{ACAD_REACTORS
330
E
102
}
330
E
  0
SCALE
  5
D5
102
{ACAD_REACTORS
330
99
102
}
330
99
100
AcDbScale
 70
     0
300
1:1
140
1.0
141
1.0
290
     1
  0
SCALE
  5
D6
102
{ACAD_REACTORS
330
99
102
}
330
99
100
AcDbScale
 70
     0
300
1:2
140
1.0
141
2.0
290
     0
  0
SCALE
  5
D7
102
{ACAD_REACTORS
330
99
102
}
330
99
100
AcDbScale
 70
     0
300
1:4
140
1.0
141
4.0
290
     0
  0
SCALE
  5
D8
102
{ACAD_REACTORS
330
99
102
}
330
99
100
AcDbScale
 70
     0
300
1:5
140
1.0
141
5.0
290
     0
  0
SCALE
  5
D9
102
{ACAD_REACTORS
330
99
102
}
330
99
100
AcDbScale
 70
     0
300
1:8
140
1.0
141
8.0
290
     0
  0
SCALE
  5
DA
102
{ACAD_REACTORS
330
99
102
}
330
99
100
AcDbScale
 70
     0
300
1:10
140
1.0
141
10.0
290
     0
  0
SCALE
  5
DB
102
{ACAD_REACTORS
330
99
102
}
330
99
100
AcDbScale
 70
     0
300
1:16
140
1.0
141
16.0
290
     0
  0
SCALE
  5
DC
102
{ACAD_REACTORS
330
99
102
}
330
99
100
AcDbScale
 70
     0
300
1:20
140
1.0
141
20.0
290
     0
  0
SCALE
  5
DD
102
{ACAD_REACTORS
330
99
102
}
330
99
100
AcDbScale
 70
     0
300
1:30
140
1.0
141
30.0
290
     0
  0
SCALE
  5
DE
102
{ACAD_REACTORS
330
99
102
}
330
99
100
AcDbScale
 70
     0
300
1:40
140
1.0
141
40.0
290
     0
  0
SCALE
  5
DF
102
{ACAD_REACTORS
330
99
102
}
330
99
100
AcDbScale
 70
     0
300
1:50
140
1.0
141
50.0
290
     0
  0
SCALE
  5
E0
102
{ACAD_REACTORS
330
99
102
}
330
99
100
AcDbScale
 70
     0
300
1:100
140
1.0
141
100.0
290
     0
  0
SCALE
  5
E1
102
{ACAD_REACTORS
330
99
102
}
330
99
100
AcDbScale
 70
     0
300
2:1
140
2.0
141
1.0
290
     0
  0
SCALE
  5
E2
102
{ACAD_REACTORS
330
99
102
}
330
99
100
AcDbScale
 70
     0
300
4:1
140
4.0
141
1.0
290
     0
  0
SCALE
  5
E3
102
{ACAD_REACTORS
330
99
102
}
330
99
100
AcDbScale
 70
     0
300
8:1
140
8.0
141
1.0
290
     0
  0
SCALE
  5
E4
102
{ACAD_REACTORS
330
99
102
}
330
99
100
AcDbScale
 70
     0
300
10:1
140
10.0
141
1.0
290
     0
  0
SCALE
  5
E5
102
{ACAD_REACTORS
330
99
102
}
330
99
100
AcDbScale
 70
     0
300
100:1
140
100.0
141
1.0
290
     0
  0
SCALE
  5
E6
102
{ACAD_REACTORS
330
99
102
}
330
99
100
AcDbScale
 70
     0
300
1/128" = 1'-0"
140
0.0078125
141
12.0
290
     0
  0
SCALE
  5
E7
102
{ACAD_REACTORS
330
99
102
}
330
99
100
AcDbScale
 70
     0
300
1/64" = 1'-0"
140
0.015625
141
12.0
290
     0
  0
SCALE
  5
E8
102
{ACAD_REACTORS
330
99
102
}
330
99
100
AcDbScale
 70
     0
300
1/32" = 1'-0"
140
0.03125
141
12.0
290
     0
  0
SCALE
  5
E9
102
{ACAD_REACTORS
330
99
102
}
330
99
100
AcDbScale
 70
     0
300
1/16" = 1'-0"
140
0.0625
141
12.0
290
     0
  0
SCALE
  5
EA
102
{ACAD_REACTORS
330
99
102
}
330
99
100
AcDbScale
 70
     0
300
3/32" = 1'-0"
140
0.09375
141
12.0
290
     0
  0
SCALE
  5
EB
102
{ACAD_REACTORS
330
99
102
}
330
99
100
AcDbScale
 70
     0
300
1/8" = 1'-0"
140
0.125
141
12.0
290
     0
  0
SCALE
  5
EC
102
{ACAD_REACTORS
330
99
102
}
330
99
100
AcDbScale
 70
     0
300
3/16" = 1'-0"
140
0.1875
141
12.0
290
     0
  0
SCALE
  5
ED
102
{ACAD_REACTORS
330
99
102
}
330
99
100
AcDbScale
 70
     0
300
1/4" = 1'-0"
140
0.25
141
12.0
290
     0
  0
SCALE
  5
EE
102
{ACAD_REACTORS
330
99
102
}
330
99
100
AcDbScale
 70
     0
300
3/8" = 1'-0"
140
0.375
141
12.0
290
     0
  0
SCALE
  5
EF
102
{ACAD_REACTORS
330
99
102
}
330
99
100
AcDbScale
 70
     0
300
1/2" = 1'-0"
140
0.5
141
12.0
290
     0
  0
SCALE
  5
F0
102
{ACAD_REACTORS
330
99
102
}
330
99
100
AcDbScale
 70
     0
300
3/4" = 1'-0"
140
0.75
141
12.0
290
     0
  0
SCALE
  5
F1
102
{ACAD_REACTORS
330
99
102
}
330
99
100
AcDbScale
 70
     0
300
1" = 1'-0"
140
1.0
141
12.0
290
     0
  0
SCALE
  5
F2
102
{ACAD_REACTORS
330
99
102
}
330
99
100
AcDbScale
 70
     0
300
1-1/2" = 1'-0"
140
1.5
141
12.0
290
     0
  0
SCALE
  5
F3
102
{ACAD_REACTORS
330
99
102
}
330
99
100
AcDbScale
 70
     0
300
3" = 1'-0"
140
3.0
141
12.0
290
     0
  0
SCALE
  5
F4
102
{ACAD_REACTORS
330
99
102
}
330
99
100
AcDbScale
 70
     0
300
6" = 1'-0"
140
6.0
141
12.0
290
     0
  0
SCALE
  5
F5
102
{ACAD_REACTORS
330
99
102
}
330
99
100
AcDbScale
 70
     0
300
1'-0" = 1'-0"
140
12.0
141
12.0
290
     0
  0
XRECORD
  5
5E4
102
{ACAD_REACTORS
330
5E3
102
}
330
5E3
100
AcDbXrecord
280
     1
340
6C
  0
XRECORD
  5
5E5
102
{ACAD_REACTORS
330
5E3
102
}
330
5E3
100
AcDbXrecord
280
     1
340
6B
  0
DICTIONARYVAR
  5
98
102
{ACAD_REACTORS
330
59
102
}
330
59
100
DictionaryVariables
280
     0
  1
Standard
  0
DICTIONARYVAR
  5
5A
102
{ACAD_REACTORS
330
59
102
}
330
59
100
DictionaryVariables
280
     0
  1
2
  0
DICTIONARYVAR
  5
5E
102
{ACAD_REACTORS
330
59
102
}
330
59
100
DictionaryVariables
280
     0
  1
1
  0
ENDSEC
  0
EOF
