  0
SECTION
  2
HEADER
  9
$ACADVER
  1
AC1015
  9
$ACADMAINTVER
 70
     6
  9
$DWGCODEPAGE
  3
ANSI_1252
  9
$INSBASE
 10
0.0
 20
0.0
 30
0.0
  9
$EXTMIN
 10
129.5316175817671
 20
32.07939914163091
 30
0.0
  9
$EXTMAX
 10
671.960846581767
 20
681.1382755274625
 30
0.0
  9
$LIMMIN
 10
0.0
 20
0.0
  9
$LIMMAX
 10
0.0
 20
0.0
  9
$ORTHOMODE
 70
     0
  9
$REGENMODE
 70
     1
  9
$FILLMODE
 70
     1
  9
$QTEXTMODE
 70
     0
  9
$MIRRTEXT
 70
     0
  9
$LTSCALE
 40
1.0
  9
$ATTMODE
 70
     1
  9
$TEXTSIZE
 40
2.5
  9
$TRACEWID
 40
1.0
  9
$TEXTSTYLE
  7
Standard
  9
$CLAYER
  8
0
  9
$CELTYPE
  6
ByLayer
  9
$CECOLOR
 62
   256
  9
$CELTSCALE
 40
1.0
  9
$DISPSILH
 70
     0
  9
$DIMSCALE
 40
1.0
  9
$DIMASZ
 40
2.5
  9
$DIMEXO
 40
0.625
  9
$DIMDLI
 40
3.75
  9
$DIMRND
 40
0.0
  9
$DIMDLE
 40
0.0
  9
$DIMEXE
 40
1.25
  9
$DIMTP
 40
0.0
  9
$DIMTM
 40
0.0
  9
$DIMTXT
 40
2.5
  9
$DIMCEN
 40
2.5
  9
$DIMTSZ
 40
0.0
  9
$DIMTOL
 70
     0
  9
$DIMLIM
 70
     0
  9
$DIMTIH
 70
     0
  9
$DIMTOH
 70
     0
  9
$DIMSE1
 70
     0
  9
$DIMSE2
 70
     0
  9
$DIMTAD
 70
     1
  9
$DIMZIN
 70
     8
  9
$DIMBLK
  1

  9
$DIMASO
 70
     1
  9
$DIMSHO
 70
     1
  9
$DIMPOST
  1

  9
$DIMAPOST
  1

  9
$DIMALT
 70
     0
  9
$DIMALTD
 70
     3
  9
$DIMALTF
 40
0.03937007874016
  9
$DIMLFAC
 40
1.0
  9
$DIMTOFL
 70
     1
  9
$DIMTVP
 40
0.0
  9
$DIMTIX
 70
     0
  9
$DIMSOXD
 70
     0
  9
$DIMSAH
 70
     0
  9
$DIMBLK1
  1

  9
$DIMBLK2
  1

  9
$DIMSTYLE
  2
ISO-25
  9
$DIMCLRD
 70
     0
  9
$DIMCLRE
 70
     0
  9
$DIMCLRT
 70
     0
  9
$DIMTFAC
 40
1.0
  9
$DIMGAP
 40
0.625
  9
$DIMJUST
 70
     0
  9
$DIMSD1
 70
     0
  9
$DIMSD2
 70
     0
  9
$DIMTOLJ
 70
     0
  9
$DIMTZIN
 70
     8
  9
$DIMALTZ
 70
     0
  9
$DIMALTTZ
 70
     0
  9
$DIMUPT
 70
     0
  9
$DIMDEC
 70
     2
  9
$DIMTDEC
 70
     2
  9
$DIMALTU
 70
     2
  9
$DIMALTTD
 70
     3
  9
$DIMTXSTY
  7
Standard
  9
$DIMAUNIT
 70
     0
  9
$DIMADEC
 70
     0
  9
$DIMALTRND
 40
0.0
  9
$DIMAZIN
 70
     0
  9
$DIMDSEP
 70
    44
  9
$DIMATFIT
 70
     3
  9
$DIMFRAC
 70
     0
  9
$DIMLDRBLK
  1

  9
$DIMLUNIT
 70
     2
  9
$DIMLWD
 70
    -2
  9
$DIMLWE
 70
    -2
  9
$DIMTMOVE
 70
     0
  9
$LUNITS
 70
     2
  9
$LUPREC
 70
     4
  9
$SKETCHINC
 40
1.0
  9
$FILLETRAD
 40
0.0
  9
$AUNITS
 70
     0
  9
$AUPREC
 70
     0
  9
$MENU
  1
.
  9
$ELEVATION
 40
0.0
  9
$PELEVATION
 40
0.0
  9
$THICKNESS
 40
0.0
  9
$LIMCHECK
 70
     0
  9
$CHAMFERA
 40
0.0
  9
$CHAMFERB
 40
0.0
  9
$CHAMFERC
 40
0.0
  9
$CHAMFERD
 40
0.0
  9
$SKPOLY
 70
     0
  9
$TDCREATE
 40
2455096.456109364
  9
$TDUCREATE
 40
2455096.37277603
  9
$TDUPDATE
 40
2455096.497776018
  9
$TDUUPDATE
 40
2455096.414442685
  9
$TDINDWG
 40
0.0306298611
  9
$TDUSRTIMER
 40
0.0306274884
  9
$USRTIMER
 70
     1
  9
$ANGBASE
 50
0.0
  9
$ANGDIR
 70
     0
  9
$PDMODE
 70
     0
  9
$PDSIZE
 40
0.0
  9
$PLINEWID
 40
0.0
  9
$SPLFRAME
 70
     0
  9
$SPLINETYPE
 70
     6
  9
$SPLINESEGS
 70
     8
  9
$HANDSEED
  5
2BC
  9
$SURFTAB1
 70
     6
  9
$SURFTAB2
 70
     6
  9
$SURFTYPE
 70
     6
  9
$SURFU
 70
     6
  9
$SURFV
 70
     6
  9
$UCSBASE
  2

  9
$UCSNAME
  2

  9
$UCSORG
 10
0.0
 20
0.0
 30
0.0
  9
$UCSXDIR
 10
1.0
 20
0.0
 30
0.0
  9
$UCSYDIR
 10
0.0
 20
1.0
 30
0.0
  9
$UCSORTHOREF
  2

  9
$UCSORTHOVIEW
 70
     0
  9
$UCSORGTOP
 10
0.0
 20
0.0
 30
0.0
  9
$UCSORGBOTTOM
 10
0.0
 20
0.0
 30
0.0
  9
$UCSORGLEFT
 10
0.0
 20
0.0
 30
0.0
  9
$UCSORGRIGHT
 10
0.0
 20
0.0
 30
0.0
  9
$UCSORGFRONT
 10
0.0
 20
0.0
 30
0.0
  9
$UCSORGBACK
 10
0.0
 20
0.0
 30
0.0
  9
$PUCSBASE
  2

  9
$PUCSNAME
  2

  9
$PUCSORG
 10
0.0
 20
0.0
 30
0.0
  9
$PUCSXDIR
 10
1.0
 20
0.0
 30
0.0
  9
$PUCSYDIR
 10
0.0
 20
1.0
 30
0.0
  9
$PUCSORTHOREF
  2

  9
$PUCSORTHOVIEW
 70
     0
  9
$PUCSORGTOP
 10
0.0
 20
0.0
 30
0.0
  9
$PUCSORGBOTTOM
 10
0.0
 20
0.0
 30
0.0
  9
$PUCSORGLEFT
 10
0.0
 20
0.0
 30
0.0
  9
$PUCSORGRIGHT
 10
0.0
 20
0.0
 30
0.0
  9
$PUCSORGFRONT
 10
0.0
 20
0.0
 30
0.0
  9
$PUCSORGBACK
 10
0.0
 20
0.0
 30
0.0
  9
$USERI1
 70
     0
  9
$USERI2
 70
     0
  9
$USERI3
 70
     0
  9
$USERI4
 70
     0
  9
$USERI5
 70
     0
  9
$USERR1
 40
0.0
  9
$USERR2
 40
0.0
  9
$USERR3
 40
0.0
  9
$USERR4
 40
0.0
  9
$USERR5
 40
0.0
  9
$WORLDVIEW
 70
     1
  9
$SHADEDGE
 70
     3
  9
$SHADEDIF
 70
    70
  9
$TILEMODE
 70
     1
  9
$MAXACTVP
 70
    64
  9
$PINSBASE
 10
0.0
 20
0.0
 30
0.0
  9
$PLIMCHECK
 70
     0
  9
$PEXTMIN
 10
0.0
 20
0.0
 30
0.0
  9
$PEXTMAX
 10
12.0
 20
9.0
 30
0.0
  9
$PLIMMIN
 10
0.0
 20
0.0
  9
$PLIMMAX
 10
12.0
 20
9.0
  9
$UNITMODE
 70
     0
  9
$VISRETAIN
 70
     1
  9
$PLINEGEN
 70
     0
  9
$PSLTSCALE
 70
     1
  9
$TREEDEPTH
 70
  3020
  9
$CMLSTYLE
  2
Standard
  9
$CMLJUST
 70
     0
  9
$CMLSCALE
 40
20.0
  9
$PROXYGRAPHICS
 70
     1
  9
$MEASUREMENT
 70
     1
  9
$CELWEIGHT
370
    -1
  9
$ENDCAPS
280
     0
  9
$JOINSTYLE
280
     0
  9
$LWDISPLAY
290
     0
  9
$INSUNITS
 70
     4
  9
$HYPERLINKBASE
  1

  9
$STYLESHEET
  1

  9
$XEDIT
290
     1
  9
$CEPSNTYPE
380
     0
  9
$PSTYLEMODE
290
     1
  9
$FINGERPRINTGUID
  2
{5559452E-1E62-4159-8551-BF76FFF3E7E8}
  9
$VERSIONGUID
  2
{3CEB9EF8-4431-4551-B596-6734A9F966A9}
  9
$EXTNAMES
290
     1
  9
$PSVPSCALE
 40
0.0
  9
$OLESTARTUP
290
     0
  0
ENDSEC
  0
SECTION
  2
CLASSES
  0
CLASS
  1
ACDBDICTIONARYWDFLT
  2
AcDbDictionaryWithDefault
  3
ObjectDBX Classes
 90
        0
280
     0
281
     0
  0
CLASS
  1
ACDBPLACEHOLDER
  2
AcDbPlaceHolder
  3
ObjectDBX Classes
 90
        0
280
     0
281
     0
  0
CLASS
  1
LAYOUT
  2
AcDbLayout
  3
ObjectDBX Classes
 90
        0
280
     0
281
     0
  0
CLASS
  1
DICTIONARYVAR
  2
AcDbDictionaryVar
  3
ObjectDBX Classes
 90
        0
280
     0
281
     0
  0
CLASS
  1
TABLESTYLE
  2
AcDbTableStyle
  3
ObjectDBX Classes
 90
     4095
280
     0
281
     0
  0
CLASS
  1
SCALE
  2
AcDbScale
  3
ObjectDBX Classes
 90
     1153
280
     0
281
     0
  0
ENDSEC
  0
SECTION
  2
TABLES
  0
TABLE
  2
VPORT
  5
8
330
0
100
AcDbSymbolTable
 70
     2
  0
VPORT
  5
97
330
8
100
AcDbSymbolTableRecord
100
AcDbViewportTableRecord
  2
*Active
 70
     0
 10
0.0
 20
0.0
 11
1.0
 21
1.0
 12
336.3924266509494
 22
280.832929948716
 13
0.0
 23
0.0
 14
10.0
 24
10.0
 15
10.0
 25
10.0
 16
0.0
 26
0.0
 36
1.0
 17
0.0
 27
0.0
 37
0.0
 40
773.1153685964182
 41
1.664827586206897
 42
50.0
 43
0.0
 44
0.0
 50
0.0
 51
0.0
 71
     0
 72
  1000
 73
     1
 74
     3
 75
     0
 76
     0
 77
     0
 78
     0
281
     0
 65
     1
110
0.0
120
0.0
130
0.0
111
1.0
121
0.0
131
0.0
112
0.0
122
1.0
132
0.0
 79
     0
146
0.0
  0
ENDTAB
  0
TABLE
  2
LTYPE
  5
5
330
0
100
AcDbSymbolTable
 70
     3
  0
LTYPE
  5
14
330
5
100
AcDbSymbolTableRecord
100
AcDbLinetypeTableRecord
  2
ByBlock
 70
     0
  3

 72
    65
 73
     0
 40
0.0
  0
LTYPE
  5
15
330
5
100
AcDbSymbolTableRecord
100
AcDbLinetypeTableRecord
  2
ByLayer
 70
     0
  3

 72
    65
 73
     0
 40
0.0
  0
LTYPE
  5
16
330
5
100
AcDbSymbolTableRecord
100
AcDbLinetypeTableRecord
  2
Continuous
 70
     0
  3
Solid line
 72
    65
 73
     0
 40
0.0
  0
LTYPE
  5
298
330
5
100
AcDbSymbolTableRecord
100
AcDbLinetypeTableRecord
  2
DASHDOT
 70
     0
  3
 __ . __ . __ . __ . __ . __ . __ . 
 72
    65
 73
     4
 40
18.5
 49
12.0
 74
     0
 49
-3.0
 74
     0
 49
0.5
 74
     0
 49
-3.0
 74
     0
  0
LTYPE
  5
299
330
5
100
AcDbSymbolTableRecord
100
AcDbLinetypeTableRecord
  2
SOLID
 70
     0
  3

 72
    65
 73
     0
 40
0.0
  0
ENDTAB
  0
TABLE
  2
LAYER
  5
2
330
0
100
AcDbSymbolTable
 70
     3
  0
LAYER
  5
10
330
2
100
AcDbSymbolTableRecord
100
AcDbLayerTableRecord
  2
0
 70
     0
 62
     7
  6
Continuous
370
    -3
390
F
  0
LAYER
  5
FA
330
2
100
AcDbSymbolTableRecord
100
AcDbLayerTableRecord
  2
STANDARD_LAYER
 70
     0
 62
     7
  6
SOLID
370
    -3
390
F
  0
LAYER
  5
209
330
2
100
AcDbSymbolTableRecord
100
AcDbLayerTableRecord
  2
DEFPOINTS
 70
     0
 62
     7
  6
Continuous
290
     0
370
    -3
390
F
  0
ENDTAB
  0
TABLE
  2
STYLE
  5
3
330
0
100
AcDbSymbolTable
 70
     1
  0
STYLE
  5
11
330
3
100
AcDbSymbolTableRecord
100
AcDbTextStyleTableRecord
  2
Standard
 70
     0
 40
0.0
 41
1.0
 50
0.0
 71
     0
 42
2.5
  3
txt
  4

  0
ENDTAB
  0
TABLE
  2
VIEW
  5
6
330
0
100
AcDbSymbolTable
 70
     0
  0
ENDTAB
  0
TABLE
  2
UCS
  5
7
330
0
100
AcDbSymbolTable
 70
     0
  0
ENDTAB
  0
TABLE
  2
APPID
  5
9
330
0
100
AcDbSymbolTable
 70
     2
  0
APPID
  5
12
330
9
100
AcDbSymbolTableRecord
100
AcDbRegAppTableRecord
  2
ACAD
 70
     0
  0
APPID
  5
297
330
9
100
AcDbSymbolTableRecord
100
AcDbRegAppTableRecord
  2
PROGE_PRINT_SETTINGS
 70
     0
  0
ENDTAB
  0
TABLE
  2
DIMSTYLE
  5
A
330
0
100
AcDbSymbolTable
 70
     2
100
AcDbDimStyleTable
  0
DIMSTYLE
105
27
102
{ACAD_REACTORS
330
1CF
330
1D0
330
1D1
330
1D2
330
1D3
330
1D4
102
}
330
A
100
AcDbSymbolTableRecord
100
AcDbDimStyleTableRecord
  2
Standard
 70
     0
278
     0
340
11
  0
DIMSTYLE
105
29
330
A
100
AcDbSymbolTableRecord
100
AcDbDimStyleTableRecord
  2
ISO-25
 70
     0
 41
2.5
 42
0.625
 43
3.75
 44
1.25
 73
     0
 74
     0
 77
     1
 78
     8
140
2.5
141
2.5
143
0.03937007874016
147
0.625
171
     3
172
     1
271
     2
272
     2
274
     3
278
    44
283
     0
284
     8
340
11
  0
ENDTAB
  0
TABLE
  2
BLOCK_RECORD
  5
1
330
0
100
AcDbSymbolTable
 70
    13
  0
BLOCK_RECORD
  5
1F
330
1
100
AcDbSymbolTableRecord
100
AcDbBlockTableRecord
  2
*Model_Space
340
22
  0
BLOCK_RECORD
  5
73
330
1
100
AcDbSymbolTableRecord
100
AcDbBlockTableRecord
  2
*Paper_Space
340
29B
  0
BLOCK_RECORD
  5
D1
330
1
100
AcDbSymbolTableRecord
100
AcDbBlockTableRecord
  2
*Paper_Space0
340
74
  0
BLOCK_RECORD
  5
214
330
1
100
AcDbSymbolTableRecord
100
AcDbBlockTableRecord
  2
*D1
340
0
  0
BLOCK_RECORD
  5
221
330
1
100
AcDbSymbolTableRecord
100
AcDbBlockTableRecord
  2
*D2
340
0
  0
BLOCK_RECORD
  5
22C
330
1
100
AcDbSymbolTableRecord
100
AcDbBlockTableRecord
  2
*D3
340
0
  0
BLOCK_RECORD
  5
239
330
1
100
AcDbSymbolTableRecord
100
AcDbBlockTableRecord
  2
*D4
340
0
  0
BLOCK_RECORD
  5
244
330
1
100
AcDbSymbolTableRecord
100
AcDbBlockTableRecord
  2
*D5
340
0
  0
BLOCK_RECORD
  5
24F
330
1
100
AcDbSymbolTableRecord
100
AcDbBlockTableRecord
  2
*D6
340
0
  0
BLOCK_RECORD
  5
25A
330
1
100
AcDbSymbolTableRecord
100
AcDbBlockTableRecord
  2
*D7
340
0
  0
BLOCK_RECORD
  5
265
330
1
100
AcDbSymbolTableRecord
100
AcDbBlockTableRecord
  2
*D8
340
0
  0
BLOCK_RECORD
  5
272
330
1
100
AcDbSymbolTableRecord
100
AcDbBlockTableRecord
  2
*D9
340
0
  0
BLOCK_RECORD
  5
27D
330
1
100
AcDbSymbolTableRecord
100
AcDbBlockTableRecord
  2
*D10
340
0
  0
BLOCK_RECORD
  5
288
330
1
100
AcDbSymbolTableRecord
100
AcDbBlockTableRecord
  2
*D11
340
0
  0
BLOCK_RECORD
  5
295
330
1
100
AcDbSymbolTableRecord
100
AcDbBlockTableRecord
  2
*D12
340
0
  0
ENDTAB
  0
ENDSEC
  0
SECTION
  2
BLOCKS
  0
BLOCK
  5
20
330
1F
100
AcDbEntity
  8
0
100
AcDbBlockBegin
  2
*Model_Space
 70
     0
 10
0.0
 20
0.0
 30
0.0
  3
*Model_Space
  1

  0
ENDBLK
  5
21
330
1F
100
AcDbEntity
  8
0
100
AcDbBlockEnd
  0
BLOCK
  5
75
330
73
100
AcDbEntity
 67
     1
  8
0
100
AcDbBlockBegin
  2
*Paper_Space
 70
     0
 10
0.0
 20
0.0
 30
0.0
  3
*Paper_Space
  1

  0
ENDBLK
  5
76
330
73
100
AcDbEntity
 67
     1
  8
0
100
AcDbBlockEnd
  0
BLOCK
  5
29C
330
D1
100
AcDbEntity
  8
0
100
AcDbBlockBegin
  2
*Paper_Space0
 70
     0
 10
0.0
 20
0.0
 30
0.0
  3
*Paper_Space0
  1

  0
VIEWPORT
  5
2B6
330
D1
100
AcDbEntity
  8
0
100
AcDbViewport
 10
7.8
 20
4.5
 30
0.0
 40
15.64
 41
9.0
 68
     1
 69
     1
 12
6.0
 22
4.5
 13
0.0
 23
0.0
 14
0.5
 24
0.5
 15
0.5
 25
0.5
 16
0.0
 26
0.0
 36
1.0
 17
0.0
 27
0.0
 37
0.0
 42
50.0
 43
0.0
 44
0.0
 45
12.0
 50
0.0
 51
0.0
 72
   100
 90
   557152
  1

281
     0
 71
     1
 74
     0
110
0.0
120
0.0
130
0.0
111
1.0
121
0.0
131
0.0
112
0.0
122
1.0
132
0.0
 79
     0
146
0.0
  0
ENDBLK
  5
29D
330
D1
100
AcDbEntity
  8
0
100
AcDbBlockEnd
  0
BLOCK
  5
29E
330
214
100
AcDbEntity
  8
0
100
AcDbBlockBegin
  2
*D1
 70
     1
 10
0.0
 20
0.0
 30
0.0
  3
*D1
  1

  0
POINT
  5
20B
330
214
100
AcDbEntity
  8
DEFPOINTS
  6
ByBlock
 62
     7
380
     1
100
AcDbPoint
 10
344.962123316696
 20
597.918116888412
 30
0.0
  0
POINT
  5
20C
330
214
100
AcDbEntity
  8
DEFPOINTS
  6
ByBlock
 62
     7
380
     1
100
AcDbPoint
 10
356.9975657483045
 20
94.918131888412
 30
0.0
  0
LINE
  5
20D
330
214
100
AcDbEntity
  8
0
  6
ByBlock
 62
     7
370
    -2
380
     1
100
AcDbLine
 10
345.587123316696
 20
597.918116888412
 30
0.0
 11
604.9741355962799
 21
597.918116888412
 31
0.0
  0
LINE
  5
20E
330
214
100
AcDbEntity
  8
0
  6
ByBlock
 62
     7
370
    -2
380
     1
100
AcDbLine
 10
357.6225657483045
 20
94.918131888412
 30
0.0
 11
604.9741355962799
 21
94.918131888412
 31
0.0
  0
LINE
  5
20F
330
214
100
AcDbEntity
  8
0
  6
ByBlock
 62
     7
370
    -2
380
     1
100
AcDbLine
 10
603.7241355962799
 20
587.918116888412
 30
0.0
 11
603.7241355962799
 21
104.918131888412
 31
0.0
  0
SOLID
  5
210
330
214
100
AcDbEntity
  8
0
  6
ByBlock
 62
     7
380
     1
100
AcDbTrace
 10
603.7241355962799
 20
597.918116888412
 30
0.0
 11
602.0574689296132
 21
587.918116888412
 31
0.0
 12
605.3908022629466
 22
587.918116888412
 32
0.0
 13
605.3908022629466
 23
587.918116888412
 33
0.0
  0
SOLID
  5
211
330
214
100
AcDbEntity
  8
0
  6
ByBlock
 62
     7
380
     1
100
AcDbTrace
 10
603.7241355962799
 20
94.918131888412
 30
0.0
 11
602.0574689296132
 21
104.918131888412
 31
0.0
 12
605.3908022629466
 22
104.918131888412
 32
0.0
 13
605.3908022629466
 23
104.918131888412
 33
0.0
  0
MTEXT
  5
212
330
214
100
AcDbEntity
  8
0
  6
ByBlock
 62
     0
370
    -2
380
     1
100
AcDbMText
 10
591.7241355962799
 20
346.418124388412
 30
0.0
 40
14.0
 41
0.0
 71
     5
 72
     1
  1
\A1;503
 11
6.123031769111886E-17
 21
1.0
 31
0.0
 73
     1
 44
1.0
  0
ENDBLK
  5
29F
330
214
100
AcDbEntity
  8
0
100
AcDbBlockEnd
  0
BLOCK
  5
2A0
330
221
100
AcDbEntity
  8
0
100
AcDbBlockBegin
  2
*D2
 70
     1
 10
0.0
 20
0.0
 30
0.0
  3
*D2
  1

  0
POINT
  5
216
330
221
100
AcDbEntity
  8
DEFPOINTS
  6
ByBlock
 62
     7
380
     1
100
AcDbPoint
 10
656.4587006590202
 20
589.5709174470655
 30
0.0
  0
POINT
  5
217
330
221
100
AcDbEntity
  8
DEFPOINTS
  6
ByBlock
 62
     7
380
     1
100
AcDbPoint
 10
660.4587006590202
 20
589.5709174470655
 30
0.0
  0
LINE
  5
218
330
221
100
AcDbEntity
  8
0
  6
ByBlock
 62
     7
370
    -2
380
     1
100
AcDbLine
 10
656.4587006590202
 20
590.1959174470655
 30
0.0
 11
656.4587006590202
 21
633.8662250637452
 31
0.0
  0
LINE
  5
219
330
221
100
AcDbEntity
  8
0
  6
ByBlock
 62
     7
370
    -2
380
     1
100
AcDbLine
 10
660.4587006590202
 20
590.1959174470655
 30
0.0
 11
660.4587006590202
 21
633.8662250637452
 31
0.0
  0
LINE
  5
21A
330
221
100
AcDbEntity
  8
0
  6
ByBlock
 62
     7
370
    -2
380
     1
100
AcDbLine
 10
670.4587006590202
 20
632.6162250637452
 30
0.0
 11
680.4587006590202
 21
632.6162250637452
 31
0.0
  0
LINE
  5
21B
330
221
100
AcDbEntity
  8
0
  6
ByBlock
 62
     7
370
    -2
380
     1
100
AcDbLine
 10
646.4587006590202
 20
632.6162250637452
 30
0.0
 11
618.1935435399439
 21
632.6162250637452
 31
0.0
  0
SOLID
  5
21C
330
221
100
AcDbEntity
  8
0
  6
ByBlock
 62
     7
380
     1
100
AcDbTrace
 10
656.4587006590202
 20
632.6162250637452
 30
0.0
 11
646.4587006590202
 21
630.9495583970786
 31
0.0
 12
646.4587006590202
 22
634.2828917304118
 32
0.0
 13
646.4587006590202
 23
634.2828917304118
 33
0.0
  0
SOLID
  5
21D
330
221
100
AcDbEntity
  8
0
  6
ByBlock
 62
     7
380
     1
100
AcDbTrace
 10
660.4587006590202
 20
632.6162250637452
 30
0.0
 11
670.4587006590202
 21
630.9495583970786
 31
0.0
 12
670.4587006590202
 22
634.2828917304118
 32
0.0
 13
670.4587006590202
 23
634.2828917304118
 33
0.0
  0
LINE
  5
21E
330
221
100
AcDbEntity
  8
0
  6
ByBlock
 62
     7
370
    -2
380
     1
100
AcDbLine
 10
656.4587006590202
 20
632.6162250637452
 30
0.0
 11
660.4587006590202
 21
632.6162250637452
 31
0.0
  0
MTEXT
  5
21F
330
221
100
AcDbEntity
  8
0
  6
ByBlock
 62
     0
370
    -2
380
     1
100
AcDbMText
 10
627.8602102066106
 20
644.6162250637452
 30
0.0
 40
14.0
 41
0.0
 71
     5
 72
     1
  1
\A1;4
 73
     1
 44
1.0
  0
ENDBLK
  5
2A1
330
221
100
AcDbEntity
  8
0
100
AcDbBlockEnd
  0
BLOCK
  5
2A2
330
22C
100
AcDbEntity
  8
0
100
AcDbBlockBegin
  2
*D3
 70
     1
 10
0.0
 20
0.0
 30
0.0
  3
*D3
  1

  0
POINT
  5
223
330
22C
100
AcDbEntity
  8
DEFPOINTS
  6
ByBlock
 62
     7
380
     1
100
AcDbPoint
 10
389.9375716590203
 20
546.1808193884119
 30
0.0
  0
POINT
  5
224
330
22C
100
AcDbEntity
  8
DEFPOINTS
  6
ByBlock
 62
     7
380
     1
100
AcDbPoint
 10
371.7015981590203
 20
234.416071888412
 30
0.0
  0
LINE
  5
225
330
22C
100
AcDbEntity
  8
0
  6
ByBlock
 62
     7
370
    -2
380
     1
100
AcDbLine
 10
390.5625716590203
 20
546.1808193884119
 30
0.0
 11
567.4980761595075
 21
546.1808193884119
 31
0.0
  0
LINE
  5
226
330
22C
100
AcDbEntity
  8
0
  6
ByBlock
 62
     7
370
    -2
380
     1
100
AcDbLine
 10
372.3265981590203
 20
234.416071888412
 30
0.0
 11
567.4980761595075
 21
234.416071888412
 31
0.0
  0
LINE
  5
227
330
22C
100
AcDbEntity
  8
0
  6
ByBlock
 62
     7
370
    -2
380
     1
100
AcDbLine
 10
566.2480761595075
 20
536.1808193884119
 30
0.0
 11
566.2480761595075
 21
244.416071888412
 31
0.0
  0
SOLID
  5
228
330
22C
100
AcDbEntity
  8
0
  6
ByBlock
 62
     7
380
     1
100
AcDbTrace
 10
566.2480761595075
 20
546.1808193884119
 30
0.0
 11
564.5814094928409
 21
536.1808193884119
 31
0.0
 12
567.9147428261741
 22
536.1808193884119
 32
0.0
 13
567.9147428261741
 23
536.1808193884119
 33
0.0
  0
SOLID
  5
229
330
22C
100
AcDbEntity
  8
0
  6
ByBlock
 62
     7
380
     1
100
AcDbTrace
 10
566.2480761595075
 20
234.416071888412
 30
0.0
 11
564.5814094928409
 21
244.416071888412
 31
0.0
 12
567.9147428261741
 22
244.416071888412
 32
0.0
 13
567.9147428261741
 23
244.416071888412
 33
0.0
  0
MTEXT
  5
22A
330
22C
100
AcDbEntity
  8
0
  6
ByBlock
 62
     0
370
    -2
380
     1
100
AcDbMText
 10
554.2480761595075
 20
390.298445638412
 30
0.0
 40
14.0
 41
0.0
 71
     5
 72
     1
  1
312
 11
6.123031769111886E-17
 21
1.0
 31
0.0
 73
     1
 44
1.0
  0
ENDBLK
  5
2A3
330
22C
100
AcDbEntity
  8
0
100
AcDbBlockEnd
  0
BLOCK
  5
2A4
330
239
100
AcDbEntity
  8
0
100
AcDbBlockBegin
  2
*D4
 70
     1
 10
0.0
 20
0.0
 30
0.0
  3
*D4
  1

  0
POINT
  5
22E
330
239
100
AcDbEntity
  8
DEFPOINTS
  6
ByBlock
 62
     7
380
     1
100
AcDbPoint
 10
384.1893075925926
 20
597.918116888412
 30
0.0
  0
POINT
  5
22F
330
239
100
AcDbEntity
  8
DEFPOINTS
  6
ByBlock
 62
     7
380
     1
100
AcDbPoint
 10
389.9375716590203
 20
546.1808193884119
 30
0.0
  0
LINE
  5
230
330
239
100
AcDbEntity
  8
0
  6
ByBlock
 62
     7
370
    -2
380
     1
100
AcDbLine
 10
384.8143075925926
 20
597.918116888412
 30
0.0
 11
567.4997547132587
 21
597.918116888412
 31
0.0
  0
LINE
  5
231
330
239
100
AcDbEntity
  8
0
  6
ByBlock
 62
     7
370
    -2
380
     1
100
AcDbLine
 10
390.5625716590203
 20
546.1808193884119
 30
0.0
 11
567.4997547132587
 21
546.1808193884119
 31
0.0
  0
LINE
  5
232
330
239
100
AcDbEntity
  8
0
  6
ByBlock
 62
     7
370
    -2
380
     1
100
AcDbLine
 10
566.2497547132587
 20
607.918116888412
 30
0.0
 11
566.2497547132587
 21
617.918116888412
 31
0.0
  0
LINE
  5
233
330
239
100
AcDbEntity
  8
0
  6
ByBlock
 62
     7
370
    -2
380
     1
100
AcDbLine
 10
566.2497547132587
 20
536.1808193884119
 30
0.0
 11
566.2497547132587
 21
526.1808193884119
 31
0.0
  0
SOLID
  5
234
330
239
100
AcDbEntity
  8
0
  6
ByBlock
 62
     7
380
     1
100
AcDbTrace
 10
566.2497547132587
 20
597.918116888412
 30
0.0
 11
564.583088046592
 21
607.918116888412
 31
0.0
 12
567.9164213799253
 22
607.918116888412
 32
0.0
 13
567.9164213799253
 23
607.918116888412
 33
0.0
  0
SOLID
  5
235
330
239
100
AcDbEntity
  8
0
  6
ByBlock
 62
     7
380
     1
100
AcDbTrace
 10
566.2497547132587
 20
546.1808193884119
 30
0.0
 11
564.583088046592
 21
536.1808193884119
 31
0.0
 12
567.9164213799253
 22
536.1808193884119
 32
0.0
 13
567.9164213799253
 23
536.1808193884119
 33
0.0
  0
LINE
  5
236
330
239
100
AcDbEntity
  8
0
  6
ByBlock
 62
     7
370
    -2
380
     1
100
AcDbLine
 10
566.2497547132587
 20
597.918116888412
 30
0.0
 11
566.2497547132587
 21
546.1808193884119
 31
0.0
  0
MTEXT
  5
237
330
239
100
AcDbEntity
  8
0
  6
ByBlock
 62
     0
370
    -2
380
     1
100
AcDbMText
 10
554.2497547132587
 20
572.049468138412
 30
0.0
 40
14.0
 41
0.0
 71
     5
 72
     1
  1
52
 11
6.123031769111886E-17
 21
1.0
 31
0.0
 73
     1
 44
1.0
  0
ENDBLK
  5
2A5
330
239
100
AcDbEntity
  8
0
100
AcDbBlockEnd
  0
BLOCK
  5
2A6
330
244
100
AcDbEntity
  8
0
100
AcDbBlockBegin
  2
*D5
 70
     1
 10
0.0
 20
0.0
 30
0.0
  3
*D5
  1

  0
POINT
  5
23B
330
244
100
AcDbEntity
  8
DEFPOINTS
  6
ByBlock
 62
     7
380
     1
100
AcDbPoint
 10
220.7132786590203
 20
546.180811888412
 30
0.0
  0
POINT
  5
23C
330
244
100
AcDbEntity
  8
DEFPOINTS
  6
ByBlock
 62
     7
380
     1
100
AcDbPoint
 10
446.3456716590203
 20
546.180811888412
 30
0.0
  0
LINE
  5
23D
330
244
100
AcDbEntity
  8
0
  6
ByBlock
 62
     7
370
    -2
380
     1
100
AcDbLine
 10
220.7132786590203
 20
546.805811888412
 30
0.0
 11
220.7132786590203
 21
634.0186733977312
 31
0.0
  0
LINE
  5
23E
330
244
100
AcDbEntity
  8
0
  6
ByBlock
 62
     7
370
    -2
380
     1
100
AcDbLine
 10
446.3456716590203
 20
546.805811888412
 30
0.0
 11
446.3456716590203
 21
634.0186733977312
 31
0.0
  0
LINE
  5
23F
330
244
100
AcDbEntity
  8
0
  6
ByBlock
 62
     7
370
    -2
380
     1
100
AcDbLine
 10
230.7132786590203
 20
632.7686733977312
 30
0.0
 11
436.3456716590203
 21
632.7686733977312
 31
0.0
  0
SOLID
  5
240
330
244
100
AcDbEntity
  8
0
  6
ByBlock
 62
     7
380
     1
100
AcDbTrace
 10
220.7132786590203
 20
632.7686733977312
 30
0.0
 11
230.7132786590203
 21
631.1020067310645
 31
0.0
 12
230.7132786590203
 22
634.4353400643978
 32
0.0
 13
230.7132786590203
 23
634.4353400643978
 33
0.0
  0
SOLID
  5
241
330
244
100
AcDbEntity
  8
0
  6
ByBlock
 62
     7
380
     1
100
AcDbTrace
 10
446.3456716590203
 20
632.7686733977312
 30
0.0
 11
436.3456716590203
 21
631.1020067310645
 31
0.0
 12
436.3456716590203
 22
634.4353400643978
 32
0.0
 13
436.3456716590203
 23
634.4353400643978
 33
0.0
  0
MTEXT
  5
242
330
244
100
AcDbEntity
  8
0
  6
ByBlock
 62
     0
370
    -2
380
     1
100
AcDbMText
 10
333.5294751590203
 20
644.7686733977312
 30
0.0
 40
14.0
 41
0.0
 71
     5
 72
     1
  1
226
 73
     1
 44
1.0
  0
ENDBLK
  5
2A7
330
244
100
AcDbEntity
  8
0
100
AcDbBlockEnd
  0
BLOCK
  5
2A8
330
24F
100
AcDbEntity
  8
0
100
AcDbBlockBegin
  2
*D6
 70
     1
 10
0.0
 20
0.0
 30
0.0
  3
*D6
  1

  0
POINT
  5
246
330
24F
100
AcDbEntity
  8
DEFPOINTS
  6
ByBlock
 62
     7
380
     1
100
AcDbPoint
 10
138.0294716590203
 20
432.473686153954
 30
0.0
  0
POINT
  5
247
330
24F
100
AcDbEntity
  8
DEFPOINTS
  6
ByBlock
 62
     7
380
     1
100
AcDbPoint
 10
529.0294716590204
 20
432.473686153954
 30
0.0
  0
LINE
  5
248
330
24F
100
AcDbEntity
  8
0
  6
ByBlock
 62
     7
370
    -2
380
     1
100
AcDbLine
 10
138.0294716590203
 20
433.098686153954
 30
0.0
 11
138.0294716590203
 21
679.5341982742436
 31
0.0
  0
LINE
  5
249
330
24F
100
AcDbEntity
  8
0
  6
ByBlock
 62
     7
370
    -2
380
     1
100
AcDbLine
 10
529.0294716590204
 20
433.098686153954
 30
0.0
 11
529.0294716590204
 21
679.5341982742436
 31
0.0
  0
LINE
  5
24A
330
24F
100
AcDbEntity
  8
0
  6
ByBlock
 62
     7
370
    -2
380
     1
100
AcDbLine
 10
148.0294716590203
 20
678.2841982742436
 30
0.0
 11
519.0294716590204
 21
678.2841982742436
 31
0.0
  0
SOLID
  5
24B
330
24F
100
AcDbEntity
  8
0
  6
ByBlock
 62
     7
380
     1
100
AcDbTrace
 10
138.0294716590203
 20
678.2841982742436
 30
0.0
 11
148.0294716590203
 21
676.617531607577
 31
0.0
 12
148.0294716590203
 22
679.9508649409103
 32
0.0
 13
148.0294716590203
 23
679.9508649409103
 33
0.0
  0
SOLID
  5
24C
330
24F
100
AcDbEntity
  8
0
  6
ByBlock
 62
     7
380
     1
100
AcDbTrace
 10
529.0294716590204
 20
678.2841982742436
 30
0.0
 11
519.0294716590204
 21
676.617531607577
 31
0.0
 12
519.0294716590204
 22
679.9508649409103
 32
0.0
 13
519.0294716590204
 23
679.9508649409103
 33
0.0
  0
MTEXT
  5
24D
330
24F
100
AcDbEntity
  8
0
  6
ByBlock
 62
     0
370
    -2
380
     1
100
AcDbMText
 10
333.5294716590204
 20
690.2841982742436
 30
0.0
 40
14.0
 41
0.0
 71
     5
 72
     1
  1
\A1;391
 73
     1
 44
1.0
  0
ENDBLK
  5
2A9
330
24F
100
AcDbEntity
  8
0
100
AcDbBlockEnd
  0
BLOCK
  5
2AA
330
25A
100
AcDbEntity
  8
0
100
AcDbBlockBegin
  2
*D7
 70
     1
 10
0.0
 20
0.0
 30
0.0
  3
*D7
  1

  0
POINT
  5
251
330
25A
100
AcDbEntity
  8
DEFPOINTS
  6
ByBlock
 62
     7
380
     1
100
AcDbPoint
 10
129.5316175817671
 20
416.3277634071729
 30
0.0
  0
POINT
  5
252
330
25A
100
AcDbEntity
  8
DEFPOINTS
  6
ByBlock
 62
     7
380
     1
100
AcDbPoint
 10
520.5316175817671
 20
416.3277634071729
 30
0.0
  0
LINE
  5
253
330
25A
100
AcDbEntity
  8
0
  6
ByBlock
 62
     7
370
    -2
380
     1
100
AcDbLine
 10
129.5316175817671
 20
416.9527634071729
 30
0.0
 11
129.5316175817671
 21
663.3882755274625
 31
0.0
  0
LINE
  5
254
330
25A
100
AcDbEntity
  8
0
  6
ByBlock
 62
     7
370
    -2
380
     1
100
AcDbLine
 10
520.5316175817671
 20
416.9527634071729
 30
0.0
 11
520.5316175817671
 21
663.3882755274625
 31
0.0
  0
LINE
  5
255
330
25A
100
AcDbEntity
  8
0
  6
ByBlock
 62
     7
370
    -2
380
     1
100
AcDbLine
 10
139.5316175817671
 20
662.1382755274625
 30
0.0
 11
510.5316175817671
 21
662.1382755274625
 31
0.0
  0
SOLID
  5
256
330
25A
100
AcDbEntity
  8
0
  6
ByBlock
 62
     7
380
     1
100
AcDbTrace
 10
129.5316175817671
 20
662.1382755274625
 30
0.0
 11
139.5316175817671
 21
660.4716088607959
 31
0.0
 12
139.5316175817671
 22
663.8049421941291
 32
0.0
 13
139.5316175817671
 23
663.8049421941291
 33
0.0
  0
SOLID
  5
257
330
25A
100
AcDbEntity
  8
0
  6
ByBlock
 62
     7
380
     1
100
AcDbTrace
 10
520.5316175817671
 20
662.1382755274625
 30
0.0
 11
510.5316175817671
 21
660.4716088607959
 31
0.0
 12
510.5316175817671
 22
663.8049421941291
 32
0.0
 13
510.5316175817671
 23
663.8049421941291
 33
0.0
  0
MTEXT
  5
258
330
25A
100
AcDbEntity
  8
0
  6
ByBlock
 62
     0
370
    -2
380
     1
100
AcDbMText
 10
325.0316175817671
 20
674.1382755274625
 30
0.0
 40
14.0
 41
0.0
 71
     5
 72
     1
  1
\A1;391
 73
     1
 44
1.0
  0
ENDBLK
  5
2AB
330
25A
100
AcDbEntity
  8
0
100
AcDbBlockEnd
  0
BLOCK
  5
2AC
330
265
100
AcDbEntity
  8
0
100
AcDbBlockBegin
  2
*D8
 70
     1
 10
0.0
 20
0.0
 30
0.0
  3
*D8
  1

  0
POINT
  5
25C
330
265
100
AcDbEntity
  8
DEFPOINTS
  6
ByBlock
 62
     7
380
     1
100
AcDbPoint
 10
212.2154245817671
 20
530.0348891416309
 30
0.0
  0
POINT
  5
25D
330
265
100
AcDbEntity
  8
DEFPOINTS
  6
ByBlock
 62
     7
380
     1
100
AcDbPoint
 10
437.8478175817671
 20
530.0348891416309
 30
0.0
  0
LINE
  5
25E
330
265
100
AcDbEntity
  8
0
  6
ByBlock
 62
     7
370
    -2
380
     1
100
AcDbLine
 10
212.2154245817671
 20
530.6598891416309
 30
0.0
 11
212.2154245817671
 21
617.87275065095
 31
0.0
  0
LINE
  5
25F
330
265
100
AcDbEntity
  8
0
  6
ByBlock
 62
     7
370
    -2
380
     1
100
AcDbLine
 10
437.8478175817671
 20
530.6598891416309
 30
0.0
 11
437.8478175817671
 21
617.87275065095
 31
0.0
  0
LINE
  5
260
330
265
100
AcDbEntity
  8
0
  6
ByBlock
 62
     7
370
    -2
380
     1
100
AcDbLine
 10
222.2154245817671
 20
616.62275065095
 30
0.0
 11
427.8478175817671
 21
616.62275065095
 31
0.0
  0
SOLID
  5
261
330
265
100
AcDbEntity
  8
0
  6
ByBlock
 62
     7
380
     1
100
AcDbTrace
 10
212.2154245817671
 20
616.62275065095
 30
0.0
 11
222.2154245817671
 21
614.9560839842834
 31
0.0
 12
222.2154245817671
 22
618.2894173176167
 32
0.0
 13
222.2154245817671
 23
618.2894173176167
 33
0.0
  0
SOLID
  5
262
330
265
100
AcDbEntity
  8
0
  6
ByBlock
 62
     7
380
     1
100
AcDbTrace
 10
437.8478175817671
 20
616.62275065095
 30
0.0
 11
427.8478175817671
 21
614.9560839842834
 31
0.0
 12
427.8478175817671
 22
618.2894173176167
 32
0.0
 13
427.8478175817671
 23
618.2894173176167
 33
0.0
  0
MTEXT
  5
263
330
265
100
AcDbEntity
  8
0
  6
ByBlock
 62
     0
370
    -2
380
     1
100
AcDbMText
 10
325.0316210817671
 20
628.62275065095
 30
0.0
 40
14.0
 41
0.0
 71
     5
 72
     1
  1
226
 73
     1
 44
1.0
  0
ENDBLK
  5
2AD
330
265
100
AcDbEntity
  8
0
100
AcDbBlockEnd
  0
BLOCK
  5
2AE
330
272
100
AcDbEntity
  8
0
100
AcDbBlockBegin
  2
*D9
 70
     1
 10
0.0
 20
0.0
 30
0.0
  3
*D9
  1

  0
POINT
  5
267
330
272
100
AcDbEntity
  8
DEFPOINTS
  6
ByBlock
 62
     7
380
     1
100
AcDbPoint
 10
375.6914535153394
 20
581.7721941416308
 30
0.0
  0
POINT
  5
268
330
272
100
AcDbEntity
  8
DEFPOINTS
  6
ByBlock
 62
     7
380
     1
100
AcDbPoint
 10
381.4397175817671
 20
530.0348966416308
 30
0.0
  0
LINE
  5
269
330
272
100
AcDbEntity
  8
0
  6
ByBlock
 62
     7
370
    -2
380
     1
100
AcDbLine
 10
376.3164535153394
 20
581.7721941416308
 30
0.0
 11
559.0019006360054
 21
581.7721941416308
 31
0.0
  0
LINE
  5
26A
330
272
100
AcDbEntity
  8
0
  6
ByBlock
 62
     7
370
    -2
380
     1
100
AcDbLine
 10
382.0647175817671
 20
530.0348966416308
 30
0.0
 11
559.0019006360054
 21
530.0348966416308
 31
0.0
  0
LINE
  5
26B
330
272
100
AcDbEntity
  8
0
  6
ByBlock
 62
     7
370
    -2
380
     1
100
AcDbLine
 10
557.7519006360054
 20
591.7721941416308
 30
0.0
 11
557.7519006360054
 21
601.7721941416308
 31
0.0
  0
LINE
  5
26C
330
272
100
AcDbEntity
  8
0
  6
ByBlock
 62
     7
370
    -2
380
     1
100
AcDbLine
 10
557.7519006360054
 20
520.0348966416308
 30
0.0
 11
557.7519006360054
 21
510.0348966416308
 31
0.0
  0
SOLID
  5
26D
330
272
100
AcDbEntity
  8
0
  6
ByBlock
 62
     7
380
     1
100
AcDbTrace
 10
557.7519006360054
 20
581.7721941416308
 30
0.0
 11
556.0852339693388
 21
591.7721941416308
 31
0.0
 12
559.418567302672
 22
591.7721941416308
 32
0.0
 13
559.418567302672
 23
591.7721941416308
 33
0.0
  0
SOLID
  5
26E
330
272
100
AcDbEntity
  8
0
  6
ByBlock
 62
     7
380
     1
100
AcDbTrace
 10
557.7519006360054
 20
530.0348966416308
 30
0.0
 11
556.0852339693388
 21
520.0348966416308
 31
0.0
 12
559.418567302672
 22
520.0348966416308
 32
0.0
 13
559.418567302672
 23
520.0348966416308
 33
0.0
  0
LINE
  5
26F
330
272
100
AcDbEntity
  8
0
  6
ByBlock
 62
     7
370
    -2
380
     1
100
AcDbLine
 10
557.7519006360054
 20
581.7721941416308
 30
0.0
 11
557.7519006360054
 21
530.0348966416308
 31
0.0
  0
MTEXT
  5
270
330
272
100
AcDbEntity
  8
0
  6
ByBlock
 62
     0
370
    -2
380
     1
100
AcDbMText
 10
545.7519006360054
 20
555.9035453916308
 30
0.0
 40
14.0
 41
0.0
 71
     5
 72
     1
  1
52
 11
6.123031769111886E-17
 21
1.0
 31
0.0
 73
     1
 44
1.0
  0
ENDBLK
  5
2AF
330
272
100
AcDbEntity
  8
0
100
AcDbBlockEnd
  0
BLOCK
  5
2B0
330
27D
100
AcDbEntity
  8
0
100
AcDbBlockBegin
  2
*D10
 70
     1
 10
0.0
 20
0.0
 30
0.0
  3
*D10
  1

  0
POINT
  5
274
330
27D
100
AcDbEntity
  8
DEFPOINTS
  6
ByBlock
 62
     7
380
     1
100
AcDbPoint
 10
381.4397175817671
 20
530.0348966416308
 30
0.0
  0
POINT
  5
275
330
27D
100
AcDbEntity
  8
DEFPOINTS
  6
ByBlock
 62
     7
380
     1
100
AcDbPoint
 10
363.2037440817671
 20
218.2701491416309
 30
0.0
  0
LINE
  5
276
330
27D
100
AcDbEntity
  8
0
  6
ByBlock
 62
     7
370
    -2
380
     1
100
AcDbLine
 10
382.0647175817671
 20
530.0348966416308
 30
0.0
 11
559.0002220822543
 21
530.0348966416308
 31
0.0
  0
LINE
  5
277
330
27D
100
AcDbEntity
  8
0
  6
ByBlock
 62
     7
370
    -2
380
     1
100
AcDbLine
 10
363.8287440817671
 20
218.2701491416309
 30
0.0
 11
559.0002220822543
 21
218.2701491416309
 31
0.0
  0
LINE
  5
278
330
27D
100
AcDbEntity
  8
0
  6
ByBlock
 62
     7
370
    -2
380
     1
100
AcDbLine
 10
557.7502220822543
 20
520.0348966416308
 30
0.0
 11
557.7502220822543
 21
228.2701491416309
 31
0.0
  0
SOLID
  5
279
330
27D
100
AcDbEntity
  8
0
  6
ByBlock
 62
     7
380
     1
100
AcDbTrace
 10
557.7502220822543
 20
530.0348966416308
 30
0.0
 11
556.0835554155876
 21
520.0348966416308
 31
0.0
 12
559.4168887489209
 22
520.0348966416308
 32
0.0
 13
559.4168887489209
 23
520.0348966416308
 33
0.0
  0
SOLID
  5
27A
330
27D
100
AcDbEntity
  8
0
  6
ByBlock
 62
     7
380
     1
100
AcDbTrace
 10
557.7502220822543
 20
218.2701491416309
 30
0.0
 11
556.0835554155876
 21
228.2701491416309
 31
0.0
 12
559.4168887489209
 22
228.2701491416309
 32
0.0
 13
559.4168887489209
 23
228.2701491416309
 33
0.0
  0
MTEXT
  5
27B
330
27D
100
AcDbEntity
  8
0
  6
ByBlock
 62
     0
370
    -2
380
     1
100
AcDbMText
 10
545.7502220822543
 20
374.1525228916308
 30
0.0
 40
14.0
 41
0.0
 71
     5
 72
     1
  1
312
 11
6.123031769111886E-17
 21
1.0
 31
0.0
 73
     1
 44
1.0
  0
ENDBLK
  5
2B1
330
27D
100
AcDbEntity
  8
0
100
AcDbBlockEnd
  0
BLOCK
  5
2B2
330
288
100
AcDbEntity
  8
0
100
AcDbBlockBegin
  2
*D11
 70
     1
 10
0.0
 20
0.0
 30
0.0
  3
*D11
  1

  0
POINT
  5
27F
330
288
100
AcDbEntity
  8
DEFPOINTS
  6
ByBlock
 62
     7
380
     1
100
AcDbPoint
 10
336.4642692394428
 20
581.7721941416308
 30
0.0
  0
POINT
  5
280
330
288
100
AcDbEntity
  8
DEFPOINTS
  6
ByBlock
 62
     7
380
     1
100
AcDbPoint
 10
348.4997116710513
 20
78.7722091416309
 30
0.0
  0
LINE
  5
281
330
288
100
AcDbEntity
  8
0
  6
ByBlock
 62
     7
370
    -2
380
     1
100
AcDbLine
 10
337.0892692394428
 20
581.7721941416308
 30
0.0
 11
596.4762815190267
 21
581.7721941416308
 31
0.0
  0
LINE
  5
282
330
288
100
AcDbEntity
  8
0
  6
ByBlock
 62
     7
370
    -2
380
     1
100
AcDbLine
 10
349.1247116710513
 20
78.77220914163092
 30
0.0
 11
596.4762815190267
 21
78.77220914163092
 31
0.0
  0
LINE
  5
283
330
288
100
AcDbEntity
  8
0
  6
ByBlock
 62
     7
370
    -2
380
     1
100
AcDbLine
 10
595.2262815190267
 20
571.7721941416308
 30
0.0
 11
595.2262815190267
 21
88.77220914163092
 31
0.0
  0
SOLID
  5
284
330
288
100
AcDbEntity
  8
0
  6
ByBlock
 62
     7
380
     1
100
AcDbTrace
 10
595.2262815190267
 20
581.7721941416308
 30
0.0
 11
593.55961485236
 21
571.7721941416308
 31
0.0
 12
596.8929481856933
 22
571.7721941416308
 32
0.0
 13
596.8929481856933
 23
571.7721941416308
 33
0.0
  0
SOLID
  5
285
330
288
100
AcDbEntity
  8
0
  6
ByBlock
 62
     7
380
     1
100
AcDbTrace
 10
595.2262815190267
 20
78.77220914163092
 30
0.0
 11
593.55961485236
 21
88.77220914163092
 31
0.0
 12
596.8929481856933
 22
88.77220914163092
 32
0.0
 13
596.8929481856933
 23
88.77220914163092
 33
0.0
  0
MTEXT
  5
286
330
288
100
AcDbEntity
  8
0
  6
ByBlock
 62
     0
370
    -2
380
     1
100
AcDbMText
 10
583.2262815190267
 20
330.2722016416309
 30
0.0
 40
14.0
 41
0.0
 71
     5
 72
     1
  1
\A1;503
 11
6.123031769111886E-17
 21
1.0
 31
0.0
 73
     1
 44
1.0
  0
ENDBLK
  5
2B3
330
288
100
AcDbEntity
  8
0
100
AcDbBlockEnd
  0
BLOCK
  5
2B4
330
295
100
AcDbEntity
  8
0
100
AcDbBlockBegin
  2
*D12
 70
     1
 10
0.0
 20
0.0
 30
0.0
  3
*D12
  1

  0
POINT
  5
28A
330
295
100
AcDbEntity
  8
DEFPOINTS
  6
ByBlock
 62
     7
380
     1
100
AcDbPoint
 10
647.960846581767
 20
573.4249947002844
 30
0.0
  0
POINT
  5
28B
330
295
100
AcDbEntity
  8
DEFPOINTS
  6
ByBlock
 62
     7
380
     1
100
AcDbPoint
 10
651.960846581767
 20
573.4249947002844
 30
0.0
  0
LINE
  5
28C
330
295
100
AcDbEntity
  8
0
  6
ByBlock
 62
     7
370
    -2
380
     1
100
AcDbLine
 10
647.960846581767
 20
574.0499947002844
 30
0.0
 11
647.960846581767
 21
617.7203023169641
 31
0.0
  0
LINE
  5
28D
330
295
100
AcDbEntity
  8
0
  6
ByBlock
 62
     7
370
    -2
380
     1
100
AcDbLine
 10
651.960846581767
 20
574.0499947002844
 30
0.0
 11
651.960846581767
 21
617.7203023169641
 31
0.0
  0
LINE
  5
28E
330
295
100
AcDbEntity
  8
0
  6
ByBlock
 62
     7
370
    -2
380
     1
100
AcDbLine
 10
661.960846581767
 20
616.4703023169641
 30
0.0
 11
671.960846581767
 21
616.4703023169641
 31
0.0
  0
LINE
  5
28F
330
295
100
AcDbEntity
  8
0
  6
ByBlock
 62
     7
370
    -2
380
     1
100
AcDbLine
 10
637.960846581767
 20
616.4703023169641
 30
0.0
 11
609.6956894626908
 21
616.4703023169641
 31
0.0
  0
SOLID
  5
290
330
295
100
AcDbEntity
  8
0
  6
ByBlock
 62
     7
380
     1
100
AcDbTrace
 10
647.960846581767
 20
616.4703023169641
 30
0.0
 11
637.960846581767
 21
614.8036356502975
 31
0.0
 12
637.960846581767
 22
618.1369689836307
 32
0.0
 13
637.960846581767
 23
618.1369689836307
 33
0.0
  0
SOLID
  5
291
330
295
100
AcDbEntity
  8
0
  6
ByBlock
 62
     7
380
     1
100
AcDbTrace
 10
651.960846581767
 20
616.4703023169641
 30
0.0
 11
661.960846581767
 21
614.8036356502975
 31
0.0
 12
661.960846581767
 22
618.1369689836307
 32
0.0
 13
661.960846581767
 23
618.1369689836307
 33
0.0
  0
LINE
  5
292
330
295
100
AcDbEntity
  8
0
  6
ByBlock
 62
     7
370
    -2
380
     1
100
AcDbLine
 10
647.960846581767
 20
616.4703023169641
 30
0.0
 11
651.960846581767
 21
616.4703023169641
 31
0.0
  0
MTEXT
  5
293
330
295
100
AcDbEntity
  8
0
  6
ByBlock
 62
     0
370
    -2
380
     1
100
AcDbMText
 10
619.3623561293574
 20
628.4703023169641
 30
0.0
 40
14.0
 41
0.0
 71
     5
 72
     1
  1
\A1;4
 73
     1
 44
1.0
  0
ENDBLK
  5
2B5
330
295
100
AcDbEntity
  8
0
100
AcDbBlockEnd
  0
ENDSEC
  0
SECTION
  2
ENTITIES
  0
POINT
  5
FB
330
1F
100
AcDbEntity
  8
0
 62
     7
370
    60
100
AcDbPoint
 10
325.0316175817671
 20
166.8746111416309
 30
0.0
  0
POINT
  5
FC
330
1F
100
AcDbEntity
  8
0
 62
     7
370
    25
100
AcDbPoint
 10
458.4158945817671
 20
116.7887801416309
 30
0.0
  0
POINT
  5
FD
330
1F
100
AcDbEntity
  8
0
 62
     7
370
    25
100
AcDbPoint
 10
465.4158945817671
 20
114.3013231416309
 30
0.0
  0
POINT
  5
FE
330
1F
100
AcDbEntity
  8
0
 62
     7
370
    25
100
AcDbPoint
 10
465.4158945817671
 20
114.3013231416309
 30
0.0
  0
POINT
  5
FF
330
1F
100
AcDbEntity
  8
0
 62
     7
370
    25
100
AcDbPoint
 10
441.4158945817671
 20
113.6870341416309
 30
0.0
  0
POINT
  5
100
330
1F
100
AcDbEntity
  8
0
 62
     7
370
    25
100
AcDbPoint
 10
454.4158945817671
 20
114.3013231416309
 30
0.0
  0
POINT
  5
101
330
1F
100
AcDbEntity
  8
0
 62
     7
370
    25
100
AcDbPoint
 10
454.4158945817671
 20
114.3013231416309
 30
0.0
  0
POINT
  5
102
330
1F
100
AcDbEntity
  8
0
 62
     7
370
    60
100
AcDbPoint
 10
412.7816135817671
 20
187.7721941416309
 30
0.0
  0
POINT
  5
103
330
1F
100
AcDbEntity
  8
0
 62
     7
370
    60
100
AcDbPoint
 10
212.2154245817671
 20
530.0348891416309
 30
0.0
  0
POINT
  5
104
330
1F
100
AcDbEntity
  8
0
 62
     7
370
    60
100
AcDbPoint
 10
437.8478175817671
 20
530.0348891416309
 30
0.0
  0
POINT
  5
105
330
1F
100
AcDbEntity
  8
0
 62
     7
370
    60
100
AcDbPoint
 10
248.687363581767
 20
218.2701491416309
 30
0.0
  0
POINT
  5
106
330
1F
100
AcDbEntity
  8
0
 62
     7
370
    60
100
AcDbPoint
 10
401.3758705817671
 20
218.2701491416309
 30
0.0
  0
LINE
  5
107
330
1F
100
AcDbEntity
  8
0
  6
DASHDOT
 62
     7
370
    25
100
AcDbLine
 10
325.0316175817671
 20
32.07939914163091
 30
0.0
 11
325.0316175817671
 21
606.5585711416309
 31
0.0
  0
LINE
  5
108
330
1F
100
AcDbEntity
  8
0
 62
     7
 48
0.273
370
    60
100
AcDbLine
 10
237.2816175817671
 20
140.4522021416309
 30
0.0
 11
248.201615581767
 21
140.4522021416309
 31
0.0
  0
LINE
  5
109
330
1F
100
AcDbEntity
  8
0
 62
     7
 48
0.273
370
    60
100
AcDbLine
 10
237.2816175817671
 20
187.7721941416309
 30
0.0
 11
248.201615581767
 21
187.7721941416309
 31
0.0
  0
ARC
  5
10A
330
1F
100
AcDbEntity
  8
0
 62
     7
370
    60
100
AcDbCircle
 10
237.2816175817671
 20
164.1121901416309
 30
0.0
 40
23.65999999999997
100
AcDbArc
 50
90.00000300000006
 51
269.9999970000001
  0
LINE
  5
10B
330
1F
100
AcDbEntity
  8
0
 62
     7
 48
0.494
370
    60
100
AcDbLine
 10
231.8216255817671
 20
154.2322001416309
 30
0.0
 11
231.8216255817671
 21
173.9921951416309
 31
0.0
  0
LINE
  5
10C
330
1F
100
AcDbEntity
  8
0
 62
     7
 48
0.39
370
    60
100
AcDbLine
 10
235.9816145817671
 20
154.2322001416309
 30
0.0
 11
235.9816145817671
 21
169.8321911416309
 31
0.0
  0
LINE
  5
10D
330
1F
100
AcDbEntity
  8
0
 62
     7
370
    60
100
AcDbLine
 10
248.9816145817671
 20
141.2322001416309
 30
0.0
 11
248.9816145817671
 21
169.8321911416309
 31
0.0
  0
LINE
  5
10E
330
1F
100
AcDbEntity
  8
0
 62
     7
 48
0.065
370
    60
100
AcDbLine
 10
232.6016245817671
 20
153.4522021416309
 30
0.0
 11
235.2016155817671
 21
153.4522021416309
 31
0.0
  0
LINE
  5
10F
330
1F
100
AcDbEntity
  8
0
 62
     7
 48
0.39
370
    60
100
AcDbLine
 10
232.6016245817671
 20
174.7721941416309
 30
0.0
 11
248.201615581767
 21
174.7721941416309
 31
0.0
  0
LINE
  5
110
330
1F
100
AcDbEntity
  8
0
 62
     7
 48
0.286
370
    60
100
AcDbLine
 10
236.7616125817671
 20
170.6121901416309
 30
0.0
 11
248.201615581767
 21
170.6121901416309
 31
0.0
  0
ARC
  5
111
330
1F
100
AcDbEntity
  8
0
 62
     7
370
    60
100
AcDbCircle
 10
248.201615581767
 20
186.9921951416309
 30
0.0
 40
0.7799999999999727
100
AcDbArc
 50
0.0
 51
90.000003
  0
ARC
  5
112
330
1F
100
AcDbEntity
  8
0
 62
     7
370
    60
100
AcDbCircle
 10
248.201615581767
 20
141.2322001416309
 30
0.0
 40
0.7800000000000022
100
AcDbArc
 50
269.9999970000011
 51
0.0000000000011704
  0
ARC
  5
113
330
1F
100
AcDbEntity
  8
0
 62
     7
370
    60
100
AcDbCircle
 10
232.6016245817671
 20
173.9921951416309
 30
0.0
 40
0.7799999999999738
100
AcDbArc
 50
90.00000299999887
 51
180.0000089999989
  0
ARC
  5
114
330
1F
100
AcDbEntity
  8
0
 62
     7
370
    60
100
AcDbCircle
 10
232.6016245817671
 20
154.2322001416309
 30
0.0
 40
0.7799999999999824
100
AcDbArc
 50
180.0000090000008
 51
269.9999970000008
  0
ARC
  5
115
330
1F
100
AcDbEntity
  8
0
 62
     7
370
    60
100
AcDbCircle
 10
235.2016155817671
 20
154.2322001416309
 30
0.0
 40
0.7800000000000022
100
AcDbArc
 50
269.9999970000011
 51
0.0000000000011704
  0
ARC
  5
116
330
1F
100
AcDbEntity
  8
0
 62
     7
370
    60
100
AcDbCircle
 10
236.7616125817671
 20
169.8321911416309
 30
0.0
 40
0.7799999999999738
100
AcDbArc
 50
90.00000299999887
 51
180.0000089999989
  0
LINE
  5
117
330
1F
100
AcDbEntity
  8
0
 62
     7
 48
0.286
370
    60
100
AcDbLine
 10
248.9816145817671
 20
175.5521921416309
 30
0.0
 11
248.9816145817671
 21
186.9921951416309
 31
0.0
  0
ARC
  5
118
330
1F
100
AcDbEntity
  8
0
 62
     7
370
    60
100
AcDbCircle
 10
248.201615581767
 20
175.5521921416309
 30
0.0
 40
0.7799999999999738
100
AcDbArc
 50
269.9999970000011
 51
0.0000000000011704
  0
ARC
  5
119
330
1F
100
AcDbEntity
  8
0
 62
     7
370
    60
100
AcDbCircle
 10
248.201615581767
 20
169.8321911416309
 30
0.0
 40
0.7799999999999727
100
AcDbArc
 50
0.0
 51
90.000003
  0
LINE
  5
11A
330
1F
100
AcDbEntity
  8
0
 62
     7
 48
0.286
370
    60
100
AcDbLine
 10
289.8016215817671
 20
141.2322001416309
 30
0.0
 11
289.8016215817671
 21
152.6722031416309
 31
0.0
  0
LINE
  5
11B
330
1F
100
AcDbEntity
  8
0
 62
     7
 48
0.065
370
    60
100
AcDbLine
 10
266.141617581767
 20
154.2322001416309
 30
0.0
 11
266.141617581767
 21
156.8321911416309
 31
0.0
  0
LINE
  5
11C
330
1F
100
AcDbEntity
  8
0
 62
     7
370
    60
100
AcDbLine
 10
253.9216165817671
 20
140.4522021416309
 30
0.0
 11
289.0216225817671
 21
140.4522021416309
 31
0.0
  0
LINE
  5
11D
330
1F
100
AcDbEntity
  8
0
 62
     7
 48
0.1235
370
    60
100
AcDbLine
 10
266.9216165817671
 20
174.7721941416309
 30
0.0
 11
271.8616185817671
 21
174.7721941416309
 31
0.0
  0
LINE
  5
11E
330
1F
100
AcDbEntity
  8
0
 62
     7
370
    60
100
AcDbLine
 10
266.9216165817671
 20
170.6121901416309
 30
0.0
 11
289.0216225817671
 21
170.6121901416309
 31
0.0
  0
LINE
  5
11F
330
1F
100
AcDbEntity
  8
0
 62
     7
370
    60
100
AcDbLine
 10
266.9216165817671
 20
157.6122051416309
 30
0.0
 11
289.0216225817671
 21
157.6122051416309
 31
0.0
  0
LINE
  5
120
330
1F
100
AcDbEntity
  8
0
 62
     7
370
    60
100
AcDbLine
 10
266.9216165817671
 20
153.4522021416309
 30
0.0
 11
289.0216225817671
 21
153.4522021416309
 31
0.0
  0
ARC
  5
121
330
1F
100
AcDbEntity
  8
0
 62
     7
370
    60
100
AcDbCircle
 10
253.9216165817671
 20
186.9921951416309
 30
0.0
 40
0.7799999999999738
100
AcDbArc
 50
90.00000299999887
 51
180.0000089999989
  0
ARC
  5
122
330
1F
100
AcDbEntity
  8
0
 62
     7
370
    60
100
AcDbCircle
 10
253.9216165817671
 20
141.2322001416309
 30
0.0
 40
0.7799999999999824
100
AcDbArc
 50
180.0000090000008
 51
269.9999970000008
  0
ARC
  5
123
330
1F
100
AcDbEntity
  8
0
 62
     7
370
    60
100
AcDbCircle
 10
289.0216225817671
 20
141.2322001416309
 30
0.0
 40
0.7800000000000022
100
AcDbArc
 50
269.9999970000011
 51
0.0000000000011704
  0
ARC
  5
124
330
1F
100
AcDbEntity
  8
0
 62
     7
370
    60
100
AcDbCircle
 10
289.0216225817671
 20
152.6722031416309
 30
0.0
 40
0.7799999999999727
100
AcDbArc
 50
0.0
 51
90.000003
  0
ARC
  5
125
330
1F
100
AcDbEntity
  8
0
 62
     7
370
    60
100
AcDbCircle
 10
266.9216165817671
 20
154.2322001416309
 30
0.0
 40
0.7799999999999824
100
AcDbArc
 50
180.0000090000008
 51
269.9999970000008
  0
ARC
  5
126
330
1F
100
AcDbEntity
  8
0
 62
     7
370
    60
100
AcDbCircle
 10
271.8616185817671
 20
186.9921951416309
 30
0.0
 40
0.7799999999999727
100
AcDbArc
 50
0.0
 51
90.000003
  0
ARC
  5
127
330
1F
100
AcDbEntity
  8
0
 62
     7
370
    60
100
AcDbCircle
 10
271.8616185817671
 20
175.5521921416309
 30
0.0
 40
0.7799999999999738
100
AcDbArc
 50
269.9999970000011
 51
0.0000000000011704
  0
ARC
  5
128
330
1F
100
AcDbEntity
  8
0
 62
     7
370
    60
100
AcDbCircle
 10
266.9216165817671
 20
173.9921951416309
 30
0.0
 40
0.7799999999999738
100
AcDbArc
 50
90.00000299999887
 51
180.0000089999989
  0
ARC
  5
129
330
1F
100
AcDbEntity
  8
0
 62
     7
370
    60
100
AcDbCircle
 10
289.0216225817671
 20
169.8321911416309
 30
0.0
 40
0.7799999999999727
100
AcDbArc
 50
0.0
 51
90.000003
  0
ARC
  5
12A
330
1F
100
AcDbEntity
  8
0
 62
     7
370
    60
100
AcDbCircle
 10
289.0216225817671
 20
158.3922041416309
 30
0.0
 40
0.7800000000000022
100
AcDbArc
 50
269.9999970000011
 51
0.0000000000011704
  0
ARC
  5
12B
330
1F
100
AcDbEntity
  8
0
 62
     7
370
    60
100
AcDbCircle
 10
266.9216165817671
 20
156.8321911416309
 30
0.0
 40
0.7800000000000022
100
AcDbArc
 50
90.00000299999887
 51
180.0000089999989
  0
ARC
  5
12C
330
1F
100
AcDbEntity
  8
0
 62
     7
370
    60
100
AcDbCircle
 10
266.9216165817671
 20
171.3922041416309
 30
0.0
 40
0.7799999999999824
100
AcDbArc
 50
180.0000090000008
 51
269.9999970000008
  0
LINE
  5
12D
330
1F
100
AcDbEntity
  8
0
 62
     7
 48
0.286
370
    60
100
AcDbLine
 10
276.8016215817671
 20
175.5521921416309
 30
0.0
 11
276.8016215817671
 21
186.9921951416309
 31
0.0
  0
LINE
  5
12E
330
1F
100
AcDbEntity
  8
0
 62
     7
 48
0.332299
370
    60
100
AcDbLine
 10
277.5816205817671
 20
174.7721941416309
 30
0.0
 11
290.873581581767
 21
174.7721941416309
 31
0.0
  0
LINE
  5
12F
330
1F
100
AcDbEntity
  8
0
 62
     7
370
    60
100
AcDbLine
 10
291.6329205817671
 20
174.1705241416309
 30
0.0
 11
299.4103095817671
 21
141.0538711416309
 31
0.0
  0
ARC
  5
130
330
1F
100
AcDbEntity
  8
0
 62
     7
370
    60
100
AcDbCircle
 10
290.873581581767
 20
173.9921951416309
 30
0.0
 40
0.7800000000000029
100
AcDbArc
 50
13.2163239999992
 51
90.00000299999924
  0
ARC
  5
131
330
1F
100
AcDbEntity
  8
0
 62
     7
370
    60
100
AcDbCircle
 10
300.1696635817671
 20
141.2322001416309
 30
0.0
 40
0.7799999999999857
100
AcDbArc
 50
193.2163430000005
 51
269.9999970000005
  0
LINE
  5
132
330
1F
100
AcDbEntity
  8
0
 62
     7
 48
0.481168
370
    60
100
AcDbLine
 10
312.6770185817671
 20
141.0792311416309
 30
0.0
 11
316.451615581767
 21
159.9522021416309
 31
0.0
  0
ARC
  5
133
330
1F
100
AcDbEntity
  8
0
 62
     7
370
    60
100
AcDbCircle
 10
311.912171581767
 20
141.2322001416309
 30
0.0
 40
0.7800000000000022
100
AcDbArc
 50
269.9999970000011
 51
348.6900640000011
  0
LINE
  5
134
330
1F
100
AcDbEntity
  8
0
 62
     7
 48
0.498526
370
    60
100
AcDbLine
 10
301.9024515817671
 20
187.1697461416309
 30
0.0
 11
306.441620581767
 21
167.7522051416309
 31
0.0
  0
LINE
  5
135
330
1F
100
AcDbEntity
  8
0
 62
     7
 48
0.490462
370
    60
100
AcDbLine
 10
306.441620581767
 20
167.7522051416309
 30
0.0
 11
309.585282581767
 21
187.1171801416309
 31
0.0
  0
ARC
  5
136
330
1F
100
AcDbEntity
  8
0
 62
     7
370
    60
100
AcDbCircle
 10
301.1429295817671
 20
186.9921951416309
 30
0.0
 40
0.7799999999999718
100
AcDbArc
 50
13.15754199999938
 51
90.00000299999938
  0
LINE
  5
137
330
1F
100
AcDbEntity
  8
0
 62
     7
 48
0.15241
370
    60
100
AcDbLine
 10
310.355210581767
 20
187.7721941416309
 30
0.0
 11
316.451615581767
 21
187.7721941416309
 31
0.0
  0
ARC
  5
138
330
1F
100
AcDbEntity
  8
0
 62
     7
370
    60
100
AcDbCircle
 10
310.355210581767
 20
186.9921951416309
 30
0.0
 40
0.7799999999999738
100
AcDbArc
 50
90.00000299999887
 51
170.7791809999989
  0
LINE
  5
139
330
1F
100
AcDbEntity
  8
0
 62
     7
 48
0.152411
370
    60
100
AcDbLine
 10
316.451615581767
 20
187.7721941416309
 30
0.0
 11
322.5480355817671
 21
187.7721941416309
 31
0.0
  0
ARC
  5
13A
330
1F
100
AcDbEntity
  8
0
 62
     7
370
    60
100
AcDbCircle
 10
322.5480355817671
 20
186.9921951416309
 30
0.0
 40
0.7800000000000012
100
AcDbArc
 50
9.220825000001836
 51
90.00000300000184
  0
LINE
  5
13B
330
1F
100
AcDbEntity
  8
0
 62
     7
 48
0.490462
370
    60
100
AcDbLine
 10
323.317948581767
 20
187.1171801416309
 30
0.0
 11
326.461609581767
 21
167.7522051416309
 31
0.0
  0
LINE
  5
13C
330
1F
100
AcDbEntity
  8
0
 62
     7
 48
0.498526
370
    60
100
AcDbLine
 10
326.461609581767
 20
167.7522051416309
 30
0.0
 11
331.0007795817671
 21
187.1697461416309
 31
0.0
  0
LINE
  5
13D
330
1F
100
AcDbEntity
  8
0
 62
     7
370
    60
100
AcDbLine
 10
331.7603005817671
 20
187.7721941416309
 30
0.0
 11
355.321618581767
 21
187.7721941416309
 31
0.0
  0
ARC
  5
13E
330
1F
100
AcDbEntity
  8
0
 62
     7
370
    60
100
AcDbCircle
 10
331.7603005817671
 20
186.9921951416309
 30
0.0
 40
0.7799999999999738
100
AcDbArc
 50
90.00000299999887
 51
166.8424519999989
  0
ARC
  5
13F
330
1F
100
AcDbEntity
  8
0
 62
     7
370
    60
100
AcDbCircle
 10
355.321618581767
 20
186.9921951416309
 30
0.0
 40
0.7799999999999727
100
AcDbArc
 50
0.0
 51
90.000003
  0
LINE
  5
140
330
1F
100
AcDbEntity
  8
0
 62
     7
 48
0.286
370
    60
100
AcDbLine
 10
356.1016165817671
 20
175.5521921416309
 30
0.0
 11
356.1016165817671
 21
186.9921951416309
 31
0.0
  0
ARC
  5
141
330
1F
100
AcDbEntity
  8
0
 62
     7
370
    60
100
AcDbCircle
 10
355.321618581767
 20
175.5521921416309
 30
0.0
 40
0.7799999999999738
100
AcDbArc
 50
269.9999970000011
 51
0.0000000000011704
  0
LINE
  5
142
330
1F
100
AcDbEntity
  8
0
 62
     7
 48
0.332299
370
    60
100
AcDbLine
 10
342.029648581767
 20
174.7721941416309
 30
0.0
 11
355.321618581767
 21
174.7721941416309
 31
0.0
  0
ARC
  5
143
330
1F
100
AcDbEntity
  8
0
 62
     7
370
    60
100
AcDbCircle
 10
342.029648581767
 20
173.9921951416309
 30
0.0
 40
0.7799999999999738
100
AcDbArc
 50
90.00000299999887
 51
166.7836709999989
  0
LINE
  5
144
330
1F
100
AcDbEntity
  8
0
 62
     7
370
    60
100
AcDbLine
 10
333.4929205817671
 20
141.0538711416309
 30
0.0
 11
341.270310581767
 21
174.1705241416309
 31
0.0
  0
ARC
  5
145
330
1F
100
AcDbEntity
  8
0
 62
     7
370
    60
100
AcDbCircle
 10
332.7335825817671
 20
141.2322001416309
 30
0.0
 40
0.7800000000000022
100
AcDbArc
 50
269.9999970000011
 51
346.7836750000013
  0
LINE
  5
146
330
1F
100
AcDbEntity
  8
0
 62
     7
 48
0.293563
370
    60
100
AcDbLine
 10
320.991059581767
 20
140.4522021416309
 30
0.0
 11
332.7335825817671
 21
140.4522021416309
 31
0.0
  0
ARC
  5
147
330
1F
100
AcDbEntity
  8
0
 62
     7
370
    60
100
AcDbCircle
 10
320.991059581767
 20
141.2322001416309
 30
0.0
 40
0.7800000000000216
100
AcDbArc
 50
191.3099409999996
 51
269.9999969999996
  0
LINE
  5
148
330
1F
100
AcDbEntity
  8
0
 62
     7
 48
0.481168
370
    60
100
AcDbLine
 10
316.451615581767
 20
159.9522021416309
 30
0.0
 11
320.2262125817671
 21
141.0792311416309
 31
0.0
  0
LINE
  5
149
330
1F
100
AcDbEntity
  8
0
 62
     7
370
    60
100
AcDbLine
 10
356.1016165817671
 20
141.2322001416309
 30
0.0
 11
356.1016165817671
 21
169.8321911416309
 31
0.0
  0
LINE
  5
14A
330
1F
100
AcDbEntity
  8
0
 62
     7
 48
0.286
370
    60
100
AcDbLine
 10
343.8816235817671
 20
140.4522021416309
 30
0.0
 11
355.321618581767
 21
140.4522021416309
 31
0.0
  0
ARC
  5
14B
330
1F
100
AcDbEntity
  8
0
 62
     7
370
    60
100
AcDbCircle
 10
343.8816235817671
 20
169.8321911416309
 30
0.0
 40
0.7799999999999738
100
AcDbArc
 50
90.00000299999887
 51
180.0000089999989
  0
ARC
  5
14C
330
1F
100
AcDbEntity
  8
0
 62
     7
370
    60
100
AcDbCircle
 10
343.8816235817671
 20
141.2322001416309
 30
0.0
 40
0.7799999999999824
100
AcDbArc
 50
180.0000090000008
 51
269.9999970000008
  0
LINE
  5
14D
330
1F
100
AcDbEntity
  8
0
 62
     7
370
    60
100
AcDbLine
 10
414.8616155817671
 20
170.6121901416309
 30
0.0
 11
434.9350785817671
 21
170.6121901416309
 31
0.0
  0
LINE
  5
14E
330
1F
100
AcDbEntity
  8
0
 62
     7
370
    60
100
AcDbLine
 10
401.8616115817671
 20
157.6122051416309
 30
0.0
 11
423.961613581767
 21
157.6122051416309
 31
0.0
  0
ARC
  5
14F
330
1F
100
AcDbEntity
  8
0
 62
     7
370
    60
100
AcDbCircle
 10
423.961613581767
 20
156.8321911416309
 30
0.0
 40
0.7799999999999727
100
AcDbArc
 50
0.0
 51
90.000003
  0
ARC
  5
150
330
1F
100
AcDbEntity
  8
0
 62
     7
370
    60
100
AcDbCircle
 10
423.961613581767
 20
154.2322001416309
 30
0.0
 40
0.7800000000000022
100
AcDbArc
 50
269.9999969999969
 51
359.9999999999969
  0
LINE
  5
151
330
1F
100
AcDbEntity
  8
0
 62
     7
370
    60
100
AcDbLine
 10
401.8616115817671
 20
153.4522021416309
 30
0.0
 11
423.961613581767
 21
153.4522021416309
 31
0.0
  0
LINE
  5
152
330
1F
100
AcDbEntity
  8
0
 62
     7
 48
0.065
370
    60
100
AcDbLine
 10
424.7416125817671
 20
154.2322001416309
 30
0.0
 11
424.7416125817671
 21
156.8321911416309
 31
0.0
  0
ARC
  5
153
330
1F
100
AcDbEntity
  8
0
 62
     7
370
    60
100
AcDbCircle
 10
412.7816135817671
 20
164.1121901416309
 30
0.0
 40
23.65999999999997
100
AcDbArc
 50
30.00000100000005
 51
90.00000300000006
  0
ARC
  5
154
330
1F
100
AcDbEntity
  8
0
 62
     7
370
    60
100
AcDbCircle
 10
432.5962765817671
 20
175.5521921416309
 30
0.0
 40
0.7799999999999738
100
AcDbArc
 50
269.9999969999969
 51
30.00000099999699
  0
ARC
  5
155
330
1F
100
AcDbEntity
  8
0
 62
     7
370
    60
100
AcDbCircle
 10
434.9350785817671
 20
169.8321911416309
 30
0.0
 40
0.7800000000000358
100
AcDbArc
 50
14.47751100000043
 51
90.00000300000045
  0
LINE
  5
156
330
1F
100
AcDbEntity
  8
0
 62
     7
370
    60
100
AcDbLine
 10
401.081612581767
 20
158.3922041416309
 30
0.0
 11
401.081612581767
 21
186.9921951416309
 31
0.0
  0
ARC
  5
157
330
1F
100
AcDbEntity
  8
0
 62
     7
370
    60
100
AcDbCircle
 10
401.8616115817671
 20
158.3922041416309
 30
0.0
 40
0.7799999999999824
100
AcDbArc
 50
180.0000090000008
 51
269.9999970000008
  0
ARC
  5
158
330
1F
100
AcDbEntity
  8
0
 62
     7
370
    60
100
AcDbCircle
 10
401.8616115817671
 20
152.6722031416309
 30
0.0
 40
0.7800000000000022
100
AcDbArc
 50
90.00000299999887
 51
180.0000089999989
  0
LINE
  5
159
330
1F
100
AcDbEntity
  8
0
 62
     7
 48
0.1
370
    60
100
AcDbLine
 10
647.960846581767
 20
581.7721941416308
 30
0.0
 11
651.960846581767
 21
581.7721941416308
 31
0.0
  0
LINE
  5
15A
330
1F
100
AcDbEntity
  8
0
 62
     7
370
    60
100
AcDbLine
 10
647.960846581767
 20
78.7722091416309
 30
0.0
 11
647.960846581767
 21
581.7721941416308
 31
0.0
  0
LINE
  5
15B
330
1F
100
AcDbEntity
  8
0
 62
     7
370
    60
100
AcDbLine
 10
651.960846581767
 20
78.7722091416309
 30
0.0
 11
651.960846581767
 21
581.7721941416308
 31
0.0
  0
LINE
  5
15C
330
1F
100
AcDbEntity
  8
0
 62
     7
 48
0.1
370
    60
100
AcDbLine
 10
647.960846581767
 20
78.7722091416309
 30
0.0
 11
651.960846581767
 21
78.7722091416309
 31
0.0
  0
CIRCLE
  5
15D
330
1F
100
AcDbEntity
  8
0
 62
     7
370
    60
100
AcDbCircle
 10
459.0316175817671
 20
87.7722091416309
 30
0.0
 40
3.75
  0
CIRCLE
  5
15E
330
1F
100
AcDbEntity
  8
0
 62
     7
370
    60
100
AcDbCircle
 10
373.0316175817671
 20
87.7722091416309
 30
0.0
 40
3.75
  0
CIRCLE
  5
15F
330
1F
100
AcDbEntity
  8
0
 62
     7
370
    60
100
AcDbCircle
 10
277.0316175817671
 20
87.7722091416309
 30
0.0
 40
3.75
  0
CIRCLE
  5
160
330
1F
100
AcDbEntity
  8
0
 62
     7
370
    60
100
AcDbCircle
 10
191.0316175817671
 20
87.7722091416309
 30
0.0
 40
3.75
  0
LINE
  5
161
330
1F
100
AcDbEntity
  8
0
 62
     7
370
    60
100
AcDbLine
 10
520.5316175817671
 20
78.7722091416309
 30
0.0
 11
520.5316175817671
 21
581.7721941416308
 31
0.0
  0
LINE
  5
162
330
1F
100
AcDbEntity
  8
0
 62
     7
370
    60
100
AcDbLine
 10
325.0316175817671
 20
78.7722091416309
 30
0.0
 11
520.5316175817671
 21
78.7722091416309
 31
0.0
  0
LINE
  5
163
330
1F
100
AcDbEntity
  8
0
 62
     7
370
    60
100
AcDbLine
 10
129.5316175817671
 20
78.7722091416309
 30
0.0
 11
325.0316175817671
 21
78.7722091416309
 31
0.0
  0
LINE
  5
164
330
1F
100
AcDbEntity
  8
0
 62
     7
 48
0.125
370
    25
100
AcDbLine
 10
498.4158945817671
 20
114.3013231416309
 30
0.0
 11
503.4158945817671
 21
114.3013231416309
 31
0.0
  0
LINE
  5
165
330
1F
100
AcDbEntity
  8
0
 62
     7
 48
0.075
370
    25
100
AcDbLine
 10
502.4158945817671
 20
115.3013231416309
 30
0.0
 11
502.4158945817671
 21
118.3013231416309
 31
0.0
  0
LINE
  5
166
330
1F
100
AcDbEntity
  8
0
 62
     7
 48
0.075
370
    25
100
AcDbLine
 10
499.4158945817671
 20
118.3013231416309
 30
0.0
 11
502.4158945817671
 21
118.3013231416309
 31
0.0
  0
LINE
  5
167
330
1F
100
AcDbEntity
  8
0
 62
     7
 48
0.125
370
    25
100
AcDbLine
 10
503.4158945817671
 20
114.3013231416309
 30
0.0
 11
503.4158945817671
 21
119.3013231416309
 31
0.0
  0
LINE
  5
168
330
1F
100
AcDbEntity
  8
0
 62
     7
 48
0.125
370
    25
100
AcDbLine
 10
498.4158945817671
 20
114.3013231416309
 30
0.0
 11
498.4158945817671
 21
119.3013231416309
 31
0.0
  0
LINE
  5
169
330
1F
100
AcDbEntity
  8
0
 62
     7
 48
0.125
370
    25
100
AcDbLine
 10
498.4158945817671
 20
119.3013231416309
 30
0.0
 11
503.4158945817671
 21
119.3013231416309
 31
0.0
  0
LINE
  5
16A
330
1F
100
AcDbEntity
  8
0
 62
     7
 48
0.075
370
    25
100
AcDbLine
 10
499.4158945817671
 20
115.3013231416309
 30
0.0
 11
502.4158945817671
 21
115.3013231416309
 31
0.0
  0
LINE
  5
16B
330
1F
100
AcDbEntity
  8
0
 62
     7
 48
0.075
370
    25
100
AcDbLine
 10
499.4158945817671
 20
115.3013231416309
 30
0.0
 11
499.4158945817671
 21
118.3013231416309
 31
0.0
  0
LINE
  5
16C
330
1F
100
AcDbEntity
  8
0
 62
     7
 48
0.010634
370
    25
100
AcDbLine
 10
459.5535875817671
 20
114.2887801416309
 30
0.0
 11
459.978961581767
 21
114.2887801416309
 31
0.0
  0
LINE
  5
16D
330
1F
100
AcDbEntity
  8
0
 62
     7
 48
0.016389
370
    25
100
AcDbLine
 10
459.723737581767
 20
119.2887801416309
 30
0.0
 11
460.3793145817669
 21
119.2887801416309
 31
0.0
  0
LINE
  5
16E
330
1F
100
AcDbEntity
  8
0
 62
     7
 48
0.018886
370
    25
100
AcDbLine
 10
465.4158945817671
 20
118.5208361416309
 30
0.0
 11
465.4158945817671
 21
119.2762681416309
 31
0.0
  0
ARC
  5
16F
330
1F
100
AcDbEntity
  8
0
 62
     7
370
    25
100
AcDbCircle
 10
460.9158945817671
 20
116.7887801416309
 30
0.0
 40
2.500000000000017
100
AcDbArc
 50
84.2608269999991
 51
275.7391869999991
  0
ARC
  5
170
330
1F
100
AcDbEntity
  8
0
 62
     7
370
    25
100
AcDbCircle
 10
460.9158945817671
 20
116.7887801416309
 30
0.0
 40
1.750000000000009
100
AcDbArc
 50
81.78678899999834
 51
278.2132179999983
  0
LINE
  5
171
330
1F
100
AcDbEntity
  8
0
 62
     7
 48
0.018886
370
    25
100
AcDbLine
 10
461.1658945817671
 20
118.5208361416309
 30
0.0
 11
461.1658945817671
 21
119.2762681416309
 31
0.0
  0
LINE
  5
172
330
1F
100
AcDbEntity
  8
0
 62
     7
 48
0.018886
370
    25
100
AcDbLine
 10
461.1658945817671
 20
114.3013231416309
 30
0.0
 11
461.1658945817671
 21
115.0567551416309
 31
0.0
  0
ARC
  5
173
330
1F
100
AcDbEntity
  8
0
 62
     7
370
    25
100
AcDbCircle
 10
465.1658945817671
 20
116.7887801416309
 30
0.0
 40
2.500000000000017
100
AcDbArc
 50
84.2608269999991
 51
275.7391869999991
  0
LINE
  5
174
330
1F
100
AcDbEntity
  8
0
 62
     7
 48
0.018886
370
    25
100
AcDbLine
 10
465.4158945817671
 20
114.3013231416309
 30
0.0
 11
465.4158945817671
 21
115.0567551416309
 31
0.0
  0
ARC
  5
175
330
1F
100
AcDbEntity
  8
0
 62
     7
370
    25
100
AcDbCircle
 10
465.1658945817671
 20
116.7887801416309
 30
0.0
 40
1.750000000000001
100
AcDbArc
 50
192.3736340000001
 51
278.213218
  0
ARC
  5
176
330
1F
100
AcDbEntity
  8
0
 62
     7
370
    25
100
AcDbCircle
 10
465.1658945817671
 20
116.7887801416309
 30
0.0
 40
1.750000000000009
100
AcDbArc
 50
81.78678899999834
 51
167.6263799999984
  0
LINE
  5
177
330
1F
100
AcDbEntity
  8
0
 62
     7
 48
0.036484
370
    25
100
AcDbLine
 10
463.456544581767
 20
117.1637801416309
 30
0.0
 11
464.9158945817671
 21
117.1637801416309
 31
0.0
  0
LINE
  5
178
330
1F
100
AcDbEntity
  8
0
 62
     7
 48
0.01875
370
    25
100
AcDbLine
 10
464.9158945817671
 20
116.4137801416309
 30
0.0
 11
464.9158945817671
 21
117.1637801416309
 31
0.0
  0
LINE
  5
179
330
1F
100
AcDbEntity
  8
0
 62
     7
370
    60
100
AcDbLine
 10
129.5316175817671
 20
78.7722091416309
 30
0.0
 11
129.5316175817671
 21
581.7721941416308
 31
0.0
  0
LINE
  5
17A
330
1F
100
AcDbEntity
  8
0
 62
     7
370
    60
100
AcDbLine
 10
325.0316175817671
 20
581.7721941416308
 30
0.0
 11
520.5316175817671
 21
581.7721941416308
 31
0.0
  0
LINE
  5
17B
330
1F
100
AcDbEntity
  8
0
 62
     7
370
    60
100
AcDbLine
 10
129.5316175817671
 20
581.7721941416308
 30
0.0
 11
325.0316175817671
 21
581.7721941416308
 31
0.0
  0
LINE
  5
17C
330
1F
100
AcDbEntity
  8
0
 62
     7
 48
0.036484
370
    25
100
AcDbLine
 10
463.456544581767
 20
116.4137801416309
 30
0.0
 11
464.9158945817671
 21
116.4137801416309
 31
0.0
  0
LINE
  5
17D
330
1F
100
AcDbEntity
  8
0
 62
     7
 48
0.25
370
    25
100
AcDbLine
 10
444.4158945817671
 20
114.3013231416309
 30
0.0
 11
454.4158945817671
 21
114.3013231416309
 31
0.0
  0
LINE
  5
17E
330
1F
100
AcDbEntity
  8
0
 62
     7
 48
0.125
370
    25
100
AcDbLine
 10
444.4158945817671
 20
114.3013231416309
 30
0.0
 11
444.4158945817671
 21
119.3013231416309
 31
0.0
  0
LINE
  5
17F
330
1F
100
AcDbEntity
  8
0
 62
     7
 48
0.125
370
    25
100
AcDbLine
 10
454.4158945817671
 20
114.3013231416309
 30
0.0
 11
454.4158945817671
 21
119.3013231416309
 31
0.0
  0
LINE
  5
180
330
1F
100
AcDbEntity
  8
0
 62
     7
 48
0.25
370
    25
100
AcDbLine
 10
444.4158945817671
 20
119.3013231416309
 30
0.0
 11
454.4158945817671
 21
119.3013231416309
 31
0.0
  0
LINE
  5
181
330
1F
100
AcDbEntity
  8
0
 62
     7
 48
0.160031
370
    25
100
AcDbLine
 10
433.4158945817671
 20
113.3013231416309
 30
0.0
 11
439.8171435817671
 21
113.3013231416309
 31
0.0
  0
LINE
  5
182
330
1F
100
AcDbEntity
  8
0
 62
     7
 48
0.0375
370
    25
100
AcDbLine
 10
439.8171435817671
 20
114.3013231416309
 30
0.0
 11
441.3171435817671
 21
114.3013231416309
 31
0.0
  0
LINE
  5
183
330
1F
100
AcDbEntity
  8
0
 62
     7
 48
0.0375
370
    25
100
AcDbLine
 10
439.8171435817671
 20
119.3013231416309
 30
0.0
 11
441.3171435817671
 21
119.3013231416309
 31
0.0
  0
LINE
  5
184
330
1F
100
AcDbEntity
  8
0
 62
     7
 48
0.0375
370
    25
100
AcDbLine
 10
431.9158945817671
 20
114.3013231416309
 30
0.0
 11
433.4158945817671
 21
114.3013231416309
 31
0.0
  0
LINE
  5
185
330
1F
100
AcDbEntity
  8
0
 62
     7
 48
0.0375
370
    25
100
AcDbLine
 10
431.9158945817671
 20
119.3013231416309
 30
0.0
 11
433.4158945817671
 21
119.3013231416309
 31
0.0
  0
LINE
  5
186
330
1F
100
AcDbEntity
  8
0
 62
     7
 48
0.160031
370
    25
100
AcDbLine
 10
433.4158945817671
 20
120.3013231416309
 30
0.0
 11
439.8171435817671
 21
120.3013231416309
 31
0.0
  0
LINE
  5
187
330
1F
100
AcDbEntity
  8
0
 62
     7
 48
0.125
370
    25
100
AcDbLine
 10
441.3171435817671
 20
114.3013231416309
 30
0.0
 11
441.3171435817671
 21
119.3013231416309
 31
0.0
  0
LINE
  5
188
330
1F
100
AcDbEntity
  8
0
 62
     7
 48
0.125
370
    25
100
AcDbLine
 10
431.9158945817671
 20
114.3013231416309
 30
0.0
 11
431.9158945817671
 21
119.3013231416309
 31
0.0
  0
LINE
  5
189
330
1F
100
AcDbEntity
  8
0
 62
     7
 48
0.022325
370
    25
100
AcDbLine
 10
433.4158945817671
 20
119.3013231416309
 30
0.0
 11
434.1119355817669
 21
118.7419051416309
 31
0.0
  0
LINE
  5
18A
330
1F
100
AcDbEntity
  8
0
 62
     7
 48
0.018979
370
    25
100
AcDbLine
 10
434.1119355817669
 20
118.7419051416309
 30
0.0
 11
434.7691965817671
 21
118.3619611416309
 31
0.0
  0
LINE
  5
18B
330
1F
100
AcDbEntity
  8
0
 62
     7
 48
0.010689
370
    25
100
AcDbLine
 10
434.7274065817671
 20
117.9364551416309
 30
0.0
 11
434.7691965817671
 21
118.3619611416309
 31
0.0
  0
LINE
  5
18C
330
1F
100
AcDbEntity
  8
0
 62
     7
 48
0.019027
370
    25
100
AcDbLine
 10
434.7274065817671
 20
117.9364551416309
 30
0.0
 11
435.3846675817671
 21
117.5527571416309
 31
0.0
  0
LINE
  5
18D
330
1F
100
AcDbEntity
  8
0
 62
     7
 48
0.024633
370
    25
100
AcDbLine
 10
435.3846675817671
 20
117.5527571416309
 30
0.0
 11
436.0220305817671
 21
116.8013231416309
 31
0.0
  0
LINE
  5
18E
330
1F
100
AcDbEntity
  8
0
 62
     7
 48
0.026452
370
    25
100
AcDbLine
 10
433.4158945817671
 20
120.3013231416309
 30
0.0
 11
433.956166581767
 21
119.3915631416309
 31
0.0
  0
LINE
  5
18F
330
1F
100
AcDbEntity
  8
0
 62
     7
 48
0.020784
370
    25
100
AcDbLine
 10
433.956166581767
 20
119.3915631416309
 30
0.0
 11
434.7122085817671
 21
119.0458301416309
 31
0.0
  0
LINE
  5
190
330
1F
100
AcDbEntity
  8
0
 62
     7
 48
0.015371
370
    25
100
AcDbLine
 10
434.7122085817671
 20
119.0458301416309
 30
0.0
 11
435.107323581767
 21
118.5747301416309
 31
0.0
  0
LINE
  5
191
330
1F
100
AcDbEntity
  8
0
 62
     7
 48
0.013289
370
    25
100
AcDbLine
 10
435.107323581767
 20
118.5747301416309
 30
0.0
 11
435.1681105817671
 21
118.0466531416309
 31
0.0
  0
LINE
  5
192
330
1F
100
AcDbEntity
  8
0
 62
     7
 48
0.022941
370
    25
100
AcDbLine
 10
435.1681105817671
 20
118.0466531416309
 30
0.0
 11
435.9963385817671
 21
117.6515121416309
 31
0.0
  0
LINE
  5
193
330
1F
100
AcDbEntity
  8
0
 62
     7
 48
0.026309
370
    25
100
AcDbLine
 10
435.9963385817671
 20
117.6515121416309
 30
0.0
 11
436.6165165817671
 21
116.8013231416309
 31
0.0
  0
LINE
  5
194
330
1F
100
AcDbEntity
  8
0
 62
     7
 48
0.022325
370
    25
100
AcDbLine
 10
433.4158945817671
 20
114.3013231416309
 30
0.0
 11
434.1119355817669
 21
114.8607401416309
 31
0.0
  0
LINE
  5
195
330
1F
100
AcDbEntity
  8
0
 62
     7
 48
0.018979
370
    25
100
AcDbLine
 10
434.1119355817669
 20
114.8607401416309
 30
0.0
 11
434.7691965817671
 21
115.2406841416309
 31
0.0
  0
LINE
  5
196
330
1F
100
AcDbEntity
  8
0
 62
     7
 48
0.010689
370
    25
100
AcDbLine
 10
434.7274065817671
 20
115.6661911416309
 30
0.0
 11
434.7691965817671
 21
115.2406841416309
 31
0.0
  0
LINE
  5
197
330
1F
100
AcDbEntity
  8
0
 62
     7
 48
0.019027
370
    25
100
AcDbLine
 10
434.7274065817671
 20
115.6661911416309
 30
0.0
 11
435.3846675817671
 21
116.0498881416309
 31
0.0
  0
LINE
  5
198
330
1F
100
AcDbEntity
  8
0
 62
     7
 48
0.024633
370
    25
100
AcDbLine
 10
435.3846675817671
 20
116.0498881416309
 30
0.0
 11
436.0220305817671
 21
116.8013231416309
 31
0.0
  0
LINE
  5
199
330
1F
100
AcDbEntity
  8
0
 62
     7
 48
0.026452
370
    25
100
AcDbLine
 10
433.4158945817671
 20
113.3013231416309
 30
0.0
 11
433.956166581767
 21
114.2110821416309
 31
0.0
  0
LINE
  5
19A
330
1F
100
AcDbEntity
  8
0
 62
     7
 48
0.020784
370
    25
100
AcDbLine
 10
433.956166581767
 20
114.2110821416309
 30
0.0
 11
434.7122085817671
 21
114.5568161416309
 31
0.0
  0
LINE
  5
19B
330
1F
100
AcDbEntity
  8
0
 62
     7
 48
0.015371
370
    25
100
AcDbLine
 10
434.7122085817671
 20
114.5568161416309
 30
0.0
 11
435.107323581767
 21
115.0279161416309
 31
0.0
  0
LINE
  5
19C
330
1F
100
AcDbEntity
  8
0
 62
     7
 48
0.013289
370
    25
100
AcDbLine
 10
435.107323581767
 20
115.0279161416309
 30
0.0
 11
435.1681105817671
 21
115.5559921416309
 31
0.0
  0
LINE
  5
19D
330
1F
100
AcDbEntity
  8
0
 62
     7
 48
0.022941
370
    25
100
AcDbLine
 10
435.1681105817671
 20
115.5559921416309
 30
0.0
 11
435.9963385817671
 21
115.9511331416309
 31
0.0
  0
LINE
  5
19E
330
1F
100
AcDbEntity
  8
0
 62
     7
 48
0.026309
370
    25
100
AcDbLine
 10
435.9963385817671
 20
115.9511331416309
 30
0.0
 11
436.6165165817671
 21
116.8013231416309
 31
0.0
  0
LINE
  5
19F
330
1F
100
AcDbEntity
  8
0
 62
     7
 48
0.026452
370
    25
100
AcDbLine
 10
439.276871581767
 20
119.3915631416309
 30
0.0
 11
439.8171435817671
 21
120.3013231416309
 31
0.0
  0
LINE
  5
1A0
330
1F
100
AcDbEntity
  8
0
 62
     7
 48
0.026452
370
    25
100
AcDbLine
 10
439.276871581767
 20
119.3915631416309
 30
0.0
 11
439.8171435817671
 21
120.3013231416309
 31
0.0
  0
LINE
  5
1A1
330
1F
100
AcDbEntity
  8
0
 62
     7
 48
0.015372
370
    25
100
AcDbLine
 10
438.125710581767
 20
118.5747301416309
 30
0.0
 11
438.5208295817671
 21
119.0458301416309
 31
0.0
  0
LINE
  5
1A2
330
1F
100
AcDbEntity
  8
0
 62
     7
 48
0.013289
370
    25
100
AcDbLine
 10
438.0649235817669
 20
118.0466531416309
 30
0.0
 11
438.125710581767
 21
118.5747301416309
 31
0.0
  0
LINE
  5
1A3
330
1F
100
AcDbEntity
  8
0
 62
     7
 48
0.022941
370
    25
100
AcDbLine
 10
437.2366995817671
 20
117.6515121416309
 30
0.0
 11
438.0649235817669
 21
118.0466531416309
 31
0.0
  0
LINE
  5
1A4
330
1F
100
AcDbEntity
  8
0
 62
     7
 48
0.026309
370
    25
100
AcDbLine
 10
436.6165165817671
 20
116.8013231416309
 30
0.0
 11
437.2366995817671
 21
117.6515121416309
 31
0.0
  0
LINE
  5
1A5
330
1F
100
AcDbEntity
  8
0
 62
     7
 48
0.024633
370
    25
100
AcDbLine
 10
437.211003581767
 20
116.8013231416309
 30
0.0
 11
437.8483705817671
 21
116.0498881416309
 31
0.0
  0
LINE
  5
1A6
330
1F
100
AcDbEntity
  8
0
 62
     7
 48
0.019027
370
    25
100
AcDbLine
 10
437.8483705817671
 20
116.0498881416309
 30
0.0
 11
438.5056315817671
 21
115.6661911416309
 31
0.0
  0
LINE
  5
1A7
330
1F
100
AcDbEntity
  8
0
 62
     7
 48
0.010689
370
    25
100
AcDbLine
 10
438.463841581767
 20
115.2406841416309
 30
0.0
 11
438.5056315817671
 21
115.6661911416309
 31
0.0
  0
LINE
  5
1A8
330
1F
100
AcDbEntity
  8
0
 62
     7
 48
0.018979
370
    25
100
AcDbLine
 10
438.463841581767
 20
115.2406841416309
 30
0.0
 11
439.121102581767
 21
114.8607401416309
 31
0.0
  0
LINE
  5
1A9
330
1F
100
AcDbEntity
  8
0
 62
     7
 48
0.022325
370
    25
100
AcDbLine
 10
439.121102581767
 20
114.8607401416309
 30
0.0
 11
439.8171435817671
 21
114.3013231416309
 31
0.0
  0
LINE
  5
1AA
330
1F
100
AcDbEntity
  8
0
 62
     7
 48
0.026452
370
    25
100
AcDbLine
 10
439.276871581767
 20
114.2110821416309
 30
0.0
 11
439.8171435817671
 21
113.3013231416309
 31
0.0
  0
LINE
  5
1AB
330
1F
100
AcDbEntity
  8
0
 62
     7
 48
0.020784
370
    25
100
AcDbLine
 10
438.5208295817671
 20
114.5568161416309
 30
0.0
 11
439.276871581767
 21
114.2110821416309
 31
0.0
  0
LINE
  5
1AC
330
1F
100
AcDbEntity
  8
0
 62
     7
 48
0.015372
370
    25
100
AcDbLine
 10
438.125710581767
 20
115.0279161416309
 30
0.0
 11
438.5208295817671
 21
114.5568161416309
 31
0.0
  0
LINE
  5
1AD
330
1F
100
AcDbEntity
  8
0
 62
     7
 48
0.013289
370
    25
100
AcDbLine
 10
438.0649235817669
 20
115.5559921416309
 30
0.0
 11
438.125710581767
 21
115.0279161416309
 31
0.0
  0
LINE
  5
1AE
330
1F
100
AcDbEntity
  8
0
 62
     7
 48
0.022941
370
    25
100
AcDbLine
 10
437.2366995817671
 20
115.9511331416309
 30
0.0
 11
438.0649235817669
 21
115.5559921416309
 31
0.0
  0
LINE
  5
1AF
330
1F
100
AcDbEntity
  8
0
 62
     7
 48
0.026309
370
    25
100
AcDbLine
 10
436.6165165817671
 20
116.8013231416309
 30
0.0
 11
437.2366995817671
 21
115.9511331416309
 31
0.0
  0
LINE
  5
1B0
330
1F
100
AcDbEntity
  8
0
 62
     7
 48
0.022325
370
    25
100
AcDbLine
 10
439.121102581767
 20
118.7419051416309
 30
0.0
 11
439.8171435817671
 21
119.3013231416309
 31
0.0
  0
LINE
  5
1B1
330
1F
100
AcDbEntity
  8
0
 62
     7
 48
0.018979
370
    25
100
AcDbLine
 10
438.463841581767
 20
118.3619611416309
 30
0.0
 11
439.121102581767
 21
118.7419051416309
 31
0.0
  0
LINE
  5
1B2
330
1F
100
AcDbEntity
  8
0
 62
     7
 48
0.010689
370
    25
100
AcDbLine
 10
438.463841581767
 20
118.3619611416309
 30
0.0
 11
438.5056315817671
 21
117.9364551416309
 31
0.0
  0
LINE
  5
1B3
330
1F
100
AcDbEntity
  8
0
 62
     7
 48
0.019027
370
    25
100
AcDbLine
 10
437.8483705817671
 20
117.5527571416309
 30
0.0
 11
438.5056315817671
 21
117.9364551416309
 31
0.0
  0
LINE
  5
1B4
330
1F
100
AcDbEntity
  8
0
 62
     7
 48
0.024633
370
    25
100
AcDbLine
 10
437.211003581767
 20
116.8013231416309
 30
0.0
 11
437.8483705817671
 21
117.5527571416309
 31
0.0
  0
LINE
  5
1B5
330
1F
100
AcDbEntity
  8
0
 62
     7
 48
0.015372
370
    25
100
AcDbLine
 10
438.125710581767
 20
118.5747301416309
 30
0.0
 11
438.5208295817671
 21
119.0458301416309
 31
0.0
  0
LINE
  5
1B6
330
1F
100
AcDbEntity
  8
0
 62
     7
 48
0.020784
370
    25
100
AcDbLine
 10
438.5208295817671
 20
119.0458301416309
 30
0.0
 11
439.276871581767
 21
119.3915631416309
 31
0.0
  0
LINE
  5
1B7
330
1F
100
AcDbEntity
  8
0
 62
     7
 48
0.125
370
    25
100
AcDbLine
 10
422.9158945817671
 20
119.3013231416309
 30
0.0
 11
427.9158945817671
 21
119.3013231416309
 31
0.0
  0
LINE
  5
1B8
330
1F
100
AcDbEntity
  8
0
 62
     7
 48
0.139754
370
    25
100
AcDbLine
 10
422.9158945817671
 20
119.3013231416309
 30
0.0
 11
425.4158945817671
 21
114.3013231416309
 31
0.0
  0
LINE
  5
1B9
330
1F
100
AcDbEntity
  8
0
 62
     7
 48
0.139754
370
    25
100
AcDbLine
 10
425.4158945817671
 20
114.3013231416309
 30
0.0
 11
427.9158945817671
 21
119.3013231416309
 31
0.0
  0
LINE
  5
1BA
330
1F
100
AcDbEntity
  8
0
 62
     7
 48
0.125
370
    25
100
AcDbLine
 10
416.9158945817671
 20
114.3013231416309
 30
0.0
 11
416.9158945817671
 21
119.3013231416309
 31
0.0
  0
LINE
  5
1BB
330
1F
100
AcDbEntity
  8
0
 62
     7
 48
0.0375
370
    25
100
AcDbLine
 10
408.4158945817671
 20
116.8013231416309
 30
0.0
 11
409.9158945817671
 21
116.8013231416309
 31
0.0
  0
LINE
  5
1BC
330
1F
100
AcDbEntity
  8
0
 62
     7
 48
0.125
370
    25
100
AcDbLine
 10
407.9158945817671
 20
114.3013231416309
 30
0.0
 11
407.9158945817671
 21
119.3013231416309
 31
0.0
  0
ARC
  5
1BD
330
1F
100
AcDbEntity
  8
0
 62
     7
370
    25
100
AcDbCircle
 10
407.457558581767
 20
116.8013231416309
 30
0.0
 40
2.541666999999998
100
AcDbArc
 50
79.61114100000056
 51
280.3888860000006
  0
LINE
  5
1BE
330
1F
100
AcDbEntity
  8
0
 62
     7
 48
0.0375
370
    25
100
AcDbLine
 10
411.9158945817671
 20
116.8013231416309
 30
0.0
 11
413.4158945817671
 21
116.8013231416309
 31
0.0
  0
LINE
  5
1BF
330
1F
100
AcDbEntity
  8
0
 62
     7
370
    60
100
AcDbLine
 10
248.687363581767
 20
218.2701491416309
 30
0.0
 11
325.0316175817671
 21
218.2701491416309
 31
0.0
  0
SPLINE
  5
1C0
330
1F
100
AcDbEntity
  8
0
 62
     7
370
    60
100
AcDbSpline
210
0.0
220
0.0
230
1.0
 70
     8
 71
     4
 72
    18
 73
    13
 74
     0
 42
0.0
 43
0.0
 40
0.0
 40
0.0
 40
0.0
 40
0.0
 40
0.0
 40
40.5065440881237
 40
40.5065440881237
 40
109.3072961238616
 40
109.3072961238616
 40
178.6206653282395
 40
178.6206653282395
 40
249.856278242419
 40
249.856278242419
 40
328.8445280478687
 40
328.8445280478687
 40
328.8445280478687
 40
328.8445280478687
 40
328.8445280478687
 10
248.6873636485687
 20
218.2701481970795
 30
0.0
 10
242.5452497359864
 20
226.3046448752978
 30
0.0
 10
236.7206243429333
 20
234.5844457520426
 30
0.0
 10
221.9692902399271
 20
257.575223516115
 30
0.0
 10
210.0515233378275
 20
282.2248151028521
 30
0.0
 10
197.6084305612631
 20
314.5154664059781
 30
0.0
 10
190.6311387909573
 20
348.4127136212837
 30
0.0
 10
186.4009308719202
 20
383.3585315058357
 30
0.0
 10
187.5337808856387
 20
418.5364800243987
 30
0.0
 10
191.380823318398
 20
455.9235612427613
 30
0.0
 10
200.0171373482403
 20
492.5109074837036
 30
0.0
 10
205.6581241359838
 20
511.4341401503672
 30
0.0
 10
212.2154168299949
 20
530.0348905400368
 30
0.0
  0
LINE
  5
1C1
330
1F
100
AcDbEntity
  8
0
 62
     7
370
    60
100
AcDbLine
 10
212.2154245817671
 20
530.0348891416309
 30
0.0
 11
325.0316175817671
 21
530.0349041416308
 31
0.0
  0
LINE
  5
1C2
330
1F
100
AcDbEntity
  8
0
 62
     7
370
    60
100
AcDbLine
 10
325.0316175817671
 20
530.0349041416308
 30
0.0
 11
437.8478175817671
 21
530.0348891416309
 31
0.0
  0
SPLINE
  5
1C3
330
1F
100
AcDbEntity
  8
0
 62
     7
370
    60
100
AcDbSpline
210
0.0
220
0.0
230
1.0
 70
     8
 71
     4
 72
    18
 73
    13
 74
     0
 42
0.0
 43
0.0
 40
0.0
 40
0.0
 40
0.0
 40
0.0
 40
0.0
 40
40.5065440881237
 40
40.5065440881237
 40
109.3072961238616
 40
109.3072961238616
 40
178.6206653282395
 40
178.6206653282395
 40
249.856278242419
 40
249.856278242419
 40
328.8445280478687
 40
328.8445280478687
 40
328.8445280478687
 40
328.8445280478687
 40
328.8445280478687
 10
401.3758707024655
 20
218.2701481970795
 30
0.0
 10
407.5179846150481
 20
226.3046448752977
 30
0.0
 10
413.3426100081011
 20
234.5844457520424
 30
0.0
 10
428.093944111107
 20
257.5752235161156
 30
0.0
 10
440.0117110132072
 20
282.2248151028522
 30
0.0
 10
452.4548037897712
 20
314.5154664059795
 30
0.0
 10
459.4320955600778
 20
348.4127136212842
 30
0.0
 10
463.6623034791141
 20
383.3585315058364
 30
0.0
 10
462.5294534653968
 20
418.536480024399
 30
0.0
 10
458.6824110326357
 20
455.9235612427616
 30
0.0
 10
450.0460970027947
 20
492.5109074837037
 30
0.0
 10
444.4051102150507
 20
511.4341401503671
 30
0.0
 10
437.8478175210395
 20
530.0348905400368
 30
0.0
  0
LINE
  5
1C4
330
1F
100
AcDbEntity
  8
0
 62
     7
370
    60
100
AcDbLine
 10
325.0316175817671
 20
218.2701491416309
 30
0.0
 11
401.3758705817671
 21
218.2701491416309
 31
0.0
  0
LINE
  5
1C5
330
1F
100
AcDbEntity
  8
0
 62
     7
370
    60
100
AcDbLine
 10
325.0316175817671
 20
530.0349041416308
 30
0.0
 11
437.8478175817671
 21
530.0348891416309
 31
0.0
  0
LINE
  5
1C6
330
1F
100
AcDbEntity
  8
0
 62
     7
370
    60
100
AcDbLine
 10
325.0316175817671
 20
218.2701491416309
 30
0.0
 11
401.3758705817671
 21
218.2701491416309
 31
0.0
  0
TEXT
  5
1C7
330
1F
100
AcDbEntity
  8
0
 62
     7
370
    25
100
AcDbText
 10
470.209898581767
 20
114.1347281416309
 30
0.0
 40
5.0
  1
IP 65
 41
1.030769307692309
 72
     5
 11
492.5432335817671
 21
114.1347281416309
 31
0.0
100
AcDbText
  0
TEXT
  5
1C8
330
1F
100
AcDbEntity
  8
0
 62
     7
370
    25
100
AcDbText
 10
425.0207685817671
 20
116.5907211416309
 30
0.0
 40
2.0
  1
F
 41
1.100000249999979
 72
     5
 11
426.487435581767
 21
116.5907211416309
 31
0.0
100
AcDbText
  0
TEXT
  5
1C9
330
1F
100
AcDbEntity
  8
0
 62
     7
370
    25
100
AcDbText
 10
413.997430581767
 20
116.2005541416309
 30
0.0
 40
2.0
  1
m
 41
1.100000250000022
 72
     5
 11
415.4640975817671
 21
116.2005541416309
 31
0.0
100
AcDbText
  0
TEXT
  5
1CA
330
1F
100
AcDbEntity
  8
0
 62
     7
370
    25
100
AcDbText
 10
409.7602175817672
 20
115.6197131416309
 30
0.0
 40
3.0
  1
1
 41
2.199999999999875
 72
     5
 11
411.960217581767
 21
115.6197131416309
 31
0.0
100
AcDbText
  0
LINE
  5
1CB
330
1F
100
AcDbEntity
  8
0
 62
     7
 48
0.242199
370
    25
100
AcDbLine
 10
460.9789625817672
 20
114.2887801416309
 30
0.0
 11
470.6669095817672
 21
114.2887801416309
 31
0.0
  0
LINE
  5
1CC
330
1F
100
AcDbEntity
  8
0
 62
     7
 48
0.23219
370
    25
100
AcDbLine
 10
461.3793145817672
 20
119.2887801416309
 30
0.0
 11
470.6669095817672
 21
119.2887801416309
 31
0.0
  0
LINE
  5
1CD
330
1F
100
AcDbEntity
  8
0
 62
     7
 48
0.053033
370
    25
100
AcDbLine
 10
416.9158945817671
 20
114.3391651416309
 30
0.0
 11
418.4158945817671
 21
115.8391651416309
 31
0.0
  0
LINE
  5
1CE
330
1F
100
AcDbEntity
  8
0
 62
     7
 48
0.053033
370
    25
100
AcDbLine
 10
416.9158945817671
 20
117.1675951416309
 30
0.0
 11
418.4158945817671
 21
118.6675951416309
 31
0.0
  0
DIMENSION
  5
1CF
330
1F
100
AcDbEntity
  8
0
370
    25
100
AcDbDimension
  2
*D7
 10
520.5316175817671
 20
662.1382755274625
 30
0.0
 11
325.0316175817671
 21
674.1382755274625
 31
0.0
 70
    32
 71
     5
 41
2.5
 42
391.0000000000001
  3
Standard
100
AcDbAlignedDimension
 13
129.5316175817671
 23
416.3277634071729
 33
0.0
 14
520.5316175817671
 24
416.3277634071729
 34
0.0
100
AcDbRotatedDimension
1001
ACAD
1000
DSTYLE
1002
{
1070
   171
1070
     3
1070
   143
1040
0.03937
1070
   274
1070
     3
1070
    41
1040
10.0
1070
   289
1070
     0
1070
   141
1040
2.5
1070
   176
1070
     7
1070
   177
1070
     7
1070
   271
1070
     2
1070
    43
1040
3.75
1070
   278
1070
    44
1070
    44
1040
1.25
1070
    42
1040
0.625
1070
   147
1040
5.0
1070
    77
1070
     1
1070
   272
1070
     2
1070
    73
1070
     0
1070
   172
1070
     1
1070
    74
1070
     0
1070
   283
1070
     0
1070
   140
1040
14.0
1070
   284
1070
     8
1070
    78
1070
     8
1002
}
  0
DIMENSION
  5
1D0
330
1F
100
AcDbEntity
  8
0
370
    25
100
AcDbDimension
  2
*D8
 10
437.8478175817671
 20
616.62275065095
 30
0.0
 11
325.0316210817671
 21
628.62275065095
 31
0.0
 70
    32
  1
226
 71
     5
 41
2.5
 42
225.632393
  3
Standard
100
AcDbAlignedDimension
 13
212.2154245817671
 23
530.0348891416309
 33
0.0
 14
437.8478175817671
 24
530.0348891416309
 34
0.0
100
AcDbRotatedDimension
1001
ACAD
1000
DSTYLE
1002
{
1070
   171
1070
     3
1070
   143
1040
0.03937
1070
   274
1070
     3
1070
    41
1040
10.0
1070
   289
1070
     0
1070
   141
1040
2.5
1070
   176
1070
     7
1070
   177
1070
     7
1070
   271
1070
     2
1070
    43
1040
3.75
1070
   278
1070
    44
1070
    44
1040
1.25
1070
    42
1040
0.625
1070
   147
1040
5.0
1070
    77
1070
     1
1070
   272
1070
     2
1070
    73
1070
     0
1070
   172
1070
     1
1070
    74
1070
     0
1070
   283
1070
     0
1070
   140
1040
14.0
1070
   284
1070
     8
1070
    78
1070
     8
1002
}
  0
DIMENSION
  5
1D1
330
1F
100
AcDbEntity
  8
0
370
    25
100
AcDbDimension
  2
*D9
 10
557.7519006360054
 20
530.0348966416308
 30
0.0
 11
545.7519006360054
 21
555.9035453916308
 31
0.0
 70
    32
  1
52
 71
     5
 41
2.5
 42
51.73729750000006
  3
Standard
100
AcDbAlignedDimension
 13
375.6914535153394
 23
581.7721941416308
 33
0.0
 14
381.4397175817671
 24
530.0348966416308
 34
0.0
 50
90.0
100
AcDbRotatedDimension
1001
ACAD
1000
DSTYLE
1002
{
1070
   171
1070
     3
1070
   143
1040
0.03937
1070
   274
1070
     3
1070
    41
1040
10.0
1070
   289
1070
     0
1070
   141
1040
2.5
1070
   176
1070
     7
1070
   177
1070
     7
1070
   271
1070
     2
1070
    43
1040
3.75
1070
   278
1070
    44
1070
    44
1040
1.25
1070
    42
1040
0.625
1070
   147
1040
5.0
1070
    77
1070
     1
1070
   272
1070
     2
1070
    73
1070
     0
1070
   172
1070
     1
1070
    74
1070
     0
1070
   283
1070
     0
1070
   140
1040
14.0
1070
   284
1070
     8
1070
    78
1070
     8
1002
}
  0
DIMENSION
  5
1D2
330
1F
100
AcDbEntity
  8
0
370
    25
100
AcDbDimension
  2
*D10
 10
557.7502220822543
 20
218.2701491416309
 30
0.0
 11
545.7502220822543
 21
374.1525228916308
 31
0.0
 70
    32
  1
312
 71
     5
 41
2.5
 42
311.7647474999999
  3
Standard
100
AcDbAlignedDimension
 13
381.4397175817671
 23
530.0348966416308
 33
0.0
 14
363.2037440817671
 24
218.2701491416309
 34
0.0
 50
90.0
100
AcDbRotatedDimension
1001
ACAD
1000
DSTYLE
1002
{
1070
   171
1070
     3
1070
   143
1040
0.03937
1070
   274
1070
     3
1070
    41
1040
10.0
1070
   289
1070
     0
1070
   141
1040
2.5
1070
   176
1070
     7
1070
   177
1070
     7
1070
   271
1070
     2
1070
    43
1040
3.75
1070
   278
1070
    44
1070
    44
1040
1.25
1070
    42
1040
0.625
1070
   147
1040
5.0
1070
    77
1070
     1
1070
   272
1070
     2
1070
    73
1070
     0
1070
   172
1070
     1
1070
    74
1070
     0
1070
   283
1070
     0
1070
   140
1040
14.0
1070
   284
1070
     8
1070
    78
1070
     8
1002
}
  0
DIMENSION
  5
1D3
330
1F
100
AcDbEntity
  8
0
370
    25
100
AcDbDimension
  2
*D11
 10
595.2262815190267
 20
78.77220914163088
 30
0.0
 11
583.2262815190267
 21
330.2722016416309
 31
0.0
 70
    32
 71
     5
 41
2.5
 42
502.9999849999999
  3
Standard
100
AcDbAlignedDimension
 13
336.4642692394428
 23
581.7721941416308
 33
0.0
 14
348.4997116710513
 24
78.7722091416309
 34
0.0
 50
90.0
100
AcDbRotatedDimension
1001
ACAD
1000
DSTYLE
1002
{
1070
   171
1070
     3
1070
   143
1040
0.03937
1070
   274
1070
     3
1070
    41
1040
10.0
1070
   289
1070
     0
1070
   141
1040
2.5
1070
   176
1070
     7
1070
   177
1070
     7
1070
   271
1070
     2
1070
    43
1040
3.75
1070
   278
1070
    44
1070
    44
1040
1.25
1070
    42
1040
0.625
1070
   147
1040
5.0
1070
    77
1070
     1
1070
   272
1070
     2
1070
    73
1070
     0
1070
   172
1070
     1
1070
    74
1070
     0
1070
   283
1070
     0
1070
   140
1040
14.0
1070
   284
1070
     8
1070
    78
1070
     8
1002
}
  0
DIMENSION
  5
1D4
330
1F
100
AcDbEntity
  8
0
370
    25
100
AcDbDimension
  2
*D12
 10
651.960846581767
 20
616.4703023169641
 30
0.0
 11
619.3623561293574
 21
628.4703023169641
 31
0.0
 70
   160
 71
     5
 41
2.5
 42
4.0
  3
Standard
100
AcDbAlignedDimension
 13
647.960846581767
 23
573.4249947002844
 33
0.0
 14
651.960846581767
 24
573.4249947002844
 34
0.0
100
AcDbRotatedDimension
1001
ACAD
1000
DSTYLE
1002
{
1070
   171
1070
     3
1070
   143
1040
0.03937
1070
   274
1070
     3
1070
    41
1040
10.0
1070
   289
1070
     0
1070
   141
1040
2.5
1070
   176
1070
     7
1070
   177
1070
     7
1070
   271
1070
     2
1070
    43
1040
3.75
1070
   278
1070
    44
1070
    44
1040
1.25
1070
    42
1040
0.625
1070
   147
1040
5.0
1070
    77
1070
     1
1070
   272
1070
     2
1070
    73
1070
     0
1070
   172
1070
     1
1070
    74
1070
     0
1070
   283
1070
     0
1070
   140
1040
14.0
1070
   284
1070
     8
1070
    78
1070
     8
1002
}
  0
LINE
  5
1D5
330
1F
100
AcDbEntity
  8
0
 62
     7
370
    60
100
AcDbLine
 10
253.141617581767
 20
141.2322001416309
 30
0.0
 11
253.141617581767
 21
186.9921951416309
 31
0.0
  0
LINE
  5
1D6
330
1F
100
AcDbEntity
  8
0
 62
     7
 48
0.286
370
    60
100
AcDbLine
 10
272.641617581767
 20
175.5521921416309
 30
0.0
 11
272.641617581767
 21
186.9921951416309
 31
0.0
  0
LINE
  5
1D7
330
1F
100
AcDbEntity
  8
0
 62
     7
 48
0.4485
370
    60
100
AcDbLine
 10
253.9216165817671
 20
187.7721941416309
 30
0.0
 11
271.8616185817671
 21
187.7721941416309
 31
0.0
  0
LINE
  5
1D8
330
1F
100
AcDbEntity
  8
0
 62
     7
 48
0.065
370
    60
100
AcDbLine
 10
266.141617581767
 20
171.3922041416309
 30
0.0
 11
266.141617581767
 21
173.9921951416309
 31
0.0
  0
LINE
  5
1D9
330
1F
100
AcDbEntity
  8
0
 62
     7
 48
0.286
370
    60
100
AcDbLine
 10
289.8016215817671
 20
158.3922041416309
 30
0.0
 11
289.8016215817671
 21
169.8321911416309
 31
0.0
  0
LINE
  5
1DA
330
1F
100
AcDbEntity
  8
0
 62
     7
370
    60
100
AcDbLine
 10
277.5816205817671
 20
187.7721941416309
 30
0.0
 11
301.1429295817671
 21
187.7721941416309
 31
0.0
  0
ARC
  5
1DB
330
1F
100
AcDbEntity
  8
0
 62
     7
370
    60
100
AcDbCircle
 10
277.5816205817671
 20
186.9921951416309
 30
0.0
 40
0.7799999999999738
100
AcDbArc
 50
90.00000299999887
 51
180.0000089999989
  0
ARC
  5
1DC
330
1F
100
AcDbEntity
  8
0
 62
     7
370
    60
100
AcDbCircle
 10
277.5816205817671
 20
175.5521921416309
 30
0.0
 40
0.7799999999999824
100
AcDbArc
 50
180.0000090000008
 51
269.9999970000008
  0
LINE
  5
1DD
330
1F
100
AcDbEntity
  8
0
 62
     7
 48
0.293563
370
    60
100
AcDbLine
 10
300.1696635817671
 20
140.4522021416309
 30
0.0
 11
311.912171581767
 21
140.4522021416309
 31
0.0
  0
LINE
  5
1DE
330
1F
100
AcDbEntity
  8
0
 62
     7
 48
0.286
370
    60
100
AcDbLine
 10
343.8816235817671
 20
170.6121901416309
 30
0.0
 11
355.321618581767
 21
170.6121901416309
 31
0.0
  0
LINE
  5
1DF
330
1F
100
AcDbEntity
  8
0
 62
     7
370
    60
100
AcDbLine
 10
343.101609581767
 20
141.2322001416309
 30
0.0
 11
343.101609581767
 21
169.8321911416309
 31
0.0
  0
ARC
  5
1E0
330
1F
100
AcDbEntity
  8
0
 62
     7
370
    60
100
AcDbCircle
 10
355.321618581767
 20
141.2322001416309
 30
0.0
 40
0.7800000000000022
100
AcDbArc
 50
269.9999970000011
 51
0.0000000000011704
  0
ARC
  5
1E1
330
1F
100
AcDbEntity
  8
0
 62
     7
370
    60
100
AcDbCircle
 10
355.321618581767
 20
169.8321911416309
 30
0.0
 40
0.7799999999999727
100
AcDbArc
 50
0.0
 51
90.000003
  0
LINE
  5
1E2
330
1F
100
AcDbEntity
  8
0
 62
     7
 48
0.286
370
    60
100
AcDbLine
 10
360.2616125817671
 20
141.2322001416309
 30
0.0
 11
360.2616125817671
 21
152.6722031416309
 31
0.0
  0
LINE
  5
1E3
330
1F
100
AcDbEntity
  8
0
 62
     7
 48
0.286
370
    60
100
AcDbLine
 10
396.9216165817671
 20
175.5521921416309
 30
0.0
 11
396.9216165817671
 21
186.9921951416309
 31
0.0
  0
LINE
  5
1E4
330
1F
100
AcDbEntity
  8
0
 62
     7
370
    60
100
AcDbLine
 10
361.0416195817671
 20
187.7721941416309
 30
0.0
 11
396.141617581767
 21
187.7721941416309
 31
0.0
  0
LINE
  5
1E5
330
1F
100
AcDbEntity
  8
0
 62
     7
370
    60
100
AcDbLine
 10
361.0416195817671
 20
140.4522021416309
 30
0.0
 11
396.141617581767
 21
140.4522021416309
 31
0.0
  0
LINE
  5
1E6
330
1F
100
AcDbEntity
  8
0
 62
     7
 48
0.065
370
    60
100
AcDbLine
 10
373.2616125817671
 20
171.3922041416309
 30
0.0
 11
373.2616125817671
 21
173.9921951416309
 31
0.0
  0
LINE
  5
1E7
330
1F
100
AcDbEntity
  8
0
 62
     7
370
    60
100
AcDbLine
 10
374.0416115817671
 20
174.7721941416309
 30
0.0
 11
396.141617581767
 21
174.7721941416309
 31
0.0
  0
LINE
  5
1E8
330
1F
100
AcDbEntity
  8
0
 62
     7
370
    60
100
AcDbLine
 10
374.0416115817671
 20
170.6121901416309
 30
0.0
 11
396.141617581767
 21
170.6121901416309
 31
0.0
  0
LINE
  5
1E9
330
1F
100
AcDbEntity
  8
0
 62
     7
370
    60
100
AcDbLine
 10
361.0416195817671
 20
153.4522021416309
 30
0.0
 11
383.141617581767
 21
153.4522021416309
 31
0.0
  0
LINE
  5
1EA
330
1F
100
AcDbEntity
  8
0
 62
     7
370
    60
100
AcDbLine
 10
361.0416195817671
 20
157.6122051416309
 30
0.0
 11
383.141617581767
 21
157.6122051416309
 31
0.0
  0
ARC
  5
1EB
330
1F
100
AcDbEntity
  8
0
 62
     7
370
    60
100
AcDbCircle
 10
361.0416195817671
 20
186.9921951416309
 30
0.0
 40
0.7799999999999738
100
AcDbArc
 50
90.00000299999887
 51
180.0000089999989
  0
ARC
  5
1EC
330
1F
100
AcDbEntity
  8
0
 62
     7
370
    60
100
AcDbCircle
 10
396.141617581767
 20
186.9921951416309
 30
0.0
 40
0.7799999999999727
100
AcDbArc
 50
0.0
 51
90.000003
  0
ARC
  5
1ED
330
1F
100
AcDbEntity
  8
0
 62
     7
370
    60
100
AcDbCircle
 10
396.141617581767
 20
175.5521921416309
 30
0.0
 40
0.7799999999999738
100
AcDbArc
 50
269.9999970000011
 51
0.0000000000011704
  0
ARC
  5
1EE
330
1F
100
AcDbEntity
  8
0
 62
     7
370
    60
100
AcDbCircle
 10
374.0416115817671
 20
173.9921951416309
 30
0.0
 40
0.7799999999999738
100
AcDbArc
 50
90.00000299999887
 51
180.0000089999989
  0
ARC
  5
1EF
330
1F
100
AcDbEntity
  8
0
 62
     7
370
    60
100
AcDbCircle
 10
374.0416115817671
 20
171.3922041416309
 30
0.0
 40
0.7799999999999824
100
AcDbArc
 50
180.0000090000008
 51
269.9999970000008
  0
ARC
  5
1F0
330
1F
100
AcDbEntity
  8
0
 62
     7
370
    60
100
AcDbCircle
 10
361.0416195817671
 20
141.2322001416309
 30
0.0
 40
0.7799999999999824
100
AcDbArc
 50
180.0000090000008
 51
269.9999970000008
  0
ARC
  5
1F1
330
1F
100
AcDbEntity
  8
0
 62
     7
370
    60
100
AcDbCircle
 10
361.0416195817671
 20
152.6722031416309
 30
0.0
 40
0.7800000000000022
100
AcDbArc
 50
90.00000299999887
 51
180.0000089999989
  0
LINE
  5
1F2
330
1F
100
AcDbEntity
  8
0
 62
     7
370
    60
100
AcDbLine
 10
396.9216165817671
 20
141.2322001416309
 30
0.0
 11
396.9216165817671
 21
169.8321911416309
 31
0.0
  0
LINE
  5
1F3
330
1F
100
AcDbEntity
  8
0
 62
     7
370
    60
100
AcDbLine
 10
360.2616125817671
 20
158.3922041416309
 30
0.0
 11
360.2616125817671
 21
186.9921951416309
 31
0.0
  0
LINE
  5
1F4
330
1F
100
AcDbEntity
  8
0
 62
     7
 48
0.065
370
    60
100
AcDbLine
 10
383.9216165817671
 20
154.2322001416309
 30
0.0
 11
383.9216165817671
 21
156.8321911416309
 31
0.0
  0
ARC
  5
1F5
330
1F
100
AcDbEntity
  8
0
 62
     7
370
    60
100
AcDbCircle
 10
383.141617581767
 20
154.2322001416309
 30
0.0
 40
0.7800000000000022
100
AcDbArc
 50
269.9999970000011
 51
0.0000000000011704
  0
ARC
  5
1F6
330
1F
100
AcDbEntity
  8
0
 62
     7
370
    60
100
AcDbCircle
 10
396.141617581767
 20
169.8321911416309
 30
0.0
 40
0.7799999999999727
100
AcDbArc
 50
0.0
 51
90.000003
  0
ARC
  5
1F7
330
1F
100
AcDbEntity
  8
0
 62
     7
370
    60
100
AcDbCircle
 10
396.141617581767
 20
141.2322001416309
 30
0.0
 40
0.7800000000000022
100
AcDbArc
 50
269.9999970000011
 51
0.0000000000011704
  0
ARC
  5
1F8
330
1F
100
AcDbEntity
  8
0
 62
     7
370
    60
100
AcDbCircle
 10
361.0416195817671
 20
158.3922041416309
 30
0.0
 40
0.7799999999999824
100
AcDbArc
 50
180.0000090000008
 51
269.9999970000008
  0
ARC
  5
1F9
330
1F
100
AcDbEntity
  8
0
 62
     7
370
    60
100
AcDbCircle
 10
383.141617581767
 20
156.8321911416309
 30
0.0
 40
0.7799999999999727
100
AcDbArc
 50
0.0
 51
90.000003
  0
LINE
  5
1FA
330
1F
100
AcDbEntity
  8
0
 62
     7
 48
0.286
370
    60
100
AcDbLine
 10
401.081612581767
 20
141.2322001416309
 30
0.0
 11
401.081612581767
 21
152.6722031416309
 31
0.0
  0
ARC
  5
1FB
330
1F
100
AcDbEntity
  8
0
 62
     7
370
    60
100
AcDbCircle
 10
412.7816135817671
 20
164.1121901416309
 30
0.0
 40
23.66
100
AcDbArc
 50
269.999997
 51
14.47751099999992
  0
LINE
  5
1FC
330
1F
100
AcDbEntity
  8
0
 62
     7
 48
0.273
370
    60
100
AcDbLine
 10
401.8616115817671
 20
187.7721941416309
 30
0.0
 11
412.7816135817671
 21
187.7721941416309
 31
0.0
  0
LINE
  5
1FD
330
1F
100
AcDbEntity
  8
0
 62
     7
 48
0.273
370
    60
100
AcDbLine
 10
401.8616115817671
 20
140.4522021416309
 30
0.0
 11
412.7816135817671
 21
140.4522021416309
 31
0.0
  0
ARC
  5
1FE
330
1F
100
AcDbEntity
  8
0
 62
     7
370
    60
100
AcDbCircle
 10
401.8616115817671
 20
186.9921951416309
 30
0.0
 40
0.7799999999999738
100
AcDbArc
 50
90.00000299999887
 51
180.0000089999989
  0
ARC
  5
1FF
330
1F
100
AcDbEntity
  8
0
 62
     7
370
    60
100
AcDbCircle
 10
401.8616115817671
 20
141.2322001416309
 30
0.0
 40
0.7799999999999824
100
AcDbArc
 50
180.0000090000008
 51
269.9999970000008
  0
LINE
  5
200
330
1F
100
AcDbEntity
  8
0
 62
     7
 48
0.443367
370
    60
100
AcDbLine
 10
414.8616155817671
 20
174.7721941416309
 30
0.0
 11
432.5962765817671
 21
174.7721941416309
 31
0.0
  0
ARC
  5
201
330
1F
100
AcDbEntity
  8
0
 62
     7
370
    60
100
AcDbCircle
 10
414.8616155817671
 20
173.9921951416309
 30
0.0
 40
0.7799999999999738
100
AcDbArc
 50
90.00000299999887
 51
180.0000089999989
  0
LINE
  5
202
330
1F
100
AcDbEntity
  8
0
 62
     7
 48
0.065
370
    60
100
AcDbLine
 10
414.081612581767
 20
171.3922041416309
 30
0.0
 11
414.081612581767
 21
173.9921951416309
 31
0.0
  0
ARC
  5
203
330
1F
100
AcDbEntity
  8
0
 62
     7
370
    60
100
AcDbCircle
 10
414.8616155817671
 20
171.3922041416309
 30
0.0
 40
0.7799999999999824
100
AcDbArc
 50
180.0000090000008
 51
269.9999970000008
  0
LINE
  5
204
330
1F
100
AcDbEntity
  8
STANDARD_LAYER
370
    60
100
AcDbLine
 10
310.8307243093388
 20
399.3357876746594
 30
0.0
 11
331.5124060693383
 21
427.2484043546585
 31
0.0
  0
LINE
  5
205
330
1F
100
AcDbEntity
  8
STANDARD_LAYER
370
    60
100
AcDbLine
 10
299.6025356293387
 20
370.2474094546593
 30
0.0
 11
320.2854597493385
 21
398.1602136946584
 31
0.0
  0
LINE
  5
206
330
1F
100
AcDbEntity
  8
STANDARD_LAYER
370
    60
100
AcDbLine
 10
294.5803109893388
 20
390.8138219346594
 30
0.0
 11
315.2624312293385
 21
418.7269700346593
 31
0.0
  0
LINE
  5
207
330
1F
100
AcDbEntity
  8
STANDARD_LAYER
370
    60
100
AcDbLine
 10
328.2625697893388
 20
358.2005140146595
 30
0.0
 11
348.9450554293387
 21
386.1132974146584
 31
0.0
  0
LINE
  5
208
330
1F
100
AcDbEntity
  8
STANDARD_LAYER
370
    60
100
AcDbLine
 10
345.3996627493386
 20
369.6593775946584
 30
0.0
 11
366.0818873893388
 21
397.5716295746594
 31
0.0
  0
VIEWPORT
  5
BB
330
73
100
AcDbEntity
 67
     1
  8
0
100
AcDbViewport
 10
7.8
 20
4.5
 30
0.0
 40
15.64
 41
9.0
 68
     1
 69
     1
 12
6.0
 22
4.5
 13
0.0
 23
0.0
 14
0.5
 24
0.5
 15
0.5
 25
0.5
 16
0.0
 26
0.0
 36
1.0
 17
0.0
 27
0.0
 37
0.0
 42
50.0
 43
0.0
 44
0.0
 45
12.0
 50
0.0
 51
0.0
 72
   100
 90
   557152
  1

281
     0
 71
     1
 74
     0
110
0.0
120
0.0
130
0.0
111
1.0
121
0.0
131
0.0
112
0.0
122
1.0
132
0.0
 79
     0
146
0.0
  0
ENDSEC
  0
SECTION
  2
OBJECTS
  0
DICTIONARY
  5
C
330
0
100
AcDbDictionary
281
     1
  3
ACAD_COLOR
350
6C
  3
ACAD_GROUP
350
D
  3
ACAD_LAYOUT
350
1A
  3
ACAD_MATERIAL
350
6B
  3
ACAD_MLEADERSTYLE
350
2B7
  3
ACAD_MLINESTYLE
350
17
  3
ACAD_PLOTSETTINGS
350
19
  3
ACAD_PLOTSTYLENAME
350
E
  3
ACAD_SCALELIST
350
99
  3
ACAD_TABLESTYLE
350
92
  3
ACDBHEADERROUNDTRIPXREC
350
2B8
  3
AcDbVariableDictionary
350
59
  3
DWGPROPS
350
2BB
  0
DICTIONARY
  5
6C
102
{ACAD_REACTORS
330
C
102
}
330
C
100
AcDbDictionary
281
     1
  0
DICTIONARY
  5
D
102
{ACAD_REACTORS
330
C
102
}
330
C
100
AcDbDictionary
281
     1
  0
DICTIONARY
  5
1A
102
{ACAD_REACTORS
330
C
102
}
330
C
100
AcDbDictionary
281
     1
  3
Layout1
350
74
  3
Layout2
350
29B
  3
Model
350
22
  0
DICTIONARY
  5
6B
102
{ACAD_REACTORS
330
C
102
}
330
C
100
AcDbDictionary
281
     1
  0
DICTIONARY
  5
2B7
102
{ACAD_REACTORS
330
C
102
}
330
C
100
AcDbDictionary
281
     1
  0
DICTIONARY
  5
17
102
{ACAD_REACTORS
330
C
102
}
330
C
100
AcDbDictionary
281
     1
  3
Standard
350
18
  0
DICTIONARY
  5
19
102
{ACAD_REACTORS
330
C
102
}
330
C
100
AcDbDictionary
281
     1
  0
ACDBDICTIONARYWDFLT
  5
E
102
{ACAD_REACTORS
330
C
102
}
330
C
100
AcDbDictionary
281
     1
  3
Normal
350
F
100
AcDbDictionaryWithDefault
340
F
  0
DICTIONARY
  5
99
102
{ACAD_REACTORS
330
C
102
}
330
C
100
AcDbDictionary
281
     1
  3
A0
350
D5
  3
A1
350
D6
  3
A2
350
D7
  3
A3
350
D8
  3
A4
350
D9
  3
A5
350
DA
  3
A6
350
DB
  3
A7
350
DC
  3
A8
350
DD
  3
A9
350
DE
  3
B0
350
DF
  3
B1
350
E0
  3
B2
350
E1
  3
B3
350
E2
  3
B4
350
E3
  3
B5
350
E4
  3
B6
350
E5
  3
B7
350
E6
  3
B8
350
E7
  3
B9
350
E8
  3
C0
350
E9
  3
C1
350
EA
  3
C2
350
EB
  3
C3
350
EC
  3
C4
350
ED
  3
C5
350
EE
  3
C6
350
EF
  3
C7
350
F0
  3
C8
350
F1
  3
C9
350
F2
  3
D0
350
F3
  3
D1
350
F4
  3
D2
350
F5
  0
DICTIONARY
  5
92
102
{ACAD_REACTORS
330
C
102
}
330
C
100
AcDbDictionary
281
     1
  0
DICTIONARY
  5
2B8
102
{ACAD_REACTORS
330
C
102
}
330
C
100
AcDbDictionary
281
     1
  3
COLORDICT
350
2B9
  3
MATERIALDICT
350
2BA
  0
DICTIONARY
  5
59
102
{ACAD_REACTORS
330
C
102
}
330
C
100
AcDbDictionary
281
     1
  3
CTABLESTYLE
350
98
  3
DIMASSOC
350
5A
  3
HIDETEXT
350
5E
  0
XRECORD
  5
2BB
102
{ACAD_REACTORS
330
C
102
}
330
C
100
AcDbXrecord
280
     1
  1
DWGPROPS COOKIE
  2

  3

  4

  6

  7

  8
BelottiMc
  9

300
=
301
=
302
=
303
=
304
=
305
=
306
=
307
=
308
=
309
=
 40
0.0
 41
2455096.37277603
 42
2455096.414442685
  1

 90
        0
  0
LAYOUT
  5
74
102
{ACAD_REACTORS
330
1A
102
}
330
1A
100
AcDbPlotSettings
  1

  2
ProgeSOFT PDF Wizard
  4
A4
  6

 40
5.926666666666667
 41
6.011333333333317
 42
6.095999999999985
 43
5.926666666666667
 44
210.0
 45
297.0
 46
88.56200000000001
 47
136.531
 48
0.0
 49
0.0
140
0.0
141
0.0
142
1.0
143
1.0
 70
   692
 72
     1
 73
     0
 74
     0
  7

 75
    16
147
1.0
148
4.426666666666668
149
1.5
100
AcDbLayout
  1
Layout1
 70
     1
 71
     1
 10
0.0
 20
0.0
 11
0.0
 21
0.0
 12
0.0
 22
0.0
 32
0.0
 14
0.0
 24
0.0
 34
0.0
 15
0.0
 25
0.0
 35
0.0
146
0.0
 13
0.0
 23
0.0
 33
0.0
 16
1.0
 26
0.0
 36
0.0
 17
0.0
 27
1.0
 37
0.0
 76
     0
330
D1
331
2B6
1001
PROGE_PRINT_SETTINGS
1070
    73
1070
     1
  0
LAYOUT
  5
29B
102
{ACAD_REACTORS
330
1A
102
}
330
1A
100
AcDbPlotSettings
  1

  2
ProgeSOFT PDF Wizard
  4
A4
  6

 40
5.926666666666667
 41
6.011333333333317
 42
6.095999999999985
 43
5.926666666666667
 44
210.0
 45
297.0
 46
88.562
 47
136.531
 48
0.0
 49
0.0
140
0.0
141
0.0
142
1.0
143
1.0
 70
   692
 72
     1
 73
     0
 74
     0
  7

 75
    16
147
1.0
148
0.0
149
0.0
100
AcDbLayout
  1
Layout2
 70
     1
 71
     2
 10
0.0
 20
0.0
 11
12.0
 21
9.0
 12
0.0
 22
0.0
 32
0.0
 14
0.0
 24
0.0
 34
0.0
 15
12.0
 25
9.0
 35
0.0
146
0.0
 13
0.0
 23
0.0
 33
0.0
 16
1.0
 26
0.0
 36
0.0
 17
0.0
 27
1.0
 37
0.0
 76
     0
330
73
331
BB
1001
PROGE_PRINT_SETTINGS
1070
    73
1070
     1
  0
LAYOUT
  5
22
102
{ACAD_REACTORS
330
1A
102
}
330
1A
100
AcDbPlotSettings
  1

  2
none_device
  4
Letter_(8.50_x_11.00_Inches)
  6

 40
6.349999904632568
 41
6.349999904632568
 42
6.350006103515625
 43
6.350006103515625
 44
215.8999938964844
 45
279.3999938964844
 46
0.0
 47
0.0
 48
0.0
 49
0.0
140
0.0
141
0.0
142
1.0
143
4.826036188268309
 70
 11952
 72
     1
 73
     1
 74
     0
  7

 75
     0
147
0.207209386956301
148
0.1311165230791651
149
0.096403374003771
100
AcDbLayout
  1
Model
 70
     1
 71
     0
 10
0.0
 20
0.0
 11
0.0
 21
0.0
 12
0.0
 22
0.0
 32
0.0
 14
129.5316175817671
 24
32.07939914163091
 34
0.0
 15
671.960846581767
 25
681.1382755274625
 35
0.0
146
0.0
 13
0.0
 23
0.0
 33
0.0
 16
1.0
 26
0.0
 36
0.0
 17
0.0
 27
1.0
 37
0.0
 76
     0
330
1F
331
97
  0
MLINESTYLE
  5
18
102
{ACAD_REACTORS
330
17
102
}
330
17
100
AcDbMlineStyle
  2
STANDARD
 70
     0
  3

 62
   256
 51
90.0
 52
90.0
 71
     2
 49
0.5
 62
   256
  6
BYLAYER
 49
-0.5
 62
   256
  6
BYLAYER
  0
ACDBPLACEHOLDER
  5
F
102
{ACAD_REACTORS
330
E
102
}
330
E
  0
SCALE
  5
D5
102
{ACAD_REACTORS
330
99
102
}
330
99
100
AcDbScale
 70
     0
300
1:1
140
1.0
141
1.0
290
     1
  0
SCALE
  5
D6
102
{ACAD_REACTORS
330
99
102
}
330
99
100
AcDbScale
 70
     0
300
1:2
140
1.0
141
2.0
290
     0
  0
SCALE
  5
D7
102
{ACAD_REACTORS
330
99
102
}
330
99
100
AcDbScale
 70
     0
300
1:4
140
1.0
141
4.0
290
     0
  0
SCALE
  5
D8
102
{ACAD_REACTORS
330
99
102
}
330
99
100
AcDbScale
 70
     0
300
1:5
140
1.0
141
5.0
290
     0
  0
SCALE
  5
D9
102
{ACAD_REACTORS
330
99
102
}
330
99
100
AcDbScale
 70
     0
300
1:8
140
1.0
141
8.0
290
     0
  0
SCALE
  5
DA
102
{ACAD_REACTORS
330
99
102
}
330
99
100
AcDbScale
 70
     0
300
1:10
140
1.0
141
10.0
290
     0
  0
SCALE
  5
DB
102
{ACAD_REACTORS
330
99
102
}
330
99
100
AcDbScale
 70
     0
300
1:16
140
1.0
141
16.0
290
     0
  0
SCALE
  5
DC
102
{ACAD_REACTORS
330
99
102
}
330
99
100
AcDbScale
 70
     0
300
1:20
140
1.0
141
20.0
290
     0
  0
SCALE
  5
DD
102
{ACAD_REACTORS
330
99
102
}
330
99
100
AcDbScale
 70
     0
300
1:30
140
1.0
141
30.0
290
     0
  0
SCALE
  5
DE
102
{ACAD_REACTORS
330
99
102
}
330
99
100
AcDbScale
 70
     0
300
1:40
140
1.0
141
40.0
290
     0
  0
SCALE
  5
DF
102
{ACAD_REACTORS
330
99
102
}
330
99
100
AcDbScale
 70
     0
300
1:50
140
1.0
141
50.0
290
     0
  0
SCALE
  5
E0
102
{ACAD_REACTORS
330
99
102
}
330
99
100
AcDbScale
 70
     0
300
1:100
140
1.0
141
100.0
290
     0
  0
SCALE
  5
E1
102
{ACAD_REACTORS
330
99
102
}
330
99
100
AcDbScale
 70
     0
300
2:1
140
2.0
141
1.0
290
     0
  0
SCALE
  5
E2
102
{ACAD_REACTORS
330
99
102
}
330
99
100
AcDbScale
 70
     0
300
4:1
140
4.0
141
1.0
290
     0
  0
SCALE
  5
E3
102
{ACAD_REACTORS
330
99
102
}
330
99
100
AcDbScale
 70
     0
300
8:1
140
8.0
141
1.0
290
     0
  0
SCALE
  5
E4
102
{ACAD_REACTORS
330
99
102
}
330
99
100
AcDbScale
 70
     0
300
10:1
140
10.0
141
1.0
290
     0
  0
SCALE
  5
E5
102
{ACAD_REACTORS
330
99
102
}
330
99
100
AcDbScale
 70
     0
300
100:1
140
100.0
141
1.0
290
     0
  0
SCALE
  5
E6
102
{ACAD_REACTORS
330
99
102
}
330
99
100
AcDbScale
 70
     0
300
1/128" = 1'-0"
140
0.0078125
141
12.0
290
     0
  0
SCALE
  5
E7
102
{ACAD_REACTORS
330
99
102
}
330
99
100
AcDbScale
 70
     0
300
1/64" = 1'-0"
140
0.015625
141
12.0
290
     0
  0
SCALE
  5
E8
102
{ACAD_REACTORS
330
99
102
}
330
99
100
AcDbScale
 70
     0
300
1/32" = 1'-0"
140
0.03125
141
12.0
290
     0
  0
SCALE
  5
E9
102
{ACAD_REACTORS
330
99
102
}
330
99
100
AcDbScale
 70
     0
300
1/16" = 1'-0"
140
0.0625
141
12.0
290
     0
  0
SCALE
  5
EA
102
{ACAD_REACTORS
330
99
102
}
330
99
100
AcDbScale
 70
     0
300
3/32" = 1'-0"
140
0.09375
141
12.0
290
     0
  0
SCALE
  5
EB
102
{ACAD_REACTORS
330
99
102
}
330
99
100
AcDbScale
 70
     0
300
1/8" = 1'-0"
140
0.125
141
12.0
290
     0
  0
SCALE
  5
EC
102
{ACAD_REACTORS
330
99
102
}
330
99
100
AcDbScale
 70
     0
300
3/16" = 1'-0"
140
0.1875
141
12.0
290
     0
  0
SCALE
  5
ED
102
{ACAD_REACTORS
330
99
102
}
330
99
100
AcDbScale
 70
     0
300
1/4" = 1'-0"
140
0.25
141
12.0
290
     0
  0
SCALE
  5
EE
102
{ACAD_REACTORS
330
99
102
}
330
99
100
AcDbScale
 70
     0
300
3/8" = 1'-0"
140
0.375
141
12.0
290
     0
  0
SCALE
  5
EF
102
{ACAD_REACTORS
330
99
102
}
330
99
100
AcDbScale
 70
     0
300
1/2" = 1'-0"
140
0.5
141
12.0
290
     0
  0
SCALE
  5
F0
102
{ACAD_REACTORS
330
99
102
}
330
99
100
AcDbScale
 70
     0
300
3/4" = 1'-0"
140
0.75
141
12.0
290
     0
  0
SCALE
  5
F1
102
{ACAD_REACTORS
330
99
102
}
330
99
100
AcDbScale
 70
     0
300
1" = 1'-0"
140
1.0
141
12.0
290
     0
  0
SCALE
  5
F2
102
{ACAD_REACTORS
330
99
102
}
330
99
100
AcDbScale
 70
     0
300
1-1/2" = 1'-0"
140
1.5
141
12.0
290
     0
  0
SCALE
  5
F3
102
{ACAD_REACTORS
330
99
102
}
330
99
100
AcDbScale
 70
     0
300
3" = 1'-0"
140
3.0
141
12.0
290
     0
  0
SCALE
  5
F4
102
{ACAD_REACTORS
330
99
102
}
330
99
100
AcDbScale
 70
     0
300
6" = 1'-0"
140
6.0
141
12.0
290
     0
  0
SCALE
  5
F5
102
{ACAD_REACTORS
330
99
102
}
330
99
100
AcDbScale
 70
     0
300
1'-0" = 1'-0"
140
12.0
141
12.0
290
     0
  0
XRECORD
  5
2B9
102
{ACAD_REACTORS
330
2B8
102
}
330
2B8
100
AcDbXrecord
280
     1
340
6C
  0
XRECORD
  5
2BA
102
{ACAD_REACTORS
330
2B8
102
}
330
2B8
100
AcDbXrecord
280
     1
340
6B
  0
DICTIONARYVAR
  5
98
102
{ACAD_REACTORS
330
59
102
}
330
59
100
DictionaryVariables
280
     0
  1
Standard
  0
DICTIONARYVAR
  5
5A
102
{ACAD_REACTORS
330
59
102
}
330
59
100
DictionaryVariables
280
     0
  1
2
  0
DICTIONARYVAR
  5
5E
102
{ACAD_REACTORS
330
59
102
}
330
59
100
DictionaryVariables
280
     0
  1
1
  0
ENDSEC
  0
EOF
