  0
SECTION
  2
HEADER
  9
$ACADVER
  1
AC1015
  9
$ACADMAINTVER
 70
     6
  9
$DWGCODEPAGE
  3
ANSI_1252
  9
$INSBASE
 10
0.0
 20
0.0
 30
0.0
  9
$EXTMIN
 10
121.4586562083765
 20
54.59871244635193
 30
0.0
  9
$EXTMAX
 10
663.8878852083765
 20
681.469207799177
 30
0.0
  9
$LIMMIN
 10
0.0
 20
0.0
  9
$LIMMAX
 10
0.0
 20
0.0
  9
$ORTHOMODE
 70
     0
  9
$REGENMODE
 70
     1
  9
$FILLMODE
 70
     1
  9
$QTEXTMODE
 70
     0
  9
$MIRRTEXT
 70
     0
  9
$LTSCALE
 40
1.0
  9
$ATTMODE
 70
     1
  9
$TEXTSIZE
 40
2.5
  9
$TRACEWID
 40
1.0
  9
$TEXTSTYLE
  7
Standard
  9
$CLAYER
  8
0
  9
$CELTYPE
  6
ByLayer
  9
$CECOLOR
 62
   256
  9
$CELTSCALE
 40
1.0
  9
$DISPSILH
 70
     0
  9
$DIMSCALE
 40
1.0
  9
$DIMASZ
 40
2.5
  9
$DIMEXO
 40
0.625
  9
$DIMDLI
 40
3.75
  9
$DIMRND
 40
0.0
  9
$DIMDLE
 40
0.0
  9
$DIMEXE
 40
1.25
  9
$DIMTP
 40
0.0
  9
$DIMTM
 40
0.0
  9
$DIMTXT
 40
2.5
  9
$DIMCEN
 40
2.5
  9
$DIMTSZ
 40
0.0
  9
$DIMTOL
 70
     0
  9
$DIMLIM
 70
     0
  9
$DIMTIH
 70
     0
  9
$DIMTOH
 70
     0
  9
$DIMSE1
 70
     0
  9
$DIMSE2
 70
     0
  9
$DIMTAD
 70
     1
  9
$DIMZIN
 70
     8
  9
$DIMBLK
  1

  9
$DIMASO
 70
     1
  9
$DIMSHO
 70
     1
  9
$DIMPOST
  1

  9
$DIMAPOST
  1

  9
$DIMALT
 70
     0
  9
$DIMALTD
 70
     3
  9
$DIMALTF
 40
0.03937007874016
  9
$DIMLFAC
 40
1.0
  9
$DIMTOFL
 70
     1
  9
$DIMTVP
 40
0.0
  9
$DIMTIX
 70
     0
  9
$DIMSOXD
 70
     0
  9
$DIMSAH
 70
     0
  9
$DIMBLK1
  1

  9
$DIMBLK2
  1

  9
$DIMSTYLE
  2
ISO-25
  9
$DIMCLRD
 70
     0
  9
$DIMCLRE
 70
     0
  9
$DIMCLRT
 70
     0
  9
$DIMTFAC
 40
1.0
  9
$DIMGAP
 40
0.625
  9
$DIMJUST
 70
     0
  9
$DIMSD1
 70
     0
  9
$DIMSD2
 70
     0
  9
$DIMTOLJ
 70
     0
  9
$DIMTZIN
 70
     8
  9
$DIMALTZ
 70
     0
  9
$DIMALTTZ
 70
     0
  9
$DIMUPT
 70
     0
  9
$DIMDEC
 70
     2
  9
$DIMTDEC
 70
     2
  9
$DIMALTU
 70
     2
  9
$DIMALTTD
 70
     3
  9
$DIMTXSTY
  7
Standard
  9
$DIMAUNIT
 70
     0
  9
$DIMADEC
 70
     0
  9
$DIMALTRND
 40
0.0
  9
$DIMAZIN
 70
     0
  9
$DIMDSEP
 70
    44
  9
$DIMATFIT
 70
     3
  9
$DIMFRAC
 70
     0
  9
$DIMLDRBLK
  1

  9
$DIMLUNIT
 70
     2
  9
$DIMLWD
 70
    -2
  9
$DIMLWE
 70
    -2
  9
$DIMTMOVE
 70
     0
  9
$LUNITS
 70
     2
  9
$LUPREC
 70
     4
  9
$SKETCHINC
 40
1.0
  9
$FILLETRAD
 40
0.0
  9
$AUNITS
 70
     0
  9
$AUPREC
 70
     0
  9
$MENU
  1
.
  9
$ELEVATION
 40
0.0
  9
$PELEVATION
 40
0.0
  9
$THICKNESS
 40
0.0
  9
$LIMCHECK
 70
     0
  9
$CHAMFERA
 40
0.0
  9
$CHAMFERB
 40
0.0
  9
$CHAMFERC
 40
0.0
  9
$CHAMFERD
 40
0.0
  9
$SKPOLY
 70
     0
  9
$TDCREATE
 40
2455096.443668125
  9
$TDUCREATE
 40
2455096.360334792
  9
$TDUPDATE
 40
2455096.48533478
  9
$TDUUPDATE
 40
2455096.402001447
  9
$TDINDWG
 40
0.0414979167
  9
$TDUSRTIMER
 40
0.0414955556
  9
$USRTIMER
 70
     1
  9
$ANGBASE
 50
0.0
  9
$ANGDIR
 70
     0
  9
$PDMODE
 70
     0
  9
$PDSIZE
 40
0.0
  9
$PLINEWID
 40
0.0
  9
$SPLFRAME
 70
     0
  9
$SPLINETYPE
 70
     6
  9
$SPLINESEGS
 70
     8
  9
$HANDSEED
  5
2B7
  9
$SURFTAB1
 70
     6
  9
$SURFTAB2
 70
     6
  9
$SURFTYPE
 70
     6
  9
$SURFU
 70
     6
  9
$SURFV
 70
     6
  9
$UCSBASE
  2

  9
$UCSNAME
  2

  9
$UCSORG
 10
0.0
 20
0.0
 30
0.0
  9
$UCSXDIR
 10
1.0
 20
0.0
 30
0.0
  9
$UCSYDIR
 10
0.0
 20
1.0
 30
0.0
  9
$UCSORTHOREF
  2

  9
$UCSORTHOVIEW
 70
     0
  9
$UCSORGTOP
 10
0.0
 20
0.0
 30
0.0
  9
$UCSORGBOTTOM
 10
0.0
 20
0.0
 30
0.0
  9
$UCSORGLEFT
 10
0.0
 20
0.0
 30
0.0
  9
$UCSORGRIGHT
 10
0.0
 20
0.0
 30
0.0
  9
$UCSORGFRONT
 10
0.0
 20
0.0
 30
0.0
  9
$UCSORGBACK
 10
0.0
 20
0.0
 30
0.0
  9
$PUCSBASE
  2

  9
$PUCSNAME
  2

  9
$PUCSORG
 10
0.0
 20
0.0
 30
0.0
  9
$PUCSXDIR
 10
1.0
 20
0.0
 30
0.0
  9
$PUCSYDIR
 10
0.0
 20
1.0
 30
0.0
  9
$PUCSORTHOREF
  2

  9
$PUCSORTHOVIEW
 70
     0
  9
$PUCSORGTOP
 10
0.0
 20
0.0
 30
0.0
  9
$PUCSORGBOTTOM
 10
0.0
 20
0.0
 30
0.0
  9
$PUCSORGLEFT
 10
0.0
 20
0.0
 30
0.0
  9
$PUCSORGRIGHT
 10
0.0
 20
0.0
 30
0.0
  9
$PUCSORGFRONT
 10
0.0
 20
0.0
 30
0.0
  9
$PUCSORGBACK
 10
0.0
 20
0.0
 30
0.0
  9
$USERI1
 70
     0
  9
$USERI2
 70
     0
  9
$USERI3
 70
     0
  9
$USERI4
 70
     0
  9
$USERI5
 70
     0
  9
$USERR1
 40
0.0
  9
$USERR2
 40
0.0
  9
$USERR3
 40
0.0
  9
$USERR4
 40
0.0
  9
$USERR5
 40
0.0
  9
$WORLDVIEW
 70
     1
  9
$SHADEDGE
 70
     3
  9
$SHADEDIF
 70
    70
  9
$TILEMODE
 70
     1
  9
$MAXACTVP
 70
    64
  9
$PINSBASE
 10
0.0
 20
0.0
 30
0.0
  9
$PLIMCHECK
 70
     0
  9
$PEXTMIN
 10
0.0
 20
0.0
 30
0.0
  9
$PEXTMAX
 10
12.0
 20
9.0
 30
0.0
  9
$PLIMMIN
 10
0.0
 20
0.0
  9
$PLIMMAX
 10
12.0
 20
9.0
  9
$UNITMODE
 70
     0
  9
$VISRETAIN
 70
     1
  9
$PLINEGEN
 70
     0
  9
$PSLTSCALE
 70
     1
  9
$TREEDEPTH
 70
  3020
  9
$CMLSTYLE
  2
Standard
  9
$CMLJUST
 70
     0
  9
$CMLSCALE
 40
20.0
  9
$PROXYGRAPHICS
 70
     1
  9
$MEASUREMENT
 70
     1
  9
$CELWEIGHT
370
    -1
  9
$ENDCAPS
280
     0
  9
$JOINSTYLE
280
     0
  9
$LWDISPLAY
290
     0
  9
$INSUNITS
 70
     4
  9
$HYPERLINKBASE
  1

  9
$STYLESHEET
  1

  9
$XEDIT
290
     1
  9
$CEPSNTYPE
380
     0
  9
$PSTYLEMODE
290
     1
  9
$FINGERPRINTGUID
  2
{5559452E-1E62-4159-8551-BF76FFF3E7E8}
  9
$VERSIONGUID
  2
{3CEB9EF8-4431-4551-B596-6734A9F966A9}
  9
$EXTNAMES
290
     1
  9
$PSVPSCALE
 40
0.0
  9
$OLESTARTUP
290
     0
  0
ENDSEC
  0
SECTION
  2
CLASSES
  0
CLASS
  1
ACDBDICTIONARYWDFLT
  2
AcDbDictionaryWithDefault
  3
ObjectDBX Classes
 90
        0
280
     0
281
     0
  0
CLASS
  1
ACDBPLACEHOLDER
  2
AcDbPlaceHolder
  3
ObjectDBX Classes
 90
        0
280
     0
281
     0
  0
CLASS
  1
LAYOUT
  2
AcDbLayout
  3
ObjectDBX Classes
 90
        0
280
     0
281
     0
  0
CLASS
  1
DICTIONARYVAR
  2
AcDbDictionaryVar
  3
ObjectDBX Classes
 90
        0
280
     0
281
     0
  0
CLASS
  1
TABLESTYLE
  2
AcDbTableStyle
  3
ObjectDBX Classes
 90
     4095
280
     0
281
     0
  0
CLASS
  1
SCALE
  2
AcDbScale
  3
ObjectDBX Classes
 90
     1153
280
     0
281
     0
  0
ENDSEC
  0
SECTION
  2
TABLES
  0
TABLE
  2
VPORT
  5
8
330
0
100
AcDbSymbolTable
 70
     2
  0
VPORT
  5
97
330
8
100
AcDbSymbolTableRecord
100
AcDbViewportTableRecord
  2
*Active
 70
     0
 10
0.0
 20
0.0
 11
1.0
 21
1.0
 12
427.7344479475125
 22
162.7647859529201
 13
0.0
 23
0.0
 14
10.0
 24
10.0
 15
10.0
 25
10.0
 16
0.0
 26
0.0
 36
1.0
 17
0.0
 27
0.0
 37
0.0
 40
1236.984589754269
 41
1.664827586206897
 42
50.0
 43
0.0
 44
0.0
 50
0.0
 51
0.0
 71
     0
 72
  1000
 73
     1
 74
     3
 75
     0
 76
     0
 77
     0
 78
     0
281
     0
 65
     1
110
0.0
120
0.0
130
0.0
111
1.0
121
0.0
131
0.0
112
0.0
122
1.0
132
0.0
 79
     0
146
0.0
  0
ENDTAB
  0
TABLE
  2
LTYPE
  5
5
330
0
100
AcDbSymbolTable
 70
     3
  0
LTYPE
  5
14
330
5
100
AcDbSymbolTableRecord
100
AcDbLinetypeTableRecord
  2
ByBlock
 70
     0
  3

 72
    65
 73
     0
 40
0.0
  0
LTYPE
  5
15
330
5
100
AcDbSymbolTableRecord
100
AcDbLinetypeTableRecord
  2
ByLayer
 70
     0
  3

 72
    65
 73
     0
 40
0.0
  0
LTYPE
  5
16
330
5
100
AcDbSymbolTableRecord
100
AcDbLinetypeTableRecord
  2
Continuous
 70
     0
  3
Solid line
 72
    65
 73
     0
 40
0.0
  0
LTYPE
  5
293
330
5
100
AcDbSymbolTableRecord
100
AcDbLinetypeTableRecord
  2
DASHDOT
 70
     0
  3
 __ . __ . __ . __ . __ . __ . __ . 
 72
    65
 73
     4
 40
18.5
 49
12.0
 74
     0
 49
-3.0
 74
     0
 49
0.5
 74
     0
 49
-3.0
 74
     0
  0
LTYPE
  5
294
330
5
100
AcDbSymbolTableRecord
100
AcDbLinetypeTableRecord
  2
SOLID
 70
     0
  3

 72
    65
 73
     0
 40
0.0
  0
ENDTAB
  0
TABLE
  2
LAYER
  5
2
330
0
100
AcDbSymbolTable
 70
     3
  0
LAYER
  5
10
330
2
100
AcDbSymbolTableRecord
100
AcDbLayerTableRecord
  2
0
 70
     0
 62
     7
  6
Continuous
370
    -3
390
F
  0
LAYER
  5
FA
330
2
100
AcDbSymbolTableRecord
100
AcDbLayerTableRecord
  2
STANDARD_LAYER
 70
     0
 62
     7
  6
SOLID
370
    -3
390
F
  0
LAYER
  5
204
330
2
100
AcDbSymbolTableRecord
100
AcDbLayerTableRecord
  2
DEFPOINTS
 70
     0
 62
     7
  6
Continuous
290
     0
370
    -3
390
F
  0
ENDTAB
  0
TABLE
  2
STYLE
  5
3
330
0
100
AcDbSymbolTable
 70
     1
  0
STYLE
  5
11
330
3
100
AcDbSymbolTableRecord
100
AcDbTextStyleTableRecord
  2
Standard
 70
     0
 40
0.0
 41
1.0
 50
0.0
 71
     0
 42
2.5
  3
txt
  4

  0
ENDTAB
  0
TABLE
  2
VIEW
  5
6
330
0
100
AcDbSymbolTable
 70
     0
  0
ENDTAB
  0
TABLE
  2
UCS
  5
7
330
0
100
AcDbSymbolTable
 70
     0
  0
ENDTAB
  0
TABLE
  2
APPID
  5
9
330
0
100
AcDbSymbolTable
 70
     2
  0
APPID
  5
12
330
9
100
AcDbSymbolTableRecord
100
AcDbRegAppTableRecord
  2
ACAD
 70
     0
  0
APPID
  5
292
330
9
100
AcDbSymbolTableRecord
100
AcDbRegAppTableRecord
  2
PROGE_PRINT_SETTINGS
 70
     0
  0
ENDTAB
  0
TABLE
  2
DIMSTYLE
  5
A
330
0
100
AcDbSymbolTable
 70
     2
100
AcDbDimStyleTable
  0
DIMSTYLE
105
27
102
{ACAD_REACTORS
330
1CA
330
1CB
330
1CC
330
1CD
330
1CE
330
1CF
102
}
330
A
100
AcDbSymbolTableRecord
100
AcDbDimStyleTableRecord
  2
Standard
 70
     0
278
     0
340
11
  0
DIMSTYLE
105
29
330
A
100
AcDbSymbolTableRecord
100
AcDbDimStyleTableRecord
  2
ISO-25
 70
     0
 41
2.5
 42
0.625
 43
3.75
 44
1.25
 73
     0
 74
     0
 77
     1
 78
     8
140
2.5
141
2.5
143
0.03937007874016
147
0.625
171
     3
172
     1
271
     2
272
     2
274
     3
278
    44
283
     0
284
     8
340
11
  0
ENDTAB
  0
TABLE
  2
BLOCK_RECORD
  5
1
330
0
100
AcDbSymbolTable
 70
    13
  0
BLOCK_RECORD
  5
1F
330
1
100
AcDbSymbolTableRecord
100
AcDbBlockTableRecord
  2
*Model_Space
340
22
  0
BLOCK_RECORD
  5
73
330
1
100
AcDbSymbolTableRecord
100
AcDbBlockTableRecord
  2
*Paper_Space
340
296
  0
BLOCK_RECORD
  5
D1
330
1
100
AcDbSymbolTableRecord
100
AcDbBlockTableRecord
  2
*Paper_Space0
340
74
  0
BLOCK_RECORD
  5
211
330
1
100
AcDbSymbolTableRecord
100
AcDbBlockTableRecord
  2
*D1
340
0
  0
BLOCK_RECORD
  5
21C
330
1
100
AcDbSymbolTableRecord
100
AcDbBlockTableRecord
  2
*D2
340
0
  0
BLOCK_RECORD
  5
227
330
1
100
AcDbSymbolTableRecord
100
AcDbBlockTableRecord
  2
*D3
340
0
  0
BLOCK_RECORD
  5
232
330
1
100
AcDbSymbolTableRecord
100
AcDbBlockTableRecord
  2
*D4
340
0
  0
BLOCK_RECORD
  5
23F
330
1
100
AcDbSymbolTableRecord
100
AcDbBlockTableRecord
  2
*D5
340
0
  0
BLOCK_RECORD
  5
24A
330
1
100
AcDbSymbolTableRecord
100
AcDbBlockTableRecord
  2
*D6
340
0
  0
BLOCK_RECORD
  5
255
330
1
100
AcDbSymbolTableRecord
100
AcDbBlockTableRecord
  2
*D7
340
0
  0
BLOCK_RECORD
  5
260
330
1
100
AcDbSymbolTableRecord
100
AcDbBlockTableRecord
  2
*D8
340
0
  0
BLOCK_RECORD
  5
26B
330
1
100
AcDbSymbolTableRecord
100
AcDbBlockTableRecord
  2
*D9
340
0
  0
BLOCK_RECORD
  5
278
330
1
100
AcDbSymbolTableRecord
100
AcDbBlockTableRecord
  2
*D10
340
0
  0
BLOCK_RECORD
  5
283
330
1
100
AcDbSymbolTableRecord
100
AcDbBlockTableRecord
  2
*D11
340
0
  0
BLOCK_RECORD
  5
290
330
1
100
AcDbSymbolTableRecord
100
AcDbBlockTableRecord
  2
*D12
340
0
  0
ENDTAB
  0
ENDSEC
  0
SECTION
  2
BLOCKS
  0
BLOCK
  5
20
330
1F
100
AcDbEntity
  8
0
100
AcDbBlockBegin
  2
*Model_Space
 70
     0
 10
0.0
 20
0.0
 30
0.0
  3
*Model_Space
  1

  0
ENDBLK
  5
21
330
1F
100
AcDbEntity
  8
0
100
AcDbBlockEnd
  0
BLOCK
  5
75
330
73
100
AcDbEntity
 67
     1
  8
0
100
AcDbBlockBegin
  2
*Paper_Space
 70
     0
 10
0.0
 20
0.0
 30
0.0
  3
*Paper_Space
  1

  0
ENDBLK
  5
76
330
73
100
AcDbEntity
 67
     1
  8
0
100
AcDbBlockEnd
  0
BLOCK
  5
297
330
D1
100
AcDbEntity
  8
0
100
AcDbBlockBegin
  2
*Paper_Space0
 70
     0
 10
0.0
 20
0.0
 30
0.0
  3
*Paper_Space0
  1

  0
VIEWPORT
  5
2B1
330
D1
100
AcDbEntity
  8
0
100
AcDbViewport
 10
7.8
 20
4.5
 30
0.0
 40
15.64
 41
9.0
 68
     1
 69
     1
 12
6.0
 22
4.5
 13
0.0
 23
0.0
 14
0.5
 24
0.5
 15
0.5
 25
0.5
 16
0.0
 26
0.0
 36
1.0
 17
0.0
 27
0.0
 37
0.0
 42
50.0
 43
0.0
 44
0.0
 45
12.0
 50
0.0
 51
0.0
 72
   100
 90
   557152
  1

281
     0
 71
     1
 74
     0
110
0.0
120
0.0
130
0.0
111
1.0
121
0.0
131
0.0
112
0.0
122
1.0
132
0.0
 79
     0
146
0.0
  0
ENDBLK
  5
298
330
D1
100
AcDbEntity
  8
0
100
AcDbBlockEnd
  0
BLOCK
  5
299
330
211
100
AcDbEntity
  8
0
100
AcDbBlockBegin
  2
*D1
 70
     1
 10
0.0
 20
0.0
 30
0.0
  3
*D1
  1

  0
POINT
  5
206
330
211
100
AcDbEntity
  8
DEFPOINTS
  6
ByBlock
 62
     7
380
     1
100
AcDbPoint
 10
613.4125682584558
 20
562.0384582894724
 30
0.0
  0
POINT
  5
207
330
211
100
AcDbEntity
  8
DEFPOINTS
  6
ByBlock
 62
     7
380
     1
100
AcDbPoint
 10
617.4125682584558
 20
562.0384582894724
 30
0.0
  0
LINE
  5
208
330
211
100
AcDbEntity
  8
0
  6
ByBlock
 62
     7
370
    -2
380
     1
100
AcDbLine
 10
613.4125682584558
 20
562.6634582894724
 30
0.0
 11
613.4125682584558
 21
611.6115408104663
 31
0.0
  0
LINE
  5
209
330
211
100
AcDbEntity
  8
0
  6
ByBlock
 62
     7
370
    -2
380
     1
100
AcDbLine
 10
617.4125682584558
 20
562.6634582894724
 30
0.0
 11
617.4125682584558
 21
611.6115408104663
 31
0.0
  0
LINE
  5
20A
330
211
100
AcDbEntity
  8
0
  6
ByBlock
 62
     7
370
    -2
380
     1
100
AcDbLine
 10
627.4125682584558
 20
610.3615408104663
 30
0.0
 11
637.4125682584558
 21
610.3615408104663
 31
0.0
  0
LINE
  5
20B
330
211
100
AcDbEntity
  8
0
  6
ByBlock
 62
     7
370
    -2
380
     1
100
AcDbLine
 10
603.4125682584558
 20
610.3615408104663
 30
0.0
 11
583.7459015917891
 21
610.3615408104663
 31
0.0
  0
SOLID
  5
20C
330
211
100
AcDbEntity
  8
0
  6
ByBlock
 62
     7
380
     1
100
AcDbTrace
 10
613.4125682584558
 20
610.3615408104663
 30
0.0
 11
603.4125682584558
 21
608.6948741437997
 31
0.0
 12
603.4125682584558
 22
612.0282074771329
 32
0.0
 13
603.4125682584558
 23
612.0282074771329
 33
0.0
  0
SOLID
  5
20D
330
211
100
AcDbEntity
  8
0
  6
ByBlock
 62
     7
380
     1
100
AcDbTrace
 10
617.4125682584558
 20
610.3615408104663
 30
0.0
 11
627.4125682584558
 21
608.6948741437997
 31
0.0
 12
627.4125682584558
 22
612.0282074771329
 32
0.0
 13
627.4125682584558
 23
612.0282074771329
 33
0.0
  0
LINE
  5
20E
330
211
100
AcDbEntity
  8
0
  6
ByBlock
 62
     7
370
    -2
380
     1
100
AcDbLine
 10
613.4125682584558
 20
610.3615408104663
 30
0.0
 11
617.4125682584558
 21
610.3615408104663
 31
0.0
  0
MTEXT
  5
20F
330
211
100
AcDbEntity
  8
0
  6
ByBlock
 62
     0
370
    -2
380
     1
100
AcDbMText
 10
593.4125682584558
 20
622.3615408104663
 30
0.0
 40
14.0
 41
0.0
 71
     5
 72
     1
  1
\A1;4
 73
     1
 44
1.0
  0
ENDBLK
  5
29A
330
211
100
AcDbEntity
  8
0
100
AcDbBlockEnd
  0
BLOCK
  5
29B
330
21C
100
AcDbEntity
  8
0
100
AcDbBlockBegin
  2
*D2
 70
     1
 10
0.0
 20
0.0
 30
0.0
  3
*D2
  1

  0
POINT
  5
213
330
21C
100
AcDbEntity
  8
DEFPOINTS
  6
ByBlock
 62
     7
380
     1
100
AcDbPoint
 10
419.7963701691015
 20
565.1218563756008
 30
0.0
  0
POINT
  5
214
330
21C
100
AcDbEntity
  8
DEFPOINTS
  6
ByBlock
 62
     7
380
     1
100
AcDbPoint
 10
419.7963701691015
 20
62.12187137560088
 30
0.0
  0
LINE
  5
215
330
21C
100
AcDbEntity
  8
0
  6
ByBlock
 62
     7
370
    -2
380
     1
100
AcDbLine
 10
420.4213701691015
 20
565.1218563756008
 30
0.0
 11
568.7093848893528
 21
565.1218563756008
 31
0.0
  0
LINE
  5
216
330
21C
100
AcDbEntity
  8
0
  6
ByBlock
 62
     7
370
    -2
380
     1
100
AcDbLine
 10
420.4213701691015
 20
62.1218713756009
 30
0.0
 11
568.7093848893528
 21
62.1218713756009
 31
0.0
  0
LINE
  5
217
330
21C
100
AcDbEntity
  8
0
  6
ByBlock
 62
     7
370
    -2
380
     1
100
AcDbLine
 10
567.4593848893528
 20
555.1218563756008
 30
0.0
 11
567.4593848893528
 21
72.1218713756009
 31
0.0
  0
SOLID
  5
218
330
21C
100
AcDbEntity
  8
0
  6
ByBlock
 62
     7
380
     1
100
AcDbTrace
 10
567.4593848893528
 20
565.1218563756008
 30
0.0
 11
565.7927182226862
 21
555.1218563756008
 31
0.0
 12
569.1260515560194
 22
555.1218563756008
 32
0.0
 13
569.1260515560194
 23
555.1218563756008
 33
0.0
  0
SOLID
  5
219
330
21C
100
AcDbEntity
  8
0
  6
ByBlock
 62
     7
380
     1
100
AcDbTrace
 10
567.4593848893528
 20
62.1218713756009
 30
0.0
 11
565.7927182226862
 21
72.1218713756009
 31
0.0
 12
569.1260515560194
 22
72.1218713756009
 32
0.0
 13
569.1260515560194
 23
72.1218713756009
 33
0.0
  0
MTEXT
  5
21A
330
21C
100
AcDbEntity
  8
0
  6
ByBlock
 62
     0
370
    -2
380
     1
100
AcDbMText
 10
555.4593848893528
 20
313.6218638756009
 30
0.0
 40
14.0
 41
0.0
 71
     5
 72
     1
  1
\A1;503
 11
6.123031769111886E-17
 21
1.0
 31
0.0
 73
     1
 44
1.0
  0
ENDBLK
  5
29C
330
21C
100
AcDbEntity
  8
0
100
AcDbBlockEnd
  0
BLOCK
  5
29D
330
227
100
AcDbEntity
  8
0
100
AcDbBlockBegin
  2
*D3
 70
     1
 10
0.0
 20
0.0
 30
0.0
  3
*D3
  1

  0
POINT
  5
21E
330
227
100
AcDbEntity
  8
DEFPOINTS
  6
ByBlock
 62
     7
380
     1
100
AcDbPoint
 10
113.4833392584559
 20
445.0323553096244
 30
0.0
  0
POINT
  5
21F
330
227
100
AcDbEntity
  8
DEFPOINTS
  6
ByBlock
 62
     7
380
     1
100
AcDbPoint
 10
467.4833392584559
 20
445.0323553096244
 30
0.0
  0
LINE
  5
220
330
227
100
AcDbEntity
  8
0
  6
ByBlock
 62
     7
370
    -2
380
     1
100
AcDbLine
 10
113.4833392584559
 20
445.6573553096244
 30
0.0
 11
113.4833392584559
 21
611.6115408104663
 31
0.0
  0
LINE
  5
221
330
227
100
AcDbEntity
  8
0
  6
ByBlock
 62
     7
370
    -2
380
     1
100
AcDbLine
 10
467.4833392584559
 20
445.6573553096244
 30
0.0
 11
467.4833392584559
 21
611.6115408104663
 31
0.0
  0
LINE
  5
222
330
227
100
AcDbEntity
  8
0
  6
ByBlock
 62
     7
370
    -2
380
     1
100
AcDbLine
 10
123.4833392584559
 20
610.3615408104663
 30
0.0
 11
457.4833392584559
 21
610.3615408104663
 31
0.0
  0
SOLID
  5
223
330
227
100
AcDbEntity
  8
0
  6
ByBlock
 62
     7
380
     1
100
AcDbTrace
 10
113.4833392584559
 20
610.3615408104663
 30
0.0
 11
123.4833392584559
 21
608.6948741437997
 31
0.0
 12
123.4833392584559
 22
612.0282074771329
 32
0.0
 13
123.4833392584559
 23
612.0282074771329
 33
0.0
  0
SOLID
  5
224
330
227
100
AcDbEntity
  8
0
  6
ByBlock
 62
     7
380
     1
100
AcDbTrace
 10
467.4833392584559
 20
610.3615408104663
 30
0.0
 11
457.4833392584559
 21
608.6948741437997
 31
0.0
 12
457.4833392584559
 22
612.0282074771329
 32
0.0
 13
457.4833392584559
 23
612.0282074771329
 33
0.0
  0
MTEXT
  5
225
330
227
100
AcDbEntity
  8
0
  6
ByBlock
 62
     0
370
    -2
380
     1
100
AcDbMText
 10
290.4833392584559
 20
622.3615408104663
 30
0.0
 40
14.0
 41
0.0
 71
     5
 72
     1
  1
\A1;354
 73
     1
 44
1.0
  0
ENDBLK
  5
29E
330
227
100
AcDbEntity
  8
0
100
AcDbBlockEnd
  0
BLOCK
  5
29F
330
232
100
AcDbEntity
  8
0
100
AcDbBlockBegin
  2
*D4
 70
     1
 10
0.0
 20
0.0
 30
0.0
  3
*D4
  1

  0
POINT
  5
229
330
232
100
AcDbEntity
  8
DEFPOINTS
  6
ByBlock
 62
     7
380
     1
100
AcDbPoint
 10
94.98333925845591
 20
445.2979823640047
 30
0.0
  0
POINT
  5
22A
330
232
100
AcDbEntity
  8
DEFPOINTS
  6
ByBlock
 62
     7
380
     1
100
AcDbPoint
 10
485.9833392584559
 20
445.2979823640047
 30
0.0
  0
LINE
  5
22B
330
232
100
AcDbEntity
  8
0
  6
ByBlock
 62
     7
370
    -2
380
     1
100
AcDbLine
 10
94.98333925845591
 20
445.9229823640047
 30
0.0
 11
94.98333925845591
 21
671.2423667284258
 31
0.0
  0
LINE
  5
22C
330
232
100
AcDbEntity
  8
0
  6
ByBlock
 62
     7
370
    -2
380
     1
100
AcDbLine
 10
485.9833392584559
 20
445.9229823640047
 30
0.0
 11
485.9833392584559
 21
671.2423667284258
 31
0.0
  0
LINE
  5
22D
330
232
100
AcDbEntity
  8
0
  6
ByBlock
 62
     7
370
    -2
380
     1
100
AcDbLine
 10
104.9833392584559
 20
669.9923667284258
 30
0.0
 11
475.9833392584559
 21
669.9923667284258
 31
0.0
  0
SOLID
  5
22E
330
232
100
AcDbEntity
  8
0
  6
ByBlock
 62
     7
380
     1
100
AcDbTrace
 10
94.98333925845591
 20
669.9923667284258
 30
0.0
 11
104.9833392584559
 21
668.3257000617592
 31
0.0
 12
104.9833392584559
 22
671.6590333950925
 32
0.0
 13
104.9833392584559
 23
671.6590333950925
 33
0.0
  0
SOLID
  5
22F
330
232
100
AcDbEntity
  8
0
  6
ByBlock
 62
     7
380
     1
100
AcDbTrace
 10
485.9833392584559
 20
669.9923667284258
 30
0.0
 11
475.9833392584559
 21
668.3257000617592
 31
0.0
 12
475.9833392584559
 22
671.6590333950925
 32
0.0
 13
475.9833392584559
 23
671.6590333950925
 33
0.0
  0
MTEXT
  5
230
330
232
100
AcDbEntity
  8
0
  6
ByBlock
 62
     0
370
    -2
380
     1
100
AcDbMText
 10
290.4833392584559
 20
681.9923667284258
 30
0.0
 40
14.0
 41
0.0
 71
     5
 72
     1
  1
\A1;391
 73
     1
 44
1.0
  0
ENDBLK
  5
2A0
330
232
100
AcDbEntity
  8
0
100
AcDbBlockEnd
  0
BLOCK
  5
2A1
330
23F
100
AcDbEntity
  8
0
100
AcDbBlockBegin
  2
*D5
 70
     1
 10
0.0
 20
0.0
 30
0.0
  3
*D5
  1

  0
POINT
  5
234
330
23F
100
AcDbEntity
  8
DEFPOINTS
  6
ByBlock
 62
     7
380
     1
100
AcDbPoint
 10
418.7348135617601
 20
565.1218563756008
 30
0.0
  0
POINT
  5
235
330
23F
100
AcDbEntity
  8
DEFPOINTS
  6
ByBlock
 62
     7
380
     1
100
AcDbPoint
 10
418.7348135617601
 20
546.1218563756008
 30
0.0
  0
LINE
  5
236
330
23F
100
AcDbEntity
  8
0
  6
ByBlock
 62
     7
370
    -2
380
     1
100
AcDbLine
 10
419.3598135617601
 20
565.1218563756008
 30
0.0
 11
521.9600516191017
 21
565.1218563756008
 31
0.0
  0
LINE
  5
237
330
23F
100
AcDbEntity
  8
0
  6
ByBlock
 62
     7
370
    -2
380
     1
100
AcDbLine
 10
419.3598135617601
 20
546.1218563756008
 30
0.0
 11
521.9600516191017
 21
546.1218563756008
 31
0.0
  0
LINE
  5
238
330
23F
100
AcDbEntity
  8
0
  6
ByBlock
 62
     7
370
    -2
380
     1
100
AcDbLine
 10
520.7100516191017
 20
536.1218563756008
 30
0.0
 11
520.7100516191017
 21
526.1218563756008
 31
0.0
  0
LINE
  5
239
330
23F
100
AcDbEntity
  8
0
  6
ByBlock
 62
     7
370
    -2
380
     1
100
AcDbLine
 10
520.7100516191017
 20
575.1218563756008
 30
0.0
 11
520.7100516191017
 21
601.4551897089341
 31
0.0
  0
SOLID
  5
23A
330
23F
100
AcDbEntity
  8
0
  6
ByBlock
 62
     7
380
     1
100
AcDbTrace
 10
520.7100516191017
 20
565.1218563756008
 30
0.0
 11
519.0433849524351
 21
575.1218563756008
 31
0.0
 12
522.3767182857683
 22
575.1218563756008
 32
0.0
 13
522.3767182857683
 23
575.1218563756008
 33
0.0
  0
SOLID
  5
23B
330
23F
100
AcDbEntity
  8
0
  6
ByBlock
 62
     7
380
     1
100
AcDbTrace
 10
520.7100516191017
 20
546.1218563756008
 30
0.0
 11
519.0433849524351
 21
536.1218563756008
 31
0.0
 12
522.3767182857683
 22
536.1218563756008
 32
0.0
 13
522.3767182857683
 23
536.1218563756008
 33
0.0
  0
LINE
  5
23C
330
23F
100
AcDbEntity
  8
0
  6
ByBlock
 62
     7
370
    -2
380
     1
100
AcDbLine
 10
520.7100516191017
 20
565.1218563756008
 30
0.0
 11
520.7100516191017
 21
546.1218563756008
 31
0.0
  0
MTEXT
  5
23D
330
23F
100
AcDbEntity
  8
0
  6
ByBlock
 62
     0
370
    -2
380
     1
100
AcDbMText
 10
508.7100516191017
 20
589.4551897089342
 30
0.0
 40
14.0
 41
0.0
 71
     5
 72
     1
  1
\A1;19
 11
6.123031769111886E-17
 21
1.0
 31
0.0
 73
     1
 44
1.0
  0
ENDBLK
  5
2A2
330
23F
100
AcDbEntity
  8
0
100
AcDbBlockEnd
  0
BLOCK
  5
2A3
330
24A
100
AcDbEntity
  8
0
100
AcDbBlockBegin
  2
*D6
 70
     1
 10
0.0
 20
0.0
 30
0.0
  3
*D6
  1

  0
POINT
  5
241
330
24A
100
AcDbEntity
  8
DEFPOINTS
  6
ByBlock
 62
     7
380
     1
100
AcDbPoint
 10
410.9449640869516
 20
546.1218563756008
 30
0.0
  0
POINT
  5
242
330
24A
100
AcDbEntity
  8
DEFPOINTS
  6
ByBlock
 62
     7
380
     1
100
AcDbPoint
 10
396.7816014054818
 20
206.1218563756009
 30
0.0
  0
LINE
  5
243
330
24A
100
AcDbEntity
  8
0
  6
ByBlock
 62
     7
370
    -2
380
     1
100
AcDbLine
 10
411.5699640869516
 20
546.1218563756008
 30
0.0
 11
521.9610248683425
 21
546.1218563756008
 31
0.0
  0
LINE
  5
244
330
24A
100
AcDbEntity
  8
0
  6
ByBlock
 62
     7
370
    -2
380
     1
100
AcDbLine
 10
397.4066014054818
 20
206.1218563756009
 30
0.0
 11
521.9610248683425
 21
206.1218563756009
 31
0.0
  0
LINE
  5
245
330
24A
100
AcDbEntity
  8
0
  6
ByBlock
 62
     7
370
    -2
380
     1
100
AcDbLine
 10
520.7110248683425
 20
536.1218563756008
 30
0.0
 11
520.7110248683425
 21
216.1218563756009
 31
0.0
  0
SOLID
  5
246
330
24A
100
AcDbEntity
  8
0
  6
ByBlock
 62
     7
380
     1
100
AcDbTrace
 10
520.7110248683425
 20
546.1218563756008
 30
0.0
 11
519.0443582016759
 21
536.1218563756008
 31
0.0
 12
522.3776915350091
 22
536.1218563756008
 32
0.0
 13
522.3776915350091
 23
536.1218563756008
 33
0.0
  0
SOLID
  5
247
330
24A
100
AcDbEntity
  8
0
  6
ByBlock
 62
     7
380
     1
100
AcDbTrace
 10
520.7110248683425
 20
206.1218563756009
 30
0.0
 11
519.0443582016759
 21
216.1218563756009
 31
0.0
 12
522.3776915350091
 22
216.1218563756009
 32
0.0
 13
522.3776915350091
 23
216.1218563756009
 33
0.0
  0
MTEXT
  5
248
330
24A
100
AcDbEntity
  8
0
  6
ByBlock
 62
     0
370
    -2
380
     1
100
AcDbMText
 10
508.7110248683425
 20
376.1218563756009
 30
0.0
 40
14.0
 41
0.0
 71
     5
 72
     1
  1
\A1;340
 11
6.123031769111886E-17
 21
1.0
 31
0.0
 73
     1
 44
1.0
  0
ENDBLK
  5
2A4
330
24A
100
AcDbEntity
  8
0
100
AcDbBlockEnd
  0
BLOCK
  5
2A5
330
255
100
AcDbEntity
  8
0
100
AcDbBlockBegin
  2
*D7
 70
     1
 10
0.0
 20
0.0
 30
0.0
  3
*D7
  1

  0
POINT
  5
24C
330
255
100
AcDbEntity
  8
DEFPOINTS
  6
ByBlock
 62
     7
380
     1
100
AcDbPoint
 10
121.4586562083765
 20
437.7748234347558
 30
0.0
  0
POINT
  5
24D
330
255
100
AcDbEntity
  8
DEFPOINTS
  6
ByBlock
 62
     7
380
     1
100
AcDbPoint
 10
512.4586562083765
 20
437.7748234347558
 30
0.0
  0
LINE
  5
24E
330
255
100
AcDbEntity
  8
0
  6
ByBlock
 62
     7
370
    -2
380
     1
100
AcDbLine
 10
121.4586562083765
 20
438.3998234347558
 30
0.0
 11
121.4586562083765
 21
663.719207799177
 31
0.0
  0
LINE
  5
24F
330
255
100
AcDbEntity
  8
0
  6
ByBlock
 62
     7
370
    -2
380
     1
100
AcDbLine
 10
512.4586562083765
 20
438.3998234347558
 30
0.0
 11
512.4586562083765
 21
663.719207799177
 31
0.0
  0
LINE
  5
250
330
255
100
AcDbEntity
  8
0
  6
ByBlock
 62
     7
370
    -2
380
     1
100
AcDbLine
 10
131.4586562083765
 20
662.469207799177
 30
0.0
 11
502.4586562083765
 21
662.469207799177
 31
0.0
  0
SOLID
  5
251
330
255
100
AcDbEntity
  8
0
  6
ByBlock
 62
     7
380
     1
100
AcDbTrace
 10
121.4586562083765
 20
662.469207799177
 30
0.0
 11
131.4586562083765
 21
660.8025411325103
 31
0.0
 12
131.4586562083765
 22
664.1358744658436
 32
0.0
 13
131.4586562083765
 23
664.1358744658436
 33
0.0
  0
SOLID
  5
252
330
255
100
AcDbEntity
  8
0
  6
ByBlock
 62
     7
380
     1
100
AcDbTrace
 10
512.4586562083765
 20
662.469207799177
 30
0.0
 11
502.4586562083765
 21
660.8025411325103
 31
0.0
 12
502.4586562083765
 22
664.1358744658436
 32
0.0
 13
502.4586562083765
 23
664.1358744658436
 33
0.0
  0
MTEXT
  5
253
330
255
100
AcDbEntity
  8
0
  6
ByBlock
 62
     0
370
    -2
380
     1
100
AcDbMText
 10
316.9586562083765
 20
674.469207799177
 30
0.0
 40
14.0
 41
0.0
 71
     5
 72
     1
  1
\A1;391
 73
     1
 44
1.0
  0
ENDBLK
  5
2A6
330
255
100
AcDbEntity
  8
0
100
AcDbBlockEnd
  0
BLOCK
  5
2A7
330
260
100
AcDbEntity
  8
0
100
AcDbBlockBegin
  2
*D8
 70
     1
 10
0.0
 20
0.0
 30
0.0
  3
*D8
  1

  0
POINT
  5
257
330
260
100
AcDbEntity
  8
DEFPOINTS
  6
ByBlock
 62
     7
380
     1
100
AcDbPoint
 10
139.9586562083765
 20
437.5091963803754
 30
0.0
  0
POINT
  5
258
330
260
100
AcDbEntity
  8
DEFPOINTS
  6
ByBlock
 62
     7
380
     1
100
AcDbPoint
 10
493.9586562083765
 20
437.5091963803754
 30
0.0
  0
LINE
  5
259
330
260
100
AcDbEntity
  8
0
  6
ByBlock
 62
     7
370
    -2
380
     1
100
AcDbLine
 10
139.9586562083765
 20
438.1341963803754
 30
0.0
 11
139.9586562083765
 21
604.0883818812174
 31
0.0
  0
LINE
  5
25A
330
260
100
AcDbEntity
  8
0
  6
ByBlock
 62
     7
370
    -2
380
     1
100
AcDbLine
 10
493.9586562083765
 20
438.1341963803754
 30
0.0
 11
493.9586562083765
 21
604.0883818812174
 31
0.0
  0
LINE
  5
25B
330
260
100
AcDbEntity
  8
0
  6
ByBlock
 62
     7
370
    -2
380
     1
100
AcDbLine
 10
149.9586562083765
 20
602.8383818812174
 30
0.0
 11
483.9586562083765
 21
602.8383818812174
 31
0.0
  0
SOLID
  5
25C
330
260
100
AcDbEntity
  8
0
  6
ByBlock
 62
     7
380
     1
100
AcDbTrace
 10
139.9586562083765
 20
602.8383818812174
 30
0.0
 11
149.9586562083765
 21
601.1717152145508
 31
0.0
 12
149.9586562083765
 22
604.505048547884
 32
0.0
 13
149.9586562083765
 23
604.505048547884
 33
0.0
  0
SOLID
  5
25D
330
260
100
AcDbEntity
  8
0
  6
ByBlock
 62
     7
380
     1
100
AcDbTrace
 10
493.9586562083765
 20
602.8383818812174
 30
0.0
 11
483.9586562083765
 21
601.1717152145508
 31
0.0
 12
483.9586562083765
 22
604.505048547884
 32
0.0
 13
483.9586562083765
 23
604.505048547884
 33
0.0
  0
MTEXT
  5
25E
330
260
100
AcDbEntity
  8
0
  6
ByBlock
 62
     0
370
    -2
380
     1
100
AcDbMText
 10
316.9586562083765
 20
614.8383818812174
 30
0.0
 40
14.0
 41
0.0
 71
     5
 72
     1
  1
\A1;354
 73
     1
 44
1.0
  0
ENDBLK
  5
2A8
330
260
100
AcDbEntity
  8
0
100
AcDbBlockEnd
  0
BLOCK
  5
2A9
330
26B
100
AcDbEntity
  8
0
100
AcDbBlockBegin
  2
*D9
 70
     1
 10
0.0
 20
0.0
 30
0.0
  3
*D9
  1

  0
POINT
  5
262
330
26B
100
AcDbEntity
  8
DEFPOINTS
  6
ByBlock
 62
     7
380
     1
100
AcDbPoint
 10
437.4202810368722
 20
538.5986974463519
 30
0.0
  0
POINT
  5
263
330
26B
100
AcDbEntity
  8
DEFPOINTS
  6
ByBlock
 62
     7
380
     1
100
AcDbPoint
 10
423.2569183554024
 20
198.598697446352
 30
0.0
  0
LINE
  5
264
330
26B
100
AcDbEntity
  8
0
  6
ByBlock
 62
     7
370
    -2
380
     1
100
AcDbLine
 10
438.0452810368722
 20
538.5986974463519
 30
0.0
 11
548.4363418182631
 21
538.5986974463519
 31
0.0
  0
LINE
  5
265
330
26B
100
AcDbEntity
  8
0
  6
ByBlock
 62
     7
370
    -2
380
     1
100
AcDbLine
 10
423.8819183554024
 20
198.5986974463519
 30
0.0
 11
548.4363418182631
 21
198.5986974463519
 31
0.0
  0
LINE
  5
266
330
26B
100
AcDbEntity
  8
0
  6
ByBlock
 62
     7
370
    -2
380
     1
100
AcDbLine
 10
547.1863418182631
 20
528.5986974463519
 30
0.0
 11
547.1863418182631
 21
208.5986974463519
 31
0.0
  0
SOLID
  5
267
330
26B
100
AcDbEntity
  8
0
  6
ByBlock
 62
     7
380
     1
100
AcDbTrace
 10
547.1863418182631
 20
538.5986974463519
 30
0.0
 11
545.5196751515965
 21
528.5986974463519
 31
0.0
 12
548.8530084849298
 22
528.5986974463519
 32
0.0
 13
548.8530084849298
 23
528.5986974463519
 33
0.0
  0
SOLID
  5
268
330
26B
100
AcDbEntity
  8
0
  6
ByBlock
 62
     7
380
     1
100
AcDbTrace
 10
547.1863418182631
 20
198.5986974463519
 30
0.0
 11
545.5196751515965
 21
208.5986974463519
 31
0.0
 12
548.8530084849298
 22
208.5986974463519
 32
0.0
 13
548.8530084849298
 23
208.5986974463519
 33
0.0
  0
MTEXT
  5
269
330
26B
100
AcDbEntity
  8
0
  6
ByBlock
 62
     0
370
    -2
380
     1
100
AcDbMText
 10
535.1863418182631
 20
368.5986974463519
 30
0.0
 40
14.0
 41
0.0
 71
     5
 72
     1
  1
\A1;340
 11
6.123031769111886E-17
 21
1.0
 31
0.0
 73
     1
 44
1.0
  0
ENDBLK
  5
2AA
330
26B
100
AcDbEntity
  8
0
100
AcDbBlockEnd
  0
BLOCK
  5
2AB
330
278
100
AcDbEntity
  8
0
100
AcDbBlockBegin
  2
*D10
 70
     1
 10
0.0
 20
0.0
 30
0.0
  3
*D10
  1

  0
POINT
  5
26D
330
278
100
AcDbEntity
  8
DEFPOINTS
  6
ByBlock
 62
     7
380
     1
100
AcDbPoint
 10
445.2101305116807
 20
557.5986974463519
 30
0.0
  0
POINT
  5
26E
330
278
100
AcDbEntity
  8
DEFPOINTS
  6
ByBlock
 62
     7
380
     1
100
AcDbPoint
 10
445.2101305116807
 20
538.5986974463519
 30
0.0
  0
LINE
  5
26F
330
278
100
AcDbEntity
  8
0
  6
ByBlock
 62
     7
370
    -2
380
     1
100
AcDbLine
 10
445.8351305116807
 20
557.5986974463519
 30
0.0
 11
548.4353685690223
 21
557.5986974463519
 31
0.0
  0
LINE
  5
270
330
278
100
AcDbEntity
  8
0
  6
ByBlock
 62
     7
370
    -2
380
     1
100
AcDbLine
 10
445.8351305116807
 20
538.5986974463519
 30
0.0
 11
548.4353685690223
 21
538.5986974463519
 31
0.0
  0
LINE
  5
271
330
278
100
AcDbEntity
  8
0
  6
ByBlock
 62
     7
370
    -2
380
     1
100
AcDbLine
 10
547.1853685690223
 20
528.5986974463519
 30
0.0
 11
547.1853685690223
 21
518.5986974463519
 31
0.0
  0
LINE
  5
272
330
278
100
AcDbEntity
  8
0
  6
ByBlock
 62
     7
370
    -2
380
     1
100
AcDbLine
 10
547.1853685690223
 20
567.5986974463519
 30
0.0
 11
547.1853685690223
 21
593.9320307796852
 31
0.0
  0
SOLID
  5
273
330
278
100
AcDbEntity
  8
0
  6
ByBlock
 62
     7
380
     1
100
AcDbTrace
 10
547.1853685690223
 20
557.5986974463519
 30
0.0
 11
545.5187019023557
 21
567.5986974463519
 31
0.0
 12
548.852035235689
 22
567.5986974463519
 32
0.0
 13
548.852035235689
 23
567.5986974463519
 33
0.0
  0
SOLID
  5
274
330
278
100
AcDbEntity
  8
0
  6
ByBlock
 62
     7
380
     1
100
AcDbTrace
 10
547.1853685690223
 20
538.5986974463519
 30
0.0
 11
545.5187019023557
 21
528.5986974463519
 31
0.0
 12
548.852035235689
 22
528.5986974463519
 32
0.0
 13
548.852035235689
 23
528.5986974463519
 33
0.0
  0
LINE
  5
275
330
278
100
AcDbEntity
  8
0
  6
ByBlock
 62
     7
370
    -2
380
     1
100
AcDbLine
 10
547.1853685690223
 20
557.5986974463519
 30
0.0
 11
547.1853685690223
 21
538.5986974463519
 31
0.0
  0
MTEXT
  5
276
330
278
100
AcDbEntity
  8
0
  6
ByBlock
 62
     0
370
    -2
380
     1
100
AcDbMText
 10
535.1853685690223
 20
581.9320307796852
 30
0.0
 40
14.0
 41
0.0
 71
     5
 72
     1
  1
\A1;19
 11
6.123031769111886E-17
 21
1.0
 31
0.0
 73
     1
 44
1.0
  0
ENDBLK
  5
2AC
330
278
100
AcDbEntity
  8
0
100
AcDbBlockEnd
  0
BLOCK
  5
2AD
330
283
100
AcDbEntity
  8
0
100
AcDbBlockBegin
  2
*D11
 70
     1
 10
0.0
 20
0.0
 30
0.0
  3
*D11
  1

  0
POINT
  5
27A
330
283
100
AcDbEntity
  8
DEFPOINTS
  6
ByBlock
 62
     7
380
     1
100
AcDbPoint
 10
446.2716871190221
 20
557.5986974463519
 30
0.0
  0
POINT
  5
27B
330
283
100
AcDbEntity
  8
DEFPOINTS
  6
ByBlock
 62
     7
380
     1
100
AcDbPoint
 10
446.2716871190221
 20
54.59871244635193
 30
0.0
  0
LINE
  5
27C
330
283
100
AcDbEntity
  8
0
  6
ByBlock
 62
     7
370
    -2
380
     1
100
AcDbLine
 10
446.8966871190221
 20
557.5986974463519
 30
0.0
 11
595.1847018392734
 21
557.5986974463519
 31
0.0
  0
LINE
  5
27D
330
283
100
AcDbEntity
  8
0
  6
ByBlock
 62
     7
370
    -2
380
     1
100
AcDbLine
 10
446.8966871190221
 20
54.59871244635195
 30
0.0
 11
595.1847018392734
 21
54.59871244635195
 31
0.0
  0
LINE
  5
27E
330
283
100
AcDbEntity
  8
0
  6
ByBlock
 62
     7
370
    -2
380
     1
100
AcDbLine
 10
593.9347018392734
 20
547.5986974463519
 30
0.0
 11
593.9347018392734
 21
64.59871244635195
 31
0.0
  0
SOLID
  5
27F
330
283
100
AcDbEntity
  8
0
  6
ByBlock
 62
     7
380
     1
100
AcDbTrace
 10
593.9347018392734
 20
557.5986974463519
 30
0.0
 11
592.2680351726068
 21
547.5986974463519
 31
0.0
 12
595.6013685059401
 22
547.5986974463519
 32
0.0
 13
595.6013685059401
 23
547.5986974463519
 33
0.0
  0
SOLID
  5
280
330
283
100
AcDbEntity
  8
0
  6
ByBlock
 62
     7
380
     1
100
AcDbTrace
 10
593.9347018392734
 20
54.59871244635195
 30
0.0
 11
592.2680351726068
 21
64.59871244635195
 31
0.0
 12
595.6013685059401
 22
64.59871244635195
 32
0.0
 13
595.6013685059401
 23
64.59871244635195
 33
0.0
  0
MTEXT
  5
281
330
283
100
AcDbEntity
  8
0
  6
ByBlock
 62
     0
370
    -2
380
     1
100
AcDbMText
 10
581.9347018392734
 20
306.098704946352
 30
0.0
 40
14.0
 41
0.0
 71
     5
 72
     1
  1
\A1;503
 11
6.123031769111886E-17
 21
1.0
 31
0.0
 73
     1
 44
1.0
  0
ENDBLK
  5
2AE
330
283
100
AcDbEntity
  8
0
100
AcDbBlockEnd
  0
BLOCK
  5
2AF
330
290
100
AcDbEntity
  8
0
100
AcDbBlockBegin
  2
*D12
 70
     1
 10
0.0
 20
0.0
 30
0.0
  3
*D12
  1

  0
POINT
  5
285
330
290
100
AcDbEntity
  8
DEFPOINTS
  6
ByBlock
 62
     7
380
     1
100
AcDbPoint
 10
639.8878852083765
 20
554.5152993602235
 30
0.0
  0
POINT
  5
286
330
290
100
AcDbEntity
  8
DEFPOINTS
  6
ByBlock
 62
     7
380
     1
100
AcDbPoint
 10
643.8878852083765
 20
554.5152993602235
 30
0.0
  0
LINE
  5
287
330
290
100
AcDbEntity
  8
0
  6
ByBlock
 62
     7
370
    -2
380
     1
100
AcDbLine
 10
639.8878852083765
 20
555.1402993602235
 30
0.0
 11
639.8878852083765
 21
604.0883818812174
 31
0.0
  0
LINE
  5
288
330
290
100
AcDbEntity
  8
0
  6
ByBlock
 62
     7
370
    -2
380
     1
100
AcDbLine
 10
643.8878852083765
 20
555.1402993602235
 30
0.0
 11
643.8878852083765
 21
604.0883818812174
 31
0.0
  0
LINE
  5
289
330
290
100
AcDbEntity
  8
0
  6
ByBlock
 62
     7
370
    -2
380
     1
100
AcDbLine
 10
653.8878852083765
 20
602.8383818812174
 30
0.0
 11
663.8878852083765
 21
602.8383818812174
 31
0.0
  0
LINE
  5
28A
330
290
100
AcDbEntity
  8
0
  6
ByBlock
 62
     7
370
    -2
380
     1
100
AcDbLine
 10
629.8878852083765
 20
602.8383818812174
 30
0.0
 11
610.2212185417097
 21
602.8383818812174
 31
0.0
  0
SOLID
  5
28B
330
290
100
AcDbEntity
  8
0
  6
ByBlock
 62
     7
380
     1
100
AcDbTrace
 10
639.8878852083765
 20
602.8383818812174
 30
0.0
 11
629.8878852083765
 21
601.1717152145508
 31
0.0
 12
629.8878852083765
 22
604.505048547884
 32
0.0
 13
629.8878852083765
 23
604.505048547884
 33
0.0
  0
SOLID
  5
28C
330
290
100
AcDbEntity
  8
0
  6
ByBlock
 62
     7
380
     1
100
AcDbTrace
 10
643.8878852083765
 20
602.8383818812174
 30
0.0
 11
653.8878852083765
 21
601.1717152145508
 31
0.0
 12
653.8878852083765
 22
604.505048547884
 32
0.0
 13
653.8878852083765
 23
604.505048547884
 33
0.0
  0
LINE
  5
28D
330
290
100
AcDbEntity
  8
0
  6
ByBlock
 62
     7
370
    -2
380
     1
100
AcDbLine
 10
639.8878852083765
 20
602.8383818812174
 30
0.0
 11
643.8878852083765
 21
602.8383818812174
 31
0.0
  0
MTEXT
  5
28E
330
290
100
AcDbEntity
  8
0
  6
ByBlock
 62
     0
370
    -2
380
     1
100
AcDbMText
 10
619.8878852083765
 20
614.8383818812174
 30
0.0
 40
14.0
 41
0.0
 71
     5
 72
     1
  1
\A1;4
 73
     1
 44
1.0
  0
ENDBLK
  5
2B0
330
290
100
AcDbEntity
  8
0
100
AcDbBlockEnd
  0
ENDSEC
  0
SECTION
  2
ENTITIES
  0
POINT
  5
FB
330
1F
100
AcDbEntity
  8
0
 62
     7
370
    25
100
AcDbPoint
 10
450.3429332083765
 20
92.61528344635195
 30
0.0
  0
POINT
  5
FC
330
1F
100
AcDbEntity
  8
0
 62
     7
370
    25
100
AcDbPoint
 10
457.3429332083765
 20
90.12782644635195
 30
0.0
  0
POINT
  5
FD
330
1F
100
AcDbEntity
  8
0
 62
     7
370
    25
100
AcDbPoint
 10
457.3429332083765
 20
90.12782644635195
 30
0.0
  0
POINT
  5
FE
330
1F
100
AcDbEntity
  8
0
 62
     7
370
    25
100
AcDbPoint
 10
433.3429332083765
 20
89.51353744635193
 30
0.0
  0
POINT
  5
FF
330
1F
100
AcDbEntity
  8
0
 62
     7
370
    25
100
AcDbPoint
 10
446.3429332083765
 20
90.12782644635195
 30
0.0
  0
POINT
  5
100
330
1F
100
AcDbEntity
  8
0
 62
     7
370
    25
100
AcDbPoint
 10
446.3429332083765
 20
90.12782644635195
 30
0.0
  0
POINT
  5
101
330
1F
100
AcDbEntity
  8
0
 62
     7
370
    60
100
AcDbPoint
 10
404.7086522083765
 20
163.598697446352
 30
0.0
  0
LINE
  5
102
330
1F
100
AcDbEntity
  8
0
 62
     7
 48
0.273
370
    60
100
AcDbLine
 10
229.2086562083765
 20
116.2787054463519
 30
0.0
 11
240.1286542083765
 21
116.2787054463519
 31
0.0
  0
LINE
  5
103
330
1F
100
AcDbEntity
  8
0
 62
     7
 48
0.273
370
    60
100
AcDbLine
 10
229.2086562083765
 20
163.598697446352
 30
0.0
 11
240.1286542083765
 21
163.598697446352
 31
0.0
  0
ARC
  5
104
330
1F
100
AcDbEntity
  8
0
 62
     7
370
    60
100
AcDbCircle
 10
229.2086562083765
 20
139.9386934463519
 30
0.0
 40
23.65999999999997
100
AcDbArc
 50
90.00000300000006
 51
269.9999970000001
  0
LINE
  5
105
330
1F
100
AcDbEntity
  8
0
 62
     7
 48
0.494
370
    60
100
AcDbLine
 10
223.7486642083765
 20
130.058703446352
 30
0.0
 11
223.7486642083765
 21
149.818698446352
 31
0.0
  0
LINE
  5
106
330
1F
100
AcDbEntity
  8
0
 62
     7
 48
0.39
370
    60
100
AcDbLine
 10
227.9086532083765
 20
130.058703446352
 30
0.0
 11
227.9086532083765
 21
145.6586944463519
 31
0.0
  0
LINE
  5
107
330
1F
100
AcDbEntity
  8
0
 62
     7
370
    60
100
AcDbLine
 10
240.9086532083765
 20
117.058703446352
 30
0.0
 11
240.9086532083765
 21
145.6586944463519
 31
0.0
  0
LINE
  5
108
330
1F
100
AcDbEntity
  8
0
 62
     7
 48
0.065
370
    60
100
AcDbLine
 10
224.5286632083765
 20
129.2787054463519
 30
0.0
 11
227.1286542083765
 21
129.2787054463519
 31
0.0
  0
LINE
  5
109
330
1F
100
AcDbEntity
  8
0
 62
     7
 48
0.39
370
    60
100
AcDbLine
 10
224.5286632083765
 20
150.598697446352
 30
0.0
 11
240.1286542083765
 21
150.598697446352
 31
0.0
  0
LINE
  5
10A
330
1F
100
AcDbEntity
  8
0
 62
     7
 48
0.286
370
    60
100
AcDbLine
 10
228.6886512083765
 20
146.4386934463519
 30
0.0
 11
240.1286542083765
 21
146.4386934463519
 31
0.0
  0
ARC
  5
10B
330
1F
100
AcDbEntity
  8
0
 62
     7
370
    60
100
AcDbCircle
 10
240.1286542083765
 20
162.818698446352
 30
0.0
 40
0.7799999999999727
100
AcDbArc
 50
0.0
 51
90.000003
  0
ARC
  5
10C
330
1F
100
AcDbEntity
  8
0
 62
     7
370
    60
100
AcDbCircle
 10
240.1286542083765
 20
117.058703446352
 30
0.0
 40
0.7800000000000022
100
AcDbArc
 50
269.9999970000011
 51
0.0000000000011704
  0
ARC
  5
10D
330
1F
100
AcDbEntity
  8
0
 62
     7
370
    60
100
AcDbCircle
 10
224.5286632083765
 20
149.818698446352
 30
0.0
 40
0.7799999999999738
100
AcDbArc
 50
90.00000299999887
 51
180.0000089999989
  0
ARC
  5
10E
330
1F
100
AcDbEntity
  8
0
 62
     7
370
    60
100
AcDbCircle
 10
224.5286632083765
 20
130.058703446352
 30
0.0
 40
0.7799999999999824
100
AcDbArc
 50
180.0000090000008
 51
269.9999970000008
  0
ARC
  5
10F
330
1F
100
AcDbEntity
  8
0
 62
     7
370
    60
100
AcDbCircle
 10
227.1286542083765
 20
130.058703446352
 30
0.0
 40
0.7800000000000022
100
AcDbArc
 50
269.9999970000011
 51
0.0000000000011704
  0
ARC
  5
110
330
1F
100
AcDbEntity
  8
0
 62
     7
370
    60
100
AcDbCircle
 10
228.6886512083765
 20
145.6586944463519
 30
0.0
 40
0.7799999999999738
100
AcDbArc
 50
90.00000299999887
 51
180.0000089999989
  0
LINE
  5
111
330
1F
100
AcDbEntity
  8
0
 62
     7
 48
0.286
370
    60
100
AcDbLine
 10
240.9086532083765
 20
151.3786954463519
 30
0.0
 11
240.9086532083765
 21
162.818698446352
 31
0.0
  0
ARC
  5
112
330
1F
100
AcDbEntity
  8
0
 62
     7
370
    60
100
AcDbCircle
 10
240.1286542083765
 20
151.3786954463519
 30
0.0
 40
0.7799999999999738
100
AcDbArc
 50
269.9999970000011
 51
0.0000000000011704
  0
ARC
  5
113
330
1F
100
AcDbEntity
  8
0
 62
     7
370
    60
100
AcDbCircle
 10
240.1286542083765
 20
145.6586944463519
 30
0.0
 40
0.7799999999999727
100
AcDbArc
 50
0.0
 51
90.000003
  0
LINE
  5
114
330
1F
100
AcDbEntity
  8
0
 62
     7
370
    60
100
AcDbLine
 10
245.0686562083765
 20
117.058703446352
 30
0.0
 11
245.0686562083765
 21
162.818698446352
 31
0.0
  0
LINE
  5
115
330
1F
100
AcDbEntity
  8
0
 62
     7
 48
0.286
370
    60
100
AcDbLine
 10
264.5686562083765
 20
151.3786954463519
 30
0.0
 11
264.5686562083765
 21
162.818698446352
 31
0.0
  0
LINE
  5
116
330
1F
100
AcDbEntity
  8
0
 62
     7
 48
0.286
370
    60
100
AcDbLine
 10
281.7286602083765
 20
117.058703446352
 30
0.0
 11
281.7286602083765
 21
128.4987064463519
 31
0.0
  0
LINE
  5
117
330
1F
100
AcDbEntity
  8
0
 62
     7
 48
0.065
370
    60
100
AcDbLine
 10
258.0686562083765
 20
130.058703446352
 30
0.0
 11
258.0686562083765
 21
132.6586944463519
 31
0.0
  0
LINE
  5
118
330
1F
100
AcDbEntity
  8
0
 62
     7
370
    60
100
AcDbLine
 10
245.8486552083765
 20
116.2787054463519
 30
0.0
 11
280.9486612083765
 21
116.2787054463519
 31
0.0
  0
LINE
  5
119
330
1F
100
AcDbEntity
  8
0
 62
     7
 48
0.4485
370
    60
100
AcDbLine
 10
245.8486552083765
 20
163.598697446352
 30
0.0
 11
263.7886572083765
 21
163.598697446352
 31
0.0
  0
LINE
  5
11A
330
1F
100
AcDbEntity
  8
0
 62
     7
 48
0.1235
370
    60
100
AcDbLine
 10
258.8486552083765
 20
150.598697446352
 30
0.0
 11
263.7886572083765
 21
150.598697446352
 31
0.0
  0
LINE
  5
11B
330
1F
100
AcDbEntity
  8
0
 62
     7
370
    60
100
AcDbLine
 10
258.8486552083765
 20
146.4386934463519
 30
0.0
 11
280.9486612083765
 21
146.4386934463519
 31
0.0
  0
LINE
  5
11C
330
1F
100
AcDbEntity
  8
0
 62
     7
370
    60
100
AcDbLine
 10
258.8486552083765
 20
133.4387084463519
 30
0.0
 11
280.9486612083765
 21
133.4387084463519
 31
0.0
  0
LINE
  5
11D
330
1F
100
AcDbEntity
  8
0
 62
     7
370
    60
100
AcDbLine
 10
258.8486552083765
 20
129.2787054463519
 30
0.0
 11
280.9486612083765
 21
129.2787054463519
 31
0.0
  0
ARC
  5
11E
330
1F
100
AcDbEntity
  8
0
 62
     7
370
    60
100
AcDbCircle
 10
245.8486552083765
 20
162.818698446352
 30
0.0
 40
0.7799999999999738
100
AcDbArc
 50
90.00000299999887
 51
180.0000089999989
  0
ARC
  5
11F
330
1F
100
AcDbEntity
  8
0
 62
     7
370
    60
100
AcDbCircle
 10
245.8486552083765
 20
117.058703446352
 30
0.0
 40
0.7799999999999824
100
AcDbArc
 50
180.0000090000008
 51
269.9999970000008
  0
ARC
  5
120
330
1F
100
AcDbEntity
  8
0
 62
     7
370
    60
100
AcDbCircle
 10
280.9486612083765
 20
117.058703446352
 30
0.0
 40
0.7800000000000022
100
AcDbArc
 50
269.9999970000011
 51
0.0000000000011704
  0
ARC
  5
121
330
1F
100
AcDbEntity
  8
0
 62
     7
370
    60
100
AcDbCircle
 10
263.7886572083765
 20
162.818698446352
 30
0.0
 40
0.7799999999999727
100
AcDbArc
 50
0.0
 51
90.000003
  0
ARC
  5
122
330
1F
100
AcDbEntity
  8
0
 62
     7
370
    60
100
AcDbCircle
 10
263.7886572083765
 20
151.3786954463519
 30
0.0
 40
0.7799999999999738
100
AcDbArc
 50
269.9999970000011
 51
0.0000000000011704
  0
ARC
  5
123
330
1F
100
AcDbEntity
  8
0
 62
     7
370
    60
100
AcDbCircle
 10
258.8486552083765
 20
149.818698446352
 30
0.0
 40
0.7799999999999738
100
AcDbArc
 50
90.00000299999887
 51
180.0000089999989
  0
LINE
  5
124
330
1F
100
AcDbEntity
  8
0
 62
     7
 48
0.286
370
    60
100
AcDbLine
 10
281.7286602083765
 20
134.2187074463519
 30
0.0
 11
281.7286602083765
 21
145.6586944463519
 31
0.0
  0
ARC
  5
125
330
1F
100
AcDbEntity
  8
0
 62
     7
370
    60
100
AcDbCircle
 10
280.9486612083765
 20
145.6586944463519
 30
0.0
 40
0.7799999999999727
100
AcDbArc
 50
0.0
 51
90.000003
  0
ARC
  5
126
330
1F
100
AcDbEntity
  8
0
 62
     7
370
    60
100
AcDbCircle
 10
280.9486612083765
 20
134.2187074463519
 30
0.0
 40
0.7800000000000022
100
AcDbArc
 50
269.9999970000011
 51
0.0000000000011704
  0
ARC
  5
127
330
1F
100
AcDbEntity
  8
0
 62
     7
370
    60
100
AcDbCircle
 10
258.8486552083765
 20
132.6586944463519
 30
0.0
 40
0.7800000000000022
100
AcDbArc
 50
90.00000299999887
 51
180.0000089999989
  0
ARC
  5
128
330
1F
100
AcDbEntity
  8
0
 62
     7
370
    60
100
AcDbCircle
 10
258.8486552083765
 20
147.2187074463519
 30
0.0
 40
0.7799999999999824
100
AcDbArc
 50
180.0000090000008
 51
269.9999970000008
  0
LINE
  5
129
330
1F
100
AcDbEntity
  8
0
 62
     7
 48
0.286
370
    60
100
AcDbLine
 10
268.7286602083765
 20
151.3786954463519
 30
0.0
 11
268.7286602083765
 21
162.818698446352
 31
0.0
  0
LINE
  5
12A
330
1F
100
AcDbEntity
  8
0
 62
     7
 48
0.332299
370
    60
100
AcDbLine
 10
269.5086592083765
 20
150.598697446352
 30
0.0
 11
282.8006202083765
 21
150.598697446352
 31
0.0
  0
LINE
  5
12B
330
1F
100
AcDbEntity
  8
0
 62
     7
370
    60
100
AcDbLine
 10
269.5086592083765
 20
163.598697446352
 30
0.0
 11
293.0699682083765
 21
163.598697446352
 31
0.0
  0
ARC
  5
12C
330
1F
100
AcDbEntity
  8
0
 62
     7
370
    60
100
AcDbCircle
 10
269.5086592083765
 20
162.818698446352
 30
0.0
 40
0.7799999999999738
100
AcDbArc
 50
90.00000299999469
 51
180.0000089999947
  0
ARC
  5
12D
330
1F
100
AcDbEntity
  8
0
 62
     7
370
    60
100
AcDbCircle
 10
269.5086592083765
 20
151.3786954463519
 30
0.0
 40
0.7799999999999824
100
AcDbArc
 50
180.0000090000008
 51
269.9999970000008
  0
LINE
  5
12E
330
1F
100
AcDbEntity
  8
0
 62
     7
 48
0.293563
370
    60
100
AcDbLine
 10
292.0967022083765
 20
116.2787054463519
 30
0.0
 11
303.8392102083765
 21
116.2787054463519
 31
0.0
  0
LINE
  5
12F
330
1F
100
AcDbEntity
  8
0
 62
     7
370
    60
100
AcDbLine
 10
283.5599592083765
 20
149.997027446352
 30
0.0
 11
291.3373482083765
 21
116.880374446352
 31
0.0
  0
LINE
  5
130
330
1F
100
AcDbEntity
  8
0
 62
     7
 48
0.481168
370
    60
100
AcDbLine
 10
304.6040572083765
 20
116.9057344463519
 30
0.0
 11
308.3786542083765
 21
135.7787054463519
 31
0.0
  0
ARC
  5
131
330
1F
100
AcDbEntity
  8
0
 62
     7
370
    60
100
AcDbCircle
 10
303.8392102083765
 20
117.058703446352
 30
0.0
 40
0.7800000000000022
100
AcDbArc
 50
269.9999970000053
 51
348.6900640000053
  0
LINE
  5
132
330
1F
100
AcDbEntity
  8
0
 62
     7
 48
0.498526
370
    60
100
AcDbLine
 10
293.8294902083765
 20
162.996249446352
 30
0.0
 11
298.3686592083765
 21
143.578708446352
 31
0.0
  0
LINE
  5
133
330
1F
100
AcDbEntity
  8
0
 62
     7
 48
0.490462
370
    60
100
AcDbLine
 10
298.3686592083765
 20
143.578708446352
 30
0.0
 11
301.5123212083765
 21
162.9436834463519
 31
0.0
  0
ARC
  5
134
330
1F
100
AcDbEntity
  8
0
 62
     7
370
    60
100
AcDbCircle
 10
293.0699682083765
 20
162.818698446352
 30
0.0
 40
0.7799999999999165
100
AcDbArc
 50
13.15754200000033
 51
90.00000300000035
  0
LINE
  5
135
330
1F
100
AcDbEntity
  8
0
 62
     7
 48
0.15241
370
    60
100
AcDbLine
 10
302.2822492083765
 20
163.598697446352
 30
0.0
 11
308.3786542083765
 21
163.598697446352
 31
0.0
  0
LINE
  5
136
330
1F
100
AcDbEntity
  8
0
 62
     7
 48
0.498526
370
    60
100
AcDbLine
 10
318.3886482083765
 20
143.578708446352
 30
0.0
 11
322.9278182083765
 21
162.996249446352
 31
0.0
  0
LINE
  5
137
330
1F
100
AcDbEntity
  8
0
 62
     7
370
    60
100
AcDbLine
 10
323.6873392083764
 20
163.598697446352
 30
0.0
 11
347.2486572083765
 21
163.598697446352
 31
0.0
  0
ARC
  5
138
330
1F
100
AcDbEntity
  8
0
 62
     7
370
    60
100
AcDbCircle
 10
323.6873392083764
 20
162.818698446352
 30
0.0
 40
0.7799999999999738
100
AcDbArc
 50
90.00000299999469
 51
166.8424519999948
  0
ARC
  5
139
330
1F
100
AcDbEntity
  8
0
 62
     7
370
    60
100
AcDbCircle
 10
347.2486572083765
 20
162.818698446352
 30
0.0
 40
0.7799999999999727
100
AcDbArc
 50
0.0
 51
90.000003
  0
LINE
  5
13A
330
1F
100
AcDbEntity
  8
0
 62
     7
 48
0.286
370
    60
100
AcDbLine
 10
348.0286552083764
 20
151.3786954463519
 30
0.0
 11
348.0286552083764
 21
162.818698446352
 31
0.0
  0
ARC
  5
13B
330
1F
100
AcDbEntity
  8
0
 62
     7
370
    60
100
AcDbCircle
 10
347.2486572083765
 20
151.3786954463519
 30
0.0
 40
0.7799999999999738
100
AcDbArc
 50
269.9999970000053
 51
0.0000000000053433
  0
LINE
  5
13C
330
1F
100
AcDbEntity
  8
0
 62
     7
 48
0.332299
370
    60
100
AcDbLine
 10
333.9566872083765
 20
150.598697446352
 30
0.0
 11
347.2486572083765
 21
150.598697446352
 31
0.0
  0
ARC
  5
13D
330
1F
100
AcDbEntity
  8
0
 62
     7
370
    60
100
AcDbCircle
 10
333.9566872083765
 20
149.818698446352
 30
0.0
 40
0.7799999999999738
100
AcDbArc
 50
90.00000299999469
 51
166.7836709999947
  0
LINE
  5
13E
330
1F
100
AcDbEntity
  8
0
 62
     7
370
    60
100
AcDbLine
 10
325.4199592083764
 20
116.880374446352
 30
0.0
 11
333.1973492083765
 21
149.997027446352
 31
0.0
  0
ARC
  5
13F
330
1F
100
AcDbEntity
  8
0
 62
     7
370
    60
100
AcDbCircle
 10
324.6606212083765
 20
117.058703446352
 30
0.0
 40
0.7800000000000022
100
AcDbArc
 50
269.9999970000053
 51
346.7836750000055
  0
LINE
  5
140
330
1F
100
AcDbEntity
  8
0
 62
     7
 48
0.293563
370
    60
100
AcDbLine
 10
312.9180982083765
 20
116.2787054463519
 30
0.0
 11
324.6606212083765
 21
116.2787054463519
 31
0.0
  0
ARC
  5
141
330
1F
100
AcDbEntity
  8
0
 62
     7
370
    60
100
AcDbCircle
 10
312.9180982083765
 20
117.058703446352
 30
0.0
 40
0.7800000000000216
100
AcDbArc
 50
191.3099409999996
 51
269.9999969999996
  0
LINE
  5
142
330
1F
100
AcDbEntity
  8
0
 62
     7
 48
0.481168
370
    60
100
AcDbLine
 10
308.3786542083765
 20
135.7787054463519
 30
0.0
 11
312.1532512083764
 21
116.9057344463519
 31
0.0
  0
LINE
  5
143
330
1F
100
AcDbEntity
  8
0
 62
     7
370
    60
100
AcDbLine
 10
348.0286552083764
 20
117.058703446352
 30
0.0
 11
348.0286552083764
 21
145.6586944463519
 31
0.0
  0
LINE
  5
144
330
1F
100
AcDbEntity
  8
0
 62
     7
 48
0.286
370
    60
100
AcDbLine
 10
335.8086622083765
 20
146.4386934463519
 30
0.0
 11
347.2486572083765
 21
146.4386934463519
 31
0.0
  0
LINE
  5
145
330
1F
100
AcDbEntity
  8
0
 62
     7
370
    60
100
AcDbLine
 10
335.0286482083765
 20
117.058703446352
 30
0.0
 11
335.0286482083765
 21
145.6586944463519
 31
0.0
  0
LINE
  5
146
330
1F
100
AcDbEntity
  8
0
 62
     7
 48
0.286
370
    60
100
AcDbLine
 10
335.8086622083765
 20
116.2787054463519
 30
0.0
 11
347.2486572083765
 21
116.2787054463519
 31
0.0
  0
ARC
  5
147
330
1F
100
AcDbEntity
  8
0
 62
     7
370
    60
100
AcDbCircle
 10
335.8086622083765
 20
145.6586944463519
 30
0.0
 40
0.7799999999999738
100
AcDbArc
 50
90.00000300000303
 51
180.0000090000031
  0
ARC
  5
148
330
1F
100
AcDbEntity
  8
0
 62
     7
370
    60
100
AcDbCircle
 10
335.8086622083765
 20
117.058703446352
 30
0.0
 40
0.7799999999999824
100
AcDbArc
 50
180.0000090000008
 51
269.9999970000008
  0
ARC
  5
149
330
1F
100
AcDbEntity
  8
0
 62
     7
370
    60
100
AcDbCircle
 10
347.2486572083765
 20
117.058703446352
 30
0.0
 40
0.7800000000000022
100
AcDbArc
 50
269.9999970000053
 51
0.0000000000053433
  0
ARC
  5
14A
330
1F
100
AcDbEntity
  8
0
 62
     7
370
    60
100
AcDbCircle
 10
347.2486572083765
 20
145.6586944463519
 30
0.0
 40
0.7799999999999727
100
AcDbArc
 50
0.0
 51
90.000003
  0
LINE
  5
14B
330
1F
100
AcDbEntity
  8
0
 62
     7
 48
0.286
370
    60
100
AcDbLine
 10
352.1886512083765
 20
117.058703446352
 30
0.0
 11
352.1886512083765
 21
128.4987064463519
 31
0.0
  0
LINE
  5
14C
330
1F
100
AcDbEntity
  8
0
 62
     7
 48
0.286
370
    60
100
AcDbLine
 10
388.8486552083765
 20
151.3786954463519
 30
0.0
 11
388.8486552083765
 21
162.818698446352
 31
0.0
  0
LINE
  5
14D
330
1F
100
AcDbEntity
  8
0
 62
     7
370
    60
100
AcDbLine
 10
352.9686582083765
 20
163.598697446352
 30
0.0
 11
388.0686562083765
 21
163.598697446352
 31
0.0
  0
LINE
  5
14E
330
1F
100
AcDbEntity
  8
0
 62
     7
370
    60
100
AcDbLine
 10
352.9686582083765
 20
116.2787054463519
 30
0.0
 11
388.0686562083765
 21
116.2787054463519
 31
0.0
  0
LINE
  5
14F
330
1F
100
AcDbEntity
  8
0
 62
     7
 48
0.065
370
    60
100
AcDbLine
 10
365.1886512083765
 20
147.2187074463519
 30
0.0
 11
365.1886512083765
 21
149.818698446352
 31
0.0
  0
LINE
  5
150
330
1F
100
AcDbEntity
  8
0
 62
     7
370
    60
100
AcDbLine
 10
365.9686502083765
 20
150.598697446352
 30
0.0
 11
388.0686562083765
 21
150.598697446352
 31
0.0
  0
LINE
  5
151
330
1F
100
AcDbEntity
  8
0
 62
     7
370
    60
100
AcDbLine
 10
352.9686582083765
 20
133.4387084463519
 30
0.0
 11
375.0686562083765
 21
133.4387084463519
 31
0.0
  0
ARC
  5
152
330
1F
100
AcDbEntity
  8
0
 62
     7
370
    60
100
AcDbCircle
 10
352.9686582083765
 20
162.818698446352
 30
0.0
 40
0.7799999999999738
100
AcDbArc
 50
90.00000299999469
 51
180.0000089999947
  0
ARC
  5
153
330
1F
100
AcDbEntity
  8
0
 62
     7
370
    60
100
AcDbCircle
 10
388.0686562083765
 20
162.818698446352
 30
0.0
 40
0.7799999999999727
100
AcDbArc
 50
0.0
 51
90.000003
  0
LINE
  5
154
330
1F
100
AcDbEntity
  8
0
 62
     7
 48
0.1
370
    60
100
AcDbLine
 10
639.8878852083765
 20
557.5986974463519
 30
0.0
 11
643.8878852083765
 21
557.5986974463519
 31
0.0
  0
LINE
  5
155
330
1F
100
AcDbEntity
  8
0
 62
     7
370
    60
100
AcDbLine
 10
639.8878852083765
 20
54.59871244635193
 30
0.0
 11
639.8878852083765
 21
557.5986974463519
 31
0.0
  0
LINE
  5
156
330
1F
100
AcDbEntity
  8
0
 62
     7
370
    60
100
AcDbLine
 10
643.8878852083765
 20
54.59871244635193
 30
0.0
 11
643.8878852083765
 21
557.5986974463519
 31
0.0
  0
LINE
  5
157
330
1F
100
AcDbEntity
  8
0
 62
     7
 48
0.1
370
    60
100
AcDbLine
 10
639.8878852083765
 20
54.59871244635193
 30
0.0
 11
643.8878852083765
 21
54.59871244635193
 31
0.0
  0
CIRCLE
  5
158
330
1F
100
AcDbEntity
  8
0
 62
     7
370
    60
100
AcDbCircle
 10
450.9586562083765
 20
63.59871244635193
 30
0.0
 40
3.75
  0
CIRCLE
  5
159
330
1F
100
AcDbEntity
  8
0
 62
     7
370
    60
100
AcDbCircle
 10
364.9586562083765
 20
63.59871244635193
 30
0.0
 40
3.75
  0
CIRCLE
  5
15A
330
1F
100
AcDbEntity
  8
0
 62
     7
370
    60
100
AcDbCircle
 10
268.9586562083765
 20
63.59871244635193
 30
0.0
 40
3.75
  0
CIRCLE
  5
15B
330
1F
100
AcDbEntity
  8
0
 62
     7
370
    60
100
AcDbCircle
 10
182.9586562083765
 20
63.59871244635193
 30
0.0
 40
3.75
  0
LINE
  5
15C
330
1F
100
AcDbEntity
  8
0
 62
     7
370
    60
100
AcDbLine
 10
139.9586562083765
 20
538.5986974463519
 30
0.0
 11
493.9586562083765
 21
538.5986974463519
 31
0.0
  0
LINE
  5
15D
330
1F
100
AcDbEntity
  8
0
 62
     7
370
    60
100
AcDbLine
 10
139.9586562083765
 20
198.598697446352
 30
0.0
 11
493.9586562083765
 21
198.598697446352
 31
0.0
  0
LINE
  5
15E
330
1F
100
AcDbEntity
  8
0
 62
     7
370
    60
100
AcDbLine
 10
512.4586562083765
 20
54.59871244635193
 30
0.0
 11
512.4586562083765
 21
557.5986974463519
 31
0.0
  0
LINE
  5
15F
330
1F
100
AcDbEntity
  8
0
 62
     7
370
    60
100
AcDbLine
 10
316.9586562083765
 20
54.59871244635193
 30
0.0
 11
512.4586562083765
 21
54.59871244635193
 31
0.0
  0
LINE
  5
160
330
1F
100
AcDbEntity
  8
0
 62
     7
370
    60
100
AcDbLine
 10
121.4586562083765
 20
54.59871244635193
 30
0.0
 11
316.9586562083765
 21
54.59871244635193
 31
0.0
  0
LINE
  5
161
330
1F
100
AcDbEntity
  8
0
 62
     7
 48
0.125
370
    25
100
AcDbLine
 10
490.3429332083765
 20
90.12782644635195
 30
0.0
 11
495.3429332083765
 21
90.12782644635195
 31
0.0
  0
LINE
  5
162
330
1F
100
AcDbEntity
  8
0
 62
     7
 48
0.075
370
    25
100
AcDbLine
 10
494.3429332083765
 20
91.12782644635195
 30
0.0
 11
494.3429332083765
 21
94.12782644635195
 31
0.0
  0
LINE
  5
163
330
1F
100
AcDbEntity
  8
0
 62
     7
 48
0.075
370
    25
100
AcDbLine
 10
491.3429332083765
 20
94.12782644635195
 30
0.0
 11
494.3429332083765
 21
94.12782644635195
 31
0.0
  0
LINE
  5
164
330
1F
100
AcDbEntity
  8
0
 62
     7
 48
0.125
370
    25
100
AcDbLine
 10
495.3429332083765
 20
90.12782644635195
 30
0.0
 11
495.3429332083765
 21
95.12782644635195
 31
0.0
  0
LINE
  5
165
330
1F
100
AcDbEntity
  8
0
 62
     7
 48
0.125
370
    25
100
AcDbLine
 10
490.3429332083765
 20
90.12782644635195
 30
0.0
 11
490.3429332083765
 21
95.12782644635195
 31
0.0
  0
LINE
  5
166
330
1F
100
AcDbEntity
  8
0
 62
     7
 48
0.125
370
    25
100
AcDbLine
 10
490.3429332083765
 20
95.12782644635195
 30
0.0
 11
495.3429332083765
 21
95.12782644635195
 31
0.0
  0
LINE
  5
167
330
1F
100
AcDbEntity
  8
0
 62
     7
 48
0.075
370
    25
100
AcDbLine
 10
491.3429332083765
 20
91.12782644635195
 30
0.0
 11
494.3429332083765
 21
91.12782644635195
 31
0.0
  0
LINE
  5
168
330
1F
100
AcDbEntity
  8
0
 62
     7
 48
0.075
370
    25
100
AcDbLine
 10
491.3429332083765
 20
91.12782644635195
 30
0.0
 11
491.3429332083765
 21
94.12782644635195
 31
0.0
  0
LINE
  5
169
330
1F
100
AcDbEntity
  8
0
 62
     7
 48
0.010634
370
    25
100
AcDbLine
 10
451.4806262083766
 20
90.11528344635192
 30
0.0
 11
451.9060002083764
 21
90.11528344635192
 31
0.0
  0
LINE
  5
16A
330
1F
100
AcDbEntity
  8
0
 62
     7
 48
0.016389
370
    25
100
AcDbLine
 10
451.6507762083764
 20
95.11528344635195
 30
0.0
 11
452.3063532083765
 21
95.11528344635195
 31
0.0
  0
LINE
  5
16B
330
1F
100
AcDbEntity
  8
0
 62
     7
 48
0.018886
370
    25
100
AcDbLine
 10
457.3429332083765
 20
94.34733944635195
 30
0.0
 11
457.3429332083765
 21
95.10277144635195
 31
0.0
  0
ARC
  5
16C
330
1F
100
AcDbEntity
  8
0
 62
     7
370
    25
100
AcDbCircle
 10
452.8429332083765
 20
92.61528344635195
 30
0.0
 40
2.500000000000017
100
AcDbArc
 50
84.2608269999991
 51
275.7391869999991
  0
ARC
  5
16D
330
1F
100
AcDbEntity
  8
0
 62
     7
370
    25
100
AcDbCircle
 10
452.8429332083765
 20
92.61528344635195
 30
0.0
 40
1.750000000000009
100
AcDbArc
 50
81.78678899999834
 51
278.2132179999983
  0
LINE
  5
16E
330
1F
100
AcDbEntity
  8
0
 62
     7
 48
0.018886
370
    25
100
AcDbLine
 10
453.0929332083765
 20
94.34733944635195
 30
0.0
 11
453.0929332083765
 21
95.10277144635195
 31
0.0
  0
LINE
  5
16F
330
1F
100
AcDbEntity
  8
0
 62
     7
 48
0.018886
370
    25
100
AcDbLine
 10
453.0929332083765
 20
90.12782644635195
 30
0.0
 11
453.0929332083765
 21
90.88325844635193
 31
0.0
  0
ARC
  5
170
330
1F
100
AcDbEntity
  8
0
 62
     7
370
    25
100
AcDbCircle
 10
457.0929332083765
 20
92.61528344635195
 30
0.0
 40
2.500000000000017
100
AcDbArc
 50
84.2608269999991
 51
275.7391869999991
  0
LINE
  5
171
330
1F
100
AcDbEntity
  8
0
 62
     7
 48
0.018886
370
    25
100
AcDbLine
 10
457.3429332083765
 20
90.12782644635195
 30
0.0
 11
457.3429332083765
 21
90.88325844635193
 31
0.0
  0
ARC
  5
172
330
1F
100
AcDbEntity
  8
0
 62
     7
370
    25
100
AcDbCircle
 10
457.0929332083765
 20
92.61528344635195
 30
0.0
 40
1.750000000000001
100
AcDbArc
 50
192.3736340000001
 51
278.213218
  0
ARC
  5
173
330
1F
100
AcDbEntity
  8
0
 62
     7
370
    25
100
AcDbCircle
 10
457.0929332083765
 20
92.61528344635195
 30
0.0
 40
1.750000000000009
100
AcDbArc
 50
81.78678899999834
 51
167.6263799999984
  0
LINE
  5
174
330
1F
100
AcDbEntity
  8
0
 62
     7
 48
0.036484
370
    25
100
AcDbLine
 10
455.3835832083766
 20
92.99028344635195
 30
0.0
 11
456.8429332083765
 21
92.99028344635195
 31
0.0
  0
LINE
  5
175
330
1F
100
AcDbEntity
  8
0
 62
     7
 48
0.01875
370
    25
100
AcDbLine
 10
456.8429332083765
 20
92.24028344635192
 30
0.0
 11
456.8429332083765
 21
92.99028344635195
 31
0.0
  0
LINE
  5
176
330
1F
100
AcDbEntity
  8
0
 62
     7
370
    60
100
AcDbLine
 10
121.4586562083765
 20
54.59871244635193
 30
0.0
 11
121.4586562083765
 21
557.5986974463519
 31
0.0
  0
LINE
  5
177
330
1F
100
AcDbEntity
  8
0
 62
     7
370
    60
100
AcDbLine
 10
139.9586562083765
 20
198.598697446352
 30
0.0
 11
139.9586562083765
 21
538.5986974463519
 31
0.0
  0
LINE
  5
178
330
1F
100
AcDbEntity
  8
0
 62
     7
370
    60
100
AcDbLine
 10
493.9586562083765
 20
198.598697446352
 30
0.0
 11
493.9586562083765
 21
538.5986974463519
 31
0.0
  0
LINE
  5
179
330
1F
100
AcDbEntity
  8
0
 62
     7
370
    60
100
AcDbLine
 10
316.9586562083765
 20
557.5986974463519
 30
0.0
 11
512.4586562083765
 21
557.5986974463519
 31
0.0
  0
LINE
  5
17A
330
1F
100
AcDbEntity
  8
0
 62
     7
370
    60
100
AcDbLine
 10
121.4586562083765
 20
557.5986974463519
 30
0.0
 11
316.9586562083765
 21
557.5986974463519
 31
0.0
  0
LINE
  5
17B
330
1F
100
AcDbEntity
  8
0
 62
     7
 48
0.036484
370
    25
100
AcDbLine
 10
455.3835832083766
 20
92.24028344635192
 30
0.0
 11
456.8429332083765
 21
92.24028344635192
 31
0.0
  0
LINE
  5
17C
330
1F
100
AcDbEntity
  8
0
 62
     7
 48
0.25
370
    25
100
AcDbLine
 10
436.3429332083765
 20
90.12782644635195
 30
0.0
 11
446.3429332083765
 21
90.12782644635195
 31
0.0
  0
LINE
  5
17D
330
1F
100
AcDbEntity
  8
0
 62
     7
 48
0.125
370
    25
100
AcDbLine
 10
436.3429332083765
 20
90.12782644635195
 30
0.0
 11
436.3429332083765
 21
95.12782644635195
 31
0.0
  0
LINE
  5
17E
330
1F
100
AcDbEntity
  8
0
 62
     7
 48
0.125
370
    25
100
AcDbLine
 10
446.3429332083765
 20
90.12782644635195
 30
0.0
 11
446.3429332083765
 21
95.12782644635195
 31
0.0
  0
LINE
  5
17F
330
1F
100
AcDbEntity
  8
0
 62
     7
 48
0.25
370
    25
100
AcDbLine
 10
436.3429332083765
 20
95.12782644635195
 30
0.0
 11
446.3429332083765
 21
95.12782644635195
 31
0.0
  0
LINE
  5
180
330
1F
100
AcDbEntity
  8
0
 62
     7
 48
0.160031
370
    25
100
AcDbLine
 10
425.3429332083765
 20
89.12782644635195
 30
0.0
 11
431.7441822083765
 21
89.12782644635195
 31
0.0
  0
LINE
  5
181
330
1F
100
AcDbEntity
  8
0
 62
     7
 48
0.0375
370
    25
100
AcDbLine
 10
431.7441822083765
 20
90.12782644635195
 30
0.0
 11
433.2441822083765
 21
90.12782644635195
 31
0.0
  0
LINE
  5
182
330
1F
100
AcDbEntity
  8
0
 62
     7
 48
0.0375
370
    25
100
AcDbLine
 10
431.7441822083765
 20
95.12782644635195
 30
0.0
 11
433.2441822083765
 21
95.12782644635195
 31
0.0
  0
LINE
  5
183
330
1F
100
AcDbEntity
  8
0
 62
     7
 48
0.0375
370
    25
100
AcDbLine
 10
423.8429332083765
 20
90.12782644635195
 30
0.0
 11
425.3429332083765
 21
90.12782644635195
 31
0.0
  0
LINE
  5
184
330
1F
100
AcDbEntity
  8
0
 62
     7
 48
0.0375
370
    25
100
AcDbLine
 10
423.8429332083765
 20
95.12782644635195
 30
0.0
 11
425.3429332083765
 21
95.12782644635195
 31
0.0
  0
LINE
  5
185
330
1F
100
AcDbEntity
  8
0
 62
     7
 48
0.160031
370
    25
100
AcDbLine
 10
425.3429332083765
 20
96.12782644635195
 30
0.0
 11
431.7441822083765
 21
96.12782644635195
 31
0.0
  0
LINE
  5
186
330
1F
100
AcDbEntity
  8
0
 62
     7
 48
0.125
370
    25
100
AcDbLine
 10
433.2441822083765
 20
90.12782644635195
 30
0.0
 11
433.2441822083765
 21
95.12782644635195
 31
0.0
  0
LINE
  5
187
330
1F
100
AcDbEntity
  8
0
 62
     7
 48
0.125
370
    25
100
AcDbLine
 10
423.8429332083765
 20
90.12782644635195
 30
0.0
 11
423.8429332083765
 21
95.12782644635195
 31
0.0
  0
LINE
  5
188
330
1F
100
AcDbEntity
  8
0
 62
     7
 48
0.022325
370
    25
100
AcDbLine
 10
425.3429332083765
 20
95.12782644635195
 30
0.0
 11
426.0389742083765
 21
94.56840844635195
 31
0.0
  0
LINE
  5
189
330
1F
100
AcDbEntity
  8
0
 62
     7
 48
0.018979
370
    25
100
AcDbLine
 10
426.0389742083765
 20
94.56840844635195
 30
0.0
 11
426.6962352083765
 21
94.18846444635194
 31
0.0
  0
LINE
  5
18A
330
1F
100
AcDbEntity
  8
0
 62
     7
 48
0.010689
370
    25
100
AcDbLine
 10
426.6544452083765
 20
93.76295844635194
 30
0.0
 11
426.6962352083765
 21
94.18846444635194
 31
0.0
  0
LINE
  5
18B
330
1F
100
AcDbEntity
  8
0
 62
     7
 48
0.019027
370
    25
100
AcDbLine
 10
426.6544452083765
 20
93.76295844635194
 30
0.0
 11
427.3117062083764
 21
93.37926044635195
 31
0.0
  0
LINE
  5
18C
330
1F
100
AcDbEntity
  8
0
 62
     7
 48
0.024633
370
    25
100
AcDbLine
 10
427.3117062083764
 20
93.37926044635195
 30
0.0
 11
427.9490692083765
 21
92.62782644635195
 31
0.0
  0
LINE
  5
18D
330
1F
100
AcDbEntity
  8
0
 62
     7
 48
0.026452
370
    25
100
AcDbLine
 10
425.3429332083765
 20
96.12782644635195
 30
0.0
 11
425.8832052083765
 21
95.21806644635195
 31
0.0
  0
LINE
  5
18E
330
1F
100
AcDbEntity
  8
0
 62
     7
 48
0.020784
370
    25
100
AcDbLine
 10
425.8832052083765
 20
95.21806644635195
 30
0.0
 11
426.6392472083764
 21
94.87233344635194
 31
0.0
  0
LINE
  5
18F
330
1F
100
AcDbEntity
  8
0
 62
     7
 48
0.015371
370
    25
100
AcDbLine
 10
426.6392472083764
 20
94.87233344635194
 30
0.0
 11
427.0343622083765
 21
94.40123344635195
 31
0.0
  0
LINE
  5
190
330
1F
100
AcDbEntity
  8
0
 62
     7
 48
0.013289
370
    25
100
AcDbLine
 10
427.0343622083765
 20
94.40123344635195
 30
0.0
 11
427.0951492083765
 21
93.87315644635196
 31
0.0
  0
LINE
  5
191
330
1F
100
AcDbEntity
  8
0
 62
     7
 48
0.022941
370
    25
100
AcDbLine
 10
427.0951492083765
 20
93.87315644635196
 30
0.0
 11
427.9233772083765
 21
93.47801544635195
 31
0.0
  0
LINE
  5
192
330
1F
100
AcDbEntity
  8
0
 62
     7
 48
0.026309
370
    25
100
AcDbLine
 10
427.9233772083765
 20
93.47801544635195
 30
0.0
 11
428.5435552083765
 21
92.62782644635195
 31
0.0
  0
LINE
  5
193
330
1F
100
AcDbEntity
  8
0
 62
     7
 48
0.022325
370
    25
100
AcDbLine
 10
425.3429332083765
 20
90.12782644635195
 30
0.0
 11
426.0389742083765
 21
90.68724344635194
 31
0.0
  0
LINE
  5
194
330
1F
100
AcDbEntity
  8
0
 62
     7
 48
0.018979
370
    25
100
AcDbLine
 10
426.0389742083765
 20
90.68724344635194
 30
0.0
 11
426.6962352083765
 21
91.06718744635194
 31
0.0
  0
LINE
  5
195
330
1F
100
AcDbEntity
  8
0
 62
     7
 48
0.010689
370
    25
100
AcDbLine
 10
426.6544452083765
 20
91.49269444635195
 30
0.0
 11
426.6962352083765
 21
91.06718744635194
 31
0.0
  0
LINE
  5
196
330
1F
100
AcDbEntity
  8
0
 62
     7
 48
0.019027
370
    25
100
AcDbLine
 10
426.6544452083765
 20
91.49269444635195
 30
0.0
 11
427.3117062083764
 21
91.87639144635193
 31
0.0
  0
LINE
  5
197
330
1F
100
AcDbEntity
  8
0
 62
     7
 48
0.024633
370
    25
100
AcDbLine
 10
427.3117062083764
 20
91.87639144635193
 30
0.0
 11
427.9490692083765
 21
92.62782644635195
 31
0.0
  0
LINE
  5
198
330
1F
100
AcDbEntity
  8
0
 62
     7
 48
0.026452
370
    25
100
AcDbLine
 10
425.3429332083765
 20
89.12782644635195
 30
0.0
 11
425.8832052083765
 21
90.03758544635193
 31
0.0
  0
LINE
  5
199
330
1F
100
AcDbEntity
  8
0
 62
     7
 48
0.020784
370
    25
100
AcDbLine
 10
425.8832052083765
 20
90.03758544635193
 30
0.0
 11
426.6392472083764
 21
90.38331944635195
 31
0.0
  0
LINE
  5
19A
330
1F
100
AcDbEntity
  8
0
 62
     7
 48
0.015371
370
    25
100
AcDbLine
 10
426.6392472083764
 20
90.38331944635195
 30
0.0
 11
427.0343622083765
 21
90.85441944635193
 31
0.0
  0
LINE
  5
19B
330
1F
100
AcDbEntity
  8
0
 62
     7
 48
0.013289
370
    25
100
AcDbLine
 10
427.0343622083765
 20
90.85441944635193
 30
0.0
 11
427.0951492083765
 21
91.38249544635192
 31
0.0
  0
LINE
  5
19C
330
1F
100
AcDbEntity
  8
0
 62
     7
 48
0.022941
370
    25
100
AcDbLine
 10
427.0951492083765
 20
91.38249544635192
 30
0.0
 11
427.9233772083765
 21
91.77763644635192
 31
0.0
  0
LINE
  5
19D
330
1F
100
AcDbEntity
  8
0
 62
     7
 48
0.026309
370
    25
100
AcDbLine
 10
427.9233772083765
 20
91.77763644635192
 30
0.0
 11
428.5435552083765
 21
92.62782644635195
 31
0.0
  0
LINE
  5
19E
330
1F
100
AcDbEntity
  8
0
 62
     7
 48
0.026452
370
    25
100
AcDbLine
 10
431.2039102083764
 20
95.21806644635195
 30
0.0
 11
431.7441822083765
 21
96.12782644635195
 31
0.0
  0
LINE
  5
19F
330
1F
100
AcDbEntity
  8
0
 62
     7
 48
0.026452
370
    25
100
AcDbLine
 10
431.2039102083764
 20
95.21806644635195
 30
0.0
 11
431.7441822083765
 21
96.12782644635195
 31
0.0
  0
LINE
  5
1A0
330
1F
100
AcDbEntity
  8
0
 62
     7
 48
0.015372
370
    25
100
AcDbLine
 10
430.0527492083764
 20
94.40123344635195
 30
0.0
 11
430.4478682083765
 21
94.87233344635194
 31
0.0
  0
LINE
  5
1A1
330
1F
100
AcDbEntity
  8
0
 62
     7
 48
0.013289
370
    25
100
AcDbLine
 10
429.9919622083765
 20
93.87315644635196
 30
0.0
 11
430.0527492083764
 21
94.40123344635195
 31
0.0
  0
LINE
  5
1A2
330
1F
100
AcDbEntity
  8
0
 62
     7
 48
0.022941
370
    25
100
AcDbLine
 10
429.1637382083765
 20
93.47801544635195
 30
0.0
 11
429.9919622083765
 21
93.87315644635196
 31
0.0
  0
LINE
  5
1A3
330
1F
100
AcDbEntity
  8
0
 62
     7
 48
0.026309
370
    25
100
AcDbLine
 10
428.5435552083765
 20
92.62782644635195
 30
0.0
 11
429.1637382083765
 21
93.47801544635195
 31
0.0
  0
LINE
  5
1A4
330
1F
100
AcDbEntity
  8
0
 62
     7
 48
0.024633
370
    25
100
AcDbLine
 10
429.1380422083766
 20
92.62782644635195
 30
0.0
 11
429.7754092083765
 21
91.87639144635193
 31
0.0
  0
LINE
  5
1A5
330
1F
100
AcDbEntity
  8
0
 62
     7
 48
0.019027
370
    25
100
AcDbLine
 10
429.7754092083765
 20
91.87639144635193
 30
0.0
 11
430.4326702083766
 21
91.49269444635195
 31
0.0
  0
LINE
  5
1A6
330
1F
100
AcDbEntity
  8
0
 62
     7
 48
0.010689
370
    25
100
AcDbLine
 10
430.3908802083766
 20
91.06718744635194
 30
0.0
 11
430.4326702083766
 21
91.49269444635195
 31
0.0
  0
LINE
  5
1A7
330
1F
100
AcDbEntity
  8
0
 62
     7
 48
0.018979
370
    25
100
AcDbLine
 10
430.3908802083766
 20
91.06718744635194
 30
0.0
 11
431.0481412083765
 21
90.68724344635194
 31
0.0
  0
LINE
  5
1A8
330
1F
100
AcDbEntity
  8
0
 62
     7
 48
0.022325
370
    25
100
AcDbLine
 10
431.0481412083765
 20
90.68724344635194
 30
0.0
 11
431.7441822083765
 21
90.12782644635195
 31
0.0
  0
LINE
  5
1A9
330
1F
100
AcDbEntity
  8
0
 62
     7
 48
0.026452
370
    25
100
AcDbLine
 10
431.2039102083764
 20
90.03758544635193
 30
0.0
 11
431.7441822083765
 21
89.12782644635195
 31
0.0
  0
LINE
  5
1AA
330
1F
100
AcDbEntity
  8
0
 62
     7
 48
0.020784
370
    25
100
AcDbLine
 10
430.4478682083765
 20
90.38331944635195
 30
0.0
 11
431.2039102083764
 21
90.03758544635193
 31
0.0
  0
LINE
  5
1AB
330
1F
100
AcDbEntity
  8
0
 62
     7
 48
0.015372
370
    25
100
AcDbLine
 10
430.0527492083764
 20
90.85441944635193
 30
0.0
 11
430.4478682083765
 21
90.38331944635195
 31
0.0
  0
LINE
  5
1AC
330
1F
100
AcDbEntity
  8
0
 62
     7
 48
0.013289
370
    25
100
AcDbLine
 10
429.9919622083765
 20
91.38249544635192
 30
0.0
 11
430.0527492083764
 21
90.85441944635193
 31
0.0
  0
LINE
  5
1AD
330
1F
100
AcDbEntity
  8
0
 62
     7
 48
0.022941
370
    25
100
AcDbLine
 10
429.1637382083765
 20
91.77763644635192
 30
0.0
 11
429.9919622083765
 21
91.38249544635192
 31
0.0
  0
LINE
  5
1AE
330
1F
100
AcDbEntity
  8
0
 62
     7
 48
0.026309
370
    25
100
AcDbLine
 10
428.5435552083765
 20
92.62782644635195
 30
0.0
 11
429.1637382083765
 21
91.77763644635192
 31
0.0
  0
LINE
  5
1AF
330
1F
100
AcDbEntity
  8
0
 62
     7
 48
0.022325
370
    25
100
AcDbLine
 10
431.0481412083765
 20
94.56840844635195
 30
0.0
 11
431.7441822083765
 21
95.12782644635195
 31
0.0
  0
LINE
  5
1B0
330
1F
100
AcDbEntity
  8
0
 62
     7
 48
0.018979
370
    25
100
AcDbLine
 10
430.3908802083766
 20
94.18846444635194
 30
0.0
 11
431.0481412083765
 21
94.56840844635195
 31
0.0
  0
LINE
  5
1B1
330
1F
100
AcDbEntity
  8
0
 62
     7
 48
0.010689
370
    25
100
AcDbLine
 10
430.3908802083766
 20
94.18846444635194
 30
0.0
 11
430.4326702083766
 21
93.76295844635194
 31
0.0
  0
LINE
  5
1B2
330
1F
100
AcDbEntity
  8
0
 62
     7
 48
0.019027
370
    25
100
AcDbLine
 10
429.7754092083765
 20
93.37926044635195
 30
0.0
 11
430.4326702083766
 21
93.76295844635194
 31
0.0
  0
LINE
  5
1B3
330
1F
100
AcDbEntity
  8
0
 62
     7
 48
0.024633
370
    25
100
AcDbLine
 10
429.1380422083766
 20
92.62782644635195
 30
0.0
 11
429.7754092083765
 21
93.37926044635195
 31
0.0
  0
LINE
  5
1B4
330
1F
100
AcDbEntity
  8
0
 62
     7
 48
0.015372
370
    25
100
AcDbLine
 10
430.0527492083764
 20
94.40123344635195
 30
0.0
 11
430.4478682083765
 21
94.87233344635194
 31
0.0
  0
LINE
  5
1B5
330
1F
100
AcDbEntity
  8
0
 62
     7
 48
0.020784
370
    25
100
AcDbLine
 10
430.4478682083765
 20
94.87233344635194
 30
0.0
 11
431.2039102083764
 21
95.21806644635195
 31
0.0
  0
LINE
  5
1B6
330
1F
100
AcDbEntity
  8
0
 62
     7
 48
0.125
370
    25
100
AcDbLine
 10
414.8429332083765
 20
95.12782644635195
 30
0.0
 11
419.8429332083765
 21
95.12782644635195
 31
0.0
  0
LINE
  5
1B7
330
1F
100
AcDbEntity
  8
0
 62
     7
 48
0.139754
370
    25
100
AcDbLine
 10
414.8429332083765
 20
95.12782644635195
 30
0.0
 11
417.3429332083765
 21
90.12782644635195
 31
0.0
  0
LINE
  5
1B8
330
1F
100
AcDbEntity
  8
0
 62
     7
 48
0.139754
370
    25
100
AcDbLine
 10
417.3429332083765
 20
90.12782644635195
 30
0.0
 11
419.8429332083765
 21
95.12782644635195
 31
0.0
  0
LINE
  5
1B9
330
1F
100
AcDbEntity
  8
0
 62
     7
 48
0.125
370
    25
100
AcDbLine
 10
408.8429332083765
 20
90.12782644635195
 30
0.0
 11
408.8429332083765
 21
95.12782644635195
 31
0.0
  0
LINE
  5
1BA
330
1F
100
AcDbEntity
  8
0
 62
     7
 48
0.0375
370
    25
100
AcDbLine
 10
400.3429332083765
 20
92.62782644635195
 30
0.0
 11
401.8429332083765
 21
92.62782644635195
 31
0.0
  0
LINE
  5
1BB
330
1F
100
AcDbEntity
  8
0
 62
     7
 48
0.125
370
    25
100
AcDbLine
 10
399.8429332083765
 20
90.12782644635195
 30
0.0
 11
399.8429332083765
 21
95.12782644635195
 31
0.0
  0
ARC
  5
1BC
330
1F
100
AcDbEntity
  8
0
 62
     7
370
    25
100
AcDbCircle
 10
399.3845972083765
 20
92.62782644635195
 30
0.0
 40
2.541667000000008
100
AcDbArc
 50
79.6111409999993
 51
280.3888859999993
  0
LINE
  5
1BD
330
1F
100
AcDbEntity
  8
0
 62
     7
 48
0.0375
370
    25
100
AcDbLine
 10
403.8429332083765
 20
92.62782644635195
 30
0.0
 11
405.3429332083765
 21
92.62782644635195
 31
0.0
  0
LINE
  5
1BE
330
1F
100
AcDbEntity
  8
0
  6
DASHDOT
 62
     7
370
    25
100
AcDbLine
 10
121.4586562083765
 20
306.0987004463519
 30
0.0
 11
512.4586562083765
 21
306.0987004463519
 31
0.0
  0
LINE
  5
1BF
330
1F
100
AcDbEntity
  8
0
  6
DASHDOT
 62
     7
370
    25
100
AcDbLine
 10
316.9586562083765
 20
54.59871244635193
 30
0.0
 11
316.9586562083765
 21
557.5986974463519
 31
0.0
  0
TEXT
  5
1C0
330
1F
100
AcDbEntity
  8
0
 62
     7
370
    25
100
AcDbText
 10
462.1369372083765
 20
89.96123144635195
 30
0.0
 40
5.0
  1
IP 65
 41
1.030769307692309
 72
     5
 11
484.4702722083765
 21
89.96123144635195
 31
0.0
100
AcDbText
  0
TEXT
  5
1C1
330
1F
100
AcDbEntity
  8
0
 62
     7
370
    25
100
AcDbText
 10
416.9478072083765
 20
92.41722444635192
 30
0.0
 40
2.0
  1
F
 41
1.100000250000107
 72
     5
 11
418.4144742083766
 21
92.41722444635192
 31
0.0
100
AcDbText
  0
TEXT
  5
1C2
330
1F
100
AcDbEntity
  8
0
 62
     7
370
    25
100
AcDbText
 10
405.9244692083765
 20
92.02705744635193
 30
0.0
 40
2.0
  1
m
 41
1.100000249999937
 72
     5
 11
407.3911362083765
 21
92.02705744635193
 31
0.0
100
AcDbText
  0
TEXT
  5
1C3
330
1F
100
AcDbEntity
  8
0
 62
     7
370
    25
100
AcDbText
 10
401.6872562083767
 20
91.44621644635194
 30
0.0
 40
3.0
  1
1
 41
2.199999999999818
 72
     5
 11
403.8872562083765
 21
91.44621644635194
 31
0.0
100
AcDbText
  0
LINE
  5
1C4
330
1F
100
AcDbEntity
  8
0
 62
     7
 48
0.242199
370
    25
100
AcDbLine
 10
452.9060012083766
 20
90.11528344635192
 30
0.0
 11
462.5939482083766
 21
90.11528344635192
 31
0.0
  0
LINE
  5
1C5
330
1F
100
AcDbEntity
  8
0
 62
     7
 48
0.23219
370
    25
100
AcDbLine
 10
453.3063532083765
 20
95.11528344635195
 30
0.0
 11
462.5939482083766
 21
95.11528344635195
 31
0.0
  0
LINE
  5
1C6
330
1F
100
AcDbEntity
  8
0
 62
     7
 48
0.068576
370
    25
100
AcDbLine
 10
433.4174382083766
 20
92.60420544635195
 30
0.0
 11
436.1604632083765
 21
92.60420544635195
 31
0.0
  0
LWPOLYLINE
  5
1C7
330
1F
100
AcDbEntity
  8
0
 62
     7
370
    25
100
AcDbPolyline
 90
        3
 70
     0
 43
0.0
 10
434.2286112083765
 20
92.08656644635192
 10
436.1604632083765
 20
92.60420544635195
 10
434.2286112083765
 20
93.12184544635195
  0
LINE
  5
1C8
330
1F
100
AcDbEntity
  8
0
 62
     7
 48
0.053033
370
    25
100
AcDbLine
 10
408.8429332083765
 20
90.16566844635193
 30
0.0
 11
410.3429332083765
 21
91.66566844635193
 31
0.0
  0
LINE
  5
1C9
330
1F
100
AcDbEntity
  8
0
 62
     7
 48
0.053033
370
    25
100
AcDbLine
 10
408.8429332083765
 20
92.99409844635196
 30
0.0
 11
410.3429332083765
 21
94.49409844635196
 31
0.0
  0
DIMENSION
  5
1CA
330
1F
100
AcDbEntity
  8
0
370
    25
100
AcDbDimension
  2
*D7
 10
512.4586562083765
 20
662.469207799177
 30
0.0
 11
316.9586562083765
 21
674.469207799177
 31
0.0
 70
    32
 71
     5
 41
2.5
 42
391.0
  3
Standard
100
AcDbAlignedDimension
 13
121.4586562083765
 23
437.7748234347558
 33
0.0
 14
512.4586562083765
 24
437.7748234347558
 34
0.0
100
AcDbRotatedDimension
1001
ACAD
1000
DSTYLE
1002
{
1070
   171
1070
     3
1070
   143
1040
0.03937
1070
   274
1070
     3
1070
    41
1040
10.0
1070
   289
1070
     0
1070
   141
1040
2.5
1070
   176
1070
     7
1070
   177
1070
     7
1070
   271
1070
     2
1070
    43
1040
3.75
1070
   278
1070
    44
1070
    44
1040
1.25
1070
    42
1040
0.625
1070
   147
1040
5.0
1070
    77
1070
     1
1070
   272
1070
     2
1070
    73
1070
     0
1070
   172
1070
     1
1070
    74
1070
     0
1070
   283
1070
     0
1070
   140
1040
14.0
1070
   284
1070
     8
1070
    78
1070
     8
1002
}
  0
DIMENSION
  5
1CB
330
1F
100
AcDbEntity
  8
0
100
AcDbDimension
  2
*D8
 10
493.9586562083765
 20
602.8383818812174
 30
0.0
 11
316.9586562083765
 21
614.8383818812174
 31
0.0
 70
    32
 71
     5
 41
2.5
 42
354.0
  3
Standard
100
AcDbAlignedDimension
 13
139.9586562083765
 23
437.5091963803754
 33
0.0
 14
493.9586562083765
 24
437.5091963803754
 34
0.0
100
AcDbRotatedDimension
1001
ACAD
1000
DSTYLE
1002
{
1070
   171
1070
     3
1070
   143
1040
0.03937
1070
   274
1070
     3
1070
    41
1040
10.0
1070
   289
1070
     0
1070
   141
1040
2.5
1070
   176
1070
     7
1070
   177
1070
     7
1070
   271
1070
     2
1070
    43
1040
3.75
1070
   278
1070
    44
1070
    44
1040
1.25
1070
    42
1040
0.625
1070
   147
1040
5.0
1070
    77
1070
     1
1070
   272
1070
     2
1070
    73
1070
     0
1070
   172
1070
     1
1070
    74
1070
     0
1070
   283
1070
     0
1070
   140
1040
14.0
1070
   284
1070
     8
1070
    78
1070
     8
1002
}
  0
DIMENSION
  5
1CC
330
1F
100
AcDbEntity
  8
0
370
    25
100
AcDbDimension
  2
*D9
 10
547.1863418182631
 20
198.598697446352
 30
0.0
 11
535.1863418182631
 21
368.5986974463519
 31
0.0
 70
    32
 71
     5
 41
2.5
 42
340.0
  3
Standard
100
AcDbAlignedDimension
 13
437.4202810368722
 23
538.5986974463519
 33
0.0
 14
423.2569183554024
 24
198.598697446352
 34
0.0
 50
90.0
100
AcDbRotatedDimension
1001
ACAD
1000
DSTYLE
1002
{
1070
   171
1070
     3
1070
   143
1040
0.03937
1070
   274
1070
     3
1070
    41
1040
10.0
1070
   289
1070
     0
1070
   141
1040
2.5
1070
   176
1070
     7
1070
   177
1070
     7
1070
   271
1070
     2
1070
    43
1040
3.75
1070
   278
1070
    44
1070
    44
1040
1.25
1070
    42
1040
0.625
1070
   147
1040
5.0
1070
    77
1070
     1
1070
   272
1070
     2
1070
    73
1070
     0
1070
   172
1070
     1
1070
    74
1070
     0
1070
   283
1070
     0
1070
   140
1040
14.0
1070
   284
1070
     8
1070
    78
1070
     8
1002
}
  0
DIMENSION
  5
1CD
330
1F
100
AcDbEntity
  8
0
370
    25
100
AcDbDimension
  2
*D10
 10
547.1853685690223
 20
538.5986974463519
 30
0.0
 11
535.1853685690223
 21
581.9320307796852
 31
0.0
 70
   160
 71
     5
 41
2.5
 42
19.0
  3
Standard
100
AcDbAlignedDimension
 13
445.2101305116807
 23
557.5986974463519
 33
0.0
 14
445.2101305116807
 24
538.5986974463519
 34
0.0
 50
90.0
100
AcDbRotatedDimension
1001
ACAD
1000
DSTYLE
1002
{
1070
   171
1070
     3
1070
   143
1040
0.03937
1070
   274
1070
     3
1070
    41
1040
10.0
1070
   289
1070
     0
1070
   141
1040
2.5
1070
   176
1070
     7
1070
   177
1070
     7
1070
   271
1070
     2
1070
    43
1040
3.75
1070
   278
1070
    44
1070
    44
1040
1.25
1070
    42
1040
0.625
1070
   147
1040
5.0
1070
    77
1070
     1
1070
   272
1070
     2
1070
    73
1070
     0
1070
   172
1070
     1
1070
    74
1070
     0
1070
   283
1070
     0
1070
   140
1040
14.0
1070
   284
1070
     8
1070
    78
1070
     8
1002
}
  0
DIMENSION
  5
1CE
330
1F
100
AcDbEntity
  8
0
370
    25
100
AcDbDimension
  2
*D11
 10
593.9347018392734
 20
54.59871244635193
 30
0.0
 11
581.9347018392734
 21
306.098704946352
 31
0.0
 70
    32
 71
     5
 41
2.5
 42
502.999985
  3
Standard
100
AcDbAlignedDimension
 13
446.2716871190221
 23
557.5986974463519
 33
0.0
 14
446.2716871190221
 24
54.59871244635193
 34
0.0
 50
90.0
100
AcDbRotatedDimension
1001
ACAD
1000
DSTYLE
1002
{
1070
   171
1070
     3
1070
   143
1040
0.03937
1070
   274
1070
     3
1070
    41
1040
10.0
1070
   289
1070
     0
1070
   141
1040
2.5
1070
   176
1070
     7
1070
   177
1070
     7
1070
   271
1070
     2
1070
    43
1040
3.75
1070
   278
1070
    44
1070
    44
1040
1.25
1070
    42
1040
0.625
1070
   147
1040
5.0
1070
    77
1070
     1
1070
   272
1070
     2
1070
    73
1070
     0
1070
   172
1070
     1
1070
    74
1070
     0
1070
   283
1070
     0
1070
   140
1040
14.0
1070
   284
1070
     8
1070
    78
1070
     8
1002
}
  0
DIMENSION
  5
1CF
330
1F
100
AcDbEntity
  8
0
370
    25
100
AcDbDimension
  2
*D12
 10
643.8878852083765
 20
602.8383818812174
 30
0.0
 11
619.8878852083765
 21
614.8383818812174
 31
0.0
 70
   160
 71
     5
 41
2.5
 42
4.0
  3
Standard
100
AcDbAlignedDimension
 13
639.8878852083765
 23
554.5152993602235
 33
0.0
 14
643.8878852083765
 24
554.5152993602235
 34
0.0
100
AcDbRotatedDimension
1001
ACAD
1000
DSTYLE
1002
{
1070
   171
1070
     3
1070
   143
1040
0.03937
1070
   274
1070
     3
1070
    41
1040
10.0
1070
   289
1070
     0
1070
   141
1040
2.5
1070
   176
1070
     7
1070
   177
1070
     7
1070
   271
1070
     2
1070
    43
1040
3.75
1070
   278
1070
    44
1070
    44
1040
1.25
1070
    42
1040
0.625
1070
   147
1040
5.0
1070
    77
1070
     1
1070
   272
1070
     2
1070
    73
1070
     0
1070
   172
1070
     1
1070
    74
1070
     0
1070
   283
1070
     0
1070
   140
1040
14.0
1070
   284
1070
     8
1070
    78
1070
     8
1002
}
  0
POINT
  5
1D0
330
1F
100
AcDbEntity
  8
0
 62
     7
370
    60
100
AcDbPoint
 10
316.9586562083765
 20
142.7011144463519
 30
0.0
  0
ARC
  5
1D1
330
1F
100
AcDbEntity
  8
0
 62
     7
370
    60
100
AcDbCircle
 10
280.9486612083765
 20
128.4987064463519
 30
0.0
 40
0.7799999999999727
100
AcDbArc
 50
0.0
 51
90.000003
  0
ARC
  5
1D2
330
1F
100
AcDbEntity
  8
0
 62
     7
370
    60
100
AcDbCircle
 10
258.8486552083765
 20
130.058703446352
 30
0.0
 40
0.7799999999999824
100
AcDbArc
 50
180.0000090000008
 51
269.9999970000008
  0
LINE
  5
1D3
330
1F
100
AcDbEntity
  8
0
 62
     7
 48
0.065
370
    60
100
AcDbLine
 10
258.0686562083765
 20
147.2187074463519
 30
0.0
 11
258.0686562083765
 21
149.818698446352
 31
0.0
  0
ARC
  5
1D4
330
1F
100
AcDbEntity
  8
0
 62
     7
370
    60
100
AcDbCircle
 10
282.8006202083765
 20
149.818698446352
 30
0.0
 40
0.7800000000000029
100
AcDbArc
 50
13.2163239999992
 51
90.00000299999924
  0
ARC
  5
1D5
330
1F
100
AcDbEntity
  8
0
 62
     7
370
    60
100
AcDbCircle
 10
292.0967022083765
 20
117.058703446352
 30
0.0
 40
0.7800000000000411
100
AcDbArc
 50
193.2163429999995
 51
269.9999969999996
  0
ARC
  5
1D6
330
1F
100
AcDbEntity
  8
0
 62
     7
370
    60
100
AcDbCircle
 10
302.2822492083765
 20
162.818698446352
 30
0.0
 40
0.7799999999999738
100
AcDbArc
 50
90.00000299999469
 51
170.7791809999947
  0
LINE
  5
1D7
330
1F
100
AcDbEntity
  8
0
 62
     7
 48
0.152411
370
    60
100
AcDbLine
 10
308.3786542083765
 20
163.598697446352
 30
0.0
 11
314.4750742083764
 21
163.598697446352
 31
0.0
  0
ARC
  5
1D8
330
1F
100
AcDbEntity
  8
0
 62
     7
370
    60
100
AcDbCircle
 10
314.4750742083764
 20
162.818698446352
 30
0.0
 40
0.7800000000000574
100
AcDbArc
 50
9.220825000001167
 51
90.00000300000117
  0
LINE
  5
1D9
330
1F
100
AcDbEntity
  8
0
 62
     7
 48
0.490462
370
    60
100
AcDbLine
 10
315.2449872083765
 20
162.9436834463519
 30
0.0
 11
318.3886482083765
 21
143.578708446352
 31
0.0
  0
LINE
  5
1DA
330
1F
100
AcDbEntity
  8
0
 62
     7
370
    60
100
AcDbLine
 10
365.9686502083765
 20
146.4386934463519
 30
0.0
 11
388.0686562083765
 21
146.4386934463519
 31
0.0
  0
LINE
  5
1DB
330
1F
100
AcDbEntity
  8
0
 62
     7
370
    60
100
AcDbLine
 10
352.9686582083765
 20
129.2787054463519
 30
0.0
 11
375.0686562083765
 21
129.2787054463519
 31
0.0
  0
ARC
  5
1DC
330
1F
100
AcDbEntity
  8
0
 62
     7
370
    60
100
AcDbCircle
 10
388.0686562083765
 20
151.3786954463519
 30
0.0
 40
0.7799999999999738
100
AcDbArc
 50
269.9999969999969
 51
359.999999999997
  0
ARC
  5
1DD
330
1F
100
AcDbEntity
  8
0
 62
     7
370
    60
100
AcDbCircle
 10
365.9686502083765
 20
149.818698446352
 30
0.0
 40
0.7799999999999738
100
AcDbArc
 50
90.00000300000303
 51
180.0000090000031
  0
ARC
  5
1DE
330
1F
100
AcDbEntity
  8
0
 62
     7
370
    60
100
AcDbCircle
 10
365.9686502083765
 20
147.2187074463519
 30
0.0
 40
0.7799999999999824
100
AcDbArc
 50
180.0000090000008
 51
269.9999970000008
  0
ARC
  5
1DF
330
1F
100
AcDbEntity
  8
0
 62
     7
370
    60
100
AcDbCircle
 10
352.9686582083765
 20
117.058703446352
 30
0.0
 40
0.7799999999999824
100
AcDbArc
 50
180.0000090000008
 51
269.9999970000008
  0
ARC
  5
1E0
330
1F
100
AcDbEntity
  8
0
 62
     7
370
    60
100
AcDbCircle
 10
352.9686582083765
 20
128.4987064463519
 30
0.0
 40
0.7800000000000022
100
AcDbArc
 50
90.00000299999469
 51
180.0000089999947
  0
LINE
  5
1E1
330
1F
100
AcDbEntity
  8
0
 62
     7
370
    60
100
AcDbLine
 10
388.8486552083765
 20
117.058703446352
 30
0.0
 11
388.8486552083765
 21
145.6586944463519
 31
0.0
  0
LINE
  5
1E2
330
1F
100
AcDbEntity
  8
0
 62
     7
370
    60
100
AcDbLine
 10
352.1886512083765
 20
134.2187074463519
 30
0.0
 11
352.1886512083765
 21
162.818698446352
 31
0.0
  0
LINE
  5
1E3
330
1F
100
AcDbEntity
  8
0
 62
     7
 48
0.065
370
    60
100
AcDbLine
 10
375.8486552083765
 20
130.058703446352
 30
0.0
 11
375.8486552083765
 21
132.6586944463519
 31
0.0
  0
ARC
  5
1E4
330
1F
100
AcDbEntity
  8
0
 62
     7
370
    60
100
AcDbCircle
 10
375.0686562083765
 20
130.058703446352
 30
0.0
 40
0.7800000000000022
100
AcDbArc
 50
269.9999969999969
 51
359.999999999997
  0
ARC
  5
1E5
330
1F
100
AcDbEntity
  8
0
 62
     7
370
    60
100
AcDbCircle
 10
388.0686562083765
 20
145.6586944463519
 30
0.0
 40
0.7799999999999727
100
AcDbArc
 50
0.0
 51
90.000003
  0
ARC
  5
1E6
330
1F
100
AcDbEntity
  8
0
 62
     7
370
    60
100
AcDbCircle
 10
388.0686562083765
 20
117.058703446352
 30
0.0
 40
0.7800000000000022
100
AcDbArc
 50
269.9999969999969
 51
359.999999999997
  0
ARC
  5
1E7
330
1F
100
AcDbEntity
  8
0
 62
     7
370
    60
100
AcDbCircle
 10
352.9686582083765
 20
134.2187074463519
 30
0.0
 40
0.7799999999999824
100
AcDbArc
 50
180.0000090000008
 51
269.9999970000008
  0
ARC
  5
1E8
330
1F
100
AcDbEntity
  8
0
 62
     7
370
    60
100
AcDbCircle
 10
375.0686562083765
 20
132.6586944463519
 30
0.0
 40
0.7799999999999727
100
AcDbArc
 50
0.0
 51
90.000003
  0
LINE
  5
1E9
330
1F
100
AcDbEntity
  8
0
 62
     7
 48
0.286
370
    60
100
AcDbLine
 10
393.0086512083765
 20
117.058703446352
 30
0.0
 11
393.0086512083765
 21
128.4987064463519
 31
0.0
  0
ARC
  5
1EA
330
1F
100
AcDbEntity
  8
0
 62
     7
370
    60
100
AcDbCircle
 10
404.7086522083765
 20
139.9386934463519
 30
0.0
 40
23.66
100
AcDbArc
 50
269.9999969999998
 51
14.47751099999977
  0
LINE
  5
1EB
330
1F
100
AcDbEntity
  8
0
 62
     7
 48
0.273
370
    60
100
AcDbLine
 10
393.7886502083765
 20
163.598697446352
 30
0.0
 11
404.7086522083765
 21
163.598697446352
 31
0.0
  0
LINE
  5
1EC
330
1F
100
AcDbEntity
  8
0
 62
     7
 48
0.273
370
    60
100
AcDbLine
 10
393.7886502083765
 20
116.2787054463519
 30
0.0
 11
404.7086522083765
 21
116.2787054463519
 31
0.0
  0
ARC
  5
1ED
330
1F
100
AcDbEntity
  8
0
 62
     7
370
    60
100
AcDbCircle
 10
393.7886502083765
 20
162.818698446352
 30
0.0
 40
0.7799999999999738
100
AcDbArc
 50
90.00000299999469
 51
180.0000089999947
  0
ARC
  5
1EE
330
1F
100
AcDbEntity
  8
0
 62
     7
370
    60
100
AcDbCircle
 10
393.7886502083765
 20
117.058703446352
 30
0.0
 40
0.7799999999999824
100
AcDbArc
 50
180.0000090000008
 51
269.9999970000008
  0
LINE
  5
1EF
330
1F
100
AcDbEntity
  8
0
 62
     7
 48
0.443367
370
    60
100
AcDbLine
 10
406.7886542083764
 20
150.598697446352
 30
0.0
 11
424.5233152083765
 21
150.598697446352
 31
0.0
  0
ARC
  5
1F0
330
1F
100
AcDbEntity
  8
0
 62
     7
370
    60
100
AcDbCircle
 10
406.7886542083764
 20
149.818698446352
 30
0.0
 40
0.7799999999999738
100
AcDbArc
 50
90.00000299999469
 51
180.0000089999947
  0
LINE
  5
1F1
330
1F
100
AcDbEntity
  8
0
 62
     7
 48
0.065
370
    60
100
AcDbLine
 10
406.0086512083765
 20
147.2187074463519
 30
0.0
 11
406.0086512083765
 21
149.818698446352
 31
0.0
  0
ARC
  5
1F2
330
1F
100
AcDbEntity
  8
0
 62
     7
370
    60
100
AcDbCircle
 10
406.7886542083764
 20
147.2187074463519
 30
0.0
 40
0.7799999999999824
100
AcDbArc
 50
180.0000090000008
 51
269.9999970000008
  0
LINE
  5
1F3
330
1F
100
AcDbEntity
  8
0
 62
     7
370
    60
100
AcDbLine
 10
406.7886542083764
 20
146.4386934463519
 30
0.0
 11
426.8621172083765
 21
146.4386934463519
 31
0.0
  0
LINE
  5
1F4
330
1F
100
AcDbEntity
  8
0
 62
     7
370
    60
100
AcDbLine
 10
393.7886502083765
 20
133.4387084463519
 30
0.0
 11
415.8886522083765
 21
133.4387084463519
 31
0.0
  0
ARC
  5
1F5
330
1F
100
AcDbEntity
  8
0
 62
     7
370
    60
100
AcDbCircle
 10
415.8886522083765
 20
132.6586944463519
 30
0.0
 40
0.7799999999999727
100
AcDbArc
 50
0.0
 51
90.000003
  0
ARC
  5
1F6
330
1F
100
AcDbEntity
  8
0
 62
     7
370
    60
100
AcDbCircle
 10
415.8886522083765
 20
130.058703446352
 30
0.0
 40
0.7800000000000022
100
AcDbArc
 50
269.9999969999969
 51
359.9999999999969
  0
LINE
  5
1F7
330
1F
100
AcDbEntity
  8
0
 62
     7
370
    60
100
AcDbLine
 10
393.7886502083765
 20
129.2787054463519
 30
0.0
 11
415.8886522083765
 21
129.2787054463519
 31
0.0
  0
LINE
  5
1F8
330
1F
100
AcDbEntity
  8
0
 62
     7
 48
0.065
370
    60
100
AcDbLine
 10
416.6686512083764
 20
130.058703446352
 30
0.0
 11
416.6686512083764
 21
132.6586944463519
 31
0.0
  0
ARC
  5
1F9
330
1F
100
AcDbEntity
  8
0
 62
     7
370
    60
100
AcDbCircle
 10
404.7086522083765
 20
139.9386934463519
 30
0.0
 40
23.65999999999992
100
AcDbArc
 50
30.00000100000011
 51
90.00000300000013
  0
ARC
  5
1FA
330
1F
100
AcDbEntity
  8
0
 62
     7
370
    60
100
AcDbCircle
 10
424.5233152083765
 20
151.3786954463519
 30
0.0
 40
0.7799999999999738
100
AcDbArc
 50
269.9999969999969
 51
30.00000099999699
  0
ARC
  5
1FB
330
1F
100
AcDbEntity
  8
0
 62
     7
370
    60
100
AcDbCircle
 10
426.8621172083765
 20
145.6586944463519
 30
0.0
 40
0.7800000000000358
100
AcDbArc
 50
14.47751100000043
 51
90.00000300000045
  0
LINE
  5
1FC
330
1F
100
AcDbEntity
  8
0
 62
     7
370
    60
100
AcDbLine
 10
393.0086512083765
 20
134.2187074463519
 30
0.0
 11
393.0086512083765
 21
162.818698446352
 31
0.0
  0
ARC
  5
1FD
330
1F
100
AcDbEntity
  8
0
 62
     7
370
    60
100
AcDbCircle
 10
393.7886502083765
 20
134.2187074463519
 30
0.0
 40
0.7799999999999824
100
AcDbArc
 50
180.0000090000008
 51
269.9999970000008
  0
ARC
  5
1FE
330
1F
100
AcDbEntity
  8
0
 62
     7
370
    60
100
AcDbCircle
 10
393.7886502083765
 20
128.4987064463519
 30
0.0
 40
0.7800000000000022
100
AcDbArc
 50
90.00000299999469
 51
180.0000089999947
  0
LINE
  5
1FF
330
1F
100
AcDbEntity
  8
STANDARD_LAYER
370
    60
100
AcDbLine
 10
302.2129785948548
 20
395.5475494454402
 30
0.0
 11
322.8946603548544
 21
423.4601661254392
 31
0.0
  0
LINE
  5
200
330
1F
100
AcDbEntity
  8
STANDARD_LAYER
370
    60
100
AcDbLine
 10
290.9847899148547
 20
366.4591712254401
 30
0.0
 11
311.6677140348545
 21
394.3719754654392
 31
0.0
  0
LINE
  5
201
330
1F
100
AcDbEntity
  8
STANDARD_LAYER
370
    60
100
AcDbLine
 10
285.9625652748548
 20
387.0255837054402
 30
0.0
 11
306.6446855148545
 21
414.9387318054401
 31
0.0
  0
LINE
  5
202
330
1F
100
AcDbEntity
  8
STANDARD_LAYER
370
    60
100
AcDbLine
 10
319.6448240748548
 20
354.4122757854403
 30
0.0
 11
340.3273097148547
 21
382.3250591854392
 31
0.0
  0
LINE
  5
203
330
1F
100
AcDbEntity
  8
STANDARD_LAYER
370
    60
100
AcDbLine
 10
336.7819170348546
 20
365.8711393654391
 30
0.0
 11
357.4641416748548
 21
393.7833913454401
 31
0.0
  0
VIEWPORT
  5
BB
330
73
100
AcDbEntity
 67
     1
  8
0
100
AcDbViewport
 10
7.8
 20
4.5
 30
0.0
 40
15.64
 41
9.0
 68
     1
 69
     1
 12
6.0
 22
4.5
 13
0.0
 23
0.0
 14
0.5
 24
0.5
 15
0.5
 25
0.5
 16
0.0
 26
0.0
 36
1.0
 17
0.0
 27
0.0
 37
0.0
 42
50.0
 43
0.0
 44
0.0
 45
12.0
 50
0.0
 51
0.0
 72
   100
 90
   557152
  1

281
     0
 71
     1
 74
     0
110
0.0
120
0.0
130
0.0
111
1.0
121
0.0
131
0.0
112
0.0
122
1.0
132
0.0
 79
     0
146
0.0
  0
ENDSEC
  0
SECTION
  2
OBJECTS
  0
DICTIONARY
  5
C
330
0
100
AcDbDictionary
281
     1
  3
ACAD_COLOR
350
6C
  3
ACAD_GROUP
350
D
  3
ACAD_LAYOUT
350
1A
  3
ACAD_MATERIAL
350
6B
  3
ACAD_MLEADERSTYLE
350
2B2
  3
ACAD_MLINESTYLE
350
17
  3
ACAD_PLOTSETTINGS
350
19
  3
ACAD_PLOTSTYLENAME
350
E
  3
ACAD_SCALELIST
350
99
  3
ACAD_TABLESTYLE
350
92
  3
ACDBHEADERROUNDTRIPXREC
350
2B3
  3
AcDbVariableDictionary
350
59
  3
DWGPROPS
350
2B6
  0
DICTIONARY
  5
6C
102
{ACAD_REACTORS
330
C
102
}
330
C
100
AcDbDictionary
281
     1
  0
DICTIONARY
  5
D
102
{ACAD_REACTORS
330
C
102
}
330
C
100
AcDbDictionary
281
     1
  0
DICTIONARY
  5
1A
102
{ACAD_REACTORS
330
C
102
}
330
C
100
AcDbDictionary
281
     1
  3
Layout1
350
74
  3
Layout2
350
296
  3
Model
350
22
  0
DICTIONARY
  5
6B
102
{ACAD_REACTORS
330
C
102
}
330
C
100
AcDbDictionary
281
     1
  0
DICTIONARY
  5
2B2
102
{ACAD_REACTORS
330
C
102
}
330
C
100
AcDbDictionary
281
     1
  0
DICTIONARY
  5
17
102
{ACAD_REACTORS
330
C
102
}
330
C
100
AcDbDictionary
281
     1
  3
Standard
350
18
  0
DICTIONARY
  5
19
102
{ACAD_REACTORS
330
C
102
}
330
C
100
AcDbDictionary
281
     1
  0
ACDBDICTIONARYWDFLT
  5
E
102
{ACAD_REACTORS
330
C
102
}
330
C
100
AcDbDictionary
281
     1
  3
Normal
350
F
100
AcDbDictionaryWithDefault
340
F
  0
DICTIONARY
  5
99
102
{ACAD_REACTORS
330
C
102
}
330
C
100
AcDbDictionary
281
     1
  3
A0
350
D5
  3
A1
350
D6
  3
A2
350
D7
  3
A3
350
D8
  3
A4
350
D9
  3
A5
350
DA
  3
A6
350
DB
  3
A7
350
DC
  3
A8
350
DD
  3
A9
350
DE
  3
B0
350
DF
  3
B1
350
E0
  3
B2
350
E1
  3
B3
350
E2
  3
B4
350
E3
  3
B5
350
E4
  3
B6
350
E5
  3
B7
350
E6
  3
B8
350
E7
  3
B9
350
E8
  3
C0
350
E9
  3
C1
350
EA
  3
C2
350
EB
  3
C3
350
EC
  3
C4
350
ED
  3
C5
350
EE
  3
C6
350
EF
  3
C7
350
F0
  3
C8
350
F1
  3
C9
350
F2
  3
D0
350
F3
  3
D1
350
F4
  3
D2
350
F5
  0
DICTIONARY
  5
92
102
{ACAD_REACTORS
330
C
102
}
330
C
100
AcDbDictionary
281
     1
  0
DICTIONARY
  5
2B3
102
{ACAD_REACTORS
330
C
102
}
330
C
100
AcDbDictionary
281
     1
  3
COLORDICT
350
2B4
  3
MATERIALDICT
350
2B5
  0
DICTIONARY
  5
59
102
{ACAD_REACTORS
330
C
102
}
330
C
100
AcDbDictionary
281
     1
  3
CTABLESTYLE
350
98
  3
DIMASSOC
350
5A
  3
HIDETEXT
350
5E
  0
XRECORD
  5
2B6
102
{ACAD_REACTORS
330
C
102
}
330
C
100
AcDbXrecord
280
     1
  1
DWGPROPS COOKIE
  2

  3

  4

  6

  7

  8
BelottiMc
  9

300
=
301
=
302
=
303
=
304
=
305
=
306
=
307
=
308
=
309
=
 40
0.0
 41
2455096.360334792
 42
2455096.402001447
  1

 90
        0
  0
LAYOUT
  5
74
102
{ACAD_REACTORS
330
1A
102
}
330
1A
100
AcDbPlotSettings
  1

  2
ProgeSOFT PDF Wizard
  4
A4
  6

 40
5.926666666666667
 41
6.011333333333317
 42
6.095999999999985
 43
5.926666666666667
 44
210.0
 45
297.0
 46
88.56200000000001
 47
136.531
 48
0.0
 49
0.0
140
0.0
141
0.0
142
1.0
143
1.0
 70
   692
 72
     1
 73
     0
 74
     0
  7

 75
    16
147
1.0
148
4.426666666666668
149
1.5
100
AcDbLayout
  1
Layout1
 70
     1
 71
     1
 10
0.0
 20
0.0
 11
0.0
 21
0.0
 12
0.0
 22
0.0
 32
0.0
 14
0.0
 24
0.0
 34
0.0
 15
0.0
 25
0.0
 35
0.0
146
0.0
 13
0.0
 23
0.0
 33
0.0
 16
1.0
 26
0.0
 36
0.0
 17
0.0
 27
1.0
 37
0.0
 76
     0
330
D1
331
2B1
1001
PROGE_PRINT_SETTINGS
1070
    73
1070
     1
  0
LAYOUT
  5
296
102
{ACAD_REACTORS
330
1A
102
}
330
1A
100
AcDbPlotSettings
  1

  2
ProgeSOFT PDF Wizard
  4
A4
  6

 40
5.926666666666667
 41
6.011333333333317
 42
6.095999999999985
 43
5.926666666666667
 44
210.0
 45
297.0
 46
88.562
 47
136.531
 48
0.0
 49
0.0
140
0.0
141
0.0
142
1.0
143
1.0
 70
   692
 72
     1
 73
     0
 74
     0
  7

 75
    16
147
1.0
148
0.0
149
0.0
100
AcDbLayout
  1
Layout2
 70
     1
 71
     2
 10
0.0
 20
0.0
 11
12.0
 21
9.0
 12
0.0
 22
0.0
 32
0.0
 14
0.0
 24
0.0
 34
0.0
 15
12.0
 25
9.0
 35
0.0
146
0.0
 13
0.0
 23
0.0
 33
0.0
 16
1.0
 26
0.0
 36
0.0
 17
0.0
 27
1.0
 37
0.0
 76
     0
330
73
331
BB
1001
PROGE_PRINT_SETTINGS
1070
    73
1070
     1
  0
LAYOUT
  5
22
102
{ACAD_REACTORS
330
1A
102
}
330
1A
100
AcDbPlotSettings
  1

  2
none_device
  4
Letter_(8.50_x_11.00_Inches)
  6

 40
6.349999904632568
 41
6.349999904632568
 42
6.350006103515625
 43
6.350006103515625
 44
215.8999938964844
 45
279.3999938964844
 46
0.0
 47
0.0
 48
0.0
 49
0.0
140
0.0
141
0.0
142
1.0
143
7.721657901229294
 70
 11952
 72
     1
 73
     1
 74
     0
  7

 75
     0
147
0.1295058668476881
148
0.1311165230791651
149
0.096403374003771
100
AcDbLayout
  1
Model
 70
     1
 71
     0
 10
0.0
 20
0.0
 11
0.0
 21
0.0
 12
0.0
 22
0.0
 32
0.0
 14
121.4586562083765
 24
54.59871244635193
 34
0.0
 15
663.8878852083765
 25
681.469207799177
 35
0.0
146
0.0
 13
0.0
 23
0.0
 33
0.0
 16
1.0
 26
0.0
 36
0.0
 17
0.0
 27
1.0
 37
0.0
 76
     0
330
1F
331
97
  0
MLINESTYLE
  5
18
102
{ACAD_REACTORS
330
17
102
}
330
17
100
AcDbMlineStyle
  2
STANDARD
 70
     0
  3

 62
   256
 51
90.0
 52
90.0
 71
     2
 49
0.5
 62
   256
  6
BYLAYER
 49
-0.5
 62
   256
  6
BYLAYER
  0
ACDBPLACEHOLDER
  5
F
102
{ACAD_REACTORS
330
E
102
}
330
E
  0
SCALE
  5
D5
102
{ACAD_REACTORS
330
99
102
}
330
99
100
AcDbScale
 70
     0
300
1:1
140
1.0
141
1.0
290
     1
  0
SCALE
  5
D6
102
{ACAD_REACTORS
330
99
102
}
330
99
100
AcDbScale
 70
     0
300
1:2
140
1.0
141
2.0
290
     0
  0
SCALE
  5
D7
102
{ACAD_REACTORS
330
99
102
}
330
99
100
AcDbScale
 70
     0
300
1:4
140
1.0
141
4.0
290
     0
  0
SCALE
  5
D8
102
{ACAD_REACTORS
330
99
102
}
330
99
100
AcDbScale
 70
     0
300
1:5
140
1.0
141
5.0
290
     0
  0
SCALE
  5
D9
102
{ACAD_REACTORS
330
99
102
}
330
99
100
AcDbScale
 70
     0
300
1:8
140
1.0
141
8.0
290
     0
  0
SCALE
  5
DA
102
{ACAD_REACTORS
330
99
102
}
330
99
100
AcDbScale
 70
     0
300
1:10
140
1.0
141
10.0
290
     0
  0
SCALE
  5
DB
102
{ACAD_REACTORS
330
99
102
}
330
99
100
AcDbScale
 70
     0
300
1:16
140
1.0
141
16.0
290
     0
  0
SCALE
  5
DC
102
{ACAD_REACTORS
330
99
102
}
330
99
100
AcDbScale
 70
     0
300
1:20
140
1.0
141
20.0
290
     0
  0
SCALE
  5
DD
102
{ACAD_REACTORS
330
99
102
}
330
99
100
AcDbScale
 70
     0
300
1:30
140
1.0
141
30.0
290
     0
  0
SCALE
  5
DE
102
{ACAD_REACTORS
330
99
102
}
330
99
100
AcDbScale
 70
     0
300
1:40
140
1.0
141
40.0
290
     0
  0
SCALE
  5
DF
102
{ACAD_REACTORS
330
99
102
}
330
99
100
AcDbScale
 70
     0
300
1:50
140
1.0
141
50.0
290
     0
  0
SCALE
  5
E0
102
{ACAD_REACTORS
330
99
102
}
330
99
100
AcDbScale
 70
     0
300
1:100
140
1.0
141
100.0
290
     0
  0
SCALE
  5
E1
102
{ACAD_REACTORS
330
99
102
}
330
99
100
AcDbScale
 70
     0
300
2:1
140
2.0
141
1.0
290
     0
  0
SCALE
  5
E2
102
{ACAD_REACTORS
330
99
102
}
330
99
100
AcDbScale
 70
     0
300
4:1
140
4.0
141
1.0
290
     0
  0
SCALE
  5
E3
102
{ACAD_REACTORS
330
99
102
}
330
99
100
AcDbScale
 70
     0
300
8:1
140
8.0
141
1.0
290
     0
  0
SCALE
  5
E4
102
{ACAD_REACTORS
330
99
102
}
330
99
100
AcDbScale
 70
     0
300
10:1
140
10.0
141
1.0
290
     0
  0
SCALE
  5
E5
102
{ACAD_REACTORS
330
99
102
}
330
99
100
AcDbScale
 70
     0
300
100:1
140
100.0
141
1.0
290
     0
  0
SCALE
  5
E6
102
{ACAD_REACTORS
330
99
102
}
330
99
100
AcDbScale
 70
     0
300
1/128" = 1'-0"
140
0.0078125
141
12.0
290
     0
  0
SCALE
  5
E7
102
{ACAD_REACTORS
330
99
102
}
330
99
100
AcDbScale
 70
     0
300
1/64" = 1'-0"
140
0.015625
141
12.0
290
     0
  0
SCALE
  5
E8
102
{ACAD_REACTORS
330
99
102
}
330
99
100
AcDbScale
 70
     0
300
1/32" = 1'-0"
140
0.03125
141
12.0
290
     0
  0
SCALE
  5
E9
102
{ACAD_REACTORS
330
99
102
}
330
99
100
AcDbScale
 70
     0
300
1/16" = 1'-0"
140
0.0625
141
12.0
290
     0
  0
SCALE
  5
EA
102
{ACAD_REACTORS
330
99
102
}
330
99
100
AcDbScale
 70
     0
300
3/32" = 1'-0"
140
0.09375
141
12.0
290
     0
  0
SCALE
  5
EB
102
{ACAD_REACTORS
330
99
102
}
330
99
100
AcDbScale
 70
     0
300
1/8" = 1'-0"
140
0.125
141
12.0
290
     0
  0
SCALE
  5
EC
102
{ACAD_REACTORS
330
99
102
}
330
99
100
AcDbScale
 70
     0
300
3/16" = 1'-0"
140
0.1875
141
12.0
290
     0
  0
SCALE
  5
ED
102
{ACAD_REACTORS
330
99
102
}
330
99
100
AcDbScale
 70
     0
300
1/4" = 1'-0"
140
0.25
141
12.0
290
     0
  0
SCALE
  5
EE
102
{ACAD_REACTORS
330
99
102
}
330
99
100
AcDbScale
 70
     0
300
3/8" = 1'-0"
140
0.375
141
12.0
290
     0
  0
SCALE
  5
EF
102
{ACAD_REACTORS
330
99
102
}
330
99
100
AcDbScale
 70
     0
300
1/2" = 1'-0"
140
0.5
141
12.0
290
     0
  0
SCALE
  5
F0
102
{ACAD_REACTORS
330
99
102
}
330
99
100
AcDbScale
 70
     0
300
3/4" = 1'-0"
140
0.75
141
12.0
290
     0
  0
SCALE
  5
F1
102
{ACAD_REACTORS
330
99
102
}
330
99
100
AcDbScale
 70
     0
300
1" = 1'-0"
140
1.0
141
12.0
290
     0
  0
SCALE
  5
F2
102
{ACAD_REACTORS
330
99
102
}
330
99
100
AcDbScale
 70
     0
300
1-1/2" = 1'-0"
140
1.5
141
12.0
290
     0
  0
SCALE
  5
F3
102
{ACAD_REACTORS
330
99
102
}
330
99
100
AcDbScale
 70
     0
300
3" = 1'-0"
140
3.0
141
12.0
290
     0
  0
SCALE
  5
F4
102
{ACAD_REACTORS
330
99
102
}
330
99
100
AcDbScale
 70
     0
300
6" = 1'-0"
140
6.0
141
12.0
290
     0
  0
SCALE
  5
F5
102
{ACAD_REACTORS
330
99
102
}
330
99
100
AcDbScale
 70
     0
300
1'-0" = 1'-0"
140
12.0
141
12.0
290
     0
  0
XRECORD
  5
2B4
102
{ACAD_REACTORS
330
2B3
102
}
330
2B3
100
AcDbXrecord
280
     1
340
6C
  0
XRECORD
  5
2B5
102
{ACAD_REACTORS
330
2B3
102
}
330
2B3
100
AcDbXrecord
280
     1
340
6B
  0
DICTIONARYVAR
  5
98
102
{ACAD_REACTORS
330
59
102
}
330
59
100
DictionaryVariables
280
     0
  1
Standard
  0
DICTIONARYVAR
  5
5A
102
{ACAD_REACTORS
330
59
102
}
330
59
100
DictionaryVariables
280
     0
  1
2
  0
DICTIONARYVAR
  5
5E
102
{ACAD_REACTORS
330
59
102
}
330
59
100
DictionaryVariables
280
     0
  1
1
  0
ENDSEC
  0
EOF
