  0
SECTION
  2
HEADER
  9
$ACADVER
  1
AC1015
  9
$ACADMAINTVER
 70
     6
  9
$DWGCODEPAGE
  3
ANSI_1252
  9
$INSBASE
 10
0.0
 20
0.0
 30
0.0
  9
$EXTMIN
 10
115.9350510581619
 20
49.50000000000001
 30
0.0
  9
$EXTMAX
 10
634.9146253914953
 20
508.4793336429054
 30
0.0
  9
$LIMMIN
 10
0.0
 20
0.0
  9
$LIMMAX
 10
0.0
 20
0.0
  9
$ORTHOMODE
 70
     0
  9
$REGENMODE
 70
     1
  9
$FILLMODE
 70
     1
  9
$QTEXTMODE
 70
     0
  9
$MIRRTEXT
 70
     0
  9
$LTSCALE
 40
1.0
  9
$ATTMODE
 70
     1
  9
$TEXTSIZE
 40
2.5
  9
$TRACEWID
 40
1.0
  9
$TEXTSTYLE
  7
Standard
  9
$CLAYER
  8
0
  9
$CELTYPE
  6
ByLayer
  9
$CECOLOR
 62
   256
  9
$CELTSCALE
 40
1.0
  9
$DISPSILH
 70
     0
  9
$DIMSCALE
 40
1.0
  9
$DIMASZ
 40
2.5
  9
$DIMEXO
 40
0.625
  9
$DIMDLI
 40
3.75
  9
$DIMRND
 40
0.0
  9
$DIMDLE
 40
0.0
  9
$DIMEXE
 40
1.25
  9
$DIMTP
 40
0.0
  9
$DIMTM
 40
0.0
  9
$DIMTXT
 40
2.5
  9
$DIMCEN
 40
2.5
  9
$DIMTSZ
 40
0.0
  9
$DIMTOL
 70
     0
  9
$DIMLIM
 70
     0
  9
$DIMTIH
 70
     0
  9
$DIMTOH
 70
     0
  9
$DIMSE1
 70
     0
  9
$DIMSE2
 70
     0
  9
$DIMTAD
 70
     1
  9
$DIMZIN
 70
     8
  9
$DIMBLK
  1

  9
$DIMASO
 70
     1
  9
$DIMSHO
 70
     1
  9
$DIMPOST
  1

  9
$DIMAPOST
  1

  9
$DIMALT
 70
     0
  9
$DIMALTD
 70
     3
  9
$DIMALTF
 40
0.03937007874016
  9
$DIMLFAC
 40
1.0
  9
$DIMTOFL
 70
     1
  9
$DIMTVP
 40
0.0
  9
$DIMTIX
 70
     0
  9
$DIMSOXD
 70
     0
  9
$DIMSAH
 70
     0
  9
$DIMBLK1
  1

  9
$DIMBLK2
  1

  9
$DIMSTYLE
  2
ISO-25
  9
$DIMCLRD
 70
     0
  9
$DIMCLRE
 70
     0
  9
$DIMCLRT
 70
     0
  9
$DIMTFAC
 40
1.0
  9
$DIMGAP
 40
0.625
  9
$DIMJUST
 70
     0
  9
$DIMSD1
 70
     0
  9
$DIMSD2
 70
     0
  9
$DIMTOLJ
 70
     0
  9
$DIMTZIN
 70
     8
  9
$DIMALTZ
 70
     0
  9
$DIMALTTZ
 70
     0
  9
$DIMUPT
 70
     0
  9
$DIMDEC
 70
     2
  9
$DIMTDEC
 70
     2
  9
$DIMALTU
 70
     2
  9
$DIMALTTD
 70
     3
  9
$DIMTXSTY
  7
Standard
  9
$DIMAUNIT
 70
     0
  9
$DIMADEC
 70
     0
  9
$DIMALTRND
 40
0.0
  9
$DIMAZIN
 70
     0
  9
$DIMDSEP
 70
    44
  9
$DIMATFIT
 70
     3
  9
$DIMFRAC
 70
     0
  9
$DIMLDRBLK
  1

  9
$DIMLUNIT
 70
     2
  9
$DIMLWD
 70
    -2
  9
$DIMLWE
 70
    -2
  9
$DIMTMOVE
 70
     0
  9
$LUNITS
 70
     2
  9
$LUPREC
 70
     4
  9
$SKETCHINC
 40
1.0
  9
$FILLETRAD
 40
0.0
  9
$AUNITS
 70
     0
  9
$AUPREC
 70
     0
  9
$MENU
  1
.
  9
$ELEVATION
 40
0.0
  9
$PELEVATION
 40
0.0
  9
$THICKNESS
 40
0.0
  9
$LIMCHECK
 70
     0
  9
$CHAMFERA
 40
0.0
  9
$CHAMFERB
 40
0.0
  9
$CHAMFERC
 40
0.0
  9
$CHAMFERD
 40
0.0
  9
$SKPOLY
 70
     0
  9
$TDCREATE
 40
2455096.441583021
  9
$TDUCREATE
 40
2455096.358249688
  9
$TDUPDATE
 40
2455096.483249711
  9
$TDUUPDATE
 40
2455096.399916377
  9
$TDINDWG
 40
0.0306993056
  9
$TDUSRTIMER
 40
0.0306969329
  9
$USRTIMER
 70
     1
  9
$ANGBASE
 50
0.0
  9
$ANGDIR
 70
     0
  9
$PDMODE
 70
     0
  9
$PDSIZE
 40
0.0
  9
$PLINEWID
 40
0.0
  9
$SPLFRAME
 70
     0
  9
$SPLINETYPE
 70
     6
  9
$SPLINESEGS
 70
     8
  9
$HANDSEED
  5
173
  9
$SURFTAB1
 70
     6
  9
$SURFTAB2
 70
     6
  9
$SURFTYPE
 70
     6
  9
$SURFU
 70
     6
  9
$SURFV
 70
     6
  9
$UCSBASE
  2

  9
$UCSNAME
  2

  9
$UCSORG
 10
0.0
 20
0.0
 30
0.0
  9
$UCSXDIR
 10
1.0
 20
0.0
 30
0.0
  9
$UCSYDIR
 10
0.0
 20
1.0
 30
0.0
  9
$UCSORTHOREF
  2

  9
$UCSORTHOVIEW
 70
     0
  9
$UCSORGTOP
 10
0.0
 20
0.0
 30
0.0
  9
$UCSORGBOTTOM
 10
0.0
 20
0.0
 30
0.0
  9
$UCSORGLEFT
 10
0.0
 20
0.0
 30
0.0
  9
$UCSORGRIGHT
 10
0.0
 20
0.0
 30
0.0
  9
$UCSORGFRONT
 10
0.0
 20
0.0
 30
0.0
  9
$UCSORGBACK
 10
0.0
 20
0.0
 30
0.0
  9
$PUCSBASE
  2

  9
$PUCSNAME
  2

  9
$PUCSORG
 10
0.0
 20
0.0
 30
0.0
  9
$PUCSXDIR
 10
1.0
 20
0.0
 30
0.0
  9
$PUCSYDIR
 10
0.0
 20
1.0
 30
0.0
  9
$PUCSORTHOREF
  2

  9
$PUCSORTHOVIEW
 70
     0
  9
$PUCSORGTOP
 10
0.0
 20
0.0
 30
0.0
  9
$PUCSORGBOTTOM
 10
0.0
 20
0.0
 30
0.0
  9
$PUCSORGLEFT
 10
0.0
 20
0.0
 30
0.0
  9
$PUCSORGRIGHT
 10
0.0
 20
0.0
 30
0.0
  9
$PUCSORGFRONT
 10
0.0
 20
0.0
 30
0.0
  9
$PUCSORGBACK
 10
0.0
 20
0.0
 30
0.0
  9
$USERI1
 70
     0
  9
$USERI2
 70
     0
  9
$USERI3
 70
     0
  9
$USERI4
 70
     0
  9
$USERI5
 70
     0
  9
$USERR1
 40
0.0
  9
$USERR2
 40
0.0
  9
$USERR3
 40
0.0
  9
$USERR4
 40
0.0
  9
$USERR5
 40
0.0
  9
$WORLDVIEW
 70
     1
  9
$SHADEDGE
 70
     3
  9
$SHADEDIF
 70
    70
  9
$TILEMODE
 70
     1
  9
$MAXACTVP
 70
    64
  9
$PINSBASE
 10
0.0
 20
0.0
 30
0.0
  9
$PLIMCHECK
 70
     0
  9
$PEXTMIN
 10
0.0
 20
0.0
 30
0.0
  9
$PEXTMAX
 10
12.0
 20
9.0
 30
0.0
  9
$PLIMMIN
 10
0.0
 20
0.0
  9
$PLIMMAX
 10
12.0
 20
9.0
  9
$UNITMODE
 70
     0
  9
$VISRETAIN
 70
     1
  9
$PLINEGEN
 70
     0
  9
$PSLTSCALE
 70
     1
  9
$TREEDEPTH
 70
  3020
  9
$CMLSTYLE
  2
Standard
  9
$CMLJUST
 70
     0
  9
$CMLSCALE
 40
20.0
  9
$PROXYGRAPHICS
 70
     1
  9
$MEASUREMENT
 70
     1
  9
$CELWEIGHT
370
    -1
  9
$ENDCAPS
280
     0
  9
$JOINSTYLE
280
     0
  9
$LWDISPLAY
290
     0
  9
$INSUNITS
 70
     4
  9
$HYPERLINKBASE
  1

  9
$STYLESHEET
  1

  9
$XEDIT
290
     1
  9
$CEPSNTYPE
380
     0
  9
$PSTYLEMODE
290
     1
  9
$FINGERPRINTGUID
  2
{5559452E-1E62-4159-8551-BF76FFF3E7E8}
  9
$VERSIONGUID
  2
{3CEB9EF8-4431-4551-B596-6734A9F966A9}
  9
$EXTNAMES
290
     1
  9
$PSVPSCALE
 40
0.0
  9
$OLESTARTUP
290
     0
  0
ENDSEC
  0
SECTION
  2
CLASSES
  0
CLASS
  1
ACDBDICTIONARYWDFLT
  2
AcDbDictionaryWithDefault
  3
ObjectDBX Classes
 90
        0
280
     0
281
     0
  0
CLASS
  1
ACDBPLACEHOLDER
  2
AcDbPlaceHolder
  3
ObjectDBX Classes
 90
        0
280
     0
281
     0
  0
CLASS
  1
LAYOUT
  2
AcDbLayout
  3
ObjectDBX Classes
 90
        0
280
     0
281
     0
  0
CLASS
  1
DICTIONARYVAR
  2
AcDbDictionaryVar
  3
ObjectDBX Classes
 90
        0
280
     0
281
     0
  0
CLASS
  1
TABLESTYLE
  2
AcDbTableStyle
  3
ObjectDBX Classes
 90
     4095
280
     0
281
     0
  0
CLASS
  1
SCALE
  2
AcDbScale
  3
ObjectDBX Classes
 90
     1153
280
     0
281
     0
  0
ENDSEC
  0
SECTION
  2
TABLES
  0
TABLE
  2
VPORT
  5
8
330
0
100
AcDbSymbolTable
 70
     2
  0
VPORT
  5
97
330
8
100
AcDbSymbolTableRecord
100
AcDbViewportTableRecord
  2
*Active
 70
     0
 10
0.0
 20
0.0
 11
1.0
 21
1.0
 12
364.6108500367706
 22
255.6693629978925
 13
0.0
 23
0.0
 14
10.0
 24
10.0
 15
10.0
 25
10.0
 16
0.0
 26
0.0
 36
1.0
 17
0.0
 27
0.0
 37
0.0
 40
690.2815791039449
 41
1.664827586206897
 42
50.0
 43
0.0
 44
0.0
 50
0.0
 51
0.0
 71
     0
 72
  1000
 73
     1
 74
     3
 75
     0
 76
     0
 77
     0
 78
     0
281
     0
 65
     1
110
0.0
120
0.0
130
0.0
111
1.0
121
0.0
131
0.0
112
0.0
122
1.0
132
0.0
 79
     0
146
0.0
  0
ENDTAB
  0
TABLE
  2
LTYPE
  5
5
330
0
100
AcDbSymbolTable
 70
     2
  0
LTYPE
  5
14
330
5
100
AcDbSymbolTableRecord
100
AcDbLinetypeTableRecord
  2
ByBlock
 70
     0
  3

 72
    65
 73
     0
 40
0.0
  0
LTYPE
  5
15
330
5
100
AcDbSymbolTableRecord
100
AcDbLinetypeTableRecord
  2
ByLayer
 70
     0
  3

 72
    65
 73
     0
 40
0.0
  0
LTYPE
  5
16
330
5
100
AcDbSymbolTableRecord
100
AcDbLinetypeTableRecord
  2
Continuous
 70
     0
  3
Solid line
 72
    65
 73
     0
 40
0.0
  0
LTYPE
  5
15C
330
5
100
AcDbSymbolTableRecord
100
AcDbLinetypeTableRecord
  2
SOLID
 70
     0
  3

 72
    65
 73
     0
 40
0.0
  0
ENDTAB
  0
TABLE
  2
LAYER
  5
2
330
0
100
AcDbSymbolTable
 70
     3
  0
LAYER
  5
10
330
2
100
AcDbSymbolTableRecord
100
AcDbLayerTableRecord
  2
0
 70
     0
 62
     7
  6
Continuous
370
    -3
390
F
  0
LAYER
  5
F9
330
2
100
AcDbSymbolTableRecord
100
AcDbLayerTableRecord
  2
STANDARD_LAYER
 70
     0
 62
     7
  6
SOLID
370
    -3
390
F
  0
LAYER
  5
113
330
2
100
AcDbSymbolTableRecord
100
AcDbLayerTableRecord
  2
DEFPOINTS
 70
     0
 62
     7
  6
Continuous
290
     0
370
    -3
390
F
  0
ENDTAB
  0
TABLE
  2
STYLE
  5
3
330
0
100
AcDbSymbolTable
 70
     1
  0
STYLE
  5
11
330
3
100
AcDbSymbolTableRecord
100
AcDbTextStyleTableRecord
  2
Standard
 70
     0
 40
0.0
 41
1.0
 50
0.0
 71
     0
 42
2.5
  3
txt
  4

  0
ENDTAB
  0
TABLE
  2
VIEW
  5
6
330
0
100
AcDbSymbolTable
 70
     0
  0
ENDTAB
  0
TABLE
  2
UCS
  5
7
330
0
100
AcDbSymbolTable
 70
     0
  0
ENDTAB
  0
TABLE
  2
APPID
  5
9
330
0
100
AcDbSymbolTable
 70
     2
  0
APPID
  5
12
330
9
100
AcDbSymbolTableRecord
100
AcDbRegAppTableRecord
  2
ACAD
 70
     0
  0
APPID
  5
15B
330
9
100
AcDbSymbolTableRecord
100
AcDbRegAppTableRecord
  2
PROGE_PRINT_SETTINGS
 70
     0
  0
ENDTAB
  0
TABLE
  2
DIMSTYLE
  5
A
330
0
100
AcDbSymbolTable
 70
     2
100
AcDbDimStyleTable
  0
DIMSTYLE
105
27
102
{ACAD_REACTORS
330
10B
330
10C
330
10D
102
}
330
A
100
AcDbSymbolTableRecord
100
AcDbDimStyleTableRecord
  2
Standard
 70
     0
278
     0
340
11
  0
DIMSTYLE
105
29
330
A
100
AcDbSymbolTableRecord
100
AcDbDimStyleTableRecord
  2
ISO-25
 70
     0
 41
2.5
 42
0.625
 43
3.75
 44
1.25
 73
     0
 74
     0
 77
     1
 78
     8
140
2.5
141
2.5
143
0.03937007874016
147
0.625
171
     3
172
     1
271
     2
272
     2
274
     3
278
    44
283
     0
284
     8
340
11
  0
ENDTAB
  0
TABLE
  2
BLOCK_RECORD
  5
1
330
0
100
AcDbSymbolTable
 70
     7
  0
BLOCK_RECORD
  5
1F
330
1
100
AcDbSymbolTableRecord
100
AcDbBlockTableRecord
  2
*Model_Space
340
22
  0
BLOCK_RECORD
  5
73
330
1
100
AcDbSymbolTableRecord
100
AcDbBlockTableRecord
  2
*Paper_Space
340
15E
  0
BLOCK_RECORD
  5
D1
330
1
100
AcDbSymbolTableRecord
100
AcDbBlockTableRecord
  2
*Paper_Space0
340
74
  0
BLOCK_RECORD
  5
11E
330
1
100
AcDbSymbolTableRecord
100
AcDbBlockTableRecord
  2
*D1
340
0
  0
BLOCK_RECORD
  5
129
330
1
100
AcDbSymbolTableRecord
100
AcDbBlockTableRecord
  2
*D2
340
0
  0
BLOCK_RECORD
  5
136
330
1
100
AcDbSymbolTableRecord
100
AcDbBlockTableRecord
  2
*D3
340
0
  0
BLOCK_RECORD
  5
141
330
1
100
AcDbSymbolTableRecord
100
AcDbBlockTableRecord
  2
*D4
340
0
  0
BLOCK_RECORD
  5
14C
330
1
100
AcDbSymbolTableRecord
100
AcDbBlockTableRecord
  2
*D5
340
0
  0
BLOCK_RECORD
  5
159
330
1
100
AcDbSymbolTableRecord
100
AcDbBlockTableRecord
  2
*D6
340
0
  0
ENDTAB
  0
ENDSEC
  0
SECTION
  2
BLOCKS
  0
BLOCK
  5
20
330
1F
100
AcDbEntity
  8
0
100
AcDbBlockBegin
  2
*Model_Space
 70
     0
 10
0.0
 20
0.0
 30
0.0
  3
*Model_Space
  1

  0
ENDBLK
  5
21
330
1F
100
AcDbEntity
  8
0
100
AcDbBlockEnd
  0
BLOCK
  5
75
330
73
100
AcDbEntity
 67
     1
  8
0
100
AcDbBlockBegin
  2
*Paper_Space
 70
     0
 10
0.0
 20
0.0
 30
0.0
  3
*Paper_Space
  1

  0
ENDBLK
  5
76
330
73
100
AcDbEntity
 67
     1
  8
0
100
AcDbBlockEnd
  0
BLOCK
  5
15F
330
D1
100
AcDbEntity
  8
0
100
AcDbBlockBegin
  2
*Paper_Space0
 70
     0
 10
0.0
 20
0.0
 30
0.0
  3
*Paper_Space0
  1

  0
VIEWPORT
  5
16D
330
D1
100
AcDbEntity
  8
0
100
AcDbViewport
 10
7.8
 20
4.5
 30
0.0
 40
15.64
 41
9.0
 68
     1
 69
     1
 12
6.0
 22
4.5
 13
0.0
 23
0.0
 14
0.5
 24
0.5
 15
0.5
 25
0.5
 16
0.0
 26
0.0
 36
1.0
 17
0.0
 27
0.0
 37
0.0
 42
50.0
 43
0.0
 44
0.0
 45
12.0
 50
0.0
 51
0.0
 72
   100
 90
   557152
  1

281
     0
 71
     1
 74
     0
110
0.0
120
0.0
130
0.0
111
1.0
121
0.0
131
0.0
112
0.0
122
1.0
132
0.0
 79
     0
146
0.0
  0
ENDBLK
  5
160
330
D1
100
AcDbEntity
  8
0
100
AcDbBlockEnd
  0
BLOCK
  5
161
330
11E
100
AcDbEntity
  8
0
100
AcDbBlockBegin
  2
*D1
 70
     1
 10
0.0
 20
0.0
 30
0.0
  3
*D1
  1

  0
POINT
  5
115
330
11E
100
AcDbEntity
  8
DEFPOINTS
  6
ByBlock
 62
     7
380
     1
100
AcDbPoint
 10
116.3599437620246
 20
309.5176455024443
 30
0.0
  0
POINT
  5
116
330
11E
100
AcDbEntity
  8
DEFPOINTS
  6
ByBlock
 62
     7
380
     1
100
AcDbPoint
 10
511.8599437620246
 20
309.5176455024443
 30
0.0
  0
LINE
  5
117
330
11E
100
AcDbEntity
  8
0
  6
ByBlock
 62
     7
370
    -2
380
     1
100
AcDbLine
 10
116.3599437620246
 20
310.1426455024443
 30
0.0
 11
116.3599437620246
 21
483.7221805670828
 31
0.0
  0
LINE
  5
118
330
11E
100
AcDbEntity
  8
0
  6
ByBlock
 62
     7
370
    -2
380
     1
100
AcDbLine
 10
511.8599437620246
 20
310.1426455024443
 30
0.0
 11
511.8599437620246
 21
483.7221805670828
 31
0.0
  0
LINE
  5
119
330
11E
100
AcDbEntity
  8
0
  6
ByBlock
 62
     7
370
    -2
380
     1
100
AcDbLine
 10
126.3599437620246
 20
482.4721805670828
 30
0.0
 11
501.8599437620246
 21
482.4721805670828
 31
0.0
  0
SOLID
  5
11A
330
11E
100
AcDbEntity
  8
0
  6
ByBlock
 62
     7
380
     1
100
AcDbTrace
 10
116.3599437620246
 20
482.4721805670828
 30
0.0
 11
126.3599437620246
 21
480.8055139004161
 31
0.0
 12
126.3599437620246
 22
484.1388472337494
 32
0.0
 13
126.3599437620246
 23
484.1388472337494
 33
0.0
  0
SOLID
  5
11B
330
11E
100
AcDbEntity
  8
0
  6
ByBlock
 62
     7
380
     1
100
AcDbTrace
 10
511.8599437620246
 20
482.4721805670828
 30
0.0
 11
501.8599437620246
 21
480.8055139004161
 31
0.0
 12
501.8599437620246
 22
484.1388472337494
 32
0.0
 13
501.8599437620246
 23
484.1388472337494
 33
0.0
  0
MTEXT
  5
11C
330
11E
100
AcDbEntity
  8
0
  6
ByBlock
 62
     0
370
    -2
380
     1
100
AcDbMText
 10
314.1099437620246
 20
495.6388472337494
 30
0.0
 40
14.0
 41
0.0
 71
     5
 72
     1
  1
\A1;395,5
 73
     1
 44
1.0
  0
ENDBLK
  5
162
330
11E
100
AcDbEntity
  8
0
100
AcDbBlockEnd
  0
BLOCK
  5
163
330
129
100
AcDbEntity
  8
0
100
AcDbBlockBegin
  2
*D2
 70
     1
 10
0.0
 20
0.0
 30
0.0
  3
*D2
  1

  0
POINT
  5
120
330
129
100
AcDbEntity
  8
DEFPOINTS
  6
ByBlock
 62
     7
380
     1
100
AcDbPoint
 10
447.899117816202
 20
443.6793442575108
 30
0.0
  0
POINT
  5
121
330
129
100
AcDbEntity
  8
DEFPOINTS
  6
ByBlock
 62
     7
380
     1
100
AcDbPoint
 10
433.4819815818446
 20
48.17934425751074
 30
0.0
  0
LINE
  5
122
330
129
100
AcDbEntity
  8
0
  6
ByBlock
 62
     7
370
    -2
380
     1
100
AcDbLine
 10
448.524117816202
 20
443.6793442575108
 30
0.0
 11
555.835925950446
 21
443.6793442575108
 31
0.0
  0
LINE
  5
123
330
129
100
AcDbEntity
  8
0
  6
ByBlock
 62
     7
370
    -2
380
     1
100
AcDbLine
 10
434.1069815818446
 20
48.17934425751076
 30
0.0
 11
555.835925950446
 21
48.17934425751076
 31
0.0
  0
LINE
  5
124
330
129
100
AcDbEntity
  8
0
  6
ByBlock
 62
     7
370
    -2
380
     1
100
AcDbLine
 10
554.585925950446
 20
433.6793442575108
 30
0.0
 11
554.585925950446
 21
58.17934425751076
 31
0.0
  0
SOLID
  5
125
330
129
100
AcDbEntity
  8
0
  6
ByBlock
 62
     7
380
     1
100
AcDbTrace
 10
554.585925950446
 20
443.6793442575108
 30
0.0
 11
552.9192592837794
 21
433.6793442575108
 31
0.0
 12
556.2525926171127
 22
433.6793442575108
 32
0.0
 13
556.2525926171127
 23
433.6793442575108
 33
0.0
  0
SOLID
  5
126
330
129
100
AcDbEntity
  8
0
  6
ByBlock
 62
     7
380
     1
100
AcDbTrace
 10
554.585925950446
 20
48.17934425751076
 30
0.0
 11
552.9192592837794
 21
58.17934425751076
 31
0.0
 12
556.2525926171127
 22
58.17934425751076
 32
0.0
 13
556.2525926171127
 23
58.17934425751076
 33
0.0
  0
MTEXT
  5
127
330
129
100
AcDbEntity
  8
0
  6
ByBlock
 62
     0
370
    -2
380
     1
100
AcDbMText
 10
541.4192592837794
 20
245.9293442575108
 30
0.0
 40
14.0
 41
0.0
 71
     5
 72
     1
  1
\A1;395,5
 11
6.123031769111886E-17
 21
1.0
 31
0.0
 73
     1
 44
1.0
  0
ENDBLK
  5
164
330
129
100
AcDbEntity
  8
0
100
AcDbBlockEnd
  0
BLOCK
  5
165
330
136
100
AcDbEntity
  8
0
100
AcDbBlockBegin
  2
*D3
 70
     1
 10
0.0
 20
0.0
 30
0.0
  3
*D3
  1

  0
POINT
  5
12B
330
136
100
AcDbEntity
  8
DEFPOINTS
  6
ByBlock
 62
     7
380
     1
100
AcDbPoint
 10
593.0061847620246
 20
426.4076124318988
 30
0.0
  0
POINT
  5
12C
330
136
100
AcDbEntity
  8
DEFPOINTS
  6
ByBlock
 62
     7
380
     1
100
AcDbPoint
 10
596.0061847620246
 20
426.4076124318988
 30
0.0
  0
LINE
  5
12D
330
136
100
AcDbEntity
  8
0
  6
ByBlock
 62
     7
370
    -2
380
     1
100
AcDbLine
 10
593.0061847620246
 20
427.0326124318988
 30
0.0
 11
593.0061847620246
 21
483.7221805670828
 31
0.0
  0
LINE
  5
12E
330
136
100
AcDbEntity
  8
0
  6
ByBlock
 62
     7
370
    -2
380
     1
100
AcDbLine
 10
596.0061847620246
 20
427.0326124318988
 30
0.0
 11
596.0061847620246
 21
483.7221805670828
 31
0.0
  0
LINE
  5
12F
330
136
100
AcDbEntity
  8
0
  6
ByBlock
 62
     7
370
    -2
380
     1
100
AcDbLine
 10
583.0061847620246
 20
482.4721805670828
 30
0.0
 11
573.0061847620246
 21
482.4721805670828
 31
0.0
  0
LINE
  5
130
330
136
100
AcDbEntity
  8
0
  6
ByBlock
 62
     7
370
    -2
380
     1
100
AcDbLine
 10
606.0061847620246
 20
482.4721805670828
 30
0.0
 11
635.339518095358
 21
482.4721805670828
 31
0.0
  0
SOLID
  5
131
330
136
100
AcDbEntity
  8
0
  6
ByBlock
 62
     7
380
     1
100
AcDbTrace
 10
593.0061847620246
 20
482.4721805670828
 30
0.0
 11
583.0061847620246
 21
480.8055139004161
 31
0.0
 12
583.0061847620246
 22
484.1388472337495
 32
0.0
 13
583.0061847620246
 23
484.1388472337495
 33
0.0
  0
SOLID
  5
132
330
136
100
AcDbEntity
  8
0
  6
ByBlock
 62
     7
380
     1
100
AcDbTrace
 10
596.0061847620246
 20
482.4721805670828
 30
0.0
 11
606.0061847620246
 21
480.8055139004161
 31
0.0
 12
606.0061847620246
 22
484.1388472337495
 32
0.0
 13
606.0061847620246
 23
484.1388472337495
 33
0.0
  0
LINE
  5
133
330
136
100
AcDbEntity
  8
0
  6
ByBlock
 62
     7
370
    -2
380
     1
100
AcDbLine
 10
593.0061847620246
 20
482.4721805670828
 30
0.0
 11
596.0061847620246
 21
482.4721805670828
 31
0.0
  0
MTEXT
  5
134
330
136
100
AcDbEntity
  8
0
  6
ByBlock
 62
     0
370
    -2
380
     1
100
AcDbMText
 10
625.6728514286913
 20
494.4721805670828
 30
0.0
 40
14.0
 41
0.0
 71
     5
 72
     1
  1
\A1;3
 73
     1
 44
1.0
  0
ENDBLK
  5
166
330
136
100
AcDbEntity
  8
0
100
AcDbBlockEnd
  0
BLOCK
  5
167
330
141
100
AcDbEntity
  8
0
100
AcDbBlockBegin
  2
*D4
 70
     1
 10
0.0
 20
0.0
 30
0.0
  3
*D4
  1

  0
POINT
  5
138
330
141
100
AcDbEntity
  8
DEFPOINTS
  6
ByBlock
 62
     7
380
     1
100
AcDbPoint
 10
115.9350510581619
 20
314.1914652449336
 30
0.0
  0
POINT
  5
139
330
141
100
AcDbEntity
  8
DEFPOINTS
  6
ByBlock
 62
     7
380
     1
100
AcDbPoint
 10
511.4350510581619
 20
314.1914652449336
 30
0.0
  0
LINE
  5
13A
330
141
100
AcDbEntity
  8
0
  6
ByBlock
 62
     7
370
    -2
380
     1
100
AcDbLine
 10
115.9350510581619
 20
314.8164652449336
 30
0.0
 11
115.9350510581619
 21
488.3960003095721
 31
0.0
  0
LINE
  5
13B
330
141
100
AcDbEntity
  8
0
  6
ByBlock
 62
     7
370
    -2
380
     1
100
AcDbLine
 10
511.4350510581619
 20
314.8164652449336
 30
0.0
 11
511.4350510581619
 21
488.3960003095721
 31
0.0
  0
LINE
  5
13C
330
141
100
AcDbEntity
  8
0
  6
ByBlock
 62
     7
370
    -2
380
     1
100
AcDbLine
 10
125.9350510581619
 20
487.1460003095721
 30
0.0
 11
501.4350510581619
 21
487.1460003095721
 31
0.0
  0
SOLID
  5
13D
330
141
100
AcDbEntity
  8
0
  6
ByBlock
 62
     7
380
     1
100
AcDbTrace
 10
115.9350510581619
 20
487.1460003095721
 30
0.0
 11
125.9350510581619
 21
485.4793336429054
 31
0.0
 12
125.9350510581619
 22
488.8126669762387
 32
0.0
 13
125.9350510581619
 23
488.8126669762387
 33
0.0
  0
SOLID
  5
13E
330
141
100
AcDbEntity
  8
0
  6
ByBlock
 62
     7
380
     1
100
AcDbTrace
 10
511.4350510581619
 20
487.1460003095721
 30
0.0
 11
501.4350510581619
 21
485.4793336429054
 31
0.0
 12
501.4350510581619
 22
488.8126669762387
 32
0.0
 13
501.4350510581619
 23
488.8126669762387
 33
0.0
  0
MTEXT
  5
13F
330
141
100
AcDbEntity
  8
0
  6
ByBlock
 62
     0
370
    -2
380
     1
100
AcDbMText
 10
313.6850510581619
 20
500.3126669762387
 30
0.0
 40
14.0
 41
0.0
 71
     5
 72
     1
  1
\A1;395,5
 73
     1
 44
1.0
  0
ENDBLK
  5
168
330
141
100
AcDbEntity
  8
0
100
AcDbBlockEnd
  0
BLOCK
  5
169
330
14C
100
AcDbEntity
  8
0
100
AcDbBlockBegin
  2
*D5
 70
     1
 10
0.0
 20
0.0
 30
0.0
  3
*D5
  1

  0
POINT
  5
143
330
14C
100
AcDbEntity
  8
DEFPOINTS
  6
ByBlock
 62
     7
380
     1
100
AcDbPoint
 10
447.4742251123394
 20
448.3531640000001
 30
0.0
  0
POINT
  5
144
330
14C
100
AcDbEntity
  8
DEFPOINTS
  6
ByBlock
 62
     7
380
     1
100
AcDbPoint
 10
433.0570888779819
 20
52.85316400000001
 30
0.0
  0
LINE
  5
145
330
14C
100
AcDbEntity
  8
0
  6
ByBlock
 62
     7
370
    -2
380
     1
100
AcDbLine
 10
448.0992251123394
 20
448.3531640000001
 30
0.0
 11
555.4110332465833
 21
448.3531640000001
 31
0.0
  0
LINE
  5
146
330
14C
100
AcDbEntity
  8
0
  6
ByBlock
 62
     7
370
    -2
380
     1
100
AcDbLine
 10
433.6820888779819
 20
52.85316399999999
 30
0.0
 11
555.4110332465833
 21
52.85316399999999
 31
0.0
  0
LINE
  5
147
330
14C
100
AcDbEntity
  8
0
  6
ByBlock
 62
     7
370
    -2
380
     1
100
AcDbLine
 10
554.1610332465833
 20
438.3531640000001
 30
0.0
 11
554.1610332465833
 21
62.85316399999999
 31
0.0
  0
SOLID
  5
148
330
14C
100
AcDbEntity
  8
0
  6
ByBlock
 62
     7
380
     1
100
AcDbTrace
 10
554.1610332465833
 20
448.3531640000001
 30
0.0
 11
552.4943665799167
 21
438.3531640000001
 31
0.0
 12
555.82769991325
 22
438.3531640000001
 32
0.0
 13
555.82769991325
 23
438.3531640000001
 33
0.0
  0
SOLID
  5
149
330
14C
100
AcDbEntity
  8
0
  6
ByBlock
 62
     7
380
     1
100
AcDbTrace
 10
554.1610332465833
 20
52.85316399999999
 30
0.0
 11
552.4943665799167
 21
62.85316399999999
 31
0.0
 12
555.82769991325
 22
62.85316399999999
 32
0.0
 13
555.82769991325
 23
62.85316399999999
 33
0.0
  0
MTEXT
  5
14A
330
14C
100
AcDbEntity
  8
0
  6
ByBlock
 62
     0
370
    -2
380
     1
100
AcDbMText
 10
540.9943665799167
 20
250.603164
 30
0.0
 40
14.0
 41
0.0
 71
     5
 72
     1
  1
\A1;395,5
 11
6.123031769111886E-17
 21
1.0
 31
0.0
 73
     1
 44
1.0
  0
ENDBLK
  5
16A
330
14C
100
AcDbEntity
  8
0
100
AcDbBlockEnd
  0
BLOCK
  5
16B
330
159
100
AcDbEntity
  8
0
100
AcDbBlockBegin
  2
*D6
 70
     1
 10
0.0
 20
0.0
 30
0.0
  3
*D6
  1

  0
POINT
  5
14E
330
159
100
AcDbEntity
  8
DEFPOINTS
  6
ByBlock
 62
     7
380
     1
100
AcDbPoint
 10
592.5812920581619
 20
431.0814321743881
 30
0.0
  0
POINT
  5
14F
330
159
100
AcDbEntity
  8
DEFPOINTS
  6
ByBlock
 62
     7
380
     1
100
AcDbPoint
 10
595.5812920581619
 20
431.0814321743881
 30
0.0
  0
LINE
  5
150
330
159
100
AcDbEntity
  8
0
  6
ByBlock
 62
     7
370
    -2
380
     1
100
AcDbLine
 10
592.5812920581619
 20
431.7064321743881
 30
0.0
 11
592.5812920581619
 21
488.3960003095721
 31
0.0
  0
LINE
  5
151
330
159
100
AcDbEntity
  8
0
  6
ByBlock
 62
     7
370
    -2
380
     1
100
AcDbLine
 10
595.5812920581619
 20
431.7064321743881
 30
0.0
 11
595.5812920581619
 21
488.3960003095721
 31
0.0
  0
LINE
  5
152
330
159
100
AcDbEntity
  8
0
  6
ByBlock
 62
     7
370
    -2
380
     1
100
AcDbLine
 10
582.5812920581619
 20
487.1460003095721
 30
0.0
 11
572.5812920581619
 21
487.1460003095721
 31
0.0
  0
LINE
  5
153
330
159
100
AcDbEntity
  8
0
  6
ByBlock
 62
     7
370
    -2
380
     1
100
AcDbLine
 10
605.5812920581619
 20
487.1460003095721
 30
0.0
 11
634.9146253914953
 21
487.1460003095721
 31
0.0
  0
SOLID
  5
154
330
159
100
AcDbEntity
  8
0
  6
ByBlock
 62
     7
380
     1
100
AcDbTrace
 10
592.5812920581619
 20
487.1460003095721
 30
0.0
 11
582.5812920581619
 21
485.4793336429054
 31
0.0
 12
582.5812920581619
 22
488.8126669762387
 32
0.0
 13
582.5812920581619
 23
488.8126669762387
 33
0.0
  0
SOLID
  5
155
330
159
100
AcDbEntity
  8
0
  6
ByBlock
 62
     7
380
     1
100
AcDbTrace
 10
595.5812920581619
 20
487.1460003095721
 30
0.0
 11
605.5812920581619
 21
485.4793336429054
 31
0.0
 12
605.5812920581619
 22
488.8126669762387
 32
0.0
 13
605.5812920581619
 23
488.8126669762387
 33
0.0
  0
LINE
  5
156
330
159
100
AcDbEntity
  8
0
  6
ByBlock
 62
     7
370
    -2
380
     1
100
AcDbLine
 10
592.5812920581619
 20
487.1460003095721
 30
0.0
 11
595.5812920581619
 21
487.1460003095721
 31
0.0
  0
MTEXT
  5
157
330
159
100
AcDbEntity
  8
0
  6
ByBlock
 62
     0
370
    -2
380
     1
100
AcDbMText
 10
625.2479587248285
 20
499.1460003095721
 30
0.0
 40
14.0
 41
0.0
 71
     5
 72
     1
  1
\A1;3
 73
     1
 44
1.0
  0
ENDBLK
  5
16C
330
159
100
AcDbEntity
  8
0
100
AcDbBlockEnd
  0
ENDSEC
  0
SECTION
  2
ENTITIES
  0
CIRCLE
  5
FA
330
1F
100
AcDbEntity
  8
0
 62
     7
370
    60
100
AcDbCircle
 10
128.6850510581619
 20
250.603167
 30
0.0
 40
4.25
  0
CIRCLE
  5
FB
330
1F
100
AcDbEntity
  8
0
 62
     7
370
    60
100
AcDbCircle
 10
498.6850510581619
 20
250.603167
 30
0.0
 40
4.25
  0
LINE
  5
FC
330
1F
100
AcDbEntity
  8
0
 62
     7
370
    60
100
AcDbLine
 10
115.9350510581619
 20
67.853164
 30
0.0
 11
115.9350510581619
 21
433.3531640000001
 31
0.0
  0
LINE
  5
FD
330
1F
100
AcDbEntity
  8
0
 62
     7
370
    60
100
AcDbLine
 10
511.4350510581619
 20
67.853164
 30
0.0
 11
511.4350510581619
 21
433.3531640000001
 31
0.0
  0
LINE
  5
FE
330
1F
100
AcDbEntity
  8
0
 62
     7
370
    60
100
AcDbLine
 10
130.9350510581619
 20
448.3531640000001
 30
0.0
 11
496.4350510581619
 21
448.3531640000001
 31
0.0
  0
LINE
  5
FF
330
1F
100
AcDbEntity
  8
0
 62
     7
370
    60
100
AcDbLine
 10
130.9350510581619
 20
52.85316400000001
 30
0.0
 11
496.4350510581619
 21
52.85316400000001
 31
0.0
  0
ARC
  5
100
330
1F
100
AcDbEntity
  8
0
 62
     7
370
    60
100
AcDbCircle
 10
496.4350510581619
 20
433.3531640000001
 30
0.0
 40
15.0
100
AcDbArc
 50
0.0
 51
90.000003
  0
ARC
  5
101
330
1F
100
AcDbEntity
  8
0
 62
     7
370
    60
100
AcDbCircle
 10
130.9350510581619
 20
433.3531640000001
 30
0.0
 40
15.00000000000002
100
AcDbArc
 50
90.00000300000009
 51
180.000005
  0
ARC
  5
102
330
1F
100
AcDbEntity
  8
0
 62
     7
370
    60
100
AcDbCircle
 10
130.9350510581619
 20
67.853164
 30
0.0
 40
15.0
100
AcDbArc
 50
180.0000049999999
 51
270.0000009999999
  0
ARC
  5
103
330
1F
100
AcDbEntity
  8
0
 62
     7
370
    60
100
AcDbCircle
 10
496.4350510581619
 20
67.853164
 30
0.0
 40
15.0
100
AcDbArc
 50
270.0000009999997
 51
359.9999999999997
  0
CIRCLE
  5
104
330
1F
100
AcDbEntity
  8
0
 62
     7
370
    60
100
AcDbCircle
 10
313.6850510581619
 20
65.553161
 30
0.0
 40
4.25
  0
CIRCLE
  5
105
330
1F
100
AcDbEntity
  8
0
 62
     7
370
    60
100
AcDbCircle
 10
313.6850510581619
 20
435.6531670000001
 30
0.0
 40
4.25
  0
POINT
  5
106
330
1F
100
AcDbEntity
  8
0
 62
     7
370
    60
100
AcDbPoint
 10
595.5812920581619
 20
255.3000029999999
 30
0.0
  0
LINE
  5
107
330
1F
100
AcDbEntity
  8
0
 62
     7
 48
0.075
370
    60
100
AcDbLine
 10
592.5812920581619
 20
445.0000000000001
 30
0.0
 11
595.5812920581619
 21
445.0000000000001
 31
0.0
  0
LINE
  5
108
330
1F
100
AcDbEntity
  8
0
 62
     7
 48
0.075
370
    60
100
AcDbLine
 10
592.5812920581619
 20
49.50000000000001
 30
0.0
 11
595.5812920581619
 21
49.50000000000001
 31
0.0
  0
LINE
  5
109
330
1F
100
AcDbEntity
  8
0
 62
     7
370
    60
100
AcDbLine
 10
595.5812920581619
 20
49.50000000000001
 30
0.0
 11
595.5812920581619
 21
445.0000000000001
 31
0.0
  0
LINE
  5
10A
330
1F
100
AcDbEntity
  8
0
 62
     7
370
    60
100
AcDbLine
 10
592.5812920581619
 20
49.50000000000001
 30
0.0
 11
592.5812920581619
 21
445.0000000000001
 31
0.0
  0
DIMENSION
  5
10B
330
1F
100
AcDbEntity
  8
0
370
    25
100
AcDbDimension
  2
*D4
 10
511.4350510581619
 20
487.1460003095721
 30
0.0
 11
313.6850510581619
 21
500.3126669762387
 31
0.0
 70
   160
 71
     5
 41
2.5
 42
395.5
  3
Standard
100
AcDbAlignedDimension
 13
115.9350510581619
 23
314.1914652449336
 33
0.0
 14
511.4350510581619
 24
314.1914652449336
 34
0.0
100
AcDbRotatedDimension
1001
ACAD
1000
DSTYLE
1002
{
1070
   171
1070
     3
1070
   143
1040
0.03937
1070
   274
1070
     3
1070
    41
1040
10.0
1070
   289
1070
     0
1070
   141
1040
2.5
1070
   176
1070
     7
1070
   177
1070
     7
1070
   271
1070
     2
1070
    43
1040
3.75
1070
   278
1070
    44
1070
    44
1040
1.25
1070
    42
1040
0.625
1070
   147
1040
5.0
1070
    77
1070
     1
1070
   272
1070
     2
1070
    73
1070
     0
1070
   172
1070
     1
1070
    74
1070
     0
1070
   283
1070
     0
1070
   140
1040
14.0
1070
   284
1070
     8
1070
    78
1070
     8
1002
}
  0
DIMENSION
  5
10C
330
1F
100
AcDbEntity
  8
0
370
    25
100
AcDbDimension
  2
*D5
 10
554.1610332465833
 20
52.853164
 30
0.0
 11
540.9943665799167
 21
250.603164
 31
0.0
 70
    32
 71
     5
 41
2.5
 42
395.5000000000001
  3
Standard
100
AcDbAlignedDimension
 13
447.4742251123394
 23
448.3531640000001
 33
0.0
 14
433.0570888779819
 24
52.85316400000001
 34
0.0
 50
90.0
100
AcDbRotatedDimension
1001
ACAD
1000
DSTYLE
1002
{
1070
   171
1070
     3
1070
   143
1040
0.03937
1070
   274
1070
     3
1070
    41
1040
10.0
1070
   289
1070
     0
1070
   141
1040
2.5
1070
   176
1070
     7
1070
   177
1070
     7
1070
   271
1070
     2
1070
    43
1040
3.75
1070
   278
1070
    44
1070
    44
1040
1.25
1070
    42
1040
0.625
1070
   147
1040
5.0
1070
    77
1070
     1
1070
   272
1070
     2
1070
    73
1070
     0
1070
   172
1070
     1
1070
    74
1070
     0
1070
   283
1070
     0
1070
   140
1040
14.0
1070
   284
1070
     8
1070
    78
1070
     8
1002
}
  0
DIMENSION
  5
10D
330
1F
100
AcDbEntity
  8
0
370
    25
100
AcDbDimension
  2
*D6
 10
595.5812920581619
 20
487.1460003095721
 30
0.0
 11
625.2479587248285
 21
499.1460003095721
 31
0.0
 70
    32
 71
     5
 41
2.5
 42
3.0
  3
Standard
100
AcDbAlignedDimension
 13
592.5812920581619
 23
431.0814321743881
 33
0.0
 14
595.5812920581619
 24
431.0814321743881
 34
0.0
100
AcDbRotatedDimension
1001
ACAD
1000
DSTYLE
1002
{
1070
   171
1070
     3
1070
   143
1040
0.03937
1070
   274
1070
     3
1070
    41
1040
10.0
1070
   289
1070
     0
1070
   141
1040
2.5
1070
   176
1070
     7
1070
   177
1070
     7
1070
   271
1070
     2
1070
    43
1040
3.75
1070
   278
1070
    44
1070
    44
1040
1.25
1070
    42
1040
0.625
1070
   147
1040
5.0
1070
    77
1070
     1
1070
   272
1070
     2
1070
    73
1070
     0
1070
   172
1070
     1
1070
    74
1070
     0
1070
   283
1070
     0
1070
   140
1040
14.0
1070
   284
1070
     8
1070
    78
1070
     8
1002
}
  0
LINE
  5
10E
330
1F
100
AcDbEntity
  8
STANDARD_LAYER
370
    60
100
AcDbLine
 10
296.0963634491856
 20
264.752091938507
 30
0.0
 11
316.7780452091852
 21
292.664708618506
 31
0.0
  0
LINE
  5
10F
330
1F
100
AcDbEntity
  8
STANDARD_LAYER
370
    60
100
AcDbLine
 10
284.8681747691855
 20
235.6637137185068
 30
0.0
 11
305.5510988891853
 21
263.576517958506
 31
0.0
  0
LINE
  5
110
330
1F
100
AcDbEntity
  8
STANDARD_LAYER
370
    60
100
AcDbLine
 10
279.8459501291856
 20
256.2301261985069
 30
0.0
 11
300.5280703691853
 21
284.1432742985069
 31
0.0
  0
LINE
  5
111
330
1F
100
AcDbEntity
  8
STANDARD_LAYER
370
    60
100
AcDbLine
 10
313.5282089291856
 20
223.616818278507
 30
0.0
 11
334.2106945691855
 21
251.5296016785059
 31
0.0
  0
LINE
  5
112
330
1F
100
AcDbEntity
  8
STANDARD_LAYER
370
    60
100
AcDbLine
 10
330.6653018891854
 20
235.0756818585059
 30
0.0
 11
351.3475265291856
 21
262.9879338385069
 31
0.0
  0
VIEWPORT
  5
BB
330
73
100
AcDbEntity
 67
     1
  8
0
100
AcDbViewport
 10
7.8
 20
4.5
 30
0.0
 40
15.64
 41
9.0
 68
     1
 69
     1
 12
6.0
 22
4.5
 13
0.0
 23
0.0
 14
0.5
 24
0.5
 15
0.5
 25
0.5
 16
0.0
 26
0.0
 36
1.0
 17
0.0
 27
0.0
 37
0.0
 42
50.0
 43
0.0
 44
0.0
 45
12.0
 50
0.0
 51
0.0
 72
   100
 90
   557152
  1

281
     0
 71
     1
 74
     0
110
0.0
120
0.0
130
0.0
111
1.0
121
0.0
131
0.0
112
0.0
122
1.0
132
0.0
 79
     0
146
0.0
  0
ENDSEC
  0
SECTION
  2
OBJECTS
  0
DICTIONARY
  5
C
330
0
100
AcDbDictionary
281
     1
  3
ACAD_COLOR
350
6C
  3
ACAD_GROUP
350
D
  3
ACAD_LAYOUT
350
1A
  3
ACAD_MATERIAL
350
6B
  3
ACAD_MLEADERSTYLE
350
16E
  3
ACAD_MLINESTYLE
350
17
  3
ACAD_PLOTSETTINGS
350
19
  3
ACAD_PLOTSTYLENAME
350
E
  3
ACAD_SCALELIST
350
99
  3
ACAD_TABLESTYLE
350
92
  3
ACDBHEADERROUNDTRIPXREC
350
16F
  3
AcDbVariableDictionary
350
59
  3
DWGPROPS
350
172
  0
DICTIONARY
  5
6C
102
{ACAD_REACTORS
330
C
102
}
330
C
100
AcDbDictionary
281
     1
  0
DICTIONARY
  5
D
102
{ACAD_REACTORS
330
C
102
}
330
C
100
AcDbDictionary
281
     1
  0
DICTIONARY
  5
1A
102
{ACAD_REACTORS
330
C
102
}
330
C
100
AcDbDictionary
281
     1
  3
Layout1
350
74
  3
Layout2
350
15E
  3
Model
350
22
  0
DICTIONARY
  5
6B
102
{ACAD_REACTORS
330
C
102
}
330
C
100
AcDbDictionary
281
     1
  0
DICTIONARY
  5
16E
102
{ACAD_REACTORS
330
C
102
}
330
C
100
AcDbDictionary
281
     1
  0
DICTIONARY
  5
17
102
{ACAD_REACTORS
330
C
102
}
330
C
100
AcDbDictionary
281
     1
  3
Standard
350
18
  0
DICTIONARY
  5
19
102
{ACAD_REACTORS
330
C
102
}
330
C
100
AcDbDictionary
281
     1
  0
ACDBDICTIONARYWDFLT
  5
E
102
{ACAD_REACTORS
330
C
102
}
330
C
100
AcDbDictionary
281
     1
  3
Normal
350
F
100
AcDbDictionaryWithDefault
340
F
  0
DICTIONARY
  5
99
102
{ACAD_REACTORS
330
C
102
}
330
C
100
AcDbDictionary
281
     1
  3
A0
350
D5
  3
A1
350
D6
  3
A2
350
D7
  3
A3
350
D8
  3
A4
350
D9
  3
A5
350
DA
  3
A6
350
DB
  3
A7
350
DC
  3
A8
350
DD
  3
A9
350
DE
  3
B0
350
DF
  3
B1
350
E0
  3
B2
350
E1
  3
B3
350
E2
  3
B4
350
E3
  3
B5
350
E4
  3
B6
350
E5
  3
B7
350
E6
  3
B8
350
E7
  3
B9
350
E8
  3
C0
350
E9
  3
C1
350
EA
  3
C2
350
EB
  3
C3
350
EC
  3
C4
350
ED
  3
C5
350
EE
  3
C6
350
EF
  3
C7
350
F0
  3
C8
350
F1
  3
C9
350
F2
  3
D0
350
F3
  3
D1
350
F4
  3
D2
350
F5
  0
DICTIONARY
  5
92
102
{ACAD_REACTORS
330
C
102
}
330
C
100
AcDbDictionary
281
     1
  0
DICTIONARY
  5
16F
102
{ACAD_REACTORS
330
C
102
}
330
C
100
AcDbDictionary
281
     1
  3
COLORDICT
350
170
  3
MATERIALDICT
350
171
  0
DICTIONARY
  5
59
102
{ACAD_REACTORS
330
C
102
}
330
C
100
AcDbDictionary
281
     1
  3
CTABLESTYLE
350
98
  3
DIMASSOC
350
5A
  3
HIDETEXT
350
5E
  0
XRECORD
  5
172
102
{ACAD_REACTORS
330
C
102
}
330
C
100
AcDbXrecord
280
     1
  1
DWGPROPS COOKIE
  2

  3

  4

  6

  7

  8
BelottiMc
  9

300
=
301
=
302
=
303
=
304
=
305
=
306
=
307
=
308
=
309
=
 40
0.0
 41
2455096.358249688
 42
2455096.399916377
  1

 90
        0
  0
LAYOUT
  5
74
102
{ACAD_REACTORS
330
1A
102
}
330
1A
100
AcDbPlotSettings
  1

  2
ProgeSOFT PDF Wizard
  4
A4
  6

 40
5.926666666666667
 41
6.011333333333317
 42
6.095999999999985
 43
5.926666666666667
 44
210.0
 45
297.0
 46
88.56200000000001
 47
136.531
 48
0.0
 49
0.0
140
0.0
141
0.0
142
1.0
143
1.0
 70
   692
 72
     1
 73
     0
 74
     0
  7

 75
    16
147
1.0
148
4.426666666666668
149
1.5
100
AcDbLayout
  1
Layout1
 70
     1
 71
     1
 10
0.0
 20
0.0
 11
0.0
 21
0.0
 12
0.0
 22
0.0
 32
0.0
 14
0.0
 24
0.0
 34
0.0
 15
0.0
 25
0.0
 35
0.0
146
0.0
 13
0.0
 23
0.0
 33
0.0
 16
1.0
 26
0.0
 36
0.0
 17
0.0
 27
1.0
 37
0.0
 76
     0
330
D1
331
16D
1001
PROGE_PRINT_SETTINGS
1070
    73
1070
     1
  0
LAYOUT
  5
15E
102
{ACAD_REACTORS
330
1A
102
}
330
1A
100
AcDbPlotSettings
  1

  2
ProgeSOFT PDF Wizard
  4
A4
  6

 40
5.926666666666667
 41
6.011333333333317
 42
6.095999999999985
 43
5.926666666666667
 44
210.0
 45
297.0
 46
88.562
 47
136.531
 48
0.0
 49
0.0
140
0.0
141
0.0
142
1.0
143
1.0
 70
   692
 72
     1
 73
     0
 74
     0
  7

 75
    16
147
1.0
148
0.0
149
0.0
100
AcDbLayout
  1
Layout2
 70
     1
 71
     2
 10
0.0
 20
0.0
 11
12.0
 21
9.0
 12
0.0
 22
0.0
 32
0.0
 14
0.0
 24
0.0
 34
0.0
 15
12.0
 25
9.0
 35
0.0
146
0.0
 13
0.0
 23
0.0
 33
0.0
 16
1.0
 26
0.0
 36
0.0
 17
0.0
 27
1.0
 37
0.0
 76
     0
330
73
331
BB
1001
PROGE_PRINT_SETTINGS
1070
    73
1070
     1
  0
LAYOUT
  5
22
102
{ACAD_REACTORS
330
1A
102
}
330
1A
100
AcDbPlotSettings
  1

  2
none_device
  4
Letter_(8.50_x_11.00_Inches)
  6

 40
6.349999904632568
 41
6.349999904632568
 42
6.350006103515625
 43
6.350006103515625
 44
215.8999938964844
 45
279.3999938964844
 46
0.0
 47
0.0
 48
0.0
 49
0.0
140
0.0
141
0.0
142
1.0
143
4.308960882382419
 70
 11952
 72
     1
 73
     1
 74
     0
  7

 75
     0
147
0.2320745133910571
148
0.1311165230791651
149
0.096403374003771
100
AcDbLayout
  1
Model
 70
     1
 71
     0
 10
0.0
 20
0.0
 11
0.0
 21
0.0
 12
0.0
 22
0.0
 32
0.0
 14
115.9350510581619
 24
49.50000000000001
 34
0.0
 15
634.9146253914953
 25
508.4793336429054
 35
0.0
146
0.0
 13
0.0
 23
0.0
 33
0.0
 16
1.0
 26
0.0
 36
0.0
 17
0.0
 27
1.0
 37
0.0
 76
     0
330
1F
331
97
  0
MLINESTYLE
  5
18
102
{ACAD_REACTORS
330
17
102
}
330
17
100
AcDbMlineStyle
  2
STANDARD
 70
     0
  3

 62
   256
 51
90.0
 52
90.0
 71
     2
 49
0.5
 62
   256
  6
BYLAYER
 49
-0.5
 62
   256
  6
BYLAYER
  0
ACDBPLACEHOLDER
  5
F
102
{ACAD_REACTORS
330
E
102
}
330
E
  0
SCALE
  5
D5
102
{ACAD_REACTORS
330
99
102
}
330
99
100
AcDbScale
 70
     0
300
1:1
140
1.0
141
1.0
290
     1
  0
SCALE
  5
D6
102
{ACAD_REACTORS
330
99
102
}
330
99
100
AcDbScale
 70
     0
300
1:2
140
1.0
141
2.0
290
     0
  0
SCALE
  5
D7
102
{ACAD_REACTORS
330
99
102
}
330
99
100
AcDbScale
 70
     0
300
1:4
140
1.0
141
4.0
290
     0
  0
SCALE
  5
D8
102
{ACAD_REACTORS
330
99
102
}
330
99
100
AcDbScale
 70
     0
300
1:5
140
1.0
141
5.0
290
     0
  0
SCALE
  5
D9
102
{ACAD_REACTORS
330
99
102
}
330
99
100
AcDbScale
 70
     0
300
1:8
140
1.0
141
8.0
290
     0
  0
SCALE
  5
DA
102
{ACAD_REACTORS
330
99
102
}
330
99
100
AcDbScale
 70
     0
300
1:10
140
1.0
141
10.0
290
     0
  0
SCALE
  5
DB
102
{ACAD_REACTORS
330
99
102
}
330
99
100
AcDbScale
 70
     0
300
1:16
140
1.0
141
16.0
290
     0
  0
SCALE
  5
DC
102
{ACAD_REACTORS
330
99
102
}
330
99
100
AcDbScale
 70
     0
300
1:20
140
1.0
141
20.0
290
     0
  0
SCALE
  5
DD
102
{ACAD_REACTORS
330
99
102
}
330
99
100
AcDbScale
 70
     0
300
1:30
140
1.0
141
30.0
290
     0
  0
SCALE
  5
DE
102
{ACAD_REACTORS
330
99
102
}
330
99
100
AcDbScale
 70
     0
300
1:40
140
1.0
141
40.0
290
     0
  0
SCALE
  5
DF
102
{ACAD_REACTORS
330
99
102
}
330
99
100
AcDbScale
 70
     0
300
1:50
140
1.0
141
50.0
290
     0
  0
SCALE
  5
E0
102
{ACAD_REACTORS
330
99
102
}
330
99
100
AcDbScale
 70
     0
300
1:100
140
1.0
141
100.0
290
     0
  0
SCALE
  5
E1
102
{ACAD_REACTORS
330
99
102
}
330
99
100
AcDbScale
 70
     0
300
2:1
140
2.0
141
1.0
290
     0
  0
SCALE
  5
E2
102
{ACAD_REACTORS
330
99
102
}
330
99
100
AcDbScale
 70
     0
300
4:1
140
4.0
141
1.0
290
     0
  0
SCALE
  5
E3
102
{ACAD_REACTORS
330
99
102
}
330
99
100
AcDbScale
 70
     0
300
8:1
140
8.0
141
1.0
290
     0
  0
SCALE
  5
E4
102
{ACAD_REACTORS
330
99
102
}
330
99
100
AcDbScale
 70
     0
300
10:1
140
10.0
141
1.0
290
     0
  0
SCALE
  5
E5
102
{ACAD_REACTORS
330
99
102
}
330
99
100
AcDbScale
 70
     0
300
100:1
140
100.0
141
1.0
290
     0
  0
SCALE
  5
E6
102
{ACAD_REACTORS
330
99
102
}
330
99
100
AcDbScale
 70
     0
300
1/128" = 1'-0"
140
0.0078125
141
12.0
290
     0
  0
SCALE
  5
E7
102
{ACAD_REACTORS
330
99
102
}
330
99
100
AcDbScale
 70
     0
300
1/64" = 1'-0"
140
0.015625
141
12.0
290
     0
  0
SCALE
  5
E8
102
{ACAD_REACTORS
330
99
102
}
330
99
100
AcDbScale
 70
     0
300
1/32" = 1'-0"
140
0.03125
141
12.0
290
     0
  0
SCALE
  5
E9
102
{ACAD_REACTORS
330
99
102
}
330
99
100
AcDbScale
 70
     0
300
1/16" = 1'-0"
140
0.0625
141
12.0
290
     0
  0
SCALE
  5
EA
102
{ACAD_REACTORS
330
99
102
}
330
99
100
AcDbScale
 70
     0
300
3/32" = 1'-0"
140
0.09375
141
12.0
290
     0
  0
SCALE
  5
EB
102
{ACAD_REACTORS
330
99
102
}
330
99
100
AcDbScale
 70
     0
300
1/8" = 1'-0"
140
0.125
141
12.0
290
     0
  0
SCALE
  5
EC
102
{ACAD_REACTORS
330
99
102
}
330
99
100
AcDbScale
 70
     0
300
3/16" = 1'-0"
140
0.1875
141
12.0
290
     0
  0
SCALE
  5
ED
102
{ACAD_REACTORS
330
99
102
}
330
99
100
AcDbScale
 70
     0
300
1/4" = 1'-0"
140
0.25
141
12.0
290
     0
  0
SCALE
  5
EE
102
{ACAD_REACTORS
330
99
102
}
330
99
100
AcDbScale
 70
     0
300
3/8" = 1'-0"
140
0.375
141
12.0
290
     0
  0
SCALE
  5
EF
102
{ACAD_REACTORS
330
99
102
}
330
99
100
AcDbScale
 70
     0
300
1/2" = 1'-0"
140
0.5
141
12.0
290
     0
  0
SCALE
  5
F0
102
{ACAD_REACTORS
330
99
102
}
330
99
100
AcDbScale
 70
     0
300
3/4" = 1'-0"
140
0.75
141
12.0
290
     0
  0
SCALE
  5
F1
102
{ACAD_REACTORS
330
99
102
}
330
99
100
AcDbScale
 70
     0
300
1" = 1'-0"
140
1.0
141
12.0
290
     0
  0
SCALE
  5
F2
102
{ACAD_REACTORS
330
99
102
}
330
99
100
AcDbScale
 70
     0
300
1-1/2" = 1'-0"
140
1.5
141
12.0
290
     0
  0
SCALE
  5
F3
102
{ACAD_REACTORS
330
99
102
}
330
99
100
AcDbScale
 70
     0
300
3" = 1'-0"
140
3.0
141
12.0
290
     0
  0
SCALE
  5
F4
102
{ACAD_REACTORS
330
99
102
}
330
99
100
AcDbScale
 70
     0
300
6" = 1'-0"
140
6.0
141
12.0
290
     0
  0
SCALE
  5
F5
102
{ACAD_REACTORS
330
99
102
}
330
99
100
AcDbScale
 70
     0
300
1'-0" = 1'-0"
140
12.0
141
12.0
290
     0
  0
XRECORD
  5
170
102
{ACAD_REACTORS
330
16F
102
}
330
16F
100
AcDbXrecord
280
     1
340
6C
  0
XRECORD
  5
171
102
{ACAD_REACTORS
330
16F
102
}
330
16F
100
AcDbXrecord
280
     1
340
6B
  0
DICTIONARYVAR
  5
98
102
{ACAD_REACTORS
330
59
102
}
330
59
100
DictionaryVariables
280
     0
  1
Standard
  0
DICTIONARYVAR
  5
5A
102
{ACAD_REACTORS
330
59
102
}
330
59
100
DictionaryVariables
280
     0
  1
2
  0
DICTIONARYVAR
  5
5E
102
{ACAD_REACTORS
330
59
102
}
330
59
100
DictionaryVariables
280
     0
  1
1
  0
ENDSEC
  0
EOF
