  0
SECTION
  2
HEADER
  9
$ACADVER
  1
AC1015
  9
$ACADMAINTVER
 70
     6
  9
$DWGCODEPAGE
  3
ANSI_1252
  9
$INSBASE
 10
0.0
 20
0.0
 30
0.0
  9
$EXTMIN
 10
108.7118750924967
 20
54.63705908512321
 30
0.0
  9
$EXTMAX
 10
647.746048494217
 20
381.4751971554269
 30
0.0
  9
$LIMMIN
 10
0.0
 20
0.0
  9
$LIMMAX
 10
0.0
 20
0.0
  9
$ORTHOMODE
 70
     0
  9
$REGENMODE
 70
     1
  9
$FILLMODE
 70
     1
  9
$QTEXTMODE
 70
     0
  9
$MIRRTEXT
 70
     0
  9
$LTSCALE
 40
1.0
  9
$ATTMODE
 70
     1
  9
$TEXTSIZE
 40
2.5
  9
$TRACEWID
 40
1.0
  9
$TEXTSTYLE
  7
Standard
  9
$CLAYER
  8
0
  9
$CELTYPE
  6
ByLayer
  9
$CECOLOR
 62
   256
  9
$CELTSCALE
 40
1.0
  9
$DISPSILH
 70
     0
  9
$DIMSCALE
 40
1.0
  9
$DIMASZ
 40
2.5
  9
$DIMEXO
 40
0.625
  9
$DIMDLI
 40
3.75
  9
$DIMRND
 40
0.0
  9
$DIMDLE
 40
0.0
  9
$DIMEXE
 40
1.25
  9
$DIMTP
 40
0.0
  9
$DIMTM
 40
0.0
  9
$DIMTXT
 40
2.5
  9
$DIMCEN
 40
2.5
  9
$DIMTSZ
 40
0.0
  9
$DIMTOL
 70
     0
  9
$DIMLIM
 70
     0
  9
$DIMTIH
 70
     0
  9
$DIMTOH
 70
     0
  9
$DIMSE1
 70
     0
  9
$DIMSE2
 70
     0
  9
$DIMTAD
 70
     1
  9
$DIMZIN
 70
     8
  9
$DIMBLK
  1

  9
$DIMASO
 70
     1
  9
$DIMSHO
 70
     1
  9
$DIMPOST
  1

  9
$DIMAPOST
  1

  9
$DIMALT
 70
     0
  9
$DIMALTD
 70
     3
  9
$DIMALTF
 40
0.03937007874016
  9
$DIMLFAC
 40
1.0
  9
$DIMTOFL
 70
     1
  9
$DIMTVP
 40
0.0
  9
$DIMTIX
 70
     0
  9
$DIMSOXD
 70
     0
  9
$DIMSAH
 70
     0
  9
$DIMBLK1
  1

  9
$DIMBLK2
  1

  9
$DIMSTYLE
  2
ISO-25
  9
$DIMCLRD
 70
     0
  9
$DIMCLRE
 70
     0
  9
$DIMCLRT
 70
     0
  9
$DIMTFAC
 40
1.0
  9
$DIMGAP
 40
0.625
  9
$DIMJUST
 70
     0
  9
$DIMSD1
 70
     0
  9
$DIMSD2
 70
     0
  9
$DIMTOLJ
 70
     0
  9
$DIMTZIN
 70
     8
  9
$DIMALTZ
 70
     0
  9
$DIMALTTZ
 70
     0
  9
$DIMUPT
 70
     0
  9
$DIMDEC
 70
     2
  9
$DIMTDEC
 70
     2
  9
$DIMALTU
 70
     2
  9
$DIMALTTD
 70
     3
  9
$DIMTXSTY
  7
Standard
  9
$DIMAUNIT
 70
     0
  9
$DIMADEC
 70
     0
  9
$DIMALTRND
 40
0.0
  9
$DIMAZIN
 70
     0
  9
$DIMDSEP
 70
    44
  9
$DIMATFIT
 70
     3
  9
$DIMFRAC
 70
     0
  9
$DIMLDRBLK
  1

  9
$DIMLUNIT
 70
     2
  9
$DIMLWD
 70
    -2
  9
$DIMLWE
 70
    -2
  9
$DIMTMOVE
 70
     0
  9
$LUNITS
 70
     2
  9
$LUPREC
 70
     4
  9
$SKETCHINC
 40
1.0
  9
$FILLETRAD
 40
0.0
  9
$AUNITS
 70
     0
  9
$AUPREC
 70
     0
  9
$MENU
  1
.
  9
$ELEVATION
 40
0.0
  9
$PELEVATION
 40
0.0
  9
$THICKNESS
 40
0.0
  9
$LIMCHECK
 70
     0
  9
$CHAMFERA
 40
0.0
  9
$CHAMFERB
 40
0.0
  9
$CHAMFERC
 40
0.0
  9
$CHAMFERD
 40
0.0
  9
$SKPOLY
 70
     0
  9
$TDCREATE
 40
2455096.412837106
  9
$TDUCREATE
 40
2455096.329503773
  9
$TDUPDATE
 40
2455096.454503796
  9
$TDUUPDATE
 40
2455096.371170463
  9
$TDINDWG
 40
0.0304678241
  9
$TDUSRTIMER
 40
0.0304654514
  9
$USRTIMER
 70
     1
  9
$ANGBASE
 50
0.0
  9
$ANGDIR
 70
     0
  9
$PDMODE
 70
     0
  9
$PDSIZE
 40
0.0
  9
$PLINEWID
 40
0.0
  9
$SPLFRAME
 70
     0
  9
$SPLINETYPE
 70
     6
  9
$SPLINESEGS
 70
     8
  9
$HANDSEED
  5
2A3
  9
$SURFTAB1
 70
     6
  9
$SURFTAB2
 70
     6
  9
$SURFTYPE
 70
     6
  9
$SURFU
 70
     6
  9
$SURFV
 70
     6
  9
$UCSBASE
  2

  9
$UCSNAME
  2

  9
$UCSORG
 10
0.0
 20
0.0
 30
0.0
  9
$UCSXDIR
 10
1.0
 20
0.0
 30
0.0
  9
$UCSYDIR
 10
0.0
 20
1.0
 30
0.0
  9
$UCSORTHOREF
  2

  9
$UCSORTHOVIEW
 70
     0
  9
$UCSORGTOP
 10
0.0
 20
0.0
 30
0.0
  9
$UCSORGBOTTOM
 10
0.0
 20
0.0
 30
0.0
  9
$UCSORGLEFT
 10
0.0
 20
0.0
 30
0.0
  9
$UCSORGRIGHT
 10
0.0
 20
0.0
 30
0.0
  9
$UCSORGFRONT
 10
0.0
 20
0.0
 30
0.0
  9
$UCSORGBACK
 10
0.0
 20
0.0
 30
0.0
  9
$PUCSBASE
  2

  9
$PUCSNAME
  2

  9
$PUCSORG
 10
0.0
 20
0.0
 30
0.0
  9
$PUCSXDIR
 10
1.0
 20
0.0
 30
0.0
  9
$PUCSYDIR
 10
0.0
 20
1.0
 30
0.0
  9
$PUCSORTHOREF
  2

  9
$PUCSORTHOVIEW
 70
     0
  9
$PUCSORGTOP
 10
0.0
 20
0.0
 30
0.0
  9
$PUCSORGBOTTOM
 10
0.0
 20
0.0
 30
0.0
  9
$PUCSORGLEFT
 10
0.0
 20
0.0
 30
0.0
  9
$PUCSORGRIGHT
 10
0.0
 20
0.0
 30
0.0
  9
$PUCSORGFRONT
 10
0.0
 20
0.0
 30
0.0
  9
$PUCSORGBACK
 10
0.0
 20
0.0
 30
0.0
  9
$USERI1
 70
     0
  9
$USERI2
 70
     0
  9
$USERI3
 70
     0
  9
$USERI4
 70
     0
  9
$USERI5
 70
     0
  9
$USERR1
 40
0.0
  9
$USERR2
 40
0.0
  9
$USERR3
 40
0.0
  9
$USERR4
 40
0.0
  9
$USERR5
 40
0.0
  9
$WORLDVIEW
 70
     1
  9
$SHADEDGE
 70
     3
  9
$SHADEDIF
 70
    70
  9
$TILEMODE
 70
     1
  9
$MAXACTVP
 70
    64
  9
$PINSBASE
 10
0.0
 20
0.0
 30
0.0
  9
$PLIMCHECK
 70
     0
  9
$PEXTMIN
 10
0.0
 20
0.0
 30
0.0
  9
$PEXTMAX
 10
12.0
 20
9.0
 30
0.0
  9
$PLIMMIN
 10
0.0
 20
0.0
  9
$PLIMMAX
 10
12.0
 20
9.0
  9
$UNITMODE
 70
     0
  9
$VISRETAIN
 70
     1
  9
$PLINEGEN
 70
     0
  9
$PSLTSCALE
 70
     1
  9
$TREEDEPTH
 70
  3020
  9
$CMLSTYLE
  2
Standard
  9
$CMLJUST
 70
     0
  9
$CMLSCALE
 40
20.0
  9
$PROXYGRAPHICS
 70
     1
  9
$MEASUREMENT
 70
     1
  9
$CELWEIGHT
370
    -1
  9
$ENDCAPS
280
     0
  9
$JOINSTYLE
280
     0
  9
$LWDISPLAY
290
     0
  9
$INSUNITS
 70
     4
  9
$HYPERLINKBASE
  1

  9
$STYLESHEET
  1

  9
$XEDIT
290
     1
  9
$CEPSNTYPE
380
     0
  9
$PSTYLEMODE
290
     1
  9
$FINGERPRINTGUID
  2
{5559452E-1E62-4159-8551-BF76FFF3E7E8}
  9
$VERSIONGUID
  2
{3CEB9EF8-4431-4551-B596-6734A9F966A9}
  9
$EXTNAMES
290
     1
  9
$PSVPSCALE
 40
0.0
  9
$OLESTARTUP
290
     0
  0
ENDSEC
  0
SECTION
  2
CLASSES
  0
CLASS
  1
ACDBDICTIONARYWDFLT
  2
AcDbDictionaryWithDefault
  3
ObjectDBX Classes
 90
        0
280
     0
281
     0
  0
CLASS
  1
ACDBPLACEHOLDER
  2
AcDbPlaceHolder
  3
ObjectDBX Classes
 90
        0
280
     0
281
     0
  0
CLASS
  1
LAYOUT
  2
AcDbLayout
  3
ObjectDBX Classes
 90
        0
280
     0
281
     0
  0
CLASS
  1
DICTIONARYVAR
  2
AcDbDictionaryVar
  3
ObjectDBX Classes
 90
        0
280
     0
281
     0
  0
CLASS
  1
TABLESTYLE
  2
AcDbTableStyle
  3
ObjectDBX Classes
 90
     4095
280
     0
281
     0
  0
CLASS
  1
SCALE
  2
AcDbScale
  3
ObjectDBX Classes
 90
     1153
280
     0
281
     0
  0
ENDSEC
  0
SECTION
  2
TABLES
  0
TABLE
  2
VPORT
  5
8
330
0
100
AcDbSymbolTable
 70
     2
  0
VPORT
  5
97
330
8
100
AcDbSymbolTableRecord
100
AcDbViewportTableRecord
  2
*Active
 70
     0
 10
0.0
 20
0.0
 11
1.0
 21
1.0
 12
300.1043599834488
 22
141.3263742038814
 13
0.0
 23
0.0
 14
10.0
 24
10.0
 15
10.0
 25
10.0
 16
0.0
 26
0.0
 36
1.0
 17
0.0
 27
0.0
 37
0.0
 40
541.1807580174927
 41
1.664827586206897
 42
50.0
 43
0.0
 44
0.0
 50
0.0
 51
0.0
 71
     0
 72
  1000
 73
     1
 74
     3
 75
     0
 76
     0
 77
     0
 78
     0
281
     0
 65
     1
110
0.0
120
0.0
130
0.0
111
1.0
121
0.0
131
0.0
112
0.0
122
1.0
132
0.0
 79
     0
146
0.0
  0
ENDTAB
  0
TABLE
  2
LTYPE
  5
5
330
0
100
AcDbSymbolTable
 70
     1
  0
LTYPE
  5
14
330
5
100
AcDbSymbolTableRecord
100
AcDbLinetypeTableRecord
  2
ByBlock
 70
     0
  3

 72
    65
 73
     0
 40
0.0
  0
LTYPE
  5
15
330
5
100
AcDbSymbolTableRecord
100
AcDbLinetypeTableRecord
  2
ByLayer
 70
     0
  3

 72
    65
 73
     0
 40
0.0
  0
LTYPE
  5
16
330
5
100
AcDbSymbolTableRecord
100
AcDbLinetypeTableRecord
  2
Continuous
 70
     0
  3
Solid line
 72
    65
 73
     0
 40
0.0
  0
ENDTAB
  0
TABLE
  2
LAYER
  5
2
330
0
100
AcDbSymbolTable
 70
     2
  0
LAYER
  5
10
330
2
100
AcDbSymbolTableRecord
100
AcDbLayerTableRecord
  2
0
 70
     0
 62
     7
  6
Continuous
370
    -3
390
F
  0
LAYER
  5
262
330
2
100
AcDbSymbolTableRecord
100
AcDbLayerTableRecord
  2
DEFPOINTS
 70
     0
 62
     7
  6
Continuous
290
     0
370
    -3
390
F
  0
ENDTAB
  0
TABLE
  2
STYLE
  5
3
330
0
100
AcDbSymbolTable
 70
     1
  0
STYLE
  5
11
330
3
100
AcDbSymbolTableRecord
100
AcDbTextStyleTableRecord
  2
Standard
 70
     0
 40
0.0
 41
1.0
 50
0.0
 71
     0
 42
2.5
  3
txt
  4

  0
ENDTAB
  0
TABLE
  2
VIEW
  5
6
330
0
100
AcDbSymbolTable
 70
     0
  0
ENDTAB
  0
TABLE
  2
UCS
  5
7
330
0
100
AcDbSymbolTable
 70
     0
  0
ENDTAB
  0
TABLE
  2
APPID
  5
9
330
0
100
AcDbSymbolTable
 70
     2
  0
APPID
  5
12
330
9
100
AcDbSymbolTableRecord
100
AcDbRegAppTableRecord
  2
ACAD
 70
     0
  0
APPID
  5
290
330
9
100
AcDbSymbolTableRecord
100
AcDbRegAppTableRecord
  2
PROGE_PRINT_SETTINGS
 70
     0
  0
ENDTAB
  0
TABLE
  2
DIMSTYLE
  5
A
330
0
100
AcDbSymbolTable
 70
     2
100
AcDbDimStyleTable
  0
DIMSTYLE
105
27
102
{ACAD_REACTORS
330
260
330
261
102
}
330
A
100
AcDbSymbolTableRecord
100
AcDbDimStyleTableRecord
  2
Standard
 70
     0
278
     0
340
11
  0
DIMSTYLE
105
29
330
A
100
AcDbSymbolTableRecord
100
AcDbDimStyleTableRecord
  2
ISO-25
 70
     0
 41
2.5
 42
0.625
 43
3.75
 44
1.25
 73
     0
 74
     0
 77
     1
 78
     8
140
2.5
141
2.5
143
0.03937007874016
147
0.625
171
     3
172
     1
271
     2
272
     2
274
     3
278
    44
283
     0
284
     8
340
11
  0
ENDTAB
  0
TABLE
  2
BLOCK_RECORD
  5
1
330
0
100
AcDbSymbolTable
 70
     5
  0
BLOCK_RECORD
  5
1F
330
1
100
AcDbSymbolTableRecord
100
AcDbBlockTableRecord
  2
*Model_Space
340
22
  0
BLOCK_RECORD
  5
73
330
1
100
AcDbSymbolTableRecord
100
AcDbBlockTableRecord
  2
*Paper_Space
340
292
  0
BLOCK_RECORD
  5
D1
330
1
100
AcDbSymbolTableRecord
100
AcDbBlockTableRecord
  2
*Paper_Space0
340
74
  0
BLOCK_RECORD
  5
26D
330
1
100
AcDbSymbolTableRecord
100
AcDbBlockTableRecord
  2
*D1
340
0
  0
BLOCK_RECORD
  5
278
330
1
100
AcDbSymbolTableRecord
100
AcDbBlockTableRecord
  2
*D2
340
0
  0
BLOCK_RECORD
  5
283
330
1
100
AcDbSymbolTableRecord
100
AcDbBlockTableRecord
  2
*D3
340
0
  0
BLOCK_RECORD
  5
28E
330
1
100
AcDbSymbolTableRecord
100
AcDbBlockTableRecord
  2
*D4
340
0
  0
ENDTAB
  0
ENDSEC
  0
SECTION
  2
BLOCKS
  0
BLOCK
  5
20
330
1F
100
AcDbEntity
  8
0
100
AcDbBlockBegin
  2
*Model_Space
 70
     0
 10
0.0
 20
0.0
 30
0.0
  3
*Model_Space
  1

  0
ENDBLK
  5
21
330
1F
100
AcDbEntity
  8
0
100
AcDbBlockEnd
  0
BLOCK
  5
75
330
73
100
AcDbEntity
 67
     1
  8
0
100
AcDbBlockBegin
  2
*Paper_Space
 70
     0
 10
0.0
 20
0.0
 30
0.0
  3
*Paper_Space
  1

  0
ENDBLK
  5
76
330
73
100
AcDbEntity
 67
     1
  8
0
100
AcDbBlockEnd
  0
BLOCK
  5
293
330
D1
100
AcDbEntity
  8
0
100
AcDbBlockBegin
  2
*Paper_Space0
 70
     0
 10
0.0
 20
0.0
 30
0.0
  3
*Paper_Space0
  1

  0
VIEWPORT
  5
29D
330
D1
100
AcDbEntity
  8
0
100
AcDbViewport
 10
7.8
 20
4.5
 30
0.0
 40
15.64
 41
9.0
 68
     1
 69
     1
 12
6.0
 22
4.5
 13
0.0
 23
0.0
 14
0.5
 24
0.5
 15
0.5
 25
0.5
 16
0.0
 26
0.0
 36
1.0
 17
0.0
 27
0.0
 37
0.0
 42
50.0
 43
0.0
 44
0.0
 45
12.0
 50
0.0
 51
0.0
 72
   100
 90
   557152
  1

281
     0
 71
     1
 74
     0
110
0.0
120
0.0
130
0.0
111
1.0
121
0.0
131
0.0
112
0.0
122
1.0
132
0.0
 79
     0
146
0.0
  0
ENDBLK
  5
294
330
D1
100
AcDbEntity
  8
0
100
AcDbBlockEnd
  0
BLOCK
  5
295
330
26D
100
AcDbEntity
  8
0
100
AcDbBlockBegin
  2
*D1
 70
     1
 10
0.0
 20
0.0
 30
0.0
  3
*D1
  1

  0
POINT
  5
264
330
26D
100
AcDbEntity
  8
DEFPOINTS
  6
ByBlock
 62
     7
380
     1
100
AcDbPoint
 10
501.2884443414237
 20
325.8218884120171
 30
0.0
  0
POINT
  5
265
330
26D
100
AcDbEntity
  8
DEFPOINTS
  6
ByBlock
 62
     7
380
     1
100
AcDbPoint
 10
505.3924793414237
 20
72.82188841201709
 30
0.0
  0
LINE
  5
266
330
26D
100
AcDbEntity
  8
0
  6
ByBlock
 62
     7
370
    -2
380
     1
100
AcDbLine
 10
501.9134443414237
 20
325.8218884120171
 30
0.0
 11
619.7113560764774
 21
325.8218884120171
 31
0.0
  0
LINE
  5
267
330
26D
100
AcDbEntity
  8
0
  6
ByBlock
 62
     7
370
    -2
380
     1
100
AcDbLine
 10
506.0174793414237
 20
72.82188841201707
 30
0.0
 11
619.7113560764774
 21
72.82188841201707
 31
0.0
  0
LINE
  5
268
330
26D
100
AcDbEntity
  8
0
  6
ByBlock
 62
     7
370
    -2
380
     1
100
AcDbLine
 10
618.4613560764774
 20
315.8218884120171
 30
0.0
 11
618.4613560764774
 21
82.82188841201707
 31
0.0
  0
SOLID
  5
269
330
26D
100
AcDbEntity
  8
0
  6
ByBlock
 62
     7
380
     1
100
AcDbTrace
 10
618.4613560764774
 20
325.8218884120171
 30
0.0
 11
616.7946894098108
 21
315.8218884120171
 31
0.0
 12
620.128022743144
 22
315.8218884120171
 32
0.0
 13
620.128022743144
 23
315.8218884120171
 33
0.0
  0
SOLID
  5
26A
330
26D
100
AcDbEntity
  8
0
  6
ByBlock
 62
     7
380
     1
100
AcDbTrace
 10
618.4613560764774
 20
72.82188841201707
 30
0.0
 11
616.7946894098108
 21
82.82188841201707
 31
0.0
 12
620.128022743144
 22
82.82188841201707
 32
0.0
 13
620.128022743144
 23
82.82188841201707
 33
0.0
  0
MTEXT
  5
26B
330
26D
100
AcDbEntity
  8
0
  6
ByBlock
 62
     0
370
    -2
380
     1
100
AcDbMText
 10
606.4613560764774
 20
199.3218884120171
 30
0.0
 40
14.0
 41
0.0
 71
     5
 72
     1
  1
\A1;253
 11
6.123031769111886E-17
 21
1.0
 31
0.0
 73
     1
 44
1.0
  0
ENDBLK
  5
296
330
26D
100
AcDbEntity
  8
0
100
AcDbBlockEnd
  0
BLOCK
  5
297
330
278
100
AcDbEntity
  8
0
100
AcDbBlockBegin
  2
*D2
 70
     1
 10
0.0
 20
0.0
 30
0.0
  3
*D2
  1

  0
POINT
  5
26F
330
278
100
AcDbEntity
  8
DEFPOINTS
  6
ByBlock
 62
     7
380
     1
100
AcDbPoint
 10
81.09384934142372
 20
239.6415819137783
 30
0.0
  0
POINT
  5
270
330
278
100
AcDbEntity
  8
DEFPOINTS
  6
ByBlock
 62
     7
380
     1
100
AcDbPoint
 10
571.0938493414237
 20
239.6415819137783
 30
0.0
  0
LINE
  5
271
330
278
100
AcDbEntity
  8
0
  6
ByBlock
 62
     7
370
    -2
380
     1
100
AcDbLine
 10
81.09384934142372
 20
240.2665819137783
 30
0.0
 11
81.09384934142372
 21
370.9483731210922
 31
0.0
  0
LINE
  5
272
330
278
100
AcDbEntity
  8
0
  6
ByBlock
 62
     7
370
    -2
380
     1
100
AcDbLine
 10
571.0938493414237
 20
240.2665819137783
 30
0.0
 11
571.0938493414237
 21
370.9483731210922
 31
0.0
  0
LINE
  5
273
330
278
100
AcDbEntity
  8
0
  6
ByBlock
 62
     7
370
    -2
380
     1
100
AcDbLine
 10
91.09384934142372
 20
369.6983731210922
 30
0.0
 11
561.0938493414237
 21
369.6983731210922
 31
0.0
  0
SOLID
  5
274
330
278
100
AcDbEntity
  8
0
  6
ByBlock
 62
     7
380
     1
100
AcDbTrace
 10
81.09384934142372
 20
369.6983731210922
 30
0.0
 11
91.09384934142372
 21
368.0317064544255
 31
0.0
 12
91.09384934142372
 22
371.3650397877589
 32
0.0
 13
91.09384934142372
 23
371.3650397877589
 33
0.0
  0
SOLID
  5
275
330
278
100
AcDbEntity
  8
0
  6
ByBlock
 62
     7
380
     1
100
AcDbTrace
 10
571.0938493414237
 20
369.6983731210922
 30
0.0
 11
561.0938493414237
 21
368.0317064544255
 31
0.0
 12
561.0938493414237
 22
371.3650397877589
 32
0.0
 13
561.0938493414237
 23
371.3650397877589
 33
0.0
  0
MTEXT
  5
276
330
278
100
AcDbEntity
  8
0
  6
ByBlock
 62
     0
370
    -2
380
     1
100
AcDbMText
 10
326.0938493414237
 20
381.6983731210922
 30
0.0
 40
14.0
 41
0.0
 71
     5
 72
     1
  1
\A1;490
 73
     1
 44
1.0
  0
ENDBLK
  5
298
330
278
100
AcDbEntity
  8
0
100
AcDbBlockEnd
  0
BLOCK
  5
299
330
283
100
AcDbEntity
  8
0
100
AcDbBlockBegin
  2
*D3
 70
     1
 10
0.0
 20
0.0
 30
0.0
  3
*D3
  1

  0
POINT
  5
27A
330
283
100
AcDbEntity
  8
DEFPOINTS
  6
ByBlock
 62
     7
380
     1
100
AcDbPoint
 10
108.7118750924967
 20
232.4184059481131
 30
0.0
  0
POINT
  5
27B
330
283
100
AcDbEntity
  8
DEFPOINTS
  6
ByBlock
 62
     7
380
     1
100
AcDbPoint
 10
598.7118750924967
 20
232.4184059481131
 30
0.0
  0
LINE
  5
27C
330
283
100
AcDbEntity
  8
0
  6
ByBlock
 62
     7
370
    -2
380
     1
100
AcDbLine
 10
108.7118750924967
 20
233.0434059481131
 30
0.0
 11
108.7118750924967
 21
363.7251971554269
 31
0.0
  0
LINE
  5
27D
330
283
100
AcDbEntity
  8
0
  6
ByBlock
 62
     7
370
    -2
380
     1
100
AcDbLine
 10
598.7118750924967
 20
233.0434059481131
 30
0.0
 11
598.7118750924967
 21
363.7251971554269
 31
0.0
  0
LINE
  5
27E
330
283
100
AcDbEntity
  8
0
  6
ByBlock
 62
     7
370
    -2
380
     1
100
AcDbLine
 10
118.7118750924967
 20
362.4751971554269
 30
0.0
 11
588.7118750924967
 21
362.4751971554269
 31
0.0
  0
SOLID
  5
27F
330
283
100
AcDbEntity
  8
0
  6
ByBlock
 62
     7
380
     1
100
AcDbTrace
 10
108.7118750924967
 20
362.4751971554269
 30
0.0
 11
118.7118750924967
 21
360.8085304887603
 31
0.0
 12
118.7118750924967
 22
364.1418638220936
 32
0.0
 13
118.7118750924967
 23
364.1418638220936
 33
0.0
  0
SOLID
  5
280
330
283
100
AcDbEntity
  8
0
  6
ByBlock
 62
     7
380
     1
100
AcDbTrace
 10
598.7118750924967
 20
362.4751971554269
 30
0.0
 11
588.7118750924967
 21
360.8085304887603
 31
0.0
 12
588.7118750924967
 22
364.1418638220936
 32
0.0
 13
588.7118750924967
 23
364.1418638220936
 33
0.0
  0
MTEXT
  5
281
330
283
100
AcDbEntity
  8
0
  6
ByBlock
 62
     0
370
    -2
380
     1
100
AcDbMText
 10
353.7118750924967
 20
374.4751971554269
 30
0.0
 40
14.0
 41
0.0
 71
     5
 72
     1
  1
\A1;490
 73
     1
 44
1.0
  0
ENDBLK
  5
29A
330
283
100
AcDbEntity
  8
0
100
AcDbBlockEnd
  0
BLOCK
  5
29B
330
28E
100
AcDbEntity
  8
0
100
AcDbBlockBegin
  2
*D4
 70
     1
 10
0.0
 20
0.0
 30
0.0
  3
*D4
  1

  0
POINT
  5
285
330
28E
100
AcDbEntity
  8
DEFPOINTS
  6
ByBlock
 62
     7
380
     1
100
AcDbPoint
 10
528.9064700924966
 20
318.5987124463518
 30
0.0
  0
POINT
  5
286
330
28E
100
AcDbEntity
  8
DEFPOINTS
  6
ByBlock
 62
     7
380
     1
100
AcDbPoint
 10
533.0105050924967
 20
65.59871244635187
 30
0.0
  0
LINE
  5
287
330
28E
100
AcDbEntity
  8
0
  6
ByBlock
 62
     7
370
    -2
380
     1
100
AcDbLine
 10
529.5314700924966
 20
318.5987124463518
 30
0.0
 11
647.3293818275504
 21
318.5987124463518
 31
0.0
  0
LINE
  5
288
330
28E
100
AcDbEntity
  8
0
  6
ByBlock
 62
     7
370
    -2
380
     1
100
AcDbLine
 10
533.6355050924967
 20
65.59871244635187
 30
0.0
 11
647.3293818275504
 21
65.59871244635187
 31
0.0
  0
LINE
  5
289
330
28E
100
AcDbEntity
  8
0
  6
ByBlock
 62
     7
370
    -2
380
     1
100
AcDbLine
 10
646.0793818275504
 20
308.5987124463518
 30
0.0
 11
646.0793818275504
 21
75.59871244635187
 31
0.0
  0
SOLID
  5
28A
330
28E
100
AcDbEntity
  8
0
  6
ByBlock
 62
     7
380
     1
100
AcDbTrace
 10
646.0793818275504
 20
318.5987124463518
 30
0.0
 11
644.4127151608837
 21
308.5987124463518
 31
0.0
 12
647.746048494217
 22
308.5987124463518
 32
0.0
 13
647.746048494217
 23
308.5987124463518
 33
0.0
  0
SOLID
  5
28B
330
28E
100
AcDbEntity
  8
0
  6
ByBlock
 62
     7
380
     1
100
AcDbTrace
 10
646.0793818275504
 20
65.59871244635187
 30
0.0
 11
644.4127151608837
 21
75.59871244635187
 31
0.0
 12
647.746048494217
 22
75.59871244635187
 32
0.0
 13
647.746048494217
 23
75.59871244635187
 33
0.0
  0
MTEXT
  5
28C
330
28E
100
AcDbEntity
  8
0
  6
ByBlock
 62
     0
370
    -2
380
     1
100
AcDbMText
 10
634.0793818275504
 20
192.0987124463518
 30
0.0
 40
14.0
 41
0.0
 71
     5
 72
     1
  1
\A1;253
 11
6.123031769111886E-17
 21
1.0
 31
0.0
 73
     1
 44
1.0
  0
ENDBLK
  5
29C
330
28E
100
AcDbEntity
  8
0
100
AcDbBlockEnd
  0
ENDSEC
  0
SECTION
  2
ENTITIES
  0
ARC
  5
F8
330
1F
100
AcDbEntity
  8
0
 62
     7
370
    60
100
AcDbCircle
 10
484.2223880924967
 20
192.0964184463519
 30
0.0
 40
2.760545999999945
100
AcDbArc
 50
155.4276479999999
 51
179.9523709999999
  0
LINE
  5
F9
330
1F
100
AcDbEntity
  8
0
 62
     7
 48
0.146359
370
    60
100
AcDbLine
 10
481.7118750924967
 20
199.0987124463519
 30
0.0
 11
481.7118750924967
 21
193.2443564463519
 31
0.0
  0
ARC
  5
FA
330
1F
100
AcDbEntity
  8
0
 62
     7
370
    60
100
AcDbCircle
 10
484.2118750924967
 20
192.0987124463519
 30
0.0
 40
2.749999999999967
100
AcDbArc
 50
204.6199820000008
 51
155.3800100000008
  0
LINE
  5
FB
330
1F
100
AcDbEntity
  8
0
 62
     7
 48
0.146359
370
    60
100
AcDbLine
 10
481.7118750924967
 20
190.9530684463519
 30
0.0
 11
481.7118750924967
 21
185.0987124463519
 31
0.0
  0
LINE
  5
FC
330
1F
100
AcDbEntity
  8
0
 62
     7
 48
0.125
370
    60
100
AcDbLine
 10
476.7118750924967
 20
185.0987124463519
 30
0.0
 11
481.7118750924967
 21
185.0987124463519
 31
0.0
  0
LINE
  5
FD
330
1F
100
AcDbEntity
  8
0
 62
     7
 48
0.35
370
    60
100
AcDbLine
 10
476.7118750924967
 20
199.0987124463519
 30
0.0
 11
476.7118750924967
 21
185.0987124463519
 31
0.0
  0
LINE
  5
FE
330
1F
100
AcDbEntity
  8
0
 62
     7
 48
0.125
370
    60
100
AcDbLine
 10
476.7118750924967
 20
199.0987124463519
 30
0.0
 11
481.7118750924967
 21
199.0987124463519
 31
0.0
  0
ARC
  5
FF
330
1F
100
AcDbEntity
  8
0
 62
     7
370
    60
100
AcDbCircle
 10
484.2218240924967
 20
192.1008824463519
 30
0.0
 40
2.759966000000053
100
AcDbArc
 50
180.0450610000003
 51
204.5749210000003
  0
LINE
  5
100
330
1F
100
AcDbEntity
  8
0
 62
     7
 48
0.0625
370
    60
100
AcDbLine
 10
481.7118750924967
 20
185.0987124463519
 30
0.0
 11
484.2118750924967
 21
185.0987124463519
 31
0.0
  0
ARC
  5
101
330
1F
100
AcDbEntity
  8
0
 62
     7
370
    60
100
AcDbCircle
 10
484.2118750924967
 20
192.0987124463519
 30
0.0
 40
7.000000000000001
100
AcDbArc
 50
270.0000009999995
 51
89.99999199999961
  0
LINE
  5
102
330
1F
100
AcDbEntity
  8
0
 62
     7
 48
0.0625
370
    60
100
AcDbLine
 10
484.2118750924967
 20
199.0987124463519
 30
0.0
 11
481.7118750924967
 21
199.0987124463519
 31
0.0
  0
ARC
  5
103
330
1F
100
AcDbEntity
  8
0
 62
     7
370
    60
100
AcDbCircle
 10
353.7140450924967
 20
322.6086614463518
 30
0.0
 40
2.759966000000015
100
AcDbArc
 50
245.4250789999994
 51
269.9549459999994
  0
LINE
  5
104
330
1F
100
AcDbEntity
  8
0
 62
     7
 48
0.146359
370
    60
100
AcDbLine
 10
346.7118750924967
 20
320.0987124463518
 30
0.0
 11
352.5662310924967
 21
320.0987124463518
 31
0.0
  0
ARC
  5
105
330
1F
100
AcDbEntity
  8
0
 62
     7
370
    60
100
AcDbCircle
 10
353.7118750924967
 20
322.5987124463518
 30
0.0
 40
2.749999999999971
100
AcDbArc
 50
294.6199639999996
 51
245.3800479999997
  0
LINE
  5
106
330
1F
100
AcDbEntity
  8
0
 62
     7
 48
0.146359
370
    60
100
AcDbLine
 10
354.8575190924967
 20
320.0987124463518
 30
0.0
 11
360.7118750924967
 21
320.0987124463518
 31
0.0
  0
LINE
  5
107
330
1F
100
AcDbEntity
  8
0
 62
     7
 48
0.125
370
    60
100
AcDbLine
 10
360.7118750924967
 20
320.0987124463518
 30
0.0
 11
360.7118750924967
 21
315.0987124463518
 31
0.0
  0
LINE
  5
108
330
1F
100
AcDbEntity
  8
0
 62
     7
 48
0.35
370
    60
100
AcDbLine
 10
346.7118750924967
 20
315.0987124463518
 30
0.0
 11
360.7118750924967
 21
315.0987124463518
 31
0.0
  0
LINE
  5
109
330
1F
100
AcDbEntity
  8
0
 62
     7
 48
0.125
370
    60
100
AcDbLine
 10
346.7118750924967
 20
315.0987124463518
 30
0.0
 11
346.7118750924967
 21
320.0987124463518
 31
0.0
  0
ARC
  5
10A
330
1F
100
AcDbEntity
  8
0
 62
     7
370
    60
100
AcDbCircle
 10
353.7097050924966
 20
322.6086614463518
 30
0.0
 40
2.759965999999987
100
AcDbArc
 50
270.0450560000005
 51
294.5749230000005
  0
ARC
  5
10B
330
1F
100
AcDbEntity
  8
0
 62
     7
370
    60
100
AcDbCircle
 10
353.7118750924967
 20
322.5987124463518
 30
0.0
 40
7.0
100
AcDbArc
 50
0.0
 51
180.000005
  0
LINE
  5
10C
330
1F
100
AcDbEntity
  8
0
 62
     7
 48
0.0625
370
    60
100
AcDbLine
 10
360.7118750924967
 20
320.0987124463518
 30
0.0
 11
360.7118750924967
 21
322.5987124463518
 31
0.0
  0
LINE
  5
10D
330
1F
100
AcDbEntity
  8
0
 62
     7
 48
0.0625
370
    60
100
AcDbLine
 10
346.7118750924967
 20
322.5987124463518
 30
0.0
 11
346.7118750924967
 21
320.0987124463518
 31
0.0
  0
ARC
  5
10E
330
1F
100
AcDbEntity
  8
0
 62
     7
370
    60
100
AcDbCircle
 10
223.2013620924967
 20
192.1010064463519
 30
0.0
 40
2.76054600000001
100
AcDbArc
 50
335.4276449999999
 51
359.9523769999998
  0
LINE
  5
10F
330
1F
100
AcDbEntity
  8
0
 62
     7
 48
0.146359
370
    60
100
AcDbLine
 10
225.7118750924967
 20
185.0987124463519
 30
0.0
 11
225.7118750924967
 21
190.9530684463519
 31
0.0
  0
ARC
  5
110
330
1F
100
AcDbEntity
  8
0
 62
     7
370
    60
100
AcDbCircle
 10
223.2118750924967
 20
192.0987124463519
 30
0.0
 40
2.750000000000007
100
AcDbArc
 50
24.61997599999979
 51
335.3800189999998
  0
LINE
  5
111
330
1F
100
AcDbEntity
  8
0
 62
     7
 48
0.146359
370
    60
100
AcDbLine
 10
225.7118750924967
 20
193.2443564463519
 30
0.0
 11
225.7118750924967
 21
199.0987124463519
 31
0.0
  0
LINE
  5
112
330
1F
100
AcDbEntity
  8
0
 62
     7
 48
0.125
370
    60
100
AcDbLine
 10
225.7118750924967
 20
199.0987124463519
 30
0.0
 11
230.7118750924967
 21
199.0987124463519
 31
0.0
  0
LINE
  5
113
330
1F
100
AcDbEntity
  8
0
 62
     7
 48
0.35
370
    60
100
AcDbLine
 10
230.7118750924967
 20
185.0987124463519
 30
0.0
 11
230.7118750924967
 21
199.0987124463519
 31
0.0
  0
LINE
  5
114
330
1F
100
AcDbEntity
  8
0
 62
     7
 48
0.125
370
    60
100
AcDbLine
 10
230.7118750924967
 20
185.0987124463519
 30
0.0
 11
225.7118750924967
 21
185.0987124463519
 31
0.0
  0
ARC
  5
115
330
1F
100
AcDbEntity
  8
0
 62
     7
370
    60
100
AcDbCircle
 10
223.2013620924967
 20
192.0964184463519
 30
0.0
 40
2.760545999999974
100
AcDbArc
 50
0.0476229999996536
 51
24.57235499999966
  0
ARC
  5
116
330
1F
100
AcDbEntity
  8
0
 62
     7
370
    60
100
AcDbCircle
 10
223.2118750924967
 20
192.0987124463519
 30
0.0
 40
7.00000000000001
100
AcDbArc
 50
90.00000300000002
 51
270.000001
  0
LINE
  5
117
330
1F
100
AcDbEntity
  8
0
 62
     7
 48
0.0625
370
    60
100
AcDbLine
 10
225.7118750924967
 20
199.0987124463519
 30
0.0
 11
223.2118750924967
 21
199.0987124463519
 31
0.0
  0
LINE
  5
118
330
1F
100
AcDbEntity
  8
0
 62
     7
 48
0.0625
370
    60
100
AcDbLine
 10
223.2118750924967
 20
185.0987124463519
 30
0.0
 11
225.7118750924967
 21
185.0987124463519
 31
0.0
  0
ARC
  5
119
330
1F
100
AcDbEntity
  8
0
 62
     7
370
    60
100
AcDbCircle
 10
353.7095810924967
 20
61.58819944635187
 30
0.0
 40
2.760545999999996
100
AcDbArc
 50
65.42764599999995
 51
89.95237599999999
  0
LINE
  5
11A
330
1F
100
AcDbEntity
  8
0
 62
     7
 48
0.146359
370
    60
100
AcDbLine
 10
360.7118750924967
 20
64.09871244635187
 30
0.0
 11
354.8575190924967
 21
64.09871244635187
 31
0.0
  0
ARC
  5
11B
330
1F
100
AcDbEntity
  8
0
 62
     7
370
    60
100
AcDbCircle
 10
353.7118750924967
 20
61.59871244635187
 30
0.0
 40
2.749999999999986
100
AcDbArc
 50
114.6199729999998
 51
65.38002799999971
  0
LINE
  5
11C
330
1F
100
AcDbEntity
  8
0
 62
     7
 48
0.146359
370
    60
100
AcDbLine
 10
352.5662310924967
 20
64.09871244635187
 30
0.0
 11
346.7118750924967
 21
64.09871244635187
 31
0.0
  0
LINE
  5
11D
330
1F
100
AcDbEntity
  8
0
 62
     7
 48
0.125
370
    60
100
AcDbLine
 10
346.7118750924967
 20
69.09871244635187
 30
0.0
 11
346.7118750924967
 21
64.09871244635187
 31
0.0
  0
LINE
  5
11E
330
1F
100
AcDbEntity
  8
0
 62
     7
 48
0.35
370
    60
100
AcDbLine
 10
360.7118750924967
 20
69.09871244635187
 30
0.0
 11
346.7118750924967
 21
69.09871244635187
 31
0.0
  0
LINE
  5
11F
330
1F
100
AcDbEntity
  8
0
 62
     7
 48
0.125
370
    60
100
AcDbLine
 10
360.7118750924967
 20
69.09871244635187
 30
0.0
 11
360.7118750924967
 21
64.09871244635187
 31
0.0
  0
ARC
  5
120
330
1F
100
AcDbEntity
  8
0
 62
     7
370
    60
100
AcDbCircle
 10
353.7141690924967
 20
61.58819944635187
 30
0.0
 40
2.760546000000002
100
AcDbArc
 50
90.04762299999966
 51
114.5723519999997
  0
LINE
  5
121
330
1F
100
AcDbEntity
  8
0
 62
     7
 48
0.0625
370
    60
100
AcDbLine
 10
346.7118750924967
 20
64.09871244635187
 30
0.0
 11
346.7118750924967
 21
61.59871244635187
 31
0.0
  0
ARC
  5
122
330
1F
100
AcDbEntity
  8
0
 62
     7
370
    60
100
AcDbCircle
 10
353.7118750924967
 20
61.59871244635187
 30
0.0
 40
7.000000000000027
100
AcDbArc
 50
180.000005
 51
0.0000099999999887
  0
LINE
  5
123
330
1F
100
AcDbEntity
  8
0
 62
     7
 48
0.0625
370
    60
100
AcDbLine
 10
360.7118750924967
 20
61.59871244635187
 30
0.0
 11
360.7118750924967
 21
64.09871244635187
 31
0.0
  0
ARC
  5
124
330
1F
100
AcDbEntity
  8
0
 62
     7
370
    60
100
AcDbCircle
 10
242.2118750924967
 20
80.59871244635187
 30
0.0
 40
15.0
100
AcDbArc
 50
179.9999950000001
 51
269.9999970000001
  0
ARC
  5
125
330
1F
100
AcDbEntity
  8
0
 62
     7
370
    60
100
AcDbCircle
 10
465.2118750924967
 20
80.59871244635187
 30
0.0
 40
14.99999999999999
100
AcDbArc
 50
269.9999970000001
 51
0.0000000000001018
  0
ARC
  5
126
330
1F
100
AcDbEntity
  8
0
 62
     7
370
    60
100
AcDbCircle
 10
465.2118750924967
 20
303.5987124463518
 30
0.0
 40
15.0
100
AcDbArc
 50
0.0
 51
90.00000300000004
  0
ARC
  5
127
330
1F
100
AcDbEntity
  8
0
 62
     7
370
    60
100
AcDbCircle
 10
242.2118750924967
 20
303.5987124463518
 30
0.0
 40
15.00000000000002
100
AcDbArc
 50
90.00000300000009
 51
180.0000050000001
  0
LINE
  5
128
330
1F
100
AcDbEntity
  8
0
 62
     7
 48
0.2
370
    60
100
AcDbLine
 10
477.2118750924967
 20
207.0987114463519
 30
0.0
 11
477.2118750924967
 21
199.0987104463519
 31
0.0
  0
LINE
  5
129
330
1F
100
AcDbEntity
  8
0
 62
     7
 48
0.2
370
    60
100
AcDbLine
 10
477.2118750924967
 20
185.0987104463519
 30
0.0
 11
477.2118750924967
 21
177.0987114463519
 31
0.0
  0
LINE
  5
12A
330
1F
100
AcDbEntity
  8
0
 62
     7
 48
0.2
370
    60
100
AcDbLine
 10
230.2118750924967
 20
177.0987124463519
 30
0.0
 11
230.2118750924967
 21
185.0987104463519
 31
0.0
  0
LINE
  5
12B
330
1F
100
AcDbEntity
  8
0
 62
     7
 48
0.2
370
    60
100
AcDbLine
 10
230.2118750924967
 20
199.0987104463519
 30
0.0
 11
230.2118750924967
 21
207.0987124463519
 31
0.0
  0
LINE
  5
12C
330
1F
100
AcDbEntity
  8
0
 62
     7
370
    60
100
AcDbLine
 10
465.2118750924967
 20
65.59871244635187
 30
0.0
 11
360.7118770924967
 21
65.59871244635187
 31
0.0
  0
LINE
  5
12D
330
1F
100
AcDbEntity
  8
0
 62
     7
370
    60
100
AcDbLine
 10
346.7118770924967
 20
65.59871244635187
 30
0.0
 11
242.2118750924967
 21
65.59871244635187
 31
0.0
  0
LINE
  5
12E
330
1F
100
AcDbEntity
  8
0
 62
     7
 48
0.2875
370
    60
100
AcDbLine
 10
480.2118750924967
 20
303.5987124463518
 30
0.0
 11
480.2118750924967
 21
292.0987124463518
 31
0.0
  0
LINE
  5
12F
330
1F
100
AcDbEntity
  8
0
 62
     7
 48
0.2
370
    60
100
AcDbLine
 10
480.2118750924967
 20
207.0987114463519
 30
0.0
 11
480.2118750924967
 21
199.0987104463519
 31
0.0
  0
LINE
  5
130
330
1F
100
AcDbEntity
  8
0
 62
     7
 48
0.2
370
    60
100
AcDbLine
 10
480.2118750924967
 20
185.0987104463519
 30
0.0
 11
480.2118750924967
 21
177.0987114463519
 31
0.0
  0
LINE
  5
131
330
1F
100
AcDbEntity
  8
0
 62
     7
 48
0.2875
370
    60
100
AcDbLine
 10
480.2118750924967
 20
92.09871244635187
 30
0.0
 11
480.2118750924967
 21
80.59871244635187
 31
0.0
  0
LINE
  5
132
330
1F
100
AcDbEntity
  8
0
 62
     7
370
    60
100
AcDbLine
 10
242.2118750924967
 20
318.5987124463518
 30
0.0
 11
346.7118770924967
 21
318.5987124463518
 31
0.0
  0
LINE
  5
133
330
1F
100
AcDbEntity
  8
0
 62
     7
370
    60
100
AcDbLine
 10
360.7118770924967
 20
318.5987124463518
 30
0.0
 11
465.2118750924967
 21
318.5987124463518
 31
0.0
  0
LINE
  5
134
330
1F
100
AcDbEntity
  8
0
 62
     7
 48
0.2875
370
    60
100
AcDbLine
 10
227.2118750924967
 20
80.59871244635187
 30
0.0
 11
227.2118750924967
 21
92.09871244635187
 31
0.0
  0
LINE
  5
135
330
1F
100
AcDbEntity
  8
0
 62
     7
 48
0.2
370
    60
100
AcDbLine
 10
227.2118750924967
 20
177.0987114463519
 30
0.0
 11
227.2118750924967
 21
185.0987104463519
 31
0.0
  0
LINE
  5
136
330
1F
100
AcDbEntity
  8
0
 62
     7
 48
0.2
370
    60
100
AcDbLine
 10
227.2118750924967
 20
199.0987104463519
 30
0.0
 11
227.2118750924967
 21
207.0987114463519
 31
0.0
  0
LINE
  5
137
330
1F
100
AcDbEntity
  8
0
 62
     7
 48
0.2875
370
    60
100
AcDbLine
 10
227.2118750924967
 20
292.0987124463518
 30
0.0
 11
227.2118750924967
 21
303.5987124463518
 31
0.0
  0
LINE
  5
138
330
1F
100
AcDbEntity
  8
0
 62
     7
370
    60
100
AcDbLine
 10
498.5118780924967
 20
177.0987124463519
 30
0.0
 11
498.5118780924967
 21
207.0987124463519
 31
0.0
  0
LINE
  5
139
330
1F
100
AcDbEntity
  8
0
 62
     7
 48
0.108699
370
    60
100
AcDbLine
 10
480.8598320924966
 20
177.0987124463519
 30
0.0
 11
476.5118780924967
 21
177.0987124463519
 31
0.0
  0
LINE
  5
13A
330
1F
100
AcDbEntity
  8
0
 62
     7
 48
0.036613
370
    60
100
AcDbLine
 10
482.3243480924966
 20
177.0987124463519
 30
0.0
 11
480.8598320924966
 21
177.0987124463519
 31
0.0
  0
LINE
  5
13B
330
1F
100
AcDbEntity
  8
0
 62
     7
 48
0.129688
370
    60
100
AcDbLine
 10
482.3243480924966
 20
177.0987124463519
 30
0.0
 11
487.5118780924967
 21
177.0987124463519
 31
0.0
  0
LINE
  5
13C
330
1F
100
AcDbEntity
  8
0
 62
     7
 48
0.275
370
    60
100
AcDbLine
 10
487.5118780924967
 20
177.0987124463519
 30
0.0
 11
498.5118780924967
 21
177.0987124463519
 31
0.0
  0
LINE
  5
13D
330
1F
100
AcDbEntity
  8
0
 62
     7
 48
0.047721
370
    60
100
AcDbLine
 10
514.1128760924967
 20
318.5987124463518
 30
0.0
 11
512.2040320924966
 21
318.5987124463518
 31
0.0
  0
LINE
  5
13E
330
1F
100
AcDbEntity
  8
0
 62
     7
 48
0.047721
370
    60
100
AcDbLine
 10
514.1128760924967
 20
65.59871244635187
 30
0.0
 11
512.2040320924966
 21
65.59871244635187
 31
0.0
  0
LINE
  5
13F
330
1F
100
AcDbEntity
  8
0
 62
     7
 48
0.031019
370
    60
100
AcDbLine
 10
515.3536290924967
 20
318.5987124463518
 30
0.0
 11
514.1128760924967
 21
318.5987124463518
 31
0.0
  0
LINE
  5
140
330
1F
100
AcDbEntity
  8
0
 62
     7
 48
0.031019
370
    60
100
AcDbLine
 10
515.3536290924967
 20
65.59871244635187
 30
0.0
 11
514.1128760924967
 21
65.59871244635187
 31
0.0
  0
LINE
  5
141
330
1F
100
AcDbEntity
  8
0
 62
     7
 48
0.047721
370
    60
100
AcDbLine
 10
517.2624880924967
 20
318.5987124463518
 30
0.0
 11
515.3536290924967
 21
318.5987124463518
 31
0.0
  0
LINE
  5
142
330
1F
100
AcDbEntity
  8
0
 62
     7
 48
0.047721
370
    60
100
AcDbLine
 10
517.2624880924967
 20
65.59871244635187
 30
0.0
 11
515.3536290924967
 21
65.59871244635187
 31
0.0
  0
LINE
  5
143
330
1F
100
AcDbEntity
  8
0
 62
     7
 48
0.031019
370
    60
100
AcDbLine
 10
518.5032420924966
 20
318.5987124463518
 30
0.0
 11
517.2624880924967
 21
318.5987124463518
 31
0.0
  0
LINE
  5
144
330
1F
100
AcDbEntity
  8
0
 62
     7
 48
0.031019
370
    60
100
AcDbLine
 10
518.5032420924966
 20
65.59871244635187
 30
0.0
 11
517.2624880924967
 21
65.59871244635187
 31
0.0
  0
LINE
  5
145
330
1F
100
AcDbEntity
  8
0
 62
     7
 48
0.047721
370
    60
100
AcDbLine
 10
520.4120860924967
 20
318.5987124463518
 30
0.0
 11
518.5032420924966
 21
318.5987124463518
 31
0.0
  0
LINE
  5
146
330
1F
100
AcDbEntity
  8
0
 62
     7
 48
0.047721
370
    60
100
AcDbLine
 10
520.4120860924967
 20
65.59871244635187
 30
0.0
 11
518.5032420924966
 21
65.59871244635187
 31
0.0
  0
LINE
  5
147
330
1F
100
AcDbEntity
  8
0
 62
     7
 48
0.031019
370
    60
100
AcDbLine
 10
521.6528390924967
 20
318.5987124463518
 30
0.0
 11
520.4120860924967
 21
318.5987124463518
 31
0.0
  0
LINE
  5
148
330
1F
100
AcDbEntity
  8
0
 62
     7
 48
0.031019
370
    60
100
AcDbLine
 10
521.6528390924967
 20
65.59871244635187
 30
0.0
 11
520.4120860924967
 21
65.59871244635187
 31
0.0
  0
LINE
  5
149
330
1F
100
AcDbEntity
  8
0
 62
     7
 48
0.047721
370
    60
100
AcDbLine
 10
523.5616980924966
 20
318.5987124463518
 30
0.0
 11
521.6528390924967
 21
318.5987124463518
 31
0.0
  0
LINE
  5
14A
330
1F
100
AcDbEntity
  8
0
 62
     7
 48
0.047721
370
    60
100
AcDbLine
 10
523.5616980924966
 20
65.59871244635187
 30
0.0
 11
521.6528390924967
 21
65.59871244635187
 31
0.0
  0
LINE
  5
14B
330
1F
100
AcDbEntity
  8
0
 62
     7
 48
0.031019
370
    60
100
AcDbLine
 10
524.8024510924967
 20
318.5987124463518
 30
0.0
 11
523.5616980924966
 21
318.5987124463518
 31
0.0
  0
LINE
  5
14C
330
1F
100
AcDbEntity
  8
0
 62
     7
 48
0.031019
370
    60
100
AcDbLine
 10
524.8024510924967
 20
65.59871244635187
 30
0.0
 11
523.5616980924966
 21
65.59871244635187
 31
0.0
  0
LINE
  5
14D
330
1F
100
AcDbEntity
  8
0
 62
     7
 48
0.047721
370
    60
100
AcDbLine
 10
526.7112950924968
 20
318.5987124463518
 30
0.0
 11
524.8024510924967
 21
318.5987124463518
 31
0.0
  0
LINE
  5
14E
330
1F
100
AcDbEntity
  8
0
 62
     7
 48
0.047721
370
    60
100
AcDbLine
 10
526.7112950924968
 20
65.59871244635187
 30
0.0
 11
524.8024510924967
 21
65.59871244635187
 31
0.0
  0
LINE
  5
14F
330
1F
100
AcDbEntity
  8
0
 62
     7
 48
0.031019
370
    60
100
AcDbLine
 10
527.9520480924966
 20
318.5987124463518
 30
0.0
 11
526.7112950924968
 21
318.5987124463518
 31
0.0
  0
LINE
  5
150
330
1F
100
AcDbEntity
  8
0
 62
     7
 48
0.031019
370
    60
100
AcDbLine
 10
527.9520480924966
 20
65.59871244635187
 30
0.0
 11
526.7112950924968
 21
65.59871244635187
 31
0.0
  0
LINE
  5
151
330
1F
100
AcDbEntity
  8
0
 62
     7
 48
0.047721
370
    60
100
AcDbLine
 10
529.8608920924967
 20
318.5987124463518
 30
0.0
 11
527.9520480924966
 21
318.5987124463518
 31
0.0
  0
LINE
  5
152
330
1F
100
AcDbEntity
  8
0
 62
     7
 48
0.047721
370
    60
100
AcDbLine
 10
529.8608920924967
 20
65.59871244635187
 30
0.0
 11
527.9520480924966
 21
65.59871244635187
 31
0.0
  0
LINE
  5
153
330
1F
100
AcDbEntity
  8
0
 62
     7
 48
0.031019
370
    60
100
AcDbLine
 10
531.1016460924967
 20
318.5987124463518
 30
0.0
 11
529.8608920924967
 21
318.5987124463518
 31
0.0
  0
LINE
  5
154
330
1F
100
AcDbEntity
  8
0
 62
     7
 48
0.031019
370
    60
100
AcDbLine
 10
531.1016460924967
 20
65.59871244635187
 30
0.0
 11
529.8608920924967
 21
65.59871244635187
 31
0.0
  0
LINE
  5
155
330
1F
100
AcDbEntity
  8
0
 62
     7
 48
0.047721
370
    60
100
AcDbLine
 10
533.0105050924967
 20
318.5987124463518
 30
0.0
 11
531.1016460924967
 21
318.5987124463518
 31
0.0
  0
LINE
  5
156
330
1F
100
AcDbEntity
  8
0
 62
     7
 48
0.047721
370
    60
100
AcDbLine
 10
533.0105050924967
 20
65.59871244635187
 30
0.0
 11
531.1016460924967
 21
65.59871244635187
 31
0.0
  0
LINE
  5
157
330
1F
100
AcDbEntity
  8
0
 62
     7
 48
0.031019
370
    60
100
AcDbLine
 10
534.2512580924966
 20
318.5987124463518
 30
0.0
 11
533.0105050924967
 21
318.5987124463518
 31
0.0
  0
LINE
  5
158
330
1F
100
AcDbEntity
  8
0
 62
     7
 48
0.031019
370
    60
100
AcDbLine
 10
534.2512580924966
 20
65.59871244635187
 30
0.0
 11
533.0105050924967
 21
65.59871244635187
 31
0.0
  0
LINE
  5
159
330
1F
100
AcDbEntity
  8
0
 62
     7
 48
0.047721
370
    60
100
AcDbLine
 10
536.1601020924968
 20
318.5987124463518
 30
0.0
 11
534.2512580924966
 21
318.5987124463518
 31
0.0
  0
LINE
  5
15A
330
1F
100
AcDbEntity
  8
0
 62
     7
 48
0.047721
370
    60
100
AcDbLine
 10
536.1601020924968
 20
65.59871244635187
 30
0.0
 11
534.2512580924966
 21
65.59871244635187
 31
0.0
  0
LINE
  5
15B
330
1F
100
AcDbEntity
  8
0
 62
     7
 48
0.031019
370
    60
100
AcDbLine
 10
537.4008550924966
 20
318.5987124463518
 30
0.0
 11
536.1601020924968
 21
318.5987124463518
 31
0.0
  0
LINE
  5
15C
330
1F
100
AcDbEntity
  8
0
 62
     7
 48
0.031019
370
    60
100
AcDbLine
 10
537.4008550924966
 20
65.59871244635187
 30
0.0
 11
536.1601020924968
 21
65.59871244635187
 31
0.0
  0
LINE
  5
15D
330
1F
100
AcDbEntity
  8
0
 62
     7
 48
0.047721
370
    60
100
AcDbLine
 10
539.3097140924966
 20
318.5987124463518
 30
0.0
 11
537.4008550924966
 21
318.5987124463518
 31
0.0
  0
LINE
  5
15E
330
1F
100
AcDbEntity
  8
0
 62
     7
 48
0.047721
370
    60
100
AcDbLine
 10
539.3097140924966
 20
65.59871244635187
 30
0.0
 11
537.4008550924966
 21
65.59871244635187
 31
0.0
  0
LINE
  5
15F
330
1F
100
AcDbEntity
  8
0
 62
     7
 48
0.031018
370
    60
100
AcDbLine
 10
540.5504520924967
 20
318.5987124463518
 30
0.0
 11
539.3097140924966
 21
318.5987124463518
 31
0.0
  0
LINE
  5
160
330
1F
100
AcDbEntity
  8
0
 62
     7
 48
0.031018
370
    60
100
AcDbLine
 10
540.5504520924967
 20
65.59871244635187
 30
0.0
 11
539.3097140924966
 21
65.59871244635187
 31
0.0
  0
LINE
  5
161
330
1F
100
AcDbEntity
  8
0
 62
     7
 48
0.047721
370
    60
100
AcDbLine
 10
542.4593120924967
 20
318.5987124463518
 30
0.0
 11
540.5504520924967
 21
318.5987124463518
 31
0.0
  0
LINE
  5
162
330
1F
100
AcDbEntity
  8
0
 62
     7
 48
0.047721
370
    60
100
AcDbLine
 10
542.4593120924967
 20
65.59871244635187
 30
0.0
 11
540.5504520924967
 21
65.59871244635187
 31
0.0
  0
LINE
  5
163
330
1F
100
AcDbEntity
  8
0
 62
     7
 48
0.031019
370
    60
100
AcDbLine
 10
543.7000650924967
 20
318.5987124463518
 30
0.0
 11
542.4593120924967
 21
318.5987124463518
 31
0.0
  0
LINE
  5
164
330
1F
100
AcDbEntity
  8
0
 62
     7
 48
0.031019
370
    60
100
AcDbLine
 10
543.7000650924967
 20
65.59871244635187
 30
0.0
 11
542.4593120924967
 21
65.59871244635187
 31
0.0
  0
LINE
  5
165
330
1F
100
AcDbEntity
  8
0
 62
     7
 48
0.047721
370
    60
100
AcDbLine
 10
545.6089090924968
 20
318.5987124463518
 30
0.0
 11
543.7000650924967
 21
318.5987124463518
 31
0.0
  0
LINE
  5
166
330
1F
100
AcDbEntity
  8
0
 62
     7
 48
0.047721
370
    60
100
AcDbLine
 10
545.6089090924968
 20
65.59871244635187
 30
0.0
 11
543.7000650924967
 21
65.59871244635187
 31
0.0
  0
LINE
  5
167
330
1F
100
AcDbEntity
  8
0
 62
     7
 48
0.031019
370
    60
100
AcDbLine
 10
546.8496620924968
 20
318.5987124463518
 30
0.0
 11
545.6089090924968
 21
318.5987124463518
 31
0.0
  0
LINE
  5
168
330
1F
100
AcDbEntity
  8
0
 62
     7
 48
0.031019
370
    60
100
AcDbLine
 10
546.8496620924968
 20
65.59871244635187
 30
0.0
 11
545.6089090924968
 21
65.59871244635187
 31
0.0
  0
LINE
  5
169
330
1F
100
AcDbEntity
  8
0
 62
     7
 48
0.047721
370
    60
100
AcDbLine
 10
548.7585210924967
 20
318.5987124463518
 30
0.0
 11
546.8496620924968
 21
318.5987124463518
 31
0.0
  0
LINE
  5
16A
330
1F
100
AcDbEntity
  8
0
 62
     7
 48
0.047721
370
    60
100
AcDbLine
 10
548.7585210924967
 20
65.59871244635187
 30
0.0
 11
546.8496620924968
 21
65.59871244635187
 31
0.0
  0
LINE
  5
16B
330
1F
100
AcDbEntity
  8
0
 62
     7
 48
0.031019
370
    60
100
AcDbLine
 10
549.9992740924968
 20
318.5987124463518
 30
0.0
 11
548.7585210924967
 21
318.5987124463518
 31
0.0
  0
LINE
  5
16C
330
1F
100
AcDbEntity
  8
0
 62
     7
 48
0.031019
370
    60
100
AcDbLine
 10
549.9992740924968
 20
65.59871244635187
 30
0.0
 11
548.7585210924967
 21
65.59871244635187
 31
0.0
  0
LINE
  5
16D
330
1F
100
AcDbEntity
  8
0
 62
     7
 48
0.047721
370
    60
100
AcDbLine
 10
551.9081180924968
 20
318.5987124463518
 30
0.0
 11
549.9992740924968
 21
318.5987124463518
 31
0.0
  0
LINE
  5
16E
330
1F
100
AcDbEntity
  8
0
 62
     7
 48
0.047721
370
    60
100
AcDbLine
 10
551.9081180924968
 20
65.59871244635187
 30
0.0
 11
549.9992740924968
 21
65.59871244635187
 31
0.0
  0
LINE
  5
16F
330
1F
100
AcDbEntity
  8
0
 62
     7
 48
0.031019
370
    60
100
AcDbLine
 10
553.1488710924966
 20
318.5987124463518
 30
0.0
 11
551.9081180924968
 21
318.5987124463518
 31
0.0
  0
LINE
  5
170
330
1F
100
AcDbEntity
  8
0
 62
     7
 48
0.031019
370
    60
100
AcDbLine
 10
553.1488710924966
 20
65.59871244635187
 30
0.0
 11
551.9081180924968
 21
65.59871244635187
 31
0.0
  0
LINE
  5
171
330
1F
100
AcDbEntity
  8
0
 62
     7
 48
0.047721
370
    60
100
AcDbLine
 10
555.0577150924967
 20
318.5987124463518
 30
0.0
 11
553.1488710924966
 21
318.5987124463518
 31
0.0
  0
LINE
  5
172
330
1F
100
AcDbEntity
  8
0
 62
     7
 48
0.047721
370
    60
100
AcDbLine
 10
555.0577150924967
 20
65.59871244635187
 30
0.0
 11
553.1488710924966
 21
65.59871244635187
 31
0.0
  0
LINE
  5
173
330
1F
100
AcDbEntity
  8
0
 62
     7
 48
0.031019
370
    60
100
AcDbLine
 10
556.2984690924968
 20
318.5987124463518
 30
0.0
 11
555.0577150924967
 21
318.5987124463518
 31
0.0
  0
LINE
  5
174
330
1F
100
AcDbEntity
  8
0
 62
     7
 48
0.031019
370
    60
100
AcDbLine
 10
556.2984690924968
 20
65.59871244635187
 30
0.0
 11
555.0577150924967
 21
65.59871244635187
 31
0.0
  0
LINE
  5
175
330
1F
100
AcDbEntity
  8
0
 62
     7
 48
0.047721
370
    60
100
AcDbLine
 10
558.2073280924967
 20
318.5987124463518
 30
0.0
 11
556.2984690924968
 21
318.5987124463518
 31
0.0
  0
LINE
  5
176
330
1F
100
AcDbEntity
  8
0
 62
     7
 48
0.047721
370
    60
100
AcDbLine
 10
558.2073280924967
 20
65.59871244635187
 30
0.0
 11
556.2984690924968
 21
65.59871244635187
 31
0.0
  0
LINE
  5
177
330
1F
100
AcDbEntity
  8
0
 62
     7
 48
0.031019
370
    60
100
AcDbLine
 10
559.4480810924967
 20
318.5987124463518
 30
0.0
 11
558.2073280924967
 21
318.5987124463518
 31
0.0
  0
LINE
  5
178
330
1F
100
AcDbEntity
  8
0
 62
     7
 48
0.031019
370
    60
100
AcDbLine
 10
559.4480810924967
 20
65.59871244635187
 30
0.0
 11
558.2073280924967
 21
65.59871244635187
 31
0.0
  0
LINE
  5
179
330
1F
100
AcDbEntity
  8
0
 62
     7
 48
0.047721
370
    60
100
AcDbLine
 10
561.3569250924968
 20
318.5987124463518
 30
0.0
 11
559.4480810924967
 21
318.5987124463518
 31
0.0
  0
LINE
  5
17A
330
1F
100
AcDbEntity
  8
0
 62
     7
 48
0.047721
370
    60
100
AcDbLine
 10
561.3569250924968
 20
65.59871244635187
 30
0.0
 11
559.4480810924967
 21
65.59871244635187
 31
0.0
  0
LINE
  5
17B
330
1F
100
AcDbEntity
  8
0
 62
     7
 48
0.031019
370
    60
100
AcDbLine
 10
562.5976780924968
 20
318.5987124463518
 30
0.0
 11
561.3569250924968
 21
318.5987124463518
 31
0.0
  0
LINE
  5
17C
330
1F
100
AcDbEntity
  8
0
 62
     7
 48
0.031019
370
    60
100
AcDbLine
 10
562.5976780924968
 20
65.59871244635187
 30
0.0
 11
561.3569250924968
 21
65.59871244635187
 31
0.0
  0
LINE
  5
17D
330
1F
100
AcDbEntity
  8
0
 62
     7
 48
0.047721
370
    60
100
AcDbLine
 10
564.5065370924967
 20
318.5987124463518
 30
0.0
 11
562.5976780924968
 21
318.5987124463518
 31
0.0
  0
LINE
  5
17E
330
1F
100
AcDbEntity
  8
0
 62
     7
 48
0.047721
370
    60
100
AcDbLine
 10
564.5065370924967
 20
65.59871244635187
 30
0.0
 11
562.5976780924968
 21
65.59871244635187
 31
0.0
  0
LINE
  5
17F
330
1F
100
AcDbEntity
  8
0
 62
     7
 48
0.031019
370
    60
100
AcDbLine
 10
565.7472910924967
 20
318.5987124463518
 30
0.0
 11
564.5065370924967
 21
318.5987124463518
 31
0.0
  0
LINE
  5
180
330
1F
100
AcDbEntity
  8
0
 62
     7
 48
0.031019
370
    60
100
AcDbLine
 10
565.7472910924967
 20
65.59871244635187
 30
0.0
 11
564.5065370924967
 21
65.59871244635187
 31
0.0
  0
LINE
  5
181
330
1F
100
AcDbEntity
  8
0
 62
     7
 48
0.047721
370
    60
100
AcDbLine
 10
567.6561350924967
 20
318.5987124463518
 30
0.0
 11
565.7472910924967
 21
318.5987124463518
 31
0.0
  0
LINE
  5
182
330
1F
100
AcDbEntity
  8
0
 62
     7
 48
0.047721
370
    60
100
AcDbLine
 10
567.6561350924967
 20
65.59871244635187
 30
0.0
 11
565.7472910924967
 21
65.59871244635187
 31
0.0
  0
LINE
  5
183
330
1F
100
AcDbEntity
  8
0
 62
     7
 48
0.031019
370
    60
100
AcDbLine
 10
568.8968880924967
 20
318.5987124463518
 30
0.0
 11
567.6561350924967
 21
318.5987124463518
 31
0.0
  0
LINE
  5
184
330
1F
100
AcDbEntity
  8
0
 62
     7
 48
0.031019
370
    60
100
AcDbLine
 10
568.8968880924967
 20
65.59871244635187
 30
0.0
 11
567.6561350924967
 21
65.59871244635187
 31
0.0
  0
LINE
  5
185
330
1F
100
AcDbEntity
  8
0
 62
     7
 48
0.047721
370
    60
100
AcDbLine
 10
570.8057320924968
 20
318.5987124463518
 30
0.0
 11
568.8968880924967
 21
318.5987124463518
 31
0.0
  0
LINE
  5
186
330
1F
100
AcDbEntity
  8
0
 62
     7
 48
0.047721
370
    60
100
AcDbLine
 10
570.8057320924968
 20
65.59871244635187
 30
0.0
 11
568.8968880924967
 21
65.59871244635187
 31
0.0
  0
LINE
  5
187
330
1F
100
AcDbEntity
  8
0
 62
     7
 48
0.031019
370
    60
100
AcDbLine
 10
572.0464850924968
 20
318.5987124463518
 30
0.0
 11
570.8057320924968
 21
318.5987124463518
 31
0.0
  0
LINE
  5
188
330
1F
100
AcDbEntity
  8
0
 62
     7
 48
0.031019
370
    60
100
AcDbLine
 10
572.0464850924968
 20
65.59871244635187
 30
0.0
 11
570.8057320924968
 21
65.59871244635187
 31
0.0
  0
LINE
  5
189
330
1F
100
AcDbEntity
  8
0
 62
     7
 48
0.047721
370
    60
100
AcDbLine
 10
573.9553440924967
 20
318.5987124463518
 30
0.0
 11
572.0464850924968
 21
318.5987124463518
 31
0.0
  0
LINE
  5
18A
330
1F
100
AcDbEntity
  8
0
 62
     7
 48
0.047721
370
    60
100
AcDbLine
 10
573.9553440924967
 20
65.59871244635187
 30
0.0
 11
572.0464850924968
 21
65.59871244635187
 31
0.0
  0
LINE
  5
18B
330
1F
100
AcDbEntity
  8
0
 62
     7
 48
0.031019
370
    60
100
AcDbLine
 10
575.1960970924968
 20
318.5987124463518
 30
0.0
 11
573.9553440924967
 21
318.5987124463518
 31
0.0
  0
LINE
  5
18C
330
1F
100
AcDbEntity
  8
0
 62
     7
 48
0.031019
370
    60
100
AcDbLine
 10
575.1960970924968
 20
65.59871244635187
 30
0.0
 11
573.9553440924967
 21
65.59871244635187
 31
0.0
  0
LINE
  5
18D
330
1F
100
AcDbEntity
  8
0
 62
     7
 48
0.047721
370
    60
100
AcDbLine
 10
577.1049410924968
 20
318.5987124463518
 30
0.0
 11
575.1960970924968
 21
318.5987124463518
 31
0.0
  0
LINE
  5
18E
330
1F
100
AcDbEntity
  8
0
 62
     7
 48
0.047721
370
    60
100
AcDbLine
 10
577.1049410924968
 20
65.59871244635187
 30
0.0
 11
575.1960970924968
 21
65.59871244635187
 31
0.0
  0
LINE
  5
18F
330
1F
100
AcDbEntity
  8
0
 62
     7
 48
0.031019
370
    60
100
AcDbLine
 10
578.3456950924967
 20
318.5987124463518
 30
0.0
 11
577.1049410924968
 21
318.5987124463518
 31
0.0
  0
LINE
  5
190
330
1F
100
AcDbEntity
  8
0
 62
     7
 48
0.031019
370
    60
100
AcDbLine
 10
578.3456950924967
 20
65.59871244635187
 30
0.0
 11
577.1049410924968
 21
65.59871244635187
 31
0.0
  0
LINE
  5
191
330
1F
100
AcDbEntity
  8
0
 62
     7
 48
0.047721
370
    60
100
AcDbLine
 10
580.2545540924966
 20
318.5987124463518
 30
0.0
 11
578.3456950924967
 21
318.5987124463518
 31
0.0
  0
LINE
  5
192
330
1F
100
AcDbEntity
  8
0
 62
     7
 48
0.047721
370
    60
100
AcDbLine
 10
580.2545540924966
 20
65.59871244635187
 30
0.0
 11
578.3456950924967
 21
65.59871244635187
 31
0.0
  0
LINE
  5
193
330
1F
100
AcDbEntity
  8
0
 62
     7
 48
0.031019
370
    60
100
AcDbLine
 10
581.4953070924967
 20
318.5987124463518
 30
0.0
 11
580.2545540924966
 21
318.5987124463518
 31
0.0
  0
LINE
  5
194
330
1F
100
AcDbEntity
  8
0
 62
     7
 48
0.031019
370
    60
100
AcDbLine
 10
581.4953070924967
 20
65.59871244635187
 30
0.0
 11
580.2545540924966
 21
65.59871244635187
 31
0.0
  0
LINE
  5
195
330
1F
100
AcDbEntity
  8
0
 62
     7
 48
0.047721
370
    60
100
AcDbLine
 10
583.4041510924967
 20
318.5987124463518
 30
0.0
 11
581.4953070924967
 21
318.5987124463518
 31
0.0
  0
LINE
  5
196
330
1F
100
AcDbEntity
  8
0
 62
     7
 48
0.047721
370
    60
100
AcDbLine
 10
583.4041510924967
 20
65.59871244635187
 30
0.0
 11
581.4953070924967
 21
65.59871244635187
 31
0.0
  0
LINE
  5
197
330
1F
100
AcDbEntity
  8
0
 62
     7
 48
0.031019
370
    60
100
AcDbLine
 10
584.6449040924967
 20
318.5987124463518
 30
0.0
 11
583.4041510924967
 21
318.5987124463518
 31
0.0
  0
LINE
  5
198
330
1F
100
AcDbEntity
  8
0
 62
     7
 48
0.031019
370
    60
100
AcDbLine
 10
584.6449040924967
 20
65.59871244635187
 30
0.0
 11
583.4041510924967
 21
65.59871244635187
 31
0.0
  0
LINE
  5
199
330
1F
100
AcDbEntity
  8
0
 62
     7
 48
0.047721
370
    60
100
AcDbLine
 10
586.5537480924968
 20
318.5987124463518
 30
0.0
 11
584.6449040924967
 21
318.5987124463518
 31
0.0
  0
LINE
  5
19A
330
1F
100
AcDbEntity
  8
0
 62
     7
 48
0.047721
370
    60
100
AcDbLine
 10
586.5537480924968
 20
65.59871244635187
 30
0.0
 11
584.6449040924967
 21
65.59871244635187
 31
0.0
  0
LINE
  5
19B
330
1F
100
AcDbEntity
  8
0
 62
     7
 48
0.031019
370
    60
100
AcDbLine
 10
587.7945010924968
 20
318.5987124463518
 30
0.0
 11
586.5537480924968
 21
318.5987124463518
 31
0.0
  0
LINE
  5
19C
330
1F
100
AcDbEntity
  8
0
 62
     7
 48
0.031019
370
    60
100
AcDbLine
 10
587.7945010924968
 20
65.59871244635187
 30
0.0
 11
586.5537480924968
 21
65.59871244635187
 31
0.0
  0
LINE
  5
19D
330
1F
100
AcDbEntity
  8
0
 62
     7
 48
0.047721
370
    60
100
AcDbLine
 10
589.7033610924968
 20
318.5987124463518
 30
0.0
 11
587.7945010924968
 21
318.5987124463518
 31
0.0
  0
LINE
  5
19E
330
1F
100
AcDbEntity
  8
0
 62
     7
 48
0.047721
370
    60
100
AcDbLine
 10
589.7033610924968
 20
65.59871244635187
 30
0.0
 11
587.7945010924968
 21
65.59871244635187
 31
0.0
  0
LINE
  5
19F
330
1F
100
AcDbEntity
  8
0
 62
     7
 48
0.275
370
    60
100
AcDbLine
 10
487.5118780924967
 20
207.0987124463519
 30
0.0
 11
498.5118780924967
 21
207.0987124463519
 31
0.0
  0
LINE
  5
1A0
330
1F
100
AcDbEntity
  8
0
 62
     7
 48
0.129688
370
    60
100
AcDbLine
 10
482.3243480924966
 20
207.0987124463519
 30
0.0
 11
487.5118780924967
 21
207.0987124463519
 31
0.0
  0
LINE
  5
1A1
330
1F
100
AcDbEntity
  8
0
 62
     7
 48
0.036613
370
    60
100
AcDbLine
 10
480.8598320924966
 20
207.0987124463519
 30
0.0
 11
482.3243480924966
 21
207.0987124463519
 31
0.0
  0
LINE
  5
1A2
330
1F
100
AcDbEntity
  8
0
 62
     7
 48
0.108699
370
    60
100
AcDbLine
 10
476.5118780924967
 20
207.0987124463519
 30
0.0
 11
480.8598320924966
 21
207.0987124463519
 31
0.0
  0
LINE
  5
1A3
330
1F
100
AcDbEntity
  8
0
 62
     7
370
    60
100
AcDbLine
 10
480.8598320924966
 20
207.0987124463519
 30
0.0
 11
480.8598320924966
 21
292.0987124463518
 31
0.0
  0
LINE
  5
1A4
330
1F
100
AcDbEntity
  8
0
 62
     7
 48
0.108699
370
    60
100
AcDbLine
 10
480.8598320924966
 20
292.0987124463518
 30
0.0
 11
476.5118780924967
 21
292.0987124463518
 31
0.0
  0
LINE
  5
1A5
330
1F
100
AcDbEntity
  8
0
 62
     7
370
    60
100
AcDbLine
 10
482.3243480924966
 20
207.0987124463519
 30
0.0
 11
482.3243480924966
 21
292.0987124463518
 31
0.0
  0
LINE
  5
1A6
330
1F
100
AcDbEntity
  8
0
 62
     7
 48
0.036613
370
    60
100
AcDbLine
 10
482.3243480924966
 20
292.0987124463518
 30
0.0
 11
480.8598320924966
 21
292.0987124463518
 31
0.0
  0
LINE
  5
1A7
330
1F
100
AcDbEntity
  8
0
 62
     7
370
    60
100
AcDbLine
 10
487.5118780924967
 20
207.0987124463519
 30
0.0
 11
487.5118780924967
 21
292.0987124463518
 31
0.0
  0
LINE
  5
1A8
330
1F
100
AcDbEntity
  8
0
 62
     7
 48
0.129688
370
    60
100
AcDbLine
 10
482.3243480924966
 20
292.0987124463518
 30
0.0
 11
487.5118780924967
 21
292.0987124463518
 31
0.0
  0
LINE
  5
1A9
330
1F
100
AcDbEntity
  8
0
 62
     7
370
    60
100
AcDbLine
 10
480.8598320924966
 20
92.09871244635187
 30
0.0
 11
480.8598320924966
 21
177.0987124463519
 31
0.0
  0
LINE
  5
1AA
330
1F
100
AcDbEntity
  8
0
 62
     7
 48
0.108699
370
    60
100
AcDbLine
 10
480.8598320924966
 20
92.09871244635187
 30
0.0
 11
476.5118780924967
 21
92.09871244635187
 31
0.0
  0
LINE
  5
1AB
330
1F
100
AcDbEntity
  8
0
 62
     7
370
    60
100
AcDbLine
 10
482.3243480924966
 20
92.09871244635187
 30
0.0
 11
482.3243480924966
 21
177.0987124463519
 31
0.0
  0
LINE
  5
1AC
330
1F
100
AcDbEntity
  8
0
 62
     7
 48
0.036613
370
    60
100
AcDbLine
 10
482.3243480924966
 20
92.09871244635187
 30
0.0
 11
480.8598320924966
 21
92.09871244635187
 31
0.0
  0
LINE
  5
1AD
330
1F
100
AcDbEntity
  8
0
 62
     7
370
    60
100
AcDbLine
 10
487.5118780924967
 20
92.09871244635187
 30
0.0
 11
487.5118780924967
 21
177.0987124463519
 31
0.0
  0
LINE
  5
1AE
330
1F
100
AcDbEntity
  8
0
 62
     7
 48
0.129688
370
    60
100
AcDbLine
 10
482.3243480924966
 20
92.09871244635187
 30
0.0
 11
487.5118780924967
 21
92.09871244635187
 31
0.0
  0
LINE
  5
1AF
330
1F
100
AcDbEntity
  8
0
 62
     7
 48
0.03283
370
    60
100
AcDbLine
 10
512.2040320924966
 20
318.5987124463518
 30
0.0
 11
510.8908300924968
 21
318.5987124463518
 31
0.0
  0
LINE
  5
1B0
330
1F
100
AcDbEntity
  8
0
 62
     7
 48
0.03283
370
    60
100
AcDbLine
 10
512.2040320924966
 20
65.59871244635187
 30
0.0
 11
510.8908300924968
 21
65.59871244635187
 31
0.0
  0
LINE
  5
1B1
330
1F
100
AcDbEntity
  8
0
 62
     7
 48
0.086541
370
    60
100
AcDbLine
 10
478.7118750924967
 20
70.59871244635187
 30
0.0
 11
478.7118750924967
 21
74.06035944635187
 31
0.0
  0
ARC
  5
1B2
330
1F
100
AcDbEntity
  8
0
 62
     7
370
    60
100
AcDbCircle
 10
483.7118750924967
 20
70.59871244635187
 30
0.0
 40
5.000000000000019
100
AcDbArc
 50
180.0000049999998
 51
270.0000009999999
  0
LINE
  5
1B3
330
1F
100
AcDbEntity
  8
0
 62
     7
 48
0.086541
370
    60
100
AcDbLine
 10
478.7118750924967
 20
313.5987124463518
 30
0.0
 11
478.7118750924967
 21
310.137065446352
 31
0.0
  0
LINE
  5
1B4
330
1F
100
AcDbEntity
  8
0
 62
     7
370
    60
100
AcDbLine
 10
510.8908300924968
 20
65.59871244635187
 30
0.0
 11
483.7118750924967
 21
65.59871244635187
 31
0.0
  0
LINE
  5
1B5
330
1F
100
AcDbEntity
  8
0
 62
     7
370
    60
100
AcDbLine
 10
510.8908300924968
 20
318.5987124463518
 30
0.0
 11
483.7118750924967
 21
318.5987124463518
 31
0.0
  0
ARC
  5
1B6
330
1F
100
AcDbEntity
  8
0
 62
     7
370
    60
100
AcDbCircle
 10
483.7118750924967
 20
313.5987124463518
 30
0.0
 40
5.000000000000007
100
AcDbArc
 50
90.0000030000003
 51
180.0000050000003
  0
CIRCLE
  5
1B7
330
1F
100
AcDbEntity
  8
0
 62
     7
370
    60
100
AcDbCircle
 10
484.5118780924967
 20
108.0987124463519
 30
0.0
 40
1.5
  0
CIRCLE
  5
1B8
330
1F
100
AcDbEntity
  8
0
 62
     7
370
    60
100
AcDbCircle
 10
484.5118780924967
 20
161.0987124463519
 30
0.0
 40
1.5
  0
CIRCLE
  5
1B9
330
1F
100
AcDbEntity
  8
0
 62
     7
370
    60
100
AcDbCircle
 10
484.5118780924967
 20
223.0987124463519
 30
0.0
 40
1.5
  0
CIRCLE
  5
1BA
330
1F
100
AcDbEntity
  8
0
 62
     7
370
    60
100
AcDbCircle
 10
484.5118780924967
 20
276.0987124463518
 30
0.0
 40
1.5
  0
LINE
  5
1BB
330
1F
100
AcDbEntity
  8
0
 62
     7
 48
0.025213
370
    60
100
AcDbLine
 10
590.7118750924967
 20
65.59871244635187
 30
0.0
 11
589.7033610924968
 21
65.59871244635187
 31
0.0
  0
LINE
  5
1BC
330
1F
100
AcDbEntity
  8
0
 62
     7
 48
0.051921
370
    60
100
AcDbLine
 10
597.2433230924967
 20
72.13015344635187
 30
0.0
 11
598.7118750924967
 21
73.59871244635187
 31
0.0
  0
LINE
  5
1BD
330
1F
100
AcDbEntity
  8
0
 62
     7
 48
0.043867
370
    60
100
AcDbLine
 10
596.0025700924966
 20
70.88940044635189
 30
0.0
 11
597.2433230924967
 21
72.13015344635187
 31
0.0
  0
LINE
  5
1BE
330
1F
100
AcDbEntity
  8
0
 62
     7
 48
0.067488
370
    60
100
AcDbLine
 10
594.0937110924967
 20
68.98054844635186
 30
0.0
 11
596.0025700924966
 21
70.88940044635189
 31
0.0
  0
LINE
  5
1BF
330
1F
100
AcDbEntity
  8
0
 62
     7
 48
0.043867
370
    60
100
AcDbLine
 10
592.8529580924967
 20
67.73979544635188
 30
0.0
 11
594.0937110924967
 21
68.98054844635186
 31
0.0
  0
LINE
  5
1C0
330
1F
100
AcDbEntity
  8
0
 62
     7
 48
0.067488
370
    60
100
AcDbLine
 10
590.9441140924966
 20
65.83094344635188
 30
0.0
 11
592.8529580924967
 21
67.73979544635188
 31
0.0
  0
LINE
  5
1C1
330
1F
100
AcDbEntity
  8
0
 62
     7
 48
0.008211
370
    60
100
AcDbLine
 10
590.7118750924967
 20
65.59871244635187
 30
0.0
 11
590.9441140924966
 21
65.83094344635188
 31
0.0
  0
LINE
  5
1C2
330
1F
100
AcDbEntity
  8
0
 62
     7
 48
0.025213
370
    60
100
AcDbLine
 10
590.7118750924967
 20
318.5987124463518
 30
0.0
 11
589.7033610924968
 21
318.5987124463518
 31
0.0
  0
LINE
  5
1C3
330
1F
100
AcDbEntity
  8
0
 62
     7
370
    60
100
AcDbLine
 10
598.7118750924967
 20
73.59871244635187
 30
0.0
 11
598.7118750924967
 21
310.5987124463518
 31
0.0
  0
LINE
  5
1C4
330
1F
100
AcDbEntity
  8
0
 62
     7
 48
0.008211
370
    60
100
AcDbLine
 10
590.9441140924966
 20
318.3664814463519
 30
0.0
 11
590.7118750924967
 21
318.5987124463518
 31
0.0
  0
LINE
  5
1C5
330
1F
100
AcDbEntity
  8
0
 62
     7
 48
0.067488
370
    60
100
AcDbLine
 10
590.9441140924966
 20
318.3664814463519
 30
0.0
 11
592.8529580924967
 21
316.4576294463519
 31
0.0
  0
LINE
  5
1C6
330
1F
100
AcDbEntity
  8
0
 62
     7
 48
0.043867
370
    60
100
AcDbLine
 10
592.8529580924967
 20
316.4576294463519
 30
0.0
 11
594.0937110924967
 21
315.2168764463519
 31
0.0
  0
LINE
  5
1C7
330
1F
100
AcDbEntity
  8
0
 62
     7
 48
0.067488
370
    60
100
AcDbLine
 10
594.0937110924967
 20
315.2168764463519
 30
0.0
 11
596.0025700924966
 21
313.3080244463519
 31
0.0
  0
LINE
  5
1C8
330
1F
100
AcDbEntity
  8
0
 62
     7
 48
0.043867
370
    60
100
AcDbLine
 10
596.0025700924966
 20
313.3080244463519
 30
0.0
 11
597.2433230924967
 21
312.067271446352
 31
0.0
  0
LINE
  5
1C9
330
1F
100
AcDbEntity
  8
0
 62
     7
 48
0.051921
370
    60
100
AcDbLine
 10
597.2433230924967
 20
312.067271446352
 30
0.0
 11
598.7118750924967
 21
310.5987124463518
 31
0.0
  0
LINE
  5
1CA
330
1F
100
AcDbEntity
  8
0
 62
     7
370
    60
100
AcDbLine
 10
208.9118720924967
 20
177.0987124463519
 30
0.0
 11
208.9118720924967
 21
207.0987124463519
 31
0.0
  0
LINE
  5
1CB
330
1F
100
AcDbEntity
  8
0
 62
     7
 48
0.275
370
    60
100
AcDbLine
 10
208.9118720924967
 20
177.0987124463519
 30
0.0
 11
219.9118720924967
 21
177.0987124463519
 31
0.0
  0
LINE
  5
1CC
330
1F
100
AcDbEntity
  8
0
 62
     7
 48
0.129688
370
    60
100
AcDbLine
 10
219.9118720924967
 20
177.0987124463519
 30
0.0
 11
225.0994020924967
 21
177.0987124463519
 31
0.0
  0
LINE
  5
1CD
330
1F
100
AcDbEntity
  8
0
 62
     7
 48
0.036613
370
    60
100
AcDbLine
 10
226.5639180924967
 20
177.0987124463519
 30
0.0
 11
225.0994020924967
 21
177.0987124463519
 31
0.0
  0
LINE
  5
1CE
330
1F
100
AcDbEntity
  8
0
 62
     7
 48
0.108699
370
    60
100
AcDbLine
 10
230.9118720924967
 20
177.0987124463519
 30
0.0
 11
226.5639180924967
 21
177.0987124463519
 31
0.0
  0
LINE
  5
1CF
330
1F
100
AcDbEntity
  8
0
 62
     7
 48
0.047721
370
    60
100
AcDbLine
 10
195.2197180924967
 20
65.59871244635187
 30
0.0
 11
193.3108740924967
 21
65.59871244635187
 31
0.0
  0
LINE
  5
1D0
330
1F
100
AcDbEntity
  8
0
 62
     7
 48
0.047721
370
    60
100
AcDbLine
 10
195.2197180924967
 20
318.5987124463518
 30
0.0
 11
193.3108740924967
 21
318.5987124463518
 31
0.0
  0
LINE
  5
1D1
330
1F
100
AcDbEntity
  8
0
 62
     7
 48
0.031019
370
    60
100
AcDbLine
 10
193.3108740924967
 20
65.59871244635187
 30
0.0
 11
192.0701210924967
 21
65.59871244635187
 31
0.0
  0
LINE
  5
1D2
330
1F
100
AcDbEntity
  8
0
 62
     7
 48
0.031019
370
    60
100
AcDbLine
 10
193.3108740924967
 20
318.5987124463518
 30
0.0
 11
192.0701210924967
 21
318.5987124463518
 31
0.0
  0
LINE
  5
1D3
330
1F
100
AcDbEntity
  8
0
 62
     7
 48
0.047721
370
    60
100
AcDbLine
 10
192.0701210924967
 20
65.59871244635187
 30
0.0
 11
190.1612620924967
 21
65.59871244635187
 31
0.0
  0
LINE
  5
1D4
330
1F
100
AcDbEntity
  8
0
 62
     7
 48
0.047721
370
    60
100
AcDbLine
 10
192.0701210924967
 20
318.5987124463518
 30
0.0
 11
190.1612620924967
 21
318.5987124463518
 31
0.0
  0
LINE
  5
1D5
330
1F
100
AcDbEntity
  8
0
 62
     7
 48
0.031019
370
    60
100
AcDbLine
 10
190.1612620924967
 20
65.59871244635187
 30
0.0
 11
188.9205080924967
 21
65.59871244635187
 31
0.0
  0
LINE
  5
1D6
330
1F
100
AcDbEntity
  8
0
 62
     7
 48
0.031019
370
    60
100
AcDbLine
 10
190.1612620924967
 20
318.5987124463518
 30
0.0
 11
188.9205080924967
 21
318.5987124463518
 31
0.0
  0
LINE
  5
1D7
330
1F
100
AcDbEntity
  8
0
 62
     7
 48
0.047721
370
    60
100
AcDbLine
 10
188.9205080924967
 20
65.59871244635187
 30
0.0
 11
187.0116640924967
 21
65.59871244635187
 31
0.0
  0
LINE
  5
1D8
330
1F
100
AcDbEntity
  8
0
 62
     7
 48
0.047721
370
    60
100
AcDbLine
 10
188.9205080924967
 20
318.5987124463518
 30
0.0
 11
187.0116640924967
 21
318.5987124463518
 31
0.0
  0
LINE
  5
1D9
330
1F
100
AcDbEntity
  8
0
 62
     7
 48
0.031019
370
    60
100
AcDbLine
 10
187.0116640924967
 20
65.59871244635187
 30
0.0
 11
185.7709110924967
 21
65.59871244635187
 31
0.0
  0
LINE
  5
1DA
330
1F
100
AcDbEntity
  8
0
 62
     7
 48
0.031019
370
    60
100
AcDbLine
 10
187.0116640924967
 20
318.5987124463518
 30
0.0
 11
185.7709110924967
 21
318.5987124463518
 31
0.0
  0
LINE
  5
1DB
330
1F
100
AcDbEntity
  8
0
 62
     7
 48
0.047721
370
    60
100
AcDbLine
 10
185.7709110924967
 20
65.59871244635187
 30
0.0
 11
183.8620520924967
 21
65.59871244635187
 31
0.0
  0
LINE
  5
1DC
330
1F
100
AcDbEntity
  8
0
 62
     7
 48
0.047721
370
    60
100
AcDbLine
 10
185.7709110924967
 20
318.5987124463518
 30
0.0
 11
183.8620520924967
 21
318.5987124463518
 31
0.0
  0
LINE
  5
1DD
330
1F
100
AcDbEntity
  8
0
 62
     7
 48
0.031019
370
    60
100
AcDbLine
 10
183.8620520924967
 20
65.59871244635187
 30
0.0
 11
182.6212990924967
 21
65.59871244635187
 31
0.0
  0
LINE
  5
1DE
330
1F
100
AcDbEntity
  8
0
 62
     7
 48
0.031019
370
    60
100
AcDbLine
 10
183.8620520924967
 20
318.5987124463518
 30
0.0
 11
182.6212990924967
 21
318.5987124463518
 31
0.0
  0
LINE
  5
1DF
330
1F
100
AcDbEntity
  8
0
 62
     7
 48
0.047721
370
    60
100
AcDbLine
 10
182.6212990924967
 20
65.59871244635187
 30
0.0
 11
180.7124550924967
 21
65.59871244635187
 31
0.0
  0
LINE
  5
1E0
330
1F
100
AcDbEntity
  8
0
 62
     7
 48
0.047721
370
    60
100
AcDbLine
 10
182.6212990924967
 20
318.5987124463518
 30
0.0
 11
180.7124550924967
 21
318.5987124463518
 31
0.0
  0
LINE
  5
1E1
330
1F
100
AcDbEntity
  8
0
 62
     7
 48
0.031019
370
    60
100
AcDbLine
 10
180.7124550924967
 20
65.59871244635187
 30
0.0
 11
179.4717020924967
 21
65.59871244635187
 31
0.0
  0
LINE
  5
1E2
330
1F
100
AcDbEntity
  8
0
 62
     7
 48
0.031019
370
    60
100
AcDbLine
 10
180.7124550924967
 20
318.5987124463518
 30
0.0
 11
179.4717020924967
 21
318.5987124463518
 31
0.0
  0
LINE
  5
1E3
330
1F
100
AcDbEntity
  8
0
 62
     7
 48
0.047721
370
    60
100
AcDbLine
 10
179.4717020924967
 20
65.59871244635187
 30
0.0
 11
177.5628580924967
 21
65.59871244635187
 31
0.0
  0
LINE
  5
1E4
330
1F
100
AcDbEntity
  8
0
 62
     7
 48
0.047721
370
    60
100
AcDbLine
 10
179.4717020924967
 20
318.5987124463518
 30
0.0
 11
177.5628580924967
 21
318.5987124463518
 31
0.0
  0
LINE
  5
1E5
330
1F
100
AcDbEntity
  8
0
 62
     7
 48
0.031019
370
    60
100
AcDbLine
 10
177.5628580924967
 20
65.59871244635187
 30
0.0
 11
176.3221040924967
 21
65.59871244635187
 31
0.0
  0
LINE
  5
1E6
330
1F
100
AcDbEntity
  8
0
 62
     7
 48
0.031019
370
    60
100
AcDbLine
 10
177.5628580924967
 20
318.5987124463518
 30
0.0
 11
176.3221040924967
 21
318.5987124463518
 31
0.0
  0
LINE
  5
1E7
330
1F
100
AcDbEntity
  8
0
 62
     7
 48
0.047721
370
    60
100
AcDbLine
 10
176.3221040924967
 20
65.59871244635187
 30
0.0
 11
174.4132450924967
 21
65.59871244635187
 31
0.0
  0
LINE
  5
1E8
330
1F
100
AcDbEntity
  8
0
 62
     7
 48
0.047721
370
    60
100
AcDbLine
 10
176.3221040924967
 20
318.5987124463518
 30
0.0
 11
174.4132450924967
 21
318.5987124463518
 31
0.0
  0
LINE
  5
1E9
330
1F
100
AcDbEntity
  8
0
 62
     7
 48
0.031019
370
    60
100
AcDbLine
 10
174.4132450924967
 20
65.59871244635187
 30
0.0
 11
173.1724920924967
 21
65.59871244635187
 31
0.0
  0
LINE
  5
1EA
330
1F
100
AcDbEntity
  8
0
 62
     7
 48
0.031019
370
    60
100
AcDbLine
 10
174.4132450924967
 20
318.5987124463518
 30
0.0
 11
173.1724920924967
 21
318.5987124463518
 31
0.0
  0
LINE
  5
1EB
330
1F
100
AcDbEntity
  8
0
 62
     7
 48
0.047721
370
    60
100
AcDbLine
 10
173.1724920924967
 20
65.59871244635187
 30
0.0
 11
171.2636480924967
 21
65.59871244635187
 31
0.0
  0
LINE
  5
1EC
330
1F
100
AcDbEntity
  8
0
 62
     7
 48
0.047721
370
    60
100
AcDbLine
 10
173.1724920924967
 20
318.5987124463518
 30
0.0
 11
171.2636480924967
 21
318.5987124463518
 31
0.0
  0
LINE
  5
1ED
330
1F
100
AcDbEntity
  8
0
 62
     7
 48
0.031019
370
    60
100
AcDbLine
 10
171.2636480924967
 20
65.59871244635187
 30
0.0
 11
170.0228950924967
 21
65.59871244635187
 31
0.0
  0
LINE
  5
1EE
330
1F
100
AcDbEntity
  8
0
 62
     7
 48
0.031019
370
    60
100
AcDbLine
 10
171.2636480924967
 20
318.5987124463518
 30
0.0
 11
170.0228950924967
 21
318.5987124463518
 31
0.0
  0
LINE
  5
1EF
330
1F
100
AcDbEntity
  8
0
 62
     7
 48
0.047721
370
    60
100
AcDbLine
 10
170.0228950924967
 20
65.59871244635187
 30
0.0
 11
168.1140360924967
 21
65.59871244635187
 31
0.0
  0
LINE
  5
1F0
330
1F
100
AcDbEntity
  8
0
 62
     7
 48
0.047721
370
    60
100
AcDbLine
 10
170.0228950924967
 20
318.5987124463518
 30
0.0
 11
168.1140360924967
 21
318.5987124463518
 31
0.0
  0
LINE
  5
1F1
330
1F
100
AcDbEntity
  8
0
 62
     7
 48
0.031018
370
    60
100
AcDbLine
 10
168.1140360924967
 20
65.59871244635187
 30
0.0
 11
166.8732980924967
 21
65.59871244635187
 31
0.0
  0
LINE
  5
1F2
330
1F
100
AcDbEntity
  8
0
 62
     7
 48
0.031018
370
    60
100
AcDbLine
 10
168.1140360924967
 20
318.5987124463518
 30
0.0
 11
166.8732980924967
 21
318.5987124463518
 31
0.0
  0
LINE
  5
1F3
330
1F
100
AcDbEntity
  8
0
 62
     7
 48
0.047721
370
    60
100
AcDbLine
 10
166.8732980924967
 20
65.59871244635187
 30
0.0
 11
164.9644380924967
 21
65.59871244635187
 31
0.0
  0
LINE
  5
1F4
330
1F
100
AcDbEntity
  8
0
 62
     7
 48
0.047721
370
    60
100
AcDbLine
 10
166.8732980924967
 20
318.5987124463518
 30
0.0
 11
164.9644380924967
 21
318.5987124463518
 31
0.0
  0
LINE
  5
1F5
330
1F
100
AcDbEntity
  8
0
 62
     7
 48
0.031019
370
    60
100
AcDbLine
 10
164.9644380924967
 20
65.59871244635187
 30
0.0
 11
163.7236850924967
 21
65.59871244635187
 31
0.0
  0
LINE
  5
1F6
330
1F
100
AcDbEntity
  8
0
 62
     7
 48
0.031019
370
    60
100
AcDbLine
 10
164.9644380924967
 20
318.5987124463518
 30
0.0
 11
163.7236850924967
 21
318.5987124463518
 31
0.0
  0
LINE
  5
1F7
330
1F
100
AcDbEntity
  8
0
 62
     7
 48
0.047721
370
    60
100
AcDbLine
 10
163.7236850924967
 20
65.59871244635187
 30
0.0
 11
161.8148410924967
 21
65.59871244635187
 31
0.0
  0
LINE
  5
1F8
330
1F
100
AcDbEntity
  8
0
 62
     7
 48
0.047721
370
    60
100
AcDbLine
 10
163.7236850924967
 20
318.5987124463518
 30
0.0
 11
161.8148410924967
 21
318.5987124463518
 31
0.0
  0
LINE
  5
1F9
330
1F
100
AcDbEntity
  8
0
 62
     7
 48
0.031019
370
    60
100
AcDbLine
 10
161.8148410924967
 20
65.59871244635187
 30
0.0
 11
160.5740880924967
 21
65.59871244635187
 31
0.0
  0
LINE
  5
1FA
330
1F
100
AcDbEntity
  8
0
 62
     7
 48
0.031019
370
    60
100
AcDbLine
 10
161.8148410924967
 20
318.5987124463518
 30
0.0
 11
160.5740880924967
 21
318.5987124463518
 31
0.0
  0
LINE
  5
1FB
330
1F
100
AcDbEntity
  8
0
 62
     7
 48
0.047721
370
    60
100
AcDbLine
 10
160.5740880924967
 20
65.59871244635187
 30
0.0
 11
158.6652290924967
 21
65.59871244635187
 31
0.0
  0
LINE
  5
1FC
330
1F
100
AcDbEntity
  8
0
 62
     7
 48
0.047721
370
    60
100
AcDbLine
 10
160.5740880924967
 20
318.5987124463518
 30
0.0
 11
158.6652290924967
 21
318.5987124463518
 31
0.0
  0
LINE
  5
1FD
330
1F
100
AcDbEntity
  8
0
 62
     7
 48
0.031019
370
    60
100
AcDbLine
 10
158.6652290924967
 20
65.59871244635187
 30
0.0
 11
157.4244760924967
 21
65.59871244635187
 31
0.0
  0
LINE
  5
1FE
330
1F
100
AcDbEntity
  8
0
 62
     7
 48
0.031019
370
    60
100
AcDbLine
 10
158.6652290924967
 20
318.5987124463518
 30
0.0
 11
157.4244760924967
 21
318.5987124463518
 31
0.0
  0
LINE
  5
1FF
330
1F
100
AcDbEntity
  8
0
 62
     7
 48
0.047721
370
    60
100
AcDbLine
 10
157.4244760924967
 20
65.59871244635187
 30
0.0
 11
155.5156320924967
 21
65.59871244635187
 31
0.0
  0
LINE
  5
200
330
1F
100
AcDbEntity
  8
0
 62
     7
 48
0.047721
370
    60
100
AcDbLine
 10
157.4244760924967
 20
318.5987124463518
 30
0.0
 11
155.5156320924967
 21
318.5987124463518
 31
0.0
  0
LINE
  5
201
330
1F
100
AcDbEntity
  8
0
 62
     7
 48
0.031019
370
    60
100
AcDbLine
 10
155.5156320924967
 20
65.59871244635187
 30
0.0
 11
154.2748790924967
 21
65.59871244635187
 31
0.0
  0
LINE
  5
202
330
1F
100
AcDbEntity
  8
0
 62
     7
 48
0.031019
370
    60
100
AcDbLine
 10
155.5156320924967
 20
318.5987124463518
 30
0.0
 11
154.2748790924967
 21
318.5987124463518
 31
0.0
  0
LINE
  5
203
330
1F
100
AcDbEntity
  8
0
 62
     7
 48
0.047721
370
    60
100
AcDbLine
 10
154.2748790924967
 20
65.59871244635187
 30
0.0
 11
152.3660350924966
 21
65.59871244635187
 31
0.0
  0
LINE
  5
204
330
1F
100
AcDbEntity
  8
0
 62
     7
 48
0.047721
370
    60
100
AcDbLine
 10
154.2748790924967
 20
318.5987124463518
 30
0.0
 11
152.3660350924966
 21
318.5987124463518
 31
0.0
  0
LINE
  5
205
330
1F
100
AcDbEntity
  8
0
 62
     7
 48
0.031019
370
    60
100
AcDbLine
 10
152.3660350924966
 20
65.59871244635187
 30
0.0
 11
151.1252810924967
 21
65.59871244635187
 31
0.0
  0
LINE
  5
206
330
1F
100
AcDbEntity
  8
0
 62
     7
 48
0.031019
370
    60
100
AcDbLine
 10
152.3660350924966
 20
318.5987124463518
 30
0.0
 11
151.1252810924967
 21
318.5987124463518
 31
0.0
  0
LINE
  5
207
330
1F
100
AcDbEntity
  8
0
 62
     7
 48
0.047721
370
    60
100
AcDbLine
 10
151.1252810924967
 20
65.59871244635187
 30
0.0
 11
149.2164220924967
 21
65.59871244635187
 31
0.0
  0
LINE
  5
208
330
1F
100
AcDbEntity
  8
0
 62
     7
 48
0.047721
370
    60
100
AcDbLine
 10
151.1252810924967
 20
318.5987124463518
 30
0.0
 11
149.2164220924967
 21
318.5987124463518
 31
0.0
  0
LINE
  5
209
330
1F
100
AcDbEntity
  8
0
 62
     7
 48
0.031019
370
    60
100
AcDbLine
 10
149.2164220924967
 20
65.59871244635187
 30
0.0
 11
147.9756690924967
 21
65.59871244635187
 31
0.0
  0
LINE
  5
20A
330
1F
100
AcDbEntity
  8
0
 62
     7
 48
0.031019
370
    60
100
AcDbLine
 10
149.2164220924967
 20
318.5987124463518
 30
0.0
 11
147.9756690924967
 21
318.5987124463518
 31
0.0
  0
LINE
  5
20B
330
1F
100
AcDbEntity
  8
0
 62
     7
 48
0.047721
370
    60
100
AcDbLine
 10
147.9756690924967
 20
65.59871244635187
 30
0.0
 11
146.0668250924967
 21
65.59871244635187
 31
0.0
  0
LINE
  5
20C
330
1F
100
AcDbEntity
  8
0
 62
     7
 48
0.047721
370
    60
100
AcDbLine
 10
147.9756690924967
 20
318.5987124463518
 30
0.0
 11
146.0668250924967
 21
318.5987124463518
 31
0.0
  0
LINE
  5
20D
330
1F
100
AcDbEntity
  8
0
 62
     7
 48
0.031019
370
    60
100
AcDbLine
 10
146.0668250924967
 20
65.59871244635187
 30
0.0
 11
144.8260720924966
 21
65.59871244635187
 31
0.0
  0
LINE
  5
20E
330
1F
100
AcDbEntity
  8
0
 62
     7
 48
0.031019
370
    60
100
AcDbLine
 10
146.0668250924967
 20
318.5987124463518
 30
0.0
 11
144.8260720924966
 21
318.5987124463518
 31
0.0
  0
LINE
  5
20F
330
1F
100
AcDbEntity
  8
0
 62
     7
 48
0.047721
370
    60
100
AcDbLine
 10
144.8260720924966
 20
65.59871244635187
 30
0.0
 11
142.9172130924967
 21
65.59871244635187
 31
0.0
  0
LINE
  5
210
330
1F
100
AcDbEntity
  8
0
 62
     7
 48
0.047721
370
    60
100
AcDbLine
 10
144.8260720924966
 20
318.5987124463518
 30
0.0
 11
142.9172130924967
 21
318.5987124463518
 31
0.0
  0
LINE
  5
211
330
1F
100
AcDbEntity
  8
0
 62
     7
 48
0.031019
370
    60
100
AcDbLine
 10
142.9172130924967
 20
65.59871244635187
 30
0.0
 11
141.6764590924967
 21
65.59871244635187
 31
0.0
  0
LINE
  5
212
330
1F
100
AcDbEntity
  8
0
 62
     7
 48
0.031019
370
    60
100
AcDbLine
 10
142.9172130924967
 20
318.5987124463518
 30
0.0
 11
141.6764590924967
 21
318.5987124463518
 31
0.0
  0
LINE
  5
213
330
1F
100
AcDbEntity
  8
0
 62
     7
 48
0.047721
370
    60
100
AcDbLine
 10
141.6764590924967
 20
65.59871244635187
 30
0.0
 11
139.7676150924967
 21
65.59871244635187
 31
0.0
  0
LINE
  5
214
330
1F
100
AcDbEntity
  8
0
 62
     7
 48
0.047721
370
    60
100
AcDbLine
 10
141.6764590924967
 20
318.5987124463518
 30
0.0
 11
139.7676150924967
 21
318.5987124463518
 31
0.0
  0
LINE
  5
215
330
1F
100
AcDbEntity
  8
0
 62
     7
 48
0.031019
370
    60
100
AcDbLine
 10
139.7676150924967
 20
65.59871244635187
 30
0.0
 11
138.5268620924967
 21
65.59871244635187
 31
0.0
  0
LINE
  5
216
330
1F
100
AcDbEntity
  8
0
 62
     7
 48
0.031019
370
    60
100
AcDbLine
 10
139.7676150924967
 20
318.5987124463518
 30
0.0
 11
138.5268620924967
 21
318.5987124463518
 31
0.0
  0
LINE
  5
217
330
1F
100
AcDbEntity
  8
0
 62
     7
 48
0.047721
370
    60
100
AcDbLine
 10
138.5268620924967
 20
65.59871244635187
 30
0.0
 11
136.6180180924967
 21
65.59871244635187
 31
0.0
  0
LINE
  5
218
330
1F
100
AcDbEntity
  8
0
 62
     7
 48
0.047721
370
    60
100
AcDbLine
 10
138.5268620924967
 20
318.5987124463518
 30
0.0
 11
136.6180180924967
 21
318.5987124463518
 31
0.0
  0
LINE
  5
219
330
1F
100
AcDbEntity
  8
0
 62
     7
 48
0.031019
370
    60
100
AcDbLine
 10
136.6180180924967
 20
65.59871244635187
 30
0.0
 11
135.3772650924967
 21
65.59871244635187
 31
0.0
  0
LINE
  5
21A
330
1F
100
AcDbEntity
  8
0
 62
     7
 48
0.031019
370
    60
100
AcDbLine
 10
136.6180180924967
 20
318.5987124463518
 30
0.0
 11
135.3772650924967
 21
318.5987124463518
 31
0.0
  0
LINE
  5
21B
330
1F
100
AcDbEntity
  8
0
 62
     7
 48
0.047721
370
    60
100
AcDbLine
 10
135.3772650924967
 20
65.59871244635187
 30
0.0
 11
133.4684060924967
 21
65.59871244635187
 31
0.0
  0
LINE
  5
21C
330
1F
100
AcDbEntity
  8
0
 62
     7
 48
0.047721
370
    60
100
AcDbLine
 10
135.3772650924967
 20
318.5987124463518
 30
0.0
 11
133.4684060924967
 21
318.5987124463518
 31
0.0
  0
LINE
  5
21D
330
1F
100
AcDbEntity
  8
0
 62
     7
 48
0.031019
370
    60
100
AcDbLine
 10
133.4684060924967
 20
65.59871244635187
 30
0.0
 11
132.2276530924967
 21
65.59871244635187
 31
0.0
  0
LINE
  5
21E
330
1F
100
AcDbEntity
  8
0
 62
     7
 48
0.031019
370
    60
100
AcDbLine
 10
133.4684060924967
 20
318.5987124463518
 30
0.0
 11
132.2276530924967
 21
318.5987124463518
 31
0.0
  0
LINE
  5
21F
330
1F
100
AcDbEntity
  8
0
 62
     7
 48
0.047721
370
    60
100
AcDbLine
 10
132.2276530924967
 20
65.59871244635187
 30
0.0
 11
130.3188090924967
 21
65.59871244635187
 31
0.0
  0
LINE
  5
220
330
1F
100
AcDbEntity
  8
0
 62
     7
 48
0.047721
370
    60
100
AcDbLine
 10
132.2276530924967
 20
318.5987124463518
 30
0.0
 11
130.3188090924967
 21
318.5987124463518
 31
0.0
  0
LINE
  5
221
330
1F
100
AcDbEntity
  8
0
 62
     7
 48
0.031019
370
    60
100
AcDbLine
 10
130.3188090924967
 20
65.59871244635187
 30
0.0
 11
129.0780550924967
 21
65.59871244635187
 31
0.0
  0
LINE
  5
222
330
1F
100
AcDbEntity
  8
0
 62
     7
 48
0.031019
370
    60
100
AcDbLine
 10
130.3188090924967
 20
318.5987124463518
 30
0.0
 11
129.0780550924967
 21
318.5987124463518
 31
0.0
  0
LINE
  5
223
330
1F
100
AcDbEntity
  8
0
 62
     7
 48
0.047721
370
    60
100
AcDbLine
 10
129.0780550924967
 20
65.59871244635187
 30
0.0
 11
127.1691960924967
 21
65.59871244635187
 31
0.0
  0
LINE
  5
224
330
1F
100
AcDbEntity
  8
0
 62
     7
 48
0.047721
370
    60
100
AcDbLine
 10
129.0780550924967
 20
318.5987124463518
 30
0.0
 11
127.1691960924967
 21
318.5987124463518
 31
0.0
  0
LINE
  5
225
330
1F
100
AcDbEntity
  8
0
 62
     7
 48
0.031019
370
    60
100
AcDbLine
 10
127.1691960924967
 20
65.59871244635187
 30
0.0
 11
125.9284430924967
 21
65.59871244635187
 31
0.0
  0
LINE
  5
226
330
1F
100
AcDbEntity
  8
0
 62
     7
 48
0.031019
370
    60
100
AcDbLine
 10
127.1691960924967
 20
318.5987124463518
 30
0.0
 11
125.9284430924967
 21
318.5987124463518
 31
0.0
  0
LINE
  5
227
330
1F
100
AcDbEntity
  8
0
 62
     7
 48
0.047721
370
    60
100
AcDbLine
 10
125.9284430924967
 20
65.59871244635187
 30
0.0
 11
124.0195990924967
 21
65.59871244635187
 31
0.0
  0
LINE
  5
228
330
1F
100
AcDbEntity
  8
0
 62
     7
 48
0.047721
370
    60
100
AcDbLine
 10
125.9284430924967
 20
318.5987124463518
 30
0.0
 11
124.0195990924967
 21
318.5987124463518
 31
0.0
  0
LINE
  5
229
330
1F
100
AcDbEntity
  8
0
 62
     7
 48
0.031019
370
    60
100
AcDbLine
 10
124.0195990924967
 20
65.59871244635187
 30
0.0
 11
122.7788460924967
 21
65.59871244635187
 31
0.0
  0
LINE
  5
22A
330
1F
100
AcDbEntity
  8
0
 62
     7
 48
0.031019
370
    60
100
AcDbLine
 10
124.0195990924967
 20
318.5987124463518
 30
0.0
 11
122.7788460924967
 21
318.5987124463518
 31
0.0
  0
LINE
  5
22B
330
1F
100
AcDbEntity
  8
0
 62
     7
 48
0.047721
370
    60
100
AcDbLine
 10
122.7788460924967
 20
65.59871244635187
 30
0.0
 11
120.8700020924967
 21
65.59871244635187
 31
0.0
  0
LINE
  5
22C
330
1F
100
AcDbEntity
  8
0
 62
     7
 48
0.047721
370
    60
100
AcDbLine
 10
122.7788460924967
 20
318.5987124463518
 30
0.0
 11
120.8700020924967
 21
318.5987124463518
 31
0.0
  0
LINE
  5
22D
330
1F
100
AcDbEntity
  8
0
 62
     7
 48
0.031019
370
    60
100
AcDbLine
 10
120.8700020924967
 20
65.59871244635187
 30
0.0
 11
119.6292490924967
 21
65.59871244635187
 31
0.0
  0
LINE
  5
22E
330
1F
100
AcDbEntity
  8
0
 62
     7
 48
0.031019
370
    60
100
AcDbLine
 10
120.8700020924967
 20
318.5987124463518
 30
0.0
 11
119.6292490924967
 21
318.5987124463518
 31
0.0
  0
LINE
  5
22F
330
1F
100
AcDbEntity
  8
0
 62
     7
 48
0.047721
370
    60
100
AcDbLine
 10
119.6292490924967
 20
65.59871244635187
 30
0.0
 11
117.7203890924967
 21
65.59871244635187
 31
0.0
  0
LINE
  5
230
330
1F
100
AcDbEntity
  8
0
 62
     7
 48
0.047721
370
    60
100
AcDbLine
 10
119.6292490924967
 20
318.5987124463518
 30
0.0
 11
117.7203890924967
 21
318.5987124463518
 31
0.0
  0
LINE
  5
231
330
1F
100
AcDbEntity
  8
0
 62
     7
 48
0.108699
370
    60
100
AcDbLine
 10
226.5639180924967
 20
207.0987124463519
 30
0.0
 11
230.9118720924967
 21
207.0987124463519
 31
0.0
  0
LINE
  5
232
330
1F
100
AcDbEntity
  8
0
 62
     7
 48
0.036613
370
    60
100
AcDbLine
 10
225.0994020924967
 20
207.0987124463519
 30
0.0
 11
226.5639180924967
 21
207.0987124463519
 31
0.0
  0
LINE
  5
233
330
1F
100
AcDbEntity
  8
0
 62
     7
 48
0.129688
370
    60
100
AcDbLine
 10
219.9118720924967
 20
207.0987124463519
 30
0.0
 11
225.0994020924967
 21
207.0987124463519
 31
0.0
  0
LINE
  5
234
330
1F
100
AcDbEntity
  8
0
 62
     7
 48
0.275
370
    60
100
AcDbLine
 10
208.9118720924967
 20
207.0987124463519
 30
0.0
 11
219.9118720924967
 21
207.0987124463519
 31
0.0
  0
LINE
  5
235
330
1F
100
AcDbEntity
  8
0
 62
     7
 48
0.108699
370
    60
100
AcDbLine
 10
230.9118720924967
 20
292.0987124463518
 30
0.0
 11
226.5639180924967
 21
292.0987124463518
 31
0.0
  0
LINE
  5
236
330
1F
100
AcDbEntity
  8
0
 62
     7
370
    60
100
AcDbLine
 10
226.5639180924967
 20
207.0987124463519
 30
0.0
 11
226.5639180924967
 21
292.0987124463518
 31
0.0
  0
LINE
  5
237
330
1F
100
AcDbEntity
  8
0
 62
     7
 48
0.036613
370
    60
100
AcDbLine
 10
226.5639180924967
 20
292.0987124463518
 30
0.0
 11
225.0994020924967
 21
292.0987124463518
 31
0.0
  0
LINE
  5
238
330
1F
100
AcDbEntity
  8
0
 62
     7
370
    60
100
AcDbLine
 10
225.0994020924967
 20
207.0987124463519
 30
0.0
 11
225.0994020924967
 21
292.0987124463518
 31
0.0
  0
LINE
  5
239
330
1F
100
AcDbEntity
  8
0
 62
     7
370
    60
100
AcDbLine
 10
219.9118720924967
 20
207.0987124463519
 30
0.0
 11
219.9118720924967
 21
292.0987124463518
 31
0.0
  0
LINE
  5
23A
330
1F
100
AcDbEntity
  8
0
 62
     7
 48
0.129688
370
    60
100
AcDbLine
 10
219.9118720924967
 20
292.0987124463518
 30
0.0
 11
225.0994020924967
 21
292.0987124463518
 31
0.0
  0
LINE
  5
23B
330
1F
100
AcDbEntity
  8
0
 62
     7
 48
0.108699
370
    60
100
AcDbLine
 10
230.9118720924967
 20
92.09871244635187
 30
0.0
 11
226.5639180924967
 21
92.09871244635187
 31
0.0
  0
LINE
  5
23C
330
1F
100
AcDbEntity
  8
0
 62
     7
370
    60
100
AcDbLine
 10
226.5639180924967
 20
92.09871244635187
 30
0.0
 11
226.5639180924967
 21
177.0987124463519
 31
0.0
  0
LINE
  5
23D
330
1F
100
AcDbEntity
  8
0
 62
     7
 48
0.036613
370
    60
100
AcDbLine
 10
226.5639180924967
 20
92.09871244635187
 30
0.0
 11
225.0994020924967
 21
92.09871244635187
 31
0.0
  0
LINE
  5
23E
330
1F
100
AcDbEntity
  8
0
 62
     7
370
    60
100
AcDbLine
 10
225.0994020924967
 20
92.09871244635187
 30
0.0
 11
225.0994020924967
 21
177.0987124463519
 31
0.0
  0
LINE
  5
23F
330
1F
100
AcDbEntity
  8
0
 62
     7
370
    60
100
AcDbLine
 10
219.9118720924967
 20
92.09871244635187
 30
0.0
 11
219.9118720924967
 21
177.0987124463519
 31
0.0
  0
LINE
  5
240
330
1F
100
AcDbEntity
  8
0
 62
     7
 48
0.129688
370
    60
100
AcDbLine
 10
219.9118720924967
 20
92.09871244635187
 30
0.0
 11
225.0994020924967
 21
92.09871244635187
 31
0.0
  0
LINE
  5
241
330
1F
100
AcDbEntity
  8
0
 62
     7
 48
0.03283
370
    60
100
AcDbLine
 10
196.5329200924967
 20
65.59871244635187
 30
0.0
 11
195.2197180924967
 21
65.59871244635187
 31
0.0
  0
LINE
  5
242
330
1F
100
AcDbEntity
  8
0
 62
     7
 48
0.03283
370
    60
100
AcDbLine
 10
196.5329200924967
 20
318.5987124463518
 30
0.0
 11
195.2197180924967
 21
318.5987124463518
 31
0.0
  0
LINE
  5
243
330
1F
100
AcDbEntity
  8
0
 62
     7
 48
0.086541
370
    60
100
AcDbLine
 10
228.7118750924967
 20
70.59871244635187
 30
0.0
 11
228.7118750924967
 21
74.06036744635188
 31
0.0
  0
ARC
  5
244
330
1F
100
AcDbEntity
  8
0
 62
     7
370
    60
100
AcDbCircle
 10
223.7118750924967
 20
70.59871244635187
 30
0.0
 40
5.000000000000001
100
AcDbArc
 50
270.0000010000001
 51
0.0000100000000395
  0
LINE
  5
245
330
1F
100
AcDbEntity
  8
0
 62
     7
 48
0.086541
370
    60
100
AcDbLine
 10
228.7118750924967
 20
313.5987124463518
 30
0.0
 11
228.7118750924967
 21
310.1370574463519
 31
0.0
  0
LINE
  5
246
330
1F
100
AcDbEntity
  8
0
 62
     7
370
    60
100
AcDbLine
 10
223.7118750924967
 20
318.5987124463518
 30
0.0
 11
196.5329200924967
 21
318.5987124463518
 31
0.0
  0
LINE
  5
247
330
1F
100
AcDbEntity
  8
0
 62
     7
370
    60
100
AcDbLine
 10
223.7118750924967
 20
65.59871244635187
 30
0.0
 11
196.5329200924967
 21
65.59871244635187
 31
0.0
  0
ARC
  5
248
330
1F
100
AcDbEntity
  8
0
 62
     7
370
    60
100
AcDbCircle
 10
223.7118750924967
 20
313.5987124463518
 30
0.0
 40
5.0
100
AcDbArc
 50
0.0
 51
90.000003
  0
CIRCLE
  5
249
330
1F
100
AcDbEntity
  8
0
 62
     7
370
    60
100
AcDbCircle
 10
222.9118720924967
 20
108.0987124463519
 30
0.0
 40
1.5
  0
CIRCLE
  5
24A
330
1F
100
AcDbEntity
  8
0
 62
     7
370
    60
100
AcDbCircle
 10
222.9118720924967
 20
161.0987124463519
 30
0.0
 40
1.5
  0
CIRCLE
  5
24B
330
1F
100
AcDbEntity
  8
0
 62
     7
370
    60
100
AcDbCircle
 10
222.9118720924967
 20
223.0987124463519
 30
0.0
 40
1.5
  0
CIRCLE
  5
24C
330
1F
100
AcDbEntity
  8
0
 62
     7
370
    60
100
AcDbCircle
 10
222.9118720924967
 20
276.0987124463518
 30
0.0
 40
1.5
  0
LINE
  5
24D
330
1F
100
AcDbEntity
  8
0
 62
     7
 48
0.025213
370
    60
100
AcDbLine
 10
117.7203890924967
 20
318.5987124463518
 30
0.0
 11
116.7118750924967
 21
318.5987124463518
 31
0.0
  0
LINE
  5
24E
330
1F
100
AcDbEntity
  8
0
 62
     7
 48
0.051921
370
    60
100
AcDbLine
 10
108.7118750924967
 20
310.5987124463518
 30
0.0
 11
110.1804270924967
 21
312.067271446352
 31
0.0
  0
LINE
  5
24F
330
1F
100
AcDbEntity
  8
0
 62
     7
 48
0.043867
370
    60
100
AcDbLine
 10
110.1804270924967
 20
312.067271446352
 30
0.0
 11
111.4211800924967
 21
313.3080244463519
 31
0.0
  0
LINE
  5
250
330
1F
100
AcDbEntity
  8
0
 62
     7
 48
0.067488
370
    60
100
AcDbLine
 10
111.4211800924967
 20
313.3080244463519
 30
0.0
 11
113.3300390924967
 21
315.2168764463519
 31
0.0
  0
LINE
  5
251
330
1F
100
AcDbEntity
  8
0
 62
     7
 48
0.043867
370
    60
100
AcDbLine
 10
113.3300390924967
 20
315.2168764463519
 30
0.0
 11
114.5707920924967
 21
316.4576294463519
 31
0.0
  0
LINE
  5
252
330
1F
100
AcDbEntity
  8
0
 62
     7
 48
0.067488
370
    60
100
AcDbLine
 10
114.5707920924967
 20
316.4576294463519
 30
0.0
 11
116.4796360924967
 21
318.3664814463519
 31
0.0
  0
LINE
  5
253
330
1F
100
AcDbEntity
  8
0
 62
     7
 48
0.008211
370
    60
100
AcDbLine
 10
116.4796360924967
 20
318.3664814463519
 30
0.0
 11
116.7118750924967
 21
318.5987124463518
 31
0.0
  0
LINE
  5
254
330
1F
100
AcDbEntity
  8
0
 62
     7
 48
0.025213
370
    60
100
AcDbLine
 10
117.7203890924967
 20
65.59871244635187
 30
0.0
 11
116.7118750924967
 21
65.59871244635187
 31
0.0
  0
LINE
  5
255
330
1F
100
AcDbEntity
  8
0
 62
     7
370
    60
100
AcDbLine
 10
108.7118750924967
 20
73.59871244635187
 30
0.0
 11
108.7118750924967
 21
310.5987124463518
 31
0.0
  0
LINE
  5
256
330
1F
100
AcDbEntity
  8
0
 62
     7
 48
0.008211
370
    60
100
AcDbLine
 10
116.7118750924967
 20
65.59871244635187
 30
0.0
 11
116.4796360924967
 21
65.83094344635188
 31
0.0
  0
LINE
  5
257
330
1F
100
AcDbEntity
  8
0
 62
     7
 48
0.067488
370
    60
100
AcDbLine
 10
114.5707920924967
 20
67.73979544635188
 30
0.0
 11
116.4796360924967
 21
65.83094344635188
 31
0.0
  0
LINE
  5
258
330
1F
100
AcDbEntity
  8
0
 62
     7
 48
0.043867
370
    60
100
AcDbLine
 10
113.3300390924967
 20
68.98054844635186
 30
0.0
 11
114.5707920924967
 21
67.73979544635188
 31
0.0
  0
LINE
  5
259
330
1F
100
AcDbEntity
  8
0
 62
     7
 48
0.067488
370
    60
100
AcDbLine
 10
111.4211800924967
 20
70.88940044635189
 30
0.0
 11
113.3300390924967
 21
68.98054844635186
 31
0.0
  0
LINE
  5
25A
330
1F
100
AcDbEntity
  8
0
 62
     7
 48
0.043867
370
    60
100
AcDbLine
 10
110.1804270924967
 20
72.13015344635187
 30
0.0
 11
111.4211800924967
 21
70.88940044635189
 31
0.0
  0
LINE
  5
25B
330
1F
100
AcDbEntity
  8
0
 62
     7
 48
0.051921
370
    60
100
AcDbLine
 10
108.7118750924967
 20
73.59871244635187
 30
0.0
 11
110.1804270924967
 21
72.13015344635187
 31
0.0
  0
LINE
  5
25C
330
1F
100
AcDbEntity
  8
0
 62
     7
370
    60
100
AcDbLine
 10
476.5118780924967
 20
292.0987124463518
 30
0.0
 11
476.5118780924967
 21
207.0987124463519
 31
0.0
  0
LINE
  5
25D
330
1F
100
AcDbEntity
  8
0
 62
     7
370
    60
100
AcDbLine
 10
476.5118780924967
 20
177.0987124463519
 30
0.0
 11
476.5118780924967
 21
92.09871244635187
 31
0.0
  0
LINE
  5
25E
330
1F
100
AcDbEntity
  8
0
 62
     7
370
    60
100
AcDbLine
 10
230.9118720924967
 20
207.0987124463519
 30
0.0
 11
230.9118720924967
 21
292.0987124463518
 31
0.0
  0
LINE
  5
25F
330
1F
100
AcDbEntity
  8
0
 62
     7
370
    60
100
AcDbLine
 10
230.9118720924967
 20
92.09871244635187
 30
0.0
 11
230.9118720924967
 21
177.0987124463519
 31
0.0
  0
DIMENSION
  5
260
330
1F
100
AcDbEntity
  8
0
370
    25
100
AcDbDimension
  2
*D3
 10
598.7118750924967
 20
362.4751971554269
 30
0.0
 11
353.7118750924967
 21
374.4751971554269
 31
0.0
 70
    32
 71
     5
 41
2.5
 42
490.0
  3
Standard
100
AcDbAlignedDimension
 13
108.7118750924967
 23
232.4184059481131
 33
0.0
 14
598.7118750924967
 24
232.4184059481131
 34
0.0
100
AcDbRotatedDimension
1001
ACAD
1000
DSTYLE
1002
{
1070
   171
1070
     3
1070
   143
1040
0.03937
1070
   274
1070
     3
1070
    41
1040
10.0
1070
   289
1070
     0
1070
   141
1040
2.5
1070
   176
1070
     7
1070
   177
1070
     7
1070
   271
1070
     2
1070
    43
1040
3.75
1070
   278
1070
    44
1070
    44
1040
1.25
1070
    42
1040
0.625
1070
   147
1040
5.0
1070
    77
1070
     1
1070
   272
1070
     2
1070
    73
1070
     0
1070
   172
1070
     1
1070
    74
1070
     0
1070
   283
1070
     0
1070
   140
1040
14.0
1070
   284
1070
     8
1070
    78
1070
     8
1002
}
  0
DIMENSION
  5
261
330
1F
100
AcDbEntity
  8
0
370
    25
100
AcDbDimension
  2
*D4
 10
646.0793818275504
 20
65.59871244635185
 30
0.0
 11
634.0793818275504
 21
192.0987124463518
 31
0.0
 70
    32
 71
     5
 41
2.5
 42
253.0
  3
Standard
100
AcDbAlignedDimension
 13
528.9064700924966
 23
318.5987124463518
 33
0.0
 14
533.0105050924967
 24
65.59871244635187
 34
0.0
 50
90.0
100
AcDbRotatedDimension
1001
ACAD
1000
DSTYLE
1002
{
1070
   171
1070
     3
1070
   143
1040
0.03937
1070
   274
1070
     3
1070
    41
1040
10.0
1070
   289
1070
     0
1070
   141
1040
2.5
1070
   176
1070
     7
1070
   177
1070
     7
1070
   271
1070
     2
1070
    43
1040
3.75
1070
   278
1070
    44
1070
    44
1040
1.25
1070
    42
1040
0.625
1070
   147
1040
5.0
1070
    77
1070
     1
1070
   272
1070
     2
1070
    73
1070
     0
1070
   172
1070
     1
1070
    74
1070
     0
1070
   283
1070
     0
1070
   140
1040
14.0
1070
   284
1070
     8
1070
    78
1070
     8
1002
}
  0
VIEWPORT
  5
BB
330
73
100
AcDbEntity
 67
     1
  8
0
100
AcDbViewport
 10
7.8
 20
4.5
 30
0.0
 40
15.64
 41
9.0
 68
     1
 69
     1
 12
6.0
 22
4.5
 13
0.0
 23
0.0
 14
0.5
 24
0.5
 15
0.5
 25
0.5
 16
0.0
 26
0.0
 36
1.0
 17
0.0
 27
0.0
 37
0.0
 42
50.0
 43
0.0
 44
0.0
 45
12.0
 50
0.0
 51
0.0
 72
   100
 90
   557152
  1

281
     0
 71
     1
 74
     0
110
0.0
120
0.0
130
0.0
111
1.0
121
0.0
131
0.0
112
0.0
122
1.0
132
0.0
 79
     0
146
0.0
  0
ENDSEC
  0
SECTION
  2
OBJECTS
  0
DICTIONARY
  5
C
330
0
100
AcDbDictionary
281
     1
  3
ACAD_COLOR
350
6C
  3
ACAD_GROUP
350
D
  3
ACAD_LAYOUT
350
1A
  3
ACAD_MATERIAL
350
6B
  3
ACAD_MLEADERSTYLE
350
29E
  3
ACAD_MLINESTYLE
350
17
  3
ACAD_PLOTSETTINGS
350
19
  3
ACAD_PLOTSTYLENAME
350
E
  3
ACAD_SCALELIST
350
99
  3
ACAD_TABLESTYLE
350
92
  3
ACDBHEADERROUNDTRIPXREC
350
29F
  3
AcDbVariableDictionary
350
59
  3
DWGPROPS
350
2A2
  0
DICTIONARY
  5
6C
102
{ACAD_REACTORS
330
C
102
}
330
C
100
AcDbDictionary
281
     1
  0
DICTIONARY
  5
D
102
{ACAD_REACTORS
330
C
102
}
330
C
100
AcDbDictionary
281
     1
  0
DICTIONARY
  5
1A
102
{ACAD_REACTORS
330
C
102
}
330
C
100
AcDbDictionary
281
     1
  3
Layout1
350
74
  3
Layout2
350
292
  3
Model
350
22
  0
DICTIONARY
  5
6B
102
{ACAD_REACTORS
330
C
102
}
330
C
100
AcDbDictionary
281
     1
  0
DICTIONARY
  5
29E
102
{ACAD_REACTORS
330
C
102
}
330
C
100
AcDbDictionary
281
     1
  0
DICTIONARY
  5
17
102
{ACAD_REACTORS
330
C
102
}
330
C
100
AcDbDictionary
281
     1
  3
Standard
350
18
  0
DICTIONARY
  5
19
102
{ACAD_REACTORS
330
C
102
}
330
C
100
AcDbDictionary
281
     1
  0
ACDBDICTIONARYWDFLT
  5
E
102
{ACAD_REACTORS
330
C
102
}
330
C
100
AcDbDictionary
281
     1
  3
Normal
350
F
100
AcDbDictionaryWithDefault
340
F
  0
DICTIONARY
  5
99
102
{ACAD_REACTORS
330
C
102
}
330
C
100
AcDbDictionary
281
     1
  3
A0
350
D5
  3
A1
350
D6
  3
A2
350
D7
  3
A3
350
D8
  3
A4
350
D9
  3
A5
350
DA
  3
A6
350
DB
  3
A7
350
DC
  3
A8
350
DD
  3
A9
350
DE
  3
B0
350
DF
  3
B1
350
E0
  3
B2
350
E1
  3
B3
350
E2
  3
B4
350
E3
  3
B5
350
E4
  3
B6
350
E5
  3
B7
350
E6
  3
B8
350
E7
  3
B9
350
E8
  3
C0
350
E9
  3
C1
350
EA
  3
C2
350
EB
  3
C3
350
EC
  3
C4
350
ED
  3
C5
350
EE
  3
C6
350
EF
  3
C7
350
F0
  3
C8
350
F1
  3
C9
350
F2
  3
D0
350
F3
  3
D1
350
F4
  3
D2
350
F5
  0
DICTIONARY
  5
92
102
{ACAD_REACTORS
330
C
102
}
330
C
100
AcDbDictionary
281
     1
  0
DICTIONARY
  5
29F
102
{ACAD_REACTORS
330
C
102
}
330
C
100
AcDbDictionary
281
     1
  3
COLORDICT
350
2A0
  3
MATERIALDICT
350
2A1
  0
DICTIONARY
  5
59
102
{ACAD_REACTORS
330
C
102
}
330
C
100
AcDbDictionary
281
     1
  3
CTABLESTYLE
350
98
  3
DIMASSOC
350
5A
  3
HIDETEXT
350
5E
  0
XRECORD
  5
2A2
102
{ACAD_REACTORS
330
C
102
}
330
C
100
AcDbXrecord
280
     1
  1
DWGPROPS COOKIE
  2

  3

  4

  6

  7

  8
BelottiMc
  9

300
=
301
=
302
=
303
=
304
=
305
=
306
=
307
=
308
=
309
=
 40
0.0
 41
2455096.329503773
 42
2455096.371170463
  1

 90
        0
  0
LAYOUT
  5
74
102
{ACAD_REACTORS
330
1A
102
}
330
1A
100
AcDbPlotSettings
  1

  2
ProgeSOFT PDF Wizard
  4
A4
  6

 40
5.926666666666667
 41
6.011333333333317
 42
6.095999999999985
 43
5.926666666666667
 44
210.0
 45
297.0
 46
88.56200000000001
 47
136.531
 48
0.0
 49
0.0
140
0.0
141
0.0
142
1.0
143
1.0
 70
   692
 72
     1
 73
     0
 74
     0
  7

 75
    16
147
1.0
148
4.426666666666668
149
1.5
100
AcDbLayout
  1
Layout1
 70
     1
 71
     1
 10
0.0
 20
0.0
 11
0.0
 21
0.0
 12
0.0
 22
0.0
 32
0.0
 14
0.0
 24
0.0
 34
0.0
 15
0.0
 25
0.0
 35
0.0
146
0.0
 13
0.0
 23
0.0
 33
0.0
 16
1.0
 26
0.0
 36
0.0
 17
0.0
 27
1.0
 37
0.0
 76
     0
330
D1
331
29D
1001
PROGE_PRINT_SETTINGS
1070
    73
1070
     1
  0
LAYOUT
  5
292
102
{ACAD_REACTORS
330
1A
102
}
330
1A
100
AcDbPlotSettings
  1

  2
ProgeSOFT PDF Wizard
  4
A4
  6

 40
5.926666666666667
 41
6.011333333333317
 42
6.095999999999985
 43
5.926666666666667
 44
210.0
 45
297.0
 46
88.562
 47
136.531
 48
0.0
 49
0.0
140
0.0
141
0.0
142
1.0
143
1.0
 70
   692
 72
     1
 73
     0
 74
     0
  7

 75
    16
147
1.0
148
0.0
149
0.0
100
AcDbLayout
  1
Layout2
 70
     1
 71
     2
 10
0.0
 20
0.0
 11
12.0
 21
9.0
 12
0.0
 22
0.0
 32
0.0
 14
0.0
 24
0.0
 34
0.0
 15
12.0
 25
9.0
 35
0.0
146
0.0
 13
0.0
 23
0.0
 33
0.0
 16
1.0
 26
0.0
 36
0.0
 17
0.0
 27
1.0
 37
0.0
 76
     0
330
73
331
BB
1001
PROGE_PRINT_SETTINGS
1070
    73
1070
     1
  0
LAYOUT
  5
22
102
{ACAD_REACTORS
330
1A
102
}
330
1A
100
AcDbPlotSettings
  1

  2
none_device
  4
Letter_(8.50_x_11.00_Inches)
  6

 40
6.349999904632568
 41
6.349999904632568
 42
6.350006103515625
 43
6.350006103515625
 44
215.8999938964844
 45
279.3999938964844
 46
0.0
 47
0.0
 48
0.0
 49
0.0
140
0.0
141
0.0
142
1.0
143
3.378225331787816
 70
 11952
 72
     1
 73
     1
 74
     0
  7

 75
     0
147
0.2960134099375729
148
0.1311165230791651
149
0.096403374003771
100
AcDbLayout
  1
Model
 70
     1
 71
     0
 10
0.0
 20
0.0
 11
0.0
 21
0.0
 12
0.0
 22
0.0
 32
0.0
 14
108.7118750924967
 24
54.63705908512321
 34
0.0
 15
647.746048494217
 25
381.4751971554269
 35
0.0
146
0.0
 13
0.0
 23
0.0
 33
0.0
 16
1.0
 26
0.0
 36
0.0
 17
0.0
 27
1.0
 37
0.0
 76
     0
330
1F
331
97
  0
MLINESTYLE
  5
18
102
{ACAD_REACTORS
330
17
102
}
330
17
100
AcDbMlineStyle
  2
STANDARD
 70
     0
  3

 62
   256
 51
90.0
 52
90.0
 71
     2
 49
0.5
 62
   256
  6
BYLAYER
 49
-0.5
 62
   256
  6
BYLAYER
  0
ACDBPLACEHOLDER
  5
F
102
{ACAD_REACTORS
330
E
102
}
330
E
  0
SCALE
  5
D5
102
{ACAD_REACTORS
330
99
102
}
330
99
100
AcDbScale
 70
     0
300
1:1
140
1.0
141
1.0
290
     1
  0
SCALE
  5
D6
102
{ACAD_REACTORS
330
99
102
}
330
99
100
AcDbScale
 70
     0
300
1:2
140
1.0
141
2.0
290
     0
  0
SCALE
  5
D7
102
{ACAD_REACTORS
330
99
102
}
330
99
100
AcDbScale
 70
     0
300
1:4
140
1.0
141
4.0
290
     0
  0
SCALE
  5
D8
102
{ACAD_REACTORS
330
99
102
}
330
99
100
AcDbScale
 70
     0
300
1:5
140
1.0
141
5.0
290
     0
  0
SCALE
  5
D9
102
{ACAD_REACTORS
330
99
102
}
330
99
100
AcDbScale
 70
     0
300
1:8
140
1.0
141
8.0
290
     0
  0
SCALE
  5
DA
102
{ACAD_REACTORS
330
99
102
}
330
99
100
AcDbScale
 70
     0
300
1:10
140
1.0
141
10.0
290
     0
  0
SCALE
  5
DB
102
{ACAD_REACTORS
330
99
102
}
330
99
100
AcDbScale
 70
     0
300
1:16
140
1.0
141
16.0
290
     0
  0
SCALE
  5
DC
102
{ACAD_REACTORS
330
99
102
}
330
99
100
AcDbScale
 70
     0
300
1:20
140
1.0
141
20.0
290
     0
  0
SCALE
  5
DD
102
{ACAD_REACTORS
330
99
102
}
330
99
100
AcDbScale
 70
     0
300
1:30
140
1.0
141
30.0
290
     0
  0
SCALE
  5
DE
102
{ACAD_REACTORS
330
99
102
}
330
99
100
AcDbScale
 70
     0
300
1:40
140
1.0
141
40.0
290
     0
  0
SCALE
  5
DF
102
{ACAD_REACTORS
330
99
102
}
330
99
100
AcDbScale
 70
     0
300
1:50
140
1.0
141
50.0
290
     0
  0
SCALE
  5
E0
102
{ACAD_REACTORS
330
99
102
}
330
99
100
AcDbScale
 70
     0
300
1:100
140
1.0
141
100.0
290
     0
  0
SCALE
  5
E1
102
{ACAD_REACTORS
330
99
102
}
330
99
100
AcDbScale
 70
     0
300
2:1
140
2.0
141
1.0
290
     0
  0
SCALE
  5
E2
102
{ACAD_REACTORS
330
99
102
}
330
99
100
AcDbScale
 70
     0
300
4:1
140
4.0
141
1.0
290
     0
  0
SCALE
  5
E3
102
{ACAD_REACTORS
330
99
102
}
330
99
100
AcDbScale
 70
     0
300
8:1
140
8.0
141
1.0
290
     0
  0
SCALE
  5
E4
102
{ACAD_REACTORS
330
99
102
}
330
99
100
AcDbScale
 70
     0
300
10:1
140
10.0
141
1.0
290
     0
  0
SCALE
  5
E5
102
{ACAD_REACTORS
330
99
102
}
330
99
100
AcDbScale
 70
     0
300
100:1
140
100.0
141
1.0
290
     0
  0
SCALE
  5
E6
102
{ACAD_REACTORS
330
99
102
}
330
99
100
AcDbScale
 70
     0
300
1/128" = 1'-0"
140
0.0078125
141
12.0
290
     0
  0
SCALE
  5
E7
102
{ACAD_REACTORS
330
99
102
}
330
99
100
AcDbScale
 70
     0
300
1/64" = 1'-0"
140
0.015625
141
12.0
290
     0
  0
SCALE
  5
E8
102
{ACAD_REACTORS
330
99
102
}
330
99
100
AcDbScale
 70
     0
300
1/32" = 1'-0"
140
0.03125
141
12.0
290
     0
  0
SCALE
  5
E9
102
{ACAD_REACTORS
330
99
102
}
330
99
100
AcDbScale
 70
     0
300
1/16" = 1'-0"
140
0.0625
141
12.0
290
     0
  0
SCALE
  5
EA
102
{ACAD_REACTORS
330
99
102
}
330
99
100
AcDbScale
 70
     0
300
3/32" = 1'-0"
140
0.09375
141
12.0
290
     0
  0
SCALE
  5
EB
102
{ACAD_REACTORS
330
99
102
}
330
99
100
AcDbScale
 70
     0
300
1/8" = 1'-0"
140
0.125
141
12.0
290
     0
  0
SCALE
  5
EC
102
{ACAD_REACTORS
330
99
102
}
330
99
100
AcDbScale
 70
     0
300
3/16" = 1'-0"
140
0.1875
141
12.0
290
     0
  0
SCALE
  5
ED
102
{ACAD_REACTORS
330
99
102
}
330
99
100
AcDbScale
 70
     0
300
1/4" = 1'-0"
140
0.25
141
12.0
290
     0
  0
SCALE
  5
EE
102
{ACAD_REACTORS
330
99
102
}
330
99
100
AcDbScale
 70
     0
300
3/8" = 1'-0"
140
0.375
141
12.0
290
     0
  0
SCALE
  5
EF
102
{ACAD_REACTORS
330
99
102
}
330
99
100
AcDbScale
 70
     0
300
1/2" = 1'-0"
140
0.5
141
12.0
290
     0
  0
SCALE
  5
F0
102
{ACAD_REACTORS
330
99
102
}
330
99
100
AcDbScale
 70
     0
300
3/4" = 1'-0"
140
0.75
141
12.0
290
     0
  0
SCALE
  5
F1
102
{ACAD_REACTORS
330
99
102
}
330
99
100
AcDbScale
 70
     0
300
1" = 1'-0"
140
1.0
141
12.0
290
     0
  0
SCALE
  5
F2
102
{ACAD_REACTORS
330
99
102
}
330
99
100
AcDbScale
 70
     0
300
1-1/2" = 1'-0"
140
1.5
141
12.0
290
     0
  0
SCALE
  5
F3
102
{ACAD_REACTORS
330
99
102
}
330
99
100
AcDbScale
 70
     0
300
3" = 1'-0"
140
3.0
141
12.0
290
     0
  0
SCALE
  5
F4
102
{ACAD_REACTORS
330
99
102
}
330
99
100
AcDbScale
 70
     0
300
6" = 1'-0"
140
6.0
141
12.0
290
     0
  0
SCALE
  5
F5
102
{ACAD_REACTORS
330
99
102
}
330
99
100
AcDbScale
 70
     0
300
1'-0" = 1'-0"
140
12.0
141
12.0
290
     0
  0
XRECORD
  5
2A0
102
{ACAD_REACTORS
330
29F
102
}
330
29F
100
AcDbXrecord
280
     1
340
6C
  0
XRECORD
  5
2A1
102
{ACAD_REACTORS
330
29F
102
}
330
29F
100
AcDbXrecord
280
     1
340
6B
  0
DICTIONARYVAR
  5
98
102
{ACAD_REACTORS
330
59
102
}
330
59
100
DictionaryVariables
280
     0
  1
Standard
  0
DICTIONARYVAR
  5
5A
102
{ACAD_REACTORS
330
59
102
}
330
59
100
DictionaryVariables
280
     0
  1
2
  0
DICTIONARYVAR
  5
5E
102
{ACAD_REACTORS
330
59
102
}
330
59
100
DictionaryVariables
280
     0
  1
1
  0
ENDSEC
  0
EOF
