  0
SECTION
  2
HEADER
  9
$ACADVER
  1
AC1015
  9
$ACADMAINTVER
 70
     6
  9
$DWGCODEPAGE
  3
ANSI_1252
  9
$INSBASE
 10
0.0
 20
0.0
 30
0.0
  9
$EXTMIN
 10
0.0
 20
0.0
 30
0.0
  9
$EXTMAX
 10
485.6567876169
 20
450.7627421541578
 30
0.0
  9
$LIMMIN
 10
0.0
 20
0.0
  9
$LIMMAX
 10
0.0
 20
0.0
  9
$ORTHOMODE
 70
     0
  9
$REGENMODE
 70
     1
  9
$FILLMODE
 70
     1
  9
$QTEXTMODE
 70
     0
  9
$MIRRTEXT
 70
     0
  9
$LTSCALE
 40
1.0
  9
$ATTMODE
 70
     1
  9
$TEXTSIZE
 40
2.5
  9
$TRACEWID
 40
1.0
  9
$TEXTSTYLE
  7
Standard
  9
$CLAYER
  8
0
  9
$CELTYPE
  6
ByLayer
  9
$CECOLOR
 62
   256
  9
$CELTSCALE
 40
1.0
  9
$DISPSILH
 70
     0
  9
$DIMSCALE
 40
1.0
  9
$DIMASZ
 40
2.5
  9
$DIMEXO
 40
0.625
  9
$DIMDLI
 40
3.75
  9
$DIMRND
 40
0.0
  9
$DIMDLE
 40
0.0
  9
$DIMEXE
 40
1.25
  9
$DIMTP
 40
0.0
  9
$DIMTM
 40
0.0
  9
$DIMTXT
 40
2.5
  9
$DIMCEN
 40
2.5
  9
$DIMTSZ
 40
0.0
  9
$DIMTOL
 70
     0
  9
$DIMLIM
 70
     0
  9
$DIMTIH
 70
     0
  9
$DIMTOH
 70
     0
  9
$DIMSE1
 70
     0
  9
$DIMSE2
 70
     0
  9
$DIMTAD
 70
     1
  9
$DIMZIN
 70
     8
  9
$DIMBLK
  1

  9
$DIMASO
 70
     1
  9
$DIMSHO
 70
     1
  9
$DIMPOST
  1

  9
$DIMAPOST
  1

  9
$DIMALT
 70
     0
  9
$DIMALTD
 70
     3
  9
$DIMALTF
 40
0.03937007874016
  9
$DIMLFAC
 40
1.0
  9
$DIMTOFL
 70
     1
  9
$DIMTVP
 40
0.0
  9
$DIMTIX
 70
     0
  9
$DIMSOXD
 70
     0
  9
$DIMSAH
 70
     0
  9
$DIMBLK1
  1

  9
$DIMBLK2
  1

  9
$DIMSTYLE
  2
ISO-25
  9
$DIMCLRD
 70
     0
  9
$DIMCLRE
 70
     0
  9
$DIMCLRT
 70
     0
  9
$DIMTFAC
 40
1.0
  9
$DIMGAP
 40
0.625
  9
$DIMJUST
 70
     0
  9
$DIMSD1
 70
     0
  9
$DIMSD2
 70
     0
  9
$DIMTOLJ
 70
     0
  9
$DIMTZIN
 70
     8
  9
$DIMALTZ
 70
     0
  9
$DIMALTTZ
 70
     0
  9
$DIMUPT
 70
     0
  9
$DIMDEC
 70
     2
  9
$DIMTDEC
 70
     2
  9
$DIMALTU
 70
     2
  9
$DIMALTTD
 70
     3
  9
$DIMTXSTY
  7
Standard
  9
$DIMAUNIT
 70
     0
  9
$DIMADEC
 70
     0
  9
$DIMALTRND
 40
0.0
  9
$DIMAZIN
 70
     0
  9
$DIMDSEP
 70
    44
  9
$DIMATFIT
 70
     3
  9
$DIMFRAC
 70
     0
  9
$DIMLDRBLK
  1

  9
$DIMLUNIT
 70
     2
  9
$DIMLWD
 70
    -2
  9
$DIMLWE
 70
    -2
  9
$DIMTMOVE
 70
     0
  9
$LUNITS
 70
     2
  9
$LUPREC
 70
     4
  9
$SKETCHINC
 40
1.0
  9
$FILLETRAD
 40
0.0
  9
$AUNITS
 70
     0
  9
$AUPREC
 70
     0
  9
$MENU
  1
.
  9
$ELEVATION
 40
0.0
  9
$PELEVATION
 40
0.0
  9
$THICKNESS
 40
0.0
  9
$LIMCHECK
 70
     0
  9
$CHAMFERA
 40
0.0
  9
$CHAMFERB
 40
0.0
  9
$CHAMFERC
 40
0.0
  9
$CHAMFERD
 40
0.0
  9
$SKPOLY
 70
     0
  9
$TDCREATE
 40
2455092.435095255
  9
$TDUCREATE
 40
2455092.351761921
  9
$TDUPDATE
 40
2455092.47676191
  9
$TDUUPDATE
 40
2455092.393428576
  9
$TDINDWG
 40
0.0303289352
  9
$TDUSRTIMER
 40
0.0303265741
  9
$USRTIMER
 70
     1
  9
$ANGBASE
 50
0.0
  9
$ANGDIR
 70
     0
  9
$PDMODE
 70
     0
  9
$PDSIZE
 40
0.0
  9
$PLINEWID
 40
0.0
  9
$SPLFRAME
 70
     0
  9
$SPLINETYPE
 70
     6
  9
$SPLINESEGS
 70
     8
  9
$HANDSEED
  5
1F0
  9
$SURFTAB1
 70
     6
  9
$SURFTAB2
 70
     6
  9
$SURFTYPE
 70
     6
  9
$SURFU
 70
     6
  9
$SURFV
 70
     6
  9
$UCSBASE
  2

  9
$UCSNAME
  2

  9
$UCSORG
 10
0.0
 20
0.0
 30
0.0
  9
$UCSXDIR
 10
1.0
 20
0.0
 30
0.0
  9
$UCSYDIR
 10
0.0
 20
1.0
 30
0.0
  9
$UCSORTHOREF
  2

  9
$UCSORTHOVIEW
 70
     0
  9
$UCSORGTOP
 10
0.0
 20
0.0
 30
0.0
  9
$UCSORGBOTTOM
 10
0.0
 20
0.0
 30
0.0
  9
$UCSORGLEFT
 10
0.0
 20
0.0
 30
0.0
  9
$UCSORGRIGHT
 10
0.0
 20
0.0
 30
0.0
  9
$UCSORGFRONT
 10
0.0
 20
0.0
 30
0.0
  9
$UCSORGBACK
 10
0.0
 20
0.0
 30
0.0
  9
$PUCSBASE
  2

  9
$PUCSNAME
  2

  9
$PUCSORG
 10
0.0
 20
0.0
 30
0.0
  9
$PUCSXDIR
 10
1.0
 20
0.0
 30
0.0
  9
$PUCSYDIR
 10
0.0
 20
1.0
 30
0.0
  9
$PUCSORTHOREF
  2

  9
$PUCSORTHOVIEW
 70
     0
  9
$PUCSORGTOP
 10
0.0
 20
0.0
 30
0.0
  9
$PUCSORGBOTTOM
 10
0.0
 20
0.0
 30
0.0
  9
$PUCSORGLEFT
 10
0.0
 20
0.0
 30
0.0
  9
$PUCSORGRIGHT
 10
0.0
 20
0.0
 30
0.0
  9
$PUCSORGFRONT
 10
0.0
 20
0.0
 30
0.0
  9
$PUCSORGBACK
 10
0.0
 20
0.0
 30
0.0
  9
$USERI1
 70
     0
  9
$USERI2
 70
     0
  9
$USERI3
 70
     0
  9
$USERI4
 70
     0
  9
$USERI5
 70
     0
  9
$USERR1
 40
0.0
  9
$USERR2
 40
0.0
  9
$USERR3
 40
0.0
  9
$USERR4
 40
0.0
  9
$USERR5
 40
0.0
  9
$WORLDVIEW
 70
     1
  9
$SHADEDGE
 70
     3
  9
$SHADEDIF
 70
    70
  9
$TILEMODE
 70
     1
  9
$MAXACTVP
 70
    64
  9
$PINSBASE
 10
0.0
 20
0.0
 30
0.0
  9
$PLIMCHECK
 70
     0
  9
$PEXTMIN
 10
0.0
 20
0.0
 30
0.0
  9
$PEXTMAX
 10
12.0
 20
9.0
 30
0.0
  9
$PLIMMIN
 10
0.0
 20
0.0
  9
$PLIMMAX
 10
12.0
 20
9.0
  9
$UNITMODE
 70
     0
  9
$VISRETAIN
 70
     1
  9
$PLINEGEN
 70
     0
  9
$PSLTSCALE
 70
     1
  9
$TREEDEPTH
 70
  3020
  9
$CMLSTYLE
  2
Standard
  9
$CMLJUST
 70
     0
  9
$CMLSCALE
 40
20.0
  9
$PROXYGRAPHICS
 70
     1
  9
$MEASUREMENT
 70
     1
  9
$CELWEIGHT
370
    -1
  9
$ENDCAPS
280
     0
  9
$JOINSTYLE
280
     0
  9
$LWDISPLAY
290
     0
  9
$INSUNITS
 70
     4
  9
$HYPERLINKBASE
  1

  9
$STYLESHEET
  1

  9
$XEDIT
290
     1
  9
$CEPSNTYPE
380
     0
  9
$PSTYLEMODE
290
     1
  9
$FINGERPRINTGUID
  2
{5559452E-1E62-4159-8551-BF76FFF3E7E8}
  9
$VERSIONGUID
  2
{3CEB9EF8-4431-4551-B596-6734A9F966A9}
  9
$EXTNAMES
290
     1
  9
$PSVPSCALE
 40
0.0
  9
$OLESTARTUP
290
     0
  0
ENDSEC
  0
SECTION
  2
CLASSES
  0
CLASS
  1
ACDBDICTIONARYWDFLT
  2
AcDbDictionaryWithDefault
  3
ObjectDBX Classes
 90
        0
280
     0
281
     0
  0
CLASS
  1
ACDBPLACEHOLDER
  2
AcDbPlaceHolder
  3
ObjectDBX Classes
 90
        0
280
     0
281
     0
  0
CLASS
  1
LAYOUT
  2
AcDbLayout
  3
ObjectDBX Classes
 90
        0
280
     0
281
     0
  0
CLASS
  1
DICTIONARYVAR
  2
AcDbDictionaryVar
  3
ObjectDBX Classes
 90
        0
280
     0
281
     0
  0
CLASS
  1
TABLESTYLE
  2
AcDbTableStyle
  3
ObjectDBX Classes
 90
     4095
280
     0
281
     0
  0
CLASS
  1
SCALE
  2
AcDbScale
  3
ObjectDBX Classes
 90
     1153
280
     0
281
     0
  0
ENDSEC
  0
SECTION
  2
TABLES
  0
TABLE
  2
VPORT
  5
8
330
0
100
AcDbSymbolTable
 70
     2
  0
VPORT
  5
97
330
8
100
AcDbSymbolTableRecord
100
AcDbViewportTableRecord
  2
*Active
 70
     0
 10
0.0
 20
0.0
 11
1.0
 21
1.0
 12
266.533500738463
 22
217.397652623281
 13
0.0
 23
0.0
 14
10.0
 24
10.0
 15
10.0
 25
10.0
 16
0.0
 26
0.0
 36
1.0
 17
0.0
 27
0.0
 37
0.0
 40
541.1807580174927
 41
1.664827586206897
 42
50.0
 43
0.0
 44
0.0
 50
0.0
 51
0.0
 71
     0
 72
  1000
 73
     1
 74
     3
 75
     0
 76
     0
 77
     0
 78
     0
281
     0
 65
     1
110
0.0
120
0.0
130
0.0
111
1.0
121
0.0
131
0.0
112
0.0
122
1.0
132
0.0
 79
     0
146
0.0
  0
ENDTAB
  0
TABLE
  2
LTYPE
  5
5
330
0
100
AcDbSymbolTable
 70
     1
  0
LTYPE
  5
14
330
5
100
AcDbSymbolTableRecord
100
AcDbLinetypeTableRecord
  2
ByBlock
 70
     0
  3

 72
    65
 73
     0
 40
0.0
  0
LTYPE
  5
15
330
5
100
AcDbSymbolTableRecord
100
AcDbLinetypeTableRecord
  2
ByLayer
 70
     0
  3

 72
    65
 73
     0
 40
0.0
  0
LTYPE
  5
16
330
5
100
AcDbSymbolTableRecord
100
AcDbLinetypeTableRecord
  2
Continuous
 70
     0
  3
Solid line
 72
    65
 73
     0
 40
0.0
  0
ENDTAB
  0
TABLE
  2
LAYER
  5
2
330
0
100
AcDbSymbolTable
 70
     2
  0
LAYER
  5
10
330
2
100
AcDbSymbolTableRecord
100
AcDbLayerTableRecord
  2
0
 70
     0
 62
     7
  6
Continuous
370
    -3
390
F
  0
LAYER
  5
1AF
330
2
100
AcDbSymbolTableRecord
100
AcDbLayerTableRecord
  2
DEFPOINTS
 70
     0
 62
     7
  6
Continuous
290
     0
370
    -3
390
F
  0
ENDTAB
  0
TABLE
  2
STYLE
  5
3
330
0
100
AcDbSymbolTable
 70
     1
  0
STYLE
  5
11
330
3
100
AcDbSymbolTableRecord
100
AcDbTextStyleTableRecord
  2
Standard
 70
     0
 40
0.0
 41
1.0
 50
0.0
 71
     0
 42
2.5
  3
txt
  4

  0
ENDTAB
  0
TABLE
  2
VIEW
  5
6
330
0
100
AcDbSymbolTable
 70
     0
  0
ENDTAB
  0
TABLE
  2
UCS
  5
7
330
0
100
AcDbSymbolTable
 70
     0
  0
ENDTAB
  0
TABLE
  2
APPID
  5
9
330
0
100
AcDbSymbolTable
 70
     2
  0
APPID
  5
12
330
9
100
AcDbSymbolTableRecord
100
AcDbRegAppTableRecord
  2
ACAD
 70
     0
  0
APPID
  5
1DD
330
9
100
AcDbSymbolTableRecord
100
AcDbRegAppTableRecord
  2
PROGE_PRINT_SETTINGS
 70
     0
  0
ENDTAB
  0
TABLE
  2
DIMSTYLE
  5
A
330
0
100
AcDbSymbolTable
 70
     2
100
AcDbDimStyleTable
  0
DIMSTYLE
105
27
102
{ACAD_REACTORS
330
17E
330
17F
102
}
330
A
100
AcDbSymbolTableRecord
100
AcDbDimStyleTableRecord
  2
Standard
 70
     0
278
     0
340
11
  0
DIMSTYLE
105
29
330
A
100
AcDbSymbolTableRecord
100
AcDbDimStyleTableRecord
  2
ISO-25
 70
     0
 41
2.5
 42
0.625
 43
3.75
 44
1.25
 73
     0
 74
     0
 77
     1
 78
     8
140
2.5
141
2.5
143
0.03937007874016
147
0.625
171
     3
172
     1
271
     2
272
     2
274
     3
278
    44
283
     0
284
     8
340
11
  0
ENDTAB
  0
TABLE
  2
BLOCK_RECORD
  5
1
330
0
100
AcDbSymbolTable
 70
     5
  0
BLOCK_RECORD
  5
1F
330
1
100
AcDbSymbolTableRecord
100
AcDbBlockTableRecord
  2
*Model_Space
340
22
  0
BLOCK_RECORD
  5
73
330
1
100
AcDbSymbolTableRecord
100
AcDbBlockTableRecord
  2
*Paper_Space
340
1DF
  0
BLOCK_RECORD
  5
D1
330
1
100
AcDbSymbolTableRecord
100
AcDbBlockTableRecord
  2
*Paper_Space0
340
74
  0
BLOCK_RECORD
  5
1BA
330
1
100
AcDbSymbolTableRecord
100
AcDbBlockTableRecord
  2
*D1
340
0
  0
BLOCK_RECORD
  5
1C5
330
1
100
AcDbSymbolTableRecord
100
AcDbBlockTableRecord
  2
*D2
340
0
  0
BLOCK_RECORD
  5
1D0
330
1
100
AcDbSymbolTableRecord
100
AcDbBlockTableRecord
  2
*D3
340
0
  0
BLOCK_RECORD
  5
1DB
330
1
100
AcDbSymbolTableRecord
100
AcDbBlockTableRecord
  2
*D4
340
0
  0
ENDTAB
  0
ENDSEC
  0
SECTION
  2
BLOCKS
  0
BLOCK
  5
20
330
1F
100
AcDbEntity
  8
0
100
AcDbBlockBegin
  2
*Model_Space
 70
     0
 10
0.0
 20
0.0
 30
0.0
  3
*Model_Space
  1

  0
ENDBLK
  5
21
330
1F
100
AcDbEntity
  8
0
100
AcDbBlockEnd
  0
BLOCK
  5
75
330
73
100
AcDbEntity
 67
     1
  8
0
100
AcDbBlockBegin
  2
*Paper_Space
 70
     0
 10
0.0
 20
0.0
 30
0.0
  3
*Paper_Space
  1

  0
ENDBLK
  5
76
330
73
100
AcDbEntity
 67
     1
  8
0
100
AcDbBlockEnd
  0
BLOCK
  5
1E0
330
D1
100
AcDbEntity
  8
0
100
AcDbBlockBegin
  2
*Paper_Space0
 70
     0
 10
0.0
 20
0.0
 30
0.0
  3
*Paper_Space0
  1

  0
VIEWPORT
  5
1EA
330
D1
100
AcDbEntity
  8
0
100
AcDbViewport
 10
7.8
 20
4.5
 30
0.0
 40
15.64
 41
9.0
 68
     1
 69
     1
 12
6.0
 22
4.5
 13
0.0
 23
0.0
 14
0.5
 24
0.5
 15
0.5
 25
0.5
 16
0.0
 26
0.0
 36
1.0
 17
0.0
 27
0.0
 37
0.0
 42
50.0
 43
0.0
 44
0.0
 45
12.0
 50
0.0
 51
0.0
 72
   100
 90
   557152
  1

281
     0
 71
     1
 74
     0
110
0.0
120
0.0
130
0.0
111
1.0
121
0.0
131
0.0
112
0.0
122
1.0
132
0.0
 79
     0
146
0.0
  0
ENDBLK
  5
1E1
330
D1
100
AcDbEntity
  8
0
100
AcDbBlockEnd
  0
BLOCK
  5
1E2
330
1BA
100
AcDbEntity
  8
0
100
AcDbBlockBegin
  2
*D1
 70
     1
 10
0.0
 20
0.0
 30
0.0
  3
*D1
  1

  0
POINT
  5
1B1
330
1BA
100
AcDbEntity
  8
DEFPOINTS
  6
ByBlock
 62
     7
380
     1
100
AcDbPoint
 10
251.3175369074968
 20
358.393578
 30
0.0
  0
POINT
  5
1B2
330
1BA
100
AcDbEntity
  8
DEFPOINTS
  6
ByBlock
 62
     7
380
     1
100
AcDbPoint
 10
245.4333421436986
 20
8.893578
 30
0.0
  0
LINE
  5
1B3
330
1BA
100
AcDbEntity
  8
0
  6
ByBlock
 62
     7
370
    -2
380
     1
100
AcDbLine
 10
250.6925369074968
 20
358.393578
 30
0.0
 11
98.72254543079453
 21
358.393578
 31
0.0
  0
LINE
  5
1B4
330
1BA
100
AcDbEntity
  8
0
  6
ByBlock
 62
     7
370
    -2
380
     1
100
AcDbLine
 10
244.8083421436986
 20
8.89357799999999
 30
0.0
 11
98.72254543079453
 21
8.89357799999999
 31
0.0
  0
LINE
  5
1B5
330
1BA
100
AcDbEntity
  8
0
  6
ByBlock
 62
     7
370
    -2
380
     1
100
AcDbLine
 10
99.97254543079453
 20
348.393578
 30
0.0
 11
99.97254543079453
 21
18.89357799999999
 31
0.0
  0
SOLID
  5
1B6
330
1BA
100
AcDbEntity
  8
0
  6
ByBlock
 62
     7
380
     1
100
AcDbTrace
 10
99.97254543079453
 20
358.393578
 30
0.0
 11
98.30587876412787
 21
348.393578
 31
0.0
 12
101.6392120974612
 22
348.393578
 32
0.0
 13
101.6392120974612
 23
348.393578
 33
0.0
  0
SOLID
  5
1B7
330
1BA
100
AcDbEntity
  8
0
  6
ByBlock
 62
     7
380
     1
100
AcDbTrace
 10
99.97254543079453
 20
8.89357799999999
 30
0.0
 11
98.30587876412787
 21
18.89357799999999
 31
0.0
 12
101.6392120974612
 22
18.89357799999999
 32
0.0
 13
101.6392120974612
 23
18.89357799999999
 33
0.0
  0
MTEXT
  5
1B8
330
1BA
100
AcDbEntity
  8
0
  6
ByBlock
 62
     0
370
    -2
380
     1
100
AcDbMText
 10
86.80587876412784
 20
183.643578
 30
0.0
 40
14.0
 41
0.0
 71
     5
 72
     1
  1
\A1;349,5
 11
6.123031769111886E-17
 21
1.0
 31
0.0
 73
     1
 44
1.0
  0
ENDBLK
  5
1E3
330
1BA
100
AcDbEntity
  8
0
100
AcDbBlockEnd
  0
BLOCK
  5
1E4
330
1C5
100
AcDbEntity
  8
0
100
AcDbBlockBegin
  2
*D2
 70
     1
 10
0.0
 20
0.0
 30
0.0
  3
*D2
  1

  0
POINT
  5
1BC
330
1C5
100
AcDbEntity
  8
DEFPOINTS
  6
ByBlock
 62
     7
380
     1
100
AcDbPoint
 10
142.237434
 20
254.6961037894766
 30
0.0
  0
POINT
  5
1BD
330
1C5
100
AcDbEntity
  8
DEFPOINTS
  6
ByBlock
 62
     7
380
     1
100
AcDbPoint
 10
463.237465
 20
254.6961037894766
 30
0.0
  0
LINE
  5
1BE
330
1C5
100
AcDbEntity
  8
0
  6
ByBlock
 62
     7
370
    -2
380
     1
100
AcDbLine
 10
142.237434
 20
255.3211037894766
 30
0.0
 11
142.237434
 21
398.354818008235
 31
0.0
  0
LINE
  5
1BF
330
1C5
100
AcDbEntity
  8
0
  6
ByBlock
 62
     7
370
    -2
380
     1
100
AcDbLine
 10
463.237465
 20
255.3211037894766
 30
0.0
 11
463.237465
 21
398.354818008235
 31
0.0
  0
LINE
  5
1C0
330
1C5
100
AcDbEntity
  8
0
  6
ByBlock
 62
     7
370
    -2
380
     1
100
AcDbLine
 10
152.237434
 20
397.104818008235
 30
0.0
 11
453.237465
 21
397.104818008235
 31
0.0
  0
SOLID
  5
1C1
330
1C5
100
AcDbEntity
  8
0
  6
ByBlock
 62
     7
380
     1
100
AcDbTrace
 10
142.237434
 20
397.104818008235
 30
0.0
 11
152.237434
 21
395.4381513415683
 31
0.0
 12
152.237434
 22
398.7714846749017
 32
0.0
 13
152.237434
 23
398.7714846749017
 33
0.0
  0
SOLID
  5
1C2
330
1C5
100
AcDbEntity
  8
0
  6
ByBlock
 62
     7
380
     1
100
AcDbTrace
 10
463.237465
 20
397.104818008235
 30
0.0
 11
453.237465
 21
395.4381513415683
 31
0.0
 12
453.237465
 22
398.7714846749017
 32
0.0
 13
453.237465
 23
398.7714846749017
 33
0.0
  0
MTEXT
  5
1C3
330
1C5
100
AcDbEntity
  8
0
  6
ByBlock
 62
     0
370
    -2
380
     1
100
AcDbMText
 10
302.7374495
 20
409.104818008235
 30
0.0
 40
14.0
 41
0.0
 71
     5
 72
     1
  1
\A1;321
 73
     1
 44
1.0
  0
ENDBLK
  5
1E5
330
1C5
100
AcDbEntity
  8
0
100
AcDbBlockEnd
  0
BLOCK
  5
1E6
330
1D0
100
AcDbEntity
  8
0
100
AcDbBlockBegin
  2
*D3
 70
     1
 10
0.0
 20
0.0
 30
0.0
  3
*D3
  1

  0
POINT
  5
1C7
330
1D0
100
AcDbEntity
  8
DEFPOINTS
  6
ByBlock
 62
     7
380
     1
100
AcDbPoint
 10
164.6567566169001
 20
289.3540279353994
 30
0.0
  0
POINT
  5
1C8
330
1D0
100
AcDbEntity
  8
DEFPOINTS
  6
ByBlock
 62
     7
380
     1
100
AcDbPoint
 10
485.6567876169
 20
289.3540279353994
 30
0.0
  0
LINE
  5
1C9
330
1D0
100
AcDbEntity
  8
0
  6
ByBlock
 62
     7
370
    -2
380
     1
100
AcDbLine
 10
164.6567566169001
 20
289.9790279353994
 30
0.0
 11
164.6567566169001
 21
433.0127421541578
 31
0.0
  0
LINE
  5
1CA
330
1D0
100
AcDbEntity
  8
0
  6
ByBlock
 62
     7
370
    -2
380
     1
100
AcDbLine
 10
485.6567876169
 20
289.9790279353994
 30
0.0
 11
485.6567876169
 21
433.0127421541578
 31
0.0
  0
LINE
  5
1CB
330
1D0
100
AcDbEntity
  8
0
  6
ByBlock
 62
     7
370
    -2
380
     1
100
AcDbLine
 10
174.6567566169001
 20
431.7627421541578
 30
0.0
 11
475.6567876169
 21
431.7627421541578
 31
0.0
  0
SOLID
  5
1CC
330
1D0
100
AcDbEntity
  8
0
  6
ByBlock
 62
     7
380
     1
100
AcDbTrace
 10
164.6567566169001
 20
431.7627421541578
 30
0.0
 11
174.6567566169001
 21
430.0960754874911
 31
0.0
 12
174.6567566169001
 22
433.4294088208244
 32
0.0
 13
174.6567566169001
 23
433.4294088208244
 33
0.0
  0
SOLID
  5
1CD
330
1D0
100
AcDbEntity
  8
0
  6
ByBlock
 62
     7
380
     1
100
AcDbTrace
 10
485.6567876169
 20
431.7627421541578
 30
0.0
 11
475.6567876169
 21
430.0960754874911
 31
0.0
 12
475.6567876169
 22
433.4294088208244
 32
0.0
 13
475.6567876169
 23
433.4294088208244
 33
0.0
  0
MTEXT
  5
1CE
330
1D0
100
AcDbEntity
  8
0
  6
ByBlock
 62
     0
370
    -2
380
     1
100
AcDbMText
 10
325.1567721169001
 20
443.7627421541578
 30
0.0
 40
14.0
 41
0.0
 71
     5
 72
     1
  1
\A1;321
 73
     1
 44
1.0
  0
ENDBLK
  5
1E7
330
1D0
100
AcDbEntity
  8
0
100
AcDbBlockEnd
  0
BLOCK
  5
1E8
330
1DB
100
AcDbEntity
  8
0
100
AcDbBlockBegin
  2
*D4
 70
     1
 10
0.0
 20
0.0
 30
0.0
  3
*D4
  1

  0
POINT
  5
1D2
330
1DB
100
AcDbEntity
  8
DEFPOINTS
  6
ByBlock
 62
     7
380
     1
100
AcDbPoint
 10
273.7368595243969
 20
393.0515021459228
 30
0.0
  0
POINT
  5
1D3
330
1DB
100
AcDbEntity
  8
DEFPOINTS
  6
ByBlock
 62
     7
380
     1
100
AcDbPoint
 10
267.8526647605987
 20
43.55150214592276
 30
0.0
  0
LINE
  5
1D4
330
1DB
100
AcDbEntity
  8
0
  6
ByBlock
 62
     7
370
    -2
380
     1
100
AcDbLine
 10
273.1118595243969
 20
393.0515021459228
 30
0.0
 11
121.1418680476946
 21
393.0515021459228
 31
0.0
  0
LINE
  5
1D5
330
1DB
100
AcDbEntity
  8
0
  6
ByBlock
 62
     7
370
    -2
380
     1
100
AcDbLine
 10
267.2276647605987
 20
43.55150214592277
 30
0.0
 11
121.1418680476946
 21
43.55150214592277
 31
0.0
  0
LINE
  5
1D6
330
1DB
100
AcDbEntity
  8
0
  6
ByBlock
 62
     7
370
    -2
380
     1
100
AcDbLine
 10
122.3918680476946
 20
383.0515021459228
 30
0.0
 11
122.3918680476946
 21
53.55150214592277
 31
0.0
  0
SOLID
  5
1D7
330
1DB
100
AcDbEntity
  8
0
  6
ByBlock
 62
     7
380
     1
100
AcDbTrace
 10
122.3918680476946
 20
393.0515021459228
 30
0.0
 11
120.7252013810279
 21
383.0515021459228
 31
0.0
 12
124.0585347143613
 22
383.0515021459228
 32
0.0
 13
124.0585347143613
 23
383.0515021459228
 33
0.0
  0
SOLID
  5
1D8
330
1DB
100
AcDbEntity
  8
0
  6
ByBlock
 62
     7
380
     1
100
AcDbTrace
 10
122.3918680476946
 20
43.55150214592277
 30
0.0
 11
120.7252013810279
 21
53.55150214592277
 31
0.0
 12
124.0585347143613
 22
53.55150214592277
 32
0.0
 13
124.0585347143613
 23
53.55150214592277
 33
0.0
  0
MTEXT
  5
1D9
330
1DB
100
AcDbEntity
  8
0
  6
ByBlock
 62
     0
370
    -2
380
     1
100
AcDbMText
 10
109.2252013810279
 20
218.3015021459228
 30
0.0
 40
14.0
 41
0.0
 71
     5
 72
     1
  1
\A1;349,5
 11
6.123031769111886E-17
 21
1.0
 31
0.0
 73
     1
 44
1.0
  0
ENDBLK
  5
1E9
330
1DB
100
AcDbEntity
  8
0
100
AcDbBlockEnd
  0
ENDSEC
  0
SECTION
  2
ENTITIES
  0
POINT
  5
F8
330
1F
100
AcDbEntity
  8
0
 62
     7
370
    60
100
AcDbPoint
 10
204.4067566169001
 20
46.55150214592276
 30
0.0
  0
POINT
  5
F9
330
1F
100
AcDbEntity
  8
0
 62
     7
370
    60
100
AcDbPoint
 10
244.1567876169001
 20
46.55150214592276
 30
0.0
  0
POINT
  5
FA
330
1F
100
AcDbEntity
  8
0
 62
     7
370
    60
100
AcDbPoint
 10
283.9067876169
 20
46.55150214592276
 30
0.0
  0
POINT
  5
FB
330
1F
100
AcDbEntity
  8
0
 62
     7
370
    60
100
AcDbPoint
 10
323.6567876169
 20
46.55150214592276
 30
0.0
  0
POINT
  5
FC
330
1F
100
AcDbEntity
  8
0
 62
     7
370
    60
100
AcDbPoint
 10
363.4067876169
 20
46.55150214592276
 30
0.0
  0
POINT
  5
FD
330
1F
100
AcDbEntity
  8
0
 62
     7
370
    60
100
AcDbPoint
 10
403.1567876169
 20
46.55150214592276
 30
0.0
  0
POINT
  5
FE
330
1F
100
AcDbEntity
  8
0
 62
     7
370
    60
100
AcDbPoint
 10
442.9067876169
 20
46.55150214592276
 30
0.0
  0
LINE
  5
FF
330
1F
100
AcDbEntity
  8
0
 62
     7
370
    60
100
AcDbLine
 10
465.6567876169
 20
43.55150214592276
 30
0.0
 11
184.6567566169001
 21
43.55150214592276
 31
0.0
  0
LINE
  5
100
330
1F
100
AcDbEntity
  8
0
 62
     7
370
    60
100
AcDbLine
 10
465.6567876169
 20
393.0515021459228
 30
0.0
 11
184.6567566169001
 21
393.0515021459228
 31
0.0
  0
LINE
  5
101
330
1F
100
AcDbEntity
  8
0
 62
     7
370
    60
100
AcDbLine
 10
164.6567566169001
 20
373.0515021459228
 30
0.0
 11
164.6567566169001
 21
63.55150214592277
 31
0.0
  0
LINE
  5
102
330
1F
100
AcDbEntity
  8
0
 62
     7
370
    60
100
AcDbLine
 10
485.6567876169
 20
373.0515021459228
 30
0.0
 11
485.6567876169
 21
63.55150214592277
 31
0.0
  0
ARC
  5
103
330
1F
100
AcDbEntity
  8
0
 62
     7
370
    60
100
AcDbCircle
 10
184.6567566169001
 20
373.0515021459228
 30
0.0
 40
20.0
100
AcDbArc
 50
90.00000100000001
 51
180.0
  0
ARC
  5
104
330
1F
100
AcDbEntity
  8
0
 62
     7
370
    60
100
AcDbCircle
 10
184.6567566169001
 20
63.55150214592277
 30
0.0
 40
20.0
100
AcDbArc
 50
180.0
 51
270.000003
  0
ARC
  5
105
330
1F
100
AcDbEntity
  8
0
 62
     7
370
    60
100
AcDbCircle
 10
465.6567876169
 20
373.0515021459228
 30
0.0
 40
20.00000000000007
100
AcDbArc
 50
0.0000050000000147
 51
90.00000100000003
  0
LINE
  5
106
330
1F
100
AcDbEntity
  8
0
 62
     7
370
    60
100
AcDbLine
 10
465.6567876169
 20
46.55150214592276
 30
0.0
 11
184.6567566169001
 21
46.55150214592276
 31
0.0
  0
LINE
  5
107
330
1F
100
AcDbEntity
  8
0
 62
     7
370
    60
100
AcDbLine
 10
167.6567566169001
 20
373.0515021459228
 30
0.0
 11
167.6567566169001
 21
63.55150214592277
 31
0.0
  0
LINE
  5
108
330
1F
100
AcDbEntity
  8
0
 62
     7
370
    60
100
AcDbLine
 10
465.6567876169
 20
390.0515021459228
 30
0.0
 11
184.6567566169001
 21
390.0515021459228
 31
0.0
  0
LINE
  5
109
330
1F
100
AcDbEntity
  8
0
 62
     7
370
    60
100
AcDbLine
 10
482.6567876169
 20
373.0515021459228
 30
0.0
 11
482.6567876169
 21
63.55150214592277
 31
0.0
  0
ARC
  5
10A
330
1F
100
AcDbEntity
  8
0
 62
     7
370
    60
100
AcDbCircle
 10
465.6567876169
 20
63.55150214592277
 30
0.0
 40
17.0
100
AcDbArc
 50
270.000003
 51
0.0000049999999943
  0
ARC
  5
10B
330
1F
100
AcDbEntity
  8
0
 62
     7
370
    60
100
AcDbCircle
 10
465.6567876169
 20
373.0515021459228
 30
0.0
 40
17.00000000000006
100
AcDbArc
 50
0.0000049999999285
 51
90.00000099999994
  0
ARC
  5
10C
330
1F
100
AcDbEntity
  8
0
 62
     7
370
    60
100
AcDbCircle
 10
184.6567566169001
 20
373.0515021459228
 30
0.0
 40
17.0
100
AcDbArc
 50
90.00000099999997
 51
179.9999999999999
  0
ARC
  5
10D
330
1F
100
AcDbEntity
  8
0
 62
     7
370
    60
100
AcDbCircle
 10
184.6567566169001
 20
63.55150214592277
 30
0.0
 40
17.0
100
AcDbArc
 50
180.0
 51
270.000003
  0
LINE
  5
10E
330
1F
100
AcDbEntity
  8
0
 62
     7
 48
0.343751
370
    60
100
AcDbLine
 10
207.4067876169001
 20
261.3015091459228
 30
0.0
 11
193.6567566169001
 21
261.3015091459228
 31
0.0
  0
LINE
  5
10F
330
1F
100
AcDbEntity
  8
0
 62
     7
 48
0.343751
370
    60
100
AcDbLine
 10
207.4067876169001
 20
252.3015091459228
 30
0.0
 11
193.6567566169001
 21
252.3015091459228
 31
0.0
  0
LINE
  5
110
330
1F
100
AcDbEntity
  8
0
 62
     7
 48
0.343751
370
    60
100
AcDbLine
 10
207.4067876169001
 20
264.3015091459228
 30
0.0
 11
193.6567566169001
 21
264.3015091459228
 31
0.0
  0
LINE
  5
111
330
1F
100
AcDbEntity
  8
0
 62
     7
 48
0.343751
370
    60
100
AcDbLine
 10
207.4067876169001
 20
249.3015091459228
 30
0.0
 11
193.6567566169001
 21
249.3015091459228
 31
0.0
  0
LINE
  5
112
330
1F
100
AcDbEntity
  8
0
 62
     7
 48
0.34375
370
    60
100
AcDbLine
 10
456.6567876169
 20
264.3015091459228
 30
0.0
 11
442.9067876169
 21
264.3015091459228
 31
0.0
  0
LINE
  5
113
330
1F
100
AcDbEntity
  8
0
 62
     7
 48
0.34375
370
    60
100
AcDbLine
 10
456.6567876169
 20
261.3015091459228
 30
0.0
 11
442.9067876169
 21
261.3015091459228
 31
0.0
  0
LINE
  5
114
330
1F
100
AcDbEntity
  8
0
 62
     7
 48
0.34375
370
    60
100
AcDbLine
 10
456.6567876169
 20
252.3015091459228
 30
0.0
 11
442.9067876169
 21
252.3015091459228
 31
0.0
  0
LINE
  5
115
330
1F
100
AcDbEntity
  8
0
 62
     7
 48
0.34375
370
    60
100
AcDbLine
 10
456.6567876169
 20
249.3015091459228
 30
0.0
 11
442.9067876169
 21
249.3015091459228
 31
0.0
  0
LINE
  5
116
330
1F
100
AcDbEntity
  8
0
 62
     7
370
    60
100
AcDbLine
 10
482.6567876169
 20
274.5515091459228
 30
0.0
 11
167.6567566169001
 21
274.5515091459228
 31
0.0
  0
LINE
  5
117
330
1F
100
AcDbEntity
  8
0
 62
     7
370
    60
100
AcDbLine
 10
482.6567876169
 20
239.0515091459228
 30
0.0
 11
167.6567566169001
 21
239.0515091459228
 31
0.0
  0
LINE
  5
118
330
1F
100
AcDbEntity
  8
0
 62
     7
370
    60
100
AcDbLine
 10
482.6567876169
 20
277.5515091459228
 30
0.0
 11
167.6567566169001
 21
277.5515091459228
 31
0.0
  0
LINE
  5
119
330
1F
100
AcDbEntity
  8
0
 62
     7
370
    60
100
AcDbLine
 10
482.6567876169
 20
236.0515091459228
 30
0.0
 11
167.6567566169001
 21
236.0515091459228
 31
0.0
  0
LINE
  5
11A
330
1F
100
AcDbEntity
  8
0
 62
     7
370
    60
100
AcDbLine
 10
482.6567876169
 20
316.0515091459228
 30
0.0
 11
167.6567566169001
 21
316.0515091459228
 31
0.0
  0
LINE
  5
11B
330
1F
100
AcDbEntity
  8
0
 62
     7
370
    60
100
AcDbLine
 10
482.6567876169
 20
354.5515091459228
 30
0.0
 11
167.6567566169001
 21
354.5515091459228
 31
0.0
  0
LINE
  5
11C
330
1F
100
AcDbEntity
  8
0
 62
     7
370
    60
100
AcDbLine
 10
482.6567876169
 20
313.0515091459228
 30
0.0
 11
167.6567566169001
 21
313.0515091459228
 31
0.0
  0
LINE
  5
11D
330
1F
100
AcDbEntity
  8
0
 62
     7
370
    60
100
AcDbLine
 10
482.6567876169
 20
351.5515091459228
 30
0.0
 11
167.6567566169001
 21
351.5515091459228
 31
0.0
  0
LINE
  5
11E
330
1F
100
AcDbEntity
  8
0
 62
     7
370
    60
100
AcDbLine
 10
482.6567876169
 20
197.5515091459228
 30
0.0
 11
167.6567566169001
 21
197.5515091459228
 31
0.0
  0
LINE
  5
11F
330
1F
100
AcDbEntity
  8
0
 62
     7
370
    60
100
AcDbLine
 10
482.6567876169
 20
200.5515091459228
 30
0.0
 11
167.6567566169001
 21
200.5515091459228
 31
0.0
  0
LINE
  5
120
330
1F
100
AcDbEntity
  8
0
 62
     7
370
    60
100
AcDbLine
 10
482.6567876169
 20
159.0515091459228
 30
0.0
 11
167.6567566169001
 21
159.0515091459228
 31
0.0
  0
LINE
  5
121
330
1F
100
AcDbEntity
  8
0
 62
     7
370
    60
100
AcDbLine
 10
482.6567876169
 20
82.05150214592277
 30
0.0
 11
167.6567566169001
 21
82.05150214592277
 31
0.0
  0
LINE
  5
122
330
1F
100
AcDbEntity
  8
0
 62
     7
370
    60
100
AcDbLine
 10
482.6567876169
 20
120.5515091459228
 30
0.0
 11
167.6567566169001
 21
120.5515091459228
 31
0.0
  0
LINE
  5
123
330
1F
100
AcDbEntity
  8
0
 62
     7
370
    60
100
AcDbLine
 10
482.6567876169
 20
85.05150214592277
 30
0.0
 11
167.6567566169001
 21
85.05150214592277
 31
0.0
  0
LINE
  5
124
330
1F
100
AcDbEntity
  8
0
 62
     7
370
    60
100
AcDbLine
 10
207.4067876169001
 20
390.0515021459228
 30
0.0
 11
207.4067876169001
 21
354.5515091459228
 31
0.0
  0
LINE
  5
125
330
1F
100
AcDbEntity
  8
0
 62
     7
370
    60
100
AcDbLine
 10
204.4067566169001
 20
390.0515021459228
 30
0.0
 11
204.4067566169001
 21
354.5515091459228
 31
0.0
  0
LINE
  5
126
330
1F
100
AcDbEntity
  8
0
 62
     7
370
    60
100
AcDbLine
 10
244.1567876169001
 20
390.0515021459228
 30
0.0
 11
244.1567876169001
 21
354.5515091459228
 31
0.0
  0
LINE
  5
127
330
1F
100
AcDbEntity
  8
0
 62
     7
370
    60
100
AcDbLine
 10
247.1567876169001
 20
390.0515021459228
 30
0.0
 11
247.1567876169001
 21
354.5515091459228
 31
0.0
  0
LINE
  5
128
330
1F
100
AcDbEntity
  8
0
 62
     7
370
    60
100
AcDbLine
 10
286.9067876169
 20
390.0515021459228
 30
0.0
 11
286.9067876169
 21
354.5515091459228
 31
0.0
  0
LINE
  5
129
330
1F
100
AcDbEntity
  8
0
 62
     7
370
    60
100
AcDbLine
 10
283.9067876169
 20
390.0515021459228
 30
0.0
 11
283.9067876169
 21
354.5515091459228
 31
0.0
  0
LINE
  5
12A
330
1F
100
AcDbEntity
  8
0
 62
     7
370
    60
100
AcDbLine
 10
326.6567876169
 20
390.0515021459228
 30
0.0
 11
326.6567876169
 21
354.5515091459228
 31
0.0
  0
LINE
  5
12B
330
1F
100
AcDbEntity
  8
0
 62
     7
370
    60
100
AcDbLine
 10
323.6567876169
 20
390.0515021459228
 30
0.0
 11
323.6567876169
 21
354.5515091459228
 31
0.0
  0
LINE
  5
12C
330
1F
100
AcDbEntity
  8
0
 62
     7
370
    60
100
AcDbLine
 10
366.4067876169
 20
390.0515021459228
 30
0.0
 11
366.4067876169
 21
354.5515091459228
 31
0.0
  0
LINE
  5
12D
330
1F
100
AcDbEntity
  8
0
 62
     7
370
    60
100
AcDbLine
 10
363.4067876169
 20
390.0515021459228
 30
0.0
 11
363.4067876169
 21
354.5515091459228
 31
0.0
  0
LINE
  5
12E
330
1F
100
AcDbEntity
  8
0
 62
     7
370
    60
100
AcDbLine
 10
406.1567876169
 20
390.0515021459228
 30
0.0
 11
406.1567876169
 21
354.5515091459228
 31
0.0
  0
LINE
  5
12F
330
1F
100
AcDbEntity
  8
0
 62
     7
370
    60
100
AcDbLine
 10
403.1567876169
 20
390.0515021459228
 30
0.0
 11
403.1567876169
 21
354.5515091459228
 31
0.0
  0
LINE
  5
130
330
1F
100
AcDbEntity
  8
0
 62
     7
370
    60
100
AcDbLine
 10
207.4067876169001
 20
351.5515091459228
 30
0.0
 11
207.4067876169001
 21
316.0515091459228
 31
0.0
  0
LINE
  5
131
330
1F
100
AcDbEntity
  8
0
 62
     7
370
    60
100
AcDbLine
 10
204.4067566169001
 20
351.5515091459228
 30
0.0
 11
204.4067566169001
 21
316.0515091459228
 31
0.0
  0
LINE
  5
132
330
1F
100
AcDbEntity
  8
0
 62
     7
370
    60
100
AcDbLine
 10
204.4067566169001
 20
313.0515091459228
 30
0.0
 11
204.4067566169001
 21
277.5515091459228
 31
0.0
  0
LINE
  5
133
330
1F
100
AcDbEntity
  8
0
 62
     7
370
    60
100
AcDbLine
 10
207.4067876169001
 20
313.0515091459228
 30
0.0
 11
207.4067876169001
 21
277.5515091459228
 31
0.0
  0
LINE
  5
134
330
1F
100
AcDbEntity
  8
0
 62
     7
 48
0.25625
370
    60
100
AcDbLine
 10
204.4067566169001
 20
274.5515091459228
 30
0.0
 11
204.4067566169001
 21
264.3015091459228
 31
0.0
  0
LINE
  5
135
330
1F
100
AcDbEntity
  8
0
 62
     7
370
    60
100
AcDbLine
 10
207.4067876169001
 20
274.5515091459228
 30
0.0
 11
207.4067876169001
 21
239.0515091459228
 31
0.0
  0
LINE
  5
136
330
1F
100
AcDbEntity
  8
0
 62
     7
370
    60
100
AcDbLine
 10
204.4067566169001
 20
159.0515091459228
 30
0.0
 11
204.4067566169001
 21
123.5515091459228
 31
0.0
  0
LINE
  5
137
330
1F
100
AcDbEntity
  8
0
 62
     7
370
    60
100
AcDbLine
 10
207.4067876169001
 20
159.0515091459228
 30
0.0
 11
207.4067876169001
 21
123.5515091459228
 31
0.0
  0
LINE
  5
138
330
1F
100
AcDbEntity
  8
0
 62
     7
370
    60
100
AcDbLine
 10
204.4067566169001
 20
120.5515091459228
 30
0.0
 11
204.4067566169001
 21
85.05150214592277
 31
0.0
  0
LINE
  5
139
330
1F
100
AcDbEntity
  8
0
 62
     7
370
    60
100
AcDbLine
 10
207.4067876169001
 20
120.5515091459228
 30
0.0
 11
207.4067876169001
 21
85.05150214592277
 31
0.0
  0
LINE
  5
13A
330
1F
100
AcDbEntity
  8
0
 62
     7
370
    60
100
AcDbLine
 10
204.4067566169001
 20
82.05150214592277
 30
0.0
 11
204.4067566169001
 21
46.55150214592276
 31
0.0
  0
LINE
  5
13B
330
1F
100
AcDbEntity
  8
0
 62
     7
370
    60
100
AcDbLine
 10
207.4067876169001
 20
82.05150214592277
 30
0.0
 11
207.4067876169001
 21
46.55150214592276
 31
0.0
  0
LINE
  5
13C
330
1F
100
AcDbEntity
  8
0
 62
     7
370
    60
100
AcDbLine
 10
244.1567876169001
 20
82.05150214592277
 30
0.0
 11
244.1567876169001
 21
46.55150214592276
 31
0.0
  0
LINE
  5
13D
330
1F
100
AcDbEntity
  8
0
 62
     7
370
    60
100
AcDbLine
 10
247.1567876169001
 20
82.05150214592277
 30
0.0
 11
247.1567876169001
 21
46.55150214592276
 31
0.0
  0
LINE
  5
13E
330
1F
100
AcDbEntity
  8
0
 62
     7
370
    60
100
AcDbLine
 10
244.1567876169001
 20
120.5515091459228
 30
0.0
 11
244.1567876169001
 21
85.05150214592277
 31
0.0
  0
LINE
  5
13F
330
1F
100
AcDbEntity
  8
0
 62
     7
370
    60
100
AcDbLine
 10
247.1567876169001
 20
120.5515091459228
 30
0.0
 11
247.1567876169001
 21
85.05150214592277
 31
0.0
  0
LINE
  5
140
330
1F
100
AcDbEntity
  8
0
 62
     7
370
    60
100
AcDbLine
 10
247.1567876169001
 20
159.0515091459228
 30
0.0
 11
247.1567876169001
 21
123.5515091459228
 31
0.0
  0
LINE
  5
141
330
1F
100
AcDbEntity
  8
0
 62
     7
370
    60
100
AcDbLine
 10
244.1567876169001
 20
159.0515091459228
 30
0.0
 11
244.1567876169001
 21
123.5515091459228
 31
0.0
  0
LINE
  5
142
330
1F
100
AcDbEntity
  8
0
 62
     7
370
    60
100
AcDbLine
 10
247.1567876169001
 20
197.5515091459228
 30
0.0
 11
247.1567876169001
 21
162.0515091459228
 31
0.0
  0
LINE
  5
143
330
1F
100
AcDbEntity
  8
0
 62
     7
370
    60
100
AcDbLine
 10
244.1567876169001
 20
197.5515091459228
 30
0.0
 11
244.1567876169001
 21
162.0515091459228
 31
0.0
  0
LINE
  5
144
330
1F
100
AcDbEntity
  8
0
 62
     7
370
    60
100
AcDbLine
 10
244.1567876169001
 20
236.0515091459228
 30
0.0
 11
244.1567876169001
 21
200.5515091459228
 31
0.0
  0
LINE
  5
145
330
1F
100
AcDbEntity
  8
0
 62
     7
370
    60
100
AcDbLine
 10
247.1567876169001
 20
236.0515091459228
 30
0.0
 11
247.1567876169001
 21
200.5515091459228
 31
0.0
  0
LINE
  5
146
330
1F
100
AcDbEntity
  8
0
 62
     7
370
    60
100
AcDbLine
 10
244.1567876169001
 20
274.5515091459228
 30
0.0
 11
244.1567876169001
 21
239.0515091459228
 31
0.0
  0
LINE
  5
147
330
1F
100
AcDbEntity
  8
0
 62
     7
370
    60
100
AcDbLine
 10
247.1567876169001
 20
274.5515091459228
 30
0.0
 11
247.1567876169001
 21
239.0515091459228
 31
0.0
  0
LINE
  5
148
330
1F
100
AcDbEntity
  8
0
 62
     7
370
    60
100
AcDbLine
 10
247.1567876169001
 20
313.0515091459228
 30
0.0
 11
247.1567876169001
 21
277.5515091459228
 31
0.0
  0
LINE
  5
149
330
1F
100
AcDbEntity
  8
0
 62
     7
370
    60
100
AcDbLine
 10
244.1567876169001
 20
313.0515091459228
 30
0.0
 11
244.1567876169001
 21
277.5515091459228
 31
0.0
  0
LINE
  5
14A
330
1F
100
AcDbEntity
  8
0
 62
     7
370
    60
100
AcDbLine
 10
247.1567876169001
 20
351.5515091459228
 30
0.0
 11
247.1567876169001
 21
316.0515091459228
 31
0.0
  0
LINE
  5
14B
330
1F
100
AcDbEntity
  8
0
 62
     7
370
    60
100
AcDbLine
 10
244.1567876169001
 20
351.5515091459228
 30
0.0
 11
244.1567876169001
 21
316.0515091459228
 31
0.0
  0
LINE
  5
14C
330
1F
100
AcDbEntity
  8
0
 62
     7
370
    60
100
AcDbLine
 10
286.9067876169
 20
351.5515091459228
 30
0.0
 11
286.9067876169
 21
316.0515091459228
 31
0.0
  0
LINE
  5
14D
330
1F
100
AcDbEntity
  8
0
 62
     7
370
    60
100
AcDbLine
 10
283.9067876169
 20
351.5515091459228
 30
0.0
 11
283.9067876169
 21
316.0515091459228
 31
0.0
  0
LINE
  5
14E
330
1F
100
AcDbEntity
  8
0
 62
     7
370
    60
100
AcDbLine
 10
283.9067876169
 20
313.0515091459228
 30
0.0
 11
283.9067876169
 21
277.5515091459228
 31
0.0
  0
LINE
  5
14F
330
1F
100
AcDbEntity
  8
0
 62
     7
370
    60
100
AcDbLine
 10
286.9067876169
 20
313.0515091459228
 30
0.0
 11
286.9067876169
 21
277.5515091459228
 31
0.0
  0
LINE
  5
150
330
1F
100
AcDbEntity
  8
0
 62
     7
370
    60
100
AcDbLine
 10
283.9067876169
 20
274.5515091459228
 30
0.0
 11
283.9067876169
 21
239.0515091459228
 31
0.0
  0
LINE
  5
151
330
1F
100
AcDbEntity
  8
0
 62
     7
370
    60
100
AcDbLine
 10
286.9067876169
 20
236.0515091459228
 30
0.0
 11
286.9067876169
 21
200.5515091459228
 31
0.0
  0
LINE
  5
152
330
1F
100
AcDbEntity
  8
0
 62
     7
370
    60
100
AcDbLine
 10
283.9067876169
 20
197.5515091459228
 30
0.0
 11
283.9067876169
 21
162.0515091459228
 31
0.0
  0
LINE
  5
153
330
1F
100
AcDbEntity
  8
0
 62
     7
370
    60
100
AcDbLine
 10
286.9067876169
 20
197.5515091459228
 30
0.0
 11
286.9067876169
 21
162.0515091459228
 31
0.0
  0
LINE
  5
154
330
1F
100
AcDbEntity
  8
0
 62
     7
370
    60
100
AcDbLine
 10
363.4067876169
 20
82.05150214592277
 30
0.0
 11
363.4067876169
 21
46.55150214592276
 31
0.0
  0
LINE
  5
155
330
1F
100
AcDbEntity
  8
0
 62
     7
370
    60
100
AcDbLine
 10
366.4067876169
 20
82.05150214592277
 30
0.0
 11
366.4067876169
 21
46.55150214592276
 31
0.0
  0
LINE
  5
156
330
1F
100
AcDbEntity
  8
0
 62
     7
370
    60
100
AcDbLine
 10
406.1567876169
 20
82.05150214592277
 30
0.0
 11
406.1567876169
 21
46.55150214592276
 31
0.0
  0
LINE
  5
157
330
1F
100
AcDbEntity
  8
0
 62
     7
370
    60
100
AcDbLine
 10
403.1567876169
 20
82.05150214592277
 30
0.0
 11
403.1567876169
 21
46.55150214592276
 31
0.0
  0
LINE
  5
158
330
1F
100
AcDbEntity
  8
0
 62
     7
370
    60
100
AcDbLine
 10
406.1567876169
 20
120.5515091459228
 30
0.0
 11
406.1567876169
 21
85.05150214592277
 31
0.0
  0
LINE
  5
159
330
1F
100
AcDbEntity
  8
0
 62
     7
370
    60
100
AcDbLine
 10
403.1567876169
 20
120.5515091459228
 30
0.0
 11
403.1567876169
 21
85.05150214592277
 31
0.0
  0
LINE
  5
15A
330
1F
100
AcDbEntity
  8
0
 62
     7
370
    60
100
AcDbLine
 10
406.1567876169
 20
159.0515091459228
 30
0.0
 11
406.1567876169
 21
123.5515091459228
 31
0.0
  0
LINE
  5
15B
330
1F
100
AcDbEntity
  8
0
 62
     7
370
    60
100
AcDbLine
 10
403.1567876169
 20
159.0515091459228
 30
0.0
 11
403.1567876169
 21
123.5515091459228
 31
0.0
  0
LINE
  5
15C
330
1F
100
AcDbEntity
  8
0
 62
     7
370
    60
100
AcDbLine
 10
406.1567876169
 20
197.5515091459228
 30
0.0
 11
406.1567876169
 21
162.0515091459228
 31
0.0
  0
LINE
  5
15D
330
1F
100
AcDbEntity
  8
0
 62
     7
370
    60
100
AcDbLine
 10
403.1567876169
 20
197.5515091459228
 30
0.0
 11
403.1567876169
 21
162.0515091459228
 31
0.0
  0
LINE
  5
15E
330
1F
100
AcDbEntity
  8
0
 62
     7
370
    60
100
AcDbLine
 10
406.1567876169
 20
236.0515091459228
 30
0.0
 11
406.1567876169
 21
200.5515091459228
 31
0.0
  0
LINE
  5
15F
330
1F
100
AcDbEntity
  8
0
 62
     7
370
    60
100
AcDbLine
 10
403.1567876169
 20
236.0515091459228
 30
0.0
 11
403.1567876169
 21
200.5515091459228
 31
0.0
  0
LINE
  5
160
330
1F
100
AcDbEntity
  8
0
 62
     7
370
    60
100
AcDbLine
 10
406.1567876169
 20
274.5515091459228
 30
0.0
 11
406.1567876169
 21
239.0515091459228
 31
0.0
  0
LINE
  5
161
330
1F
100
AcDbEntity
  8
0
 62
     7
370
    60
100
AcDbLine
 10
403.1567876169
 20
274.5515091459228
 30
0.0
 11
403.1567876169
 21
239.0515091459228
 31
0.0
  0
LINE
  5
162
330
1F
100
AcDbEntity
  8
0
 62
     7
370
    60
100
AcDbLine
 10
406.1567876169
 20
313.0515091459228
 30
0.0
 11
406.1567876169
 21
277.5515091459228
 31
0.0
  0
LINE
  5
163
330
1F
100
AcDbEntity
  8
0
 62
     7
370
    60
100
AcDbLine
 10
403.1567876169
 20
313.0515091459228
 30
0.0
 11
403.1567876169
 21
277.5515091459228
 31
0.0
  0
LINE
  5
164
330
1F
100
AcDbEntity
  8
0
 62
     7
370
    60
100
AcDbLine
 10
406.1567876169
 20
351.5515091459228
 30
0.0
 11
406.1567876169
 21
316.0515091459228
 31
0.0
  0
LINE
  5
165
330
1F
100
AcDbEntity
  8
0
 62
     7
370
    60
100
AcDbLine
 10
403.1567876169
 20
351.5515091459228
 30
0.0
 11
403.1567876169
 21
316.0515091459228
 31
0.0
  0
LINE
  5
166
330
1F
100
AcDbEntity
  8
0
 62
     7
370
    60
100
AcDbLine
 10
445.9067876169
 20
351.5515091459228
 30
0.0
 11
445.9067876169
 21
316.0515091459228
 31
0.0
  0
LINE
  5
167
330
1F
100
AcDbEntity
  8
0
 62
     7
370
    60
100
AcDbLine
 10
442.9067876169
 20
351.5515091459228
 30
0.0
 11
442.9067876169
 21
316.0515091459228
 31
0.0
  0
LINE
  5
168
330
1F
100
AcDbEntity
  8
0
 62
     7
370
    60
100
AcDbLine
 10
442.9067876169
 20
313.0515091459228
 30
0.0
 11
442.9067876169
 21
277.5515091459228
 31
0.0
  0
LINE
  5
169
330
1F
100
AcDbEntity
  8
0
 62
     7
370
    60
100
AcDbLine
 10
445.9067876169
 20
313.0515091459228
 30
0.0
 11
445.9067876169
 21
277.5515091459228
 31
0.0
  0
LINE
  5
16A
330
1F
100
AcDbEntity
  8
0
 62
     7
370
    60
100
AcDbLine
 10
442.9067876169
 20
274.5515091459228
 30
0.0
 11
442.9067876169
 21
239.0515091459228
 31
0.0
  0
LINE
  5
16B
330
1F
100
AcDbEntity
  8
0
 62
     7
 48
0.25625
370
    60
100
AcDbLine
 10
445.9067876169
 20
274.5515091459228
 30
0.0
 11
445.9067876169
 21
264.3015091459228
 31
0.0
  0
LINE
  5
16C
330
1F
100
AcDbEntity
  8
0
 62
     7
370
    60
100
AcDbLine
 10
442.9067876169
 20
236.0515091459228
 30
0.0
 11
442.9067876169
 21
200.5515091459228
 31
0.0
  0
LINE
  5
16D
330
1F
100
AcDbEntity
  8
0
 62
     7
370
    60
100
AcDbLine
 10
445.9067876169
 20
236.0515091459228
 30
0.0
 11
445.9067876169
 21
200.5515091459228
 31
0.0
  0
LINE
  5
16E
330
1F
100
AcDbEntity
  8
0
 62
     7
370
    60
100
AcDbLine
 10
442.9067876169
 20
197.5515091459228
 30
0.0
 11
442.9067876169
 21
162.0515091459228
 31
0.0
  0
LINE
  5
16F
330
1F
100
AcDbEntity
  8
0
 62
     7
370
    60
100
AcDbLine
 10
445.9067876169
 20
197.5515091459228
 30
0.0
 11
445.9067876169
 21
162.0515091459228
 31
0.0
  0
LINE
  5
170
330
1F
100
AcDbEntity
  8
0
 62
     7
370
    60
100
AcDbLine
 10
442.9067876169
 20
159.0515091459228
 30
0.0
 11
442.9067876169
 21
123.5515091459228
 31
0.0
  0
LINE
  5
171
330
1F
100
AcDbEntity
  8
0
 62
     7
370
    60
100
AcDbLine
 10
445.9067876169
 20
159.0515091459228
 30
0.0
 11
445.9067876169
 21
123.5515091459228
 31
0.0
  0
LINE
  5
172
330
1F
100
AcDbEntity
  8
0
 62
     7
370
    60
100
AcDbLine
 10
442.9067876169
 20
120.5515091459228
 30
0.0
 11
442.9067876169
 21
85.05150214592277
 31
0.0
  0
LINE
  5
173
330
1F
100
AcDbEntity
  8
0
 62
     7
370
    60
100
AcDbLine
 10
445.9067876169
 20
120.5515091459228
 30
0.0
 11
445.9067876169
 21
85.05150214592277
 31
0.0
  0
LINE
  5
174
330
1F
100
AcDbEntity
  8
0
 62
     7
370
    60
100
AcDbLine
 10
442.9067876169
 20
82.05150214592277
 30
0.0
 11
442.9067876169
 21
46.55150214592276
 31
0.0
  0
LINE
  5
175
330
1F
100
AcDbEntity
  8
0
 62
     7
370
    60
100
AcDbLine
 10
445.9067876169
 20
82.05150214592277
 30
0.0
 11
445.9067876169
 21
46.55150214592276
 31
0.0
  0
LINE
  5
176
330
1F
100
AcDbEntity
  8
0
 62
     7
 48
0.225
370
    60
100
AcDbLine
 10
204.4067566169001
 20
261.3015091459228
 30
0.0
 11
204.4067566169001
 21
252.3015091459228
 31
0.0
  0
LINE
  5
177
330
1F
100
AcDbEntity
  8
0
 62
     7
 48
0.25625
370
    60
100
AcDbLine
 10
204.4067566169001
 20
249.3015091459228
 30
0.0
 11
204.4067566169001
 21
239.0515091459228
 31
0.0
  0
LINE
  5
178
330
1F
100
AcDbEntity
  8
0
 62
     7
 48
0.225
370
    60
100
AcDbLine
 10
445.9067876169
 20
261.3015091459228
 30
0.0
 11
445.9067876169
 21
252.3015091459228
 31
0.0
  0
LINE
  5
179
330
1F
100
AcDbEntity
  8
0
 62
     7
 48
0.25625
370
    60
100
AcDbLine
 10
445.9067876169
 20
249.3015091459228
 30
0.0
 11
445.9067876169
 21
239.0515091459228
 31
0.0
  0
ARC
  5
17A
330
1F
100
AcDbEntity
  8
0
 62
     7
370
    60
100
AcDbCircle
 10
193.6567566169001
 20
256.8015091459228
 30
0.0
 40
7.500000000000001
100
AcDbArc
 50
90.00000100000011
 51
270.0000030000001
  0
ARC
  5
17B
330
1F
100
AcDbEntity
  8
0
 62
     7
370
    60
100
AcDbCircle
 10
193.6567566169001
 20
256.8015091459228
 30
0.0
 40
4.500000000000001
100
AcDbArc
 50
90.00000099999995
 51
270.0000029999999
  0
ARC
  5
17C
330
1F
100
AcDbEntity
  8
0
 62
     7
370
    60
100
AcDbCircle
 10
456.6567876169
 20
256.8015091459228
 30
0.0
 40
7.500000000000011
100
AcDbArc
 50
270.0000030000003
 51
90.00000100000028
  0
ARC
  5
17D
330
1F
100
AcDbEntity
  8
0
 62
     7
370
    60
100
AcDbCircle
 10
456.6567876169
 20
256.8015091459228
 30
0.0
 40
4.500000000000006
100
AcDbArc
 50
270.0000030000006
 51
90.0000010000006
  0
DIMENSION
  5
17E
330
1F
100
AcDbEntity
  8
0
370
    25
100
AcDbDimension
  2
*D3
 10
485.6567876169
 20
431.7627421541578
 30
0.0
 11
325.1567721169001
 21
443.7627421541578
 31
0.0
 70
   160
 71
     5
 41
2.5
 42
321.0000309999999
  3
Standard
100
AcDbAlignedDimension
 13
164.6567566169001
 23
289.3540279353994
 33
0.0
 14
485.6567876169
 24
289.3540279353994
 34
0.0
100
AcDbRotatedDimension
1001
ACAD
1000
DSTYLE
1002
{
1070
   171
1070
     3
1070
   143
1040
0.03937
1070
   274
1070
     3
1070
    41
1040
10.0
1070
   289
1070
     0
1070
   141
1040
2.5
1070
   176
1070
     7
1070
   177
1070
     7
1070
   271
1070
     2
1070
    43
1040
3.75
1070
   278
1070
    44
1070
    44
1040
1.25
1070
    42
1040
0.625
1070
   147
1040
5.0
1070
    77
1070
     1
1070
   272
1070
     2
1070
    73
1070
     0
1070
   172
1070
     1
1070
    74
1070
     0
1070
   283
1070
     0
1070
   140
1040
14.0
1070
   284
1070
     8
1070
    78
1070
     8
1002
}
  0
DIMENSION
  5
17F
330
1F
100
AcDbEntity
  8
0
370
    25
100
AcDbDimension
  2
*D4
 10
122.3918680476946
 20
43.55150214592277
 30
0.0
 11
109.2252013810279
 21
218.3015021459228
 31
0.0
 70
    32
 71
     5
 41
2.5
 42
349.5
  3
Standard
100
AcDbAlignedDimension
 13
273.7368595243969
 23
393.0515021459228
 33
0.0
 14
267.8526647605987
 24
43.55150214592276
 34
0.0
 50
90.0
100
AcDbRotatedDimension
1001
ACAD
1000
DSTYLE
1002
{
1070
   171
1070
     3
1070
   143
1040
0.03937
1070
   274
1070
     3
1070
    41
1040
10.0
1070
   289
1070
     0
1070
   141
1040
2.5
1070
   176
1070
     7
1070
   177
1070
     7
1070
   271
1070
     2
1070
    43
1040
3.75
1070
   278
1070
    44
1070
    44
1040
1.25
1070
    42
1040
0.625
1070
   147
1040
5.0
1070
    77
1070
     1
1070
   272
1070
     2
1070
    73
1070
     0
1070
   172
1070
     1
1070
    74
1070
     0
1070
   283
1070
     0
1070
   140
1040
14.0
1070
   284
1070
     8
1070
    78
1070
     8
1002
}
  0
LINE
  5
180
330
1F
100
AcDbEntity
  8
0
 62
     7
370
    60
100
AcDbLine
 10
482.6567876169
 20
162.0515091459228
 30
0.0
 11
167.6567566169001
 21
162.0515091459228
 31
0.0
  0
LINE
  5
181
330
1F
100
AcDbEntity
  8
0
 62
     7
370
    60
100
AcDbLine
 10
482.6567876169
 20
123.5515091459228
 30
0.0
 11
167.6567566169001
 21
123.5515091459228
 31
0.0
  0
ARC
  5
182
330
1F
100
AcDbEntity
  8
0
 62
     7
370
    60
100
AcDbCircle
 10
465.6567876169
 20
63.55150214592277
 30
0.0
 40
20.00000000000001
100
AcDbArc
 50
270.000003
 51
0.0000049999999943
  0
LINE
  5
183
330
1F
100
AcDbEntity
  8
0
 62
     7
370
    60
100
AcDbLine
 10
445.9067876169
 20
390.0515021459228
 30
0.0
 11
445.9067876169
 21
354.5515091459228
 31
0.0
  0
LINE
  5
184
330
1F
100
AcDbEntity
  8
0
 62
     7
370
    60
100
AcDbLine
 10
442.9067876169
 20
390.0515021459228
 30
0.0
 11
442.9067876169
 21
354.5515091459228
 31
0.0
  0
LINE
  5
185
330
1F
100
AcDbEntity
  8
0
 62
     7
370
    60
100
AcDbLine
 10
204.4067566169001
 20
236.0515091459228
 30
0.0
 11
204.4067566169001
 21
200.5515091459228
 31
0.0
  0
LINE
  5
186
330
1F
100
AcDbEntity
  8
0
 62
     7
370
    60
100
AcDbLine
 10
207.4067876169001
 20
236.0515091459228
 30
0.0
 11
207.4067876169001
 21
200.5515091459228
 31
0.0
  0
LINE
  5
187
330
1F
100
AcDbEntity
  8
0
 62
     7
370
    60
100
AcDbLine
 10
204.4067566169001
 20
197.5515091459228
 30
0.0
 11
204.4067566169001
 21
162.0515091459228
 31
0.0
  0
LINE
  5
188
330
1F
100
AcDbEntity
  8
0
 62
     7
370
    60
100
AcDbLine
 10
207.4067876169001
 20
197.5515091459228
 30
0.0
 11
207.4067876169001
 21
162.0515091459228
 31
0.0
  0
LINE
  5
189
330
1F
100
AcDbEntity
  8
0
 62
     7
370
    60
100
AcDbLine
 10
286.9067876169
 20
274.5515091459228
 30
0.0
 11
286.9067876169
 21
239.0515091459228
 31
0.0
  0
LINE
  5
18A
330
1F
100
AcDbEntity
  8
0
 62
     7
370
    60
100
AcDbLine
 10
283.9067876169
 20
236.0515091459228
 30
0.0
 11
283.9067876169
 21
200.5515091459228
 31
0.0
  0
LINE
  5
18B
330
1F
100
AcDbEntity
  8
0
 62
     7
370
    60
100
AcDbLine
 10
283.9067876169
 20
159.0515091459228
 30
0.0
 11
283.9067876169
 21
123.5515091459228
 31
0.0
  0
LINE
  5
18C
330
1F
100
AcDbEntity
  8
0
 62
     7
370
    60
100
AcDbLine
 10
286.9067876169
 20
159.0515091459228
 30
0.0
 11
286.9067876169
 21
123.5515091459228
 31
0.0
  0
LINE
  5
18D
330
1F
100
AcDbEntity
  8
0
 62
     7
370
    60
100
AcDbLine
 10
283.9067876169
 20
120.5515091459228
 30
0.0
 11
283.9067876169
 21
85.05150214592277
 31
0.0
  0
LINE
  5
18E
330
1F
100
AcDbEntity
  8
0
 62
     7
370
    60
100
AcDbLine
 10
286.9067876169
 20
120.5515091459228
 30
0.0
 11
286.9067876169
 21
85.05150214592277
 31
0.0
  0
LINE
  5
18F
330
1F
100
AcDbEntity
  8
0
 62
     7
370
    60
100
AcDbLine
 10
283.9067876169
 20
82.05150214592277
 30
0.0
 11
283.9067876169
 21
46.55150214592276
 31
0.0
  0
LINE
  5
190
330
1F
100
AcDbEntity
  8
0
 62
     7
370
    60
100
AcDbLine
 10
286.9067876169
 20
82.05150214592277
 30
0.0
 11
286.9067876169
 21
46.55150214592276
 31
0.0
  0
LINE
  5
191
330
1F
100
AcDbEntity
  8
0
 62
     7
370
    60
100
AcDbLine
 10
326.6567876169
 20
82.05150214592277
 30
0.0
 11
326.6567876169
 21
46.55150214592276
 31
0.0
  0
LINE
  5
192
330
1F
100
AcDbEntity
  8
0
 62
     7
370
    60
100
AcDbLine
 10
323.6567876169
 20
82.05150214592277
 30
0.0
 11
323.6567876169
 21
46.55150214592276
 31
0.0
  0
LINE
  5
193
330
1F
100
AcDbEntity
  8
0
 62
     7
370
    60
100
AcDbLine
 10
326.6567876169
 20
120.5515091459228
 30
0.0
 11
326.6567876169
 21
85.05150214592277
 31
0.0
  0
LINE
  5
194
330
1F
100
AcDbEntity
  8
0
 62
     7
370
    60
100
AcDbLine
 10
323.6567876169
 20
120.5515091459228
 30
0.0
 11
323.6567876169
 21
85.05150214592277
 31
0.0
  0
LINE
  5
195
330
1F
100
AcDbEntity
  8
0
 62
     7
370
    60
100
AcDbLine
 10
326.6567876169
 20
159.0515091459228
 30
0.0
 11
326.6567876169
 21
123.5515091459228
 31
0.0
  0
LINE
  5
196
330
1F
100
AcDbEntity
  8
0
 62
     7
370
    60
100
AcDbLine
 10
323.6567876169
 20
159.0515091459228
 30
0.0
 11
323.6567876169
 21
123.5515091459228
 31
0.0
  0
LINE
  5
197
330
1F
100
AcDbEntity
  8
0
 62
     7
370
    60
100
AcDbLine
 10
326.6567876169
 20
197.5515091459228
 30
0.0
 11
326.6567876169
 21
162.0515091459228
 31
0.0
  0
LINE
  5
198
330
1F
100
AcDbEntity
  8
0
 62
     7
370
    60
100
AcDbLine
 10
323.6567876169
 20
197.5515091459228
 30
0.0
 11
323.6567876169
 21
162.0515091459228
 31
0.0
  0
LINE
  5
199
330
1F
100
AcDbEntity
  8
0
 62
     7
370
    60
100
AcDbLine
 10
326.6567876169
 20
236.0515091459228
 30
0.0
 11
326.6567876169
 21
200.5515091459228
 31
0.0
  0
LINE
  5
19A
330
1F
100
AcDbEntity
  8
0
 62
     7
370
    60
100
AcDbLine
 10
323.6567876169
 20
236.0515091459228
 30
0.0
 11
323.6567876169
 21
200.5515091459228
 31
0.0
  0
LINE
  5
19B
330
1F
100
AcDbEntity
  8
0
 62
     7
370
    60
100
AcDbLine
 10
326.6567876169
 20
274.5515091459228
 30
0.0
 11
326.6567876169
 21
239.0515091459228
 31
0.0
  0
LINE
  5
19C
330
1F
100
AcDbEntity
  8
0
 62
     7
370
    60
100
AcDbLine
 10
323.6567876169
 20
274.5515091459228
 30
0.0
 11
323.6567876169
 21
239.0515091459228
 31
0.0
  0
LINE
  5
19D
330
1F
100
AcDbEntity
  8
0
 62
     7
370
    60
100
AcDbLine
 10
326.6567876169
 20
313.0515091459228
 30
0.0
 11
326.6567876169
 21
277.5515091459228
 31
0.0
  0
LINE
  5
19E
330
1F
100
AcDbEntity
  8
0
 62
     7
370
    60
100
AcDbLine
 10
323.6567876169
 20
313.0515091459228
 30
0.0
 11
323.6567876169
 21
277.5515091459228
 31
0.0
  0
LINE
  5
19F
330
1F
100
AcDbEntity
  8
0
 62
     7
370
    60
100
AcDbLine
 10
326.6567876169
 20
351.5515091459228
 30
0.0
 11
326.6567876169
 21
316.0515091459228
 31
0.0
  0
LINE
  5
1A0
330
1F
100
AcDbEntity
  8
0
 62
     7
370
    60
100
AcDbLine
 10
323.6567876169
 20
351.5515091459228
 30
0.0
 11
323.6567876169
 21
316.0515091459228
 31
0.0
  0
LINE
  5
1A1
330
1F
100
AcDbEntity
  8
0
 62
     7
370
    60
100
AcDbLine
 10
366.4067876169
 20
351.5515091459228
 30
0.0
 11
366.4067876169
 21
316.0515091459228
 31
0.0
  0
LINE
  5
1A2
330
1F
100
AcDbEntity
  8
0
 62
     7
370
    60
100
AcDbLine
 10
363.4067876169
 20
351.5515091459228
 30
0.0
 11
363.4067876169
 21
316.0515091459228
 31
0.0
  0
LINE
  5
1A3
330
1F
100
AcDbEntity
  8
0
 62
     7
370
    60
100
AcDbLine
 10
363.4067876169
 20
313.0515091459228
 30
0.0
 11
363.4067876169
 21
277.5515091459228
 31
0.0
  0
LINE
  5
1A4
330
1F
100
AcDbEntity
  8
0
 62
     7
370
    60
100
AcDbLine
 10
366.4067876169
 20
313.0515091459228
 30
0.0
 11
366.4067876169
 21
277.5515091459228
 31
0.0
  0
LINE
  5
1A5
330
1F
100
AcDbEntity
  8
0
 62
     7
370
    60
100
AcDbLine
 10
363.4067876169
 20
274.5515091459228
 30
0.0
 11
363.4067876169
 21
239.0515091459228
 31
0.0
  0
LINE
  5
1A6
330
1F
100
AcDbEntity
  8
0
 62
     7
370
    60
100
AcDbLine
 10
366.4067876169
 20
274.5515091459228
 30
0.0
 11
366.4067876169
 21
239.0515091459228
 31
0.0
  0
LINE
  5
1A7
330
1F
100
AcDbEntity
  8
0
 62
     7
370
    60
100
AcDbLine
 10
363.4067876169
 20
236.0515091459228
 30
0.0
 11
363.4067876169
 21
200.5515091459228
 31
0.0
  0
LINE
  5
1A8
330
1F
100
AcDbEntity
  8
0
 62
     7
370
    60
100
AcDbLine
 10
366.4067876169
 20
236.0515091459228
 30
0.0
 11
366.4067876169
 21
200.5515091459228
 31
0.0
  0
LINE
  5
1A9
330
1F
100
AcDbEntity
  8
0
 62
     7
370
    60
100
AcDbLine
 10
363.4067876169
 20
197.5515091459228
 30
0.0
 11
363.4067876169
 21
162.0515091459228
 31
0.0
  0
LINE
  5
1AA
330
1F
100
AcDbEntity
  8
0
 62
     7
370
    60
100
AcDbLine
 10
366.4067876169
 20
197.5515091459228
 30
0.0
 11
366.4067876169
 21
162.0515091459228
 31
0.0
  0
LINE
  5
1AB
330
1F
100
AcDbEntity
  8
0
 62
     7
370
    60
100
AcDbLine
 10
363.4067876169
 20
159.0515091459228
 30
0.0
 11
363.4067876169
 21
123.5515091459228
 31
0.0
  0
LINE
  5
1AC
330
1F
100
AcDbEntity
  8
0
 62
     7
370
    60
100
AcDbLine
 10
366.4067876169
 20
159.0515091459228
 30
0.0
 11
366.4067876169
 21
123.5515091459228
 31
0.0
  0
LINE
  5
1AD
330
1F
100
AcDbEntity
  8
0
 62
     7
370
    60
100
AcDbLine
 10
363.4067876169
 20
120.5515091459228
 30
0.0
 11
363.4067876169
 21
85.05150214592277
 31
0.0
  0
LINE
  5
1AE
330
1F
100
AcDbEntity
  8
0
 62
     7
370
    60
100
AcDbLine
 10
366.4067876169
 20
120.5515091459228
 30
0.0
 11
366.4067876169
 21
85.05150214592277
 31
0.0
  0
VIEWPORT
  5
BB
330
73
100
AcDbEntity
 67
     1
  8
0
100
AcDbViewport
 10
7.8
 20
4.5
 30
0.0
 40
15.64
 41
9.0
 68
     1
 69
     1
 12
6.0
 22
4.5
 13
0.0
 23
0.0
 14
0.5
 24
0.5
 15
0.5
 25
0.5
 16
0.0
 26
0.0
 36
1.0
 17
0.0
 27
0.0
 37
0.0
 42
50.0
 43
0.0
 44
0.0
 45
12.0
 50
0.0
 51
0.0
 72
   100
 90
   557152
  1

281
     0
 71
     1
 74
     0
110
0.0
120
0.0
130
0.0
111
1.0
121
0.0
131
0.0
112
0.0
122
1.0
132
0.0
 79
     0
146
0.0
  0
ENDSEC
  0
SECTION
  2
OBJECTS
  0
DICTIONARY
  5
C
330
0
100
AcDbDictionary
281
     1
  3
ACAD_COLOR
350
6C
  3
ACAD_GROUP
350
D
  3
ACAD_LAYOUT
350
1A
  3
ACAD_MATERIAL
350
6B
  3
ACAD_MLEADERSTYLE
350
1EB
  3
ACAD_MLINESTYLE
350
17
  3
ACAD_PLOTSETTINGS
350
19
  3
ACAD_PLOTSTYLENAME
350
E
  3
ACAD_SCALELIST
350
99
  3
ACAD_TABLESTYLE
350
92
  3
ACDBHEADERROUNDTRIPXREC
350
1EC
  3
AcDbVariableDictionary
350
59
  3
DWGPROPS
350
1EF
  0
DICTIONARY
  5
6C
102
{ACAD_REACTORS
330
C
102
}
330
C
100
AcDbDictionary
281
     1
  0
DICTIONARY
  5
D
102
{ACAD_REACTORS
330
C
102
}
330
C
100
AcDbDictionary
281
     1
  0
DICTIONARY
  5
1A
102
{ACAD_REACTORS
330
C
102
}
330
C
100
AcDbDictionary
281
     1
  3
Layout1
350
74
  3
Layout2
350
1DF
  3
Model
350
22
  0
DICTIONARY
  5
6B
102
{ACAD_REACTORS
330
C
102
}
330
C
100
AcDbDictionary
281
     1
  0
DICTIONARY
  5
1EB
102
{ACAD_REACTORS
330
C
102
}
330
C
100
AcDbDictionary
281
     1
  0
DICTIONARY
  5
17
102
{ACAD_REACTORS
330
C
102
}
330
C
100
AcDbDictionary
281
     1
  3
Standard
350
18
  0
DICTIONARY
  5
19
102
{ACAD_REACTORS
330
C
102
}
330
C
100
AcDbDictionary
281
     1
  0
ACDBDICTIONARYWDFLT
  5
E
102
{ACAD_REACTORS
330
C
102
}
330
C
100
AcDbDictionary
281
     1
  3
Normal
350
F
100
AcDbDictionaryWithDefault
340
F
  0
DICTIONARY
  5
99
102
{ACAD_REACTORS
330
C
102
}
330
C
100
AcDbDictionary
281
     1
  3
A0
350
D5
  3
A1
350
D6
  3
A2
350
D7
  3
A3
350
D8
  3
A4
350
D9
  3
A5
350
DA
  3
A6
350
DB
  3
A7
350
DC
  3
A8
350
DD
  3
A9
350
DE
  3
B0
350
DF
  3
B1
350
E0
  3
B2
350
E1
  3
B3
350
E2
  3
B4
350
E3
  3
B5
350
E4
  3
B6
350
E5
  3
B7
350
E6
  3
B8
350
E7
  3
B9
350
E8
  3
C0
350
E9
  3
C1
350
EA
  3
C2
350
EB
  3
C3
350
EC
  3
C4
350
ED
  3
C5
350
EE
  3
C6
350
EF
  3
C7
350
F0
  3
C8
350
F1
  3
C9
350
F2
  3
D0
350
F3
  3
D1
350
F4
  3
D2
350
F5
  0
DICTIONARY
  5
92
102
{ACAD_REACTORS
330
C
102
}
330
C
100
AcDbDictionary
281
     1
  0
DICTIONARY
  5
1EC
102
{ACAD_REACTORS
330
C
102
}
330
C
100
AcDbDictionary
281
     1
  3
COLORDICT
350
1ED
  3
MATERIALDICT
350
1EE
  0
DICTIONARY
  5
59
102
{ACAD_REACTORS
330
C
102
}
330
C
100
AcDbDictionary
281
     1
  3
CTABLESTYLE
350
98
  3
DIMASSOC
350
5A
  3
HIDETEXT
350
5E
  0
XRECORD
  5
1EF
102
{ACAD_REACTORS
330
C
102
}
330
C
100
AcDbXrecord
280
     1
  1
DWGPROPS COOKIE
  2

  3

  4

  6

  7

  8
BelottiMc
  9

300
=
301
=
302
=
303
=
304
=
305
=
306
=
307
=
308
=
309
=
 40
0.0
 41
2455092.351761921
 42
2455092.393428576
  1

 90
        0
  0
LAYOUT
  5
74
102
{ACAD_REACTORS
330
1A
102
}
330
1A
100
AcDbPlotSettings
  1

  2
ProgeSOFT PDF Wizard
  4
A4
  6

 40
5.926666666666667
 41
6.011333333333317
 42
6.095999999999985
 43
5.926666666666667
 44
210.0
 45
297.0
 46
88.56200000000001
 47
136.531
 48
0.0
 49
0.0
140
0.0
141
0.0
142
1.0
143
1.0
 70
   692
 72
     1
 73
     0
 74
     0
  7

 75
    16
147
1.0
148
4.426666666666668
149
1.5
100
AcDbLayout
  1
Layout1
 70
     1
 71
     1
 10
0.0
 20
0.0
 11
0.0
 21
0.0
 12
0.0
 22
0.0
 32
0.0
 14
0.0
 24
0.0
 34
0.0
 15
0.0
 25
0.0
 35
0.0
146
0.0
 13
0.0
 23
0.0
 33
0.0
 16
1.0
 26
0.0
 36
0.0
 17
0.0
 27
1.0
 37
0.0
 76
     0
330
D1
331
1EA
1001
PROGE_PRINT_SETTINGS
1070
    73
1070
     1
  0
LAYOUT
  5
1DF
102
{ACAD_REACTORS
330
1A
102
}
330
1A
100
AcDbPlotSettings
  1

  2
ProgeSOFT PDF Wizard
  4
A4
  6

 40
5.926666666666667
 41
6.011333333333317
 42
6.095999999999985
 43
5.926666666666667
 44
210.0
 45
297.0
 46
88.562
 47
136.531
 48
0.0
 49
0.0
140
0.0
141
0.0
142
1.0
143
1.0
 70
   692
 72
     1
 73
     0
 74
     0
  7

 75
    16
147
1.0
148
0.0
149
0.0
100
AcDbLayout
  1
Layout2
 70
     1
 71
     2
 10
0.0
 20
0.0
 11
12.0
 21
9.0
 12
0.0
 22
0.0
 32
0.0
 14
0.0
 24
0.0
 34
0.0
 15
12.0
 25
9.0
 35
0.0
146
0.0
 13
0.0
 23
0.0
 33
0.0
 16
1.0
 26
0.0
 36
0.0
 17
0.0
 27
1.0
 37
0.0
 76
     0
330
73
331
BB
1001
PROGE_PRINT_SETTINGS
1070
    73
1070
     1
  0
LAYOUT
  5
22
102
{ACAD_REACTORS
330
1A
102
}
330
1A
100
AcDbPlotSettings
  1

  2
ProgeSOFT PDF Wizard
  4
A4
  6

 40
5.926666666666667
 41
6.011333333333317
 42
6.095999999999985
 43
5.926666666666667
 44
210.0
 45
297.0
 46
-0.0000000000000091
 47
83.07219027892847
 48
0.0
 49
0.0
140
0.0
141
0.0
142
1.0
143
4.550887921875977
 70
 11956
 72
     1
 73
     0
 74
     0
  7

 75
     0
147
0.2197373385516772
148
183.9528267974775
149
53.19272638546533
100
AcDbLayout
  1
Model
 70
     1
 71
     0
 10
0.0
 20
0.0
 11
0.0
 21
0.0
 12
0.0
 22
0.0
 32
0.0
 14
0.0
 24
0.0
 34
0.0
 15
485.6567876169
 25
450.7627421541578
 35
0.0
146
0.0
 13
0.0
 23
0.0
 33
0.0
 16
1.0
 26
0.0
 36
0.0
 17
0.0
 27
1.0
 37
0.0
 76
     0
330
1F
331
97
1001
PROGE_PRINT_SETTINGS
1070
    73
1070
     1
  0
MLINESTYLE
  5
18
102
{ACAD_REACTORS
330
17
102
}
330
17
100
AcDbMlineStyle
  2
STANDARD
 70
     0
  3

 62
   256
 51
90.0
 52
90.0
 71
     2
 49
0.5
 62
   256
  6
BYLAYER
 49
-0.5
 62
   256
  6
BYLAYER
  0
ACDBPLACEHOLDER
  5
F
102
{ACAD_REACTORS
330
E
102
}
330
E
  0
SCALE
  5
D5
102
{ACAD_REACTORS
330
99
102
}
330
99
100
AcDbScale
 70
     0
300
1:1
140
1.0
141
1.0
290
     1
  0
SCALE
  5
D6
102
{ACAD_REACTORS
330
99
102
}
330
99
100
AcDbScale
 70
     0
300
1:2
140
1.0
141
2.0
290
     0
  0
SCALE
  5
D7
102
{ACAD_REACTORS
330
99
102
}
330
99
100
AcDbScale
 70
     0
300
1:4
140
1.0
141
4.0
290
     0
  0
SCALE
  5
D8
102
{ACAD_REACTORS
330
99
102
}
330
99
100
AcDbScale
 70
     0
300
1:5
140
1.0
141
5.0
290
     0
  0
SCALE
  5
D9
102
{ACAD_REACTORS
330
99
102
}
330
99
100
AcDbScale
 70
     0
300
1:8
140
1.0
141
8.0
290
     0
  0
SCALE
  5
DA
102
{ACAD_REACTORS
330
99
102
}
330
99
100
AcDbScale
 70
     0
300
1:10
140
1.0
141
10.0
290
     0
  0
SCALE
  5
DB
102
{ACAD_REACTORS
330
99
102
}
330
99
100
AcDbScale
 70
     0
300
1:16
140
1.0
141
16.0
290
     0
  0
SCALE
  5
DC
102
{ACAD_REACTORS
330
99
102
}
330
99
100
AcDbScale
 70
     0
300
1:20
140
1.0
141
20.0
290
     0
  0
SCALE
  5
DD
102
{ACAD_REACTORS
330
99
102
}
330
99
100
AcDbScale
 70
     0
300
1:30
140
1.0
141
30.0
290
     0
  0
SCALE
  5
DE
102
{ACAD_REACTORS
330
99
102
}
330
99
100
AcDbScale
 70
     0
300
1:40
140
1.0
141
40.0
290
     0
  0
SCALE
  5
DF
102
{ACAD_REACTORS
330
99
102
}
330
99
100
AcDbScale
 70
     0
300
1:50
140
1.0
141
50.0
290
     0
  0
SCALE
  5
E0
102
{ACAD_REACTORS
330
99
102
}
330
99
100
AcDbScale
 70
     0
300
1:100
140
1.0
141
100.0
290
     0
  0
SCALE
  5
E1
102
{ACAD_REACTORS
330
99
102
}
330
99
100
AcDbScale
 70
     0
300
2:1
140
2.0
141
1.0
290
     0
  0
SCALE
  5
E2
102
{ACAD_REACTORS
330
99
102
}
330
99
100
AcDbScale
 70
     0
300
4:1
140
4.0
141
1.0
290
     0
  0
SCALE
  5
E3
102
{ACAD_REACTORS
330
99
102
}
330
99
100
AcDbScale
 70
     0
300
8:1
140
8.0
141
1.0
290
     0
  0
SCALE
  5
E4
102
{ACAD_REACTORS
330
99
102
}
330
99
100
AcDbScale
 70
     0
300
10:1
140
10.0
141
1.0
290
     0
  0
SCALE
  5
E5
102
{ACAD_REACTORS
330
99
102
}
330
99
100
AcDbScale
 70
     0
300
100:1
140
100.0
141
1.0
290
     0
  0
SCALE
  5
E6
102
{ACAD_REACTORS
330
99
102
}
330
99
100
AcDbScale
 70
     0
300
1/128" = 1'-0"
140
0.0078125
141
12.0
290
     0
  0
SCALE
  5
E7
102
{ACAD_REACTORS
330
99
102
}
330
99
100
AcDbScale
 70
     0
300
1/64" = 1'-0"
140
0.015625
141
12.0
290
     0
  0
SCALE
  5
E8
102
{ACAD_REACTORS
330
99
102
}
330
99
100
AcDbScale
 70
     0
300
1/32" = 1'-0"
140
0.03125
141
12.0
290
     0
  0
SCALE
  5
E9
102
{ACAD_REACTORS
330
99
102
}
330
99
100
AcDbScale
 70
     0
300
1/16" = 1'-0"
140
0.0625
141
12.0
290
     0
  0
SCALE
  5
EA
102
{ACAD_REACTORS
330
99
102
}
330
99
100
AcDbScale
 70
     0
300
3/32" = 1'-0"
140
0.09375
141
12.0
290
     0
  0
SCALE
  5
EB
102
{ACAD_REACTORS
330
99
102
}
330
99
100
AcDbScale
 70
     0
300
1/8" = 1'-0"
140
0.125
141
12.0
290
     0
  0
SCALE
  5
EC
102
{ACAD_REACTORS
330
99
102
}
330
99
100
AcDbScale
 70
     0
300
3/16" = 1'-0"
140
0.1875
141
12.0
290
     0
  0
SCALE
  5
ED
102
{ACAD_REACTORS
330
99
102
}
330
99
100
AcDbScale
 70
     0
300
1/4" = 1'-0"
140
0.25
141
12.0
290
     0
  0
SCALE
  5
EE
102
{ACAD_REACTORS
330
99
102
}
330
99
100
AcDbScale
 70
     0
300
3/8" = 1'-0"
140
0.375
141
12.0
290
     0
  0
SCALE
  5
EF
102
{ACAD_REACTORS
330
99
102
}
330
99
100
AcDbScale
 70
     0
300
1/2" = 1'-0"
140
0.5
141
12.0
290
     0
  0
SCALE
  5
F0
102
{ACAD_REACTORS
330
99
102
}
330
99
100
AcDbScale
 70
     0
300
3/4" = 1'-0"
140
0.75
141
12.0
290
     0
  0
SCALE
  5
F1
102
{ACAD_REACTORS
330
99
102
}
330
99
100
AcDbScale
 70
     0
300
1" = 1'-0"
140
1.0
141
12.0
290
     0
  0
SCALE
  5
F2
102
{ACAD_REACTORS
330
99
102
}
330
99
100
AcDbScale
 70
     0
300
1-1/2" = 1'-0"
140
1.5
141
12.0
290
     0
  0
SCALE
  5
F3
102
{ACAD_REACTORS
330
99
102
}
330
99
100
AcDbScale
 70
     0
300
3" = 1'-0"
140
3.0
141
12.0
290
     0
  0
SCALE
  5
F4
102
{ACAD_REACTORS
330
99
102
}
330
99
100
AcDbScale
 70
     0
300
6" = 1'-0"
140
6.0
141
12.0
290
     0
  0
SCALE
  5
F5
102
{ACAD_REACTORS
330
99
102
}
330
99
100
AcDbScale
 70
     0
300
1'-0" = 1'-0"
140
12.0
141
12.0
290
     0
  0
XRECORD
  5
1ED
102
{ACAD_REACTORS
330
1EC
102
}
330
1EC
100
AcDbXrecord
280
     1
340
6C
  0
XRECORD
  5
1EE
102
{ACAD_REACTORS
330
1EC
102
}
330
1EC
100
AcDbXrecord
280
     1
340
6B
  0
DICTIONARYVAR
  5
98
102
{ACAD_REACTORS
330
59
102
}
330
59
100
DictionaryVariables
280
     0
  1
Standard
  0
DICTIONARYVAR
  5
5A
102
{ACAD_REACTORS
330
59
102
}
330
59
100
DictionaryVariables
280
     0
  1
2
  0
DICTIONARYVAR
  5
5E
102
{ACAD_REACTORS
330
59
102
}
330
59
100
DictionaryVariables
280
     0
  1
1
  0
ENDSEC
  0
EOF
