  0
SECTION
  2
HEADER
  9
$ACADVER
  1
AC1015
  9
$ACADMAINTVER
 70
     6
  9
$DWGCODEPAGE
  3
ANSI_1252
  9
$INSBASE
 10
0.0
 20
0.0
 30
0.0
  9
$EXTMIN
 10
0.0
 20
0.0
 30
0.0
  9
$EXTMAX
 10
561.5718197081893
 20
362.6065676348175
 30
0.0
  9
$LIMMIN
 10
0.0
 20
0.0
  9
$LIMMAX
 10
0.0
 20
0.0
  9
$ORTHOMODE
 70
     0
  9
$REGENMODE
 70
     1
  9
$FILLMODE
 70
     1
  9
$QTEXTMODE
 70
     0
  9
$MIRRTEXT
 70
     0
  9
$LTSCALE
 40
1.0
  9
$ATTMODE
 70
     1
  9
$TEXTSIZE
 40
2.5
  9
$TRACEWID
 40
1.0
  9
$TEXTSTYLE
  7
Standard
  9
$CLAYER
  8
0
  9
$CELTYPE
  6
ByLayer
  9
$CECOLOR
 62
   256
  9
$CELTSCALE
 40
1.0
  9
$DISPSILH
 70
     0
  9
$DIMSCALE
 40
1.0
  9
$DIMASZ
 40
2.5
  9
$DIMEXO
 40
0.625
  9
$DIMDLI
 40
3.75
  9
$DIMRND
 40
0.0
  9
$DIMDLE
 40
0.0
  9
$DIMEXE
 40
1.25
  9
$DIMTP
 40
0.0
  9
$DIMTM
 40
0.0
  9
$DIMTXT
 40
2.5
  9
$DIMCEN
 40
2.5
  9
$DIMTSZ
 40
0.0
  9
$DIMTOL
 70
     0
  9
$DIMLIM
 70
     0
  9
$DIMTIH
 70
     0
  9
$DIMTOH
 70
     0
  9
$DIMSE1
 70
     0
  9
$DIMSE2
 70
     0
  9
$DIMTAD
 70
     1
  9
$DIMZIN
 70
     8
  9
$DIMBLK
  1

  9
$DIMASO
 70
     1
  9
$DIMSHO
 70
     1
  9
$DIMPOST
  1

  9
$DIMAPOST
  1

  9
$DIMALT
 70
     0
  9
$DIMALTD
 70
     3
  9
$DIMALTF
 40
0.03937007874016
  9
$DIMLFAC
 40
1.0
  9
$DIMTOFL
 70
     1
  9
$DIMTVP
 40
0.0
  9
$DIMTIX
 70
     0
  9
$DIMSOXD
 70
     0
  9
$DIMSAH
 70
     0
  9
$DIMBLK1
  1

  9
$DIMBLK2
  1

  9
$DIMSTYLE
  2
ISO-25
  9
$DIMCLRD
 70
     0
  9
$DIMCLRE
 70
     0
  9
$DIMCLRT
 70
     0
  9
$DIMTFAC
 40
1.0
  9
$DIMGAP
 40
0.625
  9
$DIMJUST
 70
     0
  9
$DIMSD1
 70
     0
  9
$DIMSD2
 70
     0
  9
$DIMTOLJ
 70
     0
  9
$DIMTZIN
 70
     8
  9
$DIMALTZ
 70
     0
  9
$DIMALTTZ
 70
     0
  9
$DIMUPT
 70
     0
  9
$DIMDEC
 70
     2
  9
$DIMTDEC
 70
     2
  9
$DIMALTU
 70
     2
  9
$DIMALTTD
 70
     3
  9
$DIMTXSTY
  7
Standard
  9
$DIMAUNIT
 70
     0
  9
$DIMADEC
 70
     0
  9
$DIMALTRND
 40
0.0
  9
$DIMAZIN
 70
     0
  9
$DIMDSEP
 70
    44
  9
$DIMATFIT
 70
     3
  9
$DIMFRAC
 70
     0
  9
$DIMLDRBLK
  1

  9
$DIMLUNIT
 70
     2
  9
$DIMLWD
 70
    -2
  9
$DIMLWE
 70
    -2
  9
$DIMTMOVE
 70
     0
  9
$LUNITS
 70
     2
  9
$LUPREC
 70
     4
  9
$SKETCHINC
 40
1.0
  9
$FILLETRAD
 40
0.0
  9
$AUNITS
 70
     0
  9
$AUPREC
 70
     0
  9
$MENU
  1
.
  9
$ELEVATION
 40
0.0
  9
$PELEVATION
 40
0.0
  9
$THICKNESS
 40
0.0
  9
$LIMCHECK
 70
     0
  9
$CHAMFERA
 40
0.0
  9
$CHAMFERB
 40
0.0
  9
$CHAMFERC
 40
0.0
  9
$CHAMFERD
 40
0.0
  9
$SKPOLY
 70
     0
  9
$TDCREATE
 40
2455092.427219896
  9
$TDUCREATE
 40
2455092.343886563
  9
$TDUPDATE
 40
2455092.468886585
  9
$TDUUPDATE
 40
2455092.385553252
  9
$TDINDWG
 40
0.0302479167
  9
$TDUSRTIMER
 40
0.0302455556
  9
$USRTIMER
 70
     1
  9
$ANGBASE
 50
0.0
  9
$ANGDIR
 70
     0
  9
$PDMODE
 70
     0
  9
$PDSIZE
 40
0.0
  9
$PLINEWID
 40
0.0
  9
$SPLFRAME
 70
     0
  9
$SPLINETYPE
 70
     6
  9
$SPLINESEGS
 70
     8
  9
$HANDSEED
  5
194
  9
$SURFTAB1
 70
     6
  9
$SURFTAB2
 70
     6
  9
$SURFTYPE
 70
     6
  9
$SURFU
 70
     6
  9
$SURFV
 70
     6
  9
$UCSBASE
  2

  9
$UCSNAME
  2

  9
$UCSORG
 10
0.0
 20
0.0
 30
0.0
  9
$UCSXDIR
 10
1.0
 20
0.0
 30
0.0
  9
$UCSYDIR
 10
0.0
 20
1.0
 30
0.0
  9
$UCSORTHOREF
  2

  9
$UCSORTHOVIEW
 70
     0
  9
$UCSORGTOP
 10
0.0
 20
0.0
 30
0.0
  9
$UCSORGBOTTOM
 10
0.0
 20
0.0
 30
0.0
  9
$UCSORGLEFT
 10
0.0
 20
0.0
 30
0.0
  9
$UCSORGRIGHT
 10
0.0
 20
0.0
 30
0.0
  9
$UCSORGFRONT
 10
0.0
 20
0.0
 30
0.0
  9
$UCSORGBACK
 10
0.0
 20
0.0
 30
0.0
  9
$PUCSBASE
  2

  9
$PUCSNAME
  2

  9
$PUCSORG
 10
0.0
 20
0.0
 30
0.0
  9
$PUCSXDIR
 10
1.0
 20
0.0
 30
0.0
  9
$PUCSYDIR
 10
0.0
 20
1.0
 30
0.0
  9
$PUCSORTHOREF
  2

  9
$PUCSORTHOVIEW
 70
     0
  9
$PUCSORGTOP
 10
0.0
 20
0.0
 30
0.0
  9
$PUCSORGBOTTOM
 10
0.0
 20
0.0
 30
0.0
  9
$PUCSORGLEFT
 10
0.0
 20
0.0
 30
0.0
  9
$PUCSORGRIGHT
 10
0.0
 20
0.0
 30
0.0
  9
$PUCSORGFRONT
 10
0.0
 20
0.0
 30
0.0
  9
$PUCSORGBACK
 10
0.0
 20
0.0
 30
0.0
  9
$USERI1
 70
     0
  9
$USERI2
 70
     0
  9
$USERI3
 70
     0
  9
$USERI4
 70
     0
  9
$USERI5
 70
     0
  9
$USERR1
 40
0.0
  9
$USERR2
 40
0.0
  9
$USERR3
 40
0.0
  9
$USERR4
 40
0.0
  9
$USERR5
 40
0.0
  9
$WORLDVIEW
 70
     1
  9
$SHADEDGE
 70
     3
  9
$SHADEDIF
 70
    70
  9
$TILEMODE
 70
     1
  9
$MAXACTVP
 70
    64
  9
$PINSBASE
 10
0.0
 20
0.0
 30
0.0
  9
$PLIMCHECK
 70
     0
  9
$PEXTMIN
 10
0.0
 20
0.0
 30
0.0
  9
$PEXTMAX
 10
12.0
 20
9.0
 30
0.0
  9
$PLIMMIN
 10
0.0
 20
0.0
  9
$PLIMMAX
 10
12.0
 20
9.0
  9
$UNITMODE
 70
     0
  9
$VISRETAIN
 70
     1
  9
$PLINEGEN
 70
     0
  9
$PSLTSCALE
 70
     1
  9
$TREEDEPTH
 70
  3020
  9
$CMLSTYLE
  2
Standard
  9
$CMLJUST
 70
     0
  9
$CMLSCALE
 40
20.0
  9
$PROXYGRAPHICS
 70
     1
  9
$MEASUREMENT
 70
     1
  9
$CELWEIGHT
370
    -1
  9
$ENDCAPS
280
     0
  9
$JOINSTYLE
280
     0
  9
$LWDISPLAY
290
     0
  9
$INSUNITS
 70
     4
  9
$HYPERLINKBASE
  1

  9
$STYLESHEET
  1

  9
$XEDIT
290
     1
  9
$CEPSNTYPE
380
     0
  9
$PSTYLEMODE
290
     1
  9
$FINGERPRINTGUID
  2
{5559452E-1E62-4159-8551-BF76FFF3E7E8}
  9
$VERSIONGUID
  2
{3CEB9EF8-4431-4551-B596-6734A9F966A9}
  9
$EXTNAMES
290
     1
  9
$PSVPSCALE
 40
0.0
  9
$OLESTARTUP
290
     0
  0
ENDSEC
  0
SECTION
  2
CLASSES
  0
CLASS
  1
ACDBDICTIONARYWDFLT
  2
AcDbDictionaryWithDefault
  3
ObjectDBX Classes
 90
        0
280
     0
281
     0
  0
CLASS
  1
ACDBPLACEHOLDER
  2
AcDbPlaceHolder
  3
ObjectDBX Classes
 90
        0
280
     0
281
     0
  0
CLASS
  1
LAYOUT
  2
AcDbLayout
  3
ObjectDBX Classes
 90
        0
280
     0
281
     0
  0
CLASS
  1
DICTIONARYVAR
  2
AcDbDictionaryVar
  3
ObjectDBX Classes
 90
        0
280
     0
281
     0
  0
CLASS
  1
TABLESTYLE
  2
AcDbTableStyle
  3
ObjectDBX Classes
 90
     4095
280
     0
281
     0
  0
CLASS
  1
SCALE
  2
AcDbScale
  3
ObjectDBX Classes
 90
     1153
280
     0
281
     0
  0
ENDSEC
  0
SECTION
  2
TABLES
  0
TABLE
  2
VPORT
  5
8
330
0
100
AcDbSymbolTable
 70
     2
  0
VPORT
  5
97
330
8
100
AcDbSymbolTableRecord
100
AcDbViewportTableRecord
  2
*Active
 70
     0
 10
0.0
 20
0.0
 11
1.0
 21
1.0
 12
305.8871468073401
 22
201.9880641984831
 13
0.0
 23
0.0
 14
10.0
 24
10.0
 15
10.0
 25
10.0
 16
0.0
 26
0.0
 36
1.0
 17
0.0
 27
0.0
 37
0.0
 40
431.4259869399655
 41
1.664827586206897
 42
50.0
 43
0.0
 44
0.0
 50
0.0
 51
0.0
 71
     0
 72
  1000
 73
     1
 74
     3
 75
     0
 76
     0
 77
     0
 78
     0
281
     0
 65
     1
110
0.0
120
0.0
130
0.0
111
1.0
121
0.0
131
0.0
112
0.0
122
1.0
132
0.0
 79
     0
146
0.0
  0
ENDTAB
  0
TABLE
  2
LTYPE
  5
5
330
0
100
AcDbSymbolTable
 70
     1
  0
LTYPE
  5
14
330
5
100
AcDbSymbolTableRecord
100
AcDbLinetypeTableRecord
  2
ByBlock
 70
     0
  3

 72
    65
 73
     0
 40
0.0
  0
LTYPE
  5
15
330
5
100
AcDbSymbolTableRecord
100
AcDbLinetypeTableRecord
  2
ByLayer
 70
     0
  3

 72
    65
 73
     0
 40
0.0
  0
LTYPE
  5
16
330
5
100
AcDbSymbolTableRecord
100
AcDbLinetypeTableRecord
  2
Continuous
 70
     0
  3
Solid line
 72
    65
 73
     0
 40
0.0
  0
ENDTAB
  0
TABLE
  2
LAYER
  5
2
330
0
100
AcDbSymbolTable
 70
     3
  0
LAYER
  5
10
330
2
100
AcDbSymbolTableRecord
100
AcDbLayerTableRecord
  2
0
 70
     0
 62
     7
  6
Continuous
370
    -3
390
F
  0
LAYER
  5
F8
330
2
100
AcDbSymbolTableRecord
100
AcDbLayerTableRecord
  2
2
 70
     0
 62
     7
  6
Continuous
370
    13
390
F
  0
LAYER
  5
135
330
2
100
AcDbSymbolTableRecord
100
AcDbLayerTableRecord
  2
DEFPOINTS
 70
     0
 62
     7
  6
Continuous
290
     0
370
    -3
390
F
  0
ENDTAB
  0
TABLE
  2
STYLE
  5
3
330
0
100
AcDbSymbolTable
 70
     1
  0
STYLE
  5
11
330
3
100
AcDbSymbolTableRecord
100
AcDbTextStyleTableRecord
  2
Standard
 70
     0
 40
0.0
 41
1.0
 50
0.0
 71
     0
 42
2.5
  3
txt
  4

  0
ENDTAB
  0
TABLE
  2
VIEW
  5
6
330
0
100
AcDbSymbolTable
 70
     0
  0
ENDTAB
  0
TABLE
  2
UCS
  5
7
330
0
100
AcDbSymbolTable
 70
     0
  0
ENDTAB
  0
TABLE
  2
APPID
  5
9
330
0
100
AcDbSymbolTable
 70
     2
  0
APPID
  5
12
330
9
100
AcDbSymbolTableRecord
100
AcDbRegAppTableRecord
  2
ACAD
 70
     0
  0
APPID
  5
17D
330
9
100
AcDbSymbolTableRecord
100
AcDbRegAppTableRecord
  2
PROGE_PRINT_SETTINGS
 70
     0
  0
ENDTAB
  0
TABLE
  2
DIMSTYLE
  5
A
330
0
100
AcDbSymbolTable
 70
     2
100
AcDbDimStyleTable
  0
DIMSTYLE
105
27
102
{ACAD_REACTORS
330
123
330
124
330
125
102
}
330
A
100
AcDbSymbolTableRecord
100
AcDbDimStyleTableRecord
  2
Standard
 70
     0
278
     0
340
11
  0
DIMSTYLE
105
29
330
A
100
AcDbSymbolTableRecord
100
AcDbDimStyleTableRecord
  2
ISO-25
 70
     0
 41
2.5
 42
0.625
 43
3.75
 44
1.25
 73
     0
 74
     0
 77
     1
 78
     8
140
2.5
141
2.5
143
0.03937007874016
147
0.625
171
     3
172
     1
271
     2
272
     2
274
     3
278
    44
283
     0
284
     8
340
11
  0
ENDTAB
  0
TABLE
  2
BLOCK_RECORD
  5
1
330
0
100
AcDbSymbolTable
 70
     7
  0
BLOCK_RECORD
  5
1F
330
1
100
AcDbSymbolTableRecord
100
AcDbBlockTableRecord
  2
*Model_Space
340
22
  0
BLOCK_RECORD
  5
73
330
1
100
AcDbSymbolTableRecord
100
AcDbBlockTableRecord
  2
*Paper_Space
340
17F
  0
BLOCK_RECORD
  5
D1
330
1
100
AcDbSymbolTableRecord
100
AcDbBlockTableRecord
  2
*Paper_Space0
340
74
  0
BLOCK_RECORD
  5
142
330
1
100
AcDbSymbolTableRecord
100
AcDbBlockTableRecord
  2
*D1
340
0
  0
BLOCK_RECORD
  5
14D
330
1
100
AcDbSymbolTableRecord
100
AcDbBlockTableRecord
  2
*D2
340
0
  0
BLOCK_RECORD
  5
158
330
1
100
AcDbSymbolTableRecord
100
AcDbBlockTableRecord
  2
*D3
340
0
  0
BLOCK_RECORD
  5
163
330
1
100
AcDbSymbolTableRecord
100
AcDbBlockTableRecord
  2
*D4
340
0
  0
BLOCK_RECORD
  5
16E
330
1
100
AcDbSymbolTableRecord
100
AcDbBlockTableRecord
  2
*D5
340
0
  0
BLOCK_RECORD
  5
17B
330
1
100
AcDbSymbolTableRecord
100
AcDbBlockTableRecord
  2
*D6
340
0
  0
ENDTAB
  0
ENDSEC
  0
SECTION
  2
BLOCKS
  0
BLOCK
  5
20
330
1F
100
AcDbEntity
  8
0
100
AcDbBlockBegin
  2
*Model_Space
 70
     0
 10
0.0
 20
0.0
 30
0.0
  3
*Model_Space
  1

  0
ENDBLK
  5
21
330
1F
100
AcDbEntity
  8
0
100
AcDbBlockEnd
  0
BLOCK
  5
75
330
73
100
AcDbEntity
 67
     1
  8
0
100
AcDbBlockBegin
  2
*Paper_Space
 70
     0
 10
0.0
 20
0.0
 30
0.0
  3
*Paper_Space
  1

  0
ENDBLK
  5
76
330
73
100
AcDbEntity
 67
     1
  8
0
100
AcDbBlockEnd
  0
BLOCK
  5
180
330
D1
100
AcDbEntity
  8
0
100
AcDbBlockBegin
  2
*Paper_Space0
 70
     0
 10
0.0
 20
0.0
 30
0.0
  3
*Paper_Space0
  1

  0
VIEWPORT
  5
18E
330
D1
100
AcDbEntity
  8
0
100
AcDbViewport
 10
7.8
 20
4.5
 30
0.0
 40
15.64
 41
9.0
 68
     1
 69
     1
 12
6.0
 22
4.5
 13
0.0
 23
0.0
 14
0.5
 24
0.5
 15
0.5
 25
0.5
 16
0.0
 26
0.0
 36
1.0
 17
0.0
 27
0.0
 37
0.0
 42
50.0
 43
0.0
 44
0.0
 45
12.0
 50
0.0
 51
0.0
 72
   100
 90
   557152
  1

281
     0
 71
     1
 74
     0
110
0.0
120
0.0
130
0.0
111
1.0
121
0.0
131
0.0
112
0.0
122
1.0
132
0.0
 79
     0
146
0.0
  0
ENDBLK
  5
181
330
D1
100
AcDbEntity
  8
0
100
AcDbBlockEnd
  0
BLOCK
  5
182
330
142
100
AcDbEntity
  8
0
100
AcDbBlockBegin
  2
*D1
 70
     1
 10
0.0
 20
0.0
 30
0.0
  3
*D1
  1

  0
POINT
  5
137
330
142
100
AcDbEntity
  8
DEFPOINTS
  6
ByBlock
 62
     7
380
     1
100
AcDbPoint
 10
-919.84771
 20
408.605965
 30
0.0
  0
POINT
  5
138
330
142
100
AcDbEntity
  8
DEFPOINTS
  6
ByBlock
 62
     7
380
     1
100
AcDbPoint
 10
-888.8475881611315
 20
408.6063585079194
 30
0.0
  0
LINE
  5
139
330
142
100
AcDbEntity
  8
0
  6
ByBlock
 62
     7
370
    -2
380
     1
100
AcDbLine
 10
-919.84771
 20
407.980965
 30
0.0
 11
-919.84771
 21
236.5352594052397
 31
0.0
  0
LINE
  5
13A
330
142
100
AcDbEntity
  8
0
  6
ByBlock
 62
     7
370
    -2
380
     1
100
AcDbLine
 10
-888.8475881611315
 20
407.9813585079194
 30
0.0
 11
-888.8475881611315
 21
236.5352594052397
 31
0.0
  0
LINE
  5
13B
330
142
100
AcDbEntity
  8
0
  6
ByBlock
 62
     7
370
    -2
380
     1
100
AcDbLine
 10
-929.84771
 20
237.7852594052397
 30
0.0
 11
-939.84771
 21
237.7852594052397
 31
0.0
  0
LINE
  5
13C
330
142
100
AcDbEntity
  8
0
  6
ByBlock
 62
     7
370
    -2
380
     1
100
AcDbLine
 10
-878.8475881611315
 20
237.7852594052397
 30
0.0
 11
-868.8475881611315
 21
237.7852594052397
 31
0.0
  0
SOLID
  5
13D
330
142
100
AcDbEntity
  8
0
  6
ByBlock
 62
     7
380
     1
100
AcDbTrace
 10
-919.84771
 20
237.7852594052397
 30
0.0
 11
-929.84771
 21
236.1185927385731
 31
0.0
 12
-929.84771
 22
239.4519260719064
 32
0.0
 13
-929.84771
 23
239.4519260719064
 33
0.0
  0
SOLID
  5
13E
330
142
100
AcDbEntity
  8
0
  6
ByBlock
 62
     7
380
     1
100
AcDbTrace
 10
-888.8475881611315
 20
237.7852594052397
 30
0.0
 11
-878.8475881611315
 21
236.1185927385731
 31
0.0
 12
-878.8475881611315
 22
239.4519260719064
 32
0.0
 13
-878.8475881611315
 23
239.4519260719064
 33
0.0
  0
LINE
  5
13F
330
142
100
AcDbEntity
  8
0
  6
ByBlock
 62
     7
370
    -2
380
     1
100
AcDbLine
 10
-919.84771
 20
237.7852594052397
 30
0.0
 11
-888.8475881611315
 21
237.7852594052397
 31
0.0
  0
MTEXT
  5
140
330
142
100
AcDbEntity
  8
0
  6
ByBlock
 62
     0
370
    -2
380
     1
100
AcDbMText
 10
-904.3476490805658
 20
249.7852594052397
 30
0.0
 40
14.0
 41
0.0
 71
     5
 72
     1
  1
\A1;31
 73
     1
 44
1.0
  0
ENDBLK
  5
183
330
142
100
AcDbEntity
  8
0
100
AcDbBlockEnd
  0
BLOCK
  5
184
330
14D
100
AcDbEntity
  8
0
100
AcDbBlockBegin
  2
*D2
 70
     1
 10
0.0
 20
0.0
 30
0.0
  3
*D2
  1

  0
POINT
  5
144
330
14D
100
AcDbEntity
  8
DEFPOINTS
  6
ByBlock
 62
     7
380
     1
100
AcDbPoint
 10
-1324.256889
 20
338.2279392284397
 30
0.0
  0
POINT
  5
145
330
14D
100
AcDbEntity
  8
DEFPOINTS
  6
ByBlock
 62
     7
380
     1
100
AcDbPoint
 10
-1046.25692
 20
338.2279392284397
 30
0.0
  0
LINE
  5
146
330
14D
100
AcDbEntity
  8
0
  6
ByBlock
 62
     7
370
    -2
380
     1
100
AcDbLine
 10
-1324.256889
 20
337.6029392284397
 30
0.0
 11
-1324.256889
 21
236.5352594052397
 31
0.0
  0
LINE
  5
147
330
14D
100
AcDbEntity
  8
0
  6
ByBlock
 62
     7
370
    -2
380
     1
100
AcDbLine
 10
-1046.25692
 20
337.6029392284397
 30
0.0
 11
-1046.25692
 21
236.5352594052397
 31
0.0
  0
LINE
  5
148
330
14D
100
AcDbEntity
  8
0
  6
ByBlock
 62
     7
370
    -2
380
     1
100
AcDbLine
 10
-1314.256889
 20
237.7852594052397
 30
0.0
 11
-1056.25692
 21
237.7852594052397
 31
0.0
  0
SOLID
  5
149
330
14D
100
AcDbEntity
  8
0
  6
ByBlock
 62
     7
380
     1
100
AcDbTrace
 10
-1324.256889
 20
237.7852594052397
 30
0.0
 11
-1314.256889
 21
236.1185927385731
 31
0.0
 12
-1314.256889
 22
239.4519260719064
 32
0.0
 13
-1314.256889
 23
239.4519260719064
 33
0.0
  0
SOLID
  5
14A
330
14D
100
AcDbEntity
  8
0
  6
ByBlock
 62
     7
380
     1
100
AcDbTrace
 10
-1046.25692
 20
237.7852594052397
 30
0.0
 11
-1056.25692
 21
236.1185927385731
 31
0.0
 12
-1056.25692
 22
239.4519260719064
 32
0.0
 13
-1056.25692
 23
239.4519260719064
 33
0.0
  0
MTEXT
  5
14B
330
14D
100
AcDbEntity
  8
0
  6
ByBlock
 62
     0
370
    -2
380
     1
100
AcDbMText
 10
-1185.2569045
 20
249.7852594052397
 30
0.0
 40
14.0
 41
0.0
 71
     5
 72
     1
  1
\A1;278
 73
     1
 44
1.0
  0
ENDBLK
  5
185
330
14D
100
AcDbEntity
  8
0
100
AcDbBlockEnd
  0
BLOCK
  5
186
330
158
100
AcDbEntity
  8
0
100
AcDbBlockBegin
  2
*D3
 70
     1
 10
0.0
 20
0.0
 30
0.0
  3
*D3
  1

  0
POINT
  5
14F
330
158
100
AcDbEntity
  8
DEFPOINTS
  6
ByBlock
 62
     7
380
     1
100
AcDbPoint
 10
-1087.261960674011
 20
540.944221
 30
0.0
  0
POINT
  5
150
330
158
100
AcDbEntity
  8
DEFPOINTS
  6
ByBlock
 62
     7
380
     1
100
AcDbPoint
 10
-1087.261960674011
 20
275.894234
 30
0.0
  0
LINE
  5
151
330
158
100
AcDbEntity
  8
0
  6
ByBlock
 62
     7
370
    -2
380
     1
100
AcDbLine
 10
-1086.636960674011
 20
540.944221
 30
0.0
 11
-1010.514379007593
 21
540.944221
 31
0.0
  0
LINE
  5
152
330
158
100
AcDbEntity
  8
0
  6
ByBlock
 62
     7
370
    -2
380
     1
100
AcDbLine
 10
-1086.636960674011
 20
275.894234
 30
0.0
 11
-1010.514379007593
 21
275.894234
 31
0.0
  0
LINE
  5
153
330
158
100
AcDbEntity
  8
0
  6
ByBlock
 62
     7
370
    -2
380
     1
100
AcDbLine
 10
-1011.764379007593
 20
530.944221
 30
0.0
 11
-1011.764379007593
 21
285.894234
 31
0.0
  0
SOLID
  5
154
330
158
100
AcDbEntity
  8
0
  6
ByBlock
 62
     7
380
     1
100
AcDbTrace
 10
-1011.764379007593
 20
540.944221
 30
0.0
 11
-1013.43104567426
 21
530.944221
 31
0.0
 12
-1010.097712340926
 22
530.944221
 32
0.0
 13
-1010.097712340926
 23
530.944221
 33
0.0
  0
SOLID
  5
155
330
158
100
AcDbEntity
  8
0
  6
ByBlock
 62
     7
380
     1
100
AcDbTrace
 10
-1011.764379007593
 20
275.894234
 30
0.0
 11
-1013.43104567426
 21
285.894234
 31
0.0
 12
-1010.097712340926
 22
285.894234
 32
0.0
 13
-1010.097712340926
 23
285.894234
 33
0.0
  0
MTEXT
  5
156
330
158
100
AcDbEntity
  8
0
  6
ByBlock
 62
     0
370
    -2
380
     1
100
AcDbMText
 10
-1023.764379007593
 20
408.4192275
 30
0.0
 40
14.0
 41
0.0
 71
     5
 72
     1
  1
265
 11
6.123031769111886E-17
 21
1.0
 31
0.0
 73
     1
 44
1.0
  0
ENDBLK
  5
187
330
158
100
AcDbEntity
  8
0
100
AcDbBlockEnd
  0
BLOCK
  5
188
330
163
100
AcDbEntity
  8
0
100
AcDbBlockBegin
  2
*D4
 70
     1
 10
0.0
 20
0.0
 30
0.0
  3
*D4
  1

  0
POINT
  5
15A
330
163
100
AcDbEntity
  8
DEFPOINTS
  6
ByBlock
 62
     7
380
     1
100
AcDbPoint
 10
343.1574471953097
 20
362.3985896348174
 30
0.0
  0
POINT
  5
15B
330
163
100
AcDbEntity
  8
DEFPOINTS
  6
ByBlock
 62
     7
380
     1
100
AcDbPoint
 10
343.1574471953097
 20
97.34860263481744
 30
0.0
  0
LINE
  5
15C
330
163
100
AcDbEntity
  8
0
  6
ByBlock
 62
     7
370
    -2
380
     1
100
AcDbLine
 10
343.7824471953097
 20
362.3985896348174
 30
0.0
 11
419.9050288617278
 21
362.3985896348174
 31
0.0
  0
LINE
  5
15D
330
163
100
AcDbEntity
  8
0
  6
ByBlock
 62
     7
370
    -2
380
     1
100
AcDbLine
 10
343.7824471953097
 20
97.34860263481744
 30
0.0
 11
419.9050288617278
 21
97.34860263481744
 31
0.0
  0
LINE
  5
15E
330
163
100
AcDbEntity
  8
0
  6
ByBlock
 62
     7
370
    -2
380
     1
100
AcDbLine
 10
418.6550288617278
 20
352.3985896348174
 30
0.0
 11
418.6550288617278
 21
107.3486026348174
 31
0.0
  0
SOLID
  5
15F
330
163
100
AcDbEntity
  8
0
  6
ByBlock
 62
     7
380
     1
100
AcDbTrace
 10
418.6550288617278
 20
362.3985896348174
 30
0.0
 11
416.9883621950611
 21
352.3985896348174
 31
0.0
 12
420.3216955283945
 22
352.3985896348174
 32
0.0
 13
420.3216955283945
 23
352.3985896348174
 33
0.0
  0
SOLID
  5
160
330
163
100
AcDbEntity
  8
0
  6
ByBlock
 62
     7
380
     1
100
AcDbTrace
 10
418.6550288617278
 20
97.34860263481744
 30
0.0
 11
416.9883621950611
 21
107.3486026348174
 31
0.0
 12
420.3216955283945
 22
107.3486026348174
 32
0.0
 13
420.3216955283945
 23
107.3486026348174
 33
0.0
  0
MTEXT
  5
161
330
163
100
AcDbEntity
  8
0
  6
ByBlock
 62
     0
370
    -2
380
     1
100
AcDbMText
 10
406.6550288617278
 20
229.8735961348174
 30
0.0
 40
14.0
 41
0.0
 71
     5
 72
     1
  1
265
 11
6.123031769111886E-17
 21
1.0
 31
0.0
 73
     1
 44
1.0
  0
ENDBLK
  5
189
330
163
100
AcDbEntity
  8
0
100
AcDbBlockEnd
  0
BLOCK
  5
18A
330
16E
100
AcDbEntity
  8
0
100
AcDbBlockBegin
  2
*D5
 70
     1
 10
0.0
 20
0.0
 30
0.0
  3
*D5
  1

  0
POINT
  5
165
330
16E
100
AcDbEntity
  8
DEFPOINTS
  6
ByBlock
 62
     7
380
     1
100
AcDbPoint
 10
106.1625188693208
 20
159.6823078632572
 30
0.0
  0
POINT
  5
166
330
16E
100
AcDbEntity
  8
DEFPOINTS
  6
ByBlock
 62
     7
380
     1
100
AcDbPoint
 10
384.1624878693208
 20
159.6823078632572
 30
0.0
  0
LINE
  5
167
330
16E
100
AcDbEntity
  8
0
  6
ByBlock
 62
     7
370
    -2
380
     1
100
AcDbLine
 10
106.1625188693208
 20
159.0573078632572
 30
0.0
 11
106.1625188693208
 21
57.98962804005717
 31
0.0
  0
LINE
  5
168
330
16E
100
AcDbEntity
  8
0
  6
ByBlock
 62
     7
370
    -2
380
     1
100
AcDbLine
 10
384.1624878693208
 20
159.0573078632572
 30
0.0
 11
384.1624878693208
 21
57.98962804005717
 31
0.0
  0
LINE
  5
169
330
16E
100
AcDbEntity
  8
0
  6
ByBlock
 62
     7
370
    -2
380
     1
100
AcDbLine
 10
116.1625188693208
 20
59.23962804005717
 30
0.0
 11
374.1624878693208
 21
59.23962804005717
 31
0.0
  0
SOLID
  5
16A
330
16E
100
AcDbEntity
  8
0
  6
ByBlock
 62
     7
380
     1
100
AcDbTrace
 10
106.1625188693208
 20
59.23962804005717
 30
0.0
 11
116.1625188693208
 21
57.5729613733905
 31
0.0
 12
116.1625188693208
 22
60.90629470672384
 32
0.0
 13
116.1625188693208
 23
60.90629470672384
 33
0.0
  0
SOLID
  5
16B
330
16E
100
AcDbEntity
  8
0
  6
ByBlock
 62
     7
380
     1
100
AcDbTrace
 10
384.1624878693208
 20
59.23962804005717
 30
0.0
 11
374.1624878693208
 21
57.5729613733905
 31
0.0
 12
374.1624878693208
 22
60.90629470672384
 32
0.0
 13
374.1624878693208
 23
60.90629470672384
 33
0.0
  0
MTEXT
  5
16C
330
16E
100
AcDbEntity
  8
0
  6
ByBlock
 62
     0
370
    -2
380
     1
100
AcDbMText
 10
245.1625033693208
 20
71.23962804005717
 30
0.0
 40
14.0
 41
0.0
 71
     5
 72
     1
  1
\A1;278
 73
     1
 44
1.0
  0
ENDBLK
  5
18B
330
16E
100
AcDbEntity
  8
0
100
AcDbBlockEnd
  0
BLOCK
  5
18C
330
17B
100
AcDbEntity
  8
0
100
AcDbBlockBegin
  2
*D6
 70
     1
 10
0.0
 20
0.0
 30
0.0
  3
*D6
  1

  0
POINT
  5
170
330
17B
100
AcDbEntity
  8
DEFPOINTS
  6
ByBlock
 62
     7
380
     1
100
AcDbPoint
 10
510.5716978693208
 20
230.0603336348175
 30
0.0
  0
POINT
  5
171
330
17B
100
AcDbEntity
  8
DEFPOINTS
  6
ByBlock
 62
     7
380
     1
100
AcDbPoint
 10
541.5718197081893
 20
230.0607271427369
 30
0.0
  0
LINE
  5
172
330
17B
100
AcDbEntity
  8
0
  6
ByBlock
 62
     7
370
    -2
380
     1
100
AcDbLine
 10
510.5716978693208
 20
229.4353336348175
 30
0.0
 11
510.5716978693208
 21
57.98962804005717
 31
0.0
  0
LINE
  5
173
330
17B
100
AcDbEntity
  8
0
  6
ByBlock
 62
     7
370
    -2
380
     1
100
AcDbLine
 10
541.5718197081893
 20
229.4357271427369
 30
0.0
 11
541.5718197081893
 21
57.98962804005717
 31
0.0
  0
LINE
  5
174
330
17B
100
AcDbEntity
  8
0
  6
ByBlock
 62
     7
370
    -2
380
     1
100
AcDbLine
 10
500.5716978693208
 20
59.23962804005717
 30
0.0
 11
490.5716978693208
 21
59.23962804005717
 31
0.0
  0
LINE
  5
175
330
17B
100
AcDbEntity
  8
0
  6
ByBlock
 62
     7
370
    -2
380
     1
100
AcDbLine
 10
551.5718197081893
 20
59.23962804005717
 30
0.0
 11
561.5718197081893
 21
59.23962804005717
 31
0.0
  0
SOLID
  5
176
330
17B
100
AcDbEntity
  8
0
  6
ByBlock
 62
     7
380
     1
100
AcDbTrace
 10
510.5716978693208
 20
59.23962804005717
 30
0.0
 11
500.5716978693208
 21
57.57296137339051
 31
0.0
 12
500.5716978693208
 22
60.90629470672383
 32
0.0
 13
500.5716978693208
 23
60.90629470672383
 33
0.0
  0
SOLID
  5
177
330
17B
100
AcDbEntity
  8
0
  6
ByBlock
 62
     7
380
     1
100
AcDbTrace
 10
541.5718197081893
 20
59.23962804005717
 30
0.0
 11
551.5718197081893
 21
57.57296137339051
 31
0.0
 12
551.5718197081893
 22
60.90629470672383
 32
0.0
 13
551.5718197081893
 23
60.90629470672383
 33
0.0
  0
LINE
  5
178
330
17B
100
AcDbEntity
  8
0
  6
ByBlock
 62
     7
370
    -2
380
     1
100
AcDbLine
 10
510.5716978693208
 20
59.23962804005717
 30
0.0
 11
541.5718197081893
 21
59.23962804005717
 31
0.0
  0
MTEXT
  5
179
330
17B
100
AcDbEntity
  8
0
  6
ByBlock
 62
     0
370
    -2
380
     1
100
AcDbMText
 10
526.071758788755
 20
71.23962804005717
 30
0.0
 40
14.0
 41
0.0
 71
     5
 72
     1
  1
\A1;31
 73
     1
 44
1.0
  0
ENDBLK
  5
18D
330
17B
100
AcDbEntity
  8
0
100
AcDbBlockEnd
  0
ENDSEC
  0
SECTION
  2
ENTITIES
  0
POINT
  5
F9
330
1F
100
AcDbEntity
  8
2
 62
     7
370
    60
100
AcDbPoint
 10
522.2219668693208
 20
97.46411163481747
 30
0.0
  0
POINT
  5
FA
330
1F
100
AcDbEntity
  8
2
 62
     7
370
    60
100
AcDbPoint
 10
541.5716978693208
 20
230.0353396348174
 30
0.0
  0
POINT
  5
FB
330
1F
100
AcDbEntity
  8
2
 62
     7
370
    60
100
AcDbPoint
 10
538.1684698693208
 20
113.4106136348175
 30
0.0
  0
LINE
  5
FC
330
1F
100
AcDbEntity
  8
2
 62
     7
370
    60
100
AcDbLine
 10
263.5624818693209
 20
362.3985896348174
 30
0.0
 11
369.1624878693208
 21
362.3985896348174
 31
0.0
  0
LINE
  5
FD
330
1F
100
AcDbEntity
  8
2
 62
     7
370
    60
100
AcDbLine
 10
121.1625188693208
 20
362.3985896348174
 30
0.0
 11
263.5624818693209
 21
362.3985896348174
 31
0.0
  0
LINE
  5
FE
330
1F
100
AcDbEntity
  8
2
 62
     7
370
    60
100
AcDbLine
 10
121.1625188693208
 20
97.34860263481744
 30
0.0
 11
226.7624938693209
 21
97.34860263481744
 31
0.0
  0
LINE
  5
FF
330
1F
100
AcDbEntity
  8
2
 62
     7
370
    60
100
AcDbLine
 10
226.7624938693209
 20
97.34860263481744
 30
0.0
 11
369.1624878693208
 21
97.34860263481744
 31
0.0
  0
LINE
  5
100
330
1F
100
AcDbEntity
  8
2
 62
     7
370
    60
100
AcDbLine
 10
126.1625188693208
 20
362.3985896348174
 30
0.0
 11
126.1625188693208
 21
97.34860263481744
 31
0.0
  0
LINE
  5
101
330
1F
100
AcDbEntity
  8
2
 62
     7
370
    60
100
AcDbLine
 10
165.9958318693209
 20
360.3985896348174
 30
0.0
 11
165.9958318693209
 21
99.34860263481744
 31
0.0
  0
LINE
  5
102
330
1F
100
AcDbEntity
  8
2
 62
     7
370
    60
100
AcDbLine
 10
205.8291448693208
 20
360.3985896348174
 30
0.0
 11
205.8291448693208
 21
99.34860263481744
 31
0.0
  0
LINE
  5
103
330
1F
100
AcDbEntity
  8
2
 62
     7
370
    60
100
AcDbLine
 10
245.6625188693208
 20
360.3985896348174
 30
0.0
 11
245.6625188693208
 21
99.34860263481744
 31
0.0
  0
LINE
  5
104
330
1F
100
AcDbEntity
  8
2
 62
     7
370
    60
100
AcDbLine
 10
285.4958318693209
 20
360.3985896348174
 30
0.0
 11
285.4958318693209
 21
99.34860263481744
 31
0.0
  0
LINE
  5
105
330
1F
100
AcDbEntity
  8
2
 62
     7
370
    60
100
AcDbLine
 10
325.3291448693208
 20
360.3985896348174
 30
0.0
 11
325.3291448693208
 21
99.34860263481744
 31
0.0
  0
LINE
  5
106
330
1F
100
AcDbEntity
  8
2
 62
     7
370
    60
100
AcDbLine
 10
365.1624878693208
 20
362.3985896348174
 30
0.0
 11
365.1624878693208
 21
97.34860263481744
 31
0.0
  0
LINE
  5
107
330
1F
100
AcDbEntity
  8
2
 62
     7
370
    60
100
AcDbLine
 10
165.9958318693209
 20
106.3486026348174
 30
0.0
 11
207.1116970889927
 21
106.3486026348174
 31
0.0
  0
LINE
  5
108
330
1F
100
AcDbEntity
  8
2
 62
     7
370
    60
100
AcDbLine
 10
205.8291448693208
 20
106.3486026348174
 30
0.0
 11
246.2591623470948
 21
106.3486026348174
 31
0.0
  0
LINE
  5
109
330
1F
100
AcDbEntity
  8
2
 62
     7
370
    60
100
AcDbLine
 10
245.6625188693208
 20
106.3486026348174
 30
0.0
 11
286.8624251159067
 21
106.3486026348174
 31
0.0
  0
LINE
  5
10A
330
1F
100
AcDbEntity
  8
2
 62
     7
370
    60
100
AcDbLine
 10
285.4958318693209
 20
106.3486026348174
 30
0.0
 11
326.1343480048467
 21
106.3486026348174
 31
0.0
  0
LINE
  5
10B
330
1F
100
AcDbEntity
  8
2
 62
     7
 48
0.117262
370
    60
100
AcDbLine
 10
325.3291448693208
 20
106.3486026348174
 30
0.0
 11
330.0196348693207
 21
106.3486026348174
 31
0.0
  0
LINE
  5
10C
330
1F
100
AcDbEntity
  8
2
 62
     7
370
    60
100
AcDbLine
 10
325.3291448693208
 20
106.3486026348174
 30
0.0
 11
364.1624878693208
 21
106.3486026348174
 31
0.0
  0
LINE
  5
10D
330
1F
100
AcDbEntity
  8
2
 62
     7
370
    60
100
AcDbLine
 10
165.9958318693209
 20
353.3985896348174
 30
0.0
 11
205.8291448693208
 21
353.3985896348174
 31
0.0
  0
LINE
  5
10E
330
1F
100
AcDbEntity
  8
2
 62
     7
370
    60
100
AcDbLine
 10
205.8291448693208
 20
353.3985896348174
 30
0.0
 11
247.2934212327059
 21
353.3985896348174
 31
0.0
  0
LINE
  5
10F
330
1F
100
AcDbEntity
  8
2
 62
     7
370
    60
100
AcDbLine
 10
245.6625188693208
 20
353.3985896348174
 30
0.0
 11
285.9340925762888
 21
353.3985896348174
 31
0.0
  0
LINE
  5
110
330
1F
100
AcDbEntity
  8
2
 62
     7
370
    60
100
AcDbLine
 10
285.4958318693209
 20
353.3985896348174
 30
0.0
 11
327.6743898693207
 21
353.3985896348174
 31
0.0
  0
LINE
  5
111
330
1F
100
AcDbEntity
  8
2
 62
     7
 48
0.117262
370
    60
100
AcDbLine
 10
325.3291448693208
 20
353.3985896348174
 30
0.0
 11
330.0196348693207
 21
353.3985896348174
 31
0.0
  0
LINE
  5
112
330
1F
100
AcDbEntity
  8
2
 62
     7
370
    60
100
AcDbLine
 10
325.3291448693208
 20
353.3985896348174
 30
0.0
 11
365.1624878693208
 21
353.3985896348174
 31
0.0
  0
ARC
  5
113
330
1F
100
AcDbEntity
  8
2
 62
     7
370
    60
100
AcDbCircle
 10
203.8291448693208
 20
99.34860263481744
 30
0.0
 40
2.0
100
AcDbArc
 50
270.0000010000014
 51
0.0000030000014113
  0
ARC
  5
114
330
1F
100
AcDbEntity
  8
2
 62
     7
370
    60
100
AcDbCircle
 10
243.6625188693208
 20
99.34860263481744
 30
0.0
 40
2.0
100
AcDbArc
 50
270.0000010000014
 51
0.0000030000014113
  0
ARC
  5
115
330
1F
100
AcDbEntity
  8
2
 62
     7
370
    60
100
AcDbCircle
 10
283.4958318693209
 20
99.34860263481744
 30
0.0
 40
2.0
100
AcDbArc
 50
270.0000010000014
 51
0.0000030000014113
  0
ARC
  5
116
330
1F
100
AcDbEntity
  8
2
 62
     7
370
    60
100
AcDbCircle
 10
323.3291448693208
 20
99.34860263481744
 30
0.0
 40
2.0
100
AcDbArc
 50
270.0000010000014
 51
0.0000030000014113
  0
ARC
  5
117
330
1F
100
AcDbEntity
  8
2
 62
     7
370
    60
100
AcDbCircle
 10
323.3291448693208
 20
360.3985896348174
 30
0.0
 40
2.000000000000003
100
AcDbArc
 50
0.0000030000009533
 51
90.00000300000096
  0
ARC
  5
118
330
1F
100
AcDbEntity
  8
2
 62
     7
370
    60
100
AcDbCircle
 10
283.4958318693209
 20
360.3985896348174
 30
0.0
 40
2.000000000000003
100
AcDbArc
 50
0.0000030000009533
 51
90.00000300000096
  0
ARC
  5
119
330
1F
100
AcDbEntity
  8
2
 62
     7
370
    60
100
AcDbCircle
 10
243.6625188693208
 20
360.3985896348174
 30
0.0
 40
2.000000000000003
100
AcDbArc
 50
0.0000030000009533
 51
90.00000300000096
  0
ARC
  5
11A
330
1F
100
AcDbEntity
  8
2
 62
     7
370
    60
100
AcDbCircle
 10
203.8291448693208
 20
360.3985896348174
 30
0.0
 40
2.000000000000003
100
AcDbArc
 50
0.0000030000009533
 51
90.00000300000096
  0
LINE
  5
11B
330
1F
100
AcDbEntity
  8
2
 62
     7
370
    60
100
AcDbLine
 10
106.1625188693208
 20
347.3985896348174
 30
0.0
 11
106.1625188693208
 21
112.3486026348174
 31
0.0
  0
LINE
  5
11C
330
1F
100
AcDbEntity
  8
2
 62
     7
370
    60
100
AcDbLine
 10
384.1624878693208
 20
347.3985896348174
 30
0.0
 11
384.1624878693208
 21
112.3486026348174
 31
0.0
  0
ARC
  5
11D
330
1F
100
AcDbEntity
  8
2
 62
     7
370
    60
100
AcDbCircle
 10
369.1624878693208
 20
347.3985896348174
 30
0.0
 40
15.00000000000002
100
AcDbArc
 50
0.0000029999998677
 51
90.00000299999988
  0
ARC
  5
11E
330
1F
100
AcDbEntity
  8
2
 62
     7
370
    60
100
AcDbCircle
 10
369.1624878693208
 20
112.3486026348174
 30
0.0
 40
15.0
100
AcDbArc
 50
270.0000010000001
 51
0.0000030000000882
  0
ARC
  5
11F
330
1F
100
AcDbEntity
  8
2
 62
     7
370
    60
100
AcDbCircle
 10
121.1625188693208
 20
112.3486026348174
 30
0.0
 40
14.99999999999996
100
AcDbArc
 50
179.999991
 51
270.000001
  0
ARC
  5
120
330
1F
100
AcDbEntity
  8
2
 62
     7
370
    60
100
AcDbCircle
 10
121.1625188693208
 20
347.3985896348174
 30
0.0
 40
15.00000000000002
100
AcDbArc
 50
90.0000030000003
 51
180.0000050000003
  0
LINE
  5
121
330
1F
100
AcDbEntity
  8
2
 62
     7
370
    60
100
AcDbLine
 10
126.1625188693208
 20
353.3985896348174
 30
0.0
 11
165.9958318693209
 21
353.3985896348174
 31
0.0
  0
CIRCLE
  5
122
330
1F
100
AcDbEntity
  8
2
 62
     7
370
    60
100
AcDbCircle
 10
114.6625188693208
 20
229.8486026348174
 30
0.0
 40
2.75
  0
DIMENSION
  5
123
330
1F
100
AcDbEntity
  8
0
370
    25
100
AcDbDimension
  2
*D4
 10
418.6550288617278
 20
97.34860263481744
 30
0.0
 11
406.6550288617278
 21
229.8735961348174
 31
0.0
 70
   160
  1
265
 71
     5
 41
2.5
 42
265.049987
  3
Standard
100
AcDbAlignedDimension
 13
343.1574471953097
 23
362.3985896348174
 33
0.0
 14
343.1574471953097
 24
97.34860263481744
 34
0.0
 50
90.0
100
AcDbRotatedDimension
1001
ACAD
1000
DSTYLE
1002
{
1070
   171
1070
     3
1070
   143
1040
0.03937
1070
   274
1070
     3
1070
    41
1040
10.0
1070
   289
1070
     0
1070
   141
1040
2.5
1070
   176
1070
     7
1070
   177
1070
     7
1070
   271
1070
     2
1070
    43
1040
3.75
1070
   278
1070
    44
1070
    44
1040
1.25
1070
    42
1040
0.625
1070
   147
1040
5.0
1070
    77
1070
     1
1070
   272
1070
     2
1070
    73
1070
     0
1070
   172
1070
     1
1070
    74
1070
     0
1070
   283
1070
     0
1070
   140
1040
14.0
1070
   284
1070
     8
1070
    78
1070
     8
1002
}
  0
DIMENSION
  5
124
330
1F
100
AcDbEntity
  8
0
370
    25
100
AcDbDimension
  2
*D5
 10
384.1624878693208
 20
59.23962804005717
 30
0.0
 11
245.1625033693208
 21
71.23962804005717
 31
0.0
 70
    32
 71
     5
 41
2.5
 42
277.999969
  3
Standard
100
AcDbAlignedDimension
 13
106.1625188693208
 23
159.6823078632572
 33
0.0
 14
384.1624878693208
 24
159.6823078632572
 34
0.0
100
AcDbRotatedDimension
1001
ACAD
1000
DSTYLE
1002
{
1070
   171
1070
     3
1070
   143
1040
0.03937
1070
   274
1070
     3
1070
    41
1040
10.0
1070
   289
1070
     0
1070
   141
1040
2.5
1070
   176
1070
     7
1070
   177
1070
     7
1070
   271
1070
     2
1070
    43
1040
3.75
1070
   278
1070
    44
1070
    44
1040
1.25
1070
    42
1040
0.625
1070
   147
1040
5.0
1070
    77
1070
     1
1070
   272
1070
     2
1070
    73
1070
     0
1070
   172
1070
     1
1070
    74
1070
     0
1070
   283
1070
     0
1070
   140
1040
14.0
1070
   284
1070
     8
1070
    78
1070
     8
1002
}
  0
DIMENSION
  5
125
330
1F
100
AcDbEntity
  8
0
370
    25
100
AcDbDimension
  2
*D6
 10
541.5718197081893
 20
59.23962804005717
 30
0.0
 11
526.071758788755
 21
71.23962804005717
 31
0.0
 70
   160
 71
     5
 41
2.5
 42
31.00012183886849
  3
Standard
100
AcDbAlignedDimension
 13
510.5716978693208
 23
230.0603336348175
 33
0.0
 14
541.5718197081893
 24
230.0607271427369
 34
0.0
100
AcDbRotatedDimension
1001
ACAD
1000
DSTYLE
1002
{
1070
   171
1070
     3
1070
   143
1040
0.03937
1070
   274
1070
     3
1070
    41
1040
10.0
1070
   289
1070
     0
1070
   141
1040
2.5
1070
   176
1070
     7
1070
   177
1070
     7
1070
   271
1070
     2
1070
    43
1040
3.75
1070
   278
1070
    44
1070
    44
1040
1.25
1070
    42
1040
0.625
1070
   147
1040
5.0
1070
    77
1070
     1
1070
   272
1070
     2
1070
    73
1070
     0
1070
   172
1070
     1
1070
    74
1070
     0
1070
   283
1070
     0
1070
   140
1040
14.0
1070
   284
1070
     8
1070
    78
1070
     8
1002
}
  0
ARC
  5
126
330
1F
100
AcDbEntity
  8
2
 62
     7
370
    60
100
AcDbCircle
 10
163.9958318693209
 20
360.3985896348174
 30
0.0
 40
2.000000000000003
100
AcDbArc
 50
0.0000030000009533
 51
90.00000300000096
  0
ARC
  5
127
330
1F
100
AcDbEntity
  8
2
 62
     7
370
    60
100
AcDbCircle
 10
163.9958318693209
 20
99.34860263481744
 30
0.0
 40
2.0
100
AcDbArc
 50
270.0000010000014
 51
0.0000030000014113
  0
LINE
  5
128
330
1F
100
AcDbEntity
  8
2
 62
     7
370
    60
100
AcDbLine
 10
126.1625188693208
 20
106.3486026348174
 30
0.0
 11
167.0337141053328
 21
106.3486026348174
 31
0.0
  0
CIRCLE
  5
129
330
1F
100
AcDbEntity
  8
2
 62
     7
370
    60
100
AcDbCircle
 10
375.6624878693208
 20
229.8486026348174
 30
0.0
 40
2.75
  0
LINE
  5
12A
330
1F
100
AcDbEntity
  8
2
 62
     7
 48
0.201781
370
    60
100
AcDbLine
 10
510.5716978693208
 20
98.46411163481747
 30
0.0
 11
510.5716978693208
 21
106.5353396348174
 31
0.0
  0
ARC
  5
12B
330
1F
100
AcDbEntity
  8
2
 62
     7
370
    60
100
AcDbCircle
 10
-1458.428180130679
 20
230.0353396348174
 30
0.0
 40
2000.0
100
AcDbArc
 50
0.0
 51
3.342948
  0
ARC
  5
12C
330
1F
100
AcDbEntity
  8
2
 62
     7
370
    60
100
AcDbCircle
 10
-1458.428180130679
 20
230.0353396348174
 30
0.0
 40
2000.0
100
AcDbArc
 50
356.657042
 51
0.0000099999999887
  0
LINE
  5
12D
330
1F
100
AcDbEntity
  8
2
 62
     7
 48
0.266257
370
    60
100
AcDbLine
 10
511.5716978693208
 20
362.6065676348175
 30
0.0
 11
522.2219668693208
 21
362.6065676348175
 31
0.0
  0
LINE
  5
12E
330
1F
100
AcDbEntity
  8
2
 62
     7
370
    60
100
AcDbLine
 10
522.2219668693208
 20
362.6065676348175
 30
0.0
 11
538.1684698693208
 21
346.6600646348174
 31
0.0
  0
LINE
  5
12F
330
1F
100
AcDbEntity
  8
2
 62
     7
370
    60
100
AcDbLine
 10
522.2219668693208
 20
97.46411163481747
 30
0.0
 11
538.1684698693208
 21
113.4106136348175
 31
0.0
  0
LINE
  5
130
330
1F
100
AcDbEntity
  8
2
 62
     7
 48
0.266257
370
    60
100
AcDbLine
 10
511.5716978693208
 20
97.46411163481747
 30
0.0
 11
522.2219668693208
 21
97.46411163481747
 31
0.0
  0
LINE
  5
131
330
1F
100
AcDbEntity
  8
2
 62
     7
370
    60
100
AcDbLine
 10
510.5716978693208
 20
106.5353396348174
 30
0.0
 11
510.5716978693208
 21
353.5853276348174
 31
0.0
  0
LINE
  5
132
330
1F
100
AcDbEntity
  8
2
 62
     7
 48
0.200531
370
    60
100
AcDbLine
 10
510.5716978693208
 20
353.5853276348174
 30
0.0
 11
510.5716978693208
 21
361.6065676348175
 31
0.0
  0
ARC
  5
133
330
1F
100
AcDbEntity
  8
2
 62
     7
370
    60
100
AcDbCircle
 10
511.5716978693208
 20
98.46411163481747
 30
0.0
 40
1.000000000000004
100
AcDbArc
 50
180.0000050000005
 51
270.0000010000005
  0
ARC
  5
134
330
1F
100
AcDbEntity
  8
2
 62
     7
370
    60
100
AcDbCircle
 10
511.5716978693208
 20
361.6065676348175
 30
0.0
 40
1.000000000000001
100
AcDbArc
 50
90.00000299999769
 51
180.0000049999977
  0
VIEWPORT
  5
BB
330
73
100
AcDbEntity
 67
     1
  8
0
100
AcDbViewport
 10
7.8
 20
4.5
 30
0.0
 40
15.64
 41
9.0
 68
     1
 69
     1
 12
6.0
 22
4.5
 13
0.0
 23
0.0
 14
0.5
 24
0.5
 15
0.5
 25
0.5
 16
0.0
 26
0.0
 36
1.0
 17
0.0
 27
0.0
 37
0.0
 42
50.0
 43
0.0
 44
0.0
 45
12.0
 50
0.0
 51
0.0
 72
   100
 90
   557152
  1

281
     0
 71
     1
 74
     0
110
0.0
120
0.0
130
0.0
111
1.0
121
0.0
131
0.0
112
0.0
122
1.0
132
0.0
 79
     0
146
0.0
  0
ENDSEC
  0
SECTION
  2
OBJECTS
  0
DICTIONARY
  5
C
330
0
100
AcDbDictionary
281
     1
  3
ACAD_COLOR
350
6C
  3
ACAD_GROUP
350
D
  3
ACAD_LAYOUT
350
1A
  3
ACAD_MATERIAL
350
6B
  3
ACAD_MLEADERSTYLE
350
18F
  3
ACAD_MLINESTYLE
350
17
  3
ACAD_PLOTSETTINGS
350
19
  3
ACAD_PLOTSTYLENAME
350
E
  3
ACAD_SCALELIST
350
99
  3
ACAD_TABLESTYLE
350
92
  3
ACDBHEADERROUNDTRIPXREC
350
190
  3
AcDbVariableDictionary
350
59
  3
DWGPROPS
350
193
  0
DICTIONARY
  5
6C
102
{ACAD_REACTORS
330
C
102
}
330
C
100
AcDbDictionary
281
     1
  0
DICTIONARY
  5
D
102
{ACAD_REACTORS
330
C
102
}
330
C
100
AcDbDictionary
281
     1
  0
DICTIONARY
  5
1A
102
{ACAD_REACTORS
330
C
102
}
330
C
100
AcDbDictionary
281
     1
  3
Layout1
350
74
  3
Layout2
350
17F
  3
Model
350
22
  0
DICTIONARY
  5
6B
102
{ACAD_REACTORS
330
C
102
}
330
C
100
AcDbDictionary
281
     1
  0
DICTIONARY
  5
18F
102
{ACAD_REACTORS
330
C
102
}
330
C
100
AcDbDictionary
281
     1
  0
DICTIONARY
  5
17
102
{ACAD_REACTORS
330
C
102
}
330
C
100
AcDbDictionary
281
     1
  3
Standard
350
18
  0
DICTIONARY
  5
19
102
{ACAD_REACTORS
330
C
102
}
330
C
100
AcDbDictionary
281
     1
  0
ACDBDICTIONARYWDFLT
  5
E
102
{ACAD_REACTORS
330
C
102
}
330
C
100
AcDbDictionary
281
     1
  3
Normal
350
F
100
AcDbDictionaryWithDefault
340
F
  0
DICTIONARY
  5
99
102
{ACAD_REACTORS
330
C
102
}
330
C
100
AcDbDictionary
281
     1
  3
A0
350
D5
  3
A1
350
D6
  3
A2
350
D7
  3
A3
350
D8
  3
A4
350
D9
  3
A5
350
DA
  3
A6
350
DB
  3
A7
350
DC
  3
A8
350
DD
  3
A9
350
DE
  3
B0
350
DF
  3
B1
350
E0
  3
B2
350
E1
  3
B3
350
E2
  3
B4
350
E3
  3
B5
350
E4
  3
B6
350
E5
  3
B7
350
E6
  3
B8
350
E7
  3
B9
350
E8
  3
C0
350
E9
  3
C1
350
EA
  3
C2
350
EB
  3
C3
350
EC
  3
C4
350
ED
  3
C5
350
EE
  3
C6
350
EF
  3
C7
350
F0
  3
C8
350
F1
  3
C9
350
F2
  3
D0
350
F3
  3
D1
350
F4
  3
D2
350
F5
  0
DICTIONARY
  5
92
102
{ACAD_REACTORS
330
C
102
}
330
C
100
AcDbDictionary
281
     1
  0
DICTIONARY
  5
190
102
{ACAD_REACTORS
330
C
102
}
330
C
100
AcDbDictionary
281
     1
  3
COLORDICT
350
191
  3
MATERIALDICT
350
192
  0
DICTIONARY
  5
59
102
{ACAD_REACTORS
330
C
102
}
330
C
100
AcDbDictionary
281
     1
  3
CTABLESTYLE
350
98
  3
DIMASSOC
350
5A
  3
HIDETEXT
350
5E
  0
XRECORD
  5
193
102
{ACAD_REACTORS
330
C
102
}
330
C
100
AcDbXrecord
280
     1
  1
DWGPROPS COOKIE
  2

  3

  4

  6

  7

  8
BelottiMc
  9

300
=
301
=
302
=
303
=
304
=
305
=
306
=
307
=
308
=
309
=
 40
0.0
 41
2455092.343886563
 42
2455092.385553252
  1

 90
        0
  0
LAYOUT
  5
74
102
{ACAD_REACTORS
330
1A
102
}
330
1A
100
AcDbPlotSettings
  1

  2
ProgeSOFT PDF Wizard
  4
A4
  6

 40
5.926666666666667
 41
6.011333333333317
 42
6.095999999999985
 43
5.926666666666667
 44
210.0
 45
297.0
 46
88.56200000000001
 47
136.531
 48
0.0
 49
0.0
140
0.0
141
0.0
142
1.0
143
1.0
 70
   692
 72
     1
 73
     0
 74
     0
  7

 75
    16
147
1.0
148
4.426666666666668
149
1.5
100
AcDbLayout
  1
Layout1
 70
     1
 71
     1
 10
0.0
 20
0.0
 11
0.0
 21
0.0
 12
0.0
 22
0.0
 32
0.0
 14
0.0
 24
0.0
 34
0.0
 15
0.0
 25
0.0
 35
0.0
146
0.0
 13
0.0
 23
0.0
 33
0.0
 16
1.0
 26
0.0
 36
0.0
 17
0.0
 27
1.0
 37
0.0
 76
     0
330
D1
331
18E
1001
PROGE_PRINT_SETTINGS
1070
    73
1070
     1
  0
LAYOUT
  5
17F
102
{ACAD_REACTORS
330
1A
102
}
330
1A
100
AcDbPlotSettings
  1

  2
ProgeSOFT PDF Wizard
  4
A4
  6

 40
5.926666666666667
 41
6.011333333333317
 42
6.095999999999985
 43
5.926666666666667
 44
210.0
 45
297.0
 46
88.562
 47
136.531
 48
0.0
 49
0.0
140
0.0
141
0.0
142
1.0
143
1.0
 70
   692
 72
     1
 73
     0
 74
     0
  7

 75
    16
147
1.0
148
0.0
149
0.0
100
AcDbLayout
  1
Layout2
 70
     1
 71
     2
 10
0.0
 20
0.0
 11
12.0
 21
9.0
 12
0.0
 22
0.0
 32
0.0
 14
0.0
 24
0.0
 34
0.0
 15
12.0
 25
9.0
 35
0.0
146
0.0
 13
0.0
 23
0.0
 33
0.0
 16
1.0
 26
0.0
 36
0.0
 17
0.0
 27
1.0
 37
0.0
 76
     0
330
73
331
BB
1001
PROGE_PRINT_SETTINGS
1070
    73
1070
     1
  0
LAYOUT
  5
22
102
{ACAD_REACTORS
330
1A
102
}
330
1A
100
AcDbPlotSettings
  1

  2
ProgeSOFT PDF Wizard
  4
A4
  6

 40
5.926666666666667
 41
6.011333333333317
 42
6.095999999999985
 43
5.926666666666667
 44
210.0
 45
297.0
 46
0.0000000000000072
 47
83.07219027892847
 48
0.0
 49
0.0
140
0.0
141
0.0
142
1.0
143
3.627939988740415
 70
 11956
 72
     1
 73
     0
 74
     0
  7

 75
     0
147
0.2756385174792238
148
53.23779542475529
149
13.72492927149963
100
AcDbLayout
  1
Model
 70
     1
 71
     0
 10
0.0
 20
0.0
 11
0.0
 21
0.0
 12
0.0
 22
0.0
 32
0.0
 14
0.0
 24
0.0
 34
0.0
 15
561.5718197081893
 25
362.6065676348175
 35
0.0
146
0.0
 13
0.0
 23
0.0
 33
0.0
 16
1.0
 26
0.0
 36
0.0
 17
0.0
 27
1.0
 37
0.0
 76
     0
330
1F
331
97
1001
PROGE_PRINT_SETTINGS
1070
    73
1070
     1
  0
MLINESTYLE
  5
18
102
{ACAD_REACTORS
330
17
102
}
330
17
100
AcDbMlineStyle
  2
STANDARD
 70
     0
  3

 62
   256
 51
90.0
 52
90.0
 71
     2
 49
0.5
 62
   256
  6
BYLAYER
 49
-0.5
 62
   256
  6
BYLAYER
  0
ACDBPLACEHOLDER
  5
F
102
{ACAD_REACTORS
330
E
102
}
330
E
  0
SCALE
  5
D5
102
{ACAD_REACTORS
330
99
102
}
330
99
100
AcDbScale
 70
     0
300
1:1
140
1.0
141
1.0
290
     1
  0
SCALE
  5
D6
102
{ACAD_REACTORS
330
99
102
}
330
99
100
AcDbScale
 70
     0
300
1:2
140
1.0
141
2.0
290
     0
  0
SCALE
  5
D7
102
{ACAD_REACTORS
330
99
102
}
330
99
100
AcDbScale
 70
     0
300
1:4
140
1.0
141
4.0
290
     0
  0
SCALE
  5
D8
102
{ACAD_REACTORS
330
99
102
}
330
99
100
AcDbScale
 70
     0
300
1:5
140
1.0
141
5.0
290
     0
  0
SCALE
  5
D9
102
{ACAD_REACTORS
330
99
102
}
330
99
100
AcDbScale
 70
     0
300
1:8
140
1.0
141
8.0
290
     0
  0
SCALE
  5
DA
102
{ACAD_REACTORS
330
99
102
}
330
99
100
AcDbScale
 70
     0
300
1:10
140
1.0
141
10.0
290
     0
  0
SCALE
  5
DB
102
{ACAD_REACTORS
330
99
102
}
330
99
100
AcDbScale
 70
     0
300
1:16
140
1.0
141
16.0
290
     0
  0
SCALE
  5
DC
102
{ACAD_REACTORS
330
99
102
}
330
99
100
AcDbScale
 70
     0
300
1:20
140
1.0
141
20.0
290
     0
  0
SCALE
  5
DD
102
{ACAD_REACTORS
330
99
102
}
330
99
100
AcDbScale
 70
     0
300
1:30
140
1.0
141
30.0
290
     0
  0
SCALE
  5
DE
102
{ACAD_REACTORS
330
99
102
}
330
99
100
AcDbScale
 70
     0
300
1:40
140
1.0
141
40.0
290
     0
  0
SCALE
  5
DF
102
{ACAD_REACTORS
330
99
102
}
330
99
100
AcDbScale
 70
     0
300
1:50
140
1.0
141
50.0
290
     0
  0
SCALE
  5
E0
102
{ACAD_REACTORS
330
99
102
}
330
99
100
AcDbScale
 70
     0
300
1:100
140
1.0
141
100.0
290
     0
  0
SCALE
  5
E1
102
{ACAD_REACTORS
330
99
102
}
330
99
100
AcDbScale
 70
     0
300
2:1
140
2.0
141
1.0
290
     0
  0
SCALE
  5
E2
102
{ACAD_REACTORS
330
99
102
}
330
99
100
AcDbScale
 70
     0
300
4:1
140
4.0
141
1.0
290
     0
  0
SCALE
  5
E3
102
{ACAD_REACTORS
330
99
102
}
330
99
100
AcDbScale
 70
     0
300
8:1
140
8.0
141
1.0
290
     0
  0
SCALE
  5
E4
102
{ACAD_REACTORS
330
99
102
}
330
99
100
AcDbScale
 70
     0
300
10:1
140
10.0
141
1.0
290
     0
  0
SCALE
  5
E5
102
{ACAD_REACTORS
330
99
102
}
330
99
100
AcDbScale
 70
     0
300
100:1
140
100.0
141
1.0
290
     0
  0
SCALE
  5
E6
102
{ACAD_REACTORS
330
99
102
}
330
99
100
AcDbScale
 70
     0
300
1/128" = 1'-0"
140
0.0078125
141
12.0
290
     0
  0
SCALE
  5
E7
102
{ACAD_REACTORS
330
99
102
}
330
99
100
AcDbScale
 70
     0
300
1/64" = 1'-0"
140
0.015625
141
12.0
290
     0
  0
SCALE
  5
E8
102
{ACAD_REACTORS
330
99
102
}
330
99
100
AcDbScale
 70
     0
300
1/32" = 1'-0"
140
0.03125
141
12.0
290
     0
  0
SCALE
  5
E9
102
{ACAD_REACTORS
330
99
102
}
330
99
100
AcDbScale
 70
     0
300
1/16" = 1'-0"
140
0.0625
141
12.0
290
     0
  0
SCALE
  5
EA
102
{ACAD_REACTORS
330
99
102
}
330
99
100
AcDbScale
 70
     0
300
3/32" = 1'-0"
140
0.09375
141
12.0
290
     0
  0
SCALE
  5
EB
102
{ACAD_REACTORS
330
99
102
}
330
99
100
AcDbScale
 70
     0
300
1/8" = 1'-0"
140
0.125
141
12.0
290
     0
  0
SCALE
  5
EC
102
{ACAD_REACTORS
330
99
102
}
330
99
100
AcDbScale
 70
     0
300
3/16" = 1'-0"
140
0.1875
141
12.0
290
     0
  0
SCALE
  5
ED
102
{ACAD_REACTORS
330
99
102
}
330
99
100
AcDbScale
 70
     0
300
1/4" = 1'-0"
140
0.25
141
12.0
290
     0
  0
SCALE
  5
EE
102
{ACAD_REACTORS
330
99
102
}
330
99
100
AcDbScale
 70
     0
300
3/8" = 1'-0"
140
0.375
141
12.0
290
     0
  0
SCALE
  5
EF
102
{ACAD_REACTORS
330
99
102
}
330
99
100
AcDbScale
 70
     0
300
1/2" = 1'-0"
140
0.5
141
12.0
290
     0
  0
SCALE
  5
F0
102
{ACAD_REACTORS
330
99
102
}
330
99
100
AcDbScale
 70
     0
300
3/4" = 1'-0"
140
0.75
141
12.0
290
     0
  0
SCALE
  5
F1
102
{ACAD_REACTORS
330
99
102
}
330
99
100
AcDbScale
 70
     0
300
1" = 1'-0"
140
1.0
141
12.0
290
     0
  0
SCALE
  5
F2
102
{ACAD_REACTORS
330
99
102
}
330
99
100
AcDbScale
 70
     0
300
1-1/2" = 1'-0"
140
1.5
141
12.0
290
     0
  0
SCALE
  5
F3
102
{ACAD_REACTORS
330
99
102
}
330
99
100
AcDbScale
 70
     0
300
3" = 1'-0"
140
3.0
141
12.0
290
     0
  0
SCALE
  5
F4
102
{ACAD_REACTORS
330
99
102
}
330
99
100
AcDbScale
 70
     0
300
6" = 1'-0"
140
6.0
141
12.0
290
     0
  0
SCALE
  5
F5
102
{ACAD_REACTORS
330
99
102
}
330
99
100
AcDbScale
 70
     0
300
1'-0" = 1'-0"
140
12.0
141
12.0
290
     0
  0
XRECORD
  5
191
102
{ACAD_REACTORS
330
190
102
}
330
190
100
AcDbXrecord
280
     1
340
6C
  0
XRECORD
  5
192
102
{ACAD_REACTORS
330
190
102
}
330
190
100
AcDbXrecord
280
     1
340
6B
  0
DICTIONARYVAR
  5
98
102
{ACAD_REACTORS
330
59
102
}
330
59
100
DictionaryVariables
280
     0
  1
Standard
  0
DICTIONARYVAR
  5
5A
102
{ACAD_REACTORS
330
59
102
}
330
59
100
DictionaryVariables
280
     0
  1
2
  0
DICTIONARYVAR
  5
5E
102
{ACAD_REACTORS
330
59
102
}
330
59
100
DictionaryVariables
280
     0
  1
1
  0
ENDSEC
  0
EOF
