  0
SECTION
  2
HEADER
  9
$ACADVER
  1
AC1015
  9
$ACADMAINTVER
 70
     6
  9
$DWGCODEPAGE
  3
ANSI_1252
  9
$INSBASE
 10
0.0
 20
0.0
 30
0.0
  9
$EXTMIN
 10
151.6260381826254
 20
56.29828326180258
 30
0.0
  9
$EXTMAX
 10
457.2075825159587
 20
420.8371416856766
 30
0.0
  9
$LIMMIN
 10
0.0
 20
0.0
  9
$LIMMAX
 10
0.0
 20
0.0
  9
$ORTHOMODE
 70
     0
  9
$REGENMODE
 70
     1
  9
$FILLMODE
 70
     1
  9
$QTEXTMODE
 70
     0
  9
$MIRRTEXT
 70
     0
  9
$LTSCALE
 40
1.0
  9
$ATTMODE
 70
     1
  9
$TEXTSIZE
 40
2.5
  9
$TRACEWID
 40
1.0
  9
$TEXTSTYLE
  7
Standard
  9
$CLAYER
  8
0
  9
$CELTYPE
  6
ByLayer
  9
$CECOLOR
 62
   256
  9
$CELTSCALE
 40
1.0
  9
$DISPSILH
 70
     0
  9
$DIMSCALE
 40
1.0
  9
$DIMASZ
 40
2.5
  9
$DIMEXO
 40
0.625
  9
$DIMDLI
 40
3.75
  9
$DIMRND
 40
0.0
  9
$DIMDLE
 40
0.0
  9
$DIMEXE
 40
1.25
  9
$DIMTP
 40
0.0
  9
$DIMTM
 40
0.0
  9
$DIMTXT
 40
2.5
  9
$DIMCEN
 40
2.5
  9
$DIMTSZ
 40
0.0
  9
$DIMTOL
 70
     0
  9
$DIMLIM
 70
     0
  9
$DIMTIH
 70
     0
  9
$DIMTOH
 70
     0
  9
$DIMSE1
 70
     0
  9
$DIMSE2
 70
     0
  9
$DIMTAD
 70
     1
  9
$DIMZIN
 70
     8
  9
$DIMBLK
  1

  9
$DIMASO
 70
     1
  9
$DIMSHO
 70
     1
  9
$DIMPOST
  1

  9
$DIMAPOST
  1

  9
$DIMALT
 70
     0
  9
$DIMALTD
 70
     3
  9
$DIMALTF
 40
0.03937007874016
  9
$DIMLFAC
 40
1.0
  9
$DIMTOFL
 70
     1
  9
$DIMTVP
 40
0.0
  9
$DIMTIX
 70
     0
  9
$DIMSOXD
 70
     0
  9
$DIMSAH
 70
     0
  9
$DIMBLK1
  1

  9
$DIMBLK2
  1

  9
$DIMSTYLE
  2
ISO-25
  9
$DIMCLRD
 70
     0
  9
$DIMCLRE
 70
     0
  9
$DIMCLRT
 70
     0
  9
$DIMTFAC
 40
1.0
  9
$DIMGAP
 40
0.625
  9
$DIMJUST
 70
     0
  9
$DIMSD1
 70
     0
  9
$DIMSD2
 70
     0
  9
$DIMTOLJ
 70
     0
  9
$DIMTZIN
 70
     8
  9
$DIMALTZ
 70
     0
  9
$DIMALTTZ
 70
     0
  9
$DIMUPT
 70
     0
  9
$DIMDEC
 70
     2
  9
$DIMTDEC
 70
     2
  9
$DIMALTU
 70
     2
  9
$DIMALTTD
 70
     3
  9
$DIMTXSTY
  7
Standard
  9
$DIMAUNIT
 70
     0
  9
$DIMADEC
 70
     0
  9
$DIMALTRND
 40
0.0
  9
$DIMAZIN
 70
     0
  9
$DIMDSEP
 70
    44
  9
$DIMATFIT
 70
     3
  9
$DIMFRAC
 70
     0
  9
$DIMLDRBLK
  1

  9
$DIMLUNIT
 70
     2
  9
$DIMLWD
 70
    -2
  9
$DIMLWE
 70
    -2
  9
$DIMTMOVE
 70
     0
  9
$LUNITS
 70
     2
  9
$LUPREC
 70
     4
  9
$SKETCHINC
 40
1.0
  9
$FILLETRAD
 40
0.0
  9
$AUNITS
 70
     0
  9
$AUPREC
 70
     0
  9
$MENU
  1
.
  9
$ELEVATION
 40
0.0
  9
$PELEVATION
 40
0.0
  9
$THICKNESS
 40
0.0
  9
$LIMCHECK
 70
     0
  9
$CHAMFERA
 40
0.0
  9
$CHAMFERB
 40
0.0
  9
$CHAMFERC
 40
0.0
  9
$CHAMFERD
 40
0.0
  9
$SKPOLY
 70
     0
  9
$TDCREATE
 40
2455093.518722905
  9
$TDUCREATE
 40
2455093.435389572
  9
$TDUPDATE
 40
2455093.560389595
  9
$TDUUPDATE
 40
2455093.477056262
  9
$TDINDWG
 40
0.0937548611
  9
$TDUSRTIMER
 40
0.0937525
  9
$USRTIMER
 70
     1
  9
$ANGBASE
 50
0.0
  9
$ANGDIR
 70
     0
  9
$PDMODE
 70
     0
  9
$PDSIZE
 40
0.0
  9
$PLINEWID
 40
0.0
  9
$SPLFRAME
 70
     0
  9
$SPLINETYPE
 70
     6
  9
$SPLINESEGS
 70
     8
  9
$HANDSEED
  5
2EC
  9
$SURFTAB1
 70
     6
  9
$SURFTAB2
 70
     6
  9
$SURFTYPE
 70
     6
  9
$SURFU
 70
     6
  9
$SURFV
 70
     6
  9
$UCSBASE
  2

  9
$UCSNAME
  2

  9
$UCSORG
 10
0.0
 20
0.0
 30
0.0
  9
$UCSXDIR
 10
1.0
 20
0.0
 30
0.0
  9
$UCSYDIR
 10
0.0
 20
1.0
 30
0.0
  9
$UCSORTHOREF
  2

  9
$UCSORTHOVIEW
 70
     0
  9
$UCSORGTOP
 10
0.0
 20
0.0
 30
0.0
  9
$UCSORGBOTTOM
 10
0.0
 20
0.0
 30
0.0
  9
$UCSORGLEFT
 10
0.0
 20
0.0
 30
0.0
  9
$UCSORGRIGHT
 10
0.0
 20
0.0
 30
0.0
  9
$UCSORGFRONT
 10
0.0
 20
0.0
 30
0.0
  9
$UCSORGBACK
 10
0.0
 20
0.0
 30
0.0
  9
$PUCSBASE
  2

  9
$PUCSNAME
  2

  9
$PUCSORG
 10
0.0
 20
0.0
 30
0.0
  9
$PUCSXDIR
 10
1.0
 20
0.0
 30
0.0
  9
$PUCSYDIR
 10
0.0
 20
1.0
 30
0.0
  9
$PUCSORTHOREF
  2

  9
$PUCSORTHOVIEW
 70
     0
  9
$PUCSORGTOP
 10
0.0
 20
0.0
 30
0.0
  9
$PUCSORGBOTTOM
 10
0.0
 20
0.0
 30
0.0
  9
$PUCSORGLEFT
 10
0.0
 20
0.0
 30
0.0
  9
$PUCSORGRIGHT
 10
0.0
 20
0.0
 30
0.0
  9
$PUCSORGFRONT
 10
0.0
 20
0.0
 30
0.0
  9
$PUCSORGBACK
 10
0.0
 20
0.0
 30
0.0
  9
$USERI1
 70
     0
  9
$USERI2
 70
     0
  9
$USERI3
 70
     0
  9
$USERI4
 70
     0
  9
$USERI5
 70
     0
  9
$USERR1
 40
0.0
  9
$USERR2
 40
0.0
  9
$USERR3
 40
0.0
  9
$USERR4
 40
0.0
  9
$USERR5
 40
0.0
  9
$WORLDVIEW
 70
     1
  9
$SHADEDGE
 70
     3
  9
$SHADEDIF
 70
    70
  9
$TILEMODE
 70
     1
  9
$MAXACTVP
 70
    64
  9
$PINSBASE
 10
0.0
 20
0.0
 30
0.0
  9
$PLIMCHECK
 70
     0
  9
$PEXTMIN
 10
0.0
 20
0.0
 30
0.0
  9
$PEXTMAX
 10
12.0
 20
9.0
 30
0.0
  9
$PLIMMIN
 10
0.0
 20
0.0
  9
$PLIMMAX
 10
12.0
 20
9.0
  9
$UNITMODE
 70
     0
  9
$VISRETAIN
 70
     1
  9
$PLINEGEN
 70
     0
  9
$PSLTSCALE
 70
     1
  9
$TREEDEPTH
 70
  3020
  9
$CMLSTYLE
  2
Standard
  9
$CMLJUST
 70
     0
  9
$CMLSCALE
 40
20.0
  9
$PROXYGRAPHICS
 70
     1
  9
$MEASUREMENT
 70
     1
  9
$CELWEIGHT
370
    -1
  9
$ENDCAPS
280
     0
  9
$JOINSTYLE
280
     0
  9
$LWDISPLAY
290
     0
  9
$INSUNITS
 70
     4
  9
$HYPERLINKBASE
  1

  9
$STYLESHEET
  1

  9
$XEDIT
290
     1
  9
$CEPSNTYPE
380
     0
  9
$PSTYLEMODE
290
     1
  9
$FINGERPRINTGUID
  2
{5559452E-1E62-4159-8551-BF76FFF3E7E8}
  9
$VERSIONGUID
  2
{3CEB9EF8-4431-4551-B596-6734A9F966A9}
  9
$EXTNAMES
290
     1
  9
$PSVPSCALE
 40
0.0
  9
$OLESTARTUP
290
     0
  0
ENDSEC
  0
SECTION
  2
CLASSES
  0
CLASS
  1
ACDBDICTIONARYWDFLT
  2
AcDbDictionaryWithDefault
  3
ObjectDBX Classes
 90
        0
280
     0
281
     0
  0
CLASS
  1
ACDBPLACEHOLDER
  2
AcDbPlaceHolder
  3
ObjectDBX Classes
 90
        0
280
     0
281
     0
  0
CLASS
  1
LAYOUT
  2
AcDbLayout
  3
ObjectDBX Classes
 90
        0
280
     0
281
     0
  0
CLASS
  1
DICTIONARYVAR
  2
AcDbDictionaryVar
  3
ObjectDBX Classes
 90
        0
280
     0
281
     0
  0
CLASS
  1
TABLESTYLE
  2
AcDbTableStyle
  3
ObjectDBX Classes
 90
     4095
280
     0
281
     0
  0
CLASS
  1
SCALE
  2
AcDbScale
  3
ObjectDBX Classes
 90
     1153
280
     0
281
     0
  0
ENDSEC
  0
SECTION
  2
TABLES
  0
TABLE
  2
VPORT
  5
8
330
0
100
AcDbSymbolTable
 70
     2
  0
VPORT
  5
97
330
8
100
AcDbSymbolTableRecord
100
AcDbViewportTableRecord
  2
*Active
 70
     0
 10
0.0
 20
0.0
 11
1.0
 21
1.0
 12
195.2272890822574
 22
131.0173998678006
 13
0.0
 23
0.0
 14
10.0
 24
10.0
 15
10.0
 25
10.0
 16
0.0
 26
0.0
 36
1.0
 17
0.0
 27
0.0
 37
0.0
 40
637.2414911615945
 41
1.664827586206897
 42
50.0
 43
0.0
 44
0.0
 50
0.0
 51
0.0
 71
     0
 72
  1000
 73
     1
 74
     3
 75
     0
 76
     0
 77
     0
 78
     0
281
     0
 65
     1
110
0.0
120
0.0
130
0.0
111
1.0
121
0.0
131
0.0
112
0.0
122
1.0
132
0.0
 79
     0
146
0.0
  0
ENDTAB
  0
TABLE
  2
LTYPE
  5
5
330
0
100
AcDbSymbolTable
 70
     3
  0
LTYPE
  5
14
330
5
100
AcDbSymbolTableRecord
100
AcDbLinetypeTableRecord
  2
ByBlock
 70
     0
  3

 72
    65
 73
     0
 40
0.0
  0
LTYPE
  5
15
330
5
100
AcDbSymbolTableRecord
100
AcDbLinetypeTableRecord
  2
ByLayer
 70
     0
  3

 72
    65
 73
     0
 40
0.0
  0
LTYPE
  5
16
330
5
100
AcDbSymbolTableRecord
100
AcDbLinetypeTableRecord
  2
Continuous
 70
     0
  3
Solid line
 72
    65
 73
     0
 40
0.0
  0
LTYPE
  5
2C6
330
5
100
AcDbSymbolTableRecord
100
AcDbLinetypeTableRecord
  2
DASHDOT
 70
     0
  3
 __ . __ . __ . __ . __ . __ . __ . 
 72
    65
 73
     4
 40
18.5
 49
12.0
 74
     0
 49
-3.0
 74
     0
 49
0.5
 74
     0
 49
-3.0
 74
     0
  0
LTYPE
  5
2C7
330
5
100
AcDbSymbolTableRecord
100
AcDbLinetypeTableRecord
  2
SOLID
 70
     0
  3

 72
    65
 73
     0
 40
0.0
  0
ENDTAB
  0
TABLE
  2
LAYER
  5
2
330
0
100
AcDbSymbolTable
 70
     3
  0
LAYER
  5
10
330
2
100
AcDbSymbolTableRecord
100
AcDbLayerTableRecord
  2
0
 70
     0
 62
     7
  6
Continuous
370
    -3
390
F
  0
LAYER
  5
FA
330
2
100
AcDbSymbolTableRecord
100
AcDbLayerTableRecord
  2
STANDARD_LAYER
 70
     0
 62
     7
  6
SOLID
370
    -3
390
F
  0
LAYER
  5
22A
330
2
100
AcDbSymbolTableRecord
100
AcDbLayerTableRecord
  2
DEFPOINTS
 70
     0
 62
     7
  6
Continuous
290
     0
370
    -3
390
F
  0
ENDTAB
  0
TABLE
  2
STYLE
  5
3
330
0
100
AcDbSymbolTable
 70
     1
  0
STYLE
  5
11
330
3
100
AcDbSymbolTableRecord
100
AcDbTextStyleTableRecord
  2
Standard
 70
     0
 40
0.0
 41
1.0
 50
0.0
 71
     0
 42
2.5
  3
txt
  4

  0
ENDTAB
  0
TABLE
  2
VIEW
  5
6
330
0
100
AcDbSymbolTable
 70
     0
  0
ENDTAB
  0
TABLE
  2
UCS
  5
7
330
0
100
AcDbSymbolTable
 70
     0
  0
ENDTAB
  0
TABLE
  2
APPID
  5
9
330
0
100
AcDbSymbolTable
 70
     2
  0
APPID
  5
12
330
9
100
AcDbSymbolTableRecord
100
AcDbRegAppTableRecord
  2
ACAD
 70
     0
  0
APPID
  5
2C5
330
9
100
AcDbSymbolTableRecord
100
AcDbRegAppTableRecord
  2
PROGE_PRINT_SETTINGS
 70
     0
  0
ENDTAB
  0
TABLE
  2
DIMSTYLE
  5
A
330
0
100
AcDbSymbolTable
 70
     2
100
AcDbDimStyleTable
  0
DIMSTYLE
105
27
102
{ACAD_REACTORS
330
1F0
330
1F1
330
1F2
330
1F3
330
1F4
102
}
330
A
100
AcDbSymbolTableRecord
100
AcDbDimStyleTableRecord
  2
Standard
 70
     0
278
     0
340
11
  0
DIMSTYLE
105
29
330
A
100
AcDbSymbolTableRecord
100
AcDbDimStyleTableRecord
  2
ISO-25
 70
     0
 41
2.5
 42
0.625
 43
3.75
 44
1.25
 73
     0
 74
     0
 77
     1
 78
     8
140
2.5
141
2.5
143
0.03937007874016
147
0.625
171
     3
172
     1
271
     2
272
     2
274
     3
278
    44
283
     0
284
     8
340
11
  0
ENDTAB
  0
TABLE
  2
BLOCK_RECORD
  5
1
330
0
100
AcDbSymbolTable
 70
    14
  0
BLOCK_RECORD
  5
1F
330
1
100
AcDbSymbolTableRecord
100
AcDbBlockTableRecord
  2
*Model_Space
340
22
  0
BLOCK_RECORD
  5
73
330
1
100
AcDbSymbolTableRecord
100
AcDbBlockTableRecord
  2
*Paper_Space
340
2C9
  0
BLOCK_RECORD
  5
D1
330
1
100
AcDbSymbolTableRecord
100
AcDbBlockTableRecord
  2
*Paper_Space0
340
74
  0
BLOCK_RECORD
  5
237
330
1
100
AcDbSymbolTableRecord
100
AcDbBlockTableRecord
  2
*D1
340
0
  0
BLOCK_RECORD
  5
242
330
1
100
AcDbSymbolTableRecord
100
AcDbBlockTableRecord
  2
*D2
340
0
  0
BLOCK_RECORD
  5
24F
330
1
100
AcDbSymbolTableRecord
100
AcDbBlockTableRecord
  2
*D3
340
0
  0
BLOCK_RECORD
  5
25A
330
1
100
AcDbSymbolTableRecord
100
AcDbBlockTableRecord
  2
*D4
340
0
  0
BLOCK_RECORD
  5
265
330
1
100
AcDbSymbolTableRecord
100
AcDbBlockTableRecord
  2
*D5
340
0
  0
BLOCK_RECORD
  5
270
330
1
100
AcDbSymbolTableRecord
100
AcDbBlockTableRecord
  2
*D6
340
0
  0
BLOCK_RECORD
  5
27B
330
1
100
AcDbSymbolTableRecord
100
AcDbBlockTableRecord
  2
*D7
340
0
  0
BLOCK_RECORD
  5
286
330
1
100
AcDbSymbolTableRecord
100
AcDbBlockTableRecord
  2
*D8
340
0
  0
BLOCK_RECORD
  5
293
330
1
100
AcDbSymbolTableRecord
100
AcDbBlockTableRecord
  2
*D9
340
0
  0
BLOCK_RECORD
  5
2A0
330
1
100
AcDbSymbolTableRecord
100
AcDbBlockTableRecord
  2
*D10
340
0
  0
BLOCK_RECORD
  5
2AB
330
1
100
AcDbSymbolTableRecord
100
AcDbBlockTableRecord
  2
*D11
340
0
  0
BLOCK_RECORD
  5
2B6
330
1
100
AcDbSymbolTableRecord
100
AcDbBlockTableRecord
  2
*D12
340
0
  0
BLOCK_RECORD
  5
2C3
330
1
100
AcDbSymbolTableRecord
100
AcDbBlockTableRecord
  2
*D13
340
0
  0
ENDTAB
  0
ENDSEC
  0
SECTION
  2
BLOCKS
  0
BLOCK
  5
20
330
1F
100
AcDbEntity
  8
0
100
AcDbBlockBegin
  2
*Model_Space
 70
     0
 10
0.0
 20
0.0
 30
0.0
  3
*Model_Space
  1

  0
ENDBLK
  5
21
330
1F
100
AcDbEntity
  8
0
100
AcDbBlockEnd
  0
BLOCK
  5
75
330
73
100
AcDbEntity
 67
     1
  8
0
100
AcDbBlockBegin
  2
*Paper_Space
 70
     0
 10
0.0
 20
0.0
 30
0.0
  3
*Paper_Space
  1

  0
ENDBLK
  5
76
330
73
100
AcDbEntity
 67
     1
  8
0
100
AcDbBlockEnd
  0
BLOCK
  5
2CA
330
D1
100
AcDbEntity
  8
0
100
AcDbBlockBegin
  2
*Paper_Space0
 70
     0
 10
0.0
 20
0.0
 30
0.0
  3
*Paper_Space0
  1

  0
VIEWPORT
  5
2E6
330
D1
100
AcDbEntity
  8
0
100
AcDbViewport
 10
7.8
 20
4.5
 30
0.0
 40
15.64
 41
9.0
 68
     1
 69
     1
 12
6.0
 22
4.5
 13
0.0
 23
0.0
 14
0.5
 24
0.5
 15
0.5
 25
0.5
 16
0.0
 26
0.0
 36
1.0
 17
0.0
 27
0.0
 37
0.0
 42
50.0
 43
0.0
 44
0.0
 45
12.0
 50
0.0
 51
0.0
 72
   100
 90
   557152
  1

281
     0
 71
     1
 74
     0
110
0.0
120
0.0
130
0.0
111
1.0
121
0.0
131
0.0
112
0.0
122
1.0
132
0.0
 79
     0
146
0.0
  0
ENDBLK
  5
2CB
330
D1
100
AcDbEntity
  8
0
100
AcDbBlockEnd
  0
BLOCK
  5
2CC
330
237
100
AcDbEntity
  8
0
100
AcDbBlockBegin
  2
*D1
 70
     1
 10
0.0
 20
0.0
 30
0.0
  3
*D1
  1

  0
POINT
  5
22C
330
237
100
AcDbEntity
  8
DEFPOINTS
  6
ByBlock
 62
     7
380
     1
100
AcDbPoint
 10
216.4204876329121
 20
354.4856531123013
 30
0.0
  0
POINT
  5
22D
330
237
100
AcDbEntity
  8
DEFPOINTS
  6
ByBlock
 62
     7
380
     1
100
AcDbPoint
 10
216.4204876329121
 20
343.4856531123013
 30
0.0
  0
LINE
  5
22E
330
237
100
AcDbEntity
  8
0
  6
ByBlock
 62
     7
370
    -2
380
     1
100
AcDbLine
 10
217.0454876329121
 20
354.4856531123013
 30
0.0
 11
268.3352116684849
 21
354.4856531123013
 31
0.0
  0
LINE
  5
22F
330
237
100
AcDbEntity
  8
0
  6
ByBlock
 62
     7
370
    -2
380
     1
100
AcDbLine
 10
217.0454876329121
 20
343.4856531123013
 30
0.0
 11
268.3352116684849
 21
343.4856531123013
 31
0.0
  0
LINE
  5
230
330
237
100
AcDbEntity
  8
0
  6
ByBlock
 62
     7
370
    -2
380
     1
100
AcDbLine
 10
267.0852116684849
 20
333.4856531123013
 30
0.0
 11
267.0852116684849
 21
323.4856531123013
 31
0.0
  0
LINE
  5
231
330
237
100
AcDbEntity
  8
0
  6
ByBlock
 62
     7
370
    -2
380
     1
100
AcDbLine
 10
267.0852116684849
 20
364.4856531123013
 30
0.0
 11
267.0852116684849
 21
388.4856531123013
 31
0.0
  0
SOLID
  5
232
330
237
100
AcDbEntity
  8
0
  6
ByBlock
 62
     7
380
     1
100
AcDbTrace
 10
267.0852116684849
 20
354.4856531123013
 30
0.0
 11
265.4185450018182
 21
364.4856531123013
 31
0.0
 12
268.7518783351516
 22
364.4856531123013
 32
0.0
 13
268.7518783351516
 23
364.4856531123013
 33
0.0
  0
SOLID
  5
233
330
237
100
AcDbEntity
  8
0
  6
ByBlock
 62
     7
380
     1
100
AcDbTrace
 10
267.0852116684849
 20
343.4856531123013
 30
0.0
 11
265.4185450018182
 21
333.4856531123013
 31
0.0
 12
268.7518783351516
 22
333.4856531123013
 32
0.0
 13
268.7518783351516
 23
333.4856531123013
 33
0.0
  0
LINE
  5
234
330
237
100
AcDbEntity
  8
0
  6
ByBlock
 62
     7
370
    -2
380
     1
100
AcDbLine
 10
267.0852116684849
 20
354.4856531123013
 30
0.0
 11
267.0852116684849
 21
343.4856531123013
 31
0.0
  0
MTEXT
  5
235
330
237
100
AcDbEntity
  8
0
  6
ByBlock
 62
     0
370
    -2
380
     1
100
AcDbMText
 10
255.0852116684849
 20
376.4856531123013
 30
0.0
 40
14.0
 41
0.0
 71
     5
 72
     1
  1
\A1;11
 11
6.123031769111886E-17
 21
1.0
 31
0.0
 73
     1
 44
1.0
  0
ENDBLK
  5
2CD
330
237
100
AcDbEntity
  8
0
100
AcDbBlockEnd
  0
BLOCK
  5
2CE
330
242
100
AcDbEntity
  8
0
100
AcDbBlockBegin
  2
*D2
 70
     1
 10
0.0
 20
0.0
 30
0.0
  3
*D2
  1

  0
POINT
  5
239
330
242
100
AcDbEntity
  8
DEFPOINTS
  6
ByBlock
 62
     7
380
     1
100
AcDbPoint
 10
194.9247859394998
 20
343.4856530595936
 30
0.0
  0
POINT
  5
23A
330
242
100
AcDbEntity
  8
DEFPOINTS
  6
ByBlock
 62
     7
380
     1
100
AcDbPoint
 10
194.9247859394998
 20
165.9856830595936
 30
0.0
  0
LINE
  5
23B
330
242
100
AcDbEntity
  8
0
  6
ByBlock
 62
     7
370
    -2
380
     1
100
AcDbLine
 10
195.5497859394998
 20
343.4856530595936
 30
0.0
 11
268.3352304008701
 21
343.4856530595936
 31
0.0
  0
LINE
  5
23C
330
242
100
AcDbEntity
  8
0
  6
ByBlock
 62
     7
370
    -2
380
     1
100
AcDbLine
 10
195.5497859394998
 20
165.9856830595936
 30
0.0
 11
268.3352304008701
 21
165.9856830595936
 31
0.0
  0
LINE
  5
23D
330
242
100
AcDbEntity
  8
0
  6
ByBlock
 62
     7
370
    -2
380
     1
100
AcDbLine
 10
267.0852304008701
 20
333.4856530595936
 30
0.0
 11
267.0852304008701
 21
175.9856830595936
 31
0.0
  0
SOLID
  5
23E
330
242
100
AcDbEntity
  8
0
  6
ByBlock
 62
     7
380
     1
100
AcDbTrace
 10
267.0852304008701
 20
343.4856530595936
 30
0.0
 11
265.4185637342034
 21
333.4856530595936
 31
0.0
 12
268.7518970675368
 22
333.4856530595936
 32
0.0
 13
268.7518970675368
 23
333.4856530595936
 33
0.0
  0
SOLID
  5
23F
330
242
100
AcDbEntity
  8
0
  6
ByBlock
 62
     7
380
     1
100
AcDbTrace
 10
267.0852304008701
 20
165.9856830595936
 30
0.0
 11
265.4185637342034
 21
175.9856830595936
 31
0.0
 12
268.7518970675368
 22
175.9856830595936
 32
0.0
 13
268.7518970675368
 23
175.9856830595936
 33
0.0
  0
MTEXT
  5
240
330
242
100
AcDbEntity
  8
0
  6
ByBlock
 62
     0
370
    -2
380
     1
100
AcDbMText
 10
253.9185637342034
 20
262.1262153283881
 30
0.0
 40
14.0
 41
0.0
 71
     5
 72
     1
  1
\A1;177,5
 11
6.123031769111886E-17
 21
1.0
 31
0.0
 73
     1
 44
1.0
  0
ENDBLK
  5
2CF
330
242
100
AcDbEntity
  8
0
100
AcDbBlockEnd
  0
BLOCK
  5
2D0
330
24F
100
AcDbEntity
  8
0
100
AcDbBlockBegin
  2
*D3
 70
     1
 10
0.0
 20
0.0
 30
0.0
  3
*D3
  1

  0
POINT
  5
244
330
24F
100
AcDbEntity
  8
DEFPOINTS
  6
ByBlock
 62
     7
380
     1
100
AcDbPoint
 10
307.251984
 20
339.293301377834
 30
0.0
  0
POINT
  5
245
330
24F
100
AcDbEntity
  8
DEFPOINTS
  6
ByBlock
 62
     7
380
     1
100
AcDbPoint
 10
311.251984
 20
339.293301377834
 30
0.0
  0
LINE
  5
246
330
24F
100
AcDbEntity
  8
0
  6
ByBlock
 62
     7
370
    -2
380
     1
100
AcDbLine
 10
307.251984
 20
339.918301377834
 30
0.0
 11
307.251984
 21
372.1533800678167
 31
0.0
  0
LINE
  5
247
330
24F
100
AcDbEntity
  8
0
  6
ByBlock
 62
     7
370
    -2
380
     1
100
AcDbLine
 10
311.251984
 20
339.918301377834
 30
0.0
 11
311.251984
 21
372.1533800678167
 31
0.0
  0
LINE
  5
248
330
24F
100
AcDbEntity
  8
0
  6
ByBlock
 62
     7
370
    -2
380
     1
100
AcDbLine
 10
297.251984
 20
370.9033800678167
 30
0.0
 11
287.251984
 21
370.9033800678167
 31
0.0
  0
LINE
  5
249
330
24F
100
AcDbEntity
  8
0
  6
ByBlock
 62
     7
370
    -2
380
     1
100
AcDbLine
 10
321.251984
 20
370.9033800678167
 30
0.0
 11
350.5853173333333
 21
370.9033800678167
 31
0.0
  0
SOLID
  5
24A
330
24F
100
AcDbEntity
  8
0
  6
ByBlock
 62
     7
380
     1
100
AcDbTrace
 10
307.251984
 20
370.9033800678167
 30
0.0
 11
297.251984
 21
369.23671340115
 31
0.0
 12
297.251984
 22
372.5700467344834
 32
0.0
 13
297.251984
 23
372.5700467344834
 33
0.0
  0
SOLID
  5
24B
330
24F
100
AcDbEntity
  8
0
  6
ByBlock
 62
     7
380
     1
100
AcDbTrace
 10
311.251984
 20
370.9033800678167
 30
0.0
 11
321.251984
 21
369.23671340115
 31
0.0
 12
321.251984
 22
372.5700467344834
 32
0.0
 13
321.251984
 23
372.5700467344834
 33
0.0
  0
LINE
  5
24C
330
24F
100
AcDbEntity
  8
0
  6
ByBlock
 62
     7
370
    -2
380
     1
100
AcDbLine
 10
307.251984
 20
370.9033800678167
 30
0.0
 11
311.251984
 21
370.9033800678167
 31
0.0
  0
MTEXT
  5
24D
330
24F
100
AcDbEntity
  8
0
  6
ByBlock
 62
     0
370
    -2
380
     1
100
AcDbMText
 10
340.9186506666666
 20
382.9033800678167
 30
0.0
 40
14.0
 41
0.0
 71
     5
 72
     1
  1
\A1;4
 73
     1
 44
1.0
  0
ENDBLK
  5
2D1
330
24F
100
AcDbEntity
  8
0
100
AcDbBlockEnd
  0
BLOCK
  5
2D2
330
25A
100
AcDbEntity
  8
0
100
AcDbBlockBegin
  2
*D4
 70
     1
 10
0.0
 20
0.0
 30
0.0
  3
*D4
  1

  0
POINT
  5
251
330
25A
100
AcDbEntity
  8
DEFPOINTS
  6
ByBlock
 62
     7
380
     1
100
AcDbPoint
 10
62.503777
 20
321.7273484917268
 30
0.0
  0
POINT
  5
252
330
25A
100
AcDbEntity
  8
DEFPOINTS
  6
ByBlock
 62
     7
380
     1
100
AcDbPoint
 10
226.003769
 20
321.7273484917268
 30
0.0
  0
LINE
  5
253
330
25A
100
AcDbEntity
  8
0
  6
ByBlock
 62
     7
370
    -2
380
     1
100
AcDbLine
 10
62.503777
 20
322.3523484917268
 30
0.0
 11
62.503777
 21
372.1533800678167
 31
0.0
  0
LINE
  5
254
330
25A
100
AcDbEntity
  8
0
  6
ByBlock
 62
     7
370
    -2
380
     1
100
AcDbLine
 10
226.003769
 20
322.3523484917268
 30
0.0
 11
226.003769
 21
372.1533800678167
 31
0.0
  0
LINE
  5
255
330
25A
100
AcDbEntity
  8
0
  6
ByBlock
 62
     7
370
    -2
380
     1
100
AcDbLine
 10
72.503777
 20
370.9033800678167
 30
0.0
 11
216.003769
 21
370.9033800678167
 31
0.0
  0
SOLID
  5
256
330
25A
100
AcDbEntity
  8
0
  6
ByBlock
 62
     7
380
     1
100
AcDbTrace
 10
62.503777
 20
370.9033800678167
 30
0.0
 11
72.503777
 21
369.23671340115
 31
0.0
 12
72.503777
 22
372.5700467344834
 32
0.0
 13
72.503777
 23
372.5700467344834
 33
0.0
  0
SOLID
  5
257
330
25A
100
AcDbEntity
  8
0
  6
ByBlock
 62
     7
380
     1
100
AcDbTrace
 10
226.003769
 20
370.9033800678167
 30
0.0
 11
216.003769
 21
369.23671340115
 31
0.0
 12
216.003769
 22
372.5700467344834
 32
0.0
 13
216.003769
 23
372.5700467344834
 33
0.0
  0
MTEXT
  5
258
330
25A
100
AcDbEntity
  8
0
  6
ByBlock
 62
     0
370
    -2
380
     1
100
AcDbMText
 10
144.253773
 20
384.0700467344834
 30
0.0
 40
14.0
 41
0.0
 71
     5
 72
     1
  1
\A1;163,5
 73
     1
 44
1.0
  0
ENDBLK
  5
2D3
330
25A
100
AcDbEntity
  8
0
100
AcDbBlockEnd
  0
BLOCK
  5
2D4
330
265
100
AcDbEntity
  8
0
100
AcDbBlockBegin
  2
*D5
 70
     1
 10
0.0
 20
0.0
 30
0.0
  3
*D5
  1

  0
POINT
  5
25C
330
265
100
AcDbEntity
  8
DEFPOINTS
  6
ByBlock
 62
     7
380
     1
100
AcDbPoint
 10
45.003773
 20
303.6089163776398
 30
0.0
  0
POINT
  5
25D
330
265
100
AcDbEntity
  8
DEFPOINTS
  6
ByBlock
 62
     7
380
     1
100
AcDbPoint
 10
243.503769
 20
303.6089163776398
 30
0.0
  0
LINE
  5
25E
330
265
100
AcDbEntity
  8
0
  6
ByBlock
 62
     7
370
    -2
380
     1
100
AcDbLine
 10
45.003773
 20
304.2339163776398
 30
0.0
 11
45.003773
 21
403.9438060905407
 31
0.0
  0
LINE
  5
25F
330
265
100
AcDbEntity
  8
0
  6
ByBlock
 62
     7
370
    -2
380
     1
100
AcDbLine
 10
243.503769
 20
304.2339163776398
 30
0.0
 11
243.503769
 21
403.9438060905407
 31
0.0
  0
LINE
  5
260
330
265
100
AcDbEntity
  8
0
  6
ByBlock
 62
     7
370
    -2
380
     1
100
AcDbLine
 10
55.003773
 20
402.6938060905407
 30
0.0
 11
233.503769
 21
402.6938060905407
 31
0.0
  0
SOLID
  5
261
330
265
100
AcDbEntity
  8
0
  6
ByBlock
 62
     7
380
     1
100
AcDbTrace
 10
45.003773
 20
402.6938060905407
 30
0.0
 11
55.003773
 21
401.027139423874
 31
0.0
 12
55.003773
 22
404.3604727572074
 32
0.0
 13
55.003773
 23
404.3604727572074
 33
0.0
  0
SOLID
  5
262
330
265
100
AcDbEntity
  8
0
  6
ByBlock
 62
     7
380
     1
100
AcDbTrace
 10
243.503769
 20
402.6938060905407
 30
0.0
 11
233.503769
 21
401.027139423874
 31
0.0
 12
233.503769
 22
404.3604727572074
 32
0.0
 13
233.503769
 23
404.3604727572074
 33
0.0
  0
MTEXT
  5
263
330
265
100
AcDbEntity
  8
0
  6
ByBlock
 62
     0
370
    -2
380
     1
100
AcDbMText
 10
144.253771
 20
415.8604727572074
 30
0.0
 40
14.0
 41
0.0
 71
     5
 72
     1
  1
\A1;198,5
 73
     1
 44
1.0
  0
ENDBLK
  5
2D5
330
265
100
AcDbEntity
  8
0
100
AcDbBlockEnd
  0
BLOCK
  5
2D6
330
270
100
AcDbEntity
  8
0
100
AcDbBlockBegin
  2
*D6
 70
     1
 10
0.0
 20
0.0
 30
0.0
  3
*D6
  1

  0
POINT
  5
267
330
270
100
AcDbEntity
  8
DEFPOINTS
  6
ByBlock
 62
     7
380
     1
100
AcDbPoint
 10
151.6260381826254
 20
300.4189186394424
 30
0.0
  0
POINT
  5
268
330
270
100
AcDbEntity
  8
DEFPOINTS
  6
ByBlock
 62
     7
380
     1
100
AcDbPoint
 10
350.1260341826254
 20
300.4189186394424
 30
0.0
  0
LINE
  5
269
330
270
100
AcDbEntity
  8
0
  6
ByBlock
 62
     7
370
    -2
380
     1
100
AcDbLine
 10
151.6260381826254
 20
301.0439186394424
 30
0.0
 11
151.6260381826254
 21
400.7538083523433
 31
0.0
  0
LINE
  5
26A
330
270
100
AcDbEntity
  8
0
  6
ByBlock
 62
     7
370
    -2
380
     1
100
AcDbLine
 10
350.1260341826254
 20
301.0439186394424
 30
0.0
 11
350.1260341826254
 21
400.7538083523433
 31
0.0
  0
LINE
  5
26B
330
270
100
AcDbEntity
  8
0
  6
ByBlock
 62
     7
370
    -2
380
     1
100
AcDbLine
 10
161.6260381826254
 20
399.5038083523433
 30
0.0
 11
340.1260341826254
 21
399.5038083523433
 31
0.0
  0
SOLID
  5
26C
330
270
100
AcDbEntity
  8
0
  6
ByBlock
 62
     7
380
     1
100
AcDbTrace
 10
151.6260381826254
 20
399.5038083523433
 30
0.0
 11
161.6260381826254
 21
397.8371416856766
 31
0.0
 12
161.6260381826254
 22
401.17047501901
 32
0.0
 13
161.6260381826254
 23
401.17047501901
 33
0.0
  0
SOLID
  5
26D
330
270
100
AcDbEntity
  8
0
  6
ByBlock
 62
     7
380
     1
100
AcDbTrace
 10
350.1260341826254
 20
399.5038083523433
 30
0.0
 11
340.1260341826254
 21
397.8371416856766
 31
0.0
 12
340.1260341826254
 22
401.17047501901
 32
0.0
 13
340.1260341826254
 23
401.17047501901
 33
0.0
  0
MTEXT
  5
26E
330
270
100
AcDbEntity
  8
0
  6
ByBlock
 62
     0
370
    -2
380
     1
100
AcDbMText
 10
250.8760361826254
 20
412.6704750190099
 30
0.0
 40
14.0
 41
0.0
 71
     5
 72
     1
  1
\A1;198,5
 73
     1
 44
1.0
  0
ENDBLK
  5
2D7
330
270
100
AcDbEntity
  8
0
100
AcDbBlockEnd
  0
BLOCK
  5
2D8
330
27B
100
AcDbEntity
  8
0
100
AcDbBlockBegin
  2
*D7
 70
     1
 10
0.0
 20
0.0
 30
0.0
  3
*D7
  1

  0
POINT
  5
272
330
27B
100
AcDbEntity
  8
DEFPOINTS
  6
ByBlock
 62
     7
380
     1
100
AcDbPoint
 10
169.1260421826254
 20
318.5373507535294
 30
0.0
  0
POINT
  5
273
330
27B
100
AcDbEntity
  8
DEFPOINTS
  6
ByBlock
 62
     7
380
     1
100
AcDbPoint
 10
332.6260341826254
 20
318.5373507535294
 30
0.0
  0
LINE
  5
274
330
27B
100
AcDbEntity
  8
0
  6
ByBlock
 62
     7
370
    -2
380
     1
100
AcDbLine
 10
169.1260421826254
 20
319.1623507535294
 30
0.0
 11
169.1260421826254
 21
368.9633823296193
 31
0.0
  0
LINE
  5
275
330
27B
100
AcDbEntity
  8
0
  6
ByBlock
 62
     7
370
    -2
380
     1
100
AcDbLine
 10
332.6260341826254
 20
319.1623507535294
 30
0.0
 11
332.6260341826254
 21
368.9633823296193
 31
0.0
  0
LINE
  5
276
330
27B
100
AcDbEntity
  8
0
  6
ByBlock
 62
     7
370
    -2
380
     1
100
AcDbLine
 10
179.1260421826254
 20
367.7133823296193
 30
0.0
 11
322.6260341826254
 21
367.7133823296193
 31
0.0
  0
SOLID
  5
277
330
27B
100
AcDbEntity
  8
0
  6
ByBlock
 62
     7
380
     1
100
AcDbTrace
 10
169.1260421826254
 20
367.7133823296193
 30
0.0
 11
179.1260421826254
 21
366.0467156629526
 31
0.0
 12
179.1260421826254
 22
369.380048996286
 32
0.0
 13
179.1260421826254
 23
369.380048996286
 33
0.0
  0
SOLID
  5
278
330
27B
100
AcDbEntity
  8
0
  6
ByBlock
 62
     7
380
     1
100
AcDbTrace
 10
332.6260341826254
 20
367.7133823296193
 30
0.0
 11
322.6260341826254
 21
366.0467156629526
 31
0.0
 12
322.6260341826254
 22
369.380048996286
 32
0.0
 13
322.6260341826254
 23
369.380048996286
 33
0.0
  0
MTEXT
  5
279
330
27B
100
AcDbEntity
  8
0
  6
ByBlock
 62
     0
370
    -2
380
     1
100
AcDbMText
 10
250.8760381826254
 20
380.880048996286
 30
0.0
 40
14.0
 41
0.0
 71
     5
 72
     1
  1
\A1;163,5
 73
     1
 44
1.0
  0
ENDBLK
  5
2D9
330
27B
100
AcDbEntity
  8
0
100
AcDbBlockEnd
  0
BLOCK
  5
2DA
330
286
100
AcDbEntity
  8
0
100
AcDbBlockBegin
  2
*D8
 70
     1
 10
0.0
 20
0.0
 30
0.0
  3
*D8
  1

  0
POINT
  5
27D
330
286
100
AcDbEntity
  8
DEFPOINTS
  6
ByBlock
 62
     7
380
     1
100
AcDbPoint
 10
301.5470511221253
 20
340.2956553213962
 30
0.0
  0
POINT
  5
27E
330
286
100
AcDbEntity
  8
DEFPOINTS
  6
ByBlock
 62
     7
380
     1
100
AcDbPoint
 10
301.5470511221253
 20
162.7956853213962
 30
0.0
  0
LINE
  5
27F
330
286
100
AcDbEntity
  8
0
  6
ByBlock
 62
     7
370
    -2
380
     1
100
AcDbLine
 10
302.1720511221253
 20
340.2956553213962
 30
0.0
 11
374.9574955834955
 21
340.2956553213962
 31
0.0
  0
LINE
  5
280
330
286
100
AcDbEntity
  8
0
  6
ByBlock
 62
     7
370
    -2
380
     1
100
AcDbLine
 10
302.1720511221253
 20
162.7956853213962
 30
0.0
 11
374.9574955834955
 21
162.7956853213962
 31
0.0
  0
LINE
  5
281
330
286
100
AcDbEntity
  8
0
  6
ByBlock
 62
     7
370
    -2
380
     1
100
AcDbLine
 10
373.7074955834955
 20
330.2956553213962
 30
0.0
 11
373.7074955834955
 21
172.7956853213962
 31
0.0
  0
SOLID
  5
282
330
286
100
AcDbEntity
  8
0
  6
ByBlock
 62
     7
380
     1
100
AcDbTrace
 10
373.7074955834955
 20
340.2956553213962
 30
0.0
 11
372.0408289168288
 21
330.2956553213962
 31
0.0
 12
375.3741622501622
 22
330.2956553213962
 32
0.0
 13
375.3741622501622
 23
330.2956553213962
 33
0.0
  0
SOLID
  5
283
330
286
100
AcDbEntity
  8
0
  6
ByBlock
 62
     7
380
     1
100
AcDbTrace
 10
373.7074955834955
 20
162.7956853213962
 30
0.0
 11
372.0408289168288
 21
172.7956853213962
 31
0.0
 12
375.3741622501622
 22
172.7956853213962
 32
0.0
 13
375.3741622501622
 23
172.7956853213962
 33
0.0
  0
MTEXT
  5
284
330
286
100
AcDbEntity
  8
0
  6
ByBlock
 62
     0
370
    -2
380
     1
100
AcDbMText
 10
360.5408289168289
 20
258.9362175901907
 30
0.0
 40
14.0
 41
0.0
 71
     5
 72
     1
  1
\A1;177,5
 11
6.123031769111886E-17
 21
1.0
 31
0.0
 73
     1
 44
1.0
  0
ENDBLK
  5
2DB
330
286
100
AcDbEntity
  8
0
100
AcDbBlockEnd
  0
BLOCK
  5
2DC
330
293
100
AcDbEntity
  8
0
100
AcDbBlockBegin
  2
*D9
 70
     1
 10
0.0
 20
0.0
 30
0.0
  3
*D9
  1

  0
POINT
  5
288
330
293
100
AcDbEntity
  8
DEFPOINTS
  6
ByBlock
 62
     7
380
     1
100
AcDbPoint
 10
323.0427528155375
 20
351.2956553741039
 30
0.0
  0
POINT
  5
289
330
293
100
AcDbEntity
  8
DEFPOINTS
  6
ByBlock
 62
     7
380
     1
100
AcDbPoint
 10
323.0427528155375
 20
340.2956553741039
 30
0.0
  0
LINE
  5
28A
330
293
100
AcDbEntity
  8
0
  6
ByBlock
 62
     7
370
    -2
380
     1
100
AcDbLine
 10
323.6677528155375
 20
351.2956553741039
 30
0.0
 11
374.9574768511103
 21
351.2956553741039
 31
0.0
  0
LINE
  5
28B
330
293
100
AcDbEntity
  8
0
  6
ByBlock
 62
     7
370
    -2
380
     1
100
AcDbLine
 10
323.6677528155375
 20
340.2956553741039
 30
0.0
 11
374.9574768511103
 21
340.2956553741039
 31
0.0
  0
LINE
  5
28C
330
293
100
AcDbEntity
  8
0
  6
ByBlock
 62
     7
370
    -2
380
     1
100
AcDbLine
 10
373.7074768511103
 20
330.2956553741039
 30
0.0
 11
373.7074768511103
 21
320.2956553741039
 31
0.0
  0
LINE
  5
28D
330
293
100
AcDbEntity
  8
0
  6
ByBlock
 62
     7
370
    -2
380
     1
100
AcDbLine
 10
373.7074768511103
 20
361.2956553741039
 30
0.0
 11
373.7074768511103
 21
385.2956553741039
 31
0.0
  0
SOLID
  5
28E
330
293
100
AcDbEntity
  8
0
  6
ByBlock
 62
     7
380
     1
100
AcDbTrace
 10
373.7074768511103
 20
351.2956553741039
 30
0.0
 11
372.0408101844436
 21
361.2956553741039
 31
0.0
 12
375.374143517777
 22
361.2956553741039
 32
0.0
 13
375.374143517777
 23
361.2956553741039
 33
0.0
  0
SOLID
  5
28F
330
293
100
AcDbEntity
  8
0
  6
ByBlock
 62
     7
380
     1
100
AcDbTrace
 10
373.7074768511103
 20
340.2956553741039
 30
0.0
 11
372.0408101844436
 21
330.2956553741039
 31
0.0
 12
375.374143517777
 22
330.2956553741039
 32
0.0
 13
375.374143517777
 23
330.2956553741039
 33
0.0
  0
LINE
  5
290
330
293
100
AcDbEntity
  8
0
  6
ByBlock
 62
     7
370
    -2
380
     1
100
AcDbLine
 10
373.7074768511103
 20
351.2956553741039
 30
0.0
 11
373.7074768511103
 21
340.2956553741039
 31
0.0
  0
MTEXT
  5
291
330
293
100
AcDbEntity
  8
0
  6
ByBlock
 62
     0
370
    -2
380
     1
100
AcDbMText
 10
361.7074768511103
 20
373.2956553741039
 30
0.0
 40
14.0
 41
0.0
 71
     5
 72
     1
  1
\A1;11
 11
6.123031769111886E-17
 21
1.0
 31
0.0
 73
     1
 44
1.0
  0
ENDBLK
  5
2DD
330
293
100
AcDbEntity
  8
0
100
AcDbBlockEnd
  0
BLOCK
  5
2DE
330
2A0
100
AcDbEntity
  8
0
100
AcDbBlockBegin
  2
*D10
 70
     1
 10
0.0
 20
0.0
 30
0.0
  3
*D10
  1

  0
POINT
  5
295
330
2A0
100
AcDbEntity
  8
DEFPOINTS
  6
ByBlock
 62
     7
380
     1
100
AcDbPoint
 10
413.8742491826254
 20
336.1033036396366
 30
0.0
  0
POINT
  5
296
330
2A0
100
AcDbEntity
  8
DEFPOINTS
  6
ByBlock
 62
     7
380
     1
100
AcDbPoint
 10
417.8742491826254
 20
336.1033036396366
 30
0.0
  0
LINE
  5
297
330
2A0
100
AcDbEntity
  8
0
  6
ByBlock
 62
     7
370
    -2
380
     1
100
AcDbLine
 10
413.8742491826254
 20
336.7283036396366
 30
0.0
 11
413.8742491826254
 21
368.9633823296193
 31
0.0
  0
LINE
  5
298
330
2A0
100
AcDbEntity
  8
0
  6
ByBlock
 62
     7
370
    -2
380
     1
100
AcDbLine
 10
417.8742491826254
 20
336.7283036396366
 30
0.0
 11
417.8742491826254
 21
368.9633823296193
 31
0.0
  0
LINE
  5
299
330
2A0
100
AcDbEntity
  8
0
  6
ByBlock
 62
     7
370
    -2
380
     1
100
AcDbLine
 10
403.8742491826254
 20
367.7133823296193
 30
0.0
 11
393.8742491826254
 21
367.7133823296193
 31
0.0
  0
LINE
  5
29A
330
2A0
100
AcDbEntity
  8
0
  6
ByBlock
 62
     7
370
    -2
380
     1
100
AcDbLine
 10
427.8742491826254
 20
367.7133823296193
 30
0.0
 11
457.2075825159587
 21
367.7133823296193
 31
0.0
  0
SOLID
  5
29B
330
2A0
100
AcDbEntity
  8
0
  6
ByBlock
 62
     7
380
     1
100
AcDbTrace
 10
413.8742491826254
 20
367.7133823296193
 30
0.0
 11
403.8742491826254
 21
366.0467156629526
 31
0.0
 12
403.8742491826254
 22
369.380048996286
 32
0.0
 13
403.8742491826254
 23
369.380048996286
 33
0.0
  0
SOLID
  5
29C
330
2A0
100
AcDbEntity
  8
0
  6
ByBlock
 62
     7
380
     1
100
AcDbTrace
 10
417.8742491826254
 20
367.7133823296193
 30
0.0
 11
427.8742491826254
 21
366.0467156629526
 31
0.0
 12
427.8742491826254
 22
369.380048996286
 32
0.0
 13
427.8742491826254
 23
369.380048996286
 33
0.0
  0
LINE
  5
29D
330
2A0
100
AcDbEntity
  8
0
  6
ByBlock
 62
     7
370
    -2
380
     1
100
AcDbLine
 10
413.8742491826254
 20
367.7133823296193
 30
0.0
 11
417.8742491826254
 21
367.7133823296193
 31
0.0
  0
MTEXT
  5
29E
330
2A0
100
AcDbEntity
  8
0
  6
ByBlock
 62
     0
370
    -2
380
     1
100
AcDbMText
 10
447.5409158492921
 20
379.7133823296193
 30
0.0
 40
14.0
 41
0.0
 71
     5
 72
     1
  1
\A1;4
 73
     1
 44
1.0
  0
ENDBLK
  5
2DF
330
2A0
100
AcDbEntity
  8
0
100
AcDbBlockEnd
  0
BLOCK
  5
2E0
330
2AB
100
AcDbEntity
  8
0
100
AcDbBlockBegin
  2
*D11
 70
     1
 10
0.0
 20
0.0
 30
0.0
  3
*D11
  1

  0
POINT
  5
2A2
330
2AB
100
AcDbEntity
  8
DEFPOINTS
  6
ByBlock
 62
     7
380
     1
100
AcDbPoint
 10
301.5470511221253
 20
340.2956553213962
 30
0.0
  0
POINT
  5
2A3
330
2AB
100
AcDbEntity
  8
DEFPOINTS
  6
ByBlock
 62
     7
380
     1
100
AcDbPoint
 10
301.5470511221253
 20
162.7956853213962
 30
0.0
  0
LINE
  5
2A4
330
2AB
100
AcDbEntity
  8
0
  6
ByBlock
 62
     7
370
    -2
380
     1
100
AcDbLine
 10
302.1720511221253
 20
340.2956553213962
 30
0.0
 11
374.9574955834955
 21
340.2956553213962
 31
0.0
  0
LINE
  5
2A5
330
2AB
100
AcDbEntity
  8
0
  6
ByBlock
 62
     7
370
    -2
380
     1
100
AcDbLine
 10
302.1720511221253
 20
162.7956853213962
 30
0.0
 11
374.9574955834955
 21
162.7956853213962
 31
0.0
  0
LINE
  5
2A6
330
2AB
100
AcDbEntity
  8
0
  6
ByBlock
 62
     7
370
    -2
380
     1
100
AcDbLine
 10
373.7074955834955
 20
330.2956553213962
 30
0.0
 11
373.7074955834955
 21
172.7956853213962
 31
0.0
  0
SOLID
  5
2A7
330
2AB
100
AcDbEntity
  8
0
  6
ByBlock
 62
     7
380
     1
100
AcDbTrace
 10
373.7074955834955
 20
340.2956553213962
 30
0.0
 11
372.0408289168288
 21
330.2956553213962
 31
0.0
 12
375.3741622501622
 22
330.2956553213962
 32
0.0
 13
375.3741622501622
 23
330.2956553213962
 33
0.0
  0
SOLID
  5
2A8
330
2AB
100
AcDbEntity
  8
0
  6
ByBlock
 62
     7
380
     1
100
AcDbTrace
 10
373.7074955834955
 20
162.7956853213962
 30
0.0
 11
372.0408289168288
 21
172.7956853213962
 31
0.0
 12
375.3741622501622
 22
172.7956853213962
 32
0.0
 13
375.3741622501622
 23
172.7956853213962
 33
0.0
  0
MTEXT
  5
2A9
330
2AB
100
AcDbEntity
  8
0
  6
ByBlock
 62
     0
370
    -2
380
     1
100
AcDbMText
 10
361.5408289168289
 20
258.9362175901907
 30
0.0
 40
14.0
 41
0.0
 71
     5
 72
     1
  1
\A1;177,5
 11
6.123031769111886E-17
 21
1.0
 31
0.0
 73
     1
 44
1.0
  0
ENDBLK
  5
2E1
330
2AB
100
AcDbEntity
  8
0
100
AcDbBlockEnd
  0
BLOCK
  5
2E2
330
2B6
100
AcDbEntity
  8
0
100
AcDbBlockBegin
  2
*D12
 70
     1
 10
0.0
 20
0.0
 30
0.0
  3
*D12
  1

  0
POINT
  5
2AD
330
2B6
100
AcDbEntity
  8
DEFPOINTS
  6
ByBlock
 62
     7
380
     1
100
AcDbPoint
 10
301.5470511221253
 20
340.2956553213962
 30
0.0
  0
POINT
  5
2AE
330
2B6
100
AcDbEntity
  8
DEFPOINTS
  6
ByBlock
 62
     7
380
     1
100
AcDbPoint
 10
301.5470511221253
 20
162.7956853213962
 30
0.0
  0
LINE
  5
2AF
330
2B6
100
AcDbEntity
  8
0
  6
ByBlock
 62
     7
370
    -2
380
     1
100
AcDbLine
 10
302.1720511221253
 20
340.2956553213962
 30
0.0
 11
374.9574955834955
 21
340.2956553213962
 31
0.0
  0
LINE
  5
2B0
330
2B6
100
AcDbEntity
  8
0
  6
ByBlock
 62
     7
370
    -2
380
     1
100
AcDbLine
 10
302.1720511221253
 20
162.7956853213962
 30
0.0
 11
374.9574955834955
 21
162.7956853213962
 31
0.0
  0
LINE
  5
2B1
330
2B6
100
AcDbEntity
  8
0
  6
ByBlock
 62
     7
370
    -2
380
     1
100
AcDbLine
 10
373.7074955834955
 20
330.2956553213962
 30
0.0
 11
373.7074955834955
 21
172.7956853213962
 31
0.0
  0
SOLID
  5
2B2
330
2B6
100
AcDbEntity
  8
0
  6
ByBlock
 62
     7
380
     1
100
AcDbTrace
 10
373.7074955834955
 20
340.2956553213962
 30
0.0
 11
372.0408289168288
 21
330.2956553213962
 31
0.0
 12
375.3741622501622
 22
330.2956553213962
 32
0.0
 13
375.3741622501622
 23
330.2956553213962
 33
0.0
  0
SOLID
  5
2B3
330
2B6
100
AcDbEntity
  8
0
  6
ByBlock
 62
     7
380
     1
100
AcDbTrace
 10
373.7074955834955
 20
162.7956853213962
 30
0.0
 11
372.0408289168288
 21
172.7956853213962
 31
0.0
 12
375.3741622501622
 22
172.7956853213962
 32
0.0
 13
375.3741622501622
 23
172.7956853213962
 33
0.0
  0
MTEXT
  5
2B4
330
2B6
100
AcDbEntity
  8
0
  6
ByBlock
 62
     0
370
    -2
380
     1
100
AcDbMText
 10
360.5408289168289
 20
258.9362175901907
 30
0.0
 40
14.0
 41
0.0
 71
     5
 72
     1
  1
\A1;177,5
 11
6.123031769111886E-17
 21
1.0
 31
0.0
 73
     1
 44
1.0
  0
ENDBLK
  5
2E3
330
2B6
100
AcDbEntity
  8
0
100
AcDbBlockEnd
  0
BLOCK
  5
2E4
330
2C3
100
AcDbEntity
  8
0
100
AcDbBlockBegin
  2
*D13
 70
     1
 10
0.0
 20
0.0
 30
0.0
  3
*D13
  1

  0
POINT
  5
2B8
330
2C3
100
AcDbEntity
  8
DEFPOINTS
  6
ByBlock
 62
     7
380
     1
100
AcDbPoint
 10
323.0427528155375
 20
351.2956553741039
 30
0.0
  0
POINT
  5
2B9
330
2C3
100
AcDbEntity
  8
DEFPOINTS
  6
ByBlock
 62
     7
380
     1
100
AcDbPoint
 10
323.0427528155375
 20
340.2956553741039
 30
0.0
  0
LINE
  5
2BA
330
2C3
100
AcDbEntity
  8
0
  6
ByBlock
 62
     7
370
    -2
380
     1
100
AcDbLine
 10
323.6677528155375
 20
351.2956553741039
 30
0.0
 11
374.9574768511103
 21
351.2956553741039
 31
0.0
  0
LINE
  5
2BB
330
2C3
100
AcDbEntity
  8
0
  6
ByBlock
 62
     7
370
    -2
380
     1
100
AcDbLine
 10
323.6677528155375
 20
340.2956553741039
 30
0.0
 11
374.9574768511103
 21
340.2956553741039
 31
0.0
  0
LINE
  5
2BC
330
2C3
100
AcDbEntity
  8
0
  6
ByBlock
 62
     7
370
    -2
380
     1
100
AcDbLine
 10
373.7074768511103
 20
330.2956553741039
 30
0.0
 11
373.7074768511103
 21
320.2956553741039
 31
0.0
  0
LINE
  5
2BD
330
2C3
100
AcDbEntity
  8
0
  6
ByBlock
 62
     7
370
    -2
380
     1
100
AcDbLine
 10
373.7074768511103
 20
361.2956553741039
 30
0.0
 11
373.7074768511103
 21
385.2956553741039
 31
0.0
  0
SOLID
  5
2BE
330
2C3
100
AcDbEntity
  8
0
  6
ByBlock
 62
     7
380
     1
100
AcDbTrace
 10
373.7074768511103
 20
351.2956553741039
 30
0.0
 11
372.0408101844436
 21
361.2956553741039
 31
0.0
 12
375.374143517777
 22
361.2956553741039
 32
0.0
 13
375.374143517777
 23
361.2956553741039
 33
0.0
  0
SOLID
  5
2BF
330
2C3
100
AcDbEntity
  8
0
  6
ByBlock
 62
     7
380
     1
100
AcDbTrace
 10
373.7074768511103
 20
340.2956553741039
 30
0.0
 11
372.0408101844436
 21
330.2956553741039
 31
0.0
 12
375.374143517777
 22
330.2956553741039
 32
0.0
 13
375.374143517777
 23
330.2956553741039
 33
0.0
  0
LINE
  5
2C0
330
2C3
100
AcDbEntity
  8
0
  6
ByBlock
 62
     7
370
    -2
380
     1
100
AcDbLine
 10
373.7074768511103
 20
351.2956553741039
 30
0.0
 11
373.7074768511103
 21
340.2956553741039
 31
0.0
  0
MTEXT
  5
2C1
330
2C3
100
AcDbEntity
  8
0
  6
ByBlock
 62
     0
370
    -2
380
     1
100
AcDbMText
 10
361.7074768511103
 20
373.2956553741039
 30
0.0
 40
14.0
 41
0.0
 71
     5
 72
     1
  1
\A1;11
 11
6.123031769111886E-17
 21
1.0
 31
0.0
 73
     1
 44
1.0
  0
ENDBLK
  5
2E5
330
2C3
100
AcDbEntity
  8
0
100
AcDbBlockEnd
  0
ENDSEC
  0
SECTION
  2
ENTITIES
  0
POINT
  5
FB
330
1F
100
AcDbEntity
  8
0
 62
     7
370
    60
100
AcDbPoint
 10
190.8860441826254
 20
126.1778612618026
 30
0.0
  0
POINT
  5
FC
330
1F
100
AcDbEntity
  8
0
 62
     7
370
    60
100
AcDbPoint
 10
347.3760341826254
 20
351.2982532618026
 30
0.0
  0
POINT
  5
FD
330
1F
100
AcDbEntity
  8
0
 62
     7
370
    25
100
AcDbPoint
 10
308.9260371826255
 20
84.79987026180258
 30
0.0
  0
POINT
  5
FE
330
1F
100
AcDbEntity
  8
0
 62
     7
370
    25
100
AcDbPoint
 10
266.6260341826254
 20
79.78571026180258
 30
0.0
  0
POINT
  5
FF
330
1F
100
AcDbEntity
  8
0
 62
     7
370
    25
100
AcDbPoint
 10
266.6260341826254
 20
84.78571026180258
 30
0.0
  0
POINT
  5
100
330
1F
100
AcDbEntity
  8
0
 62
     7
370
    25
100
AcDbPoint
 10
242.6260341826254
 20
82.28571026180258
 30
0.0
  0
POINT
  5
101
330
1F
100
AcDbEntity
  8
0
 62
     7
370
    25
100
AcDbPoint
 10
297.6260341826254
 20
82.28571026180258
 30
0.0
  0
POINT
  5
102
330
1F
100
AcDbEntity
  8
0
 62
     7
370
    25
100
AcDbPoint
 10
304.4260371826255
 20
84.76068626180258
 30
0.0
  0
POINT
  5
103
330
1F
100
AcDbEntity
  8
0
 62
     7
370
    25
100
AcDbPoint
 10
304.4260371826255
 20
79.78571026180258
 30
0.0
  0
POINT
  5
104
330
1F
100
AcDbEntity
  8
0
 62
     7
370
    25
100
AcDbPoint
 10
269.1260341826254
 20
84.78571026180258
 30
0.0
  0
POINT
  5
105
330
1F
100
AcDbEntity
  8
0
 62
     7
370
    25
100
AcDbPoint
 10
264.1260341826254
 20
84.78571026180258
 30
0.0
  0
LINE
  5
106
330
1F
100
AcDbEntity
  8
0
  6
DASHDOT
 62
     7
370
    25
100
AcDbLine
 10
250.8760341826254
 20
56.29828326180258
 30
0.0
 11
250.8760341826254
 21
351.2982532618026
 31
0.0
  0
LINE
  5
107
330
1F
100
AcDbEntity
  8
0
 62
     7
370
    60
100
AcDbLine
 10
153.6260381826254
 20
56.29828326180258
 30
0.0
 11
348.1260341826254
 21
56.29828326180258
 31
0.0
  0
LINE
  5
108
330
1F
100
AcDbEntity
  8
0
 62
     7
370
    60
100
AcDbLine
 10
153.6260381826254
 20
351.2982532618026
 30
0.0
 11
348.1260341826254
 21
351.2982532618026
 31
0.0
  0
LINE
  5
109
330
1F
100
AcDbEntity
  8
0
 62
     7
370
    60
100
AcDbLine
 10
350.1260341826254
 20
58.29828326180258
 30
0.0
 11
350.1260341826254
 21
349.2982532618026
 31
0.0
  0
LINE
  5
10A
330
1F
100
AcDbEntity
  8
0
 62
     7
370
    60
100
AcDbLine
 10
151.6260381826254
 20
58.29828326180258
 30
0.0
 11
151.6260381826254
 21
349.2982532618026
 31
0.0
  0
LINE
  5
10B
330
1F
100
AcDbEntity
  8
0
 62
     7
370
    60
100
AcDbLine
 10
169.1260421826254
 20
162.7982832618026
 30
0.0
 11
332.6260341826254
 21
162.7982832618026
 31
0.0
  0
LINE
  5
10C
330
1F
100
AcDbEntity
  8
0
 62
     7
370
    60
100
AcDbLine
 10
169.1260421826254
 20
340.2982532618026
 30
0.0
 11
332.6260341826254
 21
340.2982532618026
 31
0.0
  0
LINE
  5
10D
330
1F
100
AcDbEntity
  8
0
 62
     7
370
    60
100
AcDbLine
 10
332.6260341826254
 20
162.7982832618026
 30
0.0
 11
332.6260341826254
 21
340.2982532618026
 31
0.0
  0
LINE
  5
10E
330
1F
100
AcDbEntity
  8
0
 62
     7
370
    60
100
AcDbLine
 10
169.1260421826254
 20
162.7982832618026
 30
0.0
 11
169.1260421826254
 21
340.2982532618026
 31
0.0
  0
LINE
  5
10F
330
1F
100
AcDbEntity
  8
0
 62
     7
 48
0.147
370
    60
100
AcDbLine
 10
203.6260421826254
 20
113.4378712618026
 30
0.0
 11
209.5060391826254
 21
113.4378712618026
 31
0.0
  0
LINE
  5
110
330
1F
100
AcDbEntity
  8
0
 62
     7
 48
0.147
370
    60
100
AcDbLine
 10
203.6260421826254
 20
138.9179122618026
 30
0.0
 11
209.5060391826254
 21
138.9179122618026
 31
0.0
  0
ARC
  5
111
330
1F
100
AcDbEntity
  8
0
 62
     7
370
    60
100
AcDbCircle
 10
203.6260421826254
 20
126.1778612618026
 30
0.0
 40
12.73999999999998
100
AcDbArc
 50
90.00000300000006
 51
269.9999970000001
  0
LINE
  5
112
330
1F
100
AcDbEntity
  8
0
 62
     7
 48
0.265999
370
    60
100
AcDbLine
 10
200.6860391826254
 20
120.8579152618026
 30
0.0
 11
200.6860391826254
 21
131.4978682618026
 31
0.0
  0
LINE
  5
113
330
1F
100
AcDbEntity
  8
0
 62
     7
 48
0.209999
370
    60
100
AcDbLine
 10
202.9260371826254
 20
120.8579152618026
 30
0.0
 11
202.9260371826254
 21
129.2578782618026
 31
0.0
  0
LINE
  5
114
330
1F
100
AcDbEntity
  8
0
 62
     7
 48
0.384999
370
    60
100
AcDbLine
 10
209.9260371826254
 20
113.8579152618026
 30
0.0
 11
209.9260371826254
 21
129.2578782618026
 31
0.0
  0
LINE
  5
115
330
1F
100
AcDbEntity
  8
0
 62
     7
 48
0.035
370
    60
100
AcDbLine
 10
201.1060371826254
 20
120.4378712618026
 30
0.0
 11
202.5060391826254
 21
120.4378712618026
 31
0.0
  0
LINE
  5
116
330
1F
100
AcDbEntity
  8
0
 62
     7
 48
0.21
370
    60
100
AcDbLine
 10
201.1060371826254
 20
131.9179122618026
 30
0.0
 11
209.5060391826254
 21
131.9179122618026
 31
0.0
  0
LINE
  5
117
330
1F
100
AcDbEntity
  8
0
 62
     7
 48
0.154
370
    60
100
AcDbLine
 10
203.3460431826254
 20
129.6778612618026
 30
0.0
 11
209.5060391826254
 21
129.6778612618026
 31
0.0
  0
ARC
  5
118
330
1F
100
AcDbEntity
  8
0
 62
     7
370
    60
100
AcDbCircle
 10
209.5060391826254
 20
138.4978682618026
 30
0.0
 40
0.4199999999999875
100
AcDbArc
 50
0.0
 51
90.000003
  0
ARC
  5
119
330
1F
100
AcDbEntity
  8
0
 62
     7
370
    60
100
AcDbCircle
 10
209.5060391826254
 20
113.8579152618026
 30
0.0
 40
0.4200000000000023
100
AcDbArc
 50
269.9999969999952
 51
359.9999999999952
  0
ARC
  5
11A
330
1F
100
AcDbEntity
  8
0
 62
     7
370
    60
100
AcDbCircle
 10
201.1060371826254
 20
131.4978682618026
 30
0.0
 40
0.4200000000000165
100
AcDbArc
 50
90.00000299999708
 51
180.0000089999971
  0
ARC
  5
11B
330
1F
100
AcDbEntity
  8
0
 62
     7
370
    60
100
AcDbCircle
 10
201.1060371826254
 20
120.8579152618026
 30
0.0
 40
0.4199999999999927
100
AcDbArc
 50
180.0000090000009
 51
269.9999970000009
  0
ARC
  5
11C
330
1F
100
AcDbEntity
  8
0
 62
     7
370
    60
100
AcDbCircle
 10
202.5060391826254
 20
120.8579152618026
 30
0.0
 40
0.4200000000000023
100
AcDbArc
 50
269.9999969999952
 51
359.9999999999952
  0
ARC
  5
11D
330
1F
100
AcDbEntity
  8
0
 62
     7
370
    60
100
AcDbCircle
 10
203.3460431826254
 20
129.2578782618026
 30
0.0
 40
0.4199999999999596
100
AcDbArc
 50
90.00000299999708
 51
180.0000089999971
  0
LINE
  5
11E
330
1F
100
AcDbEntity
  8
0
 62
     7
 48
0.153999
370
    60
100
AcDbLine
 10
209.9260371826254
 20
132.3378952618026
 30
0.0
 11
209.9260371826254
 21
138.4978682618026
 31
0.0
  0
ARC
  5
11F
330
1F
100
AcDbEntity
  8
0
 62
     7
370
    60
100
AcDbCircle
 10
209.5060391826254
 20
132.3378952618026
 30
0.0
 40
0.4200000000000165
100
AcDbArc
 50
269.9999969999952
 51
359.9999999999952
  0
ARC
  5
120
330
1F
100
AcDbEntity
  8
0
 62
     7
370
    60
100
AcDbCircle
 10
209.5060391826254
 20
129.2578782618026
 30
0.0
 40
0.4199999999999875
100
AcDbArc
 50
0.0
 51
90.000003
  0
LINE
  5
121
330
1F
100
AcDbEntity
  8
0
 62
     7
370
    60
100
AcDbLine
 10
212.1660421826254
 20
113.8579152618026
 30
0.0
 11
212.1660421826254
 21
138.4978682618026
 31
0.0
  0
LINE
  5
122
330
1F
100
AcDbEntity
  8
0
 62
     7
 48
0.153999
370
    60
100
AcDbLine
 10
222.6660421826254
 20
132.3378952618026
 30
0.0
 11
222.6660421826254
 21
138.4978682618026
 31
0.0
  0
LINE
  5
123
330
1F
100
AcDbEntity
  8
0
 62
     7
 48
0.153999
370
    60
100
AcDbLine
 10
231.9060331826254
 20
113.8579152618026
 30
0.0
 11
231.9060331826254
 21
120.0178882618026
 31
0.0
  0
LINE
  5
124
330
1F
100
AcDbEntity
  8
0
 62
     7
 48
0.034999
370
    60
100
AcDbLine
 10
219.1660421826254
 20
120.8579152618026
 30
0.0
 11
219.1660421826254
 21
122.2578782618026
 31
0.0
  0
LINE
  5
125
330
1F
100
AcDbEntity
  8
0
 62
     7
 48
0.4725
370
    60
100
AcDbLine
 10
212.5860411826254
 20
113.4378712618026
 30
0.0
 11
231.4860351826254
 21
113.4378712618026
 31
0.0
  0
LINE
  5
126
330
1F
100
AcDbEntity
  8
0
 62
     7
 48
0.2415
370
    60
100
AcDbLine
 10
212.5860411826254
 20
138.9179122618026
 30
0.0
 11
222.2460371826254
 21
138.9179122618026
 31
0.0
  0
LINE
  5
127
330
1F
100
AcDbEntity
  8
0
 62
     7
 48
0.0665
370
    60
100
AcDbLine
 10
219.5860411826254
 20
131.9179122618026
 30
0.0
 11
222.2460371826254
 21
131.9179122618026
 31
0.0
  0
LINE
  5
128
330
1F
100
AcDbEntity
  8
0
 62
     7
 48
0.2975
370
    60
100
AcDbLine
 10
219.5860411826254
 20
129.6778612618026
 30
0.0
 11
231.4860351826254
 21
129.6778612618026
 31
0.0
  0
LINE
  5
129
330
1F
100
AcDbEntity
  8
0
 62
     7
 48
0.2975
370
    60
100
AcDbLine
 10
219.5860411826254
 20
122.6778612618026
 30
0.0
 11
231.4860351826254
 21
122.6778612618026
 31
0.0
  0
LINE
  5
12A
330
1F
100
AcDbEntity
  8
0
 62
     7
 48
0.2975
370
    60
100
AcDbLine
 10
219.5860411826254
 20
120.4378712618026
 30
0.0
 11
231.4860351826254
 21
120.4378712618026
 31
0.0
  0
ARC
  5
12B
330
1F
100
AcDbEntity
  8
0
 62
     7
370
    60
100
AcDbCircle
 10
231.4860351826254
 20
113.8579152618026
 30
0.0
 40
0.4200000000000023
100
AcDbArc
 50
269.9999970000029
 51
0.0000000000029007
  0
ARC
  5
12C
330
1F
100
AcDbEntity
  8
0
 62
     7
370
    60
100
AcDbCircle
 10
231.4860351826254
 20
120.0178882618026
 30
0.0
 40
0.4200000000000159
100
AcDbArc
 50
0.0
 51
90.000003
  0
ARC
  5
12D
330
1F
100
AcDbEntity
  8
0
 62
     7
370
    60
100
AcDbCircle
 10
219.5860411826254
 20
120.8579152618026
 30
0.0
 40
0.4200000000000211
100
AcDbArc
 50
180.0000090000009
 51
269.9999970000009
  0
ARC
  5
12E
330
1F
100
AcDbEntity
  8
0
 62
     7
370
    60
100
AcDbCircle
 10
222.2460371826254
 20
132.3378952618026
 30
0.0
 40
0.4200000000000165
100
AcDbArc
 50
269.999996999999
 51
359.999999999999
  0
ARC
  5
12F
330
1F
100
AcDbEntity
  8
0
 62
     7
370
    60
100
AcDbCircle
 10
219.5860411826254
 20
131.4978682618026
 30
0.0
 40
0.4200000000000165
100
AcDbArc
 50
90.00000300000096
 51
180.0000090000009
  0
LINE
  5
130
330
1F
100
AcDbEntity
  8
0
 62
     7
 48
0.034999
370
    60
100
AcDbLine
 10
219.1660421826254
 20
130.0979052618026
 30
0.0
 11
219.1660421826254
 21
131.4978682618026
 31
0.0
  0
LINE
  5
131
330
1F
100
AcDbEntity
  8
0
 62
     7
 48
0.153999
370
    60
100
AcDbLine
 10
231.9060331826254
 20
123.0979052618026
 30
0.0
 11
231.9060331826254
 21
129.2578782618026
 31
0.0
  0
ARC
  5
132
330
1F
100
AcDbEntity
  8
0
 62
     7
370
    60
100
AcDbCircle
 10
231.4860351826254
 20
129.2578782618026
 30
0.0
 40
0.4200000000000159
100
AcDbArc
 50
0.0
 51
90.000003
  0
ARC
  5
133
330
1F
100
AcDbEntity
  8
0
 62
     7
370
    60
100
AcDbCircle
 10
231.4860351826254
 20
123.0979052618026
 30
0.0
 40
0.4200000000000023
100
AcDbArc
 50
269.9999970000029
 51
0.0000000000029007
  0
ARC
  5
134
330
1F
100
AcDbEntity
  8
0
 62
     7
370
    60
100
AcDbCircle
 10
219.5860411826254
 20
122.2578782618026
 30
0.0
 40
0.4200000000000023
100
AcDbArc
 50
90.00000300000096
 51
180.0000090000009
  0
ARC
  5
135
330
1F
100
AcDbEntity
  8
0
 62
     7
370
    60
100
AcDbCircle
 10
219.5860411826254
 20
130.0979052618026
 30
0.0
 40
0.4200000000000211
100
AcDbArc
 50
180.000008999999
 51
269.9999969999989
  0
LINE
  5
136
330
1F
100
AcDbEntity
  8
0
 62
     7
 48
0.153999
370
    60
100
AcDbLine
 10
224.9060401826254
 20
132.3378952618026
 30
0.0
 11
224.9060401826254
 21
138.4978682618026
 31
0.0
  0
LINE
  5
137
330
1F
100
AcDbEntity
  8
0
 62
     7
 48
0.17893
370
    60
100
AcDbLine
 10
225.3260381826254
 20
131.9179122618026
 30
0.0
 11
232.4832421826254
 21
131.9179122618026
 31
0.0
  0
LINE
  5
138
330
1F
100
AcDbEntity
  8
0
 62
     7
 48
0.317172
370
    60
100
AcDbLine
 10
225.3260381826254
 20
138.9179122618026
 30
0.0
 11
238.0129051826254
 21
138.9179122618026
 31
0.0
  0
ARC
  5
139
330
1F
100
AcDbEntity
  8
0
 62
     7
370
    60
100
AcDbCircle
 10
225.3260381826254
 20
138.4978682618026
 30
0.0
 40
0.4200000000000165
100
AcDbArc
 50
90.00000300000484
 51
180.0000090000048
  0
LINE
  5
13A
330
1F
100
AcDbEntity
  8
0
 62
     7
 48
0.457931
370
    60
100
AcDbLine
 10
232.8921321826254
 20
131.5939382618026
 30
0.0
 11
237.0799521826254
 21
113.7618452618026
 31
0.0
  0
ARC
  5
13B
330
1F
100
AcDbEntity
  8
0
 62
     7
370
    60
100
AcDbCircle
 10
232.4832421826254
 20
131.4978682618026
 30
0.0
 40
0.4200000000000099
100
AcDbArc
 50
13.21632400000016
 51
90.00000300000018
  0
ARC
  5
13C
330
1F
100
AcDbEntity
  8
0
 62
     7
370
    60
100
AcDbCircle
 10
237.4888271826254
 20
113.8579152618026
 30
0.0
 40
0.4200000000000038
100
AcDbArc
 50
193.2163429999994
 51
269.9999969999993
  0
LINE
  5
13D
330
1F
100
AcDbEntity
  8
0
 62
     7
 48
0.25909
370
    60
100
AcDbLine
 10
244.2235681826254
 20
113.7755172618026
 30
0.0
 11
246.2560391826254
 21
123.9378712618026
 31
0.0
  0
ARC
  5
13E
330
1F
100
AcDbEntity
  8
0
 62
     7
370
    60
100
AcDbCircle
 10
243.8117181826254
 20
113.8579152618026
 30
0.0
 40
0.4200000000000023
100
AcDbArc
 50
269.999996999999
 51
348.690063999999
  0
LINE
  5
13F
330
1F
100
AcDbEntity
  8
0
 62
     7
 48
0.268438
370
    60
100
AcDbLine
 10
238.4218711826254
 20
138.5935102618026
 30
0.0
 11
240.8660391826254
 21
128.1378832618026
 31
0.0
  0
LINE
  5
140
330
1F
100
AcDbEntity
  8
0
 62
     7
 48
0.082067
370
    60
100
AcDbLine
 10
246.2560391826254
 20
138.9179122618026
 30
0.0
 11
249.5387231826254
 21
138.9179122618026
 31
0.0
  0
ARC
  5
141
330
1F
100
AcDbEntity
  8
0
 62
     7
370
    60
100
AcDbCircle
 10
249.5387231826254
 20
138.4978682618026
 30
0.0
 40
0.420000000000003
100
AcDbArc
 50
9.22082499999816
 51
90.00000299999817
  0
LINE
  5
142
330
1F
100
AcDbEntity
  8
0
 62
     7
 48
0.264095
370
    60
100
AcDbLine
 10
249.9532891826254
 20
138.5651902618026
 30
0.0
 11
251.6460381826254
 21
128.1378832618026
 31
0.0
  0
LINE
  5
143
330
1F
100
AcDbEntity
  8
0
 62
     7
 48
0.265199
370
    60
100
AcDbLine
 10
251.6460381826254
 20
128.1378832618026
 30
0.0
 11
254.0607111826254
 21
138.4673512618026
 31
0.0
  0
LINE
  5
144
330
1F
100
AcDbEntity
  8
0
 62
     7
 48
0.313932
370
    60
100
AcDbLine
 10
254.6287351826254
 20
138.9179122618026
 30
0.0
 11
267.1860311826254
 21
138.9179122618026
 31
0.0
  0
ARC
  5
145
330
1F
100
AcDbEntity
  8
0
 62
     7
370
    60
100
AcDbCircle
 10
267.1860311826254
 20
138.4978682618026
 30
0.0
 40
0.4200000000000159
100
AcDbArc
 50
0.0
 51
90.000003
  0
LINE
  5
146
330
1F
100
AcDbEntity
  8
0
 62
     7
 48
0.153999
370
    60
100
AcDbLine
 10
267.6060451826254
 20
132.3378952618026
 30
0.0
 11
267.6060451826254
 21
138.4978682618026
 31
0.0
  0
ARC
  5
147
330
1F
100
AcDbEntity
  8
0
 62
     7
370
    60
100
AcDbCircle
 10
267.1860311826254
 20
132.3378952618026
 30
0.0
 40
0.4200000000000165
100
AcDbArc
 50
269.9999969999952
 51
359.9999999999952
  0
LINE
  5
148
330
1F
100
AcDbEntity
  8
0
 62
     7
 48
0.17893
370
    60
100
AcDbLine
 10
260.0288351826254
 20
131.9179122618026
 30
0.0
 11
267.1860311826254
 21
131.9179122618026
 31
0.0
  0
ARC
  5
149
330
1F
100
AcDbEntity
  8
0
 62
     7
370
    60
100
AcDbCircle
 10
260.0288351826254
 20
131.4978682618026
 30
0.0
 40
0.4200000000000165
100
AcDbArc
 50
90.00000300000484
 51
166.7836710000048
  0
LINE
  5
14A
330
1F
100
AcDbEntity
  8
0
 62
     7
 48
0.457931
370
    60
100
AcDbLine
 10
255.4321251826254
 20
113.7618452618026
 30
0.0
 11
259.6199611826254
 21
131.5939382618026
 31
0.0
  0
ARC
  5
14B
330
1F
100
AcDbEntity
  8
0
 62
     7
370
    60
100
AcDbCircle
 10
255.0232511826254
 20
113.8579152618026
 30
0.0
 40
0.4200000000000023
100
AcDbArc
 50
269.999996999999
 51
346.7836749999991
  0
LINE
  5
14C
330
1F
100
AcDbEntity
  8
0
 62
     7
 48
0.158072
370
    60
100
AcDbLine
 10
248.7003591826254
 20
113.4378712618026
 30
0.0
 11
255.0232511826254
 21
113.4378712618026
 31
0.0
  0
ARC
  5
14D
330
1F
100
AcDbEntity
  8
0
 62
     7
370
    60
100
AcDbCircle
 10
248.7003591826254
 20
113.8579152618026
 30
0.0
 40
0.4200000000000144
100
AcDbArc
 50
191.309941
 51
269.999997
  0
LINE
  5
14E
330
1F
100
AcDbEntity
  8
0
 62
     7
 48
0.25909
370
    60
100
AcDbLine
 10
246.2560391826254
 20
123.9378712618026
 30
0.0
 11
248.2885101826254
 21
113.7755172618026
 31
0.0
  0
LINE
  5
14F
330
1F
100
AcDbEntity
  8
0
 62
     7
 48
0.384999
370
    60
100
AcDbLine
 10
267.6060451826254
 20
113.8579152618026
 30
0.0
 11
267.6060451826254
 21
129.2578782618026
 31
0.0
  0
LINE
  5
150
330
1F
100
AcDbEntity
  8
0
 62
     7
 48
0.154
370
    60
100
AcDbLine
 10
261.0260431826254
 20
129.6778612618026
 30
0.0
 11
267.1860311826254
 21
129.6778612618026
 31
0.0
  0
LINE
  5
151
330
1F
100
AcDbEntity
  8
0
 62
     7
 48
0.384999
370
    60
100
AcDbLine
 10
260.6060451826254
 20
113.8579152618026
 30
0.0
 11
260.6060451826254
 21
129.2578782618026
 31
0.0
  0
LINE
  5
152
330
1F
100
AcDbEntity
  8
0
 62
     7
 48
0.154
370
    60
100
AcDbLine
 10
261.0260431826254
 20
113.4378712618026
 30
0.0
 11
267.1860311826254
 21
113.4378712618026
 31
0.0
  0
ARC
  5
153
330
1F
100
AcDbEntity
  8
0
 62
     7
370
    60
100
AcDbCircle
 10
261.0260431826254
 20
129.2578782618026
 30
0.0
 40
0.4199999999999596
100
AcDbArc
 50
90.00000300000484
 51
180.0000090000048
  0
ARC
  5
154
330
1F
100
AcDbEntity
  8
0
 62
     7
370
    60
100
AcDbCircle
 10
261.0260431826254
 20
113.8579152618026
 30
0.0
 40
0.4200000000000211
100
AcDbArc
 50
180.0000090000009
 51
269.9999970000009
  0
ARC
  5
155
330
1F
100
AcDbEntity
  8
0
 62
     7
370
    60
100
AcDbCircle
 10
267.1860311826254
 20
113.8579152618026
 30
0.0
 40
0.4200000000000023
100
AcDbArc
 50
269.9999969999952
 51
359.9999999999952
  0
ARC
  5
156
330
1F
100
AcDbEntity
  8
0
 62
     7
370
    60
100
AcDbCircle
 10
267.1860311826254
 20
129.2578782618026
 30
0.0
 40
0.4200000000000159
100
AcDbArc
 50
0.0
 51
90.000003
  0
LINE
  5
157
330
1F
100
AcDbEntity
  8
0
 62
     7
 48
0.153999
370
    60
100
AcDbLine
 10
269.8460351826254
 20
113.8579152618026
 30
0.0
 11
269.8460351826254
 21
120.0178882618026
 31
0.0
  0
LINE
  5
158
330
1F
100
AcDbEntity
  8
0
 62
     7
 48
0.153999
370
    60
100
AcDbLine
 10
289.5860411826254
 20
132.3378952618026
 30
0.0
 11
289.5860411826254
 21
138.4978682618026
 31
0.0
  0
LINE
  5
159
330
1F
100
AcDbEntity
  8
0
 62
     7
 48
0.034999
370
    60
100
AcDbLine
 10
276.8460351826254
 20
130.0979052618026
 30
0.0
 11
276.8460351826254
 21
131.4978682618026
 31
0.0
  0
LINE
  5
15A
330
1F
100
AcDbEntity
  8
0
 62
     7
 48
0.2975
370
    60
100
AcDbLine
 10
277.2660331826254
 20
131.9179122618026
 30
0.0
 11
289.1660421826255
 21
131.9179122618026
 31
0.0
  0
LINE
  5
15B
330
1F
100
AcDbEntity
  8
0
 62
     7
 48
0.2975
370
    60
100
AcDbLine
 10
270.2660331826254
 20
122.6778612618026
 30
0.0
 11
282.1660421826255
 21
122.6778612618026
 31
0.0
  0
ARC
  5
15C
330
1F
100
AcDbEntity
  8
0
 62
     7
370
    60
100
AcDbCircle
 10
270.2660331826254
 20
138.4978682618026
 30
0.0
 40
0.4200000000000165
100
AcDbArc
 50
90.00000299999708
 51
180.0000089999971
  0
ARC
  5
15D
330
1F
100
AcDbEntity
  8
0
 62
     7
370
    60
100
AcDbCircle
 10
289.1660421826255
 20
138.4978682618026
 30
0.0
 40
0.4199999999999591
100
AcDbArc
 50
0.0
 51
90.000003
  0
LINE
  5
15E
330
1F
100
AcDbEntity
  8
0
 62
     7
 48
0.4725
370
    60
100
AcDbLine
 10
270.2660331826254
 20
113.4378712618026
 30
0.0
 11
289.1660421826255
 21
113.4378712618026
 31
0.0
  0
ARC
  5
15F
330
1F
100
AcDbEntity
  8
0
 62
     7
370
    60
100
AcDbCircle
 10
254.6287351826254
 20
138.3345382618026
 30
0.0
 40
0.5833329999999827
100
AcDbArc
 50
90.00000300000035
 51
166.8424520000003
  0
CIRCLE
  5
160
330
1F
100
AcDbEntity
  8
0
 62
     7
370
    60
100
AcDbCircle
 10
174.3760421826254
 20
65.29828326180258
 30
0.0
 40
3.75
  0
CIRCLE
  5
161
330
1F
100
AcDbEntity
  8
0
 62
     7
370
    60
100
AcDbCircle
 10
287.3760341826254
 20
65.29828326180258
 30
0.0
 40
3.75
  0
LINE
  5
162
330
1F
100
AcDbEntity
  8
0
 62
     7
 48
0.070711
370
    60
100
AcDbLine
 10
348.1260341826254
 20
351.2982532618026
 30
0.0
 11
350.1260341826254
 21
349.2982532618026
 31
0.0
  0
LINE
  5
163
330
1F
100
AcDbEntity
  8
0
 62
     7
 48
0.070711
370
    60
100
AcDbLine
 10
151.6260381826254
 20
349.2982532618026
 30
0.0
 11
153.6260381826254
 21
351.2982532618026
 31
0.0
  0
LINE
  5
164
330
1F
100
AcDbEntity
  8
0
 62
     7
 48
0.070711
370
    60
100
AcDbLine
 10
348.1260341826254
 20
56.29828326180258
 30
0.0
 11
350.1260341826254
 21
58.29828326180258
 31
0.0
  0
LINE
  5
165
330
1F
100
AcDbEntity
  8
0
 62
     7
 48
0.070711
370
    60
100
AcDbLine
 10
151.6260381826254
 20
58.29828326180258
 30
0.0
 11
153.6260381826254
 21
56.29828326180258
 31
0.0
  0
LINE
  5
166
330
1F
100
AcDbEntity
  8
0
 62
     7
 48
0.070711
370
    60
100
AcDbLine
 10
348.1260341826254
 20
56.29828326180258
 30
0.0
 11
350.1260341826254
 21
58.29828326180258
 31
0.0
  0
LINE
  5
167
330
1F
100
AcDbEntity
  8
0
 62
     7
 48
0.1
370
    60
100
AcDbLine
 10
413.8742491826254
 20
351.2982532618026
 30
0.0
 11
417.8742491826254
 21
351.2982532618026
 31
0.0
  0
LINE
  5
168
330
1F
100
AcDbEntity
  8
0
 62
     7
 48
0.1
370
    60
100
AcDbLine
 10
413.8742491826254
 20
56.29828326180258
 30
0.0
 11
417.8742491826254
 21
56.29828326180258
 31
0.0
  0
LINE
  5
169
330
1F
100
AcDbEntity
  8
0
 62
     7
370
    60
100
AcDbLine
 10
413.8742491826254
 20
56.29828326180258
 30
0.0
 11
413.8742491826254
 21
351.2982532618026
 31
0.0
  0
LINE
  5
16A
330
1F
100
AcDbEntity
  8
0
 62
     7
370
    60
100
AcDbLine
 10
417.8742491826254
 20
56.29828326180258
 30
0.0
 11
417.8742491826254
 21
351.2982532618026
 31
0.0
  0
LINE
  5
16B
330
1F
100
AcDbEntity
  8
0
 62
     7
 48
0.125
370
    25
100
AcDbLine
 10
332.6260341826254
 20
79.79828326180258
 30
0.0
 11
332.6260341826254
 21
84.79828326180258
 31
0.0
  0
LINE
  5
16C
330
1F
100
AcDbEntity
  8
0
 62
     7
 48
0.04203
370
    25
100
AcDbLine
 10
324.4260371826255
 20
80.42700626180257
 30
0.0
 11
324.4260371826255
 21
82.10822026180259
 31
0.0
  0
LINE
  5
16D
330
1F
100
AcDbEntity
  8
0
 62
     7
 48
0.125
370
    25
100
AcDbLine
 10
284.1260341826254
 20
79.78571026180258
 30
0.0
 11
284.1260341826254
 21
84.78571026180258
 31
0.0
  0
LINE
  5
16E
330
1F
100
AcDbEntity
  8
0
 62
     7
 48
0.125
370
    25
100
AcDbLine
 10
294.1260341826254
 20
79.78571026180258
 30
0.0
 11
294.1260341826254
 21
84.78571026180258
 31
0.0
  0
LINE
  5
16F
330
1F
100
AcDbEntity
  8
0
 62
     7
 48
0.125
370
    25
100
AcDbLine
 10
327.6260341826254
 20
79.79828326180258
 30
0.0
 11
327.6260341826254
 21
84.79828326180258
 31
0.0
  0
LINE
  5
170
330
1F
100
AcDbEntity
  8
0
 62
     7
 48
0.125
370
    25
100
AcDbLine
 10
327.6260341826254
 20
79.79828326180258
 30
0.0
 11
332.6260341826254
 21
79.79828326180258
 31
0.0
  0
LINE
  5
171
330
1F
100
AcDbEntity
  8
0
 62
     7
 48
0.25
370
    25
100
AcDbLine
 10
284.1260341826254
 20
79.78571026180258
 30
0.0
 11
294.1260341826254
 21
79.78571026180258
 31
0.0
  0
LINE
  5
172
330
1F
100
AcDbEntity
  8
0
 62
     7
 48
0.25
370
    25
100
AcDbLine
 10
284.1260341826254
 20
84.78571026180258
 30
0.0
 11
294.1260341826254
 21
84.78571026180258
 31
0.0
  0
LINE
  5
173
330
1F
100
AcDbEntity
  8
0
 62
     7
 48
0.125
370
    25
100
AcDbLine
 10
281.0272941826254
 20
79.78571026180258
 30
0.0
 11
281.0272941826254
 21
84.78571026180258
 31
0.0
  0
LINE
  5
174
330
1F
100
AcDbEntity
  8
0
 62
     7
 48
0.125
370
    25
100
AcDbLine
 10
271.6260341826254
 20
79.78571026180258
 30
0.0
 11
271.6260341826254
 21
84.78571026180258
 31
0.0
  0
LINE
  5
175
330
1F
100
AcDbEntity
  8
0
 62
     7
 48
0.0375
370
    25
100
AcDbLine
 10
279.5272941826254
 20
79.78571026180258
 30
0.0
 11
281.0272941826254
 21
79.78571026180258
 31
0.0
  0
LINE
  5
176
330
1F
100
AcDbEntity
  8
0
 62
     7
 48
0.160032
370
    25
100
AcDbLine
 10
273.1260341826254
 20
78.78571026180258
 30
0.0
 11
279.5272941826254
 21
78.78571026180258
 31
0.0
  0
LINE
  5
177
330
1F
100
AcDbEntity
  8
0
 62
     7
 48
0.160032
370
    25
100
AcDbLine
 10
273.1260341826254
 20
85.78571026180258
 30
0.0
 11
279.5272941826254
 21
85.78571026180258
 31
0.0
  0
LINE
  5
178
330
1F
100
AcDbEntity
  8
0
 62
     7
 48
0.026453
370
    25
100
AcDbLine
 10
273.1260341826254
 20
78.78571026180258
 30
0.0
 11
273.6663171826254
 21
79.69550026180258
 31
0.0
  0
LINE
  5
179
330
1F
100
AcDbEntity
  8
0
 62
     7
 48
0.020783
370
    25
100
AcDbLine
 10
273.6663171826254
 20
79.69550026180258
 30
0.0
 11
274.4223601826254
 21
80.04120326180258
 31
0.0
  0
LINE
  5
17A
330
1F
100
AcDbEntity
  8
0
 62
     7
 48
0.015372
370
    25
100
AcDbLine
 10
274.4223601826254
 20
80.04120326180258
 30
0.0
 11
274.8174711826255
 21
80.51233426180258
 31
0.0
  0
LINE
  5
17B
330
1F
100
AcDbEntity
  8
0
 62
     7
 48
0.018979
370
    25
100
AcDbLine
 10
273.8220791826254
 20
80.34515826180258
 30
0.0
 11
274.4793361826254
 21
80.72510226180258
 31
0.0
  0
LINE
  5
17C
330
1F
100
AcDbEntity
  8
0
 62
     7
 48
0.0375
370
    25
100
AcDbLine
 10
271.6260341826254
 20
79.78571026180258
 30
0.0
 11
273.1260341826254
 21
79.78571026180258
 31
0.0
  0
LINE
  5
17D
330
1F
100
AcDbEntity
  8
0
 62
     7
 48
0.0375
370
    25
100
AcDbLine
 10
271.6260341826254
 20
84.78571026180258
 30
0.0
 11
273.1260341826254
 21
84.78571026180258
 31
0.0
  0
LINE
  5
17E
330
1F
100
AcDbEntity
  8
0
 62
     7
 48
0.026452
370
    25
100
AcDbLine
 10
273.1260341826254
 20
85.78571026180258
 30
0.0
 11
273.6663171826254
 21
84.87598126180258
 31
0.0
  0
LINE
  5
17F
330
1F
100
AcDbEntity
  8
0
 62
     7
 48
0.020784
370
    25
100
AcDbLine
 10
273.6663171826254
 20
84.87598126180258
 30
0.0
 11
274.4223601826254
 21
84.53021726180258
 31
0.0
  0
LINE
  5
180
330
1F
100
AcDbEntity
  8
0
 62
     7
 48
0.015371
370
    25
100
AcDbLine
 10
274.4223601826254
 20
84.53021726180258
 30
0.0
 11
274.8174711826255
 21
84.05914826180258
 31
0.0
  0
LINE
  5
181
330
1F
100
AcDbEntity
  8
0
 62
     7
 48
0.013291
370
    25
100
AcDbLine
 10
274.8174711826255
 20
84.05914826180258
 30
0.0
 11
274.8782621826255
 21
83.53101026180258
 31
0.0
  0
LINE
  5
182
330
1F
100
AcDbEntity
  8
0
 62
     7
 48
0.022941
370
    25
100
AcDbLine
 10
274.8782621826255
 20
83.53101026180258
 30
0.0
 11
275.7064781826255
 21
83.13593026180259
 31
0.0
  0
LINE
  5
183
330
1F
100
AcDbEntity
  8
0
 62
     7
 48
0.026309
370
    25
100
AcDbLine
 10
275.7064781826255
 20
83.13593026180259
 30
0.0
 11
276.3266561826254
 21
82.28571026180258
 31
0.0
  0
LINE
  5
184
330
1F
100
AcDbEntity
  8
0
 62
     7
 48
0.026308
370
    25
100
AcDbLine
 10
275.7064781826255
 20
81.43555126180259
 30
0.0
 11
276.3266561826254
 21
82.28571026180258
 31
0.0
  0
LINE
  5
185
330
1F
100
AcDbEntity
  8
0
 62
     7
 48
0.024633
370
    25
100
AcDbLine
 10
275.0948141826254
 20
81.53430626180258
 30
0.0
 11
275.7321741826254
 21
82.28571026180258
 31
0.0
  0
LINE
  5
186
330
1F
100
AcDbEntity
  8
0
 62
     7
 48
0.022941
370
    25
100
AcDbLine
 10
274.8782621826255
 20
81.04041026180258
 30
0.0
 11
275.7064781826255
 21
81.43555126180259
 31
0.0
  0
LINE
  5
187
330
1F
100
AcDbEntity
  8
0
 62
     7
 48
0.019027
370
    25
100
AcDbLine
 10
274.4375571826254
 20
81.15057826180258
 30
0.0
 11
275.0948141826254
 21
81.53430626180258
 31
0.0
  0
LINE
  5
188
330
1F
100
AcDbEntity
  8
0
 62
     7
 48
0.024633
370
    25
100
AcDbLine
 10
275.0948141826254
 20
83.03711426180259
 30
0.0
 11
275.7321741826254
 21
82.28571026180258
 31
0.0
  0
LINE
  5
189
330
1F
100
AcDbEntity
  8
0
 62
     7
 48
0.019027
370
    25
100
AcDbLine
 10
274.4375571826254
 20
83.42084226180258
 30
0.0
 11
275.0948141826254
 21
83.03711426180259
 31
0.0
  0
LINE
  5
18A
330
1F
100
AcDbEntity
  8
0
 62
     7
 48
0.01069
370
    25
100
AcDbLine
 10
274.4375571826254
 20
83.42084226180258
 30
0.0
 11
274.4793361826254
 21
83.84637926180258
 31
0.0
  0
LINE
  5
18B
330
1F
100
AcDbEntity
  8
0
 62
     7
 48
0.018979
370
    25
100
AcDbLine
 10
273.8220791826254
 20
84.22632326180258
 30
0.0
 11
274.4793361826254
 21
83.84637926180258
 31
0.0
  0
LINE
  5
18C
330
1F
100
AcDbEntity
  8
0
 62
     7
 48
0.022324
370
    25
100
AcDbLine
 10
273.1260341826254
 20
84.78571026180258
 30
0.0
 11
273.8220791826254
 21
84.22632326180258
 31
0.0
  0
LINE
  5
18D
330
1F
100
AcDbEntity
  8
0
 62
     7
 48
0.022325
370
    25
100
AcDbLine
 10
273.1260341826254
 20
79.78571026180258
 30
0.0
 11
273.8220791826254
 21
80.34515826180258
 31
0.0
  0
LINE
  5
18E
330
1F
100
AcDbEntity
  8
0
 62
     7
 48
0.013289
370
    25
100
AcDbLine
 10
274.8174711826255
 20
80.51233426180258
 30
0.0
 11
274.8782621826255
 21
81.04041026180258
 31
0.0
  0
LINE
  5
18F
330
1F
100
AcDbEntity
  8
0
 62
     7
 48
0.010688
370
    25
100
AcDbLine
 10
274.4375571826254
 20
81.15057826180258
 30
0.0
 11
274.4793361826254
 21
80.72510226180258
 31
0.0
  0
LINE
  5
190
330
1F
100
AcDbEntity
  8
0
 62
     7
 48
0.026308
370
    25
100
AcDbLine
 10
276.3266561826254
 20
82.28571026180258
 30
0.0
 11
276.9468501826254
 21
81.43555126180259
 31
0.0
  0
LINE
  5
191
330
1F
100
AcDbEntity
  8
0
 62
     7
 48
0.024633
370
    25
100
AcDbLine
 10
276.9211541826254
 20
82.28571026180258
 30
0.0
 11
277.5585141826255
 21
81.53430626180258
 31
0.0
  0
LINE
  5
192
330
1F
100
AcDbEntity
  8
0
 62
     7
 48
0.022941
370
    25
100
AcDbLine
 10
276.9468501826254
 20
81.43555126180259
 30
0.0
 11
277.7750671826254
 21
81.04041026180258
 31
0.0
  0
LINE
  5
193
330
1F
100
AcDbEntity
  8
0
 62
     7
 48
0.013289
370
    25
100
AcDbLine
 10
277.7750671826254
 20
81.04041026180258
 30
0.0
 11
277.8358581826254
 21
80.51233426180258
 31
0.0
  0
LINE
  5
194
330
1F
100
AcDbEntity
  8
0
 62
     7
 48
0.019027
370
    25
100
AcDbLine
 10
277.5585141826255
 20
81.53430626180258
 30
0.0
 11
278.2157711826254
 21
81.15057826180258
 31
0.0
  0
LINE
  5
195
330
1F
100
AcDbEntity
  8
0
 62
     7
 48
0.010688
370
    25
100
AcDbLine
 10
278.1739921826254
 20
80.72510226180258
 30
0.0
 11
278.2157711826254
 21
81.15057826180258
 31
0.0
  0
LINE
  5
196
330
1F
100
AcDbEntity
  8
0
 62
     7
 48
0.018979
370
    25
100
AcDbLine
 10
278.1739921826254
 20
80.72510226180258
 30
0.0
 11
278.8312491826254
 21
80.34515826180258
 31
0.0
  0
LINE
  5
197
330
1F
100
AcDbEntity
  8
0
 62
     7
 48
0.022325
370
    25
100
AcDbLine
 10
278.8312491826254
 20
80.34515826180258
 30
0.0
 11
279.5272941826254
 21
79.78571026180258
 31
0.0
  0
LINE
  5
198
330
1F
100
AcDbEntity
  8
0
 62
     7
 48
0.020783
370
    25
100
AcDbLine
 10
278.2309691826254
 20
80.04120326180258
 30
0.0
 11
278.9870111826255
 21
79.69550026180258
 31
0.0
  0
LINE
  5
199
330
1F
100
AcDbEntity
  8
0
 62
     7
 48
0.026453
370
    25
100
AcDbLine
 10
278.9870111826255
 20
79.69550026180258
 30
0.0
 11
279.5272941826254
 21
78.78571026180258
 31
0.0
  0
LINE
  5
19A
330
1F
100
AcDbEntity
  8
0
 62
     7
 48
0.015372
370
    25
100
AcDbLine
 10
277.8358581826254
 20
80.51233426180258
 30
0.0
 11
278.2309691826254
 21
80.04120326180258
 31
0.0
  0
LINE
  5
19B
330
1F
100
AcDbEntity
  8
0
 62
     7
 48
0.02631
370
    25
100
AcDbLine
 10
276.3266561826254
 20
82.28571026180258
 30
0.0
 11
276.9468501826254
 21
83.13593026180259
 31
0.0
  0
LINE
  5
19C
330
1F
100
AcDbEntity
  8
0
 62
     7
 48
0.024633
370
    25
100
AcDbLine
 10
276.9211541826254
 20
82.28571026180258
 30
0.0
 11
277.5585141826255
 21
83.03711426180259
 31
0.0
  0
LINE
  5
19D
330
1F
100
AcDbEntity
  8
0
 62
     7
 48
0.022941
370
    25
100
AcDbLine
 10
276.9468501826254
 20
83.13593026180259
 30
0.0
 11
277.7750671826254
 21
83.53101026180258
 31
0.0
  0
LINE
  5
19E
330
1F
100
AcDbEntity
  8
0
 62
     7
 48
0.019027
370
    25
100
AcDbLine
 10
277.5585141826255
 20
83.03711426180259
 30
0.0
 11
278.2157711826254
 21
83.42084226180258
 31
0.0
  0
LINE
  5
19F
330
1F
100
AcDbEntity
  8
0
 62
     7
 48
0.01069
370
    25
100
AcDbLine
 10
278.1739921826254
 20
83.84637926180258
 30
0.0
 11
278.2157711826254
 21
83.42084226180258
 31
0.0
  0
LINE
  5
1A0
330
1F
100
AcDbEntity
  8
0
 62
     7
 48
0.018979
370
    25
100
AcDbLine
 10
278.1739921826254
 20
83.84637926180258
 30
0.0
 11
278.8312491826254
 21
84.22632326180258
 31
0.0
  0
LINE
  5
1A1
330
1F
100
AcDbEntity
  8
0
 62
     7
 48
0.022324
370
    25
100
AcDbLine
 10
278.8312491826254
 20
84.22632326180258
 30
0.0
 11
279.5272941826254
 21
84.78571026180258
 31
0.0
  0
LINE
  5
1A2
330
1F
100
AcDbEntity
  8
0
 62
     7
 48
0.0375
370
    25
100
AcDbLine
 10
279.5272941826254
 20
84.78571026180258
 30
0.0
 11
281.0272941826254
 21
84.78571026180258
 31
0.0
  0
LINE
  5
1A3
330
1F
100
AcDbEntity
  8
0
 62
     7
 48
0.015371
370
    25
100
AcDbLine
 10
277.8358581826254
 20
84.05914826180258
 30
0.0
 11
278.2309691826254
 21
84.53021726180258
 31
0.0
  0
LINE
  5
1A4
330
1F
100
AcDbEntity
  8
0
 62
     7
 48
0.020784
370
    25
100
AcDbLine
 10
278.2309691826254
 20
84.53021726180258
 30
0.0
 11
278.9870111826255
 21
84.87598126180258
 31
0.0
  0
LINE
  5
1A5
330
1F
100
AcDbEntity
  8
0
 62
     7
 48
0.013291
370
    25
100
AcDbLine
 10
277.7750671826254
 20
83.53101026180258
 30
0.0
 11
277.8358581826254
 21
84.05914826180258
 31
0.0
  0
LINE
  5
1A6
330
1F
100
AcDbEntity
  8
0
 62
     7
 48
0.026452
370
    25
100
AcDbLine
 10
278.9870111826255
 20
84.87598126180258
 30
0.0
 11
279.5272941826254
 21
85.78571026180258
 31
0.0
  0
LINE
  5
1A7
330
1F
100
AcDbEntity
  8
0
 62
     7
 48
0.125
370
    25
100
AcDbLine
 10
264.1260341826254
 20
84.78571026180258
 30
0.0
 11
269.1260341826254
 21
84.78571026180258
 31
0.0
  0
LINE
  5
1A8
330
1F
100
AcDbEntity
  8
0
 62
     7
 48
0.139754
370
    25
100
AcDbLine
 10
264.1260341826254
 20
84.78571026180258
 30
0.0
 11
266.6260341826254
 21
79.78571026180258
 31
0.0
  0
LINE
  5
1A9
330
1F
100
AcDbEntity
  8
0
 62
     7
 48
0.139754
370
    25
100
AcDbLine
 10
266.6260341826254
 20
79.78571026180258
 30
0.0
 11
269.1260341826254
 21
84.78571026180258
 31
0.0
  0
LINE
  5
1AA
330
1F
100
AcDbEntity
  8
0
 62
     7
 48
0.125
370
    25
100
AcDbLine
 10
327.6260341826254
 20
84.79828326180258
 30
0.0
 11
332.6260341826254
 21
84.79828326180258
 31
0.0
  0
LINE
  5
1AB
330
1F
100
AcDbEntity
  8
0
 62
     7
 48
0.075
370
    25
100
AcDbLine
 10
328.6260341826254
 20
80.79828326180258
 30
0.0
 11
328.6260341826254
 21
83.79828326180258
 31
0.0
  0
LINE
  5
1AC
330
1F
100
AcDbEntity
  8
0
 62
     7
 48
0.075
370
    25
100
AcDbLine
 10
328.6260341826254
 20
83.79828326180258
 30
0.0
 11
331.6260341826254
 21
83.79828326180258
 31
0.0
  0
LINE
  5
1AD
330
1F
100
AcDbEntity
  8
0
 62
     7
 48
0.075
370
    25
100
AcDbLine
 10
331.6260341826254
 20
80.79828326180258
 30
0.0
 11
331.6260341826254
 21
83.79828326180258
 31
0.0
  0
LINE
  5
1AE
330
1F
100
AcDbEntity
  8
0
 62
     7
 48
0.075
370
    25
100
AcDbLine
 10
328.6260341826254
 20
80.79828326180258
 30
0.0
 11
331.6260341826254
 21
80.79828326180258
 31
0.0
  0
LINE
  5
1AF
330
1F
100
AcDbEntity
  8
0
 62
     7
 48
0.010635
370
    25
100
AcDbLine
 10
285.5814021826254
 20
79.77319826180258
 30
0.0
 11
286.0067861826254
 21
79.77319826180258
 31
0.0
  0
LINE
  5
1B0
330
1F
100
AcDbEntity
  8
0
 62
     7
 48
0.016389
370
    25
100
AcDbLine
 10
285.7515531826255
 20
84.77319826180258
 30
0.0
 11
286.4071311826254
 21
84.77319826180258
 31
0.0
  0
LINE
  5
1B1
330
1F
100
AcDbEntity
  8
0
 62
     7
 48
0.15
370
    25
100
AcDbLine
 10
260.6260341826254
 20
79.28571026180258
 30
0.0
 11
260.6260341826254
 21
85.28571026180258
 31
0.0
  0
LINE
  5
1B2
330
1F
100
AcDbEntity
  8
0
 62
     7
 48
0.066622
370
    25
100
AcDbLine
 10
281.2224691826254
 20
82.26416526180257
 30
0.0
 11
283.8873561826255
 21
82.26416526180257
 31
0.0
  0
LINE
  5
1B3
330
1F
100
AcDbEntity
  8
0
 62
     7
 48
0.026604
370
    25
100
AcDbLine
 10
282.8873561826255
 20
81.90021226180258
 30
0.0
 11
283.8873561826255
 21
82.26416526180257
 31
0.0
  0
LINE
  5
1B4
330
1F
100
AcDbEntity
  8
0
 62
     7
 48
0.026605
370
    25
100
AcDbLine
 10
282.8873561826255
 20
82.62817826180257
 30
0.0
 11
283.8873561826255
 21
82.26416526180257
 31
0.0
  0
LINE
  5
1B5
330
1F
100
AcDbEntity
  8
0
 62
     7
 48
0.125049
370
    25
100
AcDbLine
 10
309.2719231826254
 20
79.79791726180258
 30
0.0
 11
309.2719231826254
 21
84.79987026180258
 31
0.0
  0
LINE
  5
1B6
330
1F
100
AcDbEntity
  8
0
 62
     7
 48
0.016961
370
    25
100
AcDbLine
 10
308.9260371826255
 20
84.79987026180258
 30
0.0
 11
309.6044891826255
 21
84.79987026180258
 31
0.0
  0
LINE
  5
1B7
330
1F
100
AcDbEntity
  8
0
 62
     7
 48
0.016961
370
    25
100
AcDbLine
 10
308.9260371826255
 20
79.79791726180258
 30
0.0
 11
309.6044891826255
 21
79.79791726180258
 31
0.0
  0
LINE
  5
1B8
330
1F
100
AcDbEntity
  8
0
 62
     7
 48
0.125049
370
    25
100
AcDbLine
 10
310.6044891826255
 20
79.79791726180258
 30
0.0
 11
310.6044891826255
 21
84.79987026180258
 31
0.0
  0
LINE
  5
1B9
330
1F
100
AcDbEntity
  8
0
 62
     7
 48
0.074747
370
    25
100
AcDbLine
 10
310.6044891826255
 20
84.79987026180258
 30
0.0
 11
313.5943571826255
 21
84.79987026180258
 31
0.0
  0
LINE
  5
1BA
330
1F
100
AcDbEntity
  8
0
 62
     7
 48
0.075163
370
    25
100
AcDbLine
 10
310.6044891826255
 20
82.13928726180258
 30
0.0
 11
313.6109891826254
 21
82.13928726180258
 31
0.0
  0
LINE
  5
1BB
330
1F
100
AcDbEntity
  8
0
 62
     7
 48
0.033272
370
    25
100
AcDbLine
 10
314.2628291826254
 20
82.79108126180257
 30
0.0
 11
314.2628291826254
 21
84.12195326180257
 31
0.0
  0
LINE
  5
1BC
330
1F
100
AcDbEntity
  8
0
 62
     7
 48
0.023802
370
    25
100
AcDbLine
 10
313.5943571826255
 20
84.79987026180258
 30
0.0
 11
314.2628291826254
 21
84.12195326180257
 31
0.0
  0
LINE
  5
1BD
330
1F
100
AcDbEntity
  8
0
 62
     7
 48
0.023045
370
    25
100
AcDbLine
 10
313.6109891826254
 20
82.13928726180258
 30
0.0
 11
314.2628291826254
 21
82.79108126180257
 31
0.0
  0
LINE
  5
1BE
330
1F
100
AcDbEntity
  8
0
 62
     7
 48
0.066725
370
    25
100
AcDbLine
 10
321.7570461826255
 20
84.79828326180258
 30
0.0
 11
324.4260371826255
 21
84.79828326180258
 31
0.0
  0
LINE
  5
1BF
330
1F
100
AcDbEntity
  8
0
 62
     7
 48
0.039983
370
    25
100
AcDbLine
 10
322.0935631826254
 20
82.80280026180257
 30
0.0
 11
323.6928981826254
 21
82.80280026180257
 31
0.0
  0
LINE
  5
1C0
330
1F
100
AcDbEntity
  8
0
 62
     7
 48
0.041452
370
    25
100
AcDbLine
 10
322.0809591826254
 20
79.79633026180258
 30
0.0
 11
323.7390251826254
 21
79.79633026180258
 31
0.0
  0
LINE
  5
1C1
330
1F
100
AcDbEntity
  8
0
 62
     7
 48
0.063144
370
    25
100
AcDbLine
 10
321.4171721826254
 20
82.29547626180258
 30
0.0
 11
321.7570461826255
 21
84.79828326180258
 31
0.0
  0
LINE
  5
1C2
330
1F
100
AcDbEntity
  8
0
 62
     7
 48
0.021138
370
    25
100
AcDbLine
 10
321.4171721826254
 20
82.29547626180258
 30
0.0
 11
322.0935631826254
 21
82.80280026180257
 31
0.0
  0
LINE
  5
1C3
330
1F
100
AcDbEntity
  8
0
 62
     7
 48
0.025248
370
    25
100
AcDbLine
 10
323.6928981826254
 20
82.80280026180257
 30
0.0
 11
324.4260371826255
 21
82.10822026180259
 31
0.0
  0
LINE
  5
1C4
330
1F
100
AcDbEntity
  8
0
 62
     7
 48
0.023315
370
    25
100
AcDbLine
 10
323.7390251826254
 20
79.79633026180258
 30
0.0
 11
324.4260371826255
 21
80.42700626180257
 31
0.0
  0
LINE
  5
1C5
330
1F
100
AcDbEntity
  8
0
 62
     7
 48
0.024362
370
    25
100
AcDbLine
 10
321.3801231826254
 20
80.47339326180258
 30
0.0
 11
322.0809591826254
 21
79.79633026180258
 31
0.0
  0
LINE
  5
1C6
330
1F
100
AcDbEntity
  8
0
 62
     7
 48
0.042019
370
    25
100
AcDbLine
 10
318.2826201826255
 20
84.79987026180258
 30
0.0
 11
319.9633601826254
 21
84.79987026180258
 31
0.0
  0
LINE
  5
1C7
330
1F
100
AcDbEntity
  8
0
 62
     7
 48
0.041386
370
    25
100
AcDbLine
 10
317.9559901826254
 20
82.77783626180258
 30
0.0
 11
319.6114311826254
 21
82.77783626180258
 31
0.0
  0
LINE
  5
1C8
330
1F
100
AcDbEntity
  8
0
 62
     7
 48
0.042126
370
    25
100
AcDbLine
 10
317.9276701826254
 20
79.79791726180258
 30
0.0
 11
319.6127281826255
 21
79.79791726180258
 31
0.0
  0
LINE
  5
1C9
330
1F
100
AcDbEntity
  8
0
 62
     7
 48
0.081165
370
    25
100
AcDbLine
 10
317.2628291826254
 20
80.50592526180257
 30
0.0
 11
317.2628291826254
 21
83.75250726180258
 31
0.0
  0
LINE
  5
1CA
330
1F
100
AcDbEntity
  8
0
 62
     7
 48
0.04108
370
    25
100
AcDbLine
 10
320.2826351826254
 20
80.49261926180257
 30
0.0
 11
320.2826351826254
 21
82.13580826180258
 31
0.0
  0
LINE
  5
1CB
330
1F
100
AcDbEntity
  8
0
 62
     7
 48
0.036546
370
    25
100
AcDbLine
 10
317.2628291826254
 20
83.75250726180258
 30
0.0
 11
318.2826201826255
 21
84.79987026180258
 31
0.0
  0
LINE
  5
1CC
330
1F
100
AcDbEntity
  8
0
 62
     7
 48
0.023902
370
    25
100
AcDbLine
 10
317.2628291826254
 20
82.11932826180258
 30
0.0
 11
317.9559901826254
 21
82.77783626180258
 31
0.0
  0
LINE
  5
1CD
330
1F
100
AcDbEntity
  8
0
 62
     7
 48
0.023221
370
    25
100
AcDbLine
 10
319.6114311826254
 20
82.77783626180258
 30
0.0
 11
320.2826351826254
 21
82.13580826180258
 31
0.0
  0
LINE
  5
1CE
330
1F
100
AcDbEntity
  8
0
 62
     7
 48
0.024127
370
    25
100
AcDbLine
 10
319.6127281826255
 20
79.79791726180258
 30
0.0
 11
320.2826351826254
 21
80.49261926180257
 31
0.0
  0
LINE
  5
1CF
330
1F
100
AcDbEntity
  8
0
 62
     7
 48
0.024281
370
    25
100
AcDbLine
 10
317.2628291826254
 20
80.50592526180257
 30
0.0
 11
317.9276701826254
 21
79.79791726180258
 31
0.0
  0
LINE
  5
1D0
330
1F
100
AcDbEntity
  8
0
 62
     7
 48
0.053033
370
    25
100
AcDbLine
 10
260.6260341826254
 20
83.78571026180258
 30
0.0
 11
262.1260341826254
 21
85.28571026180258
 31
0.0
  0
LINE
  5
1D1
330
1F
100
AcDbEntity
  8
0
 62
     7
 48
0.053033
370
    25
100
AcDbLine
 10
260.6260341826254
 20
79.28571026180258
 30
0.0
 11
262.1260341826254
 21
80.78571026180258
 31
0.0
  0
LINE
  5
1D2
330
1F
100
AcDbEntity
  8
0
 62
     7
 48
0.053033
370
    25
100
AcDbLine
 10
260.6260341826254
 20
80.41071026180258
 30
0.0
 11
262.1260341826254
 21
81.91071026180258
 31
0.0
  0
LINE
  5
1D3
330
1F
100
AcDbEntity
  8
0
 62
     7
 48
0.053033
370
    25
100
AcDbLine
 10
260.6260341826254
 20
81.53571026180258
 30
0.0
 11
262.1260341826254
 21
83.03571026180258
 31
0.0
  0
LINE
  5
1D4
330
1F
100
AcDbEntity
  8
0
 62
     7
 48
0.053033
370
    25
100
AcDbLine
 10
260.6260341826254
 20
82.66071026180258
 30
0.0
 11
262.1260341826254
 21
84.16071026180258
 31
0.0
  0
LINE
  5
1D5
330
1F
100
AcDbEntity
  8
0
 62
     7
 48
0.04375
370
    25
100
AcDbLine
 10
259.6260341826254
 20
80.78571026180258
 30
0.0
 11
259.6260341826254
 21
82.53571026180258
 31
0.0
  0
LINE
  5
1D6
330
1F
100
AcDbEntity
  8
0
 62
     7
 48
0.075
370
    25
100
AcDbLine
 10
254.6260341826254
 20
80.78571026180258
 30
0.0
 11
254.6260341826254
 21
83.78571026180258
 31
0.0
  0
LINE
  5
1D7
330
1F
100
AcDbEntity
  8
0
 62
     7
 48
0.04375
370
    25
100
AcDbLine
 10
257.1260341826254
 20
80.78571026180258
 30
0.0
 11
257.1260341826254
 21
82.53571026180258
 31
0.0
  0
ARC
  5
1D8
330
1F
100
AcDbEntity
  8
0
 62
     7
370
    25
100
AcDbCircle
 10
258.3760341826254
 20
82.53571026180258
 30
0.0
 40
1.25
100
AcDbArc
 50
0.0
 51
90.000003
  0
ARC
  5
1D9
330
1F
100
AcDbEntity
  8
0
 62
     7
370
    25
100
AcDbCircle
 10
258.3760341826254
 20
82.53571026180258
 30
0.0
 40
1.250000000000002
100
AcDbArc
 50
90.0000030000003
 51
180.0000090000003
  0
ARC
  5
1DA
330
1F
100
AcDbEntity
  8
0
 62
     7
370
    25
100
AcDbCircle
 10
255.8760341826254
 20
82.53571026180258
 30
0.0
 40
1.249999999999972
100
AcDbArc
 50
0.0
 51
90.000003
  0
ARC
  5
1DB
330
1F
100
AcDbEntity
  8
0
 62
     7
370
    25
100
AcDbCircle
 10
255.8760341826254
 20
82.53571026180258
 30
0.0
 40
1.250000000000002
100
AcDbArc
 50
90.0000030000003
 51
180.0000090000003
  0
LINE
  5
1DC
330
1F
100
AcDbEntity
  8
0
 62
     7
 48
0.05
370
    25
100
AcDbLine
 10
251.6260341826254
 20
82.28571026180258
 30
0.0
 11
253.6260341826254
 21
82.28571026180258
 31
0.0
  0
LINE
  5
1DD
330
1F
100
AcDbEntity
  8
0
 62
     7
 48
0.05
370
    25
100
AcDbLine
 10
246.1260341826254
 20
82.28571026180258
 30
0.0
 11
248.1260341826254
 21
82.28571026180258
 31
0.0
  0
LINE
  5
1DE
330
1F
100
AcDbEntity
  8
0
 62
     7
 48
0.125
370
    25
100
AcDbLine
 10
245.6260341826254
 20
79.78571026180258
 30
0.0
 11
245.6260341826254
 21
84.78571026180258
 31
0.0
  0
ARC
  5
1DF
330
1F
100
AcDbEntity
  8
0
 62
     7
370
    25
100
AcDbCircle
 10
245.1677061826254
 20
82.28571026180258
 30
0.0
 40
2.541667000000003
100
AcDbArc
 50
79.61114099999993
 51
280.388886
  0
ARC
  5
1E0
330
1F
100
AcDbEntity
  8
0
 62
     7
370
    25
100
AcDbCircle
 10
300.1260341826254
 20
82.27319826180258
 30
0.0
 40
2.500000000000003
100
AcDbArc
 50
84.26082699999907
 51
275.739186999999
  0
ARC
  5
1E1
330
1F
100
AcDbEntity
  8
0
 62
     7
370
    25
100
AcDbCircle
 10
300.1260341826254
 20
82.27319826180258
 30
0.0
 40
1.750000000000009
100
AcDbArc
 50
81.78678899999834
 51
278.2132179999983
  0
ARC
  5
1E2
330
1F
100
AcDbEntity
  8
0
 62
     7
370
    25
100
AcDbCircle
 10
304.1760371826255
 20
82.27319826180258
 30
0.0
 40
2.499999999999997
100
AcDbArc
 50
84.26082700000036
 51
275.7391870000003
  0
ARC
  5
1E3
330
1F
100
AcDbEntity
  8
0
 62
     7
370
    25
100
AcDbCircle
 10
304.1760371826255
 20
82.27319826180258
 30
0.0
 40
1.749999999999993
100
AcDbArc
 50
81.78678900000203
 51
167.626380000002
  0
LINE
  5
1E4
330
1F
100
AcDbEntity
  8
0
 62
     7
 48
0.01875
370
    25
100
AcDbLine
 10
303.9260371826255
 20
81.89819826180258
 30
0.0
 11
303.9260371826255
 21
82.64819826180258
 31
0.0
  0
LINE
  5
1E5
330
1F
100
AcDbEntity
  8
0
 62
     7
 48
0.036484
370
    25
100
AcDbLine
 10
302.4666861826254
 20
82.64819826180258
 30
0.0
 11
303.9260371826255
 21
82.64819826180258
 31
0.0
  0
LINE
  5
1E6
330
1F
100
AcDbEntity
  8
0
 62
     7
 48
0.036484
370
    25
100
AcDbLine
 10
302.4666861826254
 20
81.89819826180258
 30
0.0
 11
303.9260371826255
 21
81.89819826180258
 31
0.0
  0
ARC
  5
1E7
330
1F
100
AcDbEntity
  8
0
 62
     7
370
    25
100
AcDbCircle
 10
304.1760371826255
 20
82.27319826180258
 30
0.0
 40
1.750000000000001
100
AcDbArc
 50
192.3736340000001
 51
278.213218
  0
LINE
  5
1E8
330
1F
100
AcDbEntity
  8
0
 62
     7
 48
0.018886
370
    25
100
AcDbLine
 10
304.4260371826255
 20
79.78571026180258
 30
0.0
 11
304.4260371826255
 21
80.54114226180258
 31
0.0
  0
LINE
  5
1E9
330
1F
100
AcDbEntity
  8
0
 62
     7
 48
0.018886
370
    25
100
AcDbLine
 10
304.4260371826255
 20
84.00525326180258
 30
0.0
 11
304.4260371826255
 21
84.76068626180258
 31
0.0
  0
LINE
  5
1EA
330
1F
100
AcDbEntity
  8
0
 62
     7
 48
0.018886
370
    25
100
AcDbLine
 10
300.3760341826254
 20
79.78571026180258
 30
0.0
 11
300.3760341826254
 21
80.54114226180258
 31
0.0
  0
LINE
  5
1EB
330
1F
100
AcDbEntity
  8
0
 62
     7
 48
0.018886
370
    25
100
AcDbLine
 10
300.3760341826254
 20
84.00525326180258
 30
0.0
 11
300.3760341826254
 21
84.76068626180258
 31
0.0
  0
TEXT
  5
1EC
330
1F
100
AcDbEntity
  8
0
 62
     7
370
    25
100
AcDbText
 10
266.2309081826254
 20
82.07513826180256
 30
0.0
 40
2.0
  1
F
 41
1.099994250000037
 72
     5
 11
267.6975671826254
 21
82.07513826180256
 31
0.0
100
AcDbText
  0
TEXT
  5
1ED
330
1F
100
AcDbEntity
  8
0
 62
     7
370
    25
100
AcDbText
 10
248.0427061826254
 20
79.78571026180252
 30
0.0
 40
5.0
  1
1
 41
2.200002599999988
 72
     5
 11
251.7093771826254
 21
79.78571026180252
 31
0.0
100
AcDbText
  0
LINE
  5
1EE
330
1F
100
AcDbEntity
  8
0
 62
     7
 48
0.154045
370
    25
100
AcDbLine
 10
287.0067871826254
 20
79.77319726180251
 30
0.0
 11
293.1685911826254
 21
79.77319726180251
 31
0.0
  0
LINE
  5
1EF
330
1F
100
AcDbEntity
  8
0
 62
     7
 48
0.144036
370
    25
100
AcDbLine
 10
287.4071311826254
 20
84.77319726180251
 30
0.0
 11
293.1685911826254
 21
84.77319726180251
 31
0.0
  0
DIMENSION
  5
1F0
330
1F
100
AcDbEntity
  8
0
370
    25
100
AcDbDimension
  2
*D6
 10
350.1260341826254
 20
399.5038083523433
 30
0.0
 11
250.8760361826254
 21
412.6704750190099
 31
0.0
 70
    32
 71
     5
 41
2.5
 42
198.499996
  3
Standard
100
AcDbAlignedDimension
 13
151.6260381826254
 23
300.4189186394424
 33
0.0
 14
350.1260341826254
 24
300.4189186394424
 34
0.0
100
AcDbRotatedDimension
1001
ACAD
1000
DSTYLE
1002
{
1070
   171
1070
     3
1070
   143
1040
0.03937
1070
   274
1070
     3
1070
    41
1040
10.0
1070
   289
1070
     0
1070
   141
1040
2.5
1070
   176
1070
     7
1070
   177
1070
     7
1070
   271
1070
     2
1070
    43
1040
3.75
1070
   278
1070
    44
1070
    44
1040
1.25
1070
    42
1040
0.625
1070
   147
1040
5.0
1070
    77
1070
     1
1070
   272
1070
     2
1070
    73
1070
     0
1070
   172
1070
     1
1070
    74
1070
     0
1070
   283
1070
     0
1070
   140
1040
14.0
1070
   284
1070
     8
1070
    78
1070
     8
1002
}
  0
DIMENSION
  5
1F1
330
1F
100
AcDbEntity
  8
0
370
    25
100
AcDbDimension
  2
*D7
 10
332.6260341826254
 20
367.7133823296193
 30
0.0
 11
250.8760381826254
 21
380.880048996286
 31
0.0
 70
   160
 71
     5
 41
2.5
 42
163.499992
  3
Standard
100
AcDbAlignedDimension
 13
169.1260421826254
 23
318.5373507535294
 33
0.0
 14
332.6260341826254
 24
318.5373507535294
 34
0.0
100
AcDbRotatedDimension
1001
ACAD
1000
DSTYLE
1002
{
1070
   171
1070
     3
1070
   143
1040
0.03937
1070
   274
1070
     3
1070
    41
1040
10.0
1070
   289
1070
     0
1070
   141
1040
2.5
1070
   176
1070
     7
1070
   177
1070
     7
1070
   271
1070
     2
1070
    43
1040
3.75
1070
   278
1070
    44
1070
    44
1040
1.25
1070
    42
1040
0.625
1070
   147
1040
5.0
1070
    77
1070
     1
1070
   272
1070
     2
1070
    73
1070
     0
1070
   172
1070
     1
1070
    74
1070
     0
1070
   283
1070
     0
1070
   140
1040
14.0
1070
   284
1070
     8
1070
    78
1070
     8
1002
}
  0
DIMENSION
  5
1F2
330
1F
100
AcDbEntity
  8
0
370
    25
100
AcDbDimension
  2
*D12
 10
373.7074955834955
 20
162.7956853213962
 30
0.0
 11
360.5408289168289
 21
258.9362175901907
 31
0.0
 70
   160
 71
     5
 41
2.5
 42
177.49997
  3
Standard
100
AcDbAlignedDimension
 13
301.5470511221253
 23
340.2956553213962
 33
0.0
 14
301.5470511221253
 24
162.7956853213962
 34
0.0
 50
90.0
100
AcDbRotatedDimension
1001
ACAD
1000
DSTYLE
1002
{
1070
    41
1040
10.0
1070
    42
1040
0.625
1070
    43
1040
3.75
1070
    44
1040
1.25
1070
    73
1070
     0
1070
    74
1070
     0
1070
    77
1070
     1
1070
    78
1070
     8
1070
   140
1040
14.0
1070
   141
1040
2.5
1070
   143
1040
0.03937
1070
   147
1040
5.0
1070
   171
1070
     3
1070
   172
1070
     1
1070
   176
1070
     7
1070
   177
1070
     7
1070
   271
1070
     2
1070
   272
1070
     2
1070
   274
1070
     3
1070
   278
1070
    44
1070
   283
1070
     0
1070
   284
1070
     8
1070
   289
1070
     0
1002
}
  0
DIMENSION
  5
1F3
330
1F
100
AcDbEntity
  8
0
370
    25
100
AcDbDimension
  2
*D13
 10
373.7074768511103
 20
340.2956553741039
 30
0.0
 11
361.7074768511103
 21
373.2956553741039
 31
0.0
 70
   160
 71
     5
 41
2.5
 42
11.0
  3
Standard
100
AcDbAlignedDimension
 13
323.0427528155375
 23
351.2956553741039
 33
0.0
 14
323.0427528155375
 24
340.2956553741039
 34
0.0
 50
90.0
100
AcDbRotatedDimension
1001
ACAD
1000
DSTYLE
1002
{
1070
    41
1040
10.0
1070
    42
1040
0.625
1070
    43
1040
3.75
1070
    44
1040
1.25
1070
    73
1070
     0
1070
    74
1070
     0
1070
    77
1070
     1
1070
    78
1070
     8
1070
   140
1040
14.0
1070
   141
1040
2.5
1070
   143
1040
0.03937
1070
   147
1040
5.0
1070
   171
1070
     3
1070
   172
1070
     1
1070
   176
1070
     7
1070
   177
1070
     7
1070
   271
1070
     2
1070
   272
1070
     2
1070
   274
1070
     3
1070
   278
1070
    44
1070
   283
1070
     0
1070
   284
1070
     8
1070
   289
1070
     0
1002
}
  0
DIMENSION
  5
1F4
330
1F
100
AcDbEntity
  8
0
370
    25
100
AcDbDimension
  2
*D10
 10
417.8742491826254
 20
367.7133823296193
 30
0.0
 11
447.5409158492921
 21
379.7133823296193
 31
0.0
 70
    32
 71
     5
 41
2.5
 42
4.0
  3
Standard
100
AcDbAlignedDimension
 13
413.8742491826254
 23
336.1033036396366
 33
0.0
 14
417.8742491826254
 24
336.1033036396366
 34
0.0
100
AcDbRotatedDimension
1001
ACAD
1000
DSTYLE
1002
{
1070
   171
1070
     3
1070
   143
1040
0.03937
1070
   274
1070
     3
1070
    41
1040
10.0
1070
   289
1070
     0
1070
   141
1040
2.5
1070
   176
1070
     7
1070
   177
1070
     7
1070
   271
1070
     2
1070
    43
1040
3.75
1070
   278
1070
    44
1070
    44
1040
1.25
1070
    42
1040
0.625
1070
   147
1040
5.0
1070
    77
1070
     1
1070
   272
1070
     2
1070
    73
1070
     0
1070
   172
1070
     1
1070
    74
1070
     0
1070
   283
1070
     0
1070
   140
1040
14.0
1070
   284
1070
     8
1070
    78
1070
     8
1002
}
  0
LINE
  5
1F5
330
1F
100
AcDbEntity
  8
STANDARD_LAYER
370
    60
100
AcDbLine
 10
238.2715842810151
 20
267.9965000399583
 30
0.0
 11
258.9532660410147
 21
295.9091167199574
 31
0.0
  0
LINE
  5
1F6
330
1F
100
AcDbEntity
  8
STANDARD_LAYER
370
    60
100
AcDbLine
 10
227.043395601015
 20
238.9081218199582
 30
0.0
 11
247.7263197210148
 21
266.8209260599573
 31
0.0
  0
LINE
  5
1F7
330
1F
100
AcDbEntity
  8
STANDARD_LAYER
370
    60
100
AcDbLine
 10
222.0211709610151
 20
259.4745342999583
 30
0.0
 11
242.7032912010148
 21
287.3876823999582
 31
0.0
  0
LINE
  5
1F8
330
1F
100
AcDbEntity
  8
STANDARD_LAYER
370
    60
100
AcDbLine
 10
255.7034297610151
 20
226.8612263799584
 30
0.0
 11
276.385915401015
 21
254.7740097799573
 31
0.0
  0
LINE
  5
1F9
330
1F
100
AcDbEntity
  8
STANDARD_LAYER
370
    60
100
AcDbLine
 10
272.840522721015
 20
238.3200899599573
 30
0.0
 11
293.5227473610151
 21
266.2323419399583
 31
0.0
  0
POINT
  5
1FA
330
1F
100
AcDbEntity
  8
0
 62
     7
370
    60
100
AcDbPoint
 10
310.8660391826254
 20
126.1778612618026
 30
0.0
  0
ARC
  5
1FB
330
1F
100
AcDbEntity
  8
0
 62
     7
370
    60
100
AcDbCircle
 10
212.5860411826254
 20
138.4978682618026
 30
0.0
 40
0.4200000000000165
100
AcDbArc
 50
90.00000300000096
 51
180.0000090000009
  0
ARC
  5
1FC
330
1F
100
AcDbEntity
  8
0
 62
     7
370
    60
100
AcDbCircle
 10
212.5860411826254
 20
113.8579152618026
 30
0.0
 40
0.4200000000000211
100
AcDbArc
 50
180.0000090000009
 51
269.9999970000009
  0
ARC
  5
1FD
330
1F
100
AcDbEntity
  8
0
 62
     7
370
    60
100
AcDbCircle
 10
222.2460371826254
 20
138.4978682618026
 30
0.0
 40
0.4199999999999875
100
AcDbArc
 50
0.0
 51
90.000003
  0
ARC
  5
1FE
330
1F
100
AcDbEntity
  8
0
 62
     7
370
    60
100
AcDbCircle
 10
225.3260381826254
 20
132.3378952618026
 30
0.0
 40
0.4200000000000211
100
AcDbArc
 50
180.000008999999
 51
269.9999969999989
  0
LINE
  5
1FF
330
1F
100
AcDbEntity
  8
0
 62
     7
 48
0.158072
370
    60
100
AcDbLine
 10
237.4888271826254
 20
113.4378712618026
 30
0.0
 11
243.8117181826254
 21
113.4378712618026
 31
0.0
  0
LINE
  5
200
330
1F
100
AcDbEntity
  8
0
 62
     7
 48
0.264095
370
    60
100
AcDbLine
 10
240.8660391826254
 20
128.1378832618026
 30
0.0
 11
242.5587881826254
 21
138.5651902618026
 31
0.0
  0
ARC
  5
201
330
1F
100
AcDbEntity
  8
0
 62
     7
370
    60
100
AcDbCircle
 10
238.0129051826254
 20
138.4978682618026
 30
0.0
 40
0.4200000000000119
100
AcDbArc
 50
13.15754200000464
 51
90.00000300000465
  0
LINE
  5
202
330
1F
100
AcDbEntity
  8
0
 62
     7
 48
0.082067
370
    60
100
AcDbLine
 10
242.9733541826254
 20
138.9179122618026
 30
0.0
 11
246.2560391826254
 21
138.9179122618026
 31
0.0
  0
ARC
  5
203
330
1F
100
AcDbEntity
  8
0
 62
     7
370
    60
100
AcDbCircle
 10
242.9733541826254
 20
138.4978682618026
 30
0.0
 40
0.4200000000000165
100
AcDbArc
 50
90.00000300000096
 51
170.779181000001
  0
LINE
  5
204
330
1F
100
AcDbEntity
  8
0
 62
     7
 48
0.2975
370
    60
100
AcDbLine
 10
277.2660331826254
 20
129.6778612618026
 30
0.0
 11
289.1660421826255
 21
129.6778612618026
 31
0.0
  0
LINE
  5
205
330
1F
100
AcDbEntity
  8
0
 62
     7
 48
0.2975
370
    60
100
AcDbLine
 10
270.2660331826254
 20
120.4378712618026
 30
0.0
 11
282.1660421826255
 21
120.4378712618026
 31
0.0
  0
ARC
  5
206
330
1F
100
AcDbEntity
  8
0
 62
     7
370
    60
100
AcDbCircle
 10
289.1660421826255
 20
132.3378952618026
 30
0.0
 40
0.4200000000000165
100
AcDbArc
 50
269.9999969999952
 51
359.9999999999952
  0
ARC
  5
207
330
1F
100
AcDbEntity
  8
0
 62
     7
370
    60
100
AcDbCircle
 10
277.2660331826254
 20
131.4978682618026
 30
0.0
 40
0.4200000000000165
100
AcDbArc
 50
90.00000299999708
 51
180.0000089999971
  0
ARC
  5
208
330
1F
100
AcDbEntity
  8
0
 62
     7
370
    60
100
AcDbCircle
 10
277.2660331826254
 20
130.0979052618026
 30
0.0
 40
0.4199999999999642
100
AcDbArc
 50
180.000008999999
 51
269.9999969999989
  0
ARC
  5
209
330
1F
100
AcDbEntity
  8
0
 62
     7
370
    60
100
AcDbCircle
 10
270.2660331826254
 20
113.8579152618026
 30
0.0
 40
0.4199999999999642
100
AcDbArc
 50
180.0000090000009
 51
269.9999970000009
  0
ARC
  5
20A
330
1F
100
AcDbEntity
  8
0
 62
     7
370
    60
100
AcDbCircle
 10
270.2660331826254
 20
120.0178882618026
 30
0.0
 40
0.4200000000000023
100
AcDbArc
 50
90.00000299999708
 51
180.0000089999971
  0
LINE
  5
20B
330
1F
100
AcDbEntity
  8
0
 62
     7
 48
0.384999
370
    60
100
AcDbLine
 10
289.5860411826254
 20
113.8579152618026
 30
0.0
 11
289.5860411826254
 21
129.2578782618026
 31
0.0
  0
LINE
  5
20C
330
1F
100
AcDbEntity
  8
0
 62
     7
 48
0.384999
370
    60
100
AcDbLine
 10
269.8460351826254
 20
123.0979052618026
 30
0.0
 11
269.8460351826254
 21
138.4978682618026
 31
0.0
  0
LINE
  5
20D
330
1F
100
AcDbEntity
  8
0
 62
     7
 48
0.034999
370
    60
100
AcDbLine
 10
282.5860411826254
 20
120.8579152618026
 30
0.0
 11
282.5860411826254
 21
122.2578782618026
 31
0.0
  0
ARC
  5
20E
330
1F
100
AcDbEntity
  8
0
 62
     7
370
    60
100
AcDbCircle
 10
282.1660421826255
 20
120.8579152618026
 30
0.0
 40
0.4200000000000023
100
AcDbArc
 50
269.9999969999952
 51
359.9999999999952
  0
ARC
  5
20F
330
1F
100
AcDbEntity
  8
0
 62
     7
370
    60
100
AcDbCircle
 10
289.1660421826255
 20
129.2578782618026
 30
0.0
 40
0.4199999999999591
100
AcDbArc
 50
0.0
 51
90.000003
  0
ARC
  5
210
330
1F
100
AcDbEntity
  8
0
 62
     7
370
    60
100
AcDbCircle
 10
289.1660421826255
 20
113.8579152618026
 30
0.0
 40
0.4200000000000023
100
AcDbArc
 50
269.9999969999952
 51
359.9999999999952
  0
ARC
  5
211
330
1F
100
AcDbEntity
  8
0
 62
     7
370
    60
100
AcDbCircle
 10
270.2660331826254
 20
123.0979052618026
 30
0.0
 40
0.4199999999999642
100
AcDbArc
 50
180.0000090000009
 51
269.9999970000009
  0
ARC
  5
212
330
1F
100
AcDbEntity
  8
0
 62
     7
370
    60
100
AcDbCircle
 10
282.1660421826255
 20
122.2578782618026
 30
0.0
 40
0.4199999999999591
100
AcDbArc
 50
0.0
 51
90.000003
  0
LINE
  5
213
330
1F
100
AcDbEntity
  8
0
 62
     7
 48
0.153999
370
    60
100
AcDbLine
 10
291.8260461826254
 20
113.8579152618026
 30
0.0
 11
291.8260461826254
 21
120.0178882618026
 31
0.0
  0
ARC
  5
214
330
1F
100
AcDbEntity
  8
0
 62
     7
370
    60
100
AcDbCircle
 10
298.1260341826254
 20
126.1778612618026
 30
0.0
 40
12.74
100
AcDbArc
 50
269.9999970000002
 51
14.47751100000022
  0
LINE
  5
215
330
1F
100
AcDbEntity
  8
0
 62
     7
 48
0.147
370
    60
100
AcDbLine
 10
292.2460441826254
 20
138.9179122618026
 30
0.0
 11
298.1260341826254
 21
138.9179122618026
 31
0.0
  0
LINE
  5
216
330
1F
100
AcDbEntity
  8
0
 62
     7
 48
0.147
370
    60
100
AcDbLine
 10
292.2460441826254
 20
113.4378712618026
 30
0.0
 11
298.1260341826254
 21
113.4378712618026
 31
0.0
  0
ARC
  5
217
330
1F
100
AcDbEntity
  8
0
 62
     7
370
    60
100
AcDbCircle
 10
292.2460441826254
 20
138.4978682618026
 30
0.0
 40
0.4200000000000165
100
AcDbArc
 50
90.00000300000484
 51
180.0000090000048
  0
ARC
  5
218
330
1F
100
AcDbEntity
  8
0
 62
     7
370
    60
100
AcDbCircle
 10
292.2460441826254
 20
113.8579152618026
 30
0.0
 40
0.4200000000000211
100
AcDbArc
 50
180.0000090000009
 51
269.9999970000009
  0
LINE
  5
219
330
1F
100
AcDbEntity
  8
0
 62
     7
 48
0.238736
370
    60
100
AcDbLine
 10
299.2460441826254
 20
131.9179122618026
 30
0.0
 11
308.7954681826254
 21
131.9179122618026
 31
0.0
  0
ARC
  5
21A
330
1F
100
AcDbEntity
  8
0
 62
     7
370
    60
100
AcDbCircle
 10
299.2460441826254
 20
131.4978682618026
 30
0.0
 40
0.4200000000000165
100
AcDbArc
 50
90.00000300000484
 51
180.0000090000048
  0
LINE
  5
21B
330
1F
100
AcDbEntity
  8
0
 62
     7
 48
0.034999
370
    60
100
AcDbLine
 10
298.8260311826255
 20
130.0979052618026
 30
0.0
 11
298.8260311826255
 21
131.4978682618026
 31
0.0
  0
ARC
  5
21C
330
1F
100
AcDbEntity
  8
0
 62
     7
370
    60
100
AcDbCircle
 10
299.2460441826254
 20
130.0979052618026
 30
0.0
 40
0.4200000000000211
100
AcDbArc
 50
180.000008999999
 51
269.9999969999989
  0
LINE
  5
21D
330
1F
100
AcDbEntity
  8
0
 62
     7
 48
0.270219
370
    60
100
AcDbLine
 10
299.2460441826254
 20
129.6778612618026
 30
0.0
 11
310.0548211826255
 21
129.6778612618026
 31
0.0
  0
LINE
  5
21E
330
1F
100
AcDbEntity
  8
0
 62
     7
 48
0.2975
370
    60
100
AcDbLine
 10
292.2460441826254
 20
122.6778612618026
 30
0.0
 11
304.1460381826254
 21
122.6778612618026
 31
0.0
  0
ARC
  5
21F
330
1F
100
AcDbEntity
  8
0
 62
     7
370
    60
100
AcDbCircle
 10
304.1460381826254
 20
122.2578782618026
 30
0.0
 40
0.4200000000000159
100
AcDbArc
 50
0.0
 51
90.000003
  0
ARC
  5
220
330
1F
100
AcDbEntity
  8
0
 62
     7
370
    60
100
AcDbCircle
 10
304.1460381826254
 20
120.8579152618026
 30
0.0
 40
0.4200000000000023
100
AcDbArc
 50
269.9999969999952
 51
359.9999999999952
  0
LINE
  5
221
330
1F
100
AcDbEntity
  8
0
 62
     7
 48
0.2975
370
    60
100
AcDbLine
 10
292.2460441826254
 20
120.4378712618026
 30
0.0
 11
304.1460381826254
 21
120.4378712618026
 31
0.0
  0
LINE
  5
222
330
1F
100
AcDbEntity
  8
0
 62
     7
 48
0.034999
370
    60
100
AcDbLine
 10
304.5660361826255
 20
120.8579152618026
 30
0.0
 11
304.5660361826255
 21
122.2578782618026
 31
0.0
  0
ARC
  5
223
330
1F
100
AcDbEntity
  8
0
 62
     7
370
    60
100
AcDbCircle
 10
298.1260341826254
 20
126.1778612618026
 30
0.0
 40
12.74000000000005
100
AcDbArc
 50
30.00000100000001
 51
90.00000300000002
  0
ARC
  5
224
330
1F
100
AcDbEntity
  8
0
 62
     7
370
    60
100
AcDbCircle
 10
308.7954681826254
 20
132.3378952618026
 30
0.0
 40
0.4200000000000165
100
AcDbArc
 50
269.9999970000029
 51
30.0000010000029
  0
ARC
  5
225
330
1F
100
AcDbEntity
  8
0
 62
     7
370
    60
100
AcDbCircle
 10
310.0548211826255
 20
129.2578782618026
 30
0.0
 40
0.4199999999999258
100
AcDbArc
 50
14.47751099999879
 51
90.0000029999988
  0
LINE
  5
226
330
1F
100
AcDbEntity
  8
0
 62
     7
 48
0.384999
370
    60
100
AcDbLine
 10
291.8260461826254
 20
123.0979052618026
 30
0.0
 11
291.8260461826254
 21
138.4978682618026
 31
0.0
  0
ARC
  5
227
330
1F
100
AcDbEntity
  8
0
 62
     7
370
    60
100
AcDbCircle
 10
292.2460441826254
 20
123.0979052618026
 30
0.0
 40
0.4200000000000211
100
AcDbArc
 50
180.0000090000009
 51
269.9999970000009
  0
ARC
  5
228
330
1F
100
AcDbEntity
  8
0
 62
     7
370
    60
100
AcDbCircle
 10
292.2460441826254
 20
120.0178882618026
 30
0.0
 40
0.4200000000000023
100
AcDbArc
 50
90.00000300000484
 51
180.0000090000048
  0
LINE
  5
229
330
1F
100
AcDbEntity
  8
0
 62
     7
 48
0.4725
370
    60
100
AcDbLine
 10
270.2660331826254
 20
138.9179122618026
 30
0.0
 11
289.1660421826255
 21
138.9179122618026
 31
0.0
  0
VIEWPORT
  5
BB
330
73
100
AcDbEntity
 67
     1
  8
0
100
AcDbViewport
 10
7.8
 20
4.5
 30
0.0
 40
15.64
 41
9.0
 68
     1
 69
     1
 12
6.0
 22
4.5
 13
0.0
 23
0.0
 14
0.5
 24
0.5
 15
0.5
 25
0.5
 16
0.0
 26
0.0
 36
1.0
 17
0.0
 27
0.0
 37
0.0
 42
50.0
 43
0.0
 44
0.0
 45
12.0
 50
0.0
 51
0.0
 72
   100
 90
   557152
  1

281
     0
 71
     1
 74
     0
110
0.0
120
0.0
130
0.0
111
1.0
121
0.0
131
0.0
112
0.0
122
1.0
132
0.0
 79
     0
146
0.0
  0
ENDSEC
  0
SECTION
  2
OBJECTS
  0
DICTIONARY
  5
C
330
0
100
AcDbDictionary
281
     1
  3
ACAD_COLOR
350
6C
  3
ACAD_GROUP
350
D
  3
ACAD_LAYOUT
350
1A
  3
ACAD_MATERIAL
350
6B
  3
ACAD_MLEADERSTYLE
350
2E7
  3
ACAD_MLINESTYLE
350
17
  3
ACAD_PLOTSETTINGS
350
19
  3
ACAD_PLOTSTYLENAME
350
E
  3
ACAD_SCALELIST
350
99
  3
ACAD_TABLESTYLE
350
92
  3
ACDBHEADERROUNDTRIPXREC
350
2E8
  3
AcDbVariableDictionary
350
59
  3
DWGPROPS
350
2EB
  0
DICTIONARY
  5
6C
102
{ACAD_REACTORS
330
C
102
}
330
C
100
AcDbDictionary
281
     1
  0
DICTIONARY
  5
D
102
{ACAD_REACTORS
330
C
102
}
330
C
100
AcDbDictionary
281
     1
  0
DICTIONARY
  5
1A
102
{ACAD_REACTORS
330
C
102
}
330
C
100
AcDbDictionary
281
     1
  3
Layout1
350
74
  3
Layout2
350
2C9
  3
Model
350
22
  0
DICTIONARY
  5
6B
102
{ACAD_REACTORS
330
C
102
}
330
C
100
AcDbDictionary
281
     1
  0
DICTIONARY
  5
2E7
102
{ACAD_REACTORS
330
C
102
}
330
C
100
AcDbDictionary
281
     1
  0
DICTIONARY
  5
17
102
{ACAD_REACTORS
330
C
102
}
330
C
100
AcDbDictionary
281
     1
  3
Standard
350
18
  0
DICTIONARY
  5
19
102
{ACAD_REACTORS
330
C
102
}
330
C
100
AcDbDictionary
281
     1
  0
ACDBDICTIONARYWDFLT
  5
E
102
{ACAD_REACTORS
330
C
102
}
330
C
100
AcDbDictionary
281
     1
  3
Normal
350
F
100
AcDbDictionaryWithDefault
340
F
  0
DICTIONARY
  5
99
102
{ACAD_REACTORS
330
C
102
}
330
C
100
AcDbDictionary
281
     1
  3
A0
350
D5
  3
A1
350
D6
  3
A2
350
D7
  3
A3
350
D8
  3
A4
350
D9
  3
A5
350
DA
  3
A6
350
DB
  3
A7
350
DC
  3
A8
350
DD
  3
A9
350
DE
  3
B0
350
DF
  3
B1
350
E0
  3
B2
350
E1
  3
B3
350
E2
  3
B4
350
E3
  3
B5
350
E4
  3
B6
350
E5
  3
B7
350
E6
  3
B8
350
E7
  3
B9
350
E8
  3
C0
350
E9
  3
C1
350
EA
  3
C2
350
EB
  3
C3
350
EC
  3
C4
350
ED
  3
C5
350
EE
  3
C6
350
EF
  3
C7
350
F0
  3
C8
350
F1
  3
C9
350
F2
  3
D0
350
F3
  3
D1
350
F4
  3
D2
350
F5
  0
DICTIONARY
  5
92
102
{ACAD_REACTORS
330
C
102
}
330
C
100
AcDbDictionary
281
     1
  0
DICTIONARY
  5
2E8
102
{ACAD_REACTORS
330
C
102
}
330
C
100
AcDbDictionary
281
     1
  3
COLORDICT
350
2E9
  3
MATERIALDICT
350
2EA
  0
DICTIONARY
  5
59
102
{ACAD_REACTORS
330
C
102
}
330
C
100
AcDbDictionary
281
     1
  3
CTABLESTYLE
350
98
  3
DIMASSOC
350
5A
  3
HIDETEXT
350
5E
  0
XRECORD
  5
2EB
102
{ACAD_REACTORS
330
C
102
}
330
C
100
AcDbXrecord
280
     1
  1
DWGPROPS COOKIE
  2

  3

  4

  6

  7

  8
BelottiMc
  9

300
=
301
=
302
=
303
=
304
=
305
=
306
=
307
=
308
=
309
=
 40
0.0
 41
2455093.435389572
 42
2455093.477056262
  1

 90
        0
  0
LAYOUT
  5
74
330
1A
100
AcDbPlotSettings
  1

  2
ProgeSOFT PDF Wizard
  4
A4
  6

 40
5.926666666666667
 41
6.011333333333317
 42
6.095999999999985
 43
5.926666666666667
 44
210.0
 45
297.0
 46
88.56200000000001
 47
136.531
 48
0.0
 49
0.0
140
0.0
141
0.0
142
1.0
143
1.0
 70
   692
 72
     1
 73
     0
 74
     0
  7

 75
    16
147
1.0
148
4.426666666666668
149
1.5
100
AcDbLayout
  1
Layout1
 70
     1
 71
     1
 10
0.0
 20
0.0
 11
0.0
 21
0.0
 12
0.0
 22
0.0
 32
0.0
 14
0.0
 24
0.0
 34
0.0
 15
0.0
 25
0.0
 35
0.0
146
0.0
 13
0.0
 23
0.0
 33
0.0
 16
1.0
 26
0.0
 36
0.0
 17
0.0
 27
1.0
 37
0.0
 76
     0
330
D1
331
2E6
1001
PROGE_PRINT_SETTINGS
1070
    73
1070
     1
  0
LAYOUT
  5
2C9
102
{ACAD_REACTORS
330
1A
102
}
330
1A
100
AcDbPlotSettings
  1

  2
ProgeSOFT PDF Wizard
  4
A4
  6

 40
5.926666666666667
 41
6.011333333333317
 42
6.095999999999985
 43
5.926666666666667
 44
210.0
 45
297.0
 46
88.562
 47
136.531
 48
0.0
 49
0.0
140
0.0
141
0.0
142
1.0
143
1.0
 70
   692
 72
     1
 73
     0
 74
     0
  7

 75
    16
147
1.0
148
0.0
149
0.0
100
AcDbLayout
  1
Layout2
 70
     1
 71
     2
 10
0.0
 20
0.0
 11
12.0
 21
9.0
 12
0.0
 22
0.0
 32
0.0
 14
0.0
 24
0.0
 34
0.0
 15
12.0
 25
9.0
 35
0.0
146
0.0
 13
0.0
 23
0.0
 33
0.0
 16
1.0
 26
0.0
 36
0.0
 17
0.0
 27
1.0
 37
0.0
 76
     0
330
73
331
BB
1001
PROGE_PRINT_SETTINGS
1070
    73
1070
     1
  0
LAYOUT
  5
22
330
1A
100
AcDbPlotSettings
  1

  2
ProgeSOFT PDF Wizard
  4
A4
  6

 40
5.926666666666667
 41
6.011333333333317
 42
6.095999999999985
 43
5.926666666666667
 44
210.0
 45
297.0
 46
13.37559707263189
 47
0.0000000000000098
 48
0.0
 49
0.0
140
0.0
141
0.0
142
1.0
143
3.721636744151942
 70
 11956
 72
     1
 73
     1
 74
     0
  7

 75
     0
147
0.2686989807834865
148
335.2213176984631
149
187.6033457129966
100
AcDbLayout
  1
Model
 70
     1
 71
     0
 10
0.0
 20
0.0
 11
0.0
 21
0.0
 12
0.0
 22
0.0
 32
0.0
 14
151.6260381826254
 24
56.29828326180258
 34
0.0
 15
457.2075825159587
 25
420.8371416856766
 35
0.0
146
0.0
 13
0.0
 23
0.0
 33
0.0
 16
1.0
 26
0.0
 36
0.0
 17
0.0
 27
1.0
 37
0.0
 76
     0
330
1F
331
97
  0
MLINESTYLE
  5
18
102
{ACAD_REACTORS
330
17
102
}
330
17
100
AcDbMlineStyle
  2
STANDARD
 70
     0
  3

 62
   256
 51
90.0
 52
90.0
 71
     2
 49
0.5
 62
   256
  6
BYLAYER
 49
-0.5
 62
   256
  6
BYLAYER
  0
ACDBPLACEHOLDER
  5
F
102
{ACAD_REACTORS
330
E
102
}
330
E
  0
SCALE
  5
D5
102
{ACAD_REACTORS
330
99
102
}
330
99
100
AcDbScale
 70
     0
300
1:1
140
1.0
141
1.0
290
     1
  0
SCALE
  5
D6
102
{ACAD_REACTORS
330
99
102
}
330
99
100
AcDbScale
 70
     0
300
1:2
140
1.0
141
2.0
290
     0
  0
SCALE
  5
D7
102
{ACAD_REACTORS
330
99
102
}
330
99
100
AcDbScale
 70
     0
300
1:4
140
1.0
141
4.0
290
     0
  0
SCALE
  5
D8
102
{ACAD_REACTORS
330
99
102
}
330
99
100
AcDbScale
 70
     0
300
1:5
140
1.0
141
5.0
290
     0
  0
SCALE
  5
D9
102
{ACAD_REACTORS
330
99
102
}
330
99
100
AcDbScale
 70
     0
300
1:8
140
1.0
141
8.0
290
     0
  0
SCALE
  5
DA
102
{ACAD_REACTORS
330
99
102
}
330
99
100
AcDbScale
 70
     0
300
1:10
140
1.0
141
10.0
290
     0
  0
SCALE
  5
DB
102
{ACAD_REACTORS
330
99
102
}
330
99
100
AcDbScale
 70
     0
300
1:16
140
1.0
141
16.0
290
     0
  0
SCALE
  5
DC
102
{ACAD_REACTORS
330
99
102
}
330
99
100
AcDbScale
 70
     0
300
1:20
140
1.0
141
20.0
290
     0
  0
SCALE
  5
DD
102
{ACAD_REACTORS
330
99
102
}
330
99
100
AcDbScale
 70
     0
300
1:30
140
1.0
141
30.0
290
     0
  0
SCALE
  5
DE
102
{ACAD_REACTORS
330
99
102
}
330
99
100
AcDbScale
 70
     0
300
1:40
140
1.0
141
40.0
290
     0
  0
SCALE
  5
DF
102
{ACAD_REACTORS
330
99
102
}
330
99
100
AcDbScale
 70
     0
300
1:50
140
1.0
141
50.0
290
     0
  0
SCALE
  5
E0
102
{ACAD_REACTORS
330
99
102
}
330
99
100
AcDbScale
 70
     0
300
1:100
140
1.0
141
100.0
290
     0
  0
SCALE
  5
E1
102
{ACAD_REACTORS
330
99
102
}
330
99
100
AcDbScale
 70
     0
300
2:1
140
2.0
141
1.0
290
     0
  0
SCALE
  5
E2
102
{ACAD_REACTORS
330
99
102
}
330
99
100
AcDbScale
 70
     0
300
4:1
140
4.0
141
1.0
290
     0
  0
SCALE
  5
E3
102
{ACAD_REACTORS
330
99
102
}
330
99
100
AcDbScale
 70
     0
300
8:1
140
8.0
141
1.0
290
     0
  0
SCALE
  5
E4
102
{ACAD_REACTORS
330
99
102
}
330
99
100
AcDbScale
 70
     0
300
10:1
140
10.0
141
1.0
290
     0
  0
SCALE
  5
E5
102
{ACAD_REACTORS
330
99
102
}
330
99
100
AcDbScale
 70
     0
300
100:1
140
100.0
141
1.0
290
     0
  0
SCALE
  5
E6
102
{ACAD_REACTORS
330
99
102
}
330
99
100
AcDbScale
 70
     0
300
1/128" = 1'-0"
140
0.0078125
141
12.0
290
     0
  0
SCALE
  5
E7
102
{ACAD_REACTORS
330
99
102
}
330
99
100
AcDbScale
 70
     0
300
1/64" = 1'-0"
140
0.015625
141
12.0
290
     0
  0
SCALE
  5
E8
102
{ACAD_REACTORS
330
99
102
}
330
99
100
AcDbScale
 70
     0
300
1/32" = 1'-0"
140
0.03125
141
12.0
290
     0
  0
SCALE
  5
E9
102
{ACAD_REACTORS
330
99
102
}
330
99
100
AcDbScale
 70
     0
300
1/16" = 1'-0"
140
0.0625
141
12.0
290
     0
  0
SCALE
  5
EA
102
{ACAD_REACTORS
330
99
102
}
330
99
100
AcDbScale
 70
     0
300
3/32" = 1'-0"
140
0.09375
141
12.0
290
     0
  0
SCALE
  5
EB
102
{ACAD_REACTORS
330
99
102
}
330
99
100
AcDbScale
 70
     0
300
1/8" = 1'-0"
140
0.125
141
12.0
290
     0
  0
SCALE
  5
EC
102
{ACAD_REACTORS
330
99
102
}
330
99
100
AcDbScale
 70
     0
300
3/16" = 1'-0"
140
0.1875
141
12.0
290
     0
  0
SCALE
  5
ED
102
{ACAD_REACTORS
330
99
102
}
330
99
100
AcDbScale
 70
     0
300
1/4" = 1'-0"
140
0.25
141
12.0
290
     0
  0
SCALE
  5
EE
102
{ACAD_REACTORS
330
99
102
}
330
99
100
AcDbScale
 70
     0
300
3/8" = 1'-0"
140
0.375
141
12.0
290
     0
  0
SCALE
  5
EF
102
{ACAD_REACTORS
330
99
102
}
330
99
100
AcDbScale
 70
     0
300
1/2" = 1'-0"
140
0.5
141
12.0
290
     0
  0
SCALE
  5
F0
102
{ACAD_REACTORS
330
99
102
}
330
99
100
AcDbScale
 70
     0
300
3/4" = 1'-0"
140
0.75
141
12.0
290
     0
  0
SCALE
  5
F1
102
{ACAD_REACTORS
330
99
102
}
330
99
100
AcDbScale
 70
     0
300
1" = 1'-0"
140
1.0
141
12.0
290
     0
  0
SCALE
  5
F2
102
{ACAD_REACTORS
330
99
102
}
330
99
100
AcDbScale
 70
     0
300
1-1/2" = 1'-0"
140
1.5
141
12.0
290
     0
  0
SCALE
  5
F3
102
{ACAD_REACTORS
330
99
102
}
330
99
100
AcDbScale
 70
     0
300
3" = 1'-0"
140
3.0
141
12.0
290
     0
  0
SCALE
  5
F4
102
{ACAD_REACTORS
330
99
102
}
330
99
100
AcDbScale
 70
     0
300
6" = 1'-0"
140
6.0
141
12.0
290
     0
  0
SCALE
  5
F5
102
{ACAD_REACTORS
330
99
102
}
330
99
100
AcDbScale
 70
     0
300
1'-0" = 1'-0"
140
12.0
141
12.0
290
     0
  0
XRECORD
  5
2E9
102
{ACAD_REACTORS
330
2E8
102
}
330
2E8
100
AcDbXrecord
280
     1
340
6C
  0
XRECORD
  5
2EA
102
{ACAD_REACTORS
330
2E8
102
}
330
2E8
100
AcDbXrecord
280
     1
340
6B
  0
DICTIONARYVAR
  5
98
102
{ACAD_REACTORS
330
59
102
}
330
59
100
DictionaryVariables
280
     0
  1
Standard
  0
DICTIONARYVAR
  5
5A
102
{ACAD_REACTORS
330
59
102
}
330
59
100
DictionaryVariables
280
     0
  1
2
  0
DICTIONARYVAR
  5
5E
102
{ACAD_REACTORS
330
59
102
}
330
59
100
DictionaryVariables
280
     0
  1
1
  0
ENDSEC
  0
EOF
