  0
SECTION
  2
HEADER
  9
$ACADVER
  1
AC1015
  9
$ACADMAINTVER
 70
     6
  9
$DWGCODEPAGE
  3
ANSI_1252
  9
$INSBASE
 10
0.0
 20
0.0
 30
0.0
  9
$EXTMIN
 10
0.0
 20
0.0
 30
0.0
  9
$EXTMAX
 10
450.8590554658873
 20
372.1101588251466
 30
0.0
  9
$LIMMIN
 10
0.0
 20
0.0
  9
$LIMMAX
 10
0.0
 20
0.0
  9
$ORTHOMODE
 70
     0
  9
$REGENMODE
 70
     1
  9
$FILLMODE
 70
     1
  9
$QTEXTMODE
 70
     0
  9
$MIRRTEXT
 70
     0
  9
$LTSCALE
 40
1.0
  9
$ATTMODE
 70
     1
  9
$TEXTSIZE
 40
2.5
  9
$TRACEWID
 40
1.0
  9
$TEXTSTYLE
  7
Standard
  9
$CLAYER
  8
0
  9
$CELTYPE
  6
ByLayer
  9
$CECOLOR
 62
   256
  9
$CELTSCALE
 40
1.0
  9
$DISPSILH
 70
     0
  9
$DIMSCALE
 40
1.0
  9
$DIMASZ
 40
2.5
  9
$DIMEXO
 40
0.625
  9
$DIMDLI
 40
3.75
  9
$DIMRND
 40
0.0
  9
$DIMDLE
 40
0.0
  9
$DIMEXE
 40
1.25
  9
$DIMTP
 40
0.0
  9
$DIMTM
 40
0.0
  9
$DIMTXT
 40
2.5
  9
$DIMCEN
 40
2.5
  9
$DIMTSZ
 40
0.0
  9
$DIMTOL
 70
     0
  9
$DIMLIM
 70
     0
  9
$DIMTIH
 70
     0
  9
$DIMTOH
 70
     0
  9
$DIMSE1
 70
     0
  9
$DIMSE2
 70
     0
  9
$DIMTAD
 70
     1
  9
$DIMZIN
 70
     8
  9
$DIMBLK
  1

  9
$DIMASO
 70
     1
  9
$DIMSHO
 70
     1
  9
$DIMPOST
  1

  9
$DIMAPOST
  1

  9
$DIMALT
 70
     0
  9
$DIMALTD
 70
     3
  9
$DIMALTF
 40
0.03937007874016
  9
$DIMLFAC
 40
1.0
  9
$DIMTOFL
 70
     1
  9
$DIMTVP
 40
0.0
  9
$DIMTIX
 70
     0
  9
$DIMSOXD
 70
     0
  9
$DIMSAH
 70
     0
  9
$DIMBLK1
  1

  9
$DIMBLK2
  1

  9
$DIMSTYLE
  2
ISO-25
  9
$DIMCLRD
 70
     0
  9
$DIMCLRE
 70
     0
  9
$DIMCLRT
 70
     0
  9
$DIMTFAC
 40
1.0
  9
$DIMGAP
 40
0.625
  9
$DIMJUST
 70
     0
  9
$DIMSD1
 70
     0
  9
$DIMSD2
 70
     0
  9
$DIMTOLJ
 70
     0
  9
$DIMTZIN
 70
     8
  9
$DIMALTZ
 70
     0
  9
$DIMALTTZ
 70
     0
  9
$DIMUPT
 70
     0
  9
$DIMDEC
 70
     2
  9
$DIMTDEC
 70
     2
  9
$DIMALTU
 70
     2
  9
$DIMALTTD
 70
     3
  9
$DIMTXSTY
  7
Standard
  9
$DIMAUNIT
 70
     0
  9
$DIMADEC
 70
     0
  9
$DIMALTRND
 40
0.0
  9
$DIMAZIN
 70
     0
  9
$DIMDSEP
 70
    44
  9
$DIMATFIT
 70
     3
  9
$DIMFRAC
 70
     0
  9
$DIMLDRBLK
  1

  9
$DIMLUNIT
 70
     2
  9
$DIMLWD
 70
    -2
  9
$DIMLWE
 70
    -2
  9
$DIMTMOVE
 70
     0
  9
$LUNITS
 70
     2
  9
$LUPREC
 70
     4
  9
$SKETCHINC
 40
1.0
  9
$FILLETRAD
 40
0.0
  9
$AUNITS
 70
     0
  9
$AUPREC
 70
     0
  9
$MENU
  1
.
  9
$ELEVATION
 40
0.0
  9
$PELEVATION
 40
0.0
  9
$THICKNESS
 40
0.0
  9
$LIMCHECK
 70
     0
  9
$CHAMFERA
 40
0.0
  9
$CHAMFERB
 40
0.0
  9
$CHAMFERC
 40
0.0
  9
$CHAMFERD
 40
0.0
  9
$SKPOLY
 70
     0
  9
$TDCREATE
 40
2455096.401241146
  9
$TDUCREATE
 40
2455096.317907813
  9
$TDUPDATE
 40
2455096.442907801
  9
$TDUUPDATE
 40
2455096.359574467
  9
$TDINDWG
 40
0.030074294
  9
$TDUSRTIMER
 40
0.0300719329
  9
$USRTIMER
 70
     1
  9
$ANGBASE
 50
0.0
  9
$ANGDIR
 70
     0
  9
$PDMODE
 70
     0
  9
$PDSIZE
 40
0.0
  9
$PLINEWID
 40
0.0
  9
$SPLFRAME
 70
     0
  9
$SPLINETYPE
 70
     6
  9
$SPLINESEGS
 70
     8
  9
$HANDSEED
  5
23C
  9
$SURFTAB1
 70
     6
  9
$SURFTAB2
 70
     6
  9
$SURFTYPE
 70
     6
  9
$SURFU
 70
     6
  9
$SURFV
 70
     6
  9
$UCSBASE
  2

  9
$UCSNAME
  2

  9
$UCSORG
 10
0.0
 20
0.0
 30
0.0
  9
$UCSXDIR
 10
1.0
 20
0.0
 30
0.0
  9
$UCSYDIR
 10
0.0
 20
1.0
 30
0.0
  9
$UCSORTHOREF
  2

  9
$UCSORTHOVIEW
 70
     0
  9
$UCSORGTOP
 10
0.0
 20
0.0
 30
0.0
  9
$UCSORGBOTTOM
 10
0.0
 20
0.0
 30
0.0
  9
$UCSORGLEFT
 10
0.0
 20
0.0
 30
0.0
  9
$UCSORGRIGHT
 10
0.0
 20
0.0
 30
0.0
  9
$UCSORGFRONT
 10
0.0
 20
0.0
 30
0.0
  9
$UCSORGBACK
 10
0.0
 20
0.0
 30
0.0
  9
$PUCSBASE
  2

  9
$PUCSNAME
  2

  9
$PUCSORG
 10
0.0
 20
0.0
 30
0.0
  9
$PUCSXDIR
 10
1.0
 20
0.0
 30
0.0
  9
$PUCSYDIR
 10
0.0
 20
1.0
 30
0.0
  9
$PUCSORTHOREF
  2

  9
$PUCSORTHOVIEW
 70
     0
  9
$PUCSORGTOP
 10
0.0
 20
0.0
 30
0.0
  9
$PUCSORGBOTTOM
 10
0.0
 20
0.0
 30
0.0
  9
$PUCSORGLEFT
 10
0.0
 20
0.0
 30
0.0
  9
$PUCSORGRIGHT
 10
0.0
 20
0.0
 30
0.0
  9
$PUCSORGFRONT
 10
0.0
 20
0.0
 30
0.0
  9
$PUCSORGBACK
 10
0.0
 20
0.0
 30
0.0
  9
$USERI1
 70
     0
  9
$USERI2
 70
     0
  9
$USERI3
 70
     0
  9
$USERI4
 70
     0
  9
$USERI5
 70
     0
  9
$USERR1
 40
0.0
  9
$USERR2
 40
0.0
  9
$USERR3
 40
0.0
  9
$USERR4
 40
0.0
  9
$USERR5
 40
0.0
  9
$WORLDVIEW
 70
     1
  9
$SHADEDGE
 70
     3
  9
$SHADEDIF
 70
    70
  9
$TILEMODE
 70
     1
  9
$MAXACTVP
 70
    64
  9
$PINSBASE
 10
0.0
 20
0.0
 30
0.0
  9
$PLIMCHECK
 70
     0
  9
$PEXTMIN
 10
0.0
 20
0.0
 30
0.0
  9
$PEXTMAX
 10
12.0
 20
9.0
 30
0.0
  9
$PLIMMIN
 10
0.0
 20
0.0
  9
$PLIMMAX
 10
12.0
 20
9.0
  9
$UNITMODE
 70
     0
  9
$VISRETAIN
 70
     1
  9
$PLINEGEN
 70
     0
  9
$PSLTSCALE
 70
     1
  9
$TREEDEPTH
 70
  3020
  9
$CMLSTYLE
  2
Standard
  9
$CMLJUST
 70
     0
  9
$CMLSCALE
 40
20.0
  9
$PROXYGRAPHICS
 70
     1
  9
$MEASUREMENT
 70
     1
  9
$CELWEIGHT
370
    -1
  9
$ENDCAPS
280
     0
  9
$JOINSTYLE
280
     0
  9
$LWDISPLAY
290
     0
  9
$INSUNITS
 70
     4
  9
$HYPERLINKBASE
  1

  9
$STYLESHEET
  1

  9
$XEDIT
290
     1
  9
$CEPSNTYPE
380
     0
  9
$PSTYLEMODE
290
     1
  9
$FINGERPRINTGUID
  2
{5559452E-1E62-4159-8551-BF76FFF3E7E8}
  9
$VERSIONGUID
  2
{3CEB9EF8-4431-4551-B596-6734A9F966A9}
  9
$EXTNAMES
290
     1
  9
$PSVPSCALE
 40
0.0
  9
$OLESTARTUP
290
     0
  0
ENDSEC
  0
SECTION
  2
CLASSES
  0
CLASS
  1
ACDBDICTIONARYWDFLT
  2
AcDbDictionaryWithDefault
  3
ObjectDBX Classes
 90
        0
280
     0
281
     0
  0
CLASS
  1
ACDBPLACEHOLDER
  2
AcDbPlaceHolder
  3
ObjectDBX Classes
 90
        0
280
     0
281
     0
  0
CLASS
  1
LAYOUT
  2
AcDbLayout
  3
ObjectDBX Classes
 90
        0
280
     0
281
     0
  0
CLASS
  1
DICTIONARYVAR
  2
AcDbDictionaryVar
  3
ObjectDBX Classes
 90
        0
280
     0
281
     0
  0
CLASS
  1
TABLESTYLE
  2
AcDbTableStyle
  3
ObjectDBX Classes
 90
     4095
280
     0
281
     0
  0
CLASS
  1
SCALE
  2
AcDbScale
  3
ObjectDBX Classes
 90
     1153
280
     0
281
     0
  0
ENDSEC
  0
SECTION
  2
TABLES
  0
TABLE
  2
VPORT
  5
8
330
0
100
AcDbSymbolTable
 70
     2
  0
VPORT
  5
97
330
8
100
AcDbSymbolTableRecord
100
AcDbViewportTableRecord
  2
*Active
 70
     0
 10
0.0
 20
0.0
 11
1.0
 21
1.0
 12
297.8411559894047
 22
195.8712008408513
 13
0.0
 23
0.0
 14
10.0
 24
10.0
 15
10.0
 25
10.0
 16
0.0
 26
0.0
 36
1.0
 17
0.0
 27
0.0
 37
0.0
 40
378.8265306122449
 41
1.664827586206897
 42
50.0
 43
0.0
 44
0.0
 50
0.0
 51
0.0
 71
     0
 72
  1000
 73
     1
 74
     3
 75
     0
 76
     0
 77
     0
 78
     0
281
     0
 65
     1
110
0.0
120
0.0
130
0.0
111
1.0
121
0.0
131
0.0
112
0.0
122
1.0
132
0.0
 79
     0
146
0.0
  0
ENDTAB
  0
TABLE
  2
LTYPE
  5
5
330
0
100
AcDbSymbolTable
 70
     1
  0
LTYPE
  5
14
330
5
100
AcDbSymbolTableRecord
100
AcDbLinetypeTableRecord
  2
ByBlock
 70
     0
  3

 72
    65
 73
     0
 40
0.0
  0
LTYPE
  5
15
330
5
100
AcDbSymbolTableRecord
100
AcDbLinetypeTableRecord
  2
ByLayer
 70
     0
  3

 72
    65
 73
     0
 40
0.0
  0
LTYPE
  5
16
330
5
100
AcDbSymbolTableRecord
100
AcDbLinetypeTableRecord
  2
Continuous
 70
     0
  3
Solid line
 72
    65
 73
     0
 40
0.0
  0
ENDTAB
  0
TABLE
  2
LAYER
  5
2
330
0
100
AcDbSymbolTable
 70
     3
  0
LAYER
  5
10
330
2
100
AcDbSymbolTableRecord
100
AcDbLayerTableRecord
  2
0
 70
     0
 62
     7
  6
Continuous
370
    -3
390
F
  0
LAYER
  5
F8
330
2
100
AcDbSymbolTableRecord
100
AcDbLayerTableRecord
  2
3
 70
     0
 62
     7
  6
Continuous
370
    13
390
F
  0
LAYER
  5
1DF
330
2
100
AcDbSymbolTableRecord
100
AcDbLayerTableRecord
  2
DEFPOINTS
 70
     0
 62
     7
  6
Continuous
290
     0
370
    -3
390
F
  0
ENDTAB
  0
TABLE
  2
STYLE
  5
3
330
0
100
AcDbSymbolTable
 70
     1
  0
STYLE
  5
11
330
3
100
AcDbSymbolTableRecord
100
AcDbTextStyleTableRecord
  2
Standard
 70
     0
 40
0.0
 41
1.0
 50
0.0
 71
     0
 42
2.5
  3
txt
  4

  0
ENDTAB
  0
TABLE
  2
VIEW
  5
6
330
0
100
AcDbSymbolTable
 70
     0
  0
ENDTAB
  0
TABLE
  2
UCS
  5
7
330
0
100
AcDbSymbolTable
 70
     0
  0
ENDTAB
  0
TABLE
  2
APPID
  5
9
330
0
100
AcDbSymbolTable
 70
     2
  0
APPID
  5
12
330
9
100
AcDbSymbolTableRecord
100
AcDbRegAppTableRecord
  2
ACAD
 70
     0
  0
APPID
  5
225
330
9
100
AcDbSymbolTableRecord
100
AcDbRegAppTableRecord
  2
PROGE_PRINT_SETTINGS
 70
     0
  0
ENDTAB
  0
TABLE
  2
DIMSTYLE
  5
A
330
0
100
AcDbSymbolTable
 70
     2
100
AcDbDimStyleTable
  0
DIMSTYLE
105
27
102
{ACAD_REACTORS
330
1DC
330
1DD
330
1DE
102
}
330
A
100
AcDbSymbolTableRecord
100
AcDbDimStyleTableRecord
  2
Standard
 70
     0
278
     0
340
11
  0
DIMSTYLE
105
29
330
A
100
AcDbSymbolTableRecord
100
AcDbDimStyleTableRecord
  2
ISO-25
 70
     0
 41
2.5
 42
0.625
 43
3.75
 44
1.25
 73
     0
 74
     0
 77
     1
 78
     8
140
2.5
141
2.5
143
0.03937007874016
147
0.625
171
     3
172
     1
271
     2
272
     2
274
     3
278
    44
283
     0
284
     8
340
11
  0
ENDTAB
  0
TABLE
  2
BLOCK_RECORD
  5
1
330
0
100
AcDbSymbolTable
 70
     7
  0
BLOCK_RECORD
  5
1F
330
1
100
AcDbSymbolTableRecord
100
AcDbBlockTableRecord
  2
*Model_Space
340
22
  0
BLOCK_RECORD
  5
73
330
1
100
AcDbSymbolTableRecord
100
AcDbBlockTableRecord
  2
*Paper_Space
340
227
  0
BLOCK_RECORD
  5
D1
330
1
100
AcDbSymbolTableRecord
100
AcDbBlockTableRecord
  2
*Paper_Space0
340
74
  0
BLOCK_RECORD
  5
1EA
330
1
100
AcDbSymbolTableRecord
100
AcDbBlockTableRecord
  2
*D1
340
0
  0
BLOCK_RECORD
  5
1F5
330
1
100
AcDbSymbolTableRecord
100
AcDbBlockTableRecord
  2
*D2
340
0
  0
BLOCK_RECORD
  5
201
330
1
100
AcDbSymbolTableRecord
100
AcDbBlockTableRecord
  2
*D3
340
0
  0
BLOCK_RECORD
  5
20C
330
1
100
AcDbSymbolTableRecord
100
AcDbBlockTableRecord
  2
*D4
340
0
  0
BLOCK_RECORD
  5
217
330
1
100
AcDbSymbolTableRecord
100
AcDbBlockTableRecord
  2
*D5
340
0
  0
BLOCK_RECORD
  5
223
330
1
100
AcDbSymbolTableRecord
100
AcDbBlockTableRecord
  2
*D6
340
0
  0
ENDTAB
  0
ENDSEC
  0
SECTION
  2
BLOCKS
  0
BLOCK
  5
20
330
1F
100
AcDbEntity
  8
0
100
AcDbBlockBegin
  2
*Model_Space
 70
     0
 10
0.0
 20
0.0
 30
0.0
  3
*Model_Space
  1

  0
ENDBLK
  5
21
330
1F
100
AcDbEntity
  8
0
100
AcDbBlockEnd
  0
BLOCK
  5
75
330
73
100
AcDbEntity
 67
     1
  8
0
100
AcDbBlockBegin
  2
*Paper_Space
 70
     0
 10
0.0
 20
0.0
 30
0.0
  3
*Paper_Space
  1

  0
ENDBLK
  5
76
330
73
100
AcDbEntity
 67
     1
  8
0
100
AcDbBlockEnd
  0
BLOCK
  5
228
330
D1
100
AcDbEntity
  8
0
100
AcDbBlockBegin
  2
*Paper_Space0
 70
     0
 10
0.0
 20
0.0
 30
0.0
  3
*Paper_Space0
  1

  0
VIEWPORT
  5
236
330
D1
100
AcDbEntity
  8
0
100
AcDbViewport
 10
7.8
 20
4.5
 30
0.0
 40
15.64
 41
9.0
 68
     1
 69
     1
 12
6.0
 22
4.5
 13
0.0
 23
0.0
 14
0.5
 24
0.5
 15
0.5
 25
0.5
 16
0.0
 26
0.0
 36
1.0
 17
0.0
 27
0.0
 37
0.0
 42
50.0
 43
0.0
 44
0.0
 45
12.0
 50
0.0
 51
0.0
 72
   100
 90
   557152
  1

281
     0
 71
     1
 74
     0
110
0.0
120
0.0
130
0.0
111
1.0
121
0.0
131
0.0
112
0.0
122
1.0
132
0.0
 79
     0
146
0.0
  0
ENDBLK
  5
229
330
D1
100
AcDbEntity
  8
0
100
AcDbBlockEnd
  0
BLOCK
  5
22A
330
1EA
100
AcDbEntity
  8
0
100
AcDbBlockBegin
  2
*D1
 70
     1
 10
0.0
 20
0.0
 30
0.0
  3
*D1
  1

  0
POINT
  5
1E1
330
1EA
100
AcDbEntity
  8
DEFPOINTS
  6
ByBlock
 62
     7
380
     1
100
AcDbPoint
 10
303.4276525769866
 20
358.3175965665237
 30
0.0
  0
POINT
  5
1E2
330
1EA
100
AcDbEntity
  8
DEFPOINTS
  6
ByBlock
 62
     7
380
     1
100
AcDbPoint
 10
299.2256574560118
 20
78.8175965665236
 30
0.0
  0
LINE
  5
1E3
330
1EA
100
AcDbEntity
  8
0
  6
ByBlock
 62
     7
370
    -2
380
     1
100
AcDbLine
 10
304.0526525769866
 20
358.3175965665237
 30
0.0
 11
369.2740513521621
 21
358.3175965665237
 31
0.0
  0
LINE
  5
1E4
330
1EA
100
AcDbEntity
  8
0
  6
ByBlock
 62
     7
370
    -2
380
     1
100
AcDbLine
 10
299.8506574560118
 20
78.8175965665236
 30
0.0
 11
369.2740513521621
 21
78.8175965665236
 31
0.0
  0
LINE
  5
1E5
330
1EA
100
AcDbEntity
  8
0
  6
ByBlock
 62
     7
370
    -2
380
     1
100
AcDbLine
 10
368.0240513521621
 20
348.3175965665237
 30
0.0
 11
368.0240513521621
 21
88.8175965665236
 31
0.0
  0
SOLID
  5
1E6
330
1EA
100
AcDbEntity
  8
0
  6
ByBlock
 62
     7
380
     1
100
AcDbTrace
 10
368.0240513521621
 20
358.3175965665237
 30
0.0
 11
366.3573846854954
 21
348.3175965665237
 31
0.0
 12
369.6907180188288
 22
348.3175965665237
 32
0.0
 13
369.6907180188288
 23
348.3175965665237
 33
0.0
  0
SOLID
  5
1E7
330
1EA
100
AcDbEntity
  8
0
  6
ByBlock
 62
     7
380
     1
100
AcDbTrace
 10
368.0240513521621
 20
78.8175965665236
 30
0.0
 11
366.3573846854954
 21
88.8175965665236
 31
0.0
 12
369.6907180188288
 22
88.8175965665236
 32
0.0
 13
369.6907180188288
 23
88.8175965665236
 33
0.0
  0
MTEXT
  5
1E8
330
1EA
100
AcDbEntity
  8
0
  6
ByBlock
 62
     0
370
    -2
380
     1
100
AcDbMText
 10
354.8573846854954
 20
218.5675965665237
 30
0.0
 40
14.0
 41
0.0
 71
     5
 72
     1
  1
\A1;279,5
 11
6.123031769111886E-17
 21
1.0
 31
0.0
 73
     1
 44
1.0
  0
ENDBLK
  5
22B
330
1EA
100
AcDbEntity
  8
0
100
AcDbBlockEnd
  0
BLOCK
  5
22C
330
1F5
100
AcDbEntity
  8
0
100
AcDbBlockBegin
  2
*D2
 70
     1
 10
0.0
 20
0.0
 30
0.0
  3
*D2
  1

  0
POINT
  5
1EC
330
1F5
100
AcDbEntity
  8
DEFPOINTS
  6
ByBlock
 62
     7
380
     1
100
AcDbPoint
 10
137.179686251295
 20
327.3127297931928
 30
0.0
  0
POINT
  5
1ED
330
1F5
100
AcDbEntity
  8
DEFPOINTS
  6
ByBlock
 62
     7
380
     1
100
AcDbPoint
 10
334.179686251295
 20
327.3127297931928
 30
0.0
  0
LINE
  5
1EE
330
1F5
100
AcDbEntity
  8
0
  6
ByBlock
 62
     7
370
    -2
380
     1
100
AcDbLine
 10
137.179686251295
 20
327.9377297931928
 30
0.0
 11
137.179686251295
 21
382.6330151390794
 31
0.0
  0
LINE
  5
1EF
330
1F5
100
AcDbEntity
  8
0
  6
ByBlock
 62
     7
370
    -2
380
     1
100
AcDbLine
 10
334.179686251295
 20
327.9377297931928
 30
0.0
 11
334.179686251295
 21
382.6330151390794
 31
0.0
  0
LINE
  5
1F0
330
1F5
100
AcDbEntity
  8
0
  6
ByBlock
 62
     7
370
    -2
380
     1
100
AcDbLine
 10
147.179686251295
 20
381.3830151390794
 30
0.0
 11
324.179686251295
 21
381.3830151390794
 31
0.0
  0
SOLID
  5
1F1
330
1F5
100
AcDbEntity
  8
0
  6
ByBlock
 62
     7
380
     1
100
AcDbTrace
 10
137.179686251295
 20
381.3830151390794
 30
0.0
 11
147.179686251295
 21
379.7163484724127
 31
0.0
 12
147.179686251295
 22
383.0496818057461
 32
0.0
 13
147.179686251295
 23
383.0496818057461
 33
0.0
  0
SOLID
  5
1F2
330
1F5
100
AcDbEntity
  8
0
  6
ByBlock
 62
     7
380
     1
100
AcDbTrace
 10
334.179686251295
 20
381.3830151390794
 30
0.0
 11
324.179686251295
 21
379.7163484724127
 31
0.0
 12
324.179686251295
 22
383.0496818057461
 32
0.0
 13
324.179686251295
 23
383.0496818057461
 33
0.0
  0
MTEXT
  5
1F3
330
1F5
100
AcDbEntity
  8
0
  6
ByBlock
 62
     0
370
    -2
380
     1
100
AcDbMText
 10
235.679686251295
 20
393.3830151390794
 30
0.0
 40
14.0
 41
0.0
 71
     5
 72
     1
  1
\A1;197
 73
     1
 44
1.0
  0
ENDBLK
  5
22D
330
1F5
100
AcDbEntity
  8
0
100
AcDbBlockEnd
  0
BLOCK
  5
22E
330
201
100
AcDbEntity
  8
0
100
AcDbBlockBegin
  2
*D3
 70
     1
 10
0.0
 20
0.0
 30
0.0
  3
*D3
  1

  0
POINT
  5
1F7
330
201
100
AcDbEntity
  8
DEFPOINTS
  6
ByBlock
 62
     7
380
     1
100
AcDbPoint
 10
441.753905251295
 20
331.8355528379629
 30
0.0
  0
POINT
  5
1F8
330
201
100
AcDbEntity
  8
DEFPOINTS
  6
ByBlock
 62
     7
380
     1
100
AcDbPoint
 10
471.253905251295
 20
331.8355528379629
 30
0.0
  0
LINE
  5
1F9
330
201
100
AcDbEntity
  8
0
  6
ByBlock
 62
     7
370
    -2
380
     1
100
AcDbLine
 10
441.753905251295
 20
332.4605528379629
 30
0.0
 11
441.753905251295
 21
382.6191001699249
 31
0.0
  0
LINE
  5
1FA
330
201
100
AcDbEntity
  8
0
  6
ByBlock
 62
     7
370
    -2
380
     1
100
AcDbLine
 10
471.253905251295
 20
332.4605528379629
 30
0.0
 11
471.253905251295
 21
382.6191001699249
 31
0.0
  0
LINE
  5
1FB
330
201
100
AcDbEntity
  8
0
  6
ByBlock
 62
     7
370
    -2
380
     1
100
AcDbLine
 10
451.753905251295
 20
381.3691001699249
 30
0.0
 11
461.253905251295
 21
381.3691001699249
 31
0.0
  0
LINE
  5
1FC
330
201
100
AcDbEntity
  8
0
  6
ByBlock
 62
     7
370
    -2
380
     1
100
AcDbLine
 10
441.753905251295
 20
381.3691001699249
 30
0.0
 11
377.4205719179616
 21
381.3691001699249
 31
0.0
  0
SOLID
  5
1FD
330
201
100
AcDbEntity
  8
0
  6
ByBlock
 62
     7
380
     1
100
AcDbTrace
 10
441.753905251295
 20
381.3691001699249
 30
0.0
 11
451.753905251295
 21
379.7024335032582
 31
0.0
 12
451.753905251295
 22
383.0357668365916
 32
0.0
 13
451.753905251295
 23
383.0357668365916
 33
0.0
  0
SOLID
  5
1FE
330
201
100
AcDbEntity
  8
0
  6
ByBlock
 62
     7
380
     1
100
AcDbTrace
 10
471.253905251295
 20
381.3691001699249
 30
0.0
 11
461.253905251295
 21
379.7024335032582
 31
0.0
 12
461.253905251295
 22
383.0357668365916
 32
0.0
 13
461.253905251295
 23
383.0357668365916
 33
0.0
  0
MTEXT
  5
1FF
330
201
100
AcDbEntity
  8
0
  6
ByBlock
 62
     0
370
    -2
380
     1
100
AcDbMText
 10
404.5872385846283
 20
394.5357668365915
 30
0.0
 40
14.0
 41
0.0
 71
     5
 72
     1
  1
\A1;29,5
 73
     1
 44
1.0
  0
ENDBLK
  5
22F
330
201
100
AcDbEntity
  8
0
100
AcDbBlockEnd
  0
BLOCK
  5
230
330
20C
100
AcDbEntity
  8
0
100
AcDbBlockBegin
  2
*D4
 70
     1
 10
0.0
 20
0.0
 30
0.0
  3
*D4
  1

  0
POINT
  5
203
330
20C
100
AcDbEntity
  8
DEFPOINTS
  6
ByBlock
 62
     7
380
     1
100
AcDbPoint
 10
116.7848364658872
 20
296.7204551150812
 30
0.0
  0
POINT
  5
204
330
20C
100
AcDbEntity
  8
DEFPOINTS
  6
ByBlock
 62
     7
380
     1
100
AcDbPoint
 10
313.7848364658872
 20
296.7204551150812
 30
0.0
  0
LINE
  5
205
330
20C
100
AcDbEntity
  8
0
  6
ByBlock
 62
     7
370
    -2
380
     1
100
AcDbLine
 10
116.7848364658872
 20
297.3454551150812
 30
0.0
 11
116.7848364658872
 21
352.0407404609678
 31
0.0
  0
LINE
  5
206
330
20C
100
AcDbEntity
  8
0
  6
ByBlock
 62
     7
370
    -2
380
     1
100
AcDbLine
 10
313.7848364658872
 20
297.3454551150812
 30
0.0
 11
313.7848364658872
 21
352.0407404609678
 31
0.0
  0
LINE
  5
207
330
20C
100
AcDbEntity
  8
0
  6
ByBlock
 62
     7
370
    -2
380
     1
100
AcDbLine
 10
126.7848364658872
 20
350.7907404609678
 30
0.0
 11
303.7848364658872
 21
350.7907404609678
 31
0.0
  0
SOLID
  5
208
330
20C
100
AcDbEntity
  8
0
  6
ByBlock
 62
     7
380
     1
100
AcDbTrace
 10
116.7848364658872
 20
350.7907404609678
 30
0.0
 11
126.7848364658872
 21
349.1240737943011
 31
0.0
 12
126.7848364658872
 22
352.4574071276345
 32
0.0
 13
126.7848364658872
 23
352.4574071276345
 33
0.0
  0
SOLID
  5
209
330
20C
100
AcDbEntity
  8
0
  6
ByBlock
 62
     7
380
     1
100
AcDbTrace
 10
313.7848364658872
 20
350.7907404609678
 30
0.0
 11
303.7848364658872
 21
349.1240737943011
 31
0.0
 12
303.7848364658872
 22
352.4574071276345
 32
0.0
 13
303.7848364658872
 23
352.4574071276345
 33
0.0
  0
MTEXT
  5
20A
330
20C
100
AcDbEntity
  8
0
  6
ByBlock
 62
     0
370
    -2
380
     1
100
AcDbMText
 10
215.2848364658872
 20
362.7907404609678
 30
0.0
 40
14.0
 41
0.0
 71
     5
 72
     1
  1
\A1;197
 73
     1
 44
1.0
  0
ENDBLK
  5
231
330
20C
100
AcDbEntity
  8
0
100
AcDbBlockEnd
  0
BLOCK
  5
232
330
217
100
AcDbEntity
  8
0
100
AcDbBlockBegin
  2
*D5
 70
     1
 10
0.0
 20
0.0
 30
0.0
  3
*D5
  1

  0
POINT
  5
20E
330
217
100
AcDbEntity
  8
DEFPOINTS
  6
ByBlock
 62
     7
380
     1
100
AcDbPoint
 10
283.0328027915788
 20
327.7253218884121
 30
0.0
  0
POINT
  5
20F
330
217
100
AcDbEntity
  8
DEFPOINTS
  6
ByBlock
 62
     7
380
     1
100
AcDbPoint
 10
278.830807670604
 20
48.22532188841202
 30
0.0
  0
LINE
  5
210
330
217
100
AcDbEntity
  8
0
  6
ByBlock
 62
     7
370
    -2
380
     1
100
AcDbLine
 10
283.6578027915788
 20
327.7253218884121
 30
0.0
 11
348.8792015667543
 21
327.7253218884121
 31
0.0
  0
LINE
  5
211
330
217
100
AcDbEntity
  8
0
  6
ByBlock
 62
     7
370
    -2
380
     1
100
AcDbLine
 10
279.455807670604
 20
48.225321888412
 30
0.0
 11
348.8792015667543
 21
48.225321888412
 31
0.0
  0
LINE
  5
212
330
217
100
AcDbEntity
  8
0
  6
ByBlock
 62
     7
370
    -2
380
     1
100
AcDbLine
 10
347.6292015667543
 20
317.7253218884121
 30
0.0
 11
347.6292015667543
 21
58.225321888412
 31
0.0
  0
SOLID
  5
213
330
217
100
AcDbEntity
  8
0
  6
ByBlock
 62
     7
380
     1
100
AcDbTrace
 10
347.6292015667543
 20
327.7253218884121
 30
0.0
 11
345.9625349000876
 21
317.7253218884121
 31
0.0
 12
349.295868233421
 22
317.7253218884121
 32
0.0
 13
349.295868233421
 23
317.7253218884121
 33
0.0
  0
SOLID
  5
214
330
217
100
AcDbEntity
  8
0
  6
ByBlock
 62
     7
380
     1
100
AcDbTrace
 10
347.6292015667543
 20
48.225321888412
 30
0.0
 11
345.9625349000876
 21
58.225321888412
 31
0.0
 12
349.295868233421
 22
58.225321888412
 32
0.0
 13
349.295868233421
 23
58.225321888412
 33
0.0
  0
MTEXT
  5
215
330
217
100
AcDbEntity
  8
0
  6
ByBlock
 62
     0
370
    -2
380
     1
100
AcDbMText
 10
334.4625349000876
 20
187.9753218884121
 30
0.0
 40
14.0
 41
0.0
 71
     5
 72
     1
  1
\A1;279,5
 11
6.123031769111886E-17
 21
1.0
 31
0.0
 73
     1
 44
1.0
  0
ENDBLK
  5
233
330
217
100
AcDbEntity
  8
0
100
AcDbBlockEnd
  0
BLOCK
  5
234
330
223
100
AcDbEntity
  8
0
100
AcDbBlockBegin
  2
*D6
 70
     1
 10
0.0
 20
0.0
 30
0.0
  3
*D6
  1

  0
POINT
  5
219
330
223
100
AcDbEntity
  8
DEFPOINTS
  6
ByBlock
 62
     7
380
     1
100
AcDbPoint
 10
421.3590554658873
 20
301.2432781598513
 30
0.0
  0
POINT
  5
21A
330
223
100
AcDbEntity
  8
DEFPOINTS
  6
ByBlock
 62
     7
380
     1
100
AcDbPoint
 10
450.8590554658873
 20
301.2432781598513
 30
0.0
  0
LINE
  5
21B
330
223
100
AcDbEntity
  8
0
  6
ByBlock
 62
     7
370
    -2
380
     1
100
AcDbLine
 10
421.3590554658873
 20
301.8682781598513
 30
0.0
 11
421.3590554658873
 21
352.0268254918133
 31
0.0
  0
LINE
  5
21C
330
223
100
AcDbEntity
  8
0
  6
ByBlock
 62
     7
370
    -2
380
     1
100
AcDbLine
 10
450.8590554658873
 20
301.8682781598513
 30
0.0
 11
450.8590554658873
 21
352.0268254918133
 31
0.0
  0
LINE
  5
21D
330
223
100
AcDbEntity
  8
0
  6
ByBlock
 62
     7
370
    -2
380
     1
100
AcDbLine
 10
431.3590554658873
 20
350.7768254918133
 30
0.0
 11
440.8590554658873
 21
350.7768254918133
 31
0.0
  0
LINE
  5
21E
330
223
100
AcDbEntity
  8
0
  6
ByBlock
 62
     7
370
    -2
380
     1
100
AcDbLine
 10
421.3590554658873
 20
350.7768254918133
 30
0.0
 11
357.0257221325539
 21
350.7768254918133
 31
0.0
  0
SOLID
  5
21F
330
223
100
AcDbEntity
  8
0
  6
ByBlock
 62
     7
380
     1
100
AcDbTrace
 10
421.3590554658873
 20
350.7768254918133
 30
0.0
 11
431.3590554658873
 21
349.1101588251466
 31
0.0
 12
431.3590554658873
 22
352.44349215848
 32
0.0
 13
431.3590554658873
 23
352.44349215848
 33
0.0
  0
SOLID
  5
220
330
223
100
AcDbEntity
  8
0
  6
ByBlock
 62
     7
380
     1
100
AcDbTrace
 10
450.8590554658873
 20
350.7768254918133
 30
0.0
 11
440.8590554658873
 21
349.1101588251466
 31
0.0
 12
440.8590554658873
 22
352.44349215848
 32
0.0
 13
440.8590554658873
 23
352.44349215848
 33
0.0
  0
MTEXT
  5
221
330
223
100
AcDbEntity
  8
0
  6
ByBlock
 62
     0
370
    -2
380
     1
100
AcDbMText
 10
384.1923887992206
 20
363.9434921584799
 30
0.0
 40
14.0
 41
0.0
 71
     5
 72
     1
  1
\A1;29,5
 73
     1
 44
1.0
  0
ENDBLK
  5
235
330
223
100
AcDbEntity
  8
0
100
AcDbBlockEnd
  0
ENDSEC
  0
SECTION
  2
ENTITIES
  0
POINT
  5
F9
330
1F
100
AcDbEntity
  8
3
 62
     7
370
    60
100
AcDbPoint
 10
280.2848374658872
 20
102.525339888412
 30
0.0
  0
POINT
  5
FA
330
1F
100
AcDbEntity
  8
3
 62
     7
370
    60
100
AcDbPoint
 10
150.2848374658872
 20
102.525339888412
 30
0.0
  0
LINE
  5
FB
330
1F
100
AcDbEntity
  8
0
 62
     7
370
    60
100
AcDbLine
 10
133.4848334658872
 20
313.025308888412
 30
0.0
 11
173.4848334658872
 21
313.025308888412
 31
0.0
  0
LINE
  5
FC
330
1F
100
AcDbEntity
  8
0
 62
     7
370
    60
100
AcDbLine
 10
133.4848334658872
 20
138.925333888412
 30
0.0
 11
173.4848334658872
 21
138.925333888412
 31
0.0
  0
LINE
  5
FD
330
1F
100
AcDbEntity
  8
0
 62
     7
 48
0.11125
370
    60
100
AcDbLine
 10
298.2848364658872
 20
313.025308888412
 30
0.0
 11
302.7348484658871
 21
313.025308888412
 31
0.0
  0
ARC
  5
FE
330
1F
100
AcDbEntity
  8
0
 62
     7
370
    60
100
AcDbCircle
 10
302.7348484658871
 20
313.525308888412
 30
0.0
 40
0.5000000000000001
100
AcDbArc
 50
270.0000010000014
 51
0.0000100000014135
  0
LINE
  5
FF
330
1F
100
AcDbEntity
  8
0
 62
     7
 48
0.0375
370
    60
100
AcDbLine
 10
303.2348484658871
 20
315.025308888412
 30
0.0
 11
303.2348484658871
 21
313.525308888412
 31
0.0
  0
LINE
  5
100
330
1F
100
AcDbEntity
  8
0
 62
     7
 48
0.0375
370
    60
100
AcDbLine
 10
127.3348394658872
 20
315.025308888412
 30
0.0
 11
127.3348394658872
 21
313.525308888412
 31
0.0
  0
ARC
  5
101
330
1F
100
AcDbEntity
  8
0
 62
     7
370
    60
100
AcDbCircle
 10
127.8348394658872
 20
313.525308888412
 30
0.0
 40
0.5000000000000019
100
AcDbArc
 50
180.0000050000005
 51
270.0000010000005
  0
LINE
  5
102
330
1F
100
AcDbEntity
  8
0
 62
     7
 48
0.11125
370
    60
100
AcDbLine
 10
127.8348394658872
 20
313.025308888412
 30
0.0
 11
132.2848364658872
 21
313.025308888412
 31
0.0
  0
LINE
  5
103
330
1F
100
AcDbEntity
  8
0
 62
     7
370
    60
100
AcDbLine
 10
174.6848304658872
 20
313.025308888412
 30
0.0
 11
214.6848304658872
 21
313.025308888412
 31
0.0
  0
LINE
  5
104
330
1F
100
AcDbEntity
  8
0
 62
     7
370
    60
100
AcDbLine
 10
215.8848424658872
 20
313.025308888412
 30
0.0
 11
255.8848424658872
 21
313.025308888412
 31
0.0
  0
LINE
  5
105
330
1F
100
AcDbEntity
  8
0
 62
     7
370
    60
100
AcDbLine
 10
257.0848394658872
 20
313.025308888412
 30
0.0
 11
297.0848244658873
 21
313.025308888412
 31
0.0
  0
LINE
  5
106
330
1F
100
AcDbEntity
  8
0
 62
     7
 48
0.05625
370
    60
100
AcDbLine
 10
120.0348364658872
 20
52.72532188841202
 30
0.0
 11
117.7848364658872
 21
52.72532188841202
 31
0.0
  0
LINE
  5
107
330
1F
100
AcDbEntity
  8
0
 62
     7
 48
0.0875
370
    60
100
AcDbLine
 10
120.0348364658872
 20
52.72532188841202
 30
0.0
 11
120.0348364658872
 21
49.22532188841202
 31
0.0
  0
ARC
  5
108
330
1F
100
AcDbEntity
  8
0
 62
     7
370
    60
100
AcDbCircle
 10
121.0348364658872
 20
49.22532188841202
 30
0.0
 40
1.000000000000004
100
AcDbArc
 50
180.0000050000005
 51
270.0000010000005
  0
LINE
  5
109
330
1F
100
AcDbEntity
  8
0
 62
     7
370
    60
100
AcDbLine
 10
309.5348364658872
 20
48.22532188841202
 30
0.0
 11
121.0348364658872
 21
48.22532188841202
 31
0.0
  0
ARC
  5
10A
330
1F
100
AcDbEntity
  8
0
 62
     7
370
    60
100
AcDbCircle
 10
309.5348364658872
 20
49.22532188841202
 30
0.0
 40
1.0
100
AcDbArc
 50
270.0000010000014
 51
0.0000100000014135
  0
LINE
  5
10B
330
1F
100
AcDbEntity
  8
0
 62
     7
 48
0.0875
370
    60
100
AcDbLine
 10
310.5348364658872
 20
52.72532188841202
 30
0.0
 11
310.5348364658872
 21
49.22532188841202
 31
0.0
  0
LINE
  5
10C
330
1F
100
AcDbEntity
  8
0
 62
     7
 48
0.05625
370
    60
100
AcDbLine
 10
310.5348364658872
 20
52.72532188841202
 30
0.0
 11
312.7848364658872
 21
52.72532188841202
 31
0.0
  0
ARC
  5
10D
330
1F
100
AcDbEntity
  8
0
 62
     7
370
    60
100
AcDbCircle
 10
312.7848364658872
 20
53.72532188841202
 30
0.0
 40
1.0
100
AcDbArc
 50
270.0000010000014
 51
0.0000100000014135
  0
LINE
  5
10E
330
1F
100
AcDbEntity
  8
0
 62
     7
370
    60
100
AcDbLine
 10
313.7848364658872
 20
53.72532188841202
 30
0.0
 11
313.7848364658872
 21
317.525308888412
 31
0.0
  0
ARC
  5
10F
330
1F
100
AcDbEntity
  8
0
 62
     7
370
    60
100
AcDbCircle
 10
312.7848364658872
 20
317.525308888412
 30
0.0
 40
1.0
100
AcDbArc
 50
0.0
 51
90.000003
  0
LINE
  5
110
330
1F
100
AcDbEntity
  8
0
 62
     7
370
    60
100
AcDbLine
 10
312.7848364658872
 20
318.525308888412
 30
0.0
 11
288.7848364658872
 21
318.525308888412
 31
0.0
  0
LINE
  5
111
330
1F
100
AcDbEntity
  8
0
 62
     7
 48
0.205
370
    60
100
AcDbLine
 10
288.7848364658872
 20
326.7253218884121
 30
0.0
 11
288.7848364658872
 21
318.525308888412
 31
0.0
  0
ARC
  5
112
330
1F
100
AcDbEntity
  8
0
 62
     7
370
    60
100
AcDbCircle
 10
287.7848364658872
 20
326.7253218884121
 30
0.0
 40
1.0
100
AcDbArc
 50
0.0
 51
90.000003
  0
LINE
  5
113
330
1F
100
AcDbEntity
  8
0
 62
     7
370
    60
100
AcDbLine
 10
261.7848364658872
 20
327.7253218884121
 30
0.0
 11
287.7848364658872
 21
327.7253218884121
 31
0.0
  0
ARC
  5
114
330
1F
100
AcDbEntity
  8
0
 62
     7
370
    60
100
AcDbCircle
 10
261.7848364658872
 20
326.7253218884121
 30
0.0
 40
1.000000000000001
100
AcDbArc
 50
90.00000300000096
 51
180.0000050000009
  0
LINE
  5
115
330
1F
100
AcDbEntity
  8
0
 62
     7
 48
0.205
370
    60
100
AcDbLine
 10
260.7848364658872
 20
318.525308888412
 30
0.0
 11
260.7848364658872
 21
326.7253218884121
 31
0.0
  0
LINE
  5
116
330
1F
100
AcDbEntity
  8
0
 62
     7
370
    60
100
AcDbLine
 10
260.7848364658872
 20
318.525308888412
 30
0.0
 11
169.7848364658872
 21
318.525308888412
 31
0.0
  0
LINE
  5
117
330
1F
100
AcDbEntity
  8
0
 62
     7
 48
0.205
370
    60
100
AcDbLine
 10
169.7848364658872
 20
326.7253218884121
 30
0.0
 11
169.7848364658872
 21
318.525308888412
 31
0.0
  0
ARC
  5
118
330
1F
100
AcDbEntity
  8
0
 62
     7
370
    60
100
AcDbCircle
 10
168.7848364658872
 20
326.7253218884121
 30
0.0
 40
1.0
100
AcDbArc
 50
0.0
 51
90.000003
  0
LINE
  5
119
330
1F
100
AcDbEntity
  8
0
 62
     7
370
    60
100
AcDbLine
 10
142.7848364658872
 20
327.7253218884121
 30
0.0
 11
168.7848364658872
 21
327.7253218884121
 31
0.0
  0
ARC
  5
11A
330
1F
100
AcDbEntity
  8
0
 62
     7
370
    60
100
AcDbCircle
 10
142.7848364658872
 20
326.7253218884121
 30
0.0
 40
1.000000000000001
100
AcDbArc
 50
90.00000300000096
 51
180.0000050000009
  0
LINE
  5
11B
330
1F
100
AcDbEntity
  8
0
 62
     7
 48
0.205
370
    60
100
AcDbLine
 10
141.7848364658872
 20
326.7253218884121
 30
0.0
 11
141.7848364658872
 21
318.525308888412
 31
0.0
  0
LINE
  5
11C
330
1F
100
AcDbEntity
  8
0
 62
     7
370
    60
100
AcDbLine
 10
117.7848364658872
 20
318.525308888412
 30
0.0
 11
141.7848364658872
 21
318.525308888412
 31
0.0
  0
ARC
  5
11D
330
1F
100
AcDbEntity
  8
0
 62
     7
370
    60
100
AcDbCircle
 10
117.7848364658872
 20
317.525308888412
 30
0.0
 40
1.000000000000001
100
AcDbArc
 50
90.00000299999932
 51
180.0000049999993
  0
LINE
  5
11E
330
1F
100
AcDbEntity
  8
0
 62
     7
370
    60
100
AcDbLine
 10
116.7848364658872
 20
317.525308888412
 30
0.0
 11
116.7848364658872
 21
53.72532188841202
 31
0.0
  0
ARC
  5
11F
330
1F
100
AcDbEntity
  8
0
 62
     7
370
    60
100
AcDbCircle
 10
117.7848364658872
 20
53.72532188841202
 30
0.0
 40
1.000000000000004
100
AcDbArc
 50
180.0000050000005
 51
270.0000010000005
  0
ARC
  5
120
330
1F
100
AcDbEntity
  8
0
 62
     7
370
    60
100
AcDbCircle
 10
262.5848394658872
 20
102.525308888412
 30
0.0
 40
17.70000099999999
100
AcDbArc
 50
270.000001
 51
89.99998900000003
  0
LINE
  5
121
330
1F
100
AcDbEntity
  8
0
 62
     7
370
    60
100
AcDbLine
 10
262.5848394658872
 20
84.825327888412
 30
0.0
 11
167.9848334658872
 21
84.825327888412
 31
0.0
  0
ARC
  5
122
330
1F
100
AcDbEntity
  8
0
 62
     7
370
    60
100
AcDbCircle
 10
167.9848334658872
 20
102.525308888412
 30
0.0
 40
17.70000100000001
100
AcDbArc
 50
90.00000299999996
 51
270.0000009999999
  0
LINE
  5
123
330
1F
100
AcDbEntity
  8
0
 62
     7
370
    60
100
AcDbLine
 10
167.9848334658872
 20
120.225321888412
 30
0.0
 11
262.5848394658872
 21
120.225321888412
 31
0.0
  0
LINE
  5
124
330
1F
100
AcDbEntity
  8
0
 62
     7
370
    60
100
AcDbLine
 10
257.0848394658872
 20
138.925333888412
 30
0.0
 11
297.0848244658873
 21
138.925333888412
 31
0.0
  0
LINE
  5
125
330
1F
100
AcDbEntity
  8
0
 62
     7
370
    60
100
AcDbLine
 10
215.8848424658872
 20
138.925333888412
 30
0.0
 11
255.8848424658872
 21
138.925333888412
 31
0.0
  0
LINE
  5
126
330
1F
100
AcDbEntity
  8
0
 62
     7
370
    60
100
AcDbLine
 10
174.6848304658872
 20
138.925333888412
 30
0.0
 11
214.6848304658872
 21
138.925333888412
 31
0.0
  0
LINE
  5
127
330
1F
100
AcDbEntity
  8
0
 62
     7
 48
0.11125
370
    60
100
AcDbLine
 10
127.8348394658872
 20
138.925333888412
 30
0.0
 11
132.2848364658872
 21
138.925333888412
 31
0.0
  0
ARC
  5
128
330
1F
100
AcDbEntity
  8
0
 62
     7
370
    60
100
AcDbCircle
 10
127.8348394658872
 20
138.425333888412
 30
0.0
 40
0.5000000000000007
100
AcDbArc
 50
90.00000300000096
 51
180.0000050000009
  0
LINE
  5
129
330
1F
100
AcDbEntity
  8
0
 62
     7
 48
0.0375
370
    60
100
AcDbLine
 10
127.3348394658872
 20
136.925333888412
 30
0.0
 11
127.3348394658872
 21
138.425333888412
 31
0.0
  0
LINE
  5
12A
330
1F
100
AcDbEntity
  8
0
 62
     7
 48
0.0375
370
    60
100
AcDbLine
 10
303.2348484658871
 20
136.925333888412
 30
0.0
 11
303.2348484658871
 21
138.425333888412
 31
0.0
  0
ARC
  5
12B
330
1F
100
AcDbEntity
  8
0
 62
     7
370
    60
100
AcDbCircle
 10
302.7348484658871
 20
138.425333888412
 30
0.0
 40
0.5
100
AcDbArc
 50
0.0
 51
90.000003
  0
LINE
  5
12C
330
1F
100
AcDbEntity
  8
0
 62
     7
 48
0.11125
370
    60
100
AcDbLine
 10
298.2848364658872
 20
138.925333888412
 30
0.0
 11
302.7348484658871
 21
138.925333888412
 31
0.0
  0
LINE
  5
12D
330
1F
100
AcDbEntity
  8
0
 62
     7
 48
0.0125
370
    60
100
AcDbLine
 10
127.3348394658872
 20
315.025308888412
 30
0.0
 11
127.3348394658872
 21
315.525308888412
 31
0.0
  0
LINE
  5
12E
330
1F
100
AcDbEntity
  8
0
 62
     7
 48
0.025
370
    60
100
AcDbLine
 10
127.3348394658872
 20
315.525308888412
 30
0.0
 11
127.3348394658872
 21
316.525308888412
 31
0.0
  0
LINE
  5
12F
330
1F
100
AcDbEntity
  8
0
 62
     7
 48
0.0125
370
    60
100
AcDbLine
 10
303.2348484658871
 20
315.025308888412
 30
0.0
 11
303.2348484658871
 21
315.525308888412
 31
0.0
  0
LINE
  5
130
330
1F
100
AcDbEntity
  8
0
 62
     7
 48
0.025
370
    60
100
AcDbLine
 10
303.2348484658871
 20
315.525308888412
 30
0.0
 11
303.2348484658871
 21
316.525308888412
 31
0.0
  0
LINE
  5
131
330
1F
100
AcDbEntity
  8
0
 62
     7
 48
0.0125
370
    60
100
AcDbLine
 10
303.2348484658871
 20
136.425333888412
 30
0.0
 11
303.2348484658871
 21
136.925333888412
 31
0.0
  0
LINE
  5
132
330
1F
100
AcDbEntity
  8
0
 62
     7
 48
0.025
370
    60
100
AcDbLine
 10
303.2348484658871
 20
135.425333888412
 30
0.0
 11
303.2348484658871
 21
136.425333888412
 31
0.0
  0
LINE
  5
133
330
1F
100
AcDbEntity
  8
0
 62
     7
 48
0.0125
370
    60
100
AcDbLine
 10
127.3348394658872
 20
136.425333888412
 30
0.0
 11
127.3348394658872
 21
136.925333888412
 31
0.0
  0
LINE
  5
134
330
1F
100
AcDbEntity
  8
0
 62
     7
 48
0.025
370
    60
100
AcDbLine
 10
127.3348394658872
 20
135.425333888412
 30
0.0
 11
127.3348394658872
 21
136.425333888412
 31
0.0
  0
LINE
  5
135
330
1F
100
AcDbEntity
  8
0
 62
     7
 48
0.14875
370
    60
100
AcDbLine
 10
127.8348394658872
 20
315.525308888412
 30
0.0
 11
133.7848364658872
 21
315.525308888412
 31
0.0
  0
LINE
  5
136
330
1F
100
AcDbEntity
  8
0
 62
     7
 48
0.0125
370
    60
100
AcDbLine
 10
127.3348394658872
 20
315.525308888412
 30
0.0
 11
127.8348394658872
 21
315.525308888412
 31
0.0
  0
LINE
  5
137
330
1F
100
AcDbEntity
  8
0
 62
     7
 48
0.0125
370
    60
100
AcDbLine
 10
127.8348394658872
 20
316.525308888412
 30
0.0
 11
127.3348394658872
 21
316.525308888412
 31
0.0
  0
LINE
  5
138
330
1F
100
AcDbEntity
  8
0
 62
     7
370
    60
100
AcDbLine
 10
127.8348394658872
 20
316.525308888412
 30
0.0
 11
302.7348484658871
 21
316.525308888412
 31
0.0
  0
LINE
  5
139
330
1F
100
AcDbEntity
  8
0
 62
     7
 48
0.0125
370
    60
100
AcDbLine
 10
303.2348484658871
 20
316.525308888412
 30
0.0
 11
302.7348484658871
 21
316.525308888412
 31
0.0
  0
LINE
  5
13A
330
1F
100
AcDbEntity
  8
0
 62
     7
370
    60
100
AcDbLine
 10
141.2848364658872
 20
315.525308888412
 30
0.0
 11
174.9848334658872
 21
315.525308888412
 31
0.0
  0
LINE
  5
13B
330
1F
100
AcDbEntity
  8
0
 62
     7
370
    60
100
AcDbLine
 10
182.4848334658872
 20
315.525308888412
 30
0.0
 11
216.1848304658872
 21
315.525308888412
 31
0.0
  0
LINE
  5
13C
330
1F
100
AcDbEntity
  8
0
 62
     7
370
    60
100
AcDbLine
 10
224.6848304658872
 20
315.525308888412
 30
0.0
 11
247.0848394658872
 21
315.525308888412
 31
0.0
  0
LINE
  5
13D
330
1F
100
AcDbEntity
  8
0
 62
     7
370
    60
100
AcDbLine
 10
255.5848394658872
 20
315.525308888412
 30
0.0
 11
288.2848364658872
 21
315.525308888412
 31
0.0
  0
LINE
  5
13E
330
1F
100
AcDbEntity
  8
0
 62
     7
 48
0.0125
370
    60
100
AcDbLine
 10
302.7348484658871
 20
315.525308888412
 30
0.0
 11
303.2348484658871
 21
315.525308888412
 31
0.0
  0
LINE
  5
13F
330
1F
100
AcDbEntity
  8
0
 62
     7
 48
0.14875
370
    60
100
AcDbLine
 10
296.7848364658872
 20
315.525308888412
 30
0.0
 11
302.7348484658871
 21
315.525308888412
 31
0.0
  0
LINE
  5
140
330
1F
100
AcDbEntity
  8
0
 62
     7
 48
0.0125
370
    60
100
AcDbLine
 10
303.2348484658871
 20
135.425333888412
 30
0.0
 11
302.7348484658871
 21
135.425333888412
 31
0.0
  0
LINE
  5
141
330
1F
100
AcDbEntity
  8
0
 62
     7
370
    60
100
AcDbLine
 10
127.8348394658872
 20
135.425333888412
 30
0.0
 11
302.7348484658871
 21
135.425333888412
 31
0.0
  0
LINE
  5
142
330
1F
100
AcDbEntity
  8
0
 62
     7
 48
0.0125
370
    60
100
AcDbLine
 10
127.8348394658872
 20
135.425333888412
 30
0.0
 11
127.3348394658872
 21
135.425333888412
 31
0.0
  0
LINE
  5
143
330
1F
100
AcDbEntity
  8
0
 62
     7
 48
0.14875
370
    60
100
AcDbLine
 10
296.7848364658872
 20
136.425333888412
 30
0.0
 11
302.7348484658871
 21
136.425333888412
 31
0.0
  0
LINE
  5
144
330
1F
100
AcDbEntity
  8
0
 62
     7
 48
0.0125
370
    60
100
AcDbLine
 10
302.7348484658871
 20
136.425333888412
 30
0.0
 11
303.2348484658871
 21
136.425333888412
 31
0.0
  0
LINE
  5
145
330
1F
100
AcDbEntity
  8
0
 62
     7
370
    60
100
AcDbLine
 10
255.5848394658872
 20
136.425333888412
 30
0.0
 11
288.2848364658872
 21
136.425333888412
 31
0.0
  0
LINE
  5
146
330
1F
100
AcDbEntity
  8
0
 62
     7
370
    60
100
AcDbLine
 10
224.6848304658872
 20
136.425333888412
 30
0.0
 11
247.0848394658872
 21
136.425333888412
 31
0.0
  0
LINE
  5
147
330
1F
100
AcDbEntity
  8
0
 62
     7
370
    60
100
AcDbLine
 10
183.4848334658872
 20
136.425333888412
 30
0.0
 11
216.1848304658872
 21
136.425333888412
 31
0.0
  0
LINE
  5
148
330
1F
100
AcDbEntity
  8
0
 62
     7
370
    60
100
AcDbLine
 10
142.2848364658872
 20
136.425333888412
 30
0.0
 11
174.9848334658872
 21
136.425333888412
 31
0.0
  0
LINE
  5
149
330
1F
100
AcDbEntity
  8
0
 62
     7
 48
0.0125
370
    60
100
AcDbLine
 10
127.3348394658872
 20
136.425333888412
 30
0.0
 11
127.8348394658872
 21
136.425333888412
 31
0.0
  0
LINE
  5
14A
330
1F
100
AcDbEntity
  8
0
 62
     7
 48
0.14875
370
    60
100
AcDbLine
 10
127.8348394658872
 20
136.425333888412
 30
0.0
 11
133.7848364658872
 21
136.425333888412
 31
0.0
  0
ARC
  5
14B
330
1F
100
AcDbEntity
  8
0
 62
     7
370
    60
100
AcDbCircle
 10
174.9848334658872
 20
314.025308888412
 30
0.0
 40
1.500000000000002
100
AcDbArc
 50
90.00000299999986
 51
180.0000049999998
  0
LINE
  5
14C
330
1F
100
AcDbEntity
  8
0
 62
     7
 48
0.040845
370
    60
100
AcDbLine
 10
173.4848334658872
 20
314.025308888412
 30
0.0
 11
173.4848334658872
 21
312.391519888412
 31
0.0
  0
LINE
  5
14D
330
1F
100
AcDbEntity
  8
0
 62
     7
 48
0.049809
370
    60
100
AcDbLine
 10
173.4848334658872
 20
310.399149888412
 30
0.0
 11
173.4848334658872
 21
312.391519888412
 31
0.0
  0
LINE
  5
14E
330
1F
100
AcDbEntity
  8
0
 62
     7
370
    60
100
AcDbLine
 10
173.4848334658872
 20
310.399149888412
 30
0.0
 11
173.4848334658872
 21
141.551493888412
 31
0.0
  0
LINE
  5
14F
330
1F
100
AcDbEntity
  8
0
 62
     7
 48
0.049809
370
    60
100
AcDbLine
 10
173.4848334658872
 20
139.559122888412
 30
0.0
 11
173.4848334658872
 21
141.551493888412
 31
0.0
  0
LINE
  5
150
330
1F
100
AcDbEntity
  8
0
 62
     7
 48
0.040845
370
    60
100
AcDbLine
 10
173.4848334658872
 20
139.559122888412
 30
0.0
 11
173.4848334658872
 21
137.925333888412
 31
0.0
  0
LINE
  5
151
330
1F
100
AcDbEntity
  8
0
 62
     7
 48
0.049809
370
    60
100
AcDbLine
 10
174.6848304658872
 20
310.399149888412
 30
0.0
 11
174.6848304658872
 21
312.391519888412
 31
0.0
  0
LINE
  5
152
330
1F
100
AcDbEntity
  8
0
 62
     7
370
    60
100
AcDbLine
 10
174.6848304658872
 20
310.399149888412
 30
0.0
 11
174.6848304658872
 21
141.551493888412
 31
0.0
  0
LINE
  5
153
330
1F
100
AcDbEntity
  8
0
 62
     7
 48
0.049809
370
    60
100
AcDbLine
 10
174.6848304658872
 20
139.559122888412
 30
0.0
 11
174.6848304658872
 21
141.551493888412
 31
0.0
  0
ARC
  5
154
330
1F
100
AcDbEntity
  8
0
 62
     7
370
    60
100
AcDbCircle
 10
174.9848334658872
 20
137.925333888412
 30
0.0
 40
1.500000000000006
100
AcDbArc
 50
180.0000050000005
 51
270.0000010000005
  0
LINE
  5
155
330
1F
100
AcDbEntity
  8
0
 62
     7
 48
0.03
370
    60
100
AcDbLine
 10
182.4848334658872
 20
315.525308888412
 30
0.0
 11
182.4848334658872
 21
314.3253278884119
 31
0.0
  0
LINE
  5
156
330
1F
100
AcDbEntity
  8
0
 62
     7
 48
0.040845
370
    60
100
AcDbLine
 10
174.6848304658872
 20
314.025308888412
 30
0.0
 11
174.6848304658872
 21
312.391519888412
 31
0.0
  0
LINE
  5
157
330
1F
100
AcDbEntity
  8
0
 62
     7
 48
0.040845
370
    60
100
AcDbLine
 10
174.6848304658872
 20
139.559122888412
 30
0.0
 11
174.6848304658872
 21
137.925333888412
 31
0.0
  0
LINE
  5
158
330
1F
100
AcDbEntity
  8
0
 62
     7
 48
0.03
370
    60
100
AcDbLine
 10
183.4848334658872
 20
137.625315888412
 30
0.0
 11
183.4848334658872
 21
136.425333888412
 31
0.0
  0
LINE
  5
159
330
1F
100
AcDbEntity
  8
0
 62
     7
 48
0.025
370
    60
100
AcDbLine
 10
182.4848334658872
 20
137.625315888412
 30
0.0
 11
183.4848334658872
 21
137.625315888412
 31
0.0
  0
ARC
  5
15A
330
1F
100
AcDbEntity
  8
0
 62
     7
370
    60
100
AcDbCircle
 10
296.7848364658872
 20
314.025308888412
 30
0.0
 40
1.500000000000023
100
AcDbArc
 50
0.0000100000010064
 51
89.99998900000102
  0
LINE
  5
15B
330
1F
100
AcDbEntity
  8
0
 62
     7
 48
0.040845
370
    60
100
AcDbLine
 10
298.2848364658872
 20
314.025308888412
 30
0.0
 11
298.2848364658872
 21
312.391519888412
 31
0.0
  0
LINE
  5
15C
330
1F
100
AcDbEntity
  8
0
 62
     7
 48
0.049809
370
    60
100
AcDbLine
 10
298.2848364658872
 20
310.399149888412
 30
0.0
 11
298.2848364658872
 21
312.391519888412
 31
0.0
  0
LINE
  5
15D
330
1F
100
AcDbEntity
  8
0
 62
     7
370
    60
100
AcDbLine
 10
298.2848364658872
 20
310.399149888412
 30
0.0
 11
298.2848364658872
 21
141.551493888412
 31
0.0
  0
LINE
  5
15E
330
1F
100
AcDbEntity
  8
0
 62
     7
 48
0.049809
370
    60
100
AcDbLine
 10
298.2848364658872
 20
139.559122888412
 30
0.0
 11
298.2848364658872
 21
141.551493888412
 31
0.0
  0
LINE
  5
15F
330
1F
100
AcDbEntity
  8
0
 62
     7
 48
0.040845
370
    60
100
AcDbLine
 10
298.2848364658872
 20
139.559122888412
 30
0.0
 11
298.2848364658872
 21
137.925333888412
 31
0.0
  0
LINE
  5
160
330
1F
100
AcDbEntity
  8
0
 62
     7
 48
0.049809
370
    60
100
AcDbLine
 10
297.0848244658873
 20
310.399149888412
 30
0.0
 11
297.0848244658873
 21
312.391519888412
 31
0.0
  0
LINE
  5
161
330
1F
100
AcDbEntity
  8
0
 62
     7
370
    60
100
AcDbLine
 10
297.0848244658873
 20
310.399149888412
 30
0.0
 11
297.0848244658873
 21
141.551493888412
 31
0.0
  0
LINE
  5
162
330
1F
100
AcDbEntity
  8
0
 62
     7
 48
0.049809
370
    60
100
AcDbLine
 10
297.0848244658873
 20
139.559122888412
 30
0.0
 11
297.0848244658873
 21
141.551493888412
 31
0.0
  0
ARC
  5
163
330
1F
100
AcDbEntity
  8
0
 62
     7
370
    60
100
AcDbCircle
 10
296.7848364658872
 20
137.925333888412
 30
0.0
 40
1.5
100
AcDbArc
 50
270.0000009999992
 51
0.0000099999992253
  0
LINE
  5
164
330
1F
100
AcDbEntity
  8
0
 62
     7
 48
0.03
370
    60
100
AcDbLine
 10
288.2848364658872
 20
315.525308888412
 30
0.0
 11
288.2848364658872
 21
314.3253278884119
 31
0.0
  0
LINE
  5
165
330
1F
100
AcDbEntity
  8
0
 62
     7
 48
0.025
370
    60
100
AcDbLine
 10
288.2848364658872
 20
314.3253278884119
 30
0.0
 11
289.2848364658872
 21
314.3253278884119
 31
0.0
  0
LINE
  5
166
330
1F
100
AcDbEntity
  8
0
 62
     7
 48
0.040845
370
    60
100
AcDbLine
 10
297.0848244658873
 20
314.025308888412
 30
0.0
 11
297.0848244658873
 21
312.391519888412
 31
0.0
  0
LINE
  5
167
330
1F
100
AcDbEntity
  8
0
 62
     7
 48
0.040845
370
    60
100
AcDbLine
 10
297.0848244658873
 20
139.559122888412
 30
0.0
 11
297.0848244658873
 21
137.925333888412
 31
0.0
  0
LINE
  5
168
330
1F
100
AcDbEntity
  8
0
 62
     7
 48
0.025
370
    60
100
AcDbLine
 10
288.2848364658872
 20
137.625315888412
 30
0.0
 11
289.2848364658872
 21
137.625315888412
 31
0.0
  0
LINE
  5
169
330
1F
100
AcDbEntity
  8
0
 62
     7
 48
0.03
370
    60
100
AcDbLine
 10
288.2848364658872
 20
137.625315888412
 30
0.0
 11
288.2848364658872
 21
136.425333888412
 31
0.0
  0
ARC
  5
16A
330
1F
100
AcDbEntity
  8
0
 62
     7
370
    60
100
AcDbCircle
 10
255.5848394658872
 20
314.025308888412
 30
0.0
 40
1.5
100
AcDbArc
 50
0.0
 51
90.000003
  0
LINE
  5
16B
330
1F
100
AcDbEntity
  8
0
 62
     7
 48
0.040845
370
    60
100
AcDbLine
 10
257.0848394658872
 20
314.025308888412
 30
0.0
 11
257.0848394658872
 21
312.391519888412
 31
0.0
  0
LINE
  5
16C
330
1F
100
AcDbEntity
  8
0
 62
     7
 48
0.049809
370
    60
100
AcDbLine
 10
257.0848394658872
 20
310.399149888412
 30
0.0
 11
257.0848394658872
 21
312.391519888412
 31
0.0
  0
LINE
  5
16D
330
1F
100
AcDbEntity
  8
0
 62
     7
370
    60
100
AcDbLine
 10
257.0848394658872
 20
310.399149888412
 30
0.0
 11
257.0848394658872
 21
141.551493888412
 31
0.0
  0
LINE
  5
16E
330
1F
100
AcDbEntity
  8
0
 62
     7
 48
0.049809
370
    60
100
AcDbLine
 10
257.0848394658872
 20
139.559122888412
 30
0.0
 11
257.0848394658872
 21
141.551493888412
 31
0.0
  0
LINE
  5
16F
330
1F
100
AcDbEntity
  8
0
 62
     7
 48
0.040845
370
    60
100
AcDbLine
 10
257.0848394658872
 20
139.559122888412
 30
0.0
 11
257.0848394658872
 21
137.925333888412
 31
0.0
  0
LINE
  5
170
330
1F
100
AcDbEntity
  8
0
 62
     7
 48
0.049809
370
    60
100
AcDbLine
 10
255.8848424658872
 20
310.399149888412
 30
0.0
 11
255.8848424658872
 21
312.391519888412
 31
0.0
  0
LINE
  5
171
330
1F
100
AcDbEntity
  8
0
 62
     7
370
    60
100
AcDbLine
 10
255.8848424658872
 20
310.399149888412
 30
0.0
 11
255.8848424658872
 21
141.551493888412
 31
0.0
  0
LINE
  5
172
330
1F
100
AcDbEntity
  8
0
 62
     7
 48
0.049809
370
    60
100
AcDbLine
 10
255.8848424658872
 20
139.559122888412
 30
0.0
 11
255.8848424658872
 21
141.551493888412
 31
0.0
  0
ARC
  5
173
330
1F
100
AcDbEntity
  8
0
 62
     7
370
    60
100
AcDbCircle
 10
255.5848394658872
 20
137.925333888412
 30
0.0
 40
1.5
100
AcDbArc
 50
270.0000009999992
 51
0.0000099999992253
  0
LINE
  5
174
330
1F
100
AcDbEntity
  8
0
 62
     7
 48
0.03
370
    60
100
AcDbLine
 10
247.0848394658872
 20
315.525308888412
 30
0.0
 11
247.0848394658872
 21
314.3253278884119
 31
0.0
  0
LINE
  5
175
330
1F
100
AcDbEntity
  8
0
 62
     7
 48
0.025
370
    60
100
AcDbLine
 10
247.0848394658872
 20
314.3253278884119
 30
0.0
 11
248.0848394658872
 21
314.3253278884119
 31
0.0
  0
LINE
  5
176
330
1F
100
AcDbEntity
  8
0
 62
     7
 48
0.040845
370
    60
100
AcDbLine
 10
255.8848424658872
 20
314.025308888412
 30
0.0
 11
255.8848424658872
 21
312.391519888412
 31
0.0
  0
LINE
  5
177
330
1F
100
AcDbEntity
  8
0
 62
     7
 48
0.040845
370
    60
100
AcDbLine
 10
255.8848424658872
 20
139.559122888412
 30
0.0
 11
255.8848424658872
 21
137.925333888412
 31
0.0
  0
LINE
  5
178
330
1F
100
AcDbEntity
  8
0
 62
     7
 48
0.025
370
    60
100
AcDbLine
 10
247.0848394658872
 20
137.625315888412
 30
0.0
 11
248.0848394658872
 21
137.625315888412
 31
0.0
  0
LINE
  5
179
330
1F
100
AcDbEntity
  8
0
 62
     7
 48
0.03
370
    60
100
AcDbLine
 10
247.0848394658872
 20
137.625315888412
 30
0.0
 11
247.0848394658872
 21
136.425333888412
 31
0.0
  0
LINE
  5
17A
330
1F
100
AcDbEntity
  8
0
 62
     7
 48
0.040845
370
    60
100
AcDbLine
 10
215.8848424658872
 20
314.025308888412
 30
0.0
 11
215.8848424658872
 21
312.391519888412
 31
0.0
  0
LINE
  5
17B
330
1F
100
AcDbEntity
  8
0
 62
     7
 48
0.049809
370
    60
100
AcDbLine
 10
215.8848424658872
 20
310.399149888412
 30
0.0
 11
215.8848424658872
 21
312.391519888412
 31
0.0
  0
LINE
  5
17C
330
1F
100
AcDbEntity
  8
0
 62
     7
370
    60
100
AcDbLine
 10
215.8848424658872
 20
310.399149888412
 30
0.0
 11
215.8848424658872
 21
141.551493888412
 31
0.0
  0
LINE
  5
17D
330
1F
100
AcDbEntity
  8
0
 62
     7
 48
0.049809
370
    60
100
AcDbLine
 10
215.8848424658872
 20
139.559122888412
 30
0.0
 11
215.8848424658872
 21
141.551493888412
 31
0.0
  0
LINE
  5
17E
330
1F
100
AcDbEntity
  8
0
 62
     7
 48
0.040845
370
    60
100
AcDbLine
 10
215.8848424658872
 20
139.559122888412
 30
0.0
 11
215.8848424658872
 21
137.925333888412
 31
0.0
  0
ARC
  5
17F
330
1F
100
AcDbEntity
  8
0
 62
     7
370
    60
100
AcDbCircle
 10
216.1848304658872
 20
314.025308888412
 30
0.0
 40
1.500000000000002
100
AcDbArc
 50
90.00000299999986
 51
180.0000049999998
  0
LINE
  5
180
330
1F
100
AcDbEntity
  8
0
 62
     7
 48
0.025
370
    60
100
AcDbLine
 10
223.6848304658872
 20
314.3253278884119
 30
0.0
 11
224.6848304658872
 21
314.3253278884119
 31
0.0
  0
LINE
  5
181
330
1F
100
AcDbEntity
  8
0
 62
     7
 48
0.03
370
    60
100
AcDbLine
 10
224.6848304658872
 20
314.3253278884119
 30
0.0
 11
224.6848304658872
 21
315.525308888412
 31
0.0
  0
LINE
  5
182
330
1F
100
AcDbEntity
  8
0
 62
     7
 48
0.049809
370
    60
100
AcDbLine
 10
214.6848304658872
 20
310.399149888412
 30
0.0
 11
214.6848304658872
 21
312.391519888412
 31
0.0
  0
LINE
  5
183
330
1F
100
AcDbEntity
  8
0
 62
     7
370
    60
100
AcDbLine
 10
214.6848304658872
 20
310.399149888412
 30
0.0
 11
214.6848304658872
 21
141.551493888412
 31
0.0
  0
LINE
  5
184
330
1F
100
AcDbEntity
  8
0
 62
     7
 48
0.049809
370
    60
100
AcDbLine
 10
214.6848304658872
 20
139.559122888412
 30
0.0
 11
214.6848304658872
 21
141.551493888412
 31
0.0
  0
LINE
  5
185
330
1F
100
AcDbEntity
  8
0
 62
     7
 48
0.040845
370
    60
100
AcDbLine
 10
214.6848304658872
 20
314.025308888412
 30
0.0
 11
214.6848304658872
 21
312.391519888412
 31
0.0
  0
LINE
  5
186
330
1F
100
AcDbEntity
  8
0
 62
     7
 48
0.040845
370
    60
100
AcDbLine
 10
214.6848304658872
 20
139.559122888412
 30
0.0
 11
214.6848304658872
 21
137.925333888412
 31
0.0
  0
ARC
  5
187
330
1F
100
AcDbEntity
  8
0
 62
     7
370
    60
100
AcDbCircle
 10
216.1848304658872
 20
137.925333888412
 30
0.0
 40
1.500000000000006
100
AcDbArc
 50
180.0000050000005
 51
270.0000010000005
  0
LINE
  5
188
330
1F
100
AcDbEntity
  8
0
 62
     7
 48
0.03
370
    60
100
AcDbLine
 10
224.6848304658872
 20
136.425333888412
 30
0.0
 11
224.6848304658872
 21
137.625315888412
 31
0.0
  0
LINE
  5
189
330
1F
100
AcDbEntity
  8
0
 62
     7
 48
0.025
370
    60
100
AcDbLine
 10
223.6848304658872
 20
137.625315888412
 30
0.0
 11
224.6848304658872
 21
137.625315888412
 31
0.0
  0
ARC
  5
18A
330
1F
100
AcDbEntity
  8
0
 62
     7
370
    60
100
AcDbCircle
 10
133.7848364658872
 20
314.025308888412
 30
0.0
 40
1.500000000000002
100
AcDbArc
 50
90.00000299999986
 51
180.0000049999998
  0
LINE
  5
18B
330
1F
100
AcDbEntity
  8
0
 62
     7
 48
0.040845
370
    60
100
AcDbLine
 10
132.2848364658872
 20
314.025308888412
 30
0.0
 11
132.2848364658872
 21
312.391519888412
 31
0.0
  0
LINE
  5
18C
330
1F
100
AcDbEntity
  8
0
 62
     7
 48
0.049809
370
    60
100
AcDbLine
 10
132.2848364658872
 20
310.399149888412
 30
0.0
 11
132.2848364658872
 21
312.391519888412
 31
0.0
  0
LINE
  5
18D
330
1F
100
AcDbEntity
  8
0
 62
     7
370
    60
100
AcDbLine
 10
132.2848364658872
 20
310.399149888412
 30
0.0
 11
132.2848364658872
 21
141.551493888412
 31
0.0
  0
LINE
  5
18E
330
1F
100
AcDbEntity
  8
0
 62
     7
 48
0.049809
370
    60
100
AcDbLine
 10
132.2848364658872
 20
139.559122888412
 30
0.0
 11
132.2848364658872
 21
141.551493888412
 31
0.0
  0
LINE
  5
18F
330
1F
100
AcDbEntity
  8
0
 62
     7
 48
0.040845
370
    60
100
AcDbLine
 10
132.2848364658872
 20
139.559122888412
 30
0.0
 11
132.2848364658872
 21
137.925333888412
 31
0.0
  0
LINE
  5
190
330
1F
100
AcDbEntity
  8
0
 62
     7
 48
0.049809
370
    60
100
AcDbLine
 10
133.4848334658872
 20
310.399149888412
 30
0.0
 11
133.4848334658872
 21
312.391519888412
 31
0.0
  0
LINE
  5
191
330
1F
100
AcDbEntity
  8
0
 62
     7
370
    60
100
AcDbLine
 10
133.4848334658872
 20
310.399149888412
 30
0.0
 11
133.4848334658872
 21
141.551493888412
 31
0.0
  0
LINE
  5
192
330
1F
100
AcDbEntity
  8
0
 62
     7
 48
0.049809
370
    60
100
AcDbLine
 10
133.4848334658872
 20
139.559122888412
 30
0.0
 11
133.4848334658872
 21
141.551493888412
 31
0.0
  0
ARC
  5
193
330
1F
100
AcDbEntity
  8
0
 62
     7
370
    60
100
AcDbCircle
 10
133.7848364658872
 20
137.925333888412
 30
0.0
 40
1.500000000000006
100
AcDbArc
 50
180.0000050000005
 51
270.0000010000005
  0
LINE
  5
194
330
1F
100
AcDbEntity
  8
0
 62
     7
 48
0.03
370
    60
100
AcDbLine
 10
141.2848364658872
 20
315.525308888412
 30
0.0
 11
141.2848364658872
 21
314.3253278884119
 31
0.0
  0
LINE
  5
195
330
1F
100
AcDbEntity
  8
0
 62
     7
 48
0.040845
370
    60
100
AcDbLine
 10
133.4848334658872
 20
314.025308888412
 30
0.0
 11
133.4848334658872
 21
312.391519888412
 31
0.0
  0
LINE
  5
196
330
1F
100
AcDbEntity
  8
0
 62
     7
 48
0.040845
370
    60
100
AcDbLine
 10
133.4848334658872
 20
139.559122888412
 30
0.0
 11
133.4848334658872
 21
137.925333888412
 31
0.0
  0
LINE
  5
197
330
1F
100
AcDbEntity
  8
0
 62
     7
 48
0.03
370
    60
100
AcDbLine
 10
142.2848364658872
 20
137.625315888412
 30
0.0
 11
142.2848364658872
 21
136.425333888412
 31
0.0
  0
LINE
  5
198
330
1F
100
AcDbEntity
  8
0
 62
     7
 48
0.025
370
    60
100
AcDbLine
 10
141.2848364658872
 20
137.625315888412
 30
0.0
 11
142.2848364658872
 21
137.625315888412
 31
0.0
  0
LINE
  5
199
330
1F
100
AcDbEntity
  8
0
 62
     7
 48
0.1875
370
    60
100
AcDbLine
 10
182.4848334658872
 20
314.3253278884119
 30
0.0
 11
174.9848334658872
 21
314.3253278884119
 31
0.0
  0
ARC
  5
19A
330
1F
100
AcDbEntity
  8
0
 62
     7
370
    60
100
AcDbCircle
 10
174.9848334658872
 20
314.025308888412
 30
0.0
 40
0.3000000000000118
100
AcDbArc
 50
90.00000299999553
 51
180.0000049999955
  0
ARC
  5
19B
330
1F
100
AcDbEntity
  8
0
 62
     7
370
    60
100
AcDbCircle
 10
174.9848334658872
 20
137.925333888412
 30
0.0
 40
0.3000000000000125
100
AcDbArc
 50
180.0000050000016
 51
270.0000010000015
  0
LINE
  5
19C
330
1F
100
AcDbEntity
  8
0
 62
     7
 48
0.1875
370
    60
100
AcDbLine
 10
182.4848334658872
 20
137.625315888412
 30
0.0
 11
174.9848334658872
 21
137.625315888412
 31
0.0
  0
ARC
  5
19D
330
1F
100
AcDbEntity
  8
0
 62
     7
370
    60
100
AcDbCircle
 10
296.7848364658872
 20
314.025308888412
 30
0.0
 40
0.3000000000000114
100
AcDbArc
 50
0.0
 51
90.000003
  0
LINE
  5
19E
330
1F
100
AcDbEntity
  8
0
 62
     7
 48
0.1875
370
    60
100
AcDbLine
 10
289.2848364658872
 20
314.3253278884119
 30
0.0
 11
296.7848364658872
 21
314.3253278884119
 31
0.0
  0
ARC
  5
19F
330
1F
100
AcDbEntity
  8
0
 62
     7
370
    60
100
AcDbCircle
 10
296.7848364658872
 20
137.925333888412
 30
0.0
 40
0.3000000000000114
100
AcDbArc
 50
270.0000009999949
 51
0.0000099999948998
  0
LINE
  5
1A0
330
1F
100
AcDbEntity
  8
0
 62
     7
 48
0.1875
370
    60
100
AcDbLine
 10
289.2848364658872
 20
137.625315888412
 30
0.0
 11
296.7848364658872
 21
137.625315888412
 31
0.0
  0
ARC
  5
1A1
330
1F
100
AcDbEntity
  8
0
 62
     7
370
    60
100
AcDbCircle
 10
255.5848394658872
 20
314.025308888412
 30
0.0
 40
0.3000000000000114
100
AcDbArc
 50
0.0
 51
90.000003
  0
LINE
  5
1A2
330
1F
100
AcDbEntity
  8
0
 62
     7
 48
0.1875
370
    60
100
AcDbLine
 10
248.0848394658872
 20
314.3253278884119
 30
0.0
 11
255.5848394658872
 21
314.3253278884119
 31
0.0
  0
ARC
  5
1A3
330
1F
100
AcDbEntity
  8
0
 62
     7
370
    60
100
AcDbCircle
 10
255.5848394658872
 20
137.925333888412
 30
0.0
 40
0.3000000000000114
100
AcDbArc
 50
270.0000009999949
 51
0.0000099999948998
  0
LINE
  5
1A4
330
1F
100
AcDbEntity
  8
0
 62
     7
 48
0.1875
370
    60
100
AcDbLine
 10
248.0848394658872
 20
137.625315888412
 30
0.0
 11
255.5848394658872
 21
137.625315888412
 31
0.0
  0
ARC
  5
1A5
330
1F
100
AcDbEntity
  8
0
 62
     7
370
    60
100
AcDbCircle
 10
216.1848304658872
 20
314.025308888412
 30
0.0
 40
0.3000000000000118
100
AcDbArc
 50
90.00000299999553
 51
180.0000049999955
  0
LINE
  5
1A6
330
1F
100
AcDbEntity
  8
0
 62
     7
 48
0.1875
370
    60
100
AcDbLine
 10
216.1848304658872
 20
314.3253278884119
 30
0.0
 11
223.6848304658872
 21
314.3253278884119
 31
0.0
  0
ARC
  5
1A7
330
1F
100
AcDbEntity
  8
0
 62
     7
370
    60
100
AcDbCircle
 10
216.1848304658872
 20
137.925333888412
 30
0.0
 40
0.3000000000000125
100
AcDbArc
 50
180.0000050000016
 51
270.0000010000015
  0
LINE
  5
1A8
330
1F
100
AcDbEntity
  8
0
 62
     7
 48
0.1875
370
    60
100
AcDbLine
 10
216.1848304658872
 20
137.625315888412
 30
0.0
 11
223.6848304658872
 21
137.625315888412
 31
0.0
  0
LINE
  5
1A9
330
1F
100
AcDbEntity
  8
0
 62
     7
 48
0.1875
370
    60
100
AcDbLine
 10
141.2848364658872
 20
314.3253278884119
 30
0.0
 11
133.7848364658872
 21
314.3253278884119
 31
0.0
  0
ARC
  5
1AA
330
1F
100
AcDbEntity
  8
0
 62
     7
370
    60
100
AcDbCircle
 10
133.7848364658872
 20
314.025308888412
 30
0.0
 40
0.3000000000000118
100
AcDbArc
 50
90.00000299999553
 51
180.0000049999955
  0
ARC
  5
1AB
330
1F
100
AcDbEntity
  8
0
 62
     7
370
    60
100
AcDbCircle
 10
133.7848364658872
 20
137.925333888412
 30
0.0
 40
0.3000000000000125
100
AcDbArc
 50
180.0000050000016
 51
270.0000010000015
  0
LINE
  5
1AC
330
1F
100
AcDbEntity
  8
0
 62
     7
 48
0.1875
370
    60
100
AcDbLine
 10
141.2848364658872
 20
137.625315888412
 30
0.0
 11
133.7848364658872
 21
137.625315888412
 31
0.0
  0
LINE
  5
1AD
330
1F
100
AcDbEntity
  8
0
 62
     7
 48
0.0375
370
    60
100
AcDbLine
 10
423.3590554658873
 20
315.025308888412
 30
0.0
 11
423.3590554658873
 21
313.525308888412
 31
0.0
  0
LINE
  5
1AE
330
1F
100
AcDbEntity
  8
0
 62
     7
 48
0.0125
370
    60
100
AcDbLine
 10
423.3590554658873
 20
313.525308888412
 30
0.0
 11
423.3590554658873
 21
313.025308888412
 31
0.0
  0
LINE
  5
1AF
330
1F
100
AcDbEntity
  8
0
 62
     7
 48
0.0875
370
    60
100
AcDbLine
 10
422.3590554658873
 20
52.72532188841202
 30
0.0
 11
422.3590554658873
 21
49.22532188841202
 31
0.0
  0
LINE
  5
1B0
330
1F
100
AcDbEntity
  8
0
 62
     7
 48
0.0875
370
    60
100
AcDbLine
 10
421.3590554658873
 20
52.72532188841202
 30
0.0
 11
421.3590554658873
 21
49.22532188841202
 31
0.0
  0
LINE
  5
1B1
330
1F
100
AcDbEntity
  8
0
 62
     7
 48
0.025
370
    60
100
AcDbLine
 10
421.3590554658873
 20
48.22532188841202
 30
0.0
 11
421.3590554658873
 21
49.22532188841202
 31
0.0
  0
LINE
  5
1B2
330
1F
100
AcDbEntity
  8
0
 62
     7
 48
0.025
370
    60
100
AcDbLine
 10
421.3590554658873
 20
48.22532188841202
 30
0.0
 11
422.3590554658873
 21
48.22532188841202
 31
0.0
  0
LINE
  5
1B3
330
1F
100
AcDbEntity
  8
0
 62
     7
 48
0.025
370
    60
100
AcDbLine
 10
422.3590554658873
 20
48.22532188841202
 30
0.0
 11
422.3590554658873
 21
49.22532188841202
 31
0.0
  0
LINE
  5
1B4
330
1F
100
AcDbEntity
  8
0
 62
     7
 48
0.025
370
    60
100
AcDbLine
 10
422.3590554658873
 20
327.7253218884121
 30
0.0
 11
421.3590554658873
 21
327.7253218884121
 31
0.0
  0
LINE
  5
1B5
330
1F
100
AcDbEntity
  8
0
 62
     7
 48
0.025
370
    60
100
AcDbLine
 10
421.3590554658873
 20
326.7253218884121
 30
0.0
 11
421.3590554658873
 21
327.7253218884121
 31
0.0
  0
LINE
  5
1B6
330
1F
100
AcDbEntity
  8
0
 62
     7
 48
0.025
370
    60
100
AcDbLine
 10
422.3590554658873
 20
326.7253218884121
 30
0.0
 11
422.3590554658873
 21
327.7253218884121
 31
0.0
  0
LINE
  5
1B7
330
1F
100
AcDbEntity
  8
0
 62
     7
 48
0.205
370
    60
100
AcDbLine
 10
421.3590554658873
 20
326.7253218884121
 30
0.0
 11
421.3590554658873
 21
318.525308888412
 31
0.0
  0
LINE
  5
1B8
330
1F
100
AcDbEntity
  8
0
 62
     7
 48
0.205
370
    60
100
AcDbLine
 10
422.3590554658873
 20
326.7253218884121
 30
0.0
 11
422.3590554658873
 21
318.525308888412
 31
0.0
  0
LINE
  5
1B9
330
1F
100
AcDbEntity
  8
0
 62
     7
 48
0.025
370
    60
100
AcDbLine
 10
421.3590554658873
 20
317.525308888412
 30
0.0
 11
421.3590554658873
 21
318.525308888412
 31
0.0
  0
LINE
  5
1BA
330
1F
100
AcDbEntity
  8
0
 62
     7
 48
0.025
370
    60
100
AcDbLine
 10
422.3590554658873
 20
317.525308888412
 30
0.0
 11
422.3590554658873
 21
318.525308888412
 31
0.0
  0
LINE
  5
1BB
330
1F
100
AcDbEntity
  8
0
 62
     7
370
    60
100
AcDbLine
 10
422.3590554658873
 20
317.525308888412
 30
0.0
 11
422.3590554658873
 21
53.72532188841202
 31
0.0
  0
LINE
  5
1BC
330
1F
100
AcDbEntity
  8
0
 62
     7
370
    60
100
AcDbLine
 10
421.3590554658873
 20
317.525308888412
 30
0.0
 11
421.3590554658873
 21
53.72532188841202
 31
0.0
  0
LINE
  5
1BD
330
1F
100
AcDbEntity
  8
0
 62
     7
 48
0.025
370
    60
100
AcDbLine
 10
421.3590554658873
 20
52.72532188841202
 30
0.0
 11
421.3590554658873
 21
53.72532188841202
 31
0.0
  0
LINE
  5
1BE
330
1F
100
AcDbEntity
  8
0
 62
     7
 48
0.025
370
    60
100
AcDbLine
 10
422.3590554658873
 20
52.72532188841202
 30
0.0
 11
422.3590554658873
 21
53.72532188841202
 31
0.0
  0
LINE
  5
1BF
330
1F
100
AcDbEntity
  8
0
 62
     7
 48
0.0125
370
    60
100
AcDbLine
 10
423.3590554658873
 20
138.925333888412
 30
0.0
 11
423.3590554658873
 21
138.425333888412
 31
0.0
  0
LINE
  5
1C0
330
1F
100
AcDbEntity
  8
0
 62
     7
 48
0.0375
370
    60
100
AcDbLine
 10
423.3590554658873
 20
136.925333888412
 30
0.0
 11
423.3590554658873
 21
138.425333888412
 31
0.0
  0
LINE
  5
1C1
330
1F
100
AcDbEntity
  8
0
 62
     7
 48
0.025
370
    60
100
AcDbLine
 10
423.3590554658873
 20
313.025308888412
 30
0.0
 11
422.3590554658873
 21
313.025308888412
 31
0.0
  0
LINE
  5
1C2
330
1F
100
AcDbEntity
  8
0
 62
     7
 48
0.15
370
    60
100
AcDbLine
 10
429.8590554658873
 20
315.525308888412
 30
0.0
 11
423.8590554658873
 21
315.525308888412
 31
0.0
  0
ARC
  5
1C3
330
1F
100
AcDbEntity
  8
0
 62
     7
370
    60
100
AcDbCircle
 10
423.8590554658873
 20
315.025308888412
 30
0.0
 40
0.5000000000000007
100
AcDbArc
 50
90.00000299999769
 51
180.0000049999977
  0
ARC
  5
1C4
330
1F
100
AcDbEntity
  8
0
 62
     7
370
    60
100
AcDbCircle
 10
423.8590554658873
 20
315.025308888412
 30
0.0
 40
1.500000000000002
100
AcDbArc
 50
90.00000300000205
 51
180.000005000002
  0
LINE
  5
1C5
330
1F
100
AcDbEntity
  8
0
 62
     7
 48
0.15
370
    60
100
AcDbLine
 10
423.8590554658873
 20
316.525308888412
 30
0.0
 11
429.8590554658873
 21
316.525308888412
 31
0.0
  0
ARC
  5
1C6
330
1F
100
AcDbEntity
  8
0
 62
     7
370
    60
100
AcDbCircle
 10
423.8590554658873
 20
136.925333888412
 30
0.0
 40
0.5000000000000019
100
AcDbArc
 50
180.0000050000005
 51
270.0000010000005
  0
LINE
  5
1C7
330
1F
100
AcDbEntity
  8
0
 62
     7
 48
0.15
370
    60
100
AcDbLine
 10
429.8590554658873
 20
136.425333888412
 30
0.0
 11
423.8590554658873
 21
136.425333888412
 31
0.0
  0
LINE
  5
1C8
330
1F
100
AcDbEntity
  8
0
 62
     7
 48
0.15
370
    60
100
AcDbLine
 10
423.8590554658873
 20
135.425333888412
 30
0.0
 11
429.8590554658873
 21
135.425333888412
 31
0.0
  0
ARC
  5
1C9
330
1F
100
AcDbEntity
  8
0
 62
     7
370
    60
100
AcDbCircle
 10
423.8590554658873
 20
136.925333888412
 30
0.0
 40
1.500000000000006
100
AcDbArc
 50
180.0000050000005
 51
270.0000010000005
  0
LINE
  5
1CA
330
1F
100
AcDbEntity
  8
0
 62
     7
 48
0.025
370
    60
100
AcDbLine
 10
423.3590554658873
 20
138.925333888412
 30
0.0
 11
422.3590554658873
 21
138.925333888412
 31
0.0
  0
LINE
  5
1CB
330
1F
100
AcDbEntity
  8
0
 62
     7
 48
0.0125
370
    60
100
AcDbLine
 10
429.8590554658873
 20
315.525308888412
 30
0.0
 11
430.3590554658873
 21
315.525308888412
 31
0.0
  0
LINE
  5
1CC
330
1F
100
AcDbEntity
  8
0
 62
     7
 48
0.0125
370
    60
100
AcDbLine
 10
430.3590554658873
 20
316.525308888412
 30
0.0
 11
429.8590554658873
 21
316.525308888412
 31
0.0
  0
LINE
  5
1CD
330
1F
100
AcDbEntity
  8
0
 62
     7
 48
0.025
370
    60
100
AcDbLine
 10
430.3590554658873
 20
315.525308888412
 30
0.0
 11
430.3590554658873
 21
316.525308888412
 31
0.0
  0
LINE
  5
1CE
330
1F
100
AcDbEntity
  8
0
 62
     7
 48
0.0125
370
    60
100
AcDbLine
 10
430.3590554658873
 20
135.425333888412
 30
0.0
 11
429.8590554658873
 21
135.425333888412
 31
0.0
  0
LINE
  5
1CF
330
1F
100
AcDbEntity
  8
0
 62
     7
 48
0.0125
370
    60
100
AcDbLine
 10
429.8590554658873
 20
136.425333888412
 30
0.0
 11
430.3590554658873
 21
136.425333888412
 31
0.0
  0
LINE
  5
1D0
330
1F
100
AcDbEntity
  8
0
 62
     7
 48
0.025
370
    60
100
AcDbLine
 10
430.3590554658873
 20
135.425333888412
 30
0.0
 11
430.3590554658873
 21
136.425333888412
 31
0.0
  0
LINE
  5
1D1
330
1F
100
AcDbEntity
  8
0
 62
     7
 48
0.1625
370
    60
100
AcDbLine
 10
423.8590554658873
 20
314.025308888412
 30
0.0
 11
430.3590554658873
 21
314.025308888412
 31
0.0
  0
LINE
  5
1D2
330
1F
100
AcDbEntity
  8
0
 62
     7
 48
0.0375
370
    60
100
AcDbLine
 10
430.3590554658873
 20
315.525308888412
 30
0.0
 11
430.3590554658873
 21
314.025308888412
 31
0.0
  0
LINE
  5
1D3
330
1F
100
AcDbEntity
  8
0
 62
     7
 48
0.0125
370
    60
100
AcDbLine
 10
423.3590554658873
 20
314.025308888412
 30
0.0
 11
423.8590554658873
 21
314.025308888412
 31
0.0
  0
LINE
  5
1D4
330
1F
100
AcDbEntity
  8
0
 62
     7
 48
0.468641
370
    60
100
AcDbLine
 10
430.3590554658873
 20
314.025308888412
 30
0.0
 11
449.0333714658872
 21
312.391519888412
 31
0.0
  0
ARC
  5
1D5
330
1F
100
AcDbEntity
  8
0
 62
     7
370
    60
100
AcDbCircle
 10
448.8590554658873
 20
310.399149888412
 30
0.0
 40
2.0
100
AcDbArc
 50
0.0
 51
84.999997
  0
LINE
  5
1D6
330
1F
100
AcDbEntity
  8
0
 62
     7
370
    60
100
AcDbLine
 10
450.8590554658873
 20
310.399149888412
 30
0.0
 11
450.8590554658873
 21
141.551493888412
 31
0.0
  0
ARC
  5
1D7
330
1F
100
AcDbEntity
  8
0
 62
     7
370
    60
100
AcDbCircle
 10
448.8590554658873
 20
141.551493888412
 30
0.0
 40
1.999999999999992
100
AcDbArc
 50
274.9999999999998
 51
0.0000099999997851
  0
LINE
  5
1D8
330
1F
100
AcDbEntity
  8
0
 62
     7
 48
0.468641
370
    60
100
AcDbLine
 10
449.0333714658872
 20
139.559122888412
 30
0.0
 11
430.3590554658873
 21
137.925333888412
 31
0.0
  0
LINE
  5
1D9
330
1F
100
AcDbEntity
  8
0
 62
     7
 48
0.1625
370
    60
100
AcDbLine
 10
423.8590554658873
 20
137.925333888412
 30
0.0
 11
430.3590554658873
 21
137.925333888412
 31
0.0
  0
LINE
  5
1DA
330
1F
100
AcDbEntity
  8
0
 62
     7
 48
0.0125
370
    60
100
AcDbLine
 10
423.8590554658873
 20
137.925333888412
 30
0.0
 11
423.3590554658873
 21
137.925333888412
 31
0.0
  0
LINE
  5
1DB
330
1F
100
AcDbEntity
  8
0
 62
     7
 48
0.0375
370
    60
100
AcDbLine
 10
430.3590554658873
 20
137.925333888412
 30
0.0
 11
430.3590554658873
 21
136.425333888412
 31
0.0
  0
DIMENSION
  5
1DC
330
1F
100
AcDbEntity
  8
0
370
    25
100
AcDbDimension
  2
*D4
 10
313.7848364658872
 20
350.7907404609678
 30
0.0
 11
215.2848364658872
 21
362.7907404609678
 31
0.0
 70
    32
 71
     5
 41
2.5
 42
197.0
  3
Standard
100
AcDbAlignedDimension
 13
116.7848364658872
 23
296.7204551150812
 33
0.0
 14
313.7848364658872
 24
296.7204551150812
 34
0.0
100
AcDbRotatedDimension
1001
ACAD
1000
DSTYLE
1002
{
1070
   171
1070
     3
1070
   143
1040
0.03937
1070
   274
1070
     3
1070
    41
1040
10.0
1070
   289
1070
     0
1070
   141
1040
2.5
1070
   176
1070
     7
1070
   177
1070
     7
1070
   271
1070
     2
1070
    43
1040
3.75
1070
   278
1070
    44
1070
    44
1040
1.25
1070
    42
1040
0.625
1070
   147
1040
5.0
1070
    77
1070
     1
1070
   272
1070
     2
1070
    73
1070
     0
1070
   172
1070
     1
1070
    74
1070
     0
1070
   283
1070
     0
1070
   140
1040
14.0
1070
   284
1070
     8
1070
    78
1070
     8
1002
}
  0
DIMENSION
  5
1DD
330
1F
100
AcDbEntity
  8
0
370
    25
100
AcDbDimension
  2
*D5
 10
347.6292015667543
 20
48.22532188841201
 30
0.0
 11
334.4625349000876
 21
187.9753218884121
 31
0.0
 70
    32
 71
     5
 41
2.5
 42
279.5000000000001
  3
Standard
100
AcDbAlignedDimension
 13
283.0328027915788
 23
327.7253218884121
 33
0.0
 14
278.830807670604
 24
48.22532188841202
 34
0.0
 50
90.0
100
AcDbRotatedDimension
1001
ACAD
1000
DSTYLE
1002
{
1070
   171
1070
     3
1070
   143
1040
0.03937
1070
   274
1070
     3
1070
    41
1040
10.0
1070
   289
1070
     0
1070
   141
1040
2.5
1070
   176
1070
     7
1070
   177
1070
     7
1070
   271
1070
     2
1070
    43
1040
3.75
1070
   278
1070
    44
1070
    44
1040
1.25
1070
    42
1040
0.625
1070
   147
1040
5.0
1070
    77
1070
     1
1070
   272
1070
     2
1070
    73
1070
     0
1070
   172
1070
     1
1070
    74
1070
     0
1070
   283
1070
     0
1070
   140
1040
14.0
1070
   284
1070
     8
1070
    78
1070
     8
1002
}
  0
DIMENSION
  5
1DE
330
1F
100
AcDbEntity
  8
0
370
    25
100
AcDbDimension
  2
*D6
 10
450.8590554658873
 20
350.7768254918133
 30
0.0
 11
384.1923887992206
 21
363.9434921584799
 31
0.0
 70
   160
 71
     5
 41
2.5
 42
29.5
  3
Standard
100
AcDbAlignedDimension
 13
421.3590554658873
 23
301.2432781598513
 33
0.0
 14
450.8590554658873
 24
301.2432781598513
 34
0.0
100
AcDbRotatedDimension
1001
ACAD
1000
DSTYLE
1002
{
1070
   171
1070
     3
1070
   143
1040
0.03937
1070
   274
1070
     3
1070
    41
1040
10.0
1070
   289
1070
     0
1070
   141
1040
2.5
1070
   176
1070
     7
1070
   177
1070
     7
1070
   271
1070
     2
1070
    43
1040
3.75
1070
   278
1070
    44
1070
    44
1040
1.25
1070
    42
1040
0.625
1070
   147
1040
5.0
1070
    77
1070
     1
1070
   272
1070
     2
1070
    73
1070
     0
1070
   172
1070
     1
1070
    74
1070
     0
1070
   283
1070
     0
1070
   140
1040
14.0
1070
   284
1070
     8
1070
    78
1070
     8
1002
}
  0
VIEWPORT
  5
BB
330
73
100
AcDbEntity
 67
     1
  8
0
100
AcDbViewport
 10
7.8
 20
4.5
 30
0.0
 40
15.64
 41
9.0
 68
     1
 69
     1
 12
6.0
 22
4.5
 13
0.0
 23
0.0
 14
0.5
 24
0.5
 15
0.5
 25
0.5
 16
0.0
 26
0.0
 36
1.0
 17
0.0
 27
0.0
 37
0.0
 42
50.0
 43
0.0
 44
0.0
 45
12.0
 50
0.0
 51
0.0
 72
   100
 90
   557152
  1

281
     0
 71
     1
 74
     0
110
0.0
120
0.0
130
0.0
111
1.0
121
0.0
131
0.0
112
0.0
122
1.0
132
0.0
 79
     0
146
0.0
  0
ENDSEC
  0
SECTION
  2
OBJECTS
  0
DICTIONARY
  5
C
330
0
100
AcDbDictionary
281
     1
  3
ACAD_COLOR
350
6C
  3
ACAD_GROUP
350
D
  3
ACAD_LAYOUT
350
1A
  3
ACAD_MATERIAL
350
6B
  3
ACAD_MLEADERSTYLE
350
237
  3
ACAD_MLINESTYLE
350
17
  3
ACAD_PLOTSETTINGS
350
19
  3
ACAD_PLOTSTYLENAME
350
E
  3
ACAD_SCALELIST
350
99
  3
ACAD_TABLESTYLE
350
92
  3
ACDBHEADERROUNDTRIPXREC
350
238
  3
AcDbVariableDictionary
350
59
  3
DWGPROPS
350
23B
  0
DICTIONARY
  5
6C
102
{ACAD_REACTORS
330
C
102
}
330
C
100
AcDbDictionary
281
     1
  0
DICTIONARY
  5
D
102
{ACAD_REACTORS
330
C
102
}
330
C
100
AcDbDictionary
281
     1
  0
DICTIONARY
  5
1A
102
{ACAD_REACTORS
330
C
102
}
330
C
100
AcDbDictionary
281
     1
  3
Layout1
350
74
  3
Layout2
350
227
  3
Model
350
22
  0
DICTIONARY
  5
6B
102
{ACAD_REACTORS
330
C
102
}
330
C
100
AcDbDictionary
281
     1
  0
DICTIONARY
  5
237
102
{ACAD_REACTORS
330
C
102
}
330
C
100
AcDbDictionary
281
     1
  0
DICTIONARY
  5
17
102
{ACAD_REACTORS
330
C
102
}
330
C
100
AcDbDictionary
281
     1
  3
Standard
350
18
  0
DICTIONARY
  5
19
102
{ACAD_REACTORS
330
C
102
}
330
C
100
AcDbDictionary
281
     1
  0
ACDBDICTIONARYWDFLT
  5
E
102
{ACAD_REACTORS
330
C
102
}
330
C
100
AcDbDictionary
281
     1
  3
Normal
350
F
100
AcDbDictionaryWithDefault
340
F
  0
DICTIONARY
  5
99
102
{ACAD_REACTORS
330
C
102
}
330
C
100
AcDbDictionary
281
     1
  3
A0
350
D5
  3
A1
350
D6
  3
A2
350
D7
  3
A3
350
D8
  3
A4
350
D9
  3
A5
350
DA
  3
A6
350
DB
  3
A7
350
DC
  3
A8
350
DD
  3
A9
350
DE
  3
B0
350
DF
  3
B1
350
E0
  3
B2
350
E1
  3
B3
350
E2
  3
B4
350
E3
  3
B5
350
E4
  3
B6
350
E5
  3
B7
350
E6
  3
B8
350
E7
  3
B9
350
E8
  3
C0
350
E9
  3
C1
350
EA
  3
C2
350
EB
  3
C3
350
EC
  3
C4
350
ED
  3
C5
350
EE
  3
C6
350
EF
  3
C7
350
F0
  3
C8
350
F1
  3
C9
350
F2
  3
D0
350
F3
  3
D1
350
F4
  3
D2
350
F5
  0
DICTIONARY
  5
92
102
{ACAD_REACTORS
330
C
102
}
330
C
100
AcDbDictionary
281
     1
  0
DICTIONARY
  5
238
102
{ACAD_REACTORS
330
C
102
}
330
C
100
AcDbDictionary
281
     1
  3
COLORDICT
350
239
  3
MATERIALDICT
350
23A
  0
DICTIONARY
  5
59
102
{ACAD_REACTORS
330
C
102
}
330
C
100
AcDbDictionary
281
     1
  3
CTABLESTYLE
350
98
  3
DIMASSOC
350
5A
  3
HIDETEXT
350
5E
  0
XRECORD
  5
23B
102
{ACAD_REACTORS
330
C
102
}
330
C
100
AcDbXrecord
280
     1
  1
DWGPROPS COOKIE
  2

  3

  4

  6

  7

  8
BelottiMc
  9

300
=
301
=
302
=
303
=
304
=
305
=
306
=
307
=
308
=
309
=
 40
0.0
 41
2455096.317907813
 42
2455096.359574467
  1

 90
        0
  0
LAYOUT
  5
74
102
{ACAD_REACTORS
330
1A
102
}
330
1A
100
AcDbPlotSettings
  1

  2
ProgeSOFT PDF Wizard
  4
A4
  6

 40
5.926666666666667
 41
6.011333333333317
 42
6.095999999999985
 43
5.926666666666667
 44
210.0
 45
297.0
 46
88.56200000000001
 47
136.531
 48
0.0
 49
0.0
140
0.0
141
0.0
142
1.0
143
1.0
 70
   692
 72
     1
 73
     0
 74
     0
  7

 75
    16
147
1.0
148
4.426666666666668
149
1.5
100
AcDbLayout
  1
Layout1
 70
     1
 71
     1
 10
0.0
 20
0.0
 11
0.0
 21
0.0
 12
0.0
 22
0.0
 32
0.0
 14
0.0
 24
0.0
 34
0.0
 15
0.0
 25
0.0
 35
0.0
146
0.0
 13
0.0
 23
0.0
 33
0.0
 16
1.0
 26
0.0
 36
0.0
 17
0.0
 27
1.0
 37
0.0
 76
     0
330
D1
331
236
1001
PROGE_PRINT_SETTINGS
1070
    73
1070
     1
  0
LAYOUT
  5
227
102
{ACAD_REACTORS
330
1A
102
}
330
1A
100
AcDbPlotSettings
  1

  2
ProgeSOFT PDF Wizard
  4
A4
  6

 40
5.926666666666667
 41
6.011333333333317
 42
6.095999999999985
 43
5.926666666666667
 44
210.0
 45
297.0
 46
88.562
 47
136.531
 48
0.0
 49
0.0
140
0.0
141
0.0
142
1.0
143
1.0
 70
   692
 72
     1
 73
     0
 74
     0
  7

 75
    16
147
1.0
148
0.0
149
0.0
100
AcDbLayout
  1
Layout2
 70
     1
 71
     2
 10
0.0
 20
0.0
 11
12.0
 21
9.0
 12
0.0
 22
0.0
 32
0.0
 14
0.0
 24
0.0
 34
0.0
 15
12.0
 25
9.0
 35
0.0
146
0.0
 13
0.0
 23
0.0
 33
0.0
 16
1.0
 26
0.0
 36
0.0
 17
0.0
 27
1.0
 37
0.0
 76
     0
330
73
331
BB
1001
PROGE_PRINT_SETTINGS
1070
    73
1070
     1
  0
LAYOUT
  5
22
102
{ACAD_REACTORS
330
1A
102
}
330
1A
100
AcDbPlotSettings
  1

  2
ProgeSOFT PDF Wizard
  4
A4
  6

 40
5.926666666666667
 41
6.011333333333317
 42
6.095999999999985
 43
5.926666666666667
 44
210.0
 45
297.0
 46
-0.0000000000000034
 47
83.07219027892847
 48
0.0
 49
0.0
140
0.0
141
0.0
142
1.0
143
3.185621545313184
 70
 11956
 72
     1
 73
     0
 74
     0
  7

 75
     0
147
0.3139104836452531
148
17.49927328575359
149
-6.457935534728904
100
AcDbLayout
  1
Model
 70
     1
 71
     0
 10
0.0
 20
0.0
 11
0.0
 21
0.0
 12
0.0
 22
0.0
 32
0.0
 14
0.0
 24
0.0
 34
0.0
 15
450.8590554658873
 25
372.1101588251466
 35
0.0
146
0.0
 13
0.0
 23
0.0
 33
0.0
 16
1.0
 26
0.0
 36
0.0
 17
0.0
 27
1.0
 37
0.0
 76
     0
330
1F
331
97
1001
PROGE_PRINT_SETTINGS
1070
    73
1070
     1
  0
MLINESTYLE
  5
18
102
{ACAD_REACTORS
330
17
102
}
330
17
100
AcDbMlineStyle
  2
STANDARD
 70
     0
  3

 62
   256
 51
90.0
 52
90.0
 71
     2
 49
0.5
 62
   256
  6
BYLAYER
 49
-0.5
 62
   256
  6
BYLAYER
  0
ACDBPLACEHOLDER
  5
F
102
{ACAD_REACTORS
330
E
102
}
330
E
  0
SCALE
  5
D5
102
{ACAD_REACTORS
330
99
102
}
330
99
100
AcDbScale
 70
     0
300
1:1
140
1.0
141
1.0
290
     1
  0
SCALE
  5
D6
102
{ACAD_REACTORS
330
99
102
}
330
99
100
AcDbScale
 70
     0
300
1:2
140
1.0
141
2.0
290
     0
  0
SCALE
  5
D7
102
{ACAD_REACTORS
330
99
102
}
330
99
100
AcDbScale
 70
     0
300
1:4
140
1.0
141
4.0
290
     0
  0
SCALE
  5
D8
102
{ACAD_REACTORS
330
99
102
}
330
99
100
AcDbScale
 70
     0
300
1:5
140
1.0
141
5.0
290
     0
  0
SCALE
  5
D9
102
{ACAD_REACTORS
330
99
102
}
330
99
100
AcDbScale
 70
     0
300
1:8
140
1.0
141
8.0
290
     0
  0
SCALE
  5
DA
102
{ACAD_REACTORS
330
99
102
}
330
99
100
AcDbScale
 70
     0
300
1:10
140
1.0
141
10.0
290
     0
  0
SCALE
  5
DB
102
{ACAD_REACTORS
330
99
102
}
330
99
100
AcDbScale
 70
     0
300
1:16
140
1.0
141
16.0
290
     0
  0
SCALE
  5
DC
102
{ACAD_REACTORS
330
99
102
}
330
99
100
AcDbScale
 70
     0
300
1:20
140
1.0
141
20.0
290
     0
  0
SCALE
  5
DD
102
{ACAD_REACTORS
330
99
102
}
330
99
100
AcDbScale
 70
     0
300
1:30
140
1.0
141
30.0
290
     0
  0
SCALE
  5
DE
102
{ACAD_REACTORS
330
99
102
}
330
99
100
AcDbScale
 70
     0
300
1:40
140
1.0
141
40.0
290
     0
  0
SCALE
  5
DF
102
{ACAD_REACTORS
330
99
102
}
330
99
100
AcDbScale
 70
     0
300
1:50
140
1.0
141
50.0
290
     0
  0
SCALE
  5
E0
102
{ACAD_REACTORS
330
99
102
}
330
99
100
AcDbScale
 70
     0
300
1:100
140
1.0
141
100.0
290
     0
  0
SCALE
  5
E1
102
{ACAD_REACTORS
330
99
102
}
330
99
100
AcDbScale
 70
     0
300
2:1
140
2.0
141
1.0
290
     0
  0
SCALE
  5
E2
102
{ACAD_REACTORS
330
99
102
}
330
99
100
AcDbScale
 70
     0
300
4:1
140
4.0
141
1.0
290
     0
  0
SCALE
  5
E3
102
{ACAD_REACTORS
330
99
102
}
330
99
100
AcDbScale
 70
     0
300
8:1
140
8.0
141
1.0
290
     0
  0
SCALE
  5
E4
102
{ACAD_REACTORS
330
99
102
}
330
99
100
AcDbScale
 70
     0
300
10:1
140
10.0
141
1.0
290
     0
  0
SCALE
  5
E5
102
{ACAD_REACTORS
330
99
102
}
330
99
100
AcDbScale
 70
     0
300
100:1
140
100.0
141
1.0
290
     0
  0
SCALE
  5
E6
102
{ACAD_REACTORS
330
99
102
}
330
99
100
AcDbScale
 70
     0
300
1/128" = 1'-0"
140
0.0078125
141
12.0
290
     0
  0
SCALE
  5
E7
102
{ACAD_REACTORS
330
99
102
}
330
99
100
AcDbScale
 70
     0
300
1/64" = 1'-0"
140
0.015625
141
12.0
290
     0
  0
SCALE
  5
E8
102
{ACAD_REACTORS
330
99
102
}
330
99
100
AcDbScale
 70
     0
300
1/32" = 1'-0"
140
0.03125
141
12.0
290
     0
  0
SCALE
  5
E9
102
{ACAD_REACTORS
330
99
102
}
330
99
100
AcDbScale
 70
     0
300
1/16" = 1'-0"
140
0.0625
141
12.0
290
     0
  0
SCALE
  5
EA
102
{ACAD_REACTORS
330
99
102
}
330
99
100
AcDbScale
 70
     0
300
3/32" = 1'-0"
140
0.09375
141
12.0
290
     0
  0
SCALE
  5
EB
102
{ACAD_REACTORS
330
99
102
}
330
99
100
AcDbScale
 70
     0
300
1/8" = 1'-0"
140
0.125
141
12.0
290
     0
  0
SCALE
  5
EC
102
{ACAD_REACTORS
330
99
102
}
330
99
100
AcDbScale
 70
     0
300
3/16" = 1'-0"
140
0.1875
141
12.0
290
     0
  0
SCALE
  5
ED
102
{ACAD_REACTORS
330
99
102
}
330
99
100
AcDbScale
 70
     0
300
1/4" = 1'-0"
140
0.25
141
12.0
290
     0
  0
SCALE
  5
EE
102
{ACAD_REACTORS
330
99
102
}
330
99
100
AcDbScale
 70
     0
300
3/8" = 1'-0"
140
0.375
141
12.0
290
     0
  0
SCALE
  5
EF
102
{ACAD_REACTORS
330
99
102
}
330
99
100
AcDbScale
 70
     0
300
1/2" = 1'-0"
140
0.5
141
12.0
290
     0
  0
SCALE
  5
F0
102
{ACAD_REACTORS
330
99
102
}
330
99
100
AcDbScale
 70
     0
300
3/4" = 1'-0"
140
0.75
141
12.0
290
     0
  0
SCALE
  5
F1
102
{ACAD_REACTORS
330
99
102
}
330
99
100
AcDbScale
 70
     0
300
1" = 1'-0"
140
1.0
141
12.0
290
     0
  0
SCALE
  5
F2
102
{ACAD_REACTORS
330
99
102
}
330
99
100
AcDbScale
 70
     0
300
1-1/2" = 1'-0"
140
1.5
141
12.0
290
     0
  0
SCALE
  5
F3
102
{ACAD_REACTORS
330
99
102
}
330
99
100
AcDbScale
 70
     0
300
3" = 1'-0"
140
3.0
141
12.0
290
     0
  0
SCALE
  5
F4
102
{ACAD_REACTORS
330
99
102
}
330
99
100
AcDbScale
 70
     0
300
6" = 1'-0"
140
6.0
141
12.0
290
     0
  0
SCALE
  5
F5
102
{ACAD_REACTORS
330
99
102
}
330
99
100
AcDbScale
 70
     0
300
1'-0" = 1'-0"
140
12.0
141
12.0
290
     0
  0
XRECORD
  5
239
102
{ACAD_REACTORS
330
238
102
}
330
238
100
AcDbXrecord
280
     1
340
6C
  0
XRECORD
  5
23A
102
{ACAD_REACTORS
330
238
102
}
330
238
100
AcDbXrecord
280
     1
340
6B
  0
DICTIONARYVAR
  5
98
102
{ACAD_REACTORS
330
59
102
}
330
59
100
DictionaryVariables
280
     0
  1
Standard
  0
DICTIONARYVAR
  5
5A
102
{ACAD_REACTORS
330
59
102
}
330
59
100
DictionaryVariables
280
     0
  1
2
  0
DICTIONARYVAR
  5
5E
102
{ACAD_REACTORS
330
59
102
}
330
59
100
DictionaryVariables
280
     0
  1
1
  0
ENDSEC
  0
EOF
