  0
SECTION
  2
HEADER
  9
$ACADVER
  1
AC1015
  9
$ACADMAINTVER
 70
     6
  9
$DWGCODEPAGE
  3
ANSI_1252
  9
$INSBASE
 10
0.0
 20
0.0
 30
0.0
  9
$EXTMIN
 10
84.8581622498441
 20
90.9546065150214
 30
0.0
  9
$EXTMAX
 10
447.4170182264178
 20
343.7666923469364
 30
0.0
  9
$LIMMIN
 10
0.0
 20
0.0
  9
$LIMMAX
 10
0.0
 20
0.0
  9
$ORTHOMODE
 70
     0
  9
$REGENMODE
 70
     1
  9
$FILLMODE
 70
     1
  9
$QTEXTMODE
 70
     0
  9
$MIRRTEXT
 70
     0
  9
$LTSCALE
 40
1.0
  9
$ATTMODE
 70
     1
  9
$TEXTSIZE
 40
2.5
  9
$TRACEWID
 40
1.0
  9
$TEXTSTYLE
  7
Standard
  9
$CLAYER
  8
0
  9
$CELTYPE
  6
ByLayer
  9
$CECOLOR
 62
   256
  9
$CELTSCALE
 40
1.0
  9
$DISPSILH
 70
     0
  9
$DIMSCALE
 40
1.0
  9
$DIMASZ
 40
2.5
  9
$DIMEXO
 40
0.625
  9
$DIMDLI
 40
3.75
  9
$DIMRND
 40
0.0
  9
$DIMDLE
 40
0.0
  9
$DIMEXE
 40
1.25
  9
$DIMTP
 40
0.0
  9
$DIMTM
 40
0.0
  9
$DIMTXT
 40
2.5
  9
$DIMCEN
 40
2.5
  9
$DIMTSZ
 40
0.0
  9
$DIMTOL
 70
     0
  9
$DIMLIM
 70
     0
  9
$DIMTIH
 70
     0
  9
$DIMTOH
 70
     0
  9
$DIMSE1
 70
     0
  9
$DIMSE2
 70
     0
  9
$DIMTAD
 70
     1
  9
$DIMZIN
 70
     8
  9
$DIMBLK
  1

  9
$DIMASO
 70
     1
  9
$DIMSHO
 70
     1
  9
$DIMPOST
  1

  9
$DIMAPOST
  1

  9
$DIMALT
 70
     0
  9
$DIMALTD
 70
     3
  9
$DIMALTF
 40
0.03937007874016
  9
$DIMLFAC
 40
1.0
  9
$DIMTOFL
 70
     1
  9
$DIMTVP
 40
0.0
  9
$DIMTIX
 70
     0
  9
$DIMSOXD
 70
     0
  9
$DIMSAH
 70
     0
  9
$DIMBLK1
  1

  9
$DIMBLK2
  1

  9
$DIMSTYLE
  2
ISO-25
  9
$DIMCLRD
 70
     0
  9
$DIMCLRE
 70
     0
  9
$DIMCLRT
 70
     0
  9
$DIMTFAC
 40
1.0
  9
$DIMGAP
 40
0.625
  9
$DIMJUST
 70
     0
  9
$DIMSD1
 70
     0
  9
$DIMSD2
 70
     0
  9
$DIMTOLJ
 70
     0
  9
$DIMTZIN
 70
     8
  9
$DIMALTZ
 70
     0
  9
$DIMALTTZ
 70
     0
  9
$DIMUPT
 70
     0
  9
$DIMDEC
 70
     2
  9
$DIMTDEC
 70
     2
  9
$DIMALTU
 70
     2
  9
$DIMALTTD
 70
     3
  9
$DIMTXSTY
  7
Standard
  9
$DIMAUNIT
 70
     0
  9
$DIMADEC
 70
     0
  9
$DIMALTRND
 40
0.0
  9
$DIMAZIN
 70
     0
  9
$DIMDSEP
 70
    44
  9
$DIMATFIT
 70
     3
  9
$DIMFRAC
 70
     0
  9
$DIMLDRBLK
  1

  9
$DIMLUNIT
 70
     2
  9
$DIMLWD
 70
    -2
  9
$DIMLWE
 70
    -2
  9
$DIMTMOVE
 70
     0
  9
$LUNITS
 70
     2
  9
$LUPREC
 70
     4
  9
$SKETCHINC
 40
1.0
  9
$FILLETRAD
 40
0.0
  9
$AUNITS
 70
     0
  9
$AUPREC
 70
     0
  9
$MENU
  1
.
  9
$ELEVATION
 40
0.0
  9
$PELEVATION
 40
0.0
  9
$THICKNESS
 40
0.0
  9
$LIMCHECK
 70
     0
  9
$CHAMFERA
 40
0.0
  9
$CHAMFERB
 40
0.0
  9
$CHAMFERC
 40
0.0
  9
$CHAMFERD
 40
0.0
  9
$SKPOLY
 70
     0
  9
$TDCREATE
 40
2455089.670703183
  9
$TDUCREATE
 40
2455089.587369849
  9
$TDUPDATE
 40
2455089.712369849
  9
$TDUUPDATE
 40
2455089.629036516
  9
$TDINDWG
 40
0.0558612963
  9
$TDUSRTIMER
 40
0.0558589352
  9
$USRTIMER
 70
     1
  9
$ANGBASE
 50
0.0
  9
$ANGDIR
 70
     0
  9
$PDMODE
 70
     0
  9
$PDSIZE
 40
0.0
  9
$PLINEWID
 40
0.0
  9
$SPLFRAME
 70
     0
  9
$SPLINETYPE
 70
     6
  9
$SPLINESEGS
 70
     8
  9
$HANDSEED
  5
61E
  9
$SURFTAB1
 70
     6
  9
$SURFTAB2
 70
     6
  9
$SURFTYPE
 70
     6
  9
$SURFU
 70
     6
  9
$SURFV
 70
     6
  9
$UCSBASE
  2

  9
$UCSNAME
  2

  9
$UCSORG
 10
0.0
 20
0.0
 30
0.0
  9
$UCSXDIR
 10
1.0
 20
0.0
 30
0.0
  9
$UCSYDIR
 10
0.0
 20
1.0
 30
0.0
  9
$UCSORTHOREF
  2

  9
$UCSORTHOVIEW
 70
     0
  9
$UCSORGTOP
 10
0.0
 20
0.0
 30
0.0
  9
$UCSORGBOTTOM
 10
0.0
 20
0.0
 30
0.0
  9
$UCSORGLEFT
 10
0.0
 20
0.0
 30
0.0
  9
$UCSORGRIGHT
 10
0.0
 20
0.0
 30
0.0
  9
$UCSORGFRONT
 10
0.0
 20
0.0
 30
0.0
  9
$UCSORGBACK
 10
0.0
 20
0.0
 30
0.0
  9
$PUCSBASE
  2

  9
$PUCSNAME
  2

  9
$PUCSORG
 10
0.0
 20
0.0
 30
0.0
  9
$PUCSXDIR
 10
1.0
 20
0.0
 30
0.0
  9
$PUCSYDIR
 10
0.0
 20
1.0
 30
0.0
  9
$PUCSORTHOREF
  2

  9
$PUCSORTHOVIEW
 70
     0
  9
$PUCSORGTOP
 10
0.0
 20
0.0
 30
0.0
  9
$PUCSORGBOTTOM
 10
0.0
 20
0.0
 30
0.0
  9
$PUCSORGLEFT
 10
0.0
 20
0.0
 30
0.0
  9
$PUCSORGRIGHT
 10
0.0
 20
0.0
 30
0.0
  9
$PUCSORGFRONT
 10
0.0
 20
0.0
 30
0.0
  9
$PUCSORGBACK
 10
0.0
 20
0.0
 30
0.0
  9
$USERI1
 70
     0
  9
$USERI2
 70
     0
  9
$USERI3
 70
     0
  9
$USERI4
 70
     0
  9
$USERI5
 70
     0
  9
$USERR1
 40
0.0
  9
$USERR2
 40
0.0
  9
$USERR3
 40
0.0
  9
$USERR4
 40
0.0
  9
$USERR5
 40
0.0
  9
$WORLDVIEW
 70
     1
  9
$SHADEDGE
 70
     3
  9
$SHADEDIF
 70
    70
  9
$TILEMODE
 70
     1
  9
$MAXACTVP
 70
    64
  9
$PINSBASE
 10
0.0
 20
0.0
 30
0.0
  9
$PLIMCHECK
 70
     0
  9
$PEXTMIN
 10
0.0
 20
0.0
 30
0.0
  9
$PEXTMAX
 10
12.0
 20
9.0
 30
0.0
  9
$PLIMMIN
 10
0.0
 20
0.0
  9
$PLIMMAX
 10
12.0
 20
9.0
  9
$UNITMODE
 70
     0
  9
$VISRETAIN
 70
     1
  9
$PLINEGEN
 70
     0
  9
$PSLTSCALE
 70
     1
  9
$TREEDEPTH
 70
  3020
  9
$CMLSTYLE
  2
Standard
  9
$CMLJUST
 70
     0
  9
$CMLSCALE
 40
20.0
  9
$PROXYGRAPHICS
 70
     1
  9
$MEASUREMENT
 70
     1
  9
$CELWEIGHT
370
    -1
  9
$ENDCAPS
280
     0
  9
$JOINSTYLE
280
     0
  9
$LWDISPLAY
290
     0
  9
$INSUNITS
 70
     4
  9
$HYPERLINKBASE
  1

  9
$STYLESHEET
  1

  9
$XEDIT
290
     1
  9
$CEPSNTYPE
380
     0
  9
$PSTYLEMODE
290
     1
  9
$FINGERPRINTGUID
  2
{5559452E-1E62-4159-8551-BF76FFF3E7E8}
  9
$VERSIONGUID
  2
{3CEB9EF8-4431-4551-B596-6734A9F966A9}
  9
$EXTNAMES
290
     1
  9
$PSVPSCALE
 40
0.0
  9
$OLESTARTUP
290
     0
  0
ENDSEC
  0
SECTION
  2
CLASSES
  0
CLASS
  1
ACDBDICTIONARYWDFLT
  2
AcDbDictionaryWithDefault
  3
ObjectDBX Classes
 90
        0
280
     0
281
     0
  0
CLASS
  1
ACDBPLACEHOLDER
  2
AcDbPlaceHolder
  3
ObjectDBX Classes
 90
        0
280
     0
281
     0
  0
CLASS
  1
LAYOUT
  2
AcDbLayout
  3
ObjectDBX Classes
 90
        0
280
     0
281
     0
  0
CLASS
  1
DICTIONARYVAR
  2
AcDbDictionaryVar
  3
ObjectDBX Classes
 90
        0
280
     0
281
     0
  0
CLASS
  1
TABLESTYLE
  2
AcDbTableStyle
  3
ObjectDBX Classes
 90
     4095
280
     0
281
     0
  0
CLASS
  1
SCALE
  2
AcDbScale
  3
ObjectDBX Classes
 90
     1153
280
     0
281
     0
  0
ENDSEC
  0
SECTION
  2
TABLES
  0
TABLE
  2
VPORT
  5
8
330
0
100
AcDbSymbolTable
 70
     2
  0
VPORT
  5
97
330
8
100
AcDbSymbolTableRecord
100
AcDbViewportTableRecord
  2
*Active
 70
     0
 10
0.0
 20
0.0
 11
1.0
 21
1.0
 12
327.1653264810033
 22
201.792406965655
 13
0.0
 23
0.0
 14
10.0
 24
10.0
 15
10.0
 25
10.0
 16
0.0
 26
0.0
 36
1.0
 17
0.0
 27
0.0
 37
0.0
 40
439.3702232934587
 41
1.664827586206897
 42
50.0
 43
0.0
 44
0.0
 50
0.0
 51
0.0
 71
     0
 72
  1000
 73
     1
 74
     3
 75
     0
 76
     0
 77
     0
 78
     0
281
     0
 65
     1
110
0.0
120
0.0
130
0.0
111
1.0
121
0.0
131
0.0
112
0.0
122
1.0
132
0.0
 79
     0
146
0.0
  0
ENDTAB
  0
TABLE
  2
LTYPE
  5
5
330
0
100
AcDbSymbolTable
 70
     2
  0
LTYPE
  5
14
330
5
100
AcDbSymbolTableRecord
100
AcDbLinetypeTableRecord
  2
ByBlock
 70
     0
  3

 72
    65
 73
     0
 40
0.0
  0
LTYPE
  5
15
330
5
100
AcDbSymbolTableRecord
100
AcDbLinetypeTableRecord
  2
ByLayer
 70
     0
  3

 72
    65
 73
     0
 40
0.0
  0
LTYPE
  5
16
330
5
100
AcDbSymbolTableRecord
100
AcDbLinetypeTableRecord
  2
Continuous
 70
     0
  3
Solid line
 72
    65
 73
     0
 40
0.0
  0
LTYPE
  5
595
330
5
100
AcDbSymbolTableRecord
100
AcDbLinetypeTableRecord
  2
DASHDOT
 70
     0
  3
 __ . __ . __ . __ . __ . __ . __ . 
 72
    65
 73
     4
 40
18.5
 49
12.0
 74
     0
 49
-3.0
 74
     0
 49
0.5
 74
     0
 49
-3.0
 74
     0
  0
ENDTAB
  0
TABLE
  2
LAYER
  5
2
330
0
100
AcDbSymbolTable
 70
     2
  0
LAYER
  5
10
330
2
100
AcDbSymbolTableRecord
100
AcDbLayerTableRecord
  2
0
 70
     0
 62
     7
  6
Continuous
370
    -3
390
F
  0
LAYER
  5
342
330
2
100
AcDbSymbolTableRecord
100
AcDbLayerTableRecord
  2
DEFPOINTS
 70
     0
 62
     7
  6
Continuous
290
     0
370
    -3
390
F
  0
ENDTAB
  0
TABLE
  2
STYLE
  5
3
330
0
100
AcDbSymbolTable
 70
     1
  0
STYLE
  5
11
330
3
100
AcDbSymbolTableRecord
100
AcDbTextStyleTableRecord
  2
Standard
 70
     0
 40
0.0
 41
1.0
 50
0.0
 71
     0
 42
2.5
  3
txt
  4

  0
ENDTAB
  0
TABLE
  2
VIEW
  5
6
330
0
100
AcDbSymbolTable
 70
     0
  0
ENDTAB
  0
TABLE
  2
UCS
  5
7
330
0
100
AcDbSymbolTable
 70
     0
  0
ENDTAB
  0
TABLE
  2
APPID
  5
9
330
0
100
AcDbSymbolTable
 70
     3
  0
APPID
  5
12
330
9
100
AcDbSymbolTableRecord
100
AcDbRegAppTableRecord
  2
ACAD
 70
     0
  0
APPID
  5
593
330
9
100
AcDbSymbolTableRecord
100
AcDbRegAppTableRecord
  2
PROGE_PRINT_SETTINGS
 70
     0
  0
APPID
  5
594
330
9
100
AcDbSymbolTableRecord
100
AcDbRegAppTableRecord
  2
Conv5506CA
 70
     0
  0
ENDTAB
  0
TABLE
  2
DIMSTYLE
  5
A
330
0
100
AcDbSymbolTable
 70
     2
100
AcDbDimStyleTable
  0
DIMSTYLE
105
27
330
A
100
AcDbSymbolTableRecord
100
AcDbDimStyleTableRecord
  2
Standard
 70
     0
278
     0
340
11
  0
DIMSTYLE
105
29
102
{ACAD_REACTORS
330
343
330
41B
330
463
102
}
330
A
100
AcDbSymbolTableRecord
100
AcDbDimStyleTableRecord
  2
ISO-25
 70
     0
 41
2.5
 42
0.625
 43
3.75
 44
1.25
 73
     0
 74
     0
 77
     1
 78
     8
140
2.5
141
2.5
143
0.03937007874016
147
0.625
171
     3
172
     1
271
     2
272
     2
274
     3
278
    44
283
     0
284
     8
340
11
  0
ENDTAB
  0
TABLE
  2
BLOCK_RECORD
  5
1
330
0
100
AcDbSymbolTable
 70
    66
  0
BLOCK_RECORD
  5
1F
330
1
100
AcDbSymbolTableRecord
100
AcDbBlockTableRecord
  2
*Model_Space
340
22
  0
BLOCK_RECORD
  5
73
330
1
100
AcDbSymbolTableRecord
100
AcDbBlockTableRecord
  2
*Paper_Space
340
4EE
  0
BLOCK_RECORD
  5
D1
330
1
100
AcDbSymbolTableRecord
100
AcDbBlockTableRecord
  2
*Paper_Space0
340
74
  0
BLOCK_RECORD
  5
112
330
1
100
AcDbSymbolTableRecord
100
AcDbBlockTableRecord
  2
BLOCK90
340
0
  0
BLOCK_RECORD
  5
117
330
1
100
AcDbSymbolTableRecord
100
AcDbBlockTableRecord
  2
BLOCK99
340
0
  0
BLOCK_RECORD
  5
11C
330
1
100
AcDbSymbolTableRecord
100
AcDbBlockTableRecord
  2
BLOCK100
340
0
  0
BLOCK_RECORD
  5
121
330
1
100
AcDbSymbolTableRecord
100
AcDbBlockTableRecord
  2
BLOCK101
340
0
  0
BLOCK_RECORD
  5
126
330
1
100
AcDbSymbolTableRecord
100
AcDbBlockTableRecord
  2
BLOCK102
340
0
  0
BLOCK_RECORD
  5
12B
330
1
100
AcDbSymbolTableRecord
100
AcDbBlockTableRecord
  2
BLOCK103
340
0
  0
BLOCK_RECORD
  5
130
330
1
100
AcDbSymbolTableRecord
100
AcDbBlockTableRecord
  2
BLOCK104
340
0
  0
BLOCK_RECORD
  5
135
330
1
100
AcDbSymbolTableRecord
100
AcDbBlockTableRecord
  2
BLOCK105
340
0
  0
BLOCK_RECORD
  5
13A
330
1
100
AcDbSymbolTableRecord
100
AcDbBlockTableRecord
  2
BLOCK114
340
0
  0
BLOCK_RECORD
  5
13F
330
1
100
AcDbSymbolTableRecord
100
AcDbBlockTableRecord
  2
BLOCK115
340
0
  0
BLOCK_RECORD
  5
144
330
1
100
AcDbSymbolTableRecord
100
AcDbBlockTableRecord
  2
BLOCK116
340
0
  0
BLOCK_RECORD
  5
149
330
1
100
AcDbSymbolTableRecord
100
AcDbBlockTableRecord
  2
BLOCK117
340
0
  0
BLOCK_RECORD
  5
156
330
1
100
AcDbSymbolTableRecord
100
AcDbBlockTableRecord
  2
BLOCK132
340
0
  0
BLOCK_RECORD
  5
163
330
1
100
AcDbSymbolTableRecord
100
AcDbBlockTableRecord
  2
BLOCK133
340
0
  0
BLOCK_RECORD
  5
170
330
1
100
AcDbSymbolTableRecord
100
AcDbBlockTableRecord
  2
BLOCK134
340
0
  0
BLOCK_RECORD
  5
17A
330
1
100
AcDbSymbolTableRecord
100
AcDbBlockTableRecord
  2
BLOCK135
340
0
  0
BLOCK_RECORD
  5
184
330
1
100
AcDbSymbolTableRecord
100
AcDbBlockTableRecord
  2
BLOCK136
340
0
  0
BLOCK_RECORD
  5
18E
330
1
100
AcDbSymbolTableRecord
100
AcDbBlockTableRecord
  2
BLOCK137
340
0
  0
BLOCK_RECORD
  5
198
330
1
100
AcDbSymbolTableRecord
100
AcDbBlockTableRecord
  2
BLOCK138
340
0
  0
BLOCK_RECORD
  5
1A2
330
1
100
AcDbSymbolTableRecord
100
AcDbBlockTableRecord
  2
BLOCK139
340
0
  0
BLOCK_RECORD
  5
1AE
330
1
100
AcDbSymbolTableRecord
100
AcDbBlockTableRecord
  2
BLOCK140
340
0
  0
BLOCK_RECORD
  5
1BC
330
1
100
AcDbSymbolTableRecord
100
AcDbBlockTableRecord
  2
BLOCK141
340
0
  0
BLOCK_RECORD
  5
1C8
330
1
100
AcDbSymbolTableRecord
100
AcDbBlockTableRecord
  2
BLOCK142
340
0
  0
BLOCK_RECORD
  5
1D4
330
1
100
AcDbSymbolTableRecord
100
AcDbBlockTableRecord
  2
BLOCK143
340
0
  0
BLOCK_RECORD
  5
1E0
330
1
100
AcDbSymbolTableRecord
100
AcDbBlockTableRecord
  2
BLOCK144
340
0
  0
BLOCK_RECORD
  5
1EE
330
1
100
AcDbSymbolTableRecord
100
AcDbBlockTableRecord
  2
BLOCK145
340
0
  0
BLOCK_RECORD
  5
1FB
330
1
100
AcDbSymbolTableRecord
100
AcDbBlockTableRecord
  2
BLOCK146
340
0
  0
BLOCK_RECORD
  5
208
330
1
100
AcDbSymbolTableRecord
100
AcDbBlockTableRecord
  2
BLOCK147
340
0
  0
BLOCK_RECORD
  5
29E
330
1
100
AcDbSymbolTableRecord
100
AcDbBlockTableRecord
  2
BLOCK148
340
0
  0
BLOCK_RECORD
  5
2A4
330
1
100
AcDbSymbolTableRecord
100
AcDbBlockTableRecord
  2
BLOCK150
340
0
  0
BLOCK_RECORD
  5
2AE
330
1
100
AcDbSymbolTableRecord
100
AcDbBlockTableRecord
  2
BLOCK154
340
0
  0
BLOCK_RECORD
  5
2BA
330
1
100
AcDbSymbolTableRecord
100
AcDbBlockTableRecord
  2
BLOCK155
340
0
  0
BLOCK_RECORD
  5
2C6
330
1
100
AcDbSymbolTableRecord
100
AcDbBlockTableRecord
  2
BLOCK156
340
0
  0
BLOCK_RECORD
  5
2D3
330
1
100
AcDbSymbolTableRecord
100
AcDbBlockTableRecord
  2
BLOCK157
340
0
  0
BLOCK_RECORD
  5
2E0
330
1
100
AcDbSymbolTableRecord
100
AcDbBlockTableRecord
  2
BLOCK158
340
0
  0
BLOCK_RECORD
  5
2EC
330
1
100
AcDbSymbolTableRecord
100
AcDbBlockTableRecord
  2
BLOCK159
340
0
  0
BLOCK_RECORD
  5
2F6
330
1
100
AcDbSymbolTableRecord
100
AcDbBlockTableRecord
  2
BLOCK160
340
0
  0
BLOCK_RECORD
  5
2FC
330
1
100
AcDbSymbolTableRecord
100
AcDbBlockTableRecord
  2
BLOCK161
340
0
  0
BLOCK_RECORD
  5
302
330
1
100
AcDbSymbolTableRecord
100
AcDbBlockTableRecord
  2
BLOCK162
340
0
  0
BLOCK_RECORD
  5
308
330
1
100
AcDbSymbolTableRecord
100
AcDbBlockTableRecord
  2
BLOCK163
340
0
  0
BLOCK_RECORD
  5
326
330
1
100
AcDbSymbolTableRecord
100
AcDbBlockTableRecord
  2
BLOCK164
340
0
  0
BLOCK_RECORD
  5
34E
330
1
100
AcDbSymbolTableRecord
100
AcDbBlockTableRecord
  2
*D42
340
0
  0
BLOCK_RECORD
  5
359
330
1
100
AcDbSymbolTableRecord
100
AcDbBlockTableRecord
  2
*D43
340
0
  0
BLOCK_RECORD
  5
364
330
1
100
AcDbSymbolTableRecord
100
AcDbBlockTableRecord
  2
*D44
340
0
  0
BLOCK_RECORD
  5
370
330
1
100
AcDbSymbolTableRecord
100
AcDbBlockTableRecord
  2
*D45
340
0
  0
BLOCK_RECORD
  5
37C
330
1
100
AcDbSymbolTableRecord
100
AcDbBlockTableRecord
  2
*D46
340
0
  0
BLOCK_RECORD
  5
388
330
1
100
AcDbSymbolTableRecord
100
AcDbBlockTableRecord
  2
*D47
340
0
  0
BLOCK_RECORD
  5
426
330
1
100
AcDbSymbolTableRecord
100
AcDbBlockTableRecord
  2
*D48
340
0
  0
BLOCK_RECORD
  5
432
330
1
100
AcDbSymbolTableRecord
100
AcDbBlockTableRecord
  2
*D49
340
0
  0
BLOCK_RECORD
  5
43D
330
1
100
AcDbSymbolTableRecord
100
AcDbBlockTableRecord
  2
*D50
340
0
  0
BLOCK_RECORD
  5
448
330
1
100
AcDbSymbolTableRecord
100
AcDbBlockTableRecord
  2
*D51
340
0
  0
BLOCK_RECORD
  5
46E
330
1
100
AcDbSymbolTableRecord
100
AcDbBlockTableRecord
  2
*D52
340
0
  0
BLOCK_RECORD
  5
479
330
1
100
AcDbSymbolTableRecord
100
AcDbBlockTableRecord
  2
*D53
340
0
  0
BLOCK_RECORD
  5
484
330
1
100
AcDbSymbolTableRecord
100
AcDbBlockTableRecord
  2
*D54
340
0
  0
BLOCK_RECORD
  5
48F
330
1
100
AcDbSymbolTableRecord
100
AcDbBlockTableRecord
  2
*D55
340
0
  0
BLOCK_RECORD
  5
49A
330
1
100
AcDbSymbolTableRecord
100
AcDbBlockTableRecord
  2
*D56
340
0
  0
BLOCK_RECORD
  5
4A5
330
1
100
AcDbSymbolTableRecord
100
AcDbBlockTableRecord
  2
*D57
340
0
  0
BLOCK_RECORD
  5
4B0
330
1
100
AcDbSymbolTableRecord
100
AcDbBlockTableRecord
  2
*D58
340
0
  0
BLOCK_RECORD
  5
4BD
330
1
100
AcDbSymbolTableRecord
100
AcDbBlockTableRecord
  2
*D59
340
0
  0
BLOCK_RECORD
  5
4C8
330
1
100
AcDbSymbolTableRecord
100
AcDbBlockTableRecord
  2
*D60
340
0
  0
BLOCK_RECORD
  5
4D3
330
1
100
AcDbSymbolTableRecord
100
AcDbBlockTableRecord
  2
*D61
340
0
  0
BLOCK_RECORD
  5
4DE
330
1
100
AcDbSymbolTableRecord
100
AcDbBlockTableRecord
  2
*D62
340
0
  0
BLOCK_RECORD
  5
4E9
330
1
100
AcDbSymbolTableRecord
100
AcDbBlockTableRecord
  2
*D63
340
0
  0
BLOCK_RECORD
  5
584
330
1
100
AcDbSymbolTableRecord
100
AcDbBlockTableRecord
  2
*D64
340
0
  0
BLOCK_RECORD
  5
591
330
1
100
AcDbSymbolTableRecord
100
AcDbBlockTableRecord
  2
*D65
340
0
  0
ENDTAB
  0
ENDSEC
  0
SECTION
  2
BLOCKS
  0
BLOCK
  5
20
330
1F
100
AcDbEntity
  8
0
100
AcDbBlockBegin
  2
*Model_Space
 70
     0
 10
0.0
 20
0.0
 30
0.0
  3
*Model_Space
  1

  0
ENDBLK
  5
21
330
1F
100
AcDbEntity
  8
0
100
AcDbBlockEnd
  0
BLOCK
  5
75
330
73
100
AcDbEntity
 67
     1
  8
0
100
AcDbBlockBegin
  2
*Paper_Space
 70
     0
 10
0.0
 20
0.0
 30
0.0
  3
*Paper_Space
  1

  0
ENDBLK
  5
76
330
73
100
AcDbEntity
 67
     1
  8
0
100
AcDbBlockEnd
  0
BLOCK
  5
596
330
D1
100
AcDbEntity
  8
0
100
AcDbBlockBegin
  2
*Paper_Space0
 70
     0
 10
0.0
 20
0.0
 30
0.0
  3
*Paper_Space0
  1

  0
VIEWPORT
  5
56F
330
D1
100
AcDbEntity
  8
0
100
AcDbViewport
 10
7.8
 20
4.5
 30
0.0
 40
15.64
 41
9.0
 68
     1
 69
     1
 12
6.0
 22
4.5
 13
0.0
 23
0.0
 14
0.5
 24
0.5
 15
0.5
 25
0.5
 16
0.0
 26
0.0
 36
1.0
 17
0.0
 27
0.0
 37
0.0
 42
50.0
 43
0.0
 44
0.0
 45
12.0
 50
0.0
 51
0.0
 72
   100
 90
   557152
  1

281
     0
 71
     1
 74
     0
110
0.0
120
0.0
130
0.0
111
1.0
121
0.0
131
0.0
112
0.0
122
1.0
132
0.0
 79
     0
146
0.0
  0
ENDBLK
  5
597
330
D1
100
AcDbEntity
  8
0
100
AcDbBlockEnd
  0
BLOCK
  5
598
330
112
100
AcDbEntity
  8
0
100
AcDbBlockBegin
  2
BLOCK90
 70
     0
 10
0.0
 20
0.0
 30
0.0
  3
BLOCK90
  1

  0
TEXT
  5
110
330
112
100
AcDbEntity
  8
0
 62
     7
370
    13
100
AcDbText
 10
301.033478
 20
143.626343
 30
0.0
 40
2.5
  1
NOTE
 41
0.9462924000000013
 72
     5
 11
309.707825
 21
143.626343
 31
0.0
100
AcDbText
  0
ENDBLK
  5
599
330
112
100
AcDbEntity
  8
0
100
AcDbBlockEnd
  0
BLOCK
  5
59A
330
117
100
AcDbEntity
  8
0
100
AcDbBlockBegin
  2
BLOCK99
 70
     0
 10
0.0
 20
0.0
 30
0.0
  3
BLOCK99
  1

  0
TEXT
  5
115
330
117
100
AcDbEntity
  8
0
 62
     7
370
    13
100
AcDbText
 10
47.401794
 20
411.5
 30
0.0
 40
2.0
  1
1
 41
2.602306499999997
 72
     5
 11
49.136665
 21
411.5
 31
0.0
100
AcDbText
  0
ENDBLK
  5
59B
330
117
100
AcDbEntity
  8
0
100
AcDbBlockEnd
  0
BLOCK
  5
59C
330
11C
100
AcDbEntity
  8
0
100
AcDbBlockBegin
  2
BLOCK100
 70
     0
 10
0.0
 20
0.0
 30
0.0
  3
BLOCK100
  1

  0
TEXT
  5
11A
330
11C
100
AcDbEntity
  8
0
 62
     7
370
    13
100
AcDbText
 10
103.801796
 20
411.5
 30
0.0
 40
2.0
  1
2
 41
1.301153249999999
 72
     5
 11
105.536667
 21
411.5
 31
0.0
100
AcDbText
  0
ENDBLK
  5
59D
330
11C
100
AcDbEntity
  8
0
100
AcDbBlockEnd
  0
BLOCK
  5
59E
330
121
100
AcDbEntity
  8
0
100
AcDbBlockBegin
  2
BLOCK101
 70
     0
 10
0.0
 20
0.0
 30
0.0
  3
BLOCK101
  1

  0
TEXT
  5
11F
330
121
100
AcDbEntity
  8
0
 62
     7
370
    13
100
AcDbText
 10
160.201797
 20
411.5
 30
0.0
 40
2.0
  1
3
 41
1.301147999999991
 72
     5
 11
161.936661
 21
411.5
 31
0.0
100
AcDbText
  0
ENDBLK
  5
59F
330
121
100
AcDbEntity
  8
0
100
AcDbBlockEnd
  0
BLOCK
  5
5A0
330
126
100
AcDbEntity
  8
0
100
AcDbBlockBegin
  2
BLOCK102
 70
     0
 10
0.0
 20
0.0
 30
0.0
  3
BLOCK102
  1

  0
TEXT
  5
124
330
126
100
AcDbEntity
  8
0
 62
     7
370
    13
100
AcDbText
 10
216.601807
 20
411.5
 30
0.0
 40
2.0
  1
4
 41
1.301147249999993
 72
     5
 11
218.33667
 21
411.5
 31
0.0
100
AcDbText
  0
ENDBLK
  5
5A1
330
126
100
AcDbEntity
  8
0
100
AcDbBlockEnd
  0
BLOCK
  5
5A2
330
12B
100
AcDbEntity
  8
0
100
AcDbBlockBegin
  2
BLOCK103
 70
     0
 10
0.0
 20
0.0
 30
0.0
  3
BLOCK103
  1

  0
TEXT
  5
129
330
12B
100
AcDbEntity
  8
0
 62
     7
370
    13
100
AcDbText
 10
273.001801
 20
411.5
 30
0.0
 40
2.0
  1
5
 41
1.301147250000014
 72
     5
 11
274.736664
 21
411.5
 31
0.0
100
AcDbText
  0
ENDBLK
  5
5A3
330
12B
100
AcDbEntity
  8
0
100
AcDbBlockEnd
  0
BLOCK
  5
5A4
330
130
100
AcDbEntity
  8
0
100
AcDbBlockBegin
  2
BLOCK104
 70
     0
 10
0.0
 20
0.0
 30
0.0
  3
BLOCK104
  1

  0
TEXT
  5
12E
330
130
100
AcDbEntity
  8
0
 62
     7
370
    13
100
AcDbText
 10
329.401794
 20
411.5
 30
0.0
 40
2.0
  1
6
 41
1.301148000000012
 72
     5
 11
331.136658
 21
411.5
 31
0.0
100
AcDbText
  0
ENDBLK
  5
5A5
330
130
100
AcDbEntity
  8
0
100
AcDbBlockEnd
  0
BLOCK
  5
5A6
330
135
100
AcDbEntity
  8
0
100
AcDbBlockBegin
  2
BLOCK105
 70
     0
 10
0.0
 20
0.0
 30
0.0
  3
BLOCK105
  1

  0
TEXT
  5
133
330
135
100
AcDbEntity
  8
0
 62
     7
370
    13
100
AcDbText
 10
385.801788
 20
411.5
 30
0.0
 40
2.0
  1
7
 41
1.301148000000012
 72
     5
 11
387.536652
 21
411.5
 31
0.0
100
AcDbText
  0
ENDBLK
  5
5A7
330
135
100
AcDbEntity
  8
0
100
AcDbBlockEnd
  0
BLOCK
  5
5A8
330
13A
100
AcDbEntity
  8
0
100
AcDbBlockBegin
  2
BLOCK114
 70
     0
 10
0.0
 20
0.0
 30
0.0
  3
BLOCK114
  1

  0
TEXT
  5
138
330
13A
100
AcDbEntity
  8
0
 62
     7
370
    13
100
AcDbText
 10
16.632565
 20
375.666656
 30
0.0
 40
2.0
  1
A
 41
1.301152500000001
 72
     5
 11
18.367435
 21
375.666656
 31
0.0
100
AcDbText
  0
ENDBLK
  5
5A9
330
13A
100
AcDbEntity
  8
0
100
AcDbBlockEnd
  0
BLOCK
  5
5AA
330
13F
100
AcDbEntity
  8
0
100
AcDbBlockBegin
  2
BLOCK115
 70
     0
 10
0.0
 20
0.0
 30
0.0
  3
BLOCK115
  1

  0
TEXT
  5
13D
330
13F
100
AcDbEntity
  8
0
 62
     7
370
    13
100
AcDbText
 10
16.632565
 20
309.0
 30
0.0
 40
2.0
  1
B
 41
1.301152500000001
 72
     5
 11
18.367435
 21
309.0
 31
0.0
100
AcDbText
  0
ENDBLK
  5
5AB
330
13F
100
AcDbEntity
  8
0
100
AcDbBlockEnd
  0
BLOCK
  5
5AC
330
144
100
AcDbEntity
  8
0
100
AcDbBlockBegin
  2
BLOCK116
 70
     0
 10
0.0
 20
0.0
 30
0.0
  3
BLOCK116
  1

  0
TEXT
  5
142
330
144
100
AcDbEntity
  8
0
 62
     7
370
    13
100
AcDbText
 10
16.632565
 20
242.333328
 30
0.0
 40
2.0
  1
C
 41
1.301152500000001
 72
     5
 11
18.367435
 21
242.333328
 31
0.0
100
AcDbText
  0
ENDBLK
  5
5AD
330
144
100
AcDbEntity
  8
0
100
AcDbBlockEnd
  0
BLOCK
  5
5AE
330
149
100
AcDbEntity
  8
0
100
AcDbBlockBegin
  2
BLOCK117
 70
     0
 10
0.0
 20
0.0
 30
0.0
  3
BLOCK117
  1

  0
TEXT
  5
147
330
149
100
AcDbEntity
  8
0
 62
     7
370
    13
100
AcDbText
 10
16.632565
 20
175.666672
 30
0.0
 40
2.0
  1
D
 41
1.301152500000001
 72
     5
 11
18.367435
 21
175.666672
 31
0.0
100
AcDbText
  0
ENDBLK
  5
5AF
330
149
100
AcDbEntity
  8
0
100
AcDbBlockEnd
  0
BLOCK
  5
5B0
330
156
100
AcDbEntity
  8
0
100
AcDbBlockBegin
  2
BLOCK132
 70
     0
 10
0.0
 20
0.0
 30
0.0
  3
BLOCK132
  1

  0
LINE
  5
14C
330
156
100
AcDbEntity
  8
0
 62
     7
 48
0.125
370
   100
100
AcDbLine
 10
76.489975
 20
-27.950659
 30
0.0
 11
76.489975
 21
-32.950661
 31
0.0
  0
LINE
  5
14D
330
156
100
AcDbEntity
  8
0
 62
     7
 48
0.125
370
   100
100
AcDbLine
 10
76.489975
 20
-276.134247
 30
0.0
 11
76.489975
 21
-271.134247
 31
0.0
  0
LINE
  5
14E
330
156
100
AcDbEntity
  8
0
  6
DASHDOT
 62
     7
370
    13
100
AcDbLine
 10
76.489975
 20
-32.950661
 30
0.0
 11
76.489975
 21
-271.134247
 31
0.0
  0
LINE
  5
14F
330
156
100
AcDbEntity
  8
0
 62
     7
 48
0.375
370
    13
100
AcDbLine
 10
76.489975
 20
-30.450659
 30
0.0
 11
61.489975
 21
-30.450659
 31
0.0
  0
SOLID
  5
150
330
156
100
AcDbEntity
  8
0
 62
     7
370
    13
100
AcDbTrace
 10
72.489975
 20
-31.522455
 30
0.0
 11
76.489975
 21
-30.450659
 31
0.0
 12
72.489975
 22
-29.378862
 32
0.0
 13
72.489975
 23
-29.378862
 33
0.0
  0
TEXT
  5
151
330
156
100
AcDbEntity
  8
0
 62
     7
370
    13
100
AcDbText
 10
66.490074
 20
-27.825659
 30
0.0
 40
3.5
  1
A
 41
1.301153999999997
 72
     5
 11
69.5261
 21
-27.825659
 31
0.0
100
AcDbText
  0
LINE
  5
152
330
156
100
AcDbEntity
  8
0
 62
     7
 48
0.375
370
    13
100
AcDbLine
 10
76.489975
 20
-273.634247
 30
0.0
 11
61.489975
 21
-273.634247
 31
0.0
  0
SOLID
  5
153
330
156
100
AcDbEntity
  8
0
 62
     7
370
    13
100
AcDbTrace
 10
72.489975
 20
-274.706055
 30
0.0
 11
76.489975
 21
-273.634247
 31
0.0
 12
72.489975
 22
-272.562439
 32
0.0
 13
72.489975
 23
-272.562439
 33
0.0
  0
TEXT
  5
154
330
156
100
AcDbEntity
  8
0
 62
     7
370
    13
100
AcDbText
 10
66.490074
 20
-271.009247
 30
0.0
 40
3.5
  1
A
 41
1.301153999999997
 72
     5
 11
69.5261
 21
-271.009247
 31
0.0
100
AcDbText
  0
ENDBLK
  5
5B1
330
156
100
AcDbEntity
  8
0
100
AcDbBlockEnd
  0
BLOCK
  5
5B2
330
163
100
AcDbEntity
  8
0
100
AcDbBlockBegin
  2
BLOCK133
 70
     0
 10
0.0
 20
0.0
 30
0.0
  3
BLOCK133
  1

  0
SOLID
  5
159
330
163
100
AcDbEntity
  8
0
 62
     7
370
    13
100
AcDbTrace
 10
-100.01815
 20
-20.53495
 30
0.0
 11
-101.949997
 21
-21.052588
 31
0.0
 12
-100.01815
 22
-20.53495
 32
0.0
 13
-100.01815
 23
-21.570225
 33
0.0
  0
SOLID
  5
15A
330
163
100
AcDbEntity
  8
0
 62
     7
370
    13
100
AcDbTrace
 10
100.118149
 20
-21.570225
 30
0.0
 11
102.050003
 21
-21.052588
 31
0.0
 12
100.118149
 22
-21.570225
 32
0.0
 13
100.118149
 23
-20.53495
 33
0.0
  0
TEXT
  5
15B
330
163
100
AcDbEntity
  8
0
 62
     7
370
    13
100
AcDbText
 10
-9.626686
 20
-19.052588
 30
0.0
 40
3.0
  1
204
 41
1.200922266666667
 72
     5
 11
-0.619769
 21
-19.052588
 31
0.0
100
AcDbText
  0
TEXT
  5
15C
330
163
100
AcDbEntity
  8
0
 62
     7
370
    13
100
AcDbText
 10
1.180231
 20
-18.602587
 30
0.0
 40
2.1
  1
%%p0.5
 41
1.436378991596639
 72
     5
 11
9.726686
 21
-18.602587
 31
0.0
100
AcDbText
  0
LINE
  5
15D
330
163
100
AcDbEntity
  8
0
 62
     7
370
    13
100
AcDbLine
 10
-101.949997
 20
-44.517826
 30
0.0
 11
-101.949997
 21
-19.052588
 31
0.0
  0
LINE
  5
15E
330
163
100
AcDbEntity
  8
0
 62
     7
370
    13
100
AcDbLine
 10
102.050003
 20
-44.517826
 30
0.0
 11
102.050003
 21
-19.052588
 31
0.0
  0
LINE
  5
15F
330
163
100
AcDbEntity
  8
0
 62
     7
370
    13
100
AcDbLine
 10
-100.01815
 20
-21.052588
 30
0.0
 11
100.118149
 21
-21.052588
 31
0.0
  0
LWPOLYLINE
  5
160
330
163
100
AcDbEntity
  8
0
 62
     7
370
    13
100
AcDbPolyline
 90
        3
 70
     1
 43
0.0
 10
-100.01815
 20
-20.53495
 10
-101.949997
 20
-21.052588
 10
-100.01815
 20
-21.570225
  0
LWPOLYLINE
  5
161
330
163
100
AcDbEntity
  8
0
 62
     7
370
    13
100
AcDbPolyline
 90
        3
 70
     1
 43
0.0
 10
100.118149
 20
-21.570225
 10
102.050003
 20
-21.052588
 10
100.118149
 20
-20.53495
  0
ENDBLK
  5
5B3
330
163
100
AcDbEntity
  8
0
100
AcDbBlockEnd
  0
BLOCK
  5
5B4
330
170
100
AcDbEntity
  8
0
100
AcDbBlockBegin
  2
BLOCK134
 70
     0
 10
0.0
 20
0.0
 30
0.0
  3
BLOCK134
  1

  0
SOLID
  5
166
330
170
100
AcDbEntity
  8
0
 62
     7
370
    13
100
AcDbTrace
 10
-113.22287
 20
-46.449677
 30
0.0
 11
-113.740509
 21
-44.517826
 31
0.0
 12
-113.22287
 22
-46.449677
 32
0.0
 13
-114.258148
 23
-46.449677
 33
0.0
  0
SOLID
  5
167
330
170
100
AcDbEntity
  8
0
 62
     7
370
    13
100
AcDbTrace
 10
-114.258148
 20
-249.586319
 30
0.0
 11
-113.740509
 21
-251.518173
 31
0.0
 12
-114.258148
 22
-249.586319
 32
0.0
 13
-113.22287
 23
-249.586319
 33
0.0
  0
TEXT
  5
168
330
170
100
AcDbEntity
  8
0
 62
     7
370
    13
100
AcDbText
 10
-115.740509
 20
-157.694687
 30
0.0
 40
3.0
  1
207
 50
90.0
 41
1.200923733333332
 72
     5
 11
-115.740509
 21
-148.687759
 31
0.0
100
AcDbText
  0
TEXT
  5
169
330
170
100
AcDbEntity
  8
0
 62
     7
370
    13
100
AcDbText
 10
-116.190506
 20
-146.887756
 30
0.0
 40
2.1
  1
%%p0.5
 50
90.0
 41
1.436377647058824
 72
     5
 11
-116.190506
 21
-138.341309
 31
0.0
100
AcDbText
  0
LINE
  5
16A
330
170
100
AcDbEntity
  8
0
 62
     7
 48
0.319763
370
    13
100
AcDbLine
 10
-102.949997
 20
-251.518173
 30
0.0
 11
-115.740509
 21
-251.518173
 31
0.0
  0
LINE
  5
16B
330
170
100
AcDbEntity
  8
0
 62
     7
 48
0.319763
370
    13
100
AcDbLine
 10
-102.949997
 20
-44.517826
 30
0.0
 11
-115.740509
 21
-44.517826
 31
0.0
  0
LINE
  5
16C
330
170
100
AcDbEntity
  8
0
 62
     7
370
    13
100
AcDbLine
 10
-113.740509
 20
-249.586319
 30
0.0
 11
-113.740509
 21
-46.449677
 31
0.0
  0
LWPOLYLINE
  5
16D
330
170
100
AcDbEntity
  8
0
 62
     7
370
    13
100
AcDbPolyline
 90
        3
 70
     1
 43
0.0
 10
-113.22287
 20
-46.449677
 10
-113.740509
 20
-44.517826
 10
-114.258148
 20
-46.449677
  0
LWPOLYLINE
  5
16E
330
170
100
AcDbEntity
  8
0
 62
     7
370
    13
100
AcDbPolyline
 90
        3
 70
     1
 43
0.0
 10
-114.258148
 20
-249.586319
 10
-113.740509
 20
-251.518173
 10
-113.22287
 20
-249.586319
  0
ENDBLK
  5
5B5
330
170
100
AcDbEntity
  8
0
100
AcDbBlockEnd
  0
BLOCK
  5
5B6
330
17A
100
AcDbEntity
  8
0
100
AcDbBlockBegin
  2
BLOCK135
 70
     0
 10
0.0
 20
0.0
 30
0.0
  3
BLOCK135
  1

  0
SOLID
  5
173
330
17A
100
AcDbEntity
  8
0
 62
     7
370
    13
100
AcDbTrace
 10
-57.518147
 20
-144.349884
 30
0.0
 11
-59.450001
 21
-144.867523
 31
0.0
 12
-57.518147
 22
-144.349884
 32
0.0
 13
-57.518147
 23
-145.385162
 33
0.0
  0
SOLID
  5
174
330
17A
100
AcDbEntity
  8
0
 62
     7
370
    13
100
AcDbTrace
 10
-22.381851
 20
-145.385162
 30
0.0
 11
-20.449999
 21
-144.867523
 31
0.0
 12
-22.381851
 22
-145.385162
 32
0.0
 13
-22.381851
 23
-144.349884
 33
0.0
  0
TEXT
  5
175
330
17A
100
AcDbEntity
  8
0
 62
     7
370
    13
100
AcDbText
 10
-42.852306
 20
-142.867523
 30
0.0
 40
3.0
  1
39
 41
1.1609222
 72
     5
 11
-37.047695
 21
-142.867523
 31
0.0
100
AcDbText
  0
LINE
  5
176
330
17A
100
AcDbEntity
  8
0
 62
     7
370
    13
100
AcDbLine
 10
-57.518147
 20
-144.867523
 30
0.0
 11
-22.381851
 21
-144.867523
 31
0.0
  0
LWPOLYLINE
  5
177
330
17A
100
AcDbEntity
  8
0
 62
     7
370
    13
100
AcDbPolyline
 90
        3
 70
     1
 43
0.0
 10
-57.518147
 20
-144.349884
 10
-59.450001
 20
-144.867523
 10
-57.518147
 20
-145.385162
  0
LWPOLYLINE
  5
178
330
17A
100
AcDbEntity
  8
0
 62
     7
370
    13
100
AcDbPolyline
 90
        3
 70
     1
 43
0.0
 10
-22.381851
 20
-145.385162
 10
-20.449999
 20
-144.867523
 10
-22.381851
 20
-144.349884
  0
ENDBLK
  5
5B7
330
17A
100
AcDbEntity
  8
0
100
AcDbBlockEnd
  0
BLOCK
  5
5B8
330
184
100
AcDbEntity
  8
0
100
AcDbBlockBegin
  2
BLOCK136
 70
     0
 10
0.0
 20
0.0
 30
0.0
  3
BLOCK136
  1

  0
SOLID
  5
17D
330
184
100
AcDbEntity
  8
0
 62
     7
370
    13
100
AcDbTrace
 10
-17.518148
 20
-185.944794
 30
0.0
 11
-19.449999
 21
-186.462433
 31
0.0
 12
-17.518148
 22
-185.944794
 32
0.0
 13
-17.518148
 23
-186.980072
 33
0.0
  0
SOLID
  5
17E
330
184
100
AcDbEntity
  8
0
 62
     7
370
    13
100
AcDbTrace
 10
17.618149
 20
-186.980072
 30
0.0
 11
19.550001
 21
-186.462433
 31
0.0
 12
17.618149
 22
-186.980072
 32
0.0
 13
17.618149
 23
-185.944794
 33
0.0
  0
TEXT
  5
17F
330
184
100
AcDbEntity
  8
0
 62
     7
370
    13
100
AcDbText
 10
-2.852305
 20
-184.462433
 30
0.0
 40
3.0
  1
39
 41
1.1609222
 72
     5
 11
2.952306
 21
-184.462433
 31
0.0
100
AcDbText
  0
LINE
  5
180
330
184
100
AcDbEntity
  8
0
 62
     7
370
    13
100
AcDbLine
 10
-17.518148
 20
-186.462433
 30
0.0
 11
17.618149
 21
-186.462433
 31
0.0
  0
LWPOLYLINE
  5
181
330
184
100
AcDbEntity
  8
0
 62
     7
370
    13
100
AcDbPolyline
 90
        3
 70
     1
 43
0.0
 10
-17.518148
 20
-185.944794
 10
-19.449999
 20
-186.462433
 10
-17.518148
 20
-186.980072
  0
LWPOLYLINE
  5
182
330
184
100
AcDbEntity
  8
0
 62
     7
370
    13
100
AcDbPolyline
 90
        3
 70
     1
 43
0.0
 10
17.618149
 20
-186.980072
 10
19.550001
 20
-186.462433
 10
17.618149
 20
-185.944794
  0
ENDBLK
  5
5B9
330
184
100
AcDbEntity
  8
0
100
AcDbBlockEnd
  0
BLOCK
  5
5BA
330
18E
100
AcDbEntity
  8
0
100
AcDbBlockBegin
  2
BLOCK137
 70
     0
 10
0.0
 20
0.0
 30
0.0
  3
BLOCK137
  1

  0
SOLID
  5
187
330
18E
100
AcDbEntity
  8
0
 62
     7
370
    13
100
AcDbTrace
 10
22.481852
 20
-142.396606
 30
0.0
 11
20.550001
 21
-142.914246
 31
0.0
 12
22.481852
 22
-142.396606
 32
0.0
 13
22.481852
 23
-143.431885
 33
0.0
  0
SOLID
  5
188
330
18E
100
AcDbEntity
  8
0
 62
     7
370
    13
100
AcDbTrace
 10
57.618149
 20
-143.431885
 30
0.0
 11
59.549999
 21
-142.914246
 31
0.0
 12
57.618149
 22
-143.431885
 32
0.0
 13
57.618149
 23
-142.396606
 33
0.0
  0
TEXT
  5
189
330
18E
100
AcDbEntity
  8
0
 62
     7
370
    13
100
AcDbText
 10
37.147694
 20
-140.914246
 30
0.0
 40
3.0
  1
39
 41
1.1609222
 72
     5
 11
42.952305
 21
-140.914246
 31
0.0
100
AcDbText
  0
LINE
  5
18A
330
18E
100
AcDbEntity
  8
0
 62
     7
370
    13
100
AcDbLine
 10
22.481852
 20
-142.914246
 30
0.0
 11
57.618149
 21
-142.914246
 31
0.0
  0
LWPOLYLINE
  5
18B
330
18E
100
AcDbEntity
  8
0
 62
     7
370
    13
100
AcDbPolyline
 90
        3
 70
     1
 43
0.0
 10
22.481852
 20
-142.396606
 10
20.550001
 20
-142.914246
 10
22.481852
 20
-143.431885
  0
LWPOLYLINE
  5
18C
330
18E
100
AcDbEntity
  8
0
 62
     7
370
    13
100
AcDbPolyline
 90
        3
 70
     1
 43
0.0
 10
57.618149
 20
-143.431885
 10
59.549999
 20
-142.914246
 10
57.618149
 20
-142.396606
  0
ENDBLK
  5
5BB
330
18E
100
AcDbEntity
  8
0
100
AcDbBlockEnd
  0
BLOCK
  5
5BC
330
198
100
AcDbEntity
  8
0
100
AcDbBlockBegin
  2
BLOCK138
 70
     0
 10
0.0
 20
0.0
 30
0.0
  3
BLOCK138
  1

  0
SOLID
  5
191
330
198
100
AcDbEntity
  8
0
 62
     7
370
    13
100
AcDbTrace
 10
62.481853
 20
-186.246582
 30
0.0
 11
60.549999
 21
-186.764221
 31
0.0
 12
62.481853
 22
-186.246582
 32
0.0
 13
62.481853
 23
-187.28186
 33
0.0
  0
SOLID
  5
192
330
198
100
AcDbEntity
  8
0
 62
     7
370
    13
100
AcDbTrace
 10
97.618149
 20
-187.28186
 30
0.0
 11
99.550003
 21
-186.764221
 31
0.0
 12
97.618149
 22
-187.28186
 32
0.0
 13
97.618149
 23
-186.246582
 33
0.0
  0
TEXT
  5
193
330
198
100
AcDbEntity
  8
0
 62
     7
370
    13
100
AcDbText
 10
77.147697
 20
-184.764221
 30
0.0
 40
3.0
  1
39
 41
1.160922400000001
 72
     5
 11
82.952309
 21
-184.764221
 31
0.0
100
AcDbText
  0
LINE
  5
194
330
198
100
AcDbEntity
  8
0
 62
     7
370
    13
100
AcDbLine
 10
62.481853
 20
-186.764221
 30
0.0
 11
97.618149
 21
-186.764221
 31
0.0
  0
LWPOLYLINE
  5
195
330
198
100
AcDbEntity
  8
0
 62
     7
370
    13
100
AcDbPolyline
 90
        3
 70
     1
 43
0.0
 10
62.481853
 20
-186.246582
 10
60.549999
 20
-186.764221
 10
62.481853
 20
-187.28186
  0
LWPOLYLINE
  5
196
330
198
100
AcDbEntity
  8
0
 62
     7
370
    13
100
AcDbPolyline
 90
        3
 70
     1
 43
0.0
 10
97.618149
 20
-187.28186
 10
99.550003
 20
-186.764221
 10
97.618149
 20
-186.246582
  0
ENDBLK
  5
5BD
330
198
100
AcDbEntity
  8
0
100
AcDbBlockEnd
  0
BLOCK
  5
5BE
330
1A2
100
AcDbEntity
  8
0
100
AcDbBlockBegin
  2
BLOCK139
 70
     0
 10
0.0
 20
0.0
 30
0.0
  3
BLOCK139
  1

  0
SOLID
  5
19B
330
1A2
100
AcDbEntity
  8
0
 62
     7
370
    13
100
AcDbTrace
 10
-62.381851
 20
-186.404037
 30
0.0
 11
-60.450001
 21
-185.886398
 31
0.0
 12
-62.381851
 22
-186.404037
 32
0.0
 13
-62.381851
 23
-185.368759
 33
0.0
  0
SOLID
  5
19C
330
1A2
100
AcDbEntity
  8
0
 62
     7
370
    13
100
AcDbTrace
 10
-97.51815
 20
-185.368759
 30
0.0
 11
-99.449997
 21
-185.886398
 31
0.0
 12
-97.51815
 22
-185.368759
 32
0.0
 13
-97.51815
 23
-186.404037
 33
0.0
  0
TEXT
  5
19D
330
1A2
100
AcDbEntity
  8
0
 62
     7
370
    13
100
AcDbText
 10
-82.852303
 20
-183.886398
 30
0.0
 40
3.0
  1
39
 41
1.160922400000001
 72
     5
 11
-77.047691
 21
-183.886398
 31
0.0
100
AcDbText
  0
LINE
  5
19E
330
1A2
100
AcDbEntity
  8
0
 62
     7
370
    13
100
AcDbLine
 10
-97.51815
 20
-185.886398
 30
0.0
 11
-62.381851
 21
-185.886398
 31
0.0
  0
LWPOLYLINE
  5
19F
330
1A2
100
AcDbEntity
  8
0
 62
     7
370
    13
100
AcDbPolyline
 90
        3
 70
     1
 43
0.0
 10
-62.381851
 20
-186.404037
 10
-60.450001
 20
-185.886398
 10
-62.381851
 20
-185.368759
  0
LWPOLYLINE
  5
1A0
330
1A2
100
AcDbEntity
  8
0
 62
     7
370
    13
100
AcDbPolyline
 90
        3
 70
     1
 43
0.0
 10
-97.51815
 20
-185.368759
 10
-99.449997
 20
-185.886398
 10
-97.51815
 20
-186.404037
  0
ENDBLK
  5
5BF
330
1A2
100
AcDbEntity
  8
0
100
AcDbBlockEnd
  0
BLOCK
  5
5C0
330
1AE
100
AcDbEntity
  8
0
100
AcDbBlockBegin
  2
BLOCK140
 70
     0
 10
0.0
 20
0.0
 30
0.0
  3
BLOCK140
  1

  0
SOLID
  5
1A5
330
1AE
100
AcDbEntity
  8
0
 62
     7
370
    13
100
AcDbTrace
 10
-22.381851
 20
-206.694
 30
0.0
 11
-20.449999
 21
-206.176361
 31
0.0
 12
-22.381851
 22
-206.694
 32
0.0
 13
-22.381851
 23
-205.658722
 33
0.0
  0
SOLID
  5
1A6
330
1AE
100
AcDbEntity
  8
0
 62
     7
370
    13
100
AcDbTrace
 10
-17.518148
 20
-205.658722
 30
0.0
 11
-19.449999
 21
-206.176361
 31
0.0
 12
-17.518148
 22
-205.658722
 32
0.0
 13
-17.518148
 23
-206.694
 33
0.0
  0
TEXT
  5
1A7
330
1AE
100
AcDbEntity
  8
0
 62
     7
370
    13
100
AcDbText
 10
-33.826759
 20
-204.176361
 30
0.0
 40
3.0
  1
1
 41
2.602304000000004
 72
     5
 11
-31.224455
 21
-204.176361
 31
0.0
100
AcDbText
  0
LINE
  5
1A8
330
1AE
100
AcDbEntity
  8
0
 62
     7
 48
0.286123
370
    13
100
AcDbLine
 10
-33.826759
 20
-206.176361
 30
0.0
 11
-22.381851
 21
-206.176361
 31
0.0
  0
LINE
  5
1A9
330
1AE
100
AcDbEntity
  8
0
 62
     7
 48
0.025
370
    13
100
AcDbLine
 10
-20.449999
 20
-206.176361
 30
0.0
 11
-19.449999
 21
-206.176361
 31
0.0
  0
LINE
  5
1AA
330
1AE
100
AcDbEntity
  8
0
 62
     7
 48
0.076704
370
    13
100
AcDbLine
 10
-17.518148
 20
-206.176361
 30
0.0
 11
-14.45
 21
-206.176361
 31
0.0
  0
LWPOLYLINE
  5
1AB
330
1AE
100
AcDbEntity
  8
0
 62
     7
370
    13
100
AcDbPolyline
 90
        3
 70
     1
 43
0.0
 10
-22.381851
 20
-206.694
 10
-20.449999
 20
-206.176361
 10
-22.381851
 20
-205.658722
  0
LWPOLYLINE
  5
1AC
330
1AE
100
AcDbEntity
  8
0
 62
     7
370
    13
100
AcDbPolyline
 90
        3
 70
     1
 43
0.0
 10
-17.518148
 20
-205.658722
 10
-19.449999
 20
-206.176361
 10
-17.518148
 20
-206.694
  0
ENDBLK
  5
5C1
330
1AE
100
AcDbEntity
  8
0
100
AcDbBlockEnd
  0
BLOCK
  5
5C2
330
1BC
100
AcDbEntity
  8
0
100
AcDbBlockBegin
  2
BLOCK141
 70
     0
 10
0.0
 20
0.0
 30
0.0
  3
BLOCK141
  1

  0
SOLID
  5
1B1
330
1BC
100
AcDbEntity
  8
0
 62
     7
370
    13
100
AcDbTrace
 10
-3.075929
 20
-247.486145
 30
0.0
 11
-2.558291
 21
-249.417999
 31
0.0
 12
-3.075929
 22
-247.486145
 32
0.0
 13
-2.040653
 23
-247.486145
 33
0.0
  0
SOLID
  5
1B2
330
1BC
100
AcDbEntity
  8
0
 62
     7
370
    13
100
AcDbTrace
 10
-2.040653
 20
-252.349854
 30
0.0
 11
-2.558291
 21
-250.417999
 31
0.0
 12
-2.040653
 22
-252.349854
 32
0.0
 13
-3.075929
 23
-252.349854
 33
0.0
  0
TEXT
  5
1B3
330
1BC
100
AcDbEntity
  8
0
 62
     7
370
    13
100
AcDbText
 10
-4.558291
 20
-237.552536
 30
0.0
 40
3.0
  1
1
 50
90.0
 41
2.602294999999998
 72
     5
 11
-4.558291
 21
-234.950241
 31
0.0
100
AcDbText
  0
LINE
  5
1B4
330
1BC
100
AcDbEntity
  8
0
 62
     7
 48
0.097293
370
    13
100
AcDbLine
 10
-4.449999
 20
-250.417999
 30
0.0
 11
-0.558291
 21
-250.417999
 31
0.0
  0
LINE
  5
1B5
330
1BC
100
AcDbEntity
  8
0
 62
     7
 48
0.097293
370
    13
100
AcDbLine
 10
-4.449999
 20
-249.417999
 30
0.0
 11
-0.558291
 21
-249.417999
 31
0.0
  0
LINE
  5
1B6
330
1BC
100
AcDbEntity
  8
0
 62
     7
 48
0.076704
370
    13
100
AcDbLine
 10
-2.558291
 20
-255.417999
 30
0.0
 11
-2.558291
 21
-252.349854
 31
0.0
  0
LINE
  5
1B7
330
1BC
100
AcDbEntity
  8
0
 62
     7
 48
0.025
370
    13
100
AcDbLine
 10
-2.558291
 20
-250.417999
 30
0.0
 11
-2.558291
 21
-249.417999
 31
0.0
  0
LINE
  5
1B8
330
1BC
100
AcDbEntity
  8
0
 62
     7
 48
0.313398
370
    13
100
AcDbLine
 10
-2.558291
 20
-247.486145
 30
0.0
 11
-2.558291
 21
-234.950241
 31
0.0
  0
LWPOLYLINE
  5
1B9
330
1BC
100
AcDbEntity
  8
0
 62
     7
370
    13
100
AcDbPolyline
 90
        3
 70
     1
 43
0.0
 10
-3.075929
 20
-247.486145
 10
-2.558291
 20
-249.417999
 10
-2.040653
 20
-247.486145
  0
LWPOLYLINE
  5
1BA
330
1BC
100
AcDbEntity
  8
0
 62
     7
370
    13
100
AcDbPolyline
 90
        3
 70
     1
 43
0.0
 10
-2.040653
 20
-252.349854
 10
-2.558291
 20
-250.417999
 10
-3.075929
 20
-252.349854
  0
ENDBLK
  5
5C3
330
1BC
100
AcDbEntity
  8
0
100
AcDbBlockEnd
  0
BLOCK
  5
5C4
330
1C8
100
AcDbEntity
  8
0
100
AcDbBlockBegin
  2
BLOCK142
 70
     0
 10
0.0
 20
0.0
 30
0.0
  3
BLOCK142
  1

  0
SOLID
  5
1BF
330
1C8
100
AcDbEntity
  8
0
 62
     7
370
    13
100
AcDbTrace
 10
-76.658585
 20
-243.586319
 30
0.0
 11
-76.140945
 21
-245.518173
 31
0.0
 12
-76.658585
 22
-243.586319
 32
0.0
 13
-75.623306
 23
-243.586319
 33
0.0
  0
SOLID
  5
1C0
330
1C8
100
AcDbEntity
  8
0
 62
     7
370
    13
100
AcDbTrace
 10
-75.623306
 20
-253.450012
 30
0.0
 11
-76.140945
 21
-251.518173
 31
0.0
 12
-75.623306
 22
-253.450012
 32
0.0
 13
-76.658585
 23
-253.450012
 33
0.0
  0
TEXT
  5
1C1
330
1C8
100
AcDbEntity
  8
0
 62
     7
370
    13
100
AcDbText
 10
-78.140945
 20
-264.447815
 30
0.0
 40
3.0
  1
6
 50
90.0
 41
1.301147499999985
 72
     5
 11
-78.140945
 21
-261.84552
 31
0.0
100
AcDbText
  0
LINE
  5
1C2
330
1C8
100
AcDbEntity
  8
0
 62
     7
 48
0.274945
370
    13
100
AcDbLine
 10
-76.140945
 20
-264.447815
 30
0.0
 11
-76.140945
 21
-253.450012
 31
0.0
  0
LINE
  5
1C3
330
1C8
100
AcDbEntity
  8
0
 62
     7
 48
0.15
370
    13
100
AcDbLine
 10
-76.140945
 20
-251.518173
 30
0.0
 11
-76.140945
 21
-245.518173
 31
0.0
  0
LINE
  5
1C4
330
1C8
100
AcDbEntity
  8
0
 62
     7
 48
0.076704
370
    13
100
AcDbLine
 10
-76.140945
 20
-243.586319
 30
0.0
 11
-76.140945
 21
-240.518173
 31
0.0
  0
LWPOLYLINE
  5
1C5
330
1C8
100
AcDbEntity
  8
0
 62
     7
370
    13
100
AcDbPolyline
 90
        3
 70
     1
 43
0.0
 10
-76.658585
 20
-243.586319
 10
-76.140945
 20
-245.518173
 10
-75.623306
 20
-243.586319
  0
LWPOLYLINE
  5
1C6
330
1C8
100
AcDbEntity
  8
0
 62
     7
370
    13
100
AcDbPolyline
 90
        3
 70
     1
 43
0.0
 10
-75.623306
 20
-253.450012
 10
-76.140945
 20
-251.518173
 10
-76.658585
 20
-253.450012
  0
ENDBLK
  5
5C5
330
1C8
100
AcDbEntity
  8
0
100
AcDbBlockEnd
  0
BLOCK
  5
5C6
330
1D4
100
AcDbEntity
  8
0
100
AcDbBlockBegin
  2
BLOCK143
 70
     0
 10
0.0
 20
0.0
 30
0.0
  3
BLOCK143
  1

  0
SOLID
  5
1CB
330
1D4
100
AcDbEntity
  8
0
 62
     7
370
    13
100
AcDbTrace
 10
-7.381851
 20
-277.632416
 30
0.0
 11
-5.449999
 21
-277.114777
 31
0.0
 12
-7.381851
 22
-277.632416
 32
0.0
 13
-7.381851
 23
-276.597137
 33
0.0
  0
SOLID
  5
1CC
330
1D4
100
AcDbEntity
  8
0
 62
     7
370
    13
100
AcDbTrace
 10
-17.518148
 20
-276.597137
 30
0.0
 11
-19.449999
 21
-277.114777
 31
0.0
 12
-17.518148
 22
-276.597137
 32
0.0
 13
-17.518148
 23
-277.632416
 33
0.0
  0
TEXT
  5
1CD
330
1D4
100
AcDbEntity
  8
0
 62
     7
370
    13
100
AcDbText
 10
-15.352305
 20
-275.114777
 30
0.0
 40
3.0
  1
14
 41
1.45115275
 72
     5
 11
-9.547694
 21
-275.114777
 31
0.0
100
AcDbText
  0
LINE
  5
1CE
330
1D4
100
AcDbEntity
  8
0
 62
     7
370
    13
100
AcDbLine
 10
-19.449999
 20
-245.586044
 30
0.0
 11
-19.449999
 21
-279.114777
 31
0.0
  0
LINE
  5
1CF
330
1D4
100
AcDbEntity
  8
0
 62
     7
370
    13
100
AcDbLine
 10
-5.449999
 20
-251.417999
 30
0.0
 11
-5.449999
 21
-279.114777
 31
0.0
  0
LINE
  5
1D0
330
1D4
100
AcDbEntity
  8
0
 62
     7
 48
0.253407
370
    13
100
AcDbLine
 10
-17.518148
 20
-277.114777
 30
0.0
 11
-7.381851
 21
-277.114777
 31
0.0
  0
LWPOLYLINE
  5
1D1
330
1D4
100
AcDbEntity
  8
0
 62
     7
370
    13
100
AcDbPolyline
 90
        3
 70
     1
 43
0.0
 10
-7.381851
 20
-277.632416
 10
-5.449999
 20
-277.114777
 10
-7.381851
 20
-276.597137
  0
LWPOLYLINE
  5
1D2
330
1D4
100
AcDbEntity
  8
0
 62
     7
370
    13
100
AcDbPolyline
 90
        3
 70
     1
 43
0.0
 10
-17.518148
 20
-276.597137
 10
-19.449999
 20
-277.114777
 10
-17.518148
 20
-277.632416
  0
ENDBLK
  5
5C7
330
1D4
100
AcDbEntity
  8
0
100
AcDbBlockEnd
  0
BLOCK
  5
5C8
330
1E0
100
AcDbEntity
  8
0
100
AcDbBlockBegin
  2
BLOCK144
 70
     0
 10
0.0
 20
0.0
 30
0.0
  3
BLOCK144
  1

  0
SOLID
  5
1D7
330
1E0
100
AcDbEntity
  8
0
 62
     7
370
    13
100
AcDbTrace
 10
17.618149
 20
-276.611084
 30
0.0
 11
19.550001
 21
-276.093445
 31
0.0
 12
17.618149
 22
-276.611084
 32
0.0
 13
17.618149
 23
-275.575806
 33
0.0
  0
SOLID
  5
1D8
330
1E0
100
AcDbEntity
  8
0
 62
     7
370
    13
100
AcDbTrace
 10
7.481852
 20
-275.575806
 30
0.0
 11
5.550001
 21
-276.093445
 31
0.0
 12
7.481852
 22
-275.575806
 32
0.0
 13
7.481852
 23
-276.611084
 33
0.0
  0
TEXT
  5
1D9
330
1E0
100
AcDbEntity
  8
0
 62
     7
370
    13
100
AcDbText
 10
9.647695
 20
-274.093445
 30
0.0
 40
3.0
  1
14
 41
1.45115275
 72
     5
 11
15.452306
 21
-274.093445
 31
0.0
100
AcDbText
  0
LINE
  5
1DA
330
1E0
100
AcDbEntity
  8
0
 62
     7
370
    13
100
AcDbLine
 10
5.550001
 20
-251.417999
 30
0.0
 11
5.550001
 21
-278.093445
 31
0.0
  0
LINE
  5
1DB
330
1E0
100
AcDbEntity
  8
0
 62
     7
370
    13
100
AcDbLine
 10
19.550001
 20
-245.586044
 30
0.0
 11
19.550001
 21
-278.093445
 31
0.0
  0
LINE
  5
1DC
330
1E0
100
AcDbEntity
  8
0
 62
     7
 48
0.253407
370
    13
100
AcDbLine
 10
7.481852
 20
-276.093445
 30
0.0
 11
17.618149
 21
-276.093445
 31
0.0
  0
LWPOLYLINE
  5
1DD
330
1E0
100
AcDbEntity
  8
0
 62
     7
370
    13
100
AcDbPolyline
 90
        3
 70
     1
 43
0.0
 10
17.618149
 20
-276.611084
 10
19.550001
 20
-276.093445
 10
17.618149
 20
-275.575806
  0
LWPOLYLINE
  5
1DE
330
1E0
100
AcDbEntity
  8
0
 62
     7
370
    13
100
AcDbPolyline
 90
        3
 70
     1
 43
0.0
 10
7.481852
 20
-275.575806
 10
5.550001
 20
-276.093445
 10
7.481852
 20
-276.611084
  0
ENDBLK
  5
5C9
330
1E0
100
AcDbEntity
  8
0
100
AcDbBlockEnd
  0
BLOCK
  5
5CA
330
1EE
100
AcDbEntity
  8
0
100
AcDbBlockBegin
  2
BLOCK145
 70
     0
 10
0.0
 20
0.0
 30
0.0
  3
BLOCK145
  1

  0
SOLID
  5
1E3
330
1EE
100
AcDbEntity
  8
0
 62
     7
370
    13
100
AcDbTrace
 10
111.865005
 20
-248.586319
 30
0.0
 11
112.382645
 21
-250.518173
 31
0.0
 12
111.865005
 22
-248.586319
 32
0.0
 13
112.900284
 23
-248.586319
 33
0.0
  0
SOLID
  5
1E4
330
1EE
100
AcDbEntity
  8
0
 62
     7
370
    13
100
AcDbTrace
 10
112.900284
 20
-253.450012
 30
0.0
 11
112.382645
 21
-251.518173
 31
0.0
 12
112.900284
 22
-253.450012
 32
0.0
 13
111.865005
 23
-253.450012
 33
0.0
  0
TEXT
  5
1E5
330
1EE
100
AcDbEntity
  8
0
 62
     7
370
    13
100
AcDbText
 10
110.382645
 20
-263.89212
 30
0.0
 40
3.0
  1
1
 50
90.0
 41
2.60229499999997
 72
     5
 11
110.382645
 21
-261.289825
 31
0.0
100
AcDbText
  0
LINE
  5
1E6
330
1EE
100
AcDbEntity
  8
0
 62
     7
 48
0.283316
370
    13
100
AcDbLine
 10
103.050003
 20
-251.518173
 30
0.0
 11
114.382645
 21
-251.518173
 31
0.0
  0
LINE
  5
1E7
330
1EE
100
AcDbEntity
  8
0
 62
     7
 48
0.283316
370
    13
100
AcDbLine
 10
103.050003
 20
-250.518173
 30
0.0
 11
114.382645
 21
-250.518173
 31
0.0
  0
LINE
  5
1E8
330
1EE
100
AcDbEntity
  8
0
 62
     7
 48
0.261053
370
    13
100
AcDbLine
 10
112.382645
 20
-263.89212
 30
0.0
 11
112.382645
 21
-253.450012
 31
0.0
  0
LINE
  5
1E9
330
1EE
100
AcDbEntity
  8
0
 62
     7
 48
0.025
370
    13
100
AcDbLine
 10
112.382645
 20
-251.518173
 30
0.0
 11
112.382645
 21
-250.518173
 31
0.0
  0
LINE
  5
1EA
330
1EE
100
AcDbEntity
  8
0
 62
     7
 48
0.076704
370
    13
100
AcDbLine
 10
112.382645
 20
-248.586319
 30
0.0
 11
112.382645
 21
-245.518173
 31
0.0
  0
LWPOLYLINE
  5
1EB
330
1EE
100
AcDbEntity
  8
0
 62
     7
370
    13
100
AcDbPolyline
 90
        3
 70
     1
 43
0.0
 10
111.865005
 20
-248.586319
 10
112.382645
 20
-250.518173
 10
112.900284
 20
-248.586319
  0
LWPOLYLINE
  5
1EC
330
1EE
100
AcDbEntity
  8
0
 62
     7
370
    13
100
AcDbPolyline
 90
        3
 70
     1
 43
0.0
 10
112.900284
 20
-253.450012
 10
112.382645
 20
-251.518173
 10
111.865005
 20
-253.450012
  0
ENDBLK
  5
5CB
330
1EE
100
AcDbEntity
  8
0
100
AcDbBlockEnd
  0
BLOCK
  5
5CC
330
1FB
100
AcDbEntity
  8
0
100
AcDbBlockBegin
  2
BLOCK146
 70
     0
 10
0.0
 20
0.0
 30
0.0
  3
BLOCK146
  1

  0
SOLID
  5
1F1
330
1FB
100
AcDbEntity
  8
0
 62
     7
370
    13
100
AcDbTrace
 10
103.98185
 20
-59.57795
 30
0.0
 11
102.050003
 21
-60.095589
 31
0.0
 12
103.98185
 22
-59.57795
 32
0.0
 13
103.98185
 23
-60.613228
 33
0.0
  0
SOLID
  5
1F2
330
1FB
100
AcDbEntity
  8
0
 62
     7
370
    13
100
AcDbTrace
 10
98.618149
 20
-60.613228
 30
0.0
 11
100.550003
 21
-60.095589
 31
0.0
 12
98.618149
 22
-60.613228
 32
0.0
 13
98.618149
 23
-59.57795
 33
0.0
  0
TEXT
  5
1F3
330
1FB
100
AcDbEntity
  8
0
 62
     7
370
    13
100
AcDbText
 10
108.142403
 20
-58.095589
 30
0.0
 40
3.0
  1
1.5
 41
1.8013824
 72
     5
 11
117.149315
 21
-58.095589
 31
0.0
100
AcDbText
  0
LINE
  5
1F4
330
1FB
100
AcDbEntity
  8
0
 62
     7
 48
0.264444
370
    13
100
AcDbLine
 10
102.050003
 20
-51.517826
 30
0.0
 11
102.050003
 21
-62.095589
 31
0.0
  0
LINE
  5
1F5
330
1FB
100
AcDbEntity
  8
0
 62
     7
 48
0.076704
370
    13
100
AcDbLine
 10
95.550003
 20
-60.095589
 30
0.0
 11
98.618149
 21
-60.095589
 31
0.0
  0
LINE
  5
1F6
330
1FB
100
AcDbEntity
  8
0
 62
     7
 48
0.0375
370
    13
100
AcDbLine
 10
100.550003
 20
-60.095589
 30
0.0
 11
102.050003
 21
-60.095589
 31
0.0
  0
LINE
  5
1F7
330
1FB
100
AcDbEntity
  8
0
 62
     7
 48
0.329187
370
    13
100
AcDbLine
 10
103.98185
 20
-60.095589
 30
0.0
 11
117.149315
 21
-60.095589
 31
0.0
  0
LWPOLYLINE
  5
1F8
330
1FB
100
AcDbEntity
  8
0
 62
     7
370
    13
100
AcDbPolyline
 90
        3
 70
     1
 43
0.0
 10
103.98185
 20
-59.57795
 10
102.050003
 20
-60.095589
 10
103.98185
 20
-60.613228
  0
LWPOLYLINE
  5
1F9
330
1FB
100
AcDbEntity
  8
0
 62
     7
370
    13
100
AcDbPolyline
 90
        3
 70
     1
 43
0.0
 10
98.618149
 20
-60.613228
 10
100.550003
 20
-60.095589
 10
98.618149
 20
-59.57795
  0
ENDBLK
  5
5CD
330
1FB
100
AcDbEntity
  8
0
100
AcDbBlockEnd
  0
BLOCK
  5
5CE
330
208
100
AcDbEntity
  8
0
100
AcDbBlockBegin
  2
BLOCK147
 70
     0
 10
0.0
 20
0.0
 30
0.0
  3
BLOCK147
  1

  0
SOLID
  5
1FE
330
208
100
AcDbEntity
  8
0
 62
     7
370
    13
100
AcDbTrace
 10
-103.881851
 20
-72.891487
 30
0.0
 11
-101.949997
 21
-72.373848
 31
0.0
 12
-103.881851
 22
-72.891487
 32
0.0
 13
-103.881851
 23
-71.856209
 33
0.0
  0
SOLID
  5
1FF
330
208
100
AcDbEntity
  8
0
 62
     7
370
    13
100
AcDbTrace
 10
-98.51815
 20
-71.856209
 30
0.0
 11
-100.449997
 21
-72.373848
 31
0.0
 12
-98.51815
 22
-71.856209
 32
0.0
 13
-98.51815
 23
-72.891487
 33
0.0
  0
TEXT
  5
200
330
208
100
AcDbEntity
  8
0
 62
     7
370
    13
100
AcDbText
 10
-112.04631
 20
-70.373848
 30
0.0
 40
3.0
  1
1.5
 41
1.8013824
 72
     5
 11
-103.039398
 21
-70.373848
 31
0.0
100
AcDbText
  0
LINE
  5
201
330
208
100
AcDbEntity
  8
0
 62
     7
370
    13
100
AcDbLine
 10
-101.949997
 20
-51.517826
 30
0.0
 11
-101.949997
 21
-74.373848
 31
0.0
  0
LINE
  5
202
330
208
100
AcDbEntity
  8
0
 62
     7
 48
0.204111
370
    13
100
AcDbLine
 10
-112.04631
 20
-72.373848
 30
0.0
 11
-103.881851
 21
-72.373848
 31
0.0
  0
LINE
  5
203
330
208
100
AcDbEntity
  8
0
 62
     7
 48
0.0375
370
    13
100
AcDbLine
 10
-101.949997
 20
-72.373848
 30
0.0
 11
-100.449997
 21
-72.373848
 31
0.0
  0
LINE
  5
204
330
208
100
AcDbEntity
  8
0
 62
     7
 48
0.076704
370
    13
100
AcDbLine
 10
-98.51815
 20
-72.373848
 30
0.0
 11
-95.449997
 21
-72.373848
 31
0.0
  0
LWPOLYLINE
  5
205
330
208
100
AcDbEntity
  8
0
 62
     7
370
    13
100
AcDbPolyline
 90
        3
 70
     1
 43
0.0
 10
-103.881851
 20
-72.891487
 10
-101.949997
 20
-72.373848
 10
-103.881851
 20
-71.856209
  0
LWPOLYLINE
  5
206
330
208
100
AcDbEntity
  8
0
 62
     7
370
    13
100
AcDbPolyline
 90
        3
 70
     1
 43
0.0
 10
-98.51815
 20
-71.856209
 10
-100.449997
 20
-72.373848
 10
-98.51815
 20
-72.891487
  0
ENDBLK
  5
5CF
330
208
100
AcDbEntity
  8
0
100
AcDbBlockEnd
  0
BLOCK
  5
5D0
330
29E
100
AcDbEntity
  8
0
100
AcDbBlockBegin
  2
BLOCK148
 70
     0
 10
0.0
 20
0.0
 30
0.0
  3
BLOCK148
  1

  0
LINE
  5
20B
330
29E
100
AcDbEntity
  8
0
 62
     7
 48
0.110799
370
    35
100
AcDbLine
 10
-19.449999
 20
-244.586044
 30
0.0
 11
-19.449999
 21
-249.01799
 31
0.0
  0
LINE
  5
20C
330
29E
100
AcDbEntity
  8
0
 62
     7
370
    35
100
AcDbLine
 10
-19.449999
 20
-51.449947
 30
0.0
 11
-19.449999
 21
-244.586044
 31
0.0
  0
LINE
  5
20D
330
29E
100
AcDbEntity
  8
0
 62
     7
 48
0.110799
370
    35
100
AcDbLine
 10
-19.449999
 20
-47.017998
 30
0.0
 11
-19.449999
 21
-51.449947
 31
0.0
  0
LINE
  5
20E
330
29E
100
AcDbEntity
  8
0
 62
     7
 48
0.110799
370
    35
100
AcDbLine
 10
-20.449999
 20
-244.586044
 30
0.0
 11
-20.449999
 21
-249.01799
 31
0.0
  0
LINE
  5
20F
330
29E
100
AcDbEntity
  8
0
 62
     7
370
    35
100
AcDbLine
 10
-20.449999
 20
-51.449947
 30
0.0
 11
-20.449999
 21
-244.586044
 31
0.0
  0
LINE
  5
210
330
29E
100
AcDbEntity
  8
0
 62
     7
 48
0.110799
370
    35
100
AcDbLine
 10
-20.449999
 20
-47.017998
 30
0.0
 11
-20.449999
 21
-51.449947
 31
0.0
  0
LINE
  5
211
330
29E
100
AcDbEntity
  8
0
 62
     7
 48
0.125
370
    35
100
AcDbLine
 10
-101.949997
 20
-245.518173
 30
0.0
 11
-101.949997
 21
-250.518173
 31
0.0
  0
LINE
  5
212
330
29E
100
AcDbEntity
  8
0
 62
     7
 48
0.025
370
    35
100
AcDbLine
 10
-101.949997
 20
-250.518173
 30
0.0
 11
-101.949997
 21
-251.518173
 31
0.0
  0
LINE
  5
213
330
29E
100
AcDbEntity
  8
0
 62
     7
 48
0.025
370
    35
100
AcDbLine
 10
-19.449999
 20
-47.017998
 30
0.0
 11
-20.449999
 21
-47.017998
 31
0.0
  0
ARC
  5
214
330
29E
100
AcDbEntity
  8
0
 62
     7
370
    35
100
AcDbCircle
 10
-19.049999
 20
-47.017998
 30
0.0
 40
0.4
100
AcDbArc
 50
90.000003
 51
180.000005
  0
ARC
  5
215
330
29E
100
AcDbEntity
  8
0
 62
     7
370
    35
100
AcDbCircle
 10
-19.049999
 20
-249.01799
 30
0.0
 40
0.4
100
AcDbArc
 50
180.000005
 51
269.999997
  0
LINE
  5
216
330
29E
100
AcDbEntity
  8
0
 62
     7
 48
0.025
370
    35
100
AcDbLine
 10
-19.449999
 20
-249.01799
 30
0.0
 11
-20.449999
 21
-249.01799
 31
0.0
  0
LINE
  5
217
330
29E
100
AcDbEntity
  8
0
 62
     7
 48
0.025
370
    13
100
AcDbLine
 10
-19.449999
 20
-244.586044
 30
0.0
 11
-20.449999
 21
-244.586044
 31
0.0
  0
LINE
  5
218
330
29E
100
AcDbEntity
  8
0
 62
     7
 48
0.025
370
    13
100
AcDbLine
 10
-19.449999
 20
-51.449947
 30
0.0
 11
-20.449999
 21
-51.449947
 31
0.0
  0
LINE
  5
219
330
29E
100
AcDbEntity
  8
0
 62
     7
 48
0.025
370
    35
100
AcDbLine
 10
-101.949997
 20
-45.517826
 30
0.0
 11
-101.949997
 21
-44.517826
 31
0.0
  0
LINE
  5
21A
330
29E
100
AcDbEntity
  8
0
 62
     7
 48
0.125
370
    35
100
AcDbLine
 10
-101.949997
 20
-50.517826
 30
0.0
 11
-101.949997
 21
-45.517826
 31
0.0
  0
ARC
  5
21B
330
29E
100
AcDbEntity
  8
0
 62
     7
370
    35
100
AcDbCircle
 10
-19.049999
 20
-47.017998
 30
0.0
 40
1.4
100
AcDbArc
 50
90.000003
 51
180.000005
  0
ARC
  5
21C
330
29E
100
AcDbEntity
  8
0
 62
     7
370
    35
100
AcDbCircle
 10
-19.049999
 20
-249.01799
 30
0.0
 40
1.4
100
AcDbArc
 50
180.000005
 51
269.999997
  0
LINE
  5
21D
330
29E
100
AcDbEntity
  8
0
 62
     7
 48
0.110799
370
    35
100
AcDbLine
 10
-59.450001
 20
-244.586044
 30
0.0
 11
-59.450001
 21
-249.01799
 31
0.0
  0
LINE
  5
21E
330
29E
100
AcDbEntity
  8
0
 62
     7
370
    35
100
AcDbLine
 10
-59.450001
 20
-51.449947
 30
0.0
 11
-59.450001
 21
-244.586044
 31
0.0
  0
LINE
  5
21F
330
29E
100
AcDbEntity
  8
0
 62
     7
 48
0.110799
370
    35
100
AcDbLine
 10
-59.450001
 20
-47.017998
 30
0.0
 11
-59.450001
 21
-51.449947
 31
0.0
  0
ARC
  5
220
330
29E
100
AcDbEntity
  8
0
 62
     7
370
    35
100
AcDbCircle
 10
-59.049999
 20
-249.01799
 30
0.0
 40
0.4
100
AcDbArc
 50
180.000005
 51
269.999997
  0
LINE
  5
221
330
29E
100
AcDbEntity
  8
0
 62
     7
 48
0.34
370
    35
100
AcDbLine
 10
-59.049999
 20
-249.417999
 30
0.0
 11
-45.450001
 21
-249.417999
 31
0.0
  0
LINE
  5
222
330
29E
100
AcDbEntity
  8
0
 62
     7
 48
0.025
370
    35
100
AcDbLine
 10
-45.450001
 20
-250.417999
 30
0.0
 11
-45.450001
 21
-249.417999
 31
0.0
  0
LINE
  5
223
330
29E
100
AcDbEntity
  8
0
 62
     7
 48
0.34
370
    35
100
AcDbLine
 10
-45.450001
 20
-250.417999
 30
0.0
 11
-59.049999
 21
-250.417999
 31
0.0
  0
ARC
  5
224
330
29E
100
AcDbEntity
  8
0
 62
     7
370
    35
100
AcDbCircle
 10
-59.049999
 20
-249.01799
 30
0.0
 40
1.4
100
AcDbArc
 50
180.000005
 51
269.999997
  0
LINE
  5
225
330
29E
100
AcDbEntity
  8
0
 62
     7
 48
0.110799
370
    35
100
AcDbLine
 10
-60.450001
 20
-244.586044
 30
0.0
 11
-60.450001
 21
-249.01799
 31
0.0
  0
LINE
  5
226
330
29E
100
AcDbEntity
  8
0
 62
     7
370
    35
100
AcDbLine
 10
-60.450001
 20
-51.449947
 30
0.0
 11
-60.450001
 21
-244.586044
 31
0.0
  0
LINE
  5
227
330
29E
100
AcDbEntity
  8
0
 62
     7
 48
0.110799
370
    35
100
AcDbLine
 10
-60.450001
 20
-47.017998
 30
0.0
 11
-60.450001
 21
-51.449947
 31
0.0
  0
LINE
  5
228
330
29E
100
AcDbEntity
  8
0
 62
     7
 48
0.110799
370
    35
100
AcDbLine
 10
-99.449997
 20
-244.586044
 30
0.0
 11
-99.449997
 21
-249.01799
 31
0.0
  0
LINE
  5
229
330
29E
100
AcDbEntity
  8
0
 62
     7
370
    35
100
AcDbLine
 10
-99.449997
 20
-51.449947
 30
0.0
 11
-99.449997
 21
-244.586044
 31
0.0
  0
LINE
  5
22A
330
29E
100
AcDbEntity
  8
0
 62
     7
 48
0.110799
370
    35
100
AcDbLine
 10
-99.449997
 20
-47.017998
 30
0.0
 11
-99.449997
 21
-51.449947
 31
0.0
  0
ARC
  5
22B
330
29E
100
AcDbEntity
  8
0
 62
     7
370
    35
100
AcDbCircle
 10
-99.050003
 20
-249.01799
 30
0.0
 40
0.4
100
AcDbArc
 50
180.000005
 51
269.999997
  0
LINE
  5
22C
330
29E
100
AcDbEntity
  8
0
 62
     7
 48
0.34
370
    35
100
AcDbLine
 10
-99.050003
 20
-249.417999
 30
0.0
 11
-85.449997
 21
-249.417999
 31
0.0
  0
LINE
  5
22D
330
29E
100
AcDbEntity
  8
0
 62
     7
 48
0.025
370
    35
100
AcDbLine
 10
-85.449997
 20
-250.417999
 30
0.0
 11
-85.449997
 21
-249.417999
 31
0.0
  0
LINE
  5
22E
330
29E
100
AcDbEntity
  8
0
 62
     7
 48
0.34
370
    35
100
AcDbLine
 10
-85.449997
 20
-250.417999
 30
0.0
 11
-99.050003
 21
-250.417999
 31
0.0
  0
ARC
  5
22F
330
29E
100
AcDbEntity
  8
0
 62
     7
370
    35
100
AcDbCircle
 10
-99.050003
 20
-249.01799
 30
0.0
 40
1.4
100
AcDbArc
 50
180.000005
 51
269.999997
  0
LINE
  5
230
330
29E
100
AcDbEntity
  8
0
 62
     7
 48
0.110799
370
    35
100
AcDbLine
 10
-100.449997
 20
-244.586044
 30
0.0
 11
-100.449997
 21
-249.01799
 31
0.0
  0
LINE
  5
231
330
29E
100
AcDbEntity
  8
0
 62
     7
370
    35
100
AcDbLine
 10
-100.449997
 20
-51.449947
 30
0.0
 11
-100.449997
 21
-244.586044
 31
0.0
  0
LINE
  5
232
330
29E
100
AcDbEntity
  8
0
 62
     7
 48
0.110799
370
    35
100
AcDbLine
 10
-100.449997
 20
-47.017998
 30
0.0
 11
-100.449997
 21
-51.449947
 31
0.0
  0
LINE
  5
233
330
29E
100
AcDbEntity
  8
0
 62
     7
 48
0.34
370
    35
100
AcDbLine
 10
-19.049999
 20
-249.417999
 30
0.0
 11
-5.449999
 21
-249.417999
 31
0.0
  0
LINE
  5
234
330
29E
100
AcDbEntity
  8
0
 62
     7
 48
0.025
370
    35
100
AcDbLine
 10
-5.449999
 20
-250.417999
 30
0.0
 11
-5.449999
 21
-249.417999
 31
0.0
  0
LINE
  5
235
330
29E
100
AcDbEntity
  8
0
 62
     7
 48
0.34
370
    35
100
AcDbLine
 10
-5.449999
 20
-250.417999
 30
0.0
 11
-19.049999
 21
-250.417999
 31
0.0
  0
LINE
  5
236
330
29E
100
AcDbEntity
  8
0
 62
     7
 48
0.34
370
    35
100
AcDbLine
 10
-19.049999
 20
-46.617996
 30
0.0
 11
-5.449999
 21
-46.617996
 31
0.0
  0
LINE
  5
237
330
29E
100
AcDbEntity
  8
0
 62
     7
 48
0.025
370
    35
100
AcDbLine
 10
-5.449999
 20
-45.617996
 30
0.0
 11
-5.449999
 21
-46.617996
 31
0.0
  0
LINE
  5
238
330
29E
100
AcDbEntity
  8
0
 62
     7
 48
0.34
370
    35
100
AcDbLine
 10
-5.449999
 20
-45.617996
 30
0.0
 11
-19.049999
 21
-45.617996
 31
0.0
  0
ARC
  5
239
330
29E
100
AcDbEntity
  8
0
 62
     7
370
    35
100
AcDbCircle
 10
-99.050003
 20
-47.017998
 30
0.0
 40
1.4
100
AcDbArc
 50
90.000003
 51
180.000005
  0
LINE
  5
23A
330
29E
100
AcDbEntity
  8
0
 62
     7
 48
0.34
370
    35
100
AcDbLine
 10
-85.449997
 20
-45.617996
 30
0.0
 11
-99.050003
 21
-45.617996
 31
0.0
  0
LINE
  5
23B
330
29E
100
AcDbEntity
  8
0
 62
     7
 48
0.025
370
    35
100
AcDbLine
 10
-85.449997
 20
-45.617996
 30
0.0
 11
-85.449997
 21
-46.617996
 31
0.0
  0
LINE
  5
23C
330
29E
100
AcDbEntity
  8
0
 62
     7
 48
0.34
370
    35
100
AcDbLine
 10
-99.050003
 20
-46.617996
 30
0.0
 11
-85.449997
 21
-46.617996
 31
0.0
  0
ARC
  5
23D
330
29E
100
AcDbEntity
  8
0
 62
     7
370
    35
100
AcDbCircle
 10
-99.050003
 20
-47.017998
 30
0.0
 40
0.4
100
AcDbArc
 50
90.000003
 51
180.000005
  0
ARC
  5
23E
330
29E
100
AcDbEntity
  8
0
 62
     7
370
    35
100
AcDbCircle
 10
-59.049999
 20
-47.017998
 30
0.0
 40
1.4
100
AcDbArc
 50
90.000003
 51
180.000005
  0
LINE
  5
23F
330
29E
100
AcDbEntity
  8
0
 62
     7
 48
0.34
370
    35
100
AcDbLine
 10
-45.450001
 20
-45.617996
 30
0.0
 11
-59.049999
 21
-45.617996
 31
0.0
  0
LINE
  5
240
330
29E
100
AcDbEntity
  8
0
 62
     7
 48
0.025
370
    35
100
AcDbLine
 10
-45.450001
 20
-45.617996
 30
0.0
 11
-45.450001
 21
-46.617996
 31
0.0
  0
LINE
  5
241
330
29E
100
AcDbEntity
  8
0
 62
     7
 48
0.34
370
    35
100
AcDbLine
 10
-59.049999
 20
-46.617996
 30
0.0
 11
-45.450001
 21
-46.617996
 31
0.0
  0
ARC
  5
242
330
29E
100
AcDbEntity
  8
0
 62
     7
370
    35
100
AcDbCircle
 10
-59.049999
 20
-47.017998
 30
0.0
 40
0.4
100
AcDbArc
 50
90.000003
 51
180.000005
  0
LINE
  5
243
330
29E
100
AcDbEntity
  8
0
 62
     7
 48
0.025
370
    35
100
AcDbLine
 10
-59.450001
 20
-47.017998
 30
0.0
 11
-60.450001
 21
-47.017998
 31
0.0
  0
LINE
  5
244
330
29E
100
AcDbEntity
  8
0
 62
     7
 48
0.025
370
    35
100
AcDbLine
 10
-59.450001
 20
-249.01799
 30
0.0
 11
-60.450001
 21
-249.01799
 31
0.0
  0
LINE
  5
245
330
29E
100
AcDbEntity
  8
0
 62
     7
 48
0.025
370
    13
100
AcDbLine
 10
-59.450001
 20
-244.586044
 30
0.0
 11
-60.450001
 21
-244.586044
 31
0.0
  0
LINE
  5
246
330
29E
100
AcDbEntity
  8
0
 62
     7
 48
0.025
370
    13
100
AcDbLine
 10
-59.450001
 20
-51.449947
 30
0.0
 11
-60.450001
 21
-51.449947
 31
0.0
  0
LINE
  5
247
330
29E
100
AcDbEntity
  8
0
 62
     7
 48
0.025
370
    35
100
AcDbLine
 10
-99.449997
 20
-47.017998
 30
0.0
 11
-100.449997
 21
-47.017998
 31
0.0
  0
LINE
  5
248
330
29E
100
AcDbEntity
  8
0
 62
     7
 48
0.025
370
    35
100
AcDbLine
 10
-99.449997
 20
-249.01799
 30
0.0
 11
-100.449997
 21
-249.01799
 31
0.0
  0
LINE
  5
249
330
29E
100
AcDbEntity
  8
0
 62
     7
 48
0.025
370
    13
100
AcDbLine
 10
-99.449997
 20
-244.586044
 30
0.0
 11
-100.449997
 21
-244.586044
 31
0.0
  0
LINE
  5
24A
330
29E
100
AcDbEntity
  8
0
 62
     7
 48
0.025
370
    13
100
AcDbLine
 10
-99.449997
 20
-51.449947
 30
0.0
 11
-100.449997
 21
-51.449947
 31
0.0
  0
LINE
  5
24B
330
29E
100
AcDbEntity
  8
0
 62
     7
 48
0.110799
370
    35
100
AcDbLine
 10
20.550001
 20
-47.017998
 30
0.0
 11
20.550001
 21
-51.449947
 31
0.0
  0
LINE
  5
24C
330
29E
100
AcDbEntity
  8
0
 62
     7
370
    35
100
AcDbLine
 10
20.550001
 20
-51.449947
 30
0.0
 11
20.550001
 21
-244.586044
 31
0.0
  0
LINE
  5
24D
330
29E
100
AcDbEntity
  8
0
 62
     7
 48
0.110799
370
    35
100
AcDbLine
 10
20.550001
 20
-244.586044
 30
0.0
 11
20.550001
 21
-249.01799
 31
0.0
  0
LINE
  5
24E
330
29E
100
AcDbEntity
  8
0
 62
     7
 48
0.110799
370
    35
100
AcDbLine
 10
19.550001
 20
-47.017998
 30
0.0
 11
19.550001
 21
-51.449947
 31
0.0
  0
LINE
  5
24F
330
29E
100
AcDbEntity
  8
0
 62
     7
370
    35
100
AcDbLine
 10
19.550001
 20
-51.449947
 30
0.0
 11
19.550001
 21
-244.586044
 31
0.0
  0
LINE
  5
250
330
29E
100
AcDbEntity
  8
0
 62
     7
 48
0.110799
370
    35
100
AcDbLine
 10
19.550001
 20
-244.586044
 30
0.0
 11
19.550001
 21
-249.01799
 31
0.0
  0
LINE
  5
251
330
29E
100
AcDbEntity
  8
0
 62
     7
 48
0.025
370
    35
100
AcDbLine
 10
20.550001
 20
-47.017998
 30
0.0
 11
19.550001
 21
-47.017998
 31
0.0
  0
ARC
  5
252
330
29E
100
AcDbEntity
  8
0
 62
     7
370
    35
100
AcDbCircle
 10
19.15
 20
-47.017998
 30
0.0
 40
1.4
100
AcDbArc
 50
0.0
 51
90.000003
  0
ARC
  5
253
330
29E
100
AcDbEntity
  8
0
 62
     7
370
    35
100
AcDbCircle
 10
19.15
 20
-249.01799
 30
0.0
 40
1.4
100
AcDbArc
 50
269.999997
 51
0.0
  0
LINE
  5
254
330
29E
100
AcDbEntity
  8
0
 62
     7
 48
0.025
370
    35
100
AcDbLine
 10
20.550001
 20
-249.01799
 30
0.0
 11
19.550001
 21
-249.01799
 31
0.0
  0
LINE
  5
255
330
29E
100
AcDbEntity
  8
0
 62
     7
 48
0.025
370
    13
100
AcDbLine
 10
20.550001
 20
-244.586044
 30
0.0
 11
19.550001
 21
-244.586044
 31
0.0
  0
LINE
  5
256
330
29E
100
AcDbEntity
  8
0
 62
     7
 48
0.025
370
    13
100
AcDbLine
 10
20.550001
 20
-51.449947
 30
0.0
 11
19.550001
 21
-51.449947
 31
0.0
  0
LINE
  5
257
330
29E
100
AcDbEntity
  8
0
 62
     7
 48
0.125
370
    35
100
AcDbLine
 10
102.050003
 20
-50.517826
 30
0.0
 11
102.050003
 21
-45.517826
 31
0.0
  0
LINE
  5
258
330
29E
100
AcDbEntity
  8
0
 62
     7
 48
0.025
370
    35
100
AcDbLine
 10
102.050003
 20
-45.517826
 30
0.0
 11
102.050003
 21
-44.517826
 31
0.0
  0
ARC
  5
259
330
29E
100
AcDbEntity
  8
0
 62
     7
370
    35
100
AcDbCircle
 10
19.15
 20
-47.017998
 30
0.0
 40
0.4
100
AcDbArc
 50
0.0
 51
90.000003
  0
ARC
  5
25A
330
29E
100
AcDbEntity
  8
0
 62
     7
370
    35
100
AcDbCircle
 10
19.15
 20
-249.01799
 30
0.0
 40
0.4
100
AcDbArc
 50
269.999997
 51
0.0
  0
LINE
  5
25B
330
29E
100
AcDbEntity
  8
0
 62
     7
 48
0.025
370
    35
100
AcDbLine
 10
102.050003
 20
-250.518173
 30
0.0
 11
102.050003
 21
-251.518173
 31
0.0
  0
LINE
  5
25C
330
29E
100
AcDbEntity
  8
0
 62
     7
 48
0.125
370
    35
100
AcDbLine
 10
102.050003
 20
-245.518173
 30
0.0
 11
102.050003
 21
-250.518173
 31
0.0
  0
LINE
  5
25D
330
29E
100
AcDbEntity
  8
0
 62
     7
 48
0.34
370
    35
100
AcDbLine
 10
19.15
 20
-45.617996
 30
0.0
 11
5.550001
 21
-45.617996
 31
0.0
  0
LINE
  5
25E
330
29E
100
AcDbEntity
  8
0
 62
     7
 48
0.025
370
    35
100
AcDbLine
 10
5.550001
 20
-45.617996
 30
0.0
 11
5.550001
 21
-46.617996
 31
0.0
  0
LINE
  5
25F
330
29E
100
AcDbEntity
  8
0
 62
     7
 48
0.34
370
    35
100
AcDbLine
 10
5.550001
 20
-46.617996
 30
0.0
 11
19.15
 21
-46.617996
 31
0.0
  0
ARC
  5
260
330
29E
100
AcDbEntity
  8
0
 62
     7
370
    35
100
AcDbCircle
 10
99.150002
 20
-47.017998
 30
0.0
 40
1.4
100
AcDbArc
 50
0.0
 51
90.000003
  0
LINE
  5
261
330
29E
100
AcDbEntity
  8
0
 62
     7
 48
0.34
370
    35
100
AcDbLine
 10
99.150002
 20
-45.617996
 30
0.0
 11
85.550003
 21
-45.617996
 31
0.0
  0
LINE
  5
262
330
29E
100
AcDbEntity
  8
0
 62
     7
 48
0.025
370
    35
100
AcDbLine
 10
85.550003
 20
-45.617996
 30
0.0
 11
85.550003
 21
-46.617996
 31
0.0
  0
LINE
  5
263
330
29E
100
AcDbEntity
  8
0
 62
     7
 48
0.34
370
    35
100
AcDbLine
 10
85.550003
 20
-46.617996
 30
0.0
 11
99.150002
 21
-46.617996
 31
0.0
  0
ARC
  5
264
330
29E
100
AcDbEntity
  8
0
 62
     7
370
    35
100
AcDbCircle
 10
99.150002
 20
-47.017998
 30
0.0
 40
0.4
100
AcDbArc
 50
0.0
 51
90.000003
  0
LINE
  5
265
330
29E
100
AcDbEntity
  8
0
 62
     7
 48
0.110799
370
    35
100
AcDbLine
 10
99.550003
 20
-47.017998
 30
0.0
 11
99.550003
 21
-51.449947
 31
0.0
  0
LINE
  5
266
330
29E
100
AcDbEntity
  8
0
 62
     7
370
    35
100
AcDbLine
 10
99.550003
 20
-51.449947
 30
0.0
 11
99.550003
 21
-244.586044
 31
0.0
  0
LINE
  5
267
330
29E
100
AcDbEntity
  8
0
 62
     7
 48
0.110799
370
    35
100
AcDbLine
 10
99.550003
 20
-244.586044
 30
0.0
 11
99.550003
 21
-249.01799
 31
0.0
  0
LINE
  5
268
330
29E
100
AcDbEntity
  8
0
 62
     7
 48
0.110799
370
    35
100
AcDbLine
 10
60.549999
 20
-47.017998
 30
0.0
 11
60.549999
 21
-51.449947
 31
0.0
  0
LINE
  5
269
330
29E
100
AcDbEntity
  8
0
 62
     7
370
    35
100
AcDbLine
 10
60.549999
 20
-51.449947
 30
0.0
 11
60.549999
 21
-244.586044
 31
0.0
  0
LINE
  5
26A
330
29E
100
AcDbEntity
  8
0
 62
     7
 48
0.110799
370
    35
100
AcDbLine
 10
60.549999
 20
-244.586044
 30
0.0
 11
60.549999
 21
-249.01799
 31
0.0
  0
ARC
  5
26B
330
29E
100
AcDbEntity
  8
0
 62
     7
370
    35
100
AcDbCircle
 10
59.150002
 20
-47.017998
 30
0.0
 40
1.4
100
AcDbArc
 50
0.0
 51
90.000003
  0
LINE
  5
26C
330
29E
100
AcDbEntity
  8
0
 62
     7
 48
0.34
370
    35
100
AcDbLine
 10
59.150002
 20
-45.617996
 30
0.0
 11
45.549999
 21
-45.617996
 31
0.0
  0
LINE
  5
26D
330
29E
100
AcDbEntity
  8
0
 62
     7
 48
0.025
370
    35
100
AcDbLine
 10
45.549999
 20
-45.617996
 30
0.0
 11
45.549999
 21
-46.617996
 31
0.0
  0
LINE
  5
26E
330
29E
100
AcDbEntity
  8
0
 62
     7
 48
0.34
370
    35
100
AcDbLine
 10
45.549999
 20
-46.617996
 30
0.0
 11
59.150002
 21
-46.617996
 31
0.0
  0
ARC
  5
26F
330
29E
100
AcDbEntity
  8
0
 62
     7
370
    35
100
AcDbCircle
 10
59.150002
 20
-47.017998
 30
0.0
 40
0.4
100
AcDbArc
 50
0.0
 51
90.000003
  0
LINE
  5
270
330
29E
100
AcDbEntity
  8
0
 62
     7
 48
0.110799
370
    35
100
AcDbLine
 10
59.549999
 20
-47.017998
 30
0.0
 11
59.549999
 21
-51.449947
 31
0.0
  0
LINE
  5
271
330
29E
100
AcDbEntity
  8
0
 62
     7
370
    35
100
AcDbLine
 10
59.549999
 20
-51.449947
 30
0.0
 11
59.549999
 21
-244.586044
 31
0.0
  0
LINE
  5
272
330
29E
100
AcDbEntity
  8
0
 62
     7
 48
0.110799
370
    35
100
AcDbLine
 10
59.549999
 20
-244.586044
 30
0.0
 11
59.549999
 21
-249.01799
 31
0.0
  0
LINE
  5
273
330
29E
100
AcDbEntity
  8
0
 62
     7
 48
0.110799
370
    35
100
AcDbLine
 10
100.550003
 20
-47.017998
 30
0.0
 11
100.550003
 21
-51.449947
 31
0.0
  0
LINE
  5
274
330
29E
100
AcDbEntity
  8
0
 62
     7
370
    35
100
AcDbLine
 10
100.550003
 20
-51.449947
 30
0.0
 11
100.550003
 21
-244.586044
 31
0.0
  0
LINE
  5
275
330
29E
100
AcDbEntity
  8
0
 62
     7
 48
0.110799
370
    35
100
AcDbLine
 10
100.550003
 20
-244.586044
 30
0.0
 11
100.550003
 21
-249.01799
 31
0.0
  0
ARC
  5
276
330
29E
100
AcDbEntity
  8
0
 62
     7
370
    35
100
AcDbCircle
 10
59.150002
 20
-249.01799
 30
0.0
 40
0.4
100
AcDbArc
 50
269.999997
 51
0.0
  0
LINE
  5
277
330
29E
100
AcDbEntity
  8
0
 62
     7
 48
0.34
370
    35
100
AcDbLine
 10
45.549999
 20
-249.417999
 30
0.0
 11
59.150002
 21
-249.417999
 31
0.0
  0
LINE
  5
278
330
29E
100
AcDbEntity
  8
0
 62
     7
 48
0.025
370
    35
100
AcDbLine
 10
45.549999
 20
-250.417999
 30
0.0
 11
45.549999
 21
-249.417999
 31
0.0
  0
LINE
  5
279
330
29E
100
AcDbEntity
  8
0
 62
     7
 48
0.34
370
    35
100
AcDbLine
 10
59.150002
 20
-250.417999
 30
0.0
 11
45.549999
 21
-250.417999
 31
0.0
  0
ARC
  5
27A
330
29E
100
AcDbEntity
  8
0
 62
     7
370
    35
100
AcDbCircle
 10
59.150002
 20
-249.01799
 30
0.0
 40
1.4
100
AcDbArc
 50
269.999997
 51
0.0
  0
ARC
  5
27B
330
29E
100
AcDbEntity
  8
0
 62
     7
370
    35
100
AcDbCircle
 10
99.150002
 20
-249.01799
 30
0.0
 40
0.4
100
AcDbArc
 50
269.999997
 51
0.0
  0
LINE
  5
27C
330
29E
100
AcDbEntity
  8
0
 62
     7
 48
0.34
370
    35
100
AcDbLine
 10
85.550003
 20
-249.417999
 30
0.0
 11
99.150002
 21
-249.417999
 31
0.0
  0
LINE
  5
27D
330
29E
100
AcDbEntity
  8
0
 62
     7
 48
0.025
370
    35
100
AcDbLine
 10
85.550003
 20
-250.417999
 30
0.0
 11
85.550003
 21
-249.417999
 31
0.0
  0
LINE
  5
27E
330
29E
100
AcDbEntity
  8
0
 62
     7
 48
0.34
370
    35
100
AcDbLine
 10
99.150002
 20
-250.417999
 30
0.0
 11
85.550003
 21
-250.417999
 31
0.0
  0
ARC
  5
27F
330
29E
100
AcDbEntity
  8
0
 62
     7
370
    35
100
AcDbCircle
 10
99.150002
 20
-249.01799
 30
0.0
 40
1.4
100
AcDbArc
 50
269.999997
 51
0.0
  0
LINE
  5
280
330
29E
100
AcDbEntity
  8
0
 62
     7
 48
0.34
370
    35
100
AcDbLine
 10
5.550001
 20
-249.417999
 30
0.0
 11
19.15
 21
-249.417999
 31
0.0
  0
LINE
  5
281
330
29E
100
AcDbEntity
  8
0
 62
     7
 48
0.025
370
    35
100
AcDbLine
 10
5.550001
 20
-250.417999
 30
0.0
 11
5.550001
 21
-249.417999
 31
0.0
  0
LINE
  5
282
330
29E
100
AcDbEntity
  8
0
 62
     7
 48
0.34
370
    35
100
AcDbLine
 10
19.15
 20
-250.417999
 30
0.0
 11
5.550001
 21
-250.417999
 31
0.0
  0
LINE
  5
283
330
29E
100
AcDbEntity
  8
0
 62
     7
 48
0.025
370
    35
100
AcDbLine
 10
100.550003
 20
-47.017998
 30
0.0
 11
99.550003
 21
-47.017998
 31
0.0
  0
LINE
  5
284
330
29E
100
AcDbEntity
  8
0
 62
     7
 48
0.025
370
    35
100
AcDbLine
 10
100.550003
 20
-249.01799
 30
0.0
 11
99.550003
 21
-249.01799
 31
0.0
  0
LINE
  5
285
330
29E
100
AcDbEntity
  8
0
 62
     7
 48
0.025
370
    13
100
AcDbLine
 10
100.550003
 20
-244.586044
 30
0.0
 11
99.550003
 21
-244.586044
 31
0.0
  0
LINE
  5
286
330
29E
100
AcDbEntity
  8
0
 62
     7
 48
0.025
370
    13
100
AcDbLine
 10
100.550003
 20
-51.449947
 30
0.0
 11
99.550003
 21
-51.449947
 31
0.0
  0
LINE
  5
287
330
29E
100
AcDbEntity
  8
0
 62
     7
 48
0.025
370
    35
100
AcDbLine
 10
60.549999
 20
-47.017998
 30
0.0
 11
59.549999
 21
-47.017998
 31
0.0
  0
LINE
  5
288
330
29E
100
AcDbEntity
  8
0
 62
     7
 48
0.025
370
    35
100
AcDbLine
 10
60.549999
 20
-249.01799
 30
0.0
 11
59.549999
 21
-249.01799
 31
0.0
  0
LINE
  5
289
330
29E
100
AcDbEntity
  8
0
 62
     7
 48
0.025
370
    13
100
AcDbLine
 10
60.549999
 20
-244.586044
 30
0.0
 11
59.549999
 21
-244.586044
 31
0.0
  0
LINE
  5
28A
330
29E
100
AcDbEntity
  8
0
 62
     7
 48
0.025
370
    13
100
AcDbLine
 10
60.549999
 20
-51.449947
 30
0.0
 11
59.549999
 21
-51.449947
 31
0.0
  0
LINE
  5
28B
330
29E
100
AcDbEntity
  8
0
 62
     7
 48
0.0375
370
    35
100
AcDbLine
 10
-100.449997
 20
-245.518173
 30
0.0
 11
-101.949997
 21
-245.518173
 31
0.0
  0
LINE
  5
28C
330
29E
100
AcDbEntity
  8
0
 62
     7
370
    35
100
AcDbLine
 10
-60.450001
 20
-245.518173
 30
0.0
 11
-99.449997
 21
-245.518173
 31
0.0
  0
LINE
  5
28D
330
29E
100
AcDbEntity
  8
0
 62
     7
370
    35
100
AcDbLine
 10
-20.449999
 20
-245.518173
 30
0.0
 11
-59.450001
 21
-245.518173
 31
0.0
  0
LINE
  5
28E
330
29E
100
AcDbEntity
  8
0
 62
     7
370
    35
100
AcDbLine
 10
19.550001
 20
-245.518173
 30
0.0
 11
-19.449999
 21
-245.518173
 31
0.0
  0
LINE
  5
28F
330
29E
100
AcDbEntity
  8
0
 62
     7
370
    35
100
AcDbLine
 10
59.549999
 20
-245.518173
 30
0.0
 11
20.550001
 21
-245.518173
 31
0.0
  0
LINE
  5
290
330
29E
100
AcDbEntity
  8
0
 62
     7
370
    35
100
AcDbLine
 10
99.550003
 20
-245.518173
 30
0.0
 11
60.549999
 21
-245.518173
 31
0.0
  0
LINE
  5
291
330
29E
100
AcDbEntity
  8
0
 62
     7
 48
0.0375
370
    35
100
AcDbLine
 10
102.050003
 20
-245.518173
 30
0.0
 11
100.550003
 21
-245.518173
 31
0.0
  0
LINE
  5
292
330
29E
100
AcDbEntity
  8
0
 62
     7
370
    35
100
AcDbLine
 10
102.050003
 20
-45.517826
 30
0.0
 11
-101.949997
 21
-45.517826
 31
0.0
  0
LINE
  5
293
330
29E
100
AcDbEntity
  8
0
 62
     7
370
    35
100
AcDbLine
 10
102.050003
 20
-44.517826
 30
0.0
 11
-101.949997
 21
-44.517826
 31
0.0
  0
LINE
  5
294
330
29E
100
AcDbEntity
  8
0
 62
     7
370
    35
100
AcDbLine
 10
102.050003
 20
-251.518173
 30
0.0
 11
-101.949997
 21
-251.518173
 31
0.0
  0
LINE
  5
295
330
29E
100
AcDbEntity
  8
0
 62
     7
370
    35
100
AcDbLine
 10
102.050003
 20
-250.518173
 30
0.0
 11
-101.949997
 21
-250.518173
 31
0.0
  0
LINE
  5
296
330
29E
100
AcDbEntity
  8
0
 62
     7
370
    35
100
AcDbLine
 10
-60.450001
 20
-50.517826
 30
0.0
 11
-99.449997
 21
-50.517826
 31
0.0
  0
LINE
  5
297
330
29E
100
AcDbEntity
  8
0
 62
     7
370
    35
100
AcDbLine
 10
-20.449999
 20
-50.517826
 30
0.0
 11
-59.450001
 21
-50.517826
 31
0.0
  0
LINE
  5
298
330
29E
100
AcDbEntity
  8
0
 62
     7
370
    35
100
AcDbLine
 10
19.550001
 20
-50.517826
 30
0.0
 11
-19.449999
 21
-50.517826
 31
0.0
  0
LINE
  5
299
330
29E
100
AcDbEntity
  8
0
 62
     7
370
    35
100
AcDbLine
 10
59.549999
 20
-50.517826
 30
0.0
 11
20.550001
 21
-50.517826
 31
0.0
  0
LINE
  5
29A
330
29E
100
AcDbEntity
  8
0
 62
     7
370
    35
100
AcDbLine
 10
99.550003
 20
-50.517826
 30
0.0
 11
60.549999
 21
-50.517826
 31
0.0
  0
LINE
  5
29B
330
29E
100
AcDbEntity
  8
0
 62
     7
 48
0.0375
370
    35
100
AcDbLine
 10
102.050003
 20
-50.517826
 30
0.0
 11
100.550003
 21
-50.517826
 31
0.0
  0
LINE
  5
29C
330
29E
100
AcDbEntity
  8
0
 62
     7
 48
0.0375
370
    35
100
AcDbLine
 10
-100.449997
 20
-50.517826
 30
0.0
 11
-101.949997
 21
-50.517826
 31
0.0
  0
ENDBLK
  5
5D1
330
29E
100
AcDbEntity
  8
0
100
AcDbBlockEnd
  0
BLOCK
  5
5D2
330
2A4
100
AcDbEntity
  8
0
100
AcDbBlockBegin
  2
BLOCK150
 70
     0
 10
0.0
 20
0.0
 30
0.0
  3
BLOCK150
  1

  0
TEXT
  5
2A1
330
2A4
100
AcDbEntity
  8
0
 62
     7
370
    13
100
AcDbText
 10
32.322372
 20
-297.026093
 30
0.0
 40
2.5
  1
PARTICOLARE ZINCATO PULITO E SGRASSATO
 41
0.8989780254545454
 72
     5
 11
114.728691
 21
-297.026093
 31
0.0
100
AcDbText
  0
TEXT
  5
2A2
330
2A4
100
AcDbEntity
  8
0
 62
     7
370
    13
100
AcDbText
 10
32.322372
 20
-301.345245
 30
0.0
 40
2.5
  1
PART ZINC COATED CLEAN AND DEGRASSED
 41
0.8838016528301887
 72
     5
 11
110.391518
 21
-301.345245
 31
0.0
100
AcDbText
  0
ENDBLK
  5
5D3
330
2A4
100
AcDbEntity
  8
0
100
AcDbBlockEnd
  0
BLOCK
  5
5D4
330
2AE
100
AcDbEntity
  8
0
100
AcDbBlockBegin
  2
BLOCK154
 70
     0
 10
0.0
 20
0.0
 30
0.0
  3
BLOCK154
  1

  0
SOLID
  5
2A7
330
2AE
100
AcDbEntity
  8
0
 62
     7
370
    13
100
AcDbTrace
 10
96.741364
 20
-147.818817
 30
0.0
 11
94.809319
 21
-148.335739
 31
0.0
 12
96.741364
 22
-147.818817
 32
0.0
 13
96.740974
 23
-148.854095
 33
0.0
  0
TEXT
  5
2A8
330
2AE
100
AcDbEntity
  8
0
 62
     7
370
    13
100
AcDbText
 10
103.412369
 20
-146.338959
 30
0.0
 40
3.0
  1
850
 50
359.9786450758128
 41
1.200921683413336
 72
     5
 11
112.419281
 21
-146.342316
 31
0.0
100
AcDbText
  0
TEXT
  5
2A9
330
2AE
100
AcDbEntity
  8
0
 62
     7
370
    13
100
AcDbText
 10
99.810059
 20
-146.337601
 30
0.0
 40
3.0
  1
R
 50
359.9785111388799
 41
1.301155091512539
 72
     5
 11
102.412369
 21
-146.338577
 31
0.0
100
AcDbText
  0
LINE
  5
2AA
330
2AE
100
AcDbEntity
  8
0
 62
     7
 48
0.25
370
    13
100
AcDbLine
 10
84.809319
 20
-148.332001
 30
0.0
 11
94.809319
 21
-148.335739
 31
0.0
  0
LINE
  5
2AB
330
2AE
100
AcDbEntity
  8
0
 62
     7
 48
0.391934
370
    13
100
AcDbLine
 10
96.741165
 20
-148.336456
 30
0.0
 11
112.418533
 21
-148.342316
 31
0.0
  0
LWPOLYLINE
  5
2AC
330
2AE
100
AcDbEntity
  8
0
 62
     7
370
    13
100
AcDbPolyline
 90
        3
 70
     1
 43
0.0
 10
96.741364
 20
-147.818817
 10
94.809319
 20
-148.335739
 10
96.740974
 20
-148.854095
  0
ENDBLK
  5
5D5
330
2AE
100
AcDbEntity
  8
0
100
AcDbBlockEnd
  0
BLOCK
  5
5D6
330
2BA
100
AcDbEntity
  8
0
100
AcDbBlockBegin
  2
BLOCK155
 70
     0
 10
0.0
 20
0.0
 30
0.0
  3
BLOCK155
  1

  0
SOLID
  5
2B1
330
2BA
100
AcDbEntity
  8
0
 62
     7
370
    13
100
AcDbTrace
 10
35.838486
 20
-139.741348
 30
0.0
 11
35.320847
 21
-137.809494
 31
0.0
 12
35.838486
 22
-139.741348
 32
0.0
 13
34.803211
 23
-139.741348
 33
0.0
  0
SOLID
  5
2B2
330
2BA
100
AcDbEntity
  8
0
 62
     7
370
    13
100
AcDbTrace
 10
34.803211
 20
-155.87764
 30
0.0
 11
35.320847
 21
-157.809494
 31
0.0
 12
34.803211
 22
-155.87764
 32
0.0
 13
35.838486
 23
-155.87764
 33
0.0
  0
TEXT
  5
2B3
330
2BA
100
AcDbEntity
  8
0
 62
     7
370
    13
100
AcDbText
 10
33.320847
 20
-150.711792
 30
0.0
 40
3.0
  1
20
 50
90.0
 41
1.289910222222223
 72
     5
 11
33.320847
 21
-144.907196
 31
0.0
100
AcDbText
  0
LINE
  5
2B4
330
2BA
100
AcDbEntity
  8
0
 62
     7
370
    13
100
AcDbLine
 10
69.257454
 20
-157.809494
 30
0.0
 11
33.320847
 21
-157.809494
 31
0.0
  0
LINE
  5
2B5
330
2BA
100
AcDbEntity
  8
0
 62
     7
370
    13
100
AcDbLine
 10
69.257454
 20
-137.809494
 30
0.0
 11
33.320847
 21
-137.809494
 31
0.0
  0
LINE
  5
2B6
330
2BA
100
AcDbEntity
  8
0
 62
     7
 48
0.403407
370
    13
100
AcDbLine
 10
35.320847
 20
-155.87764
 30
0.0
 11
35.320847
 21
-139.741348
 31
0.0
  0
LWPOLYLINE
  5
2B7
330
2BA
100
AcDbEntity
  8
0
 62
     7
370
    13
100
AcDbPolyline
 90
        3
 70
     1
 43
0.0
 10
35.838486
 20
-139.741348
 10
35.320847
 20
-137.809494
 10
34.803211
 20
-139.741348
  0
LWPOLYLINE
  5
2B8
330
2BA
100
AcDbEntity
  8
0
 62
     7
370
    13
100
AcDbPolyline
 90
        3
 70
     1
 43
0.0
 10
34.803211
 20
-155.87764
 10
35.320847
 20
-157.809494
 10
35.838486
 20
-155.87764
  0
ENDBLK
  5
5D7
330
2BA
100
AcDbEntity
  8
0
100
AcDbBlockEnd
  0
BLOCK
  5
5D8
330
2C6
100
AcDbEntity
  8
0
100
AcDbBlockBegin
  2
BLOCK156
 70
     0
 10
0.0
 20
0.0
 30
0.0
  3
BLOCK156
  1

  0
SOLID
  5
2BD
330
2C6
100
AcDbEntity
  8
0
 62
     7
370
    13
100
AcDbTrace
 10
71.055603
 20
-106.374184
 30
0.0
 11
72.987457
 21
-105.856544
 31
0.0
 12
71.055603
 22
-106.374184
 32
0.0
 13
71.055603
 23
-105.338905
 33
0.0
  0
SOLID
  5
2BE
330
2C6
100
AcDbEntity
  8
0
 62
     7
370
    13
100
AcDbTrace
 10
60.719307
 20
-105.338905
 30
0.0
 11
58.787457
 21
-105.856544
 31
0.0
 12
60.719307
 22
-105.338905
 32
0.0
 13
60.719307
 23
-106.374184
 33
0.0
  0
TEXT
  5
2BF
330
2C6
100
AcDbEntity
  8
0
 62
     7
370
    13
100
AcDbText
 10
31.704491
 20
-103.856544
 30
0.0
 40
3.0
  1
14.2
 41
1.526152624999999
 72
     5
 11
43.913712
 21
-103.856544
 31
0.0
100
AcDbText
  0
LINE
  5
2C0
330
2C6
100
AcDbEntity
  8
0
 62
     7
370
    13
100
AcDbLine
 10
72.987457
 20
-154.079498
 30
0.0
 11
72.987457
 21
-103.856544
 31
0.0
  0
LINE
  5
2C1
330
2C6
100
AcDbEntity
  8
0
 62
     7
370
    13
100
AcDbLine
 10
31.704489
 20
-105.856544
 30
0.0
 11
58.787457
 21
-105.856544
 31
0.0
  0
LINE
  5
2C2
330
2C6
100
AcDbEntity
  8
0
 62
     7
 48
0.258407
370
    13
100
AcDbLine
 10
60.719307
 20
-105.856544
 30
0.0
 11
71.055603
 21
-105.856544
 31
0.0
  0
LWPOLYLINE
  5
2C3
330
2C6
100
AcDbEntity
  8
0
 62
     7
370
    13
100
AcDbPolyline
 90
        3
 70
     1
 43
0.0
 10
71.055603
 20
-106.374184
 10
72.987457
 20
-105.856544
 10
71.055603
 20
-105.338905
  0
LWPOLYLINE
  5
2C4
330
2C6
100
AcDbEntity
  8
0
 62
     7
370
    13
100
AcDbPolyline
 90
        3
 70
     1
 43
0.0
 10
60.719307
 20
-105.338905
 10
58.787457
 20
-105.856544
 10
60.719307
 20
-106.374184
  0
ENDBLK
  5
5D9
330
2C6
100
AcDbEntity
  8
0
100
AcDbBlockEnd
  0
BLOCK
  5
5DA
330
2D3
100
AcDbEntity
  8
0
100
AcDbBlockBegin
  2
BLOCK157
 70
     0
 10
0.0
 20
0.0
 30
0.0
  3
BLOCK157
  1

  0
SOLID
  5
2C9
330
2D3
100
AcDbEntity
  8
0
 62
     7
370
    13
100
AcDbTrace
 10
69.823586
 20
-140.361694
 30
0.0
 11
71.198372
 21
-138.909119
 31
0.0
 12
69.823586
 22
-140.361694
 32
0.0
 13
69.281487
 23
-139.479691
 33
0.0
  0
SOLID
  5
2CA
330
2D3
100
AcDbEntity
  8
0
 62
     7
370
    13
100
AcDbTrace
 10
76.151329
 20
-135.257294
 30
0.0
 11
74.776543
 21
-136.709869
 31
0.0
 12
76.151329
 22
-135.257294
 32
0.0
 13
76.693428
 23
-136.139297
 33
0.0
  0
TEXT
  5
2CB
330
2D3
100
AcDbEntity
  8
0
 62
     7
370
    13
100
AcDbText
 10
105.627563
 20
-115.400421
 30
0.0
 40
3.0
  1
4.2
 50
31.57594562712531
 41
1.501153321701285
 72
     5
 11
113.30098
 21
-110.684143
 31
0.0
100
AcDbText
  0
TEXT
  5
2CC
330
2D3
100
AcDbEntity
  8
0
 62
     7
370
    13
100
AcDbText
 10
102.219788
 20
-117.494942
 30
0.0
 40
3.0
  1
%%c
 50
31.57616364646502
 41
1.499998502472006
 72
     5
 11
104.77562
 21
-115.924049
 31
0.0
100
AcDbText
  0
LINE
  5
2CD
330
2D3
100
AcDbEntity
  8
0
 62
     7
 48
0.076704
370
    13
100
AcDbLine
 10
66.938637
 20
-141.527252
 30
0.0
 11
69.552528
 21
-139.920685
 31
0.0
  0
LINE
  5
2CE
330
2D3
100
AcDbEntity
  8
0
 62
     7
 48
0.105
370
    13
100
AcDbLine
 10
71.198364
 20
-138.909103
 30
0.0
 11
74.776543
 21
-136.709869
 31
0.0
  0
LINE
  5
2CF
330
2D3
100
AcDbEntity
  8
0
 62
     7
370
    13
100
AcDbLine
 10
76.422379
 20
-135.698288
 30
0.0
 11
114.348228
 21
-112.388031
 31
0.0
  0
LWPOLYLINE
  5
2D0
330
2D3
100
AcDbEntity
  8
0
 62
     7
370
    13
100
AcDbPolyline
 90
        3
 70
     1
 43
0.0
 10
69.823586
 20
-140.361694
 10
71.198372
 20
-138.909119
 10
69.281487
 20
-139.479691
  0
LWPOLYLINE
  5
2D1
330
2D3
100
AcDbEntity
  8
0
 62
     7
370
    13
100
AcDbPolyline
 90
        3
 70
     1
 43
0.0
 10
76.151329
 20
-135.257294
 10
74.776543
 20
-136.709869
 10
76.693428
 20
-136.139297
  0
ENDBLK
  5
5DB
330
2D3
100
AcDbEntity
  8
0
100
AcDbBlockEnd
  0
BLOCK
  5
5DC
330
2E0
100
AcDbEntity
  8
0
100
AcDbBlockBegin
  2
BLOCK158
 70
     0
 10
0.0
 20
0.0
 30
0.0
  3
BLOCK158
  1

  0
SOLID
  5
2D6
330
2E0
100
AcDbEntity
  8
0
 62
     7
370
    13
100
AcDbTrace
 10
69.257133
 20
-156.194412
 30
0.0
 11
71.182266
 21
-156.736511
 31
0.0
 12
69.257133
 22
-156.194412
 32
0.0
 13
69.786102
 23
-155.304474
 33
0.0
  0
SOLID
  5
2D7
330
2E0
100
AcDbEntity
  8
0
 62
     7
370
    13
100
AcDbTrace
 10
76.717773
 20
-159.424576
 30
0.0
 11
74.792648
 21
-158.882477
 31
0.0
 12
76.717773
 22
-159.424576
 32
0.0
 13
76.188805
 23
-160.314514
 33
0.0
  0
TEXT
  5
2D8
330
2E0
100
AcDbEntity
  8
0
 62
     7
370
    13
100
AcDbText
 10
116.801132
 20
-181.525177
 30
0.0
 40
3.0
  1
4.2
 50
329.2733458550547
 41
1.501152831630891
 72
     5
 11
124.54361
 21
-186.127197
 31
0.0
100
AcDbText
  0
TEXT
  5
2D9
330
2E0
100
AcDbEntity
  8
0
 62
     7
370
    13
100
AcDbText
 10
113.362679
 20
-179.481384
 30
0.0
 40
3.0
  1
%%c
 50
329.2731883295795
 41
1.500001277460537
 72
     5
 11
115.941521
 21
-181.014221
 31
0.0
100
AcDbText
  0
LINE
  5
2DA
330
2E0
100
AcDbEntity
  8
0
 62
     7
 48
0.076704
370
    13
100
AcDbLine
 10
66.884193
 20
-154.181793
 30
0.0
 11
69.521614
 21
-155.749451
 31
0.0
  0
LINE
  5
2DB
330
2E0
100
AcDbEntity
  8
0
 62
     7
 48
0.105
370
    13
100
AcDbLine
 10
71.182266
 20
-156.736511
 30
0.0
 11
74.792648
 21
-158.882477
 31
0.0
  0
LINE
  5
2DC
330
2E0
100
AcDbEntity
  8
0
 62
     7
370
    13
100
AcDbLine
 10
76.453293
 20
-159.869537
 30
0.0
 11
123.521729
 21
-187.84642
 31
0.0
  0
LWPOLYLINE
  5
2DD
330
2E0
100
AcDbEntity
  8
0
 62
     7
370
    13
100
AcDbPolyline
 90
        3
 70
     1
 43
0.0
 10
69.257133
 20
-156.194412
 10
71.182266
 20
-156.736511
 10
69.786102
 20
-155.304474
  0
LWPOLYLINE
  5
2DE
330
2E0
100
AcDbEntity
  8
0
 62
     7
370
    13
100
AcDbPolyline
 90
        3
 70
     1
 43
0.0
 10
76.717773
 20
-159.424576
 10
74.792648
 20
-158.882477
 10
76.188805
 20
-160.314514
  0
ENDBLK
  5
5DD
330
2E0
100
AcDbEntity
  8
0
100
AcDbBlockEnd
  0
BLOCK
  5
5DE
330
2EC
100
AcDbEntity
  8
0
100
AcDbBlockBegin
  2
BLOCK159
 70
     0
 10
0.0
 20
0.0
 30
0.0
  3
BLOCK159
  1

  0
SOLID
  5
2E3
330
2EC
100
AcDbEntity
  8
0
 62
     7
370
    13
100
AcDbTrace
 10
82.406555
 20
-270.679993
 30
0.0
 11
84.338409
 21
-270.162354
 31
0.0
 12
82.406555
 22
-270.679993
 32
0.0
 13
82.406555
 23
-269.644714
 33
0.0
  0
SOLID
  5
2E4
330
2EC
100
AcDbEntity
  8
0
 62
     7
370
    13
100
AcDbTrace
 10
60.719307
 20
-269.644714
 30
0.0
 11
58.787457
 21
-270.162354
 31
0.0
 12
60.719307
 22
-269.644714
 32
0.0
 13
60.719307
 23
-270.679993
 33
0.0
  0
TEXT
  5
2E5
330
2EC
100
AcDbEntity
  8
0
 62
     7
370
    13
100
AcDbText
 10
65.458321
 20
-268.162354
 30
0.0
 40
3.0
  1
25.6
 41
1.356580888888888
 72
     5
 11
77.667549
 21
-268.162354
 31
0.0
100
AcDbText
  0
LINE
  5
2E6
330
2EC
100
AcDbEntity
  8
0
 62
     7
370
    13
100
AcDbLine
 10
58.787457
 20
-246.518173
 30
0.0
 11
58.787457
 21
-272.162354
 31
0.0
  0
LINE
  5
2E7
330
2EC
100
AcDbEntity
  8
0
 62
     7
370
    13
100
AcDbLine
 10
84.338409
 20
-251.51799
 30
0.0
 11
84.338409
 21
-272.162354
 31
0.0
  0
LINE
  5
2E8
330
2EC
100
AcDbEntity
  8
0
 62
     7
370
    13
100
AcDbLine
 10
60.719307
 20
-270.162354
 30
0.0
 11
82.406555
 21
-270.162354
 31
0.0
  0
LWPOLYLINE
  5
2E9
330
2EC
100
AcDbEntity
  8
0
 62
     7
370
    13
100
AcDbPolyline
 90
        3
 70
     1
 43
0.0
 10
82.406555
 20
-270.679993
 10
84.338409
 20
-270.162354
 10
82.406555
 20
-269.644714
  0
LWPOLYLINE
  5
2EA
330
2EC
100
AcDbEntity
  8
0
 62
     7
370
    13
100
AcDbPolyline
 90
        3
 70
     1
 43
0.0
 10
60.719307
 20
-269.644714
 10
58.787457
 20
-270.162354
 10
60.719307
 20
-270.679993
  0
ENDBLK
  5
5DF
330
2EC
100
AcDbEntity
  8
0
100
AcDbBlockEnd
  0
BLOCK
  5
5E0
330
2F6
100
AcDbEntity
  8
0
100
AcDbBlockBegin
  2
BLOCK160
 70
     0
 10
0.0
 20
0.0
 30
0.0
  3
BLOCK160
  1

  0
SOLID
  5
2EF
330
2F6
100
AcDbEntity
  8
0
 62
     7
370
    13
100
AcDbTrace
 10
89.456757
 20
-248.721298
 30
0.0
 11
87.757904
 21
-247.665878
 31
0.0
 12
89.456757
 22
-248.721298
 32
0.0
 13
88.701439
 23
-249.429321
 33
0.0
  0
TEXT
  5
2F0
330
2F6
100
AcDbEntity
  8
0
 62
     7
370
    13
100
AcDbText
 10
105.037926
 20
-263.175629
 30
0.0
 40
3.0
  1
5
 50
313.1493368412087
 41
1.301142805494645
 72
     5
 11
106.817635
 21
-265.074188
 31
0.0
100
AcDbText
  0
TEXT
  5
2F1
330
2F6
100
AcDbEntity
  8
0
 62
     7
370
    13
100
AcDbText
 10
102.57431
 20
-260.547455
 30
0.0
 40
3.0
  1
R
 50
313.1493368412087
 41
1.301142805494645
 72
     5
 11
104.354019
 21
-262.446014
 31
0.0
100
AcDbText
  0
LINE
  5
2F2
330
2F6
100
AcDbEntity
  8
0
 62
     7
 48
0.125
370
    13
100
AcDbLine
 10
84.338409
 20
-244.01799
 30
0.0
 11
87.757912
 21
-247.665878
 31
0.0
  0
LINE
  5
2F3
330
2F6
100
AcDbEntity
  8
0
 62
     7
370
    13
100
AcDbLine
 10
89.079102
 20
-249.075302
 30
0.0
 11
105.35849
 21
-266.441986
 31
0.0
  0
LWPOLYLINE
  5
2F4
330
2F6
100
AcDbEntity
  8
0
 62
     7
370
    13
100
AcDbPolyline
 90
        3
 70
     1
 43
0.0
 10
89.456757
 20
-248.721298
 10
87.757904
 20
-247.665878
 10
88.701439
 20
-249.429321
  0
ENDBLK
  5
5E1
330
2F6
100
AcDbEntity
  8
0
100
AcDbBlockEnd
  0
BLOCK
  5
5E2
330
2FC
100
AcDbEntity
  8
0
100
AcDbBlockBegin
  2
BLOCK161
 70
     0
 10
0.0
 20
0.0
 30
0.0
  3
BLOCK161
  1

  0
LINE
  5
2F9
330
2FC
100
AcDbEntity
  8
0
  6
DASHDOT
 62
     7
 48
0.1365
370
    13
100
AcDbLine
 10
75.717453
 20
-157.809494
 30
0.0
 11
70.257454
 21
-157.809494
 31
0.0
  0
LINE
  5
2FA
330
2FC
100
AcDbEntity
  8
0
  6
DASHDOT
 62
     7
 48
0.1365
370
    13
100
AcDbLine
 10
72.987457
 20
-155.079498
 30
0.0
 11
72.987457
 21
-160.53949
 31
0.0
  0
ENDBLK
  5
5E3
330
2FC
100
AcDbEntity
  8
0
100
AcDbBlockEnd
  0
BLOCK
  5
5E4
330
302
100
AcDbEntity
  8
0
100
AcDbBlockBegin
  2
BLOCK162
 70
     0
 10
0.0
 20
0.0
 30
0.0
  3
BLOCK162
  1

  0
LINE
  5
2FF
330
302
100
AcDbEntity
  8
0
  6
DASHDOT
 62
     7
 48
0.1365
370
    13
100
AcDbLine
 10
75.717453
 20
-137.809494
 30
0.0
 11
70.257454
 21
-137.809494
 31
0.0
  0
LINE
  5
300
330
302
100
AcDbEntity
  8
0
  6
DASHDOT
 62
     7
 48
0.1365
370
    13
100
AcDbLine
 10
72.987457
 20
-135.079498
 30
0.0
 11
72.987457
 21
-140.53949
 31
0.0
  0
ENDBLK
  5
5E5
330
302
100
AcDbEntity
  8
0
100
AcDbBlockEnd
  0
BLOCK
  5
5E6
330
308
100
AcDbEntity
  8
0
100
AcDbBlockBegin
  2
BLOCK163
 70
     0
 10
0.0
 20
0.0
 30
0.0
  3
BLOCK163
  1

  0
LINE
  5
305
330
308
100
AcDbEntity
  8
0
  6
DASHDOT
 62
     7
 48
0.325
370
    13
100
AcDbLine
 10
90.838409
 20
-244.01799
 30
0.0
 11
77.838409
 21
-244.01799
 31
0.0
  0
LINE
  5
306
330
308
100
AcDbEntity
  8
0
  6
DASHDOT
 62
     7
 48
0.325
370
    13
100
AcDbLine
 10
84.338409
 20
-237.51799
 30
0.0
 11
84.338409
 21
-250.51799
 31
0.0
  0
ENDBLK
  5
5E7
330
308
100
AcDbEntity
  8
0
100
AcDbBlockEnd
  0
BLOCK
  5
5E8
330
326
100
AcDbEntity
  8
0
100
AcDbBlockBegin
  2
BLOCK164
 70
     0
 10
0.0
 20
0.0
 30
0.0
  3
BLOCK164
  1

  0
LINE
  5
30B
330
326
100
AcDbEntity
  8
0
 62
     7
 48
0.225
370
    35
100
AcDbLine
 10
58.787457
 20
-250.518173
 30
0.0
 11
67.787453
 21
-250.518173
 31
0.0
  0
LINE
  5
30C
330
326
100
AcDbEntity
  8
0
 62
     7
 48
0.125
370
    35
100
AcDbLine
 10
58.787457
 20
-245.518173
 30
0.0
 11
58.787457
 21
-250.518173
 31
0.0
  0
LINE
  5
30D
330
326
100
AcDbEntity
  8
0
 62
     7
 48
0.025
370
    35
100
AcDbLine
 10
57.787457
 20
-245.518173
 30
0.0
 11
58.787457
 21
-245.518173
 31
0.0
  0
LINE
  5
30E
330
326
100
AcDbEntity
  8
0
 62
     7
 48
0.15
370
    35
100
AcDbLine
 10
57.787457
 20
-251.518173
 30
0.0
 11
57.787457
 21
-245.518173
 31
0.0
  0
LINE
  5
30F
330
326
100
AcDbEntity
  8
0
 62
     7
 48
0.25
370
    35
100
AcDbLine
 10
67.787453
 20
-251.518173
 30
0.0
 11
57.787457
 21
-251.518173
 31
0.0
  0
LINE
  5
310
330
326
100
AcDbEntity
  8
0
 62
     7
 48
0.025
370
    35
100
AcDbLine
 10
67.787453
 20
-250.518173
 30
0.0
 11
67.787453
 21
-251.518173
 31
0.0
  0
LINE
  5
311
330
326
100
AcDbEntity
  8
0
 62
     7
370
    35
100
AcDbLine
 10
58.787457
 20
-245.518173
 30
0.0
 11
58.787457
 21
-50.517826
 31
0.0
  0
LINE
  5
312
330
326
100
AcDbEntity
  8
0
 62
     7
 48
0.025
370
    35
100
AcDbLine
 10
67.787453
 20
-45.517826
 30
0.0
 11
67.787453
 21
-44.517826
 31
0.0
  0
LINE
  5
313
330
326
100
AcDbEntity
  8
0
 62
     7
 48
0.25
370
    35
100
AcDbLine
 10
67.787453
 20
-44.517826
 30
0.0
 11
57.787457
 21
-44.517826
 31
0.0
  0
LINE
  5
314
330
326
100
AcDbEntity
  8
0
 62
     7
 48
0.15
370
    35
100
AcDbLine
 10
57.787457
 20
-44.517826
 30
0.0
 11
57.787457
 21
-50.517826
 31
0.0
  0
LINE
  5
315
330
326
100
AcDbEntity
  8
0
 62
     7
 48
0.025
370
    35
100
AcDbLine
 10
57.787457
 20
-50.517826
 30
0.0
 11
58.787457
 21
-50.517826
 31
0.0
  0
LINE
  5
316
330
326
100
AcDbEntity
  8
0
 62
     7
 48
0.125
370
    35
100
AcDbLine
 10
58.787457
 20
-50.517826
 30
0.0
 11
58.787457
 21
-45.517826
 31
0.0
  0
LINE
  5
317
330
326
100
AcDbEntity
  8
0
 62
     7
 48
0.225
370
    35
100
AcDbLine
 10
58.787457
 20
-45.517826
 30
0.0
 11
67.787453
 21
-45.517826
 31
0.0
  0
LINE
  5
318
330
326
100
AcDbEntity
  8
0
 62
     7
 48
0.225
370
    35
100
AcDbLine
 10
67.787453
 20
-250.417999
 30
0.0
 11
58.787457
 21
-250.417999
 31
0.0
  0
LINE
  5
319
330
326
100
AcDbEntity
  8
0
 62
     7
 48
0.035
370
    35
100
AcDbLine
 10
67.787453
 20
-250.417999
 30
0.0
 11
67.787453
 21
-249.01799
 31
0.0
  0
LINE
  5
31A
330
326
100
AcDbEntity
  8
0
 62
     7
 48
0.225
370
    13
100
AcDbLine
 10
67.787453
 20
-249.01799
 30
0.0
 11
58.787457
 21
-249.01799
 31
0.0
  0
LINE
  5
31B
330
326
100
AcDbEntity
  8
0
 62
     7
 48
0.413774
370
    35
100
AcDbLine
 10
67.787453
 20
-47.017998
 30
0.0
 11
84.338409
 21
-47.017998
 31
0.0
  0
LINE
  5
31C
330
326
100
AcDbEntity
  8
0
 62
     7
 48
0.225
370
    13
100
AcDbLine
 10
67.787453
 20
-47.017998
 30
0.0
 11
58.787457
 21
-47.017998
 31
0.0
  0
LINE
  5
31D
330
326
100
AcDbEntity
  8
0
 62
     7
 48
0.413774
370
    35
100
AcDbLine
 10
84.338409
 20
-249.01799
 30
0.0
 11
67.787453
 21
-249.01799
 31
0.0
  0
ARC
  5
31E
330
326
100
AcDbEntity
  8
0
 62
     7
370
    35
100
AcDbCircle
 10
84.338409
 20
-244.01799
 30
0.0
 40
5.0
100
AcDbArc
 50
269.999997
 51
353.476572
  0
ARC
  5
31F
330
326
100
AcDbEntity
  8
0
 62
     7
370
    35
100
AcDbCircle
 10
-755.190613
 20
-148.01799
 30
0.0
 40
850.0
100
AcDbArc
 50
353.476572
 51
6.523428
  0
ARC
  5
320
330
326
100
AcDbEntity
  8
0
 62
     7
370
    35
100
AcDbCircle
 10
84.338409
 20
-52.017998
 30
0.0
 40
5.0
100
AcDbArc
 50
6.523428
 51
90.000003
  0
CIRCLE
  5
321
330
326
100
AcDbEntity
  8
0
 62
     7
370
    35
100
AcDbCircle
 10
72.987457
 20
-137.809494
 30
0.0
 40
2.1
  0
CIRCLE
  5
322
330
326
100
AcDbEntity
  8
0
 62
     7
370
    35
100
AcDbCircle
 10
72.987457
 20
-157.809494
 30
0.0
 40
2.1
  0
LINE
  5
323
330
326
100
AcDbEntity
  8
0
 62
     7
 48
0.035
370
    35
100
AcDbLine
 10
67.787453
 20
-47.017998
 30
0.0
 11
67.787453
 21
-45.617996
 31
0.0
  0
LINE
  5
324
330
326
100
AcDbEntity
  8
0
 62
     7
 48
0.225
370
    35
100
AcDbLine
 10
67.787453
 20
-45.617996
 30
0.0
 11
58.787457
 21
-45.617996
 31
0.0
  0
ENDBLK
  5
5E9
330
326
100
AcDbEntity
  8
0
100
AcDbBlockEnd
  0
BLOCK
  5
5EA
330
34E
100
AcDbEntity
  8
0
100
AcDbBlockBegin
  2
*D42
 70
     1
 10
0.0
 20
0.0
 30
0.0
  3
*D42
  1

  0
POINT
  5
345
330
34E
100
AcDbEntity
  8
DEFPOINTS
  6
ByBlock
 62
     0
380
     1
100
AcDbPoint
 10
391.4041543027971
 20
197.1141268649375
 30
0.0
  0
POINT
  5
346
330
34E
100
AcDbEntity
  8
DEFPOINTS
  6
ByBlock
 62
     0
380
     1
100
AcDbPoint
 10
427.4170182264178
 20
197.280459074187
 30
0.0
  0
LINE
  5
347
330
34E
100
AcDbEntity
  8
0
  6
ByBlock
 62
     0
370
    -2
380
     1
100
AcDbLine
 10
391.4041543027971
 20
197.7391268649375
 30
0.0
 11
391.4041543027971
 21
312.1697599637648
 31
0.0
  0
LINE
  5
348
330
34E
100
AcDbEntity
  8
0
  6
ByBlock
 62
     0
370
    -2
380
     1
100
AcDbLine
 10
427.4170182264178
 20
197.905459074187
 30
0.0
 11
427.4170182264178
 21
312.1697599637648
 31
0.0
  0
LINE
  5
349
330
34E
100
AcDbEntity
  8
0
  6
ByBlock
 62
     0
370
    -2
380
     1
100
AcDbLine
 10
393.9041543027971
 20
310.9197599637648
 30
0.0
 11
424.9170182264178
 21
310.9197599637648
 31
0.0
  0
SOLID
  5
34A
330
34E
100
AcDbEntity
  8
0
  6
ByBlock
 62
     0
380
     1
100
AcDbTrace
 10
391.4041543027971
 20
310.9197599637648
 30
0.0
 11
393.9041543027971
 21
310.5030932970981
 31
0.0
 12
393.9041543027971
 22
311.3364266304315
 32
0.0
 13
393.9041543027971
 23
311.3364266304315
 33
0.0
  0
SOLID
  5
34B
330
34E
100
AcDbEntity
  8
0
  6
ByBlock
 62
     0
380
     1
100
AcDbTrace
 10
427.4170182264178
 20
310.9197599637648
 30
0.0
 11
424.9170182264178
 21
310.5030932970981
 31
0.0
 12
424.9170182264178
 22
311.3364266304315
 32
0.0
 13
424.9170182264178
 23
311.3364266304315
 33
0.0
  0
MTEXT
  5
34C
330
34E
100
AcDbEntity
  8
0
  6
ByBlock
 62
     0
370
    -2
380
     1
100
AcDbMText
 10
409.4105862646074
 20
313.0030932970982
 30
0.0
 40
2.5
 41
0.0
 71
     5
 72
     1
  1
\A1;36,01
 73
     1
 44
1.0
  0
ENDBLK
  5
5EB
330
34E
100
AcDbEntity
  8
0
100
AcDbBlockEnd
  0
BLOCK
  5
5EC
330
359
100
AcDbEntity
  8
0
100
AcDbBlockBegin
  2
*D43
 70
     1
 10
0.0
 20
0.0
 30
0.0
  3
*D43
  1

  0
POINT
  5
350
330
359
100
AcDbEntity
  8
DEFPOINTS
  6
ByBlock
 62
     0
380
     1
100
AcDbPoint
 10
391.4041543027971
 20
197.1141268649375
 30
0.0
  0
POINT
  5
351
330
359
100
AcDbEntity
  8
DEFPOINTS
  6
ByBlock
 62
     0
380
     1
100
AcDbPoint
 10
427.4170182264178
 20
197.280459074187
 30
0.0
  0
LINE
  5
352
330
359
100
AcDbEntity
  8
0
  6
ByBlock
 62
     0
370
    -2
380
     1
100
AcDbLine
 10
391.4041543027971
 20
197.7391268649375
 30
0.0
 11
391.4041543027971
 21
312.1697599637648
 31
0.0
  0
LINE
  5
353
330
359
100
AcDbEntity
  8
0
  6
ByBlock
 62
     0
370
    -2
380
     1
100
AcDbLine
 10
427.4170182264178
 20
197.905459074187
 30
0.0
 11
427.4170182264178
 21
312.1697599637648
 31
0.0
  0
LINE
  5
354
330
359
100
AcDbEntity
  8
0
  6
ByBlock
 62
     0
370
    -2
380
     1
100
AcDbLine
 10
393.9041543027971
 20
310.9197599637648
 30
0.0
 11
424.9170182264178
 21
310.9197599637648
 31
0.0
  0
SOLID
  5
355
330
359
100
AcDbEntity
  8
0
  6
ByBlock
 62
     0
380
     1
100
AcDbTrace
 10
391.4041543027971
 20
310.9197599637648
 30
0.0
 11
393.9041543027971
 21
310.5030932970981
 31
0.0
 12
393.9041543027971
 22
311.3364266304315
 32
0.0
 13
393.9041543027971
 23
311.3364266304315
 33
0.0
  0
SOLID
  5
356
330
359
100
AcDbEntity
  8
0
  6
ByBlock
 62
     0
380
     1
100
AcDbTrace
 10
427.4170182264178
 20
310.9197599637648
 30
0.0
 11
424.9170182264178
 21
310.5030932970981
 31
0.0
 12
424.9170182264178
 22
311.3364266304315
 32
0.0
 13
424.9170182264178
 23
311.3364266304315
 33
0.0
  0
MTEXT
  5
357
330
359
100
AcDbEntity
  8
0
  6
ByBlock
 62
     0
370
    -2
380
     1
100
AcDbMText
 10
409.4105862646074
 20
313.0030932970982
 30
0.0
 40
2.5
 41
0.0
 71
     5
 72
     1
  1
\A1;36,01
 73
     1
 44
1.0
  0
ENDBLK
  5
5ED
330
359
100
AcDbEntity
  8
0
100
AcDbBlockEnd
  0
BLOCK
  5
5EE
330
364
100
AcDbEntity
  8
0
100
AcDbBlockBegin
  2
*D44
 70
     1
 10
0.0
 20
0.0
 30
0.0
  3
*D44
  1

  0
POINT
  5
35B
330
364
100
AcDbEntity
  8
DEFPOINTS
  6
ByBlock
 62
     0
380
     1
100
AcDbPoint
 10
391.4041543027971
 20
197.1141268649375
 30
0.0
  0
POINT
  5
35C
330
364
100
AcDbEntity
  8
DEFPOINTS
  6
ByBlock
 62
     0
380
     1
100
AcDbPoint
 10
427.4170182264178
 20
197.280459074187
 30
0.0
  0
LINE
  5
35D
330
364
100
AcDbEntity
  8
0
  6
ByBlock
 62
     0
370
    -2
380
     1
100
AcDbLine
 10
391.4041543027971
 20
197.7391268649375
 30
0.0
 11
391.4041543027971
 21
312.1697599637648
 31
0.0
  0
LINE
  5
35E
330
364
100
AcDbEntity
  8
0
  6
ByBlock
 62
     0
370
    -2
380
     1
100
AcDbLine
 10
427.4170182264178
 20
197.905459074187
 30
0.0
 11
427.4170182264178
 21
312.1697599637648
 31
0.0
  0
LINE
  5
35F
330
364
100
AcDbEntity
  8
0
  6
ByBlock
 62
     0
370
    -2
380
     1
100
AcDbLine
 10
393.9041543027971
 20
310.9197599637648
 30
0.0
 11
424.9170182264178
 21
310.9197599637648
 31
0.0
  0
SOLID
  5
360
330
364
100
AcDbEntity
  8
0
  6
ByBlock
 62
     0
380
     1
100
AcDbTrace
 10
391.4041543027971
 20
310.9197599637648
 30
0.0
 11
393.9041543027971
 21
310.5030932970981
 31
0.0
 12
393.9041543027971
 22
311.3364266304315
 32
0.0
 13
393.9041543027971
 23
311.3364266304315
 33
0.0
  0
SOLID
  5
361
330
364
100
AcDbEntity
  8
0
  6
ByBlock
 62
     0
380
     1
100
AcDbTrace
 10
427.4170182264178
 20
310.9197599637648
 30
0.0
 11
424.9170182264178
 21
310.5030932970981
 31
0.0
 12
424.9170182264178
 22
311.3364266304315
 32
0.0
 13
424.9170182264178
 23
311.3364266304315
 33
0.0
  0
MTEXT
  5
362
330
364
100
AcDbEntity
  8
0
  6
ByBlock
 62
     0
370
    -2
380
     1
100
AcDbMText
 10
409.4105862646074
 20
313.0030932970982
 30
0.0
 40
2.5
 41
0.0
 71
     5
 72
     1
  1
\A1;36,01
 73
     1
 44
1.0
  0
ENDBLK
  5
5EF
330
364
100
AcDbEntity
  8
0
100
AcDbBlockEnd
  0
BLOCK
  5
5F0
330
370
100
AcDbEntity
  8
0
100
AcDbBlockBegin
  2
*D45
 70
     1
 10
0.0
 20
0.0
 30
0.0
  3
*D45
  1

  0
POINT
  5
366
330
370
100
AcDbEntity
  8
DEFPOINTS
  6
ByBlock
 62
     7
380
     1
100
AcDbPoint
 10
391.4041543027971
 20
197.1141268649375
 30
0.0
  0
POINT
  5
367
330
370
100
AcDbEntity
  8
DEFPOINTS
  6
ByBlock
 62
     7
380
     1
100
AcDbPoint
 10
427.4170182264178
 20
197.280459074187
 30
0.0
  0
LINE
  5
368
330
370
100
AcDbEntity
  8
0
  6
ByBlock
 62
     7
370
    -2
380
     1
100
AcDbLine
 10
391.4041543027971
 20
197.7391268649375
 30
0.0
 11
391.4041543027971
 21
312.1697599637648
 31
0.0
  0
LINE
  5
369
330
370
100
AcDbEntity
  8
0
  6
ByBlock
 62
     7
370
    -2
380
     1
100
AcDbLine
 10
427.4170182264178
 20
197.905459074187
 30
0.0
 11
427.4170182264178
 21
312.1697599637648
 31
0.0
  0
LINE
  5
36A
330
370
100
AcDbEntity
  8
0
  6
ByBlock
 62
     7
370
    -2
380
     1
100
AcDbLine
 10
401.4041543027971
 20
310.9197599637648
 30
0.0
 11
417.4170182264178
 21
310.9197599637648
 31
0.0
  0
LINE
  5
36B
330
370
100
AcDbEntity
  8
0
  6
ByBlock
 62
     7
370
    -2
380
     1
100
AcDbLine
 10
427.4170182264178
 20
310.9197599637648
 30
0.0
 11
498.7503515597512
 21
310.9197599637648
 31
0.0
  0
SOLID
  5
36C
330
370
100
AcDbEntity
  8
0
  6
ByBlock
 62
     7
380
     1
100
AcDbTrace
 10
391.4041543027971
 20
310.9197599637648
 30
0.0
 11
401.4041543027971
 21
309.2530932970981
 31
0.0
 12
401.4041543027971
 22
312.5864266304315
 32
0.0
 13
401.4041543027971
 23
312.5864266304315
 33
0.0
  0
SOLID
  5
36D
330
370
100
AcDbEntity
  8
0
  6
ByBlock
 62
     7
380
     1
100
AcDbTrace
 10
427.4170182264178
 20
310.9197599637648
 30
0.0
 11
417.4170182264178
 21
309.2530932970981
 31
0.0
 12
417.4170182264178
 22
312.5864266304315
 32
0.0
 13
417.4170182264178
 23
312.5864266304315
 33
0.0
  0
MTEXT
  5
36E
330
370
100
AcDbEntity
  8
0
  6
ByBlock
 62
     0
370
    -2
380
     1
100
AcDbMText
 10
468.0836848930845
 20
324.0864266304314
 30
0.0
 40
14.0
 41
0.0
 71
     5
 72
     1
  1
\A1;36,01
 73
     1
 44
1.0
  0
ENDBLK
  5
5F1
330
370
100
AcDbEntity
  8
0
100
AcDbBlockEnd
  0
BLOCK
  5
5F2
330
37C
100
AcDbEntity
  8
0
100
AcDbBlockBegin
  2
*D46
 70
     1
 10
0.0
 20
0.0
 30
0.0
  3
*D46
  1

  0
POINT
  5
372
330
37C
100
AcDbEntity
  8
DEFPOINTS
  6
ByBlock
 62
     7
380
     1
100
AcDbPoint
 10
391.4041543027971
 20
197.1141268649375
 30
0.0
  0
POINT
  5
373
330
37C
100
AcDbEntity
  8
DEFPOINTS
  6
ByBlock
 62
     7
380
     1
100
AcDbPoint
 10
427.4170182264178
 20
197.280459074187
 30
0.0
  0
LINE
  5
374
330
37C
100
AcDbEntity
  8
0
  6
ByBlock
 62
     7
370
    -2
380
     1
100
AcDbLine
 10
391.4041543027971
 20
197.7391268649375
 30
0.0
 11
391.4041543027971
 21
312.1697599637648
 31
0.0
  0
LINE
  5
375
330
37C
100
AcDbEntity
  8
0
  6
ByBlock
 62
     7
370
    -2
380
     1
100
AcDbLine
 10
427.4170182264178
 20
197.905459074187
 30
0.0
 11
427.4170182264178
 21
312.1697599637648
 31
0.0
  0
LINE
  5
376
330
37C
100
AcDbEntity
  8
0
  6
ByBlock
 62
     7
370
    -2
380
     1
100
AcDbLine
 10
401.4041543027971
 20
310.9197599637648
 30
0.0
 11
417.4170182264178
 21
310.9197599637648
 31
0.0
  0
LINE
  5
377
330
37C
100
AcDbEntity
  8
0
  6
ByBlock
 62
     7
370
    -2
380
     1
100
AcDbLine
 10
427.4170182264178
 20
310.9197599637648
 30
0.0
 11
498.7503515597512
 21
310.9197599637648
 31
0.0
  0
SOLID
  5
378
330
37C
100
AcDbEntity
  8
0
  6
ByBlock
 62
     7
380
     1
100
AcDbTrace
 10
391.4041543027971
 20
310.9197599637648
 30
0.0
 11
401.4041543027971
 21
309.2530932970981
 31
0.0
 12
401.4041543027971
 22
312.5864266304315
 32
0.0
 13
401.4041543027971
 23
312.5864266304315
 33
0.0
  0
SOLID
  5
379
330
37C
100
AcDbEntity
  8
0
  6
ByBlock
 62
     7
380
     1
100
AcDbTrace
 10
427.4170182264178
 20
310.9197599637648
 30
0.0
 11
417.4170182264178
 21
309.2530932970981
 31
0.0
 12
417.4170182264178
 22
312.5864266304315
 32
0.0
 13
417.4170182264178
 23
312.5864266304315
 33
0.0
  0
MTEXT
  5
37A
330
37C
100
AcDbEntity
  8
0
  6
ByBlock
 62
     0
370
    -2
380
     1
100
AcDbMText
 10
468.0836848930845
 20
324.0864266304314
 30
0.0
 40
14.0
 41
0.0
 71
     5
 72
     1
  1
\A1;36,01
 73
     1
 44
1.0
  0
ENDBLK
  5
5F3
330
37C
100
AcDbEntity
  8
0
100
AcDbBlockEnd
  0
BLOCK
  5
5F4
330
388
100
AcDbEntity
  8
0
100
AcDbBlockBegin
  2
*D47
 70
     1
 10
0.0
 20
0.0
 30
0.0
  3
*D47
  1

  0
POINT
  5
37E
330
388
100
AcDbEntity
  8
DEFPOINTS
  6
ByBlock
 62
     7
380
     1
100
AcDbPoint
 10
391.4041543027971
 20
197.1141268649375
 30
0.0
  0
POINT
  5
37F
330
388
100
AcDbEntity
  8
DEFPOINTS
  6
ByBlock
 62
     7
380
     1
100
AcDbPoint
 10
427.4170182264178
 20
197.280459074187
 30
0.0
  0
LINE
  5
380
330
388
100
AcDbEntity
  8
0
  6
ByBlock
 62
     7
370
    -2
380
     1
100
AcDbLine
 10
391.4041543027971
 20
197.7391268649375
 30
0.0
 11
391.4041543027971
 21
312.1697599637648
 31
0.0
  0
LINE
  5
381
330
388
100
AcDbEntity
  8
0
  6
ByBlock
 62
     7
370
    -2
380
     1
100
AcDbLine
 10
427.4170182264178
 20
197.905459074187
 30
0.0
 11
427.4170182264178
 21
312.1697599637648
 31
0.0
  0
LINE
  5
382
330
388
100
AcDbEntity
  8
0
  6
ByBlock
 62
     7
370
    -2
380
     1
100
AcDbLine
 10
381.4041543027971
 20
310.9197599637648
 30
0.0
 11
371.4041543027971
 21
310.9197599637648
 31
0.0
  0
LINE
  5
383
330
388
100
AcDbEntity
  8
0
  6
ByBlock
 62
     7
370
    -2
380
     1
100
AcDbLine
 10
437.4170182264178
 20
310.9197599637648
 30
0.0
 11
447.4170182264178
 21
310.9197599637648
 31
0.0
  0
SOLID
  5
384
330
388
100
AcDbEntity
  8
0
  6
ByBlock
 62
     7
380
     1
100
AcDbTrace
 10
391.4041543027971
 20
310.9197599637648
 30
0.0
 11
381.4041543027971
 21
309.2530932970981
 31
0.0
 12
381.4041543027971
 22
312.5864266304315
 32
0.0
 13
381.4041543027971
 23
312.5864266304315
 33
0.0
  0
SOLID
  5
385
330
388
100
AcDbEntity
  8
0
  6
ByBlock
 62
     7
380
     1
100
AcDbTrace
 10
427.4170182264178
 20
310.9197599637648
 30
0.0
 11
437.4170182264178
 21
309.2530932970981
 31
0.0
 12
437.4170182264178
 22
312.5864266304315
 32
0.0
 13
437.4170182264178
 23
312.5864266304315
 33
0.0
  0
MTEXT
  5
386
330
388
100
AcDbEntity
  8
0
  6
ByBlock
 62
     0
370
    -2
380
     1
100
AcDbMText
 10
409.4105862646074
 20
322.9197599637648
 30
0.0
 40
14.0
 41
0.0
 71
     5
 72
     1
  1
36
 73
     1
 44
1.0
  0
ENDBLK
  5
5F5
330
388
100
AcDbEntity
  8
0
100
AcDbBlockEnd
  0
BLOCK
  5
5F6
330
426
100
AcDbEntity
  8
0
100
AcDbBlockBegin
  2
*D48
 70
     1
 10
0.0
 20
0.0
 30
0.0
  3
*D48
  1

  0
POINT
  5
41D
330
426
100
AcDbEntity
  8
DEFPOINTS
  6
ByBlock
 62
     0
380
     1
100
AcDbPoint
 10
126.0118253027971
 20
255.3969098066208
 30
0.0
  0
POINT
  5
41E
330
426
100
AcDbEntity
  8
DEFPOINTS
  6
ByBlock
 62
     0
380
     1
100
AcDbPoint
 10
327.0118253027971
 20
255.3969098066208
 30
0.0
  0
LINE
  5
41F
330
426
100
AcDbEntity
  8
0
  6
ByBlock
 62
     0
370
    -2
380
     1
100
AcDbLine
 10
126.0118253027971
 20
256.0219098066208
 30
0.0
 11
126.0118253027971
 21
345.3930277814443
 31
0.0
  0
LINE
  5
420
330
426
100
AcDbEntity
  8
0
  6
ByBlock
 62
     0
370
    -2
380
     1
100
AcDbLine
 10
327.0118253027971
 20
256.0219098066208
 30
0.0
 11
327.0118253027971
 21
345.3930277814443
 31
0.0
  0
LINE
  5
421
330
426
100
AcDbEntity
  8
0
  6
ByBlock
 62
     0
370
    -2
380
     1
100
AcDbLine
 10
128.5118253027971
 20
344.1430277814443
 30
0.0
 11
324.5118253027971
 21
344.1430277814443
 31
0.0
  0
SOLID
  5
422
330
426
100
AcDbEntity
  8
0
  6
ByBlock
 62
     0
380
     1
100
AcDbTrace
 10
126.0118253027971
 20
344.1430277814443
 30
0.0
 11
128.5118253027971
 21
343.7263611147777
 31
0.0
 12
128.5118253027971
 22
344.559694448111
 32
0.0
 13
128.5118253027971
 23
344.559694448111
 33
0.0
  0
SOLID
  5
423
330
426
100
AcDbEntity
  8
0
  6
ByBlock
 62
     0
380
     1
100
AcDbTrace
 10
327.0118253027971
 20
344.1430277814443
 30
0.0
 11
324.5118253027971
 21
343.7263611147777
 31
0.0
 12
324.5118253027971
 22
344.559694448111
 32
0.0
 13
324.5118253027971
 23
344.559694448111
 33
0.0
  0
MTEXT
  5
424
330
426
100
AcDbEntity
  8
0
  6
ByBlock
 62
     0
370
    -2
380
     1
100
AcDbMText
 10
226.5118253027971
 20
346.0180277814443
 30
0.0
 40
2.5
 41
0.0
 71
     5
 72
     1
  1
\A1;201
 73
     1
 44
1.0
  0
ENDBLK
  5
5F7
330
426
100
AcDbEntity
  8
0
100
AcDbBlockEnd
  0
BLOCK
  5
5F8
330
432
100
AcDbEntity
  8
0
100
AcDbBlockBegin
  2
*D49
 70
     1
 10
0.0
 20
0.0
 30
0.0
  3
*D49
  1

  0
POINT
  5
429
330
432
100
AcDbEntity
  8
DEFPOINTS
  6
ByBlock
 62
     0
380
     1
100
AcDbPoint
 10
156.8709724603981
 20
295.769281717947
 30
0.0
  0
POINT
  5
42A
330
432
100
AcDbEntity
  8
DEFPOINTS
  6
ByBlock
 62
     0
380
     1
100
AcDbPoint
 10
156.8709624748512
 20
90.95461407876854
 30
0.0
  0
LINE
  5
42B
330
432
100
AcDbEntity
  8
0
  6
ByBlock
 62
     0
370
    -2
380
     1
100
AcDbLine
 10
156.2459724603981
 20
295.769281717947
 30
0.0
 11
73.43851845810927
 21
295.769281717947
 31
0.0
  0
LINE
  5
42C
330
432
100
AcDbEntity
  8
0
  6
ByBlock
 62
     0
370
    -2
380
     1
100
AcDbLine
 10
156.2459624748512
 20
90.95461407876854
 30
0.0
 11
73.43851845810927
 21
90.95461407876854
 31
0.0
  0
LINE
  5
42D
330
432
100
AcDbEntity
  8
0
  6
ByBlock
 62
     0
370
    -2
380
     1
100
AcDbLine
 10
74.68851845810927
 20
293.269281717947
 30
0.0
 11
74.68851845810927
 21
93.45461407876854
 31
0.0
  0
SOLID
  5
42E
330
432
100
AcDbEntity
  8
0
  6
ByBlock
 62
     0
380
     1
100
AcDbTrace
 10
74.68851845810927
 20
295.769281717947
 30
0.0
 11
74.2718517914426
 21
293.269281717947
 31
0.0
 12
75.10518512477594
 22
293.269281717947
 32
0.0
 13
75.10518512477594
 23
293.269281717947
 33
0.0
  0
SOLID
  5
42F
330
432
100
AcDbEntity
  8
0
  6
ByBlock
 62
     0
380
     1
100
AcDbTrace
 10
74.68851845810927
 20
90.95461407876854
 30
0.0
 11
74.2718517914426
 21
93.45461407876854
 31
0.0
 12
75.10518512477594
 22
93.45461407876854
 32
0.0
 13
75.10518512477594
 23
93.45461407876854
 33
0.0
  0
MTEXT
  5
430
330
432
100
AcDbEntity
  8
0
  6
ByBlock
 62
     0
370
    -2
380
     1
100
AcDbMText
 10
72.60518512477594
 20
193.3619478983578
 30
0.0
 40
2.5
 41
0.0
 71
     5
 72
     1
  1
\A1;204,81
 11
6.123031769111886E-17
 21
1.0
 31
0.0
 73
     1
 44
1.0
  0
ENDBLK
  5
5F9
330
432
100
AcDbEntity
  8
0
100
AcDbBlockEnd
  0
BLOCK
  5
5FA
330
43D
100
AcDbEntity
  8
0
100
AcDbBlockBegin
  2
*D50
 70
     1
 10
0.0
 20
0.0
 30
0.0
  3
*D50
  1

  0
POINT
  5
434
330
43D
100
AcDbEntity
  8
DEFPOINTS
  6
ByBlock
 62
     0
380
     1
100
AcDbPoint
 10
325.440794579497
 20
295.8563908603389
 30
0.0
  0
POINT
  5
435
330
43D
100
AcDbEntity
  8
DEFPOINTS
  6
ByBlock
 62
     0
380
     1
100
AcDbPoint
 10
156.8709624748512
 20
90.95461407876854
 30
0.0
  0
LINE
  5
436
330
43D
100
AcDbEntity
  8
0
  6
ByBlock
 62
     0
370
    -2
380
     1
100
AcDbLine
 10
324.815794579497
 20
295.8563908603389
 30
0.0
 11
73.43851845810929
 21
295.8563908603389
 31
0.0
  0
LINE
  5
437
330
43D
100
AcDbEntity
  8
0
  6
ByBlock
 62
     0
370
    -2
380
     1
100
AcDbLine
 10
156.2459624748512
 20
90.95461407876854
 30
0.0
 11
73.43851845810929
 21
90.95461407876854
 31
0.0
  0
LINE
  5
438
330
43D
100
AcDbEntity
  8
0
  6
ByBlock
 62
     0
370
    -2
380
     1
100
AcDbLine
 10
74.68851845810929
 20
293.3563908603389
 30
0.0
 11
74.68851845810929
 21
93.45461407876854
 31
0.0
  0
SOLID
  5
439
330
43D
100
AcDbEntity
  8
0
  6
ByBlock
 62
     0
380
     1
100
AcDbTrace
 10
74.68851845810929
 20
295.8563908603389
 30
0.0
 11
74.27185179144263
 21
293.3563908603389
 31
0.0
 12
75.10518512477594
 22
293.3563908603389
 32
0.0
 13
75.10518512477594
 23
293.3563908603389
 33
0.0
  0
SOLID
  5
43A
330
43D
100
AcDbEntity
  8
0
  6
ByBlock
 62
     0
380
     1
100
AcDbTrace
 10
74.68851845810929
 20
90.95461407876854
 30
0.0
 11
74.27185179144263
 21
93.45461407876854
 31
0.0
 12
75.10518512477594
 22
93.45461407876854
 32
0.0
 13
75.10518512477594
 23
93.45461407876854
 33
0.0
  0
MTEXT
  5
43B
330
43D
100
AcDbEntity
  8
0
  6
ByBlock
 62
     0
370
    -2
380
     1
100
AcDbMText
 10
72.60518512477597
 20
193.4055024695537
 30
0.0
 40
2.5
 41
0.0
 71
     5
 72
     1
  1
\A1;204,9
 11
6.123031769111886E-17
 21
1.0
 31
0.0
 73
     1
 44
1.0
  0
ENDBLK
  5
5FB
330
43D
100
AcDbEntity
  8
0
100
AcDbBlockEnd
  0
BLOCK
  5
5FC
330
448
100
AcDbEntity
  8
0
100
AcDbBlockBegin
  2
*D51
 70
     1
 10
0.0
 20
0.0
 30
0.0
  3
*D51
  1

  0
POINT
  5
43F
330
448
100
AcDbEntity
  8
DEFPOINTS
  6
ByBlock
 62
     0
380
     1
100
AcDbPoint
 10
325.440794579497
 20
295.8563908603389
 30
0.0
  0
POINT
  5
440
330
448
100
AcDbEntity
  8
DEFPOINTS
  6
ByBlock
 62
     0
380
     1
100
AcDbPoint
 10
156.8709624748512
 20
90.95461407876854
 30
0.0
  0
LINE
  5
441
330
448
100
AcDbEntity
  8
0
  6
ByBlock
 62
     0
370
    -2
380
     1
100
AcDbLine
 10
324.815794579497
 20
295.8563908603389
 30
0.0
 11
73.43851845810929
 21
295.8563908603389
 31
0.0
  0
LINE
  5
442
330
448
100
AcDbEntity
  8
0
  6
ByBlock
 62
     0
370
    -2
380
     1
100
AcDbLine
 10
156.2459624748512
 20
90.95461407876854
 30
0.0
 11
73.43851845810929
 21
90.95461407876854
 31
0.0
  0
LINE
  5
443
330
448
100
AcDbEntity
  8
0
  6
ByBlock
 62
     0
370
    -2
380
     1
100
AcDbLine
 10
74.68851845810929
 20
293.3563908603389
 30
0.0
 11
74.68851845810929
 21
93.45461407876854
 31
0.0
  0
SOLID
  5
444
330
448
100
AcDbEntity
  8
0
  6
ByBlock
 62
     0
380
     1
100
AcDbTrace
 10
74.68851845810929
 20
295.8563908603389
 30
0.0
 11
74.27185179144263
 21
293.3563908603389
 31
0.0
 12
75.10518512477594
 22
293.3563908603389
 32
0.0
 13
75.10518512477594
 23
293.3563908603389
 33
0.0
  0
SOLID
  5
445
330
448
100
AcDbEntity
  8
0
  6
ByBlock
 62
     0
380
     1
100
AcDbTrace
 10
74.68851845810929
 20
90.95461407876854
 30
0.0
 11
74.27185179144263
 21
93.45461407876854
 31
0.0
 12
75.10518512477594
 22
93.45461407876854
 32
0.0
 13
75.10518512477594
 23
93.45461407876854
 33
0.0
  0
MTEXT
  5
446
330
448
100
AcDbEntity
  8
0
  6
ByBlock
 62
     0
370
    -2
380
     1
100
AcDbMText
 10
72.60518512477597
 20
193.4055024695537
 30
0.0
 40
2.5
 41
0.0
 71
     5
 72
     1
  1
\A1;204,9
 11
6.123031769111886E-17
 21
1.0
 31
0.0
 73
     1
 44
1.0
  0
ENDBLK
  5
5FD
330
448
100
AcDbEntity
  8
0
100
AcDbBlockEnd
  0
BLOCK
  5
5FE
330
46E
100
AcDbEntity
  8
0
100
AcDbBlockBegin
  2
*D52
 70
     1
 10
0.0
 20
0.0
 30
0.0
  3
*D52
  1

  0
POINT
  5
465
330
46E
100
AcDbEntity
  8
DEFPOINTS
  6
ByBlock
 62
     0
380
     1
100
AcDbPoint
 10
139.9904132383662
 20
295.7546063719916
 30
0.0
  0
POINT
  5
466
330
46E
100
AcDbEntity
  8
DEFPOINTS
  6
ByBlock
 62
     0
380
     1
100
AcDbPoint
 10
141.0118253027971
 20
90.9546065150214
 30
0.0
  0
LINE
  5
467
330
46E
100
AcDbEntity
  8
0
  6
ByBlock
 62
     0
370
    -2
380
     1
100
AcDbLine
 10
139.3654132383662
 20
295.7546063719916
 30
0.0
 11
102.6081622498441
 21
295.7546063719916
 31
0.0
  0
LINE
  5
468
330
46E
100
AcDbEntity
  8
0
  6
ByBlock
 62
     0
370
    -2
380
     1
100
AcDbLine
 10
140.3868253027971
 20
90.9546065150214
 30
0.0
 11
102.6081622498441
 21
90.9546065150214
 31
0.0
  0
LINE
  5
469
330
46E
100
AcDbEntity
  8
0
  6
ByBlock
 62
     0
370
    -2
380
     1
100
AcDbLine
 10
103.8581622498441
 20
293.2546063719916
 30
0.0
 11
103.8581622498441
 21
93.4546065150214
 31
0.0
  0
SOLID
  5
46A
330
46E
100
AcDbEntity
  8
0
  6
ByBlock
 62
     0
380
     1
100
AcDbTrace
 10
103.8581622498441
 20
295.7546063719916
 30
0.0
 11
103.4414955831774
 21
293.2546063719916
 31
0.0
 12
104.2748289165108
 22
293.2546063719916
 32
0.0
 13
104.2748289165108
 23
293.2546063719916
 33
0.0
  0
SOLID
  5
46B
330
46E
100
AcDbEntity
  8
0
  6
ByBlock
 62
     0
380
     1
100
AcDbTrace
 10
103.8581622498441
 20
90.9546065150214
 30
0.0
 11
103.4414955831774
 21
93.4546065150214
 31
0.0
 12
104.2748289165108
 22
93.4546065150214
 32
0.0
 13
104.2748289165108
 23
93.4546065150214
 33
0.0
  0
MTEXT
  5
46C
330
46E
100
AcDbEntity
  8
0
  6
ByBlock
 62
     0
370
    -2
380
     1
100
AcDbMText
 10
101.7748289165108
 20
193.3546064435065
 30
0.0
 40
2.5
 41
0.0
 71
     5
 72
     1
  1
\A1;204,8
 11
6.123031769111886E-17
 21
1.0
 31
0.0
 73
     1
 44
1.0
  0
ENDBLK
  5
5FF
330
46E
100
AcDbEntity
  8
0
100
AcDbBlockEnd
  0
BLOCK
  5
600
330
479
100
AcDbEntity
  8
0
100
AcDbBlockBegin
  2
*D53
 70
     1
 10
0.0
 20
0.0
 30
0.0
  3
*D53
  1

  0
POINT
  5
470
330
479
100
AcDbEntity
  8
DEFPOINTS
  6
ByBlock
 62
     7
380
     1
100
AcDbPoint
 10
139.9904132383662
 20
295.7546063719916
 30
0.0
  0
POINT
  5
471
330
479
100
AcDbEntity
  8
DEFPOINTS
  6
ByBlock
 62
     7
380
     1
100
AcDbPoint
 10
141.0118253027971
 20
90.9546065150214
 30
0.0
  0
LINE
  5
472
330
479
100
AcDbEntity
  8
0
  6
ByBlock
 62
     7
370
    -2
380
     1
100
AcDbLine
 10
139.3654132383662
 20
295.7546063719916
 30
0.0
 11
102.6081622498441
 21
295.7546063719916
 31
0.0
  0
LINE
  5
473
330
479
100
AcDbEntity
  8
0
  6
ByBlock
 62
     7
370
    -2
380
     1
100
AcDbLine
 10
140.3868253027971
 20
90.9546065150214
 30
0.0
 11
102.6081622498441
 21
90.9546065150214
 31
0.0
  0
LINE
  5
474
330
479
100
AcDbEntity
  8
0
  6
ByBlock
 62
     7
370
    -2
380
     1
100
AcDbLine
 10
103.8581622498441
 20
285.7546063719916
 30
0.0
 11
103.8581622498441
 21
100.9546065150214
 31
0.0
  0
SOLID
  5
475
330
479
100
AcDbEntity
  8
0
  6
ByBlock
 62
     7
380
     1
100
AcDbTrace
 10
103.8581622498441
 20
295.7546063719916
 30
0.0
 11
102.1914955831774
 21
285.7546063719916
 31
0.0
 12
105.5248289165108
 22
285.7546063719916
 32
0.0
 13
105.5248289165108
 23
285.7546063719916
 33
0.0
  0
SOLID
  5
476
330
479
100
AcDbEntity
  8
0
  6
ByBlock
 62
     7
380
     1
100
AcDbTrace
 10
103.8581622498441
 20
90.9546065150214
 30
0.0
 11
102.1914955831774
 21
100.9546065150214
 31
0.0
 12
105.5248289165108
 22
100.9546065150214
 32
0.0
 13
105.5248289165108
 23
100.9546065150214
 33
0.0
  0
MTEXT
  5
477
330
479
100
AcDbEntity
  8
0
  6
ByBlock
 62
     0
370
    -2
380
     1
100
AcDbMText
 10
90.69149558317743
 20
193.3546064435065
 30
0.0
 40
14.0
 41
0.0
 71
     5
 72
     1
  1
\A1;204,8
 11
6.123031769111886E-17
 21
1.0
 31
0.0
 73
     1
 44
1.0
  0
ENDBLK
  5
601
330
479
100
AcDbEntity
  8
0
100
AcDbBlockEnd
  0
BLOCK
  5
602
330
484
100
AcDbEntity
  8
0
100
AcDbBlockBegin
  2
*D54
 70
     1
 10
0.0
 20
0.0
 30
0.0
  3
*D54
  1

  0
POINT
  5
47B
330
484
100
AcDbEntity
  8
DEFPOINTS
  6
ByBlock
 62
     7
380
     1
100
AcDbPoint
 10
139.9904132383662
 20
295.7546063719916
 30
0.0
  0
POINT
  5
47C
330
484
100
AcDbEntity
  8
DEFPOINTS
  6
ByBlock
 62
     7
380
     1
100
AcDbPoint
 10
141.0118253027971
 20
90.9546065150214
 30
0.0
  0
LINE
  5
47D
330
484
100
AcDbEntity
  8
0
  6
ByBlock
 62
     7
370
    -2
380
     1
100
AcDbLine
 10
139.3654132383662
 20
295.7546063719916
 30
0.0
 11
102.6081622498441
 21
295.7546063719916
 31
0.0
  0
LINE
  5
47E
330
484
100
AcDbEntity
  8
0
  6
ByBlock
 62
     7
370
    -2
380
     1
100
AcDbLine
 10
140.3868253027971
 20
90.9546065150214
 30
0.0
 11
102.6081622498441
 21
90.9546065150214
 31
0.0
  0
LINE
  5
47F
330
484
100
AcDbEntity
  8
0
  6
ByBlock
 62
     7
370
    -2
380
     1
100
AcDbLine
 10
103.8581622498441
 20
285.7546063719916
 30
0.0
 11
103.8581622498441
 21
100.9546065150214
 31
0.0
  0
SOLID
  5
480
330
484
100
AcDbEntity
  8
0
  6
ByBlock
 62
     7
380
     1
100
AcDbTrace
 10
103.8581622498441
 20
295.7546063719916
 30
0.0
 11
102.1914955831774
 21
285.7546063719916
 31
0.0
 12
105.5248289165108
 22
285.7546063719916
 32
0.0
 13
105.5248289165108
 23
285.7546063719916
 33
0.0
  0
SOLID
  5
481
330
484
100
AcDbEntity
  8
0
  6
ByBlock
 62
     7
380
     1
100
AcDbTrace
 10
103.8581622498441
 20
90.9546065150214
 30
0.0
 11
102.1914955831774
 21
100.9546065150214
 31
0.0
 12
105.5248289165108
 22
100.9546065150214
 32
0.0
 13
105.5248289165108
 23
100.9546065150214
 33
0.0
  0
MTEXT
  5
482
330
484
100
AcDbEntity
  8
0
  6
ByBlock
 62
     0
370
    -2
380
     1
100
AcDbMText
 10
91.8581622498441
 20
193.3546064435065
 30
0.0
 40
14.0
 41
0.0
 71
     5
 72
     1
  1
206
 11
6.123031769111886E-17
 21
1.0
 31
0.0
 73
     1
 44
1.0
  0
ENDBLK
  5
603
330
484
100
AcDbEntity
  8
0
100
AcDbBlockEnd
  0
BLOCK
  5
604
330
48F
100
AcDbEntity
  8
0
100
AcDbBlockBegin
  2
*D55
 70
     1
 10
0.0
 20
0.0
 30
0.0
  3
*D55
  1

  0
POINT
  5
486
330
48F
100
AcDbEntity
  8
DEFPOINTS
  6
ByBlock
 62
     7
380
     1
100
AcDbPoint
 10
126.0118253027971
 20
255.3969098066208
 30
0.0
  0
POINT
  5
487
330
48F
100
AcDbEntity
  8
DEFPOINTS
  6
ByBlock
 62
     7
380
     1
100
AcDbPoint
 10
327.0118253027971
 20
255.3969098066208
 30
0.0
  0
LINE
  5
488
330
48F
100
AcDbEntity
  8
0
  6
ByBlock
 62
     7
370
    -2
380
     1
100
AcDbLine
 10
126.0118253027971
 20
256.0219098066208
 30
0.0
 11
126.0118253027971
 21
345.3930277814443
 31
0.0
  0
LINE
  5
489
330
48F
100
AcDbEntity
  8
0
  6
ByBlock
 62
     7
370
    -2
380
     1
100
AcDbLine
 10
327.0118253027971
 20
256.0219098066208
 30
0.0
 11
327.0118253027971
 21
345.3930277814443
 31
0.0
  0
LINE
  5
48A
330
48F
100
AcDbEntity
  8
0
  6
ByBlock
 62
     7
370
    -2
380
     1
100
AcDbLine
 10
136.0118253027971
 20
344.1430277814443
 30
0.0
 11
317.0118253027971
 21
344.1430277814443
 31
0.0
  0
SOLID
  5
48B
330
48F
100
AcDbEntity
  8
0
  6
ByBlock
 62
     7
380
     1
100
AcDbTrace
 10
126.0118253027971
 20
344.1430277814443
 30
0.0
 11
136.0118253027971
 21
342.4763611147777
 31
0.0
 12
136.0118253027971
 22
345.809694448111
 32
0.0
 13
136.0118253027971
 23
345.809694448111
 33
0.0
  0
SOLID
  5
48C
330
48F
100
AcDbEntity
  8
0
  6
ByBlock
 62
     7
380
     1
100
AcDbTrace
 10
327.0118253027971
 20
344.1430277814443
 30
0.0
 11
317.0118253027971
 21
342.4763611147777
 31
0.0
 12
317.0118253027971
 22
345.809694448111
 32
0.0
 13
317.0118253027971
 23
345.809694448111
 33
0.0
  0
MTEXT
  5
48D
330
48F
100
AcDbEntity
  8
0
  6
ByBlock
 62
     0
370
    -2
380
     1
100
AcDbMText
 10
226.5118253027971
 20
356.1430277814443
 30
0.0
 40
14.0
 41
0.0
 71
     5
 72
     1
  1
\A1;201
 73
     1
 44
1.0
  0
ENDBLK
  5
605
330
48F
100
AcDbEntity
  8
0
100
AcDbBlockEnd
  0
BLOCK
  5
606
330
49A
100
AcDbEntity
  8
0
100
AcDbBlockBegin
  2
*D56
 70
     1
 10
0.0
 20
0.0
 30
0.0
  3
*D56
  1

  0
POINT
  5
491
330
49A
100
AcDbEntity
  8
DEFPOINTS
  6
ByBlock
 62
     7
380
     1
100
AcDbPoint
 10
126.0118253027971
 20
255.3969098066208
 30
0.0
  0
POINT
  5
492
330
49A
100
AcDbEntity
  8
DEFPOINTS
  6
ByBlock
 62
     7
380
     1
100
AcDbPoint
 10
327.0118253027971
 20
255.3969098066208
 30
0.0
  0
LINE
  5
493
330
49A
100
AcDbEntity
  8
0
  6
ByBlock
 62
     7
370
    -2
380
     1
100
AcDbLine
 10
126.0118253027971
 20
256.0219098066208
 30
0.0
 11
126.0118253027971
 21
345.3930277814443
 31
0.0
  0
LINE
  5
494
330
49A
100
AcDbEntity
  8
0
  6
ByBlock
 62
     7
370
    -2
380
     1
100
AcDbLine
 10
327.0118253027971
 20
256.0219098066208
 30
0.0
 11
327.0118253027971
 21
345.3930277814443
 31
0.0
  0
LINE
  5
495
330
49A
100
AcDbEntity
  8
0
  6
ByBlock
 62
     7
370
    -2
380
     1
100
AcDbLine
 10
136.0118253027971
 20
344.1430277814443
 30
0.0
 11
317.0118253027971
 21
344.1430277814443
 31
0.0
  0
SOLID
  5
496
330
49A
100
AcDbEntity
  8
0
  6
ByBlock
 62
     7
380
     1
100
AcDbTrace
 10
126.0118253027971
 20
344.1430277814443
 30
0.0
 11
136.0118253027971
 21
342.4763611147777
 31
0.0
 12
136.0118253027971
 22
345.809694448111
 32
0.0
 13
136.0118253027971
 23
345.809694448111
 33
0.0
  0
SOLID
  5
497
330
49A
100
AcDbEntity
  8
0
  6
ByBlock
 62
     7
380
     1
100
AcDbTrace
 10
327.0118253027971
 20
344.1430277814443
 30
0.0
 11
317.0118253027971
 21
342.4763611147777
 31
0.0
 12
317.0118253027971
 22
345.809694448111
 32
0.0
 13
317.0118253027971
 23
345.809694448111
 33
0.0
  0
MTEXT
  5
498
330
49A
100
AcDbEntity
  8
0
  6
ByBlock
 62
     0
370
    -2
380
     1
100
AcDbMText
 10
226.5118253027971
 20
356.1430277814443
 30
0.0
 40
14.0
 41
0.0
 71
     5
 72
     1
  1
206
 73
     1
 44
1.0
  0
ENDBLK
  5
607
330
49A
100
AcDbEntity
  8
0
100
AcDbBlockEnd
  0
BLOCK
  5
608
330
4A5
100
AcDbEntity
  8
0
100
AcDbBlockBegin
  2
*D57
 70
     1
 10
0.0
 20
0.0
 30
0.0
  3
*D57
  1

  0
POINT
  5
49C
330
4A5
100
AcDbEntity
  8
DEFPOINTS
  6
ByBlock
 62
     7
380
     1
100
AcDbPoint
 10
126.0118253027971
 20
229.0124995867976
 30
0.0
  0
POINT
  5
49D
330
4A5
100
AcDbEntity
  8
DEFPOINTS
  6
ByBlock
 62
     7
380
     1
100
AcDbPoint
 10
327.0118253027971
 20
229.0124995867976
 30
0.0
  0
LINE
  5
49E
330
4A5
100
AcDbEntity
  8
0
  6
ByBlock
 62
     7
370
    -2
380
     1
100
AcDbLine
 10
126.0118253027971
 20
229.6374995867976
 30
0.0
 11
126.0118253027971
 21
319.0086175616212
 31
0.0
  0
LINE
  5
49F
330
4A5
100
AcDbEntity
  8
0
  6
ByBlock
 62
     7
370
    -2
380
     1
100
AcDbLine
 10
327.0118253027971
 20
229.6374995867976
 30
0.0
 11
327.0118253027971
 21
319.0086175616212
 31
0.0
  0
LINE
  5
4A0
330
4A5
100
AcDbEntity
  8
0
  6
ByBlock
 62
     7
370
    -2
380
     1
100
AcDbLine
 10
136.0118253027971
 20
317.7586175616212
 30
0.0
 11
317.0118253027971
 21
317.7586175616212
 31
0.0
  0
SOLID
  5
4A1
330
4A5
100
AcDbEntity
  8
0
  6
ByBlock
 62
     7
380
     1
100
AcDbTrace
 10
126.0118253027971
 20
317.7586175616212
 30
0.0
 11
136.0118253027971
 21
316.0919508949545
 31
0.0
 12
136.0118253027971
 22
319.4252842282879
 32
0.0
 13
136.0118253027971
 23
319.4252842282879
 33
0.0
  0
SOLID
  5
4A2
330
4A5
100
AcDbEntity
  8
0
  6
ByBlock
 62
     7
380
     1
100
AcDbTrace
 10
327.0118253027971
 20
317.7586175616212
 30
0.0
 11
317.0118253027971
 21
316.0919508949545
 31
0.0
 12
317.0118253027971
 22
319.4252842282879
 32
0.0
 13
317.0118253027971
 23
319.4252842282879
 33
0.0
  0
MTEXT
  5
4A3
330
4A5
100
AcDbEntity
  8
0
  6
ByBlock
 62
     0
370
    -2
380
     1
100
AcDbMText
 10
226.5118253027971
 20
329.7586175616212
 30
0.0
 40
14.0
 41
0.0
 71
     5
 72
     1
  1
206
 73
     1
 44
1.0
  0
ENDBLK
  5
609
330
4A5
100
AcDbEntity
  8
0
100
AcDbBlockEnd
  0
BLOCK
  5
60A
330
4B0
100
AcDbEntity
  8
0
100
AcDbBlockBegin
  2
*D58
 70
     1
 10
0.0
 20
0.0
 30
0.0
  3
*D58
  1

  0
POINT
  5
4A7
330
4B0
100
AcDbEntity
  8
DEFPOINTS
  6
ByBlock
 62
     7
380
     1
100
AcDbPoint
 10
126.0118253027971
 20
235.3958246399806
 30
0.0
  0
POINT
  5
4A8
330
4B0
100
AcDbEntity
  8
DEFPOINTS
  6
ByBlock
 62
     7
380
     1
100
AcDbPoint
 10
327.0118253027971
 20
235.3958246399806
 30
0.0
  0
LINE
  5
4A9
330
4B0
100
AcDbEntity
  8
0
  6
ByBlock
 62
     7
370
    -2
380
     1
100
AcDbLine
 10
126.0118253027971
 20
236.0208246399806
 30
0.0
 11
126.0118253027971
 21
325.3919426148042
 31
0.0
  0
LINE
  5
4AA
330
4B0
100
AcDbEntity
  8
0
  6
ByBlock
 62
     7
370
    -2
380
     1
100
AcDbLine
 10
327.0118253027971
 20
236.0208246399806
 30
0.0
 11
327.0118253027971
 21
325.3919426148042
 31
0.0
  0
LINE
  5
4AB
330
4B0
100
AcDbEntity
  8
0
  6
ByBlock
 62
     7
370
    -2
380
     1
100
AcDbLine
 10
136.0118253027971
 20
324.1419426148042
 30
0.0
 11
317.0118253027971
 21
324.1419426148042
 31
0.0
  0
SOLID
  5
4AC
330
4B0
100
AcDbEntity
  8
0
  6
ByBlock
 62
     7
380
     1
100
AcDbTrace
 10
126.0118253027971
 20
324.1419426148042
 30
0.0
 11
136.0118253027971
 21
322.4752759481375
 31
0.0
 12
136.0118253027971
 22
325.8086092814709
 32
0.0
 13
136.0118253027971
 23
325.8086092814709
 33
0.0
  0
SOLID
  5
4AD
330
4B0
100
AcDbEntity
  8
0
  6
ByBlock
 62
     7
380
     1
100
AcDbTrace
 10
327.0118253027971
 20
324.1419426148042
 30
0.0
 11
317.0118253027971
 21
322.4752759481375
 31
0.0
 12
317.0118253027971
 22
325.8086092814709
 32
0.0
 13
317.0118253027971
 23
325.8086092814709
 33
0.0
  0
MTEXT
  5
4AE
330
4B0
100
AcDbEntity
  8
0
  6
ByBlock
 62
     0
370
    -2
380
     1
100
AcDbMText
 10
226.5118253027971
 20
336.1419426148042
 30
0.0
 40
14.0
 41
0.0
 71
     5
 72
     1
  1
206
 73
     1
 44
1.0
  0
ENDBLK
  5
60B
330
4B0
100
AcDbEntity
  8
0
100
AcDbBlockEnd
  0
BLOCK
  5
60C
330
4BD
100
AcDbEntity
  8
0
100
AcDbBlockBegin
  2
*D59
 70
     1
 10
0.0
 20
0.0
 30
0.0
  3
*D59
  1

  0
POINT
  5
4B3
330
4BD
100
AcDbEntity
  8
DEFPOINTS
  6
ByBlock
 62
     7
380
     1
100
AcDbPoint
 10
391.4041543027971
 20
210.9610592481091
 30
0.0
  0
POINT
  5
4B4
330
4BD
100
AcDbEntity
  8
DEFPOINTS
  6
ByBlock
 62
     7
380
     1
100
AcDbPoint
 10
427.4170182264178
 20
211.1273914573586
 30
0.0
  0
LINE
  5
4B5
330
4BD
100
AcDbEntity
  8
0
  6
ByBlock
 62
     7
370
    -2
380
     1
100
AcDbLine
 10
391.4041543027971
 20
211.5860592481091
 30
0.0
 11
391.4041543027971
 21
326.0166923469364
 31
0.0
  0
LINE
  5
4B6
330
4BD
100
AcDbEntity
  8
0
  6
ByBlock
 62
     7
370
    -2
380
     1
100
AcDbLine
 10
427.4170182264178
 20
211.7523914573586
 30
0.0
 11
427.4170182264178
 21
326.0166923469364
 31
0.0
  0
LINE
  5
4B7
330
4BD
100
AcDbEntity
  8
0
  6
ByBlock
 62
     7
370
    -2
380
     1
100
AcDbLine
 10
381.4041543027971
 20
324.7666923469364
 30
0.0
 11
371.4041543027971
 21
324.7666923469364
 31
0.0
  0
LINE
  5
4B8
330
4BD
100
AcDbEntity
  8
0
  6
ByBlock
 62
     7
370
    -2
380
     1
100
AcDbLine
 10
437.4170182264178
 20
324.7666923469364
 30
0.0
 11
447.4170182264178
 21
324.7666923469364
 31
0.0
  0
SOLID
  5
4B9
330
4BD
100
AcDbEntity
  8
0
  6
ByBlock
 62
     7
380
     1
100
AcDbTrace
 10
391.4041543027971
 20
324.7666923469364
 30
0.0
 11
381.4041543027971
 21
323.1000256802697
 31
0.0
 12
381.4041543027971
 22
326.4333590136031
 32
0.0
 13
381.4041543027971
 23
326.4333590136031
 33
0.0
  0
SOLID
  5
4BA
330
4BD
100
AcDbEntity
  8
0
  6
ByBlock
 62
     7
380
     1
100
AcDbTrace
 10
427.4170182264178
 20
324.7666923469364
 30
0.0
 11
437.4170182264178
 21
323.1000256802697
 31
0.0
 12
437.4170182264178
 22
326.4333590136031
 32
0.0
 13
437.4170182264178
 23
326.4333590136031
 33
0.0
  0
MTEXT
  5
4BB
330
4BD
100
AcDbEntity
  8
0
  6
ByBlock
 62
     0
370
    -2
380
     1
100
AcDbMText
 10
409.4105862646074
 20
336.7666923469364
 30
0.0
 40
14.0
 41
0.0
 71
     5
 72
     1
  1
36
 73
     1
 44
1.0
  0
ENDBLK
  5
60D
330
4BD
100
AcDbEntity
  8
0
100
AcDbBlockEnd
  0
BLOCK
  5
60E
330
4C8
100
AcDbEntity
  8
0
100
AcDbBlockBegin
  2
*D60
 70
     1
 10
0.0
 20
0.0
 30
0.0
  3
*D60
  1

  0
POINT
  5
4BF
330
4C8
100
AcDbEntity
  8
DEFPOINTS
  6
ByBlock
 62
     7
380
     1
100
AcDbPoint
 10
139.9904132383662
 20
295.7546063719916
 30
0.0
  0
POINT
  5
4C0
330
4C8
100
AcDbEntity
  8
DEFPOINTS
  6
ByBlock
 62
     7
380
     1
100
AcDbPoint
 10
141.0118253027971
 20
90.9546065150214
 30
0.0
  0
LINE
  5
4C1
330
4C8
100
AcDbEntity
  8
0
  6
ByBlock
 62
     7
370
    -2
380
     1
100
AcDbLine
 10
139.3654132383662
 20
295.7546063719916
 30
0.0
 11
102.6081622498441
 21
295.7546063719916
 31
0.0
  0
LINE
  5
4C2
330
4C8
100
AcDbEntity
  8
0
  6
ByBlock
 62
     7
370
    -2
380
     1
100
AcDbLine
 10
140.3868253027971
 20
90.9546065150214
 30
0.0
 11
102.6081622498441
 21
90.9546065150214
 31
0.0
  0
LINE
  5
4C3
330
4C8
100
AcDbEntity
  8
0
  6
ByBlock
 62
     7
370
    -2
380
     1
100
AcDbLine
 10
103.8581622498441
 20
285.7546063719916
 30
0.0
 11
103.8581622498441
 21
100.9546065150214
 31
0.0
  0
SOLID
  5
4C4
330
4C8
100
AcDbEntity
  8
0
  6
ByBlock
 62
     7
380
     1
100
AcDbTrace
 10
103.8581622498441
 20
295.7546063719916
 30
0.0
 11
102.1914955831774
 21
285.7546063719916
 31
0.0
 12
105.5248289165108
 22
285.7546063719916
 32
0.0
 13
105.5248289165108
 23
285.7546063719916
 33
0.0
  0
SOLID
  5
4C5
330
4C8
100
AcDbEntity
  8
0
  6
ByBlock
 62
     7
380
     1
100
AcDbTrace
 10
103.8581622498441
 20
90.9546065150214
 30
0.0
 11
102.1914955831774
 21
100.9546065150214
 31
0.0
 12
105.5248289165108
 22
100.9546065150214
 32
0.0
 13
105.5248289165108
 23
100.9546065150214
 33
0.0
  0
MTEXT
  5
4C6
330
4C8
100
AcDbEntity
  8
0
  6
ByBlock
 62
     0
370
    -2
380
     1
100
AcDbMText
 10
91.8581622498441
 20
193.3546064435065
 30
0.0
 40
14.0
 41
0.0
 71
     5
 72
     1
  1
206
 11
6.123031769111886E-17
 21
1.0
 31
0.0
 73
     1
 44
1.0
  0
ENDBLK
  5
60F
330
4C8
100
AcDbEntity
  8
0
100
AcDbBlockEnd
  0
BLOCK
  5
610
330
4D3
100
AcDbEntity
  8
0
100
AcDbBlockBegin
  2
*D61
 70
     1
 10
0.0
 20
0.0
 30
0.0
  3
*D61
  1

  0
POINT
  5
4CA
330
4D3
100
AcDbEntity
  8
DEFPOINTS
  6
ByBlock
 62
     7
380
     1
100
AcDbPoint
 10
126.0118253027971
 20
235.3958246399806
 30
0.0
  0
POINT
  5
4CB
330
4D3
100
AcDbEntity
  8
DEFPOINTS
  6
ByBlock
 62
     7
380
     1
100
AcDbPoint
 10
327.0118253027971
 20
235.3958246399806
 30
0.0
  0
LINE
  5
4CC
330
4D3
100
AcDbEntity
  8
0
  6
ByBlock
 62
     7
370
    -2
380
     1
100
AcDbLine
 10
126.0118253027971
 20
236.0208246399806
 30
0.0
 11
126.0118253027971
 21
325.3919426148042
 31
0.0
  0
LINE
  5
4CD
330
4D3
100
AcDbEntity
  8
0
  6
ByBlock
 62
     7
370
    -2
380
     1
100
AcDbLine
 10
327.0118253027971
 20
236.0208246399806
 30
0.0
 11
327.0118253027971
 21
325.3919426148042
 31
0.0
  0
LINE
  5
4CE
330
4D3
100
AcDbEntity
  8
0
  6
ByBlock
 62
     7
370
    -2
380
     1
100
AcDbLine
 10
136.0118253027971
 20
324.1419426148042
 30
0.0
 11
317.0118253027971
 21
324.1419426148042
 31
0.0
  0
SOLID
  5
4CF
330
4D3
100
AcDbEntity
  8
0
  6
ByBlock
 62
     7
380
     1
100
AcDbTrace
 10
126.0118253027971
 20
324.1419426148042
 30
0.0
 11
136.0118253027971
 21
322.4752759481375
 31
0.0
 12
136.0118253027971
 22
325.8086092814709
 32
0.0
 13
136.0118253027971
 23
325.8086092814709
 33
0.0
  0
SOLID
  5
4D0
330
4D3
100
AcDbEntity
  8
0
  6
ByBlock
 62
     7
380
     1
100
AcDbTrace
 10
327.0118253027971
 20
324.1419426148042
 30
0.0
 11
317.0118253027971
 21
322.4752759481375
 31
0.0
 12
317.0118253027971
 22
325.8086092814709
 32
0.0
 13
317.0118253027971
 23
325.8086092814709
 33
0.0
  0
MTEXT
  5
4D1
330
4D3
100
AcDbEntity
  8
0
  6
ByBlock
 62
     0
370
    -2
380
     1
100
AcDbMText
 10
226.5118253027971
 20
336.1419426148042
 30
0.0
 40
14.0
 41
0.0
 71
     5
 72
     1
  1
206
 73
     1
 44
1.0
  0
ENDBLK
  5
611
330
4D3
100
AcDbEntity
  8
0
100
AcDbBlockEnd
  0
BLOCK
  5
612
330
4DE
100
AcDbEntity
  8
0
100
AcDbBlockBegin
  2
*D62
 70
     1
 10
0.0
 20
0.0
 30
0.0
  3
*D62
  1

  0
POINT
  5
4D5
330
4DE
100
AcDbEntity
  8
DEFPOINTS
  6
ByBlock
 62
     7
380
     1
100
AcDbPoint
 10
126.0118253027971
 20
235.3958246399806
 30
0.0
  0
POINT
  5
4D6
330
4DE
100
AcDbEntity
  8
DEFPOINTS
  6
ByBlock
 62
     7
380
     1
100
AcDbPoint
 10
327.0118253027971
 20
235.3958246399806
 30
0.0
  0
LINE
  5
4D7
330
4DE
100
AcDbEntity
  8
0
  6
ByBlock
 62
     7
370
    -2
380
     1
100
AcDbLine
 10
126.0118253027971
 20
236.0208246399806
 30
0.0
 11
126.0118253027971
 21
325.3919426148042
 31
0.0
  0
LINE
  5
4D8
330
4DE
100
AcDbEntity
  8
0
  6
ByBlock
 62
     7
370
    -2
380
     1
100
AcDbLine
 10
327.0118253027971
 20
236.0208246399806
 30
0.0
 11
327.0118253027971
 21
325.3919426148042
 31
0.0
  0
LINE
  5
4D9
330
4DE
100
AcDbEntity
  8
0
  6
ByBlock
 62
     7
370
    -2
380
     1
100
AcDbLine
 10
136.0118253027971
 20
324.1419426148042
 30
0.0
 11
317.0118253027971
 21
324.1419426148042
 31
0.0
  0
SOLID
  5
4DA
330
4DE
100
AcDbEntity
  8
0
  6
ByBlock
 62
     7
380
     1
100
AcDbTrace
 10
126.0118253027971
 20
324.1419426148042
 30
0.0
 11
136.0118253027971
 21
322.4752759481375
 31
0.0
 12
136.0118253027971
 22
325.8086092814709
 32
0.0
 13
136.0118253027971
 23
325.8086092814709
 33
0.0
  0
SOLID
  5
4DB
330
4DE
100
AcDbEntity
  8
0
  6
ByBlock
 62
     7
380
     1
100
AcDbTrace
 10
327.0118253027971
 20
324.1419426148042
 30
0.0
 11
317.0118253027971
 21
322.4752759481375
 31
0.0
 12
317.0118253027971
 22
325.8086092814709
 32
0.0
 13
317.0118253027971
 23
325.8086092814709
 33
0.0
  0
MTEXT
  5
4DC
330
4DE
100
AcDbEntity
  8
0
  6
ByBlock
 62
     0
370
    -2
380
     1
100
AcDbMText
 10
226.5118253027971
 20
336.1419426148042
 30
0.0
 40
14.0
 41
0.0
 71
     5
 72
     1
  1
206
 73
     1
 44
1.0
  0
ENDBLK
  5
613
330
4DE
100
AcDbEntity
  8
0
100
AcDbBlockEnd
  0
BLOCK
  5
614
330
4E9
100
AcDbEntity
  8
0
100
AcDbBlockBegin
  2
*D63
 70
     1
 10
0.0
 20
0.0
 30
0.0
  3
*D63
  1

  0
POINT
  5
4E0
330
4E9
100
AcDbEntity
  8
DEFPOINTS
  6
ByBlock
 62
     7
380
     1
100
AcDbPoint
 10
139.9904132383662
 20
295.7546063719916
 30
0.0
  0
POINT
  5
4E1
330
4E9
100
AcDbEntity
  8
DEFPOINTS
  6
ByBlock
 62
     7
380
     1
100
AcDbPoint
 10
141.0118253027971
 20
90.9546065150214
 30
0.0
  0
LINE
  5
4E2
330
4E9
100
AcDbEntity
  8
0
  6
ByBlock
 62
     7
370
    -2
380
     1
100
AcDbLine
 10
139.3654132383662
 20
295.7546063719916
 30
0.0
 11
102.6081622498441
 21
295.7546063719916
 31
0.0
  0
LINE
  5
4E3
330
4E9
100
AcDbEntity
  8
0
  6
ByBlock
 62
     7
370
    -2
380
     1
100
AcDbLine
 10
140.3868253027971
 20
90.9546065150214
 30
0.0
 11
102.6081622498441
 21
90.9546065150214
 31
0.0
  0
LINE
  5
4E4
330
4E9
100
AcDbEntity
  8
0
  6
ByBlock
 62
     7
370
    -2
380
     1
100
AcDbLine
 10
103.8581622498441
 20
285.7546063719916
 30
0.0
 11
103.8581622498441
 21
100.9546065150214
 31
0.0
  0
SOLID
  5
4E5
330
4E9
100
AcDbEntity
  8
0
  6
ByBlock
 62
     7
380
     1
100
AcDbTrace
 10
103.8581622498441
 20
295.7546063719916
 30
0.0
 11
102.1914955831774
 21
285.7546063719916
 31
0.0
 12
105.5248289165108
 22
285.7546063719916
 32
0.0
 13
105.5248289165108
 23
285.7546063719916
 33
0.0
  0
SOLID
  5
4E6
330
4E9
100
AcDbEntity
  8
0
  6
ByBlock
 62
     7
380
     1
100
AcDbTrace
 10
103.8581622498441
 20
90.9546065150214
 30
0.0
 11
102.1914955831774
 21
100.9546065150214
 31
0.0
 12
105.5248289165108
 22
100.9546065150214
 32
0.0
 13
105.5248289165108
 23
100.9546065150214
 33
0.0
  0
MTEXT
  5
4E7
330
4E9
100
AcDbEntity
  8
0
  6
ByBlock
 62
     0
370
    -2
380
     1
100
AcDbMText
 10
91.8581622498441
 20
193.3546064435065
 30
0.0
 40
14.0
 41
0.0
 71
     5
 72
     1
  1
206
 11
6.123031769111886E-17
 21
1.0
 31
0.0
 73
     1
 44
1.0
  0
ENDBLK
  5
615
330
4E9
100
AcDbEntity
  8
0
100
AcDbBlockEnd
  0
BLOCK
  5
616
330
584
100
AcDbEntity
  8
0
100
AcDbBlockBegin
  2
*D64
 70
     1
 10
0.0
 20
0.0
 30
0.0
  3
*D64
  1

  0
POINT
  5
579
330
584
100
AcDbEntity
  8
DEFPOINTS
  6
ByBlock
 62
     7
380
     1
100
AcDbPoint
 10
391.4041543027971
 20
210.9610592481091
 30
0.0
  0
POINT
  5
57A
330
584
100
AcDbEntity
  8
DEFPOINTS
  6
ByBlock
 62
     7
380
     1
100
AcDbPoint
 10
427.4170182264178
 20
211.1273914573586
 30
0.0
  0
LINE
  5
57B
330
584
100
AcDbEntity
  8
0
  6
ByBlock
 62
     7
370
    -2
380
     1
100
AcDbLine
 10
391.4041543027971
 20
211.5860592481091
 30
0.0
 11
391.4041543027971
 21
326.0166923469364
 31
0.0
  0
LINE
  5
57C
330
584
100
AcDbEntity
  8
0
  6
ByBlock
 62
     7
370
    -2
380
     1
100
AcDbLine
 10
427.4170182264178
 20
211.7523914573586
 30
0.0
 11
427.4170182264178
 21
326.0166923469364
 31
0.0
  0
LINE
  5
57D
330
584
100
AcDbEntity
  8
0
  6
ByBlock
 62
     7
370
    -2
380
     1
100
AcDbLine
 10
381.4041543027971
 20
324.7666923469364
 30
0.0
 11
371.4041543027971
 21
324.7666923469364
 31
0.0
  0
LINE
  5
57E
330
584
100
AcDbEntity
  8
0
  6
ByBlock
 62
     7
370
    -2
380
     1
100
AcDbLine
 10
437.4170182264178
 20
324.7666923469364
 30
0.0
 11
470.7503515597511
 21
324.7666923469364
 31
0.0
  0
SOLID
  5
57F
330
584
100
AcDbEntity
  8
0
  6
ByBlock
 62
     7
380
     1
100
AcDbTrace
 10
391.4041543027971
 20
324.7666923469364
 30
0.0
 11
381.4041543027971
 21
323.1000256802697
 31
0.0
 12
381.4041543027971
 22
326.4333590136031
 32
0.0
 13
381.4041543027971
 23
326.4333590136031
 33
0.0
  0
SOLID
  5
580
330
584
100
AcDbEntity
  8
0
  6
ByBlock
 62
     7
380
     1
100
AcDbTrace
 10
427.4170182264178
 20
324.7666923469364
 30
0.0
 11
437.4170182264178
 21
323.1000256802697
 31
0.0
 12
437.4170182264178
 22
326.4333590136031
 32
0.0
 13
437.4170182264178
 23
326.4333590136031
 33
0.0
  0
LINE
  5
581
330
584
100
AcDbEntity
  8
0
  6
ByBlock
 62
     7
370
    -2
380
     1
100
AcDbLine
 10
391.4041543027971
 20
324.7666923469364
 30
0.0
 11
427.4170182264178
 21
324.7666923469364
 31
0.0
  0
MTEXT
  5
582
330
584
100
AcDbEntity
  8
0
  6
ByBlock
 62
     0
370
    -2
380
     1
100
AcDbMText
 10
454.0836848930844
 20
336.7666923469364
 30
0.0
 40
14.0
 41
0.0
 71
     5
 72
     1
  1
36
 73
     1
 44
1.0
  0
ENDBLK
  5
617
330
584
100
AcDbEntity
  8
0
100
AcDbBlockEnd
  0
BLOCK
  5
618
330
591
100
AcDbEntity
  8
0
100
AcDbBlockBegin
  2
*D65
 70
     1
 10
0.0
 20
0.0
 30
0.0
  3
*D65
  1

  0
POINT
  5
586
330
591
100
AcDbEntity
  8
DEFPOINTS
  6
ByBlock
 62
     7
380
     1
100
AcDbPoint
 10
391.4041543027971
 20
210.9610592481091
 30
0.0
  0
POINT
  5
587
330
591
100
AcDbEntity
  8
DEFPOINTS
  6
ByBlock
 62
     7
380
     1
100
AcDbPoint
 10
427.4170182264178
 20
211.1273914573586
 30
0.0
  0
LINE
  5
588
330
591
100
AcDbEntity
  8
0
  6
ByBlock
 62
     7
370
    -2
380
     1
100
AcDbLine
 10
391.4041543027971
 20
211.5860592481091
 30
0.0
 11
391.4041543027971
 21
326.0166923469364
 31
0.0
  0
LINE
  5
589
330
591
100
AcDbEntity
  8
0
  6
ByBlock
 62
     7
370
    -2
380
     1
100
AcDbLine
 10
427.4170182264178
 20
211.7523914573586
 30
0.0
 11
427.4170182264178
 21
326.0166923469364
 31
0.0
  0
LINE
  5
58A
330
591
100
AcDbEntity
  8
0
  6
ByBlock
 62
     7
370
    -2
380
     1
100
AcDbLine
 10
437.4170182264178
 20
324.7666923469364
 30
0.0
 11
447.4170182264178
 21
324.7666923469364
 31
0.0
  0
LINE
  5
58B
330
591
100
AcDbEntity
  8
0
  6
ByBlock
 62
     7
370
    -2
380
     1
100
AcDbLine
 10
381.4041543027971
 20
324.7666923469364
 30
0.0
 11
348.0708209694638
 21
324.7666923469364
 31
0.0
  0
SOLID
  5
58C
330
591
100
AcDbEntity
  8
0
  6
ByBlock
 62
     7
380
     1
100
AcDbTrace
 10
391.4041543027971
 20
324.7666923469364
 30
0.0
 11
381.4041543027971
 21
323.1000256802697
 31
0.0
 12
381.4041543027971
 22
326.4333590136031
 32
0.0
 13
381.4041543027971
 23
326.4333590136031
 33
0.0
  0
SOLID
  5
58D
330
591
100
AcDbEntity
  8
0
  6
ByBlock
 62
     7
380
     1
100
AcDbTrace
 10
427.4170182264178
 20
324.7666923469364
 30
0.0
 11
437.4170182264178
 21
323.1000256802697
 31
0.0
 12
437.4170182264178
 22
326.4333590136031
 32
0.0
 13
437.4170182264178
 23
326.4333590136031
 33
0.0
  0
LINE
  5
58E
330
591
100
AcDbEntity
  8
0
  6
ByBlock
 62
     7
370
    -2
380
     1
100
AcDbLine
 10
391.4041543027971
 20
324.7666923469364
 30
0.0
 11
427.4170182264178
 21
324.7666923469364
 31
0.0
  0
MTEXT
  5
58F
330
591
100
AcDbEntity
  8
0
  6
ByBlock
 62
     0
370
    -2
380
     1
100
AcDbMText
 10
364.7374876361305
 20
336.7666923469364
 30
0.0
 40
14.0
 41
0.0
 71
     5
 72
     1
  1
36
 73
     1
 44
1.0
  0
ENDBLK
  5
619
330
591
100
AcDbEntity
  8
0
100
AcDbBlockEnd
  0
ENDSEC
  0
SECTION
  2
ENTITIES
  0
LINE
  5
32E
330
1F
100
AcDbEntity
  8
0
 62
     7
370
    60
100
AcDbLine
 10
391.4041543027971
 20
92.35461551502141
 30
0.0
 11
391.4041543027971
 21
294.3546075150214
 31
0.0
  0
LINE
  5
337
330
1F
100
AcDbEntity
  8
0
 62
     7
 48
0.225
370
    60
100
AcDbLine
 10
400.4041503027971
 20
92.35461551502141
 30
0.0
 11
391.4041543027971
 21
92.35461551502141
 31
0.0
  0
LINE
  5
338
330
1F
100
AcDbEntity
  8
0
 62
     7
 48
0.413774
370
    60
100
AcDbLine
 10
400.4041503027971
 20
294.3546075150214
 30
0.0
 11
416.9551063027971
 21
294.3546075150214
 31
0.0
  0
LINE
  5
339
330
1F
100
AcDbEntity
  8
0
 62
     7
 48
0.225
370
    60
100
AcDbLine
 10
400.4041503027971
 20
294.3546075150214
 30
0.0
 11
391.4041543027971
 21
294.3546075150214
 31
0.0
  0
LINE
  5
33A
330
1F
100
AcDbEntity
  8
0
 62
     7
 48
0.413774
370
    60
100
AcDbLine
 10
416.9551063027971
 20
92.35461551502141
 30
0.0
 11
400.4041503027971
 21
92.35461551502141
 31
0.0
  0
ARC
  5
33B
330
1F
100
AcDbEntity
  8
0
 62
     7
370
    60
100
AcDbCircle
 10
416.9551063027971
 20
97.35461551502141
 30
0.0
 40
5.0
100
AcDbArc
 50
269.999997
 51
353.476572
  0
ARC
  5
33C
330
1F
100
AcDbEntity
  8
0
 62
     7
370
    60
100
AcDbCircle
 10
-422.5739156972029
 20
193.3546155150214
 30
0.0
 40
850.0
100
AcDbArc
 50
353.476572
 51
6.523428
  0
ARC
  5
33D
330
1F
100
AcDbEntity
  8
0
 62
     7
370
    60
100
AcDbCircle
 10
416.9551063027971
 20
289.3546075150214
 30
0.0
 40
5.0
100
AcDbArc
 50
6.523428
 51
90.000003
  0
CIRCLE
  5
33E
330
1F
100
AcDbEntity
  8
0
 62
     7
370
    60
100
AcDbCircle
 10
405.6041543027971
 20
203.5631115150214
 30
0.0
 40
2.1
  0
CIRCLE
  5
33F
330
1F
100
AcDbEntity
  8
0
 62
     7
370
    60
100
AcDbCircle
 10
405.6041543027971
 20
183.5631115150214
 30
0.0
 40
2.1
  0
DIMENSION
  5
343
330
1F
100
AcDbEntity
  8
0
370
    25
100
AcDbDimension
  2
*D65
 10
427.4170182264178
 20
324.7666923469364
 30
0.0
 11
364.7374876361305
 21
336.7666923469364
 31
0.0
 70
   160
  1
36
 71
     5
 41
2.5
 42
36.01286392362067
  3
ISO-25
100
AcDbAlignedDimension
 13
391.4041543027971
 23
210.9610592481091
 33
0.0
 14
427.4170182264178
 24
211.1273914573586
 34
0.0
100
AcDbRotatedDimension
1001
ACAD
1000
DSTYLE
1002
{
1070
    41
1040
10.0
1070
   140
1040
14.0
1070
   147
1040
5.0
1070
   176
1070
     7
1070
   177
1070
     7
1002
}
  0
LINE
  5
38C
330
1F
100
AcDbEntity
  8
0
 62
     7
 48
0.110799
370
    60
100
AcDbLine
 10
206.0118233027971
 20
96.78656151502142
 30
0.0
 11
206.0118233027971
 21
92.35461551502141
 31
0.0
  0
LINE
  5
38D
330
1F
100
AcDbEntity
  8
0
 62
     7
370
    60
100
AcDbLine
 10
206.0118233027971
 20
289.9226585150214
 30
0.0
 11
206.0118233027971
 21
96.78656151502142
 31
0.0
  0
LINE
  5
38E
330
1F
100
AcDbEntity
  8
0
 62
     7
 48
0.110799
370
    60
100
AcDbLine
 10
206.0118233027971
 20
294.3546075150214
 30
0.0
 11
206.0118233027971
 21
289.9226585150214
 31
0.0
  0
ARC
  5
399
330
1F
100
AcDbEntity
  8
0
 62
     7
370
    60
100
AcDbCircle
 10
207.4822379710623
 20
294.3254408109151
 30
0.0
 40
1.470703908389254
100
AcDbArc
 50
92.74504547473535
 51
178.8636518889634
  0
ARC
  5
39A
330
1F
100
AcDbEntity
  8
0
 62
     7
370
    60
100
AcDbCircle
 10
207.4118233027971
 20
92.35461551502141
 30
0.0
 40
1.4
100
AcDbArc
 50
180.000005
 51
269.999997
  0
ARC
  5
3A2
330
1F
100
AcDbEntity
  8
0
 62
     7
370
    60
100
AcDbCircle
 10
167.4118233027971
 20
92.35461551502141
 30
0.0
 40
1.4
100
AcDbArc
 50
180.000005
 51
269.999997
  0
LINE
  5
3A3
330
1F
100
AcDbEntity
  8
0
 62
     7
 48
0.110799
370
    60
100
AcDbLine
 10
166.0118213027971
 20
96.78656151502142
 30
0.0
 11
166.0118213027971
 21
92.35461551502141
 31
0.0
  0
LINE
  5
3A4
330
1F
100
AcDbEntity
  8
0
 62
     7
370
    60
100
AcDbLine
 10
166.0118213027971
 20
289.9226585150214
 30
0.0
 11
166.0118213027971
 21
96.78656151502142
 31
0.0
  0
LINE
  5
3A5
330
1F
100
AcDbEntity
  8
0
 62
     7
 48
0.110799
370
    60
100
AcDbLine
 10
166.0118213027971
 20
294.3546075150214
 30
0.0
 11
166.0118213027971
 21
289.9226585150214
 31
0.0
  0
LINE
  5
3AC
330
1F
100
AcDbEntity
  8
0
 62
     7
 48
0.34
370
    60
100
AcDbLine
 10
141.0118253027971
 20
90.9546065150214
 30
0.0
 11
127.4118193027971
 21
90.9546065150214
 31
0.0
  0
ARC
  5
3AD
330
1F
100
AcDbEntity
  8
0
 62
     7
370
    60
100
AcDbCircle
 10
127.4118193027971
 20
92.35461551502141
 30
0.0
 40
1.4
100
AcDbArc
 50
180.000005
 51
269.999997
  0
LINE
  5
3AE
330
1F
100
AcDbEntity
  8
0
 62
     7
 48
0.110799
370
    60
100
AcDbLine
 10
126.0118253027971
 20
96.78656151502142
 30
0.0
 11
126.0118253027971
 21
92.35461551502141
 31
0.0
  0
LINE
  5
3AF
330
1F
100
AcDbEntity
  8
0
 62
     7
370
    60
100
AcDbLine
 10
126.0118253027971
 20
289.9226585150214
 30
0.0
 11
126.0118253027971
 21
96.78656151502142
 31
0.0
  0
LINE
  5
3B0
330
1F
100
AcDbEntity
  8
0
 62
     7
 48
0.110799
370
    60
100
AcDbLine
 10
126.0118253027971
 20
294.3546075150214
 30
0.0
 11
126.0118253027971
 21
289.9226585150214
 31
0.0
  0
LINE
  5
3B3
330
1F
100
AcDbEntity
  8
0
 62
     7
 48
0.34
370
    60
100
AcDbLine
 10
221.0118233027971
 20
90.9546065150214
 30
0.0
 11
207.4118233027971
 21
90.9546065150214
 31
0.0
  0
ARC
  5
3B7
330
1F
100
AcDbEntity
  8
0
 62
     7
370
    60
100
AcDbCircle
 10
127.4118193027971
 20
294.3546075150214
 30
0.0
 40
1.4
100
AcDbArc
 50
90.000003
 51
180.000005
  0
ARC
  5
3BC
330
1F
100
AcDbEntity
  8
0
 62
     7
370
    60
100
AcDbCircle
 10
167.4464277856455
 20
294.3402738720908
 30
0.0
 40
1.43467608609966
100
AcDbArc
 50
91.3825114680603
 51
179.4275614434532
  0
LINE
  5
3C9
330
1F
100
AcDbEntity
  8
0
 62
     7
 48
0.110799
370
    60
100
AcDbLine
 10
247.0118233027971
 20
294.3546075150214
 30
0.0
 11
247.0118233027971
 21
289.9226585150214
 31
0.0
  0
LINE
  5
3CA
330
1F
100
AcDbEntity
  8
0
 62
     7
370
    60
100
AcDbLine
 10
247.0118233027971
 20
289.9226585150214
 30
0.0
 11
247.0118233027971
 21
96.78656151502142
 31
0.0
  0
LINE
  5
3CB
330
1F
100
AcDbEntity
  8
0
 62
     7
 48
0.110799
370
    60
100
AcDbLine
 10
247.0118233027971
 20
96.78656151502142
 30
0.0
 11
247.0118233027971
 21
92.35461551502141
 31
0.0
  0
ARC
  5
3D0
330
1F
100
AcDbEntity
  8
0
 62
     7
370
    60
100
AcDbCircle
 10
245.5110023574096
 20
294.3128465247381
 30
0.0
 40
1.501400842141175
100
AcDbArc
 50
1.593869576246106
 51
88.14357585110874
  0
ARC
  5
3D1
330
1F
100
AcDbEntity
  8
0
 62
     7
370
    60
100
AcDbCircle
 10
245.6118223027971
 20
92.35461551502141
 30
0.0
 40
1.4
100
AcDbArc
 50
269.999997
 51
0.0
  0
ARC
  5
3DE
330
1F
100
AcDbEntity
  8
0
 62
     7
370
    60
100
AcDbCircle
 10
325.5889409945619
 20
294.3539484537326
 30
0.0
 40
1.422883460869575
100
AcDbArc
 50
0.026538667909121
 51
100.1401898463749
  0
LINE
  5
3E6
330
1F
100
AcDbEntity
  8
0
 62
     7
 48
0.110799
370
    60
100
AcDbLine
 10
287.0118213027971
 20
294.3546075150214
 30
0.0
 11
287.0118213027971
 21
289.9226585150214
 31
0.0
  0
LINE
  5
3E7
330
1F
100
AcDbEntity
  8
0
 62
     7
370
    60
100
AcDbLine
 10
287.0118213027971
 20
289.9226585150214
 30
0.0
 11
287.0118243027971
 21
92.35461551502141
 31
0.0
  0
ARC
  5
3E9
330
1F
100
AcDbEntity
  8
0
 62
     7
370
    60
100
AcDbCircle
 10
285.4790884766718
 20
294.2996265335919
 30
0.0
 40
1.533721624352602
100
AcDbArc
 50
2.054384079674286
 51
89.89264532282479
  0
LINE
  5
3F1
330
1F
100
AcDbEntity
  8
0
 62
     7
 48
0.110799
370
    60
100
AcDbLine
 10
327.0118253027971
 20
294.3546075150214
 30
0.0
 11
327.0118253027971
 21
289.9226585150214
 31
0.0
  0
LINE
  5
3F2
330
1F
100
AcDbEntity
  8
0
 62
     7
370
    60
100
AcDbLine
 10
327.0118253027971
 20
289.9226585150214
 30
0.0
 11
327.0118253027971
 21
96.78656151502142
 31
0.0
  0
LINE
  5
3F3
330
1F
100
AcDbEntity
  8
0
 62
     7
 48
0.110799
370
    60
100
AcDbLine
 10
327.0118253027971
 20
96.78656151502142
 30
0.0
 11
327.0118253027971
 21
92.35461551502141
 31
0.0
  0
LINE
  5
3F7
330
1F
100
AcDbEntity
  8
0
 62
     7
 48
0.34
370
    60
100
AcDbLine
 10
285.6118243027971
 20
90.9546065150214
 30
0.0
 11
272.0118213027971
 21
90.9546065150214
 31
0.0
  0
ARC
  5
3F8
330
1F
100
AcDbEntity
  8
0
 62
     7
370
    60
100
AcDbCircle
 10
285.6118243027971
 20
92.35461551502141
 30
0.0
 40
1.4
100
AcDbArc
 50
269.999997
 51
0.0
  0
LINE
  5
3FC
330
1F
100
AcDbEntity
  8
0
 62
     7
 48
0.34
370
    60
100
AcDbLine
 10
325.6118243027971
 20
90.9546065150214
 30
0.0
 11
312.0118253027971
 21
90.9546065150214
 31
0.0
  0
ARC
  5
3FD
330
1F
100
AcDbEntity
  8
0
 62
     7
370
    60
100
AcDbCircle
 10
325.6118243027971
 20
92.35461551502141
 30
0.0
 40
1.4
100
AcDbArc
 50
269.999997
 51
0.0
  0
LINE
  5
40A
330
1F
100
AcDbEntity
  8
0
 62
     7
370
    60
100
AcDbLine
 10
166.0118213027971
 20
95.85443251502141
 30
0.0
 11
126.0118253027971
 21
95.85443251502141
 31
0.0
  0
LINE
  5
40B
330
1F
100
AcDbEntity
  8
0
 62
     7
370
    60
100
AcDbLine
 10
206.0118233027971
 20
95.85443251502141
 30
0.0
 11
165.2655283032757
 21
95.85443251502141
 31
0.0
  0
LINE
  5
40C
330
1F
100
AcDbEntity
  8
0
 62
     7
370
    60
100
AcDbLine
 10
248.9078970973633
 20
95.85443251502141
 30
0.0
 11
193.6802774998696
 21
95.85443251502141
 31
0.0
  0
LINE
  5
40D
330
1F
100
AcDbEntity
  8
0
 62
     7
370
    60
100
AcDbLine
 10
286.0118213027971
 20
95.85443251502141
 30
0.0
 11
247.0118233027971
 21
95.85443251502141
 31
0.0
  0
LINE
  5
40E
330
1F
100
AcDbEntity
  8
0
 62
     7
370
    60
100
AcDbLine
 10
327.0118253027971
 20
95.85443251502141
 30
0.0
 11
286.0118213027971
 21
95.85443251502141
 31
0.0
  0
LINE
  5
413
330
1F
100
AcDbEntity
  8
0
 62
     7
370
    60
100
AcDbLine
 10
312.0118253027971
 20
90.9546065150214
 30
0.0
 11
127.4118192294933
 21
90.95461551502142
 31
0.0
  0
LINE
  5
414
330
1F
100
AcDbEntity
  8
0
 62
     7
370
    60
100
AcDbLine
 10
251.4974607391804
 20
290.8547795150214
 30
0.0
 11
126.0118253027971
 21
290.8547795150214
 31
0.0
  0
LINE
  5
417
330
1F
100
AcDbEntity
  8
0
 62
     7
370
    60
100
AcDbLine
 10
287.9078839161493
 20
290.8547795150214
 30
0.0
 11
247.0118233027971
 21
290.8547795150214
 31
0.0
  0
LINE
  5
418
330
1F
100
AcDbEntity
  8
0
 62
     7
370
    60
100
AcDbLine
 10
327.0118253027971
 20
290.8547795150214
 30
0.0
 11
287.0118213027971
 21
290.8547795150214
 31
0.0
  0
DIMENSION
  5
41B
330
1F
100
AcDbEntity
  8
0
370
    25
100
AcDbDimension
  2
*D62
 10
327.0118253027971
 20
324.1419426148042
 30
0.0
 11
226.5118253027971
 21
336.1419426148042
 31
0.0
 70
    32
  1
206
 71
     5
 41
2.5
 42
201.0
  3
ISO-25
100
AcDbAlignedDimension
 13
126.0118253027971
 23
235.3958246399806
 33
0.0
 14
327.0118253027971
 24
235.3958246399806
 34
0.0
100
AcDbRotatedDimension
1001
ACAD
1000
DSTYLE
1002
{
1070
    41
1040
10.0
1070
   140
1040
14.0
1070
   147
1040
5.0
1070
   176
1070
     7
1070
   177
1070
     7
1002
}
  0
POINT
  5
449
330
1F
100
AcDbEntity
  8
0
370
    60
100
AcDbPoint
 10
127.3970212415375
 20
295.8563908603389
 30
0.0
  0
POINT
  5
44A
330
1F
100
AcDbEntity
  8
0
370
    60
100
AcDbPoint
 10
156.8709624748512
 20
90.95461407876854
 30
0.0
  0
LINE
  5
451
330
1F
100
AcDbEntity
  8
0
370
    60
100
AcDbLine
 10
127.4100303136576
 20
295.7546063719916
 30
0.0
 11
131.0830529055276
 21
295.7546063719916
 31
0.0
  0
LINE
  5
452
330
1F
100
AcDbEntity
  8
0
370
    60
100
AcDbLine
 10
131.0830529055276
 20
295.7546063719916
 30
0.0
 11
148.8977735712049
 21
295.7546063719916
 31
0.0
  0
LINE
  5
453
330
1F
100
AcDbEntity
  8
0
370
    60
100
AcDbLine
 10
148.8977735712049
 20
295.7546063719916
 30
0.0
 11
252.8080210682893
 21
295.7546063719916
 31
0.0
  0
LINE
  5
454
330
1F
100
AcDbEntity
  8
0
370
    60
100
AcDbLine
 10
252.8080210682893
 20
295.7546063719916
 30
0.0
 11
325.3384320341742
 21
295.7546063719916
 31
0.0
  0
DIMENSION
  5
463
330
1F
100
AcDbEntity
  8
0
370
    25
100
AcDbDimension
  2
*D63
 10
103.8581622498441
 20
90.95460651502141
 30
0.0
 11
91.8581622498441
 21
193.3546064435065
 31
0.0
 70
    32
  1
206
 71
     5
 41
2.5
 42
204.7999998569702
  3
ISO-25
100
AcDbAlignedDimension
 13
139.9904132383662
 23
295.7546063719916
 33
0.0
 14
141.0118253027971
 24
90.9546065150214
 34
0.0
 50
90.0
100
AcDbRotatedDimension
1001
ACAD
1000
DSTYLE
1002
{
1070
    41
1040
10.0
1070
   140
1040
14.0
1070
   147
1040
5.0
1070
   176
1070
     7
1070
   177
1070
     7
1002
}
  0
VIEWPORT
  5
BB
330
73
100
AcDbEntity
 67
     1
  8
0
100
AcDbViewport
 10
7.8
 20
4.5
 30
0.0
 40
15.64
 41
9.0
 68
     1
 69
     1
 12
6.0
 22
4.5
 13
0.0
 23
0.0
 14
0.5
 24
0.5
 15
0.5
 25
0.5
 16
0.0
 26
0.0
 36
1.0
 17
0.0
 27
0.0
 37
0.0
 42
50.0
 43
0.0
 44
0.0
 45
12.0
 50
0.0
 51
0.0
 72
   100
 90
   557152
  1

281
     0
 71
     1
 74
     0
110
0.0
120
0.0
130
0.0
111
1.0
121
0.0
131
0.0
112
0.0
122
1.0
132
0.0
 79
     0
146
0.0
  0
ENDSEC
  0
SECTION
  2
OBJECTS
  0
DICTIONARY
  5
C
330
0
100
AcDbDictionary
281
     1
  3
ACAD_COLOR
350
6C
  3
ACAD_GROUP
350
D
  3
ACAD_LAYOUT
350
1A
  3
ACAD_MATERIAL
350
6B
  3
ACAD_MLEADERSTYLE
350
570
  3
ACAD_MLINESTYLE
350
17
  3
ACAD_PLOTSETTINGS
350
19
  3
ACAD_PLOTSTYLENAME
350
E
  3
ACAD_SCALELIST
350
99
  3
ACAD_TABLESTYLE
350
92
  3
ACDBHEADERROUNDTRIPXREC
350
61A
  3
AcDbVariableDictionary
350
59
  3
DWGPROPS
350
61D
  0
DICTIONARY
  5
6C
102
{ACAD_REACTORS
330
C
102
}
330
C
100
AcDbDictionary
281
     1
  0
DICTIONARY
  5
D
102
{ACAD_REACTORS
330
C
102
}
330
C
100
AcDbDictionary
281
     1
  0
DICTIONARY
  5
1A
102
{ACAD_REACTORS
330
C
102
}
330
C
100
AcDbDictionary
281
     1
  3
Layout1
350
74
  3
Layout2
350
4EE
  3
Model
350
22
  0
DICTIONARY
  5
6B
102
{ACAD_REACTORS
330
C
102
}
330
C
100
AcDbDictionary
281
     1
  0
DICTIONARY
  5
570
102
{ACAD_REACTORS
330
C
102
}
330
C
100
AcDbDictionary
281
     1
  0
DICTIONARY
  5
17
102
{ACAD_REACTORS
330
C
102
}
330
C
100
AcDbDictionary
281
     1
  3
Standard
350
18
  0
DICTIONARY
  5
19
102
{ACAD_REACTORS
330
C
102
}
330
C
100
AcDbDictionary
281
     1
  0
ACDBDICTIONARYWDFLT
  5
E
102
{ACAD_REACTORS
330
C
102
}
330
C
100
AcDbDictionary
281
     1
  3
Normal
350
F
100
AcDbDictionaryWithDefault
340
F
  0
DICTIONARY
  5
99
102
{ACAD_REACTORS
330
C
102
}
330
C
100
AcDbDictionary
281
     1
  3
A0
350
D5
  3
A1
350
D6
  3
A2
350
D7
  3
A3
350
D8
  3
A4
350
D9
  3
A5
350
DA
  3
A6
350
DB
  3
A7
350
DC
  3
A8
350
DD
  3
A9
350
DE
  3
B0
350
DF
  3
B1
350
E0
  3
B2
350
E1
  3
B3
350
E2
  3
B4
350
E3
  3
B5
350
E4
  3
B6
350
E5
  3
B7
350
E6
  3
B8
350
E7
  3
B9
350
E8
  3
C0
350
E9
  3
C1
350
EA
  3
C2
350
EB
  3
C3
350
EC
  3
C4
350
ED
  3
C5
350
EE
  3
C6
350
EF
  3
C7
350
F0
  3
C8
350
F1
  3
C9
350
F2
  3
D0
350
F3
  3
D1
350
F4
  3
D2
350
F5
  0
DICTIONARY
  5
92
102
{ACAD_REACTORS
330
C
102
}
330
C
100
AcDbDictionary
281
     1
  0
DICTIONARY
  5
61A
102
{ACAD_REACTORS
330
C
102
}
330
C
100
AcDbDictionary
281
     1
  3
COLORDICT
350
61B
  3
MATERIALDICT
350
61C
  0
DICTIONARY
  5
59
102
{ACAD_REACTORS
330
C
102
}
330
C
100
AcDbDictionary
281
     1
  3
CTABLESTYLE
350
98
  3
DIMASSOC
350
5A
  3
HIDETEXT
350
5E
  0
XRECORD
  5
61D
102
{ACAD_REACTORS
330
C
102
}
330
C
100
AcDbXrecord
280
     1
  1
DWGPROPS COOKIE
  2

  3

  4

  6

  7

  8
BelottiMc
  9

300
=
301
=
302
=
303
=
304
=
305
=
306
=
307
=
308
=
309
=
 40
0.0
 41
2455089.587369849
 42
2455089.629036516
  1

 90
        0
  0
LAYOUT
  5
74
330
1A
100
AcDbPlotSettings
  1

  2
ProgeSOFT PDF Wizard
  4
A4
  6

 40
5.926666666666667
 41
6.011333333333317
 42
6.095999999999985
 43
5.926666666666667
 44
210.0
 45
297.0
 46
88.56200000000001
 47
136.531
 48
0.0
 49
0.0
140
0.0
141
0.0
142
1.0
143
1.0
 70
   692
 72
     1
 73
     0
 74
     0
  7

 75
    16
147
1.0
148
4.426666666666668
149
1.5
100
AcDbLayout
  1
Layout1
 70
     1
 71
     1
 10
0.0
 20
0.0
 11
0.0
 21
0.0
 12
0.0
 22
0.0
 32
0.0
 14
0.0
 24
0.0
 34
0.0
 15
0.0
 25
0.0
 35
0.0
146
0.0
 13
0.0
 23
0.0
 33
0.0
 16
1.0
 26
0.0
 36
0.0
 17
0.0
 27
1.0
 37
0.0
 76
     0
330
D1
331
56F
1001
PROGE_PRINT_SETTINGS
1070
    73
1070
     1
  0
LAYOUT
  5
4EE
102
{ACAD_REACTORS
330
1A
102
}
330
1A
100
AcDbPlotSettings
  1

  2
ProgeSOFT PDF Wizard
  4
A4
  6

 40
5.926666666666667
 41
6.011333333333317
 42
6.095999999999985
 43
5.926666666666667
 44
210.0
 45
297.0
 46
88.562
 47
136.531
 48
0.0
 49
0.0
140
0.0
141
0.0
142
1.0
143
1.0
 70
   692
 72
     1
 73
     0
 74
     0
  7

 75
    16
147
1.0
148
0.0
149
0.0
100
AcDbLayout
  1
Layout2
 70
     1
 71
     2
 10
0.0
 20
0.0
 11
12.0
 21
9.0
 12
0.0
 22
0.0
 32
0.0
 14
0.0
 24
0.0
 34
0.0
 15
12.0
 25
9.0
 35
0.0
146
0.0
 13
0.0
 23
0.0
 33
0.0
 16
1.0
 26
0.0
 36
0.0
 17
0.0
 27
1.0
 37
0.0
 76
     0
330
73
331
BB
1001
PROGE_PRINT_SETTINGS
1070
    73
1070
     1
  0
LAYOUT
  5
22
330
1A
100
AcDbPlotSettings
  1

  2
ProgeSOFT PDF Wizard
  4
A4
  6

 40
5.926666666666667
 41
6.011333333333317
 42
6.095999999999985
 43
5.926666666666667
 44
210.0
 45
297.0
 46
13.3755970726319
 47
0.0000000000000086
 48
0.0
 49
0.0
140
0.0
141
0.0
142
1.0
143
2.566023069707061
 70
 11956
 72
     1
 73
     1
 74
     0
  7

 75
     0
147
0.3897081097225524
148
38.57250766741379
149
17.89270468107435
100
AcDbLayout
  1
Model
 70
     1
 71
     0
 10
0.0
 20
0.0
 11
0.0
 21
0.0
 12
0.0
 22
0.0
 32
0.0
 14
84.8581622498441
 24
90.9546065150214
 34
0.0
 15
447.4170182264178
 25
343.7666923469364
 35
0.0
146
0.0
 13
0.0
 23
0.0
 33
0.0
 16
1.0
 26
0.0
 36
0.0
 17
0.0
 27
1.0
 37
0.0
 76
     0
330
1F
331
97
  0
MLINESTYLE
  5
18
102
{ACAD_REACTORS
330
17
102
}
330
17
100
AcDbMlineStyle
  2
STANDARD
 70
     0
  3

 62
   256
 51
90.0
 52
90.0
 71
     2
 49
0.5
 62
   256
  6
BYLAYER
 49
-0.5
 62
   256
  6
BYLAYER
  0
ACDBPLACEHOLDER
  5
F
102
{ACAD_REACTORS
330
E
102
}
330
E
  0
SCALE
  5
D5
102
{ACAD_REACTORS
330
99
102
}
330
99
100
AcDbScale
 70
     0
300
1:1
140
1.0
141
1.0
290
     1
  0
SCALE
  5
D6
102
{ACAD_REACTORS
330
99
102
}
330
99
100
AcDbScale
 70
     0
300
1:2
140
1.0
141
2.0
290
     0
  0
SCALE
  5
D7
102
{ACAD_REACTORS
330
99
102
}
330
99
100
AcDbScale
 70
     0
300
1:4
140
1.0
141
4.0
290
     0
  0
SCALE
  5
D8
102
{ACAD_REACTORS
330
99
102
}
330
99
100
AcDbScale
 70
     0
300
1:5
140
1.0
141
5.0
290
     0
  0
SCALE
  5
D9
102
{ACAD_REACTORS
330
99
102
}
330
99
100
AcDbScale
 70
     0
300
1:8
140
1.0
141
8.0
290
     0
  0
SCALE
  5
DA
102
{ACAD_REACTORS
330
99
102
}
330
99
100
AcDbScale
 70
     0
300
1:10
140
1.0
141
10.0
290
     0
  0
SCALE
  5
DB
102
{ACAD_REACTORS
330
99
102
}
330
99
100
AcDbScale
 70
     0
300
1:16
140
1.0
141
16.0
290
     0
  0
SCALE
  5
DC
102
{ACAD_REACTORS
330
99
102
}
330
99
100
AcDbScale
 70
     0
300
1:20
140
1.0
141
20.0
290
     0
  0
SCALE
  5
DD
102
{ACAD_REACTORS
330
99
102
}
330
99
100
AcDbScale
 70
     0
300
1:30
140
1.0
141
30.0
290
     0
  0
SCALE
  5
DE
102
{ACAD_REACTORS
330
99
102
}
330
99
100
AcDbScale
 70
     0
300
1:40
140
1.0
141
40.0
290
     0
  0
SCALE
  5
DF
102
{ACAD_REACTORS
330
99
102
}
330
99
100
AcDbScale
 70
     0
300
1:50
140
1.0
141
50.0
290
     0
  0
SCALE
  5
E0
102
{ACAD_REACTORS
330
99
102
}
330
99
100
AcDbScale
 70
     0
300
1:100
140
1.0
141
100.0
290
     0
  0
SCALE
  5
E1
102
{ACAD_REACTORS
330
99
102
}
330
99
100
AcDbScale
 70
     0
300
2:1
140
2.0
141
1.0
290
     0
  0
SCALE
  5
E2
102
{ACAD_REACTORS
330
99
102
}
330
99
100
AcDbScale
 70
     0
300
4:1
140
4.0
141
1.0
290
     0
  0
SCALE
  5
E3
102
{ACAD_REACTORS
330
99
102
}
330
99
100
AcDbScale
 70
     0
300
8:1
140
8.0
141
1.0
290
     0
  0
SCALE
  5
E4
102
{ACAD_REACTORS
330
99
102
}
330
99
100
AcDbScale
 70
     0
300
10:1
140
10.0
141
1.0
290
     0
  0
SCALE
  5
E5
102
{ACAD_REACTORS
330
99
102
}
330
99
100
AcDbScale
 70
     0
300
100:1
140
100.0
141
1.0
290
     0
  0
SCALE
  5
E6
102
{ACAD_REACTORS
330
99
102
}
330
99
100
AcDbScale
 70
     0
300
1/128" = 1'-0"
140
0.0078125
141
12.0
290
     0
  0
SCALE
  5
E7
102
{ACAD_REACTORS
330
99
102
}
330
99
100
AcDbScale
 70
     0
300
1/64" = 1'-0"
140
0.015625
141
12.0
290
     0
  0
SCALE
  5
E8
102
{ACAD_REACTORS
330
99
102
}
330
99
100
AcDbScale
 70
     0
300
1/32" = 1'-0"
140
0.03125
141
12.0
290
     0
  0
SCALE
  5
E9
102
{ACAD_REACTORS
330
99
102
}
330
99
100
AcDbScale
 70
     0
300
1/16" = 1'-0"
140
0.0625
141
12.0
290
     0
  0
SCALE
  5
EA
102
{ACAD_REACTORS
330
99
102
}
330
99
100
AcDbScale
 70
     0
300
3/32" = 1'-0"
140
0.09375
141
12.0
290
     0
  0
SCALE
  5
EB
102
{ACAD_REACTORS
330
99
102
}
330
99
100
AcDbScale
 70
     0
300
1/8" = 1'-0"
140
0.125
141
12.0
290
     0
  0
SCALE
  5
EC
102
{ACAD_REACTORS
330
99
102
}
330
99
100
AcDbScale
 70
     0
300
3/16" = 1'-0"
140
0.1875
141
12.0
290
     0
  0
SCALE
  5
ED
102
{ACAD_REACTORS
330
99
102
}
330
99
100
AcDbScale
 70
     0
300
1/4" = 1'-0"
140
0.25
141
12.0
290
     0
  0
SCALE
  5
EE
102
{ACAD_REACTORS
330
99
102
}
330
99
100
AcDbScale
 70
     0
300
3/8" = 1'-0"
140
0.375
141
12.0
290
     0
  0
SCALE
  5
EF
102
{ACAD_REACTORS
330
99
102
}
330
99
100
AcDbScale
 70
     0
300
1/2" = 1'-0"
140
0.5
141
12.0
290
     0
  0
SCALE
  5
F0
102
{ACAD_REACTORS
330
99
102
}
330
99
100
AcDbScale
 70
     0
300
3/4" = 1'-0"
140
0.75
141
12.0
290
     0
  0
SCALE
  5
F1
102
{ACAD_REACTORS
330
99
102
}
330
99
100
AcDbScale
 70
     0
300
1" = 1'-0"
140
1.0
141
12.0
290
     0
  0
SCALE
  5
F2
102
{ACAD_REACTORS
330
99
102
}
330
99
100
AcDbScale
 70
     0
300
1-1/2" = 1'-0"
140
1.5
141
12.0
290
     0
  0
SCALE
  5
F3
102
{ACAD_REACTORS
330
99
102
}
330
99
100
AcDbScale
 70
     0
300
3" = 1'-0"
140
3.0
141
12.0
290
     0
  0
SCALE
  5
F4
102
{ACAD_REACTORS
330
99
102
}
330
99
100
AcDbScale
 70
     0
300
6" = 1'-0"
140
6.0
141
12.0
290
     0
  0
SCALE
  5
F5
102
{ACAD_REACTORS
330
99
102
}
330
99
100
AcDbScale
 70
     0
300
1'-0" = 1'-0"
140
12.0
141
12.0
290
     0
  0
XRECORD
  5
61B
102
{ACAD_REACTORS
330
61A
102
}
330
61A
100
AcDbXrecord
280
     1
340
6C
  0
XRECORD
  5
61C
102
{ACAD_REACTORS
330
61A
102
}
330
61A
100
AcDbXrecord
280
     1
340
6B
  0
DICTIONARYVAR
  5
98
102
{ACAD_REACTORS
330
59
102
}
330
59
100
DictionaryVariables
280
     0
  1
Standard
  0
DICTIONARYVAR
  5
5A
102
{ACAD_REACTORS
330
59
102
}
330
59
100
DictionaryVariables
280
     0
  1
2
  0
DICTIONARYVAR
  5
5E
102
{ACAD_REACTORS
330
59
102
}
330
59
100
DictionaryVariables
280
     0
  1
1
  0
ENDSEC
  0
EOF
