  0
SECTION
  2
HEADER
  9
$ACADVER
  1
AC1015
  9
$ACADMAINTVER
 70
     6
  9
$DWGCODEPAGE
  3
ANSI_1252
  9
$INSBASE
 10
0.0
 20
0.0
 30
0.0
  9
$EXTMIN
 10
93.3583546770594
 20
41.00214592274676
 30
0.0
  9
$EXTMAX
 10
612.2431932173448
 20
289.6423027201232
 30
0.0
  9
$LIMMIN
 10
0.0
 20
0.0
  9
$LIMMAX
 10
0.0
 20
0.0
  9
$ORTHOMODE
 70
     0
  9
$REGENMODE
 70
     1
  9
$FILLMODE
 70
     1
  9
$QTEXTMODE
 70
     0
  9
$MIRRTEXT
 70
     0
  9
$LTSCALE
 40
1.0
  9
$ATTMODE
 70
     1
  9
$TEXTSIZE
 40
2.5
  9
$TRACEWID
 40
1.0
  9
$TEXTSTYLE
  7
Standard
  9
$CLAYER
  8
0
  9
$CELTYPE
  6
ByLayer
  9
$CECOLOR
 62
   256
  9
$CELTSCALE
 40
1.0
  9
$DISPSILH
 70
     0
  9
$DIMSCALE
 40
1.0
  9
$DIMASZ
 40
2.5
  9
$DIMEXO
 40
0.625
  9
$DIMDLI
 40
3.75
  9
$DIMRND
 40
0.0
  9
$DIMDLE
 40
0.0
  9
$DIMEXE
 40
1.25
  9
$DIMTP
 40
0.0
  9
$DIMTM
 40
0.0
  9
$DIMTXT
 40
2.5
  9
$DIMCEN
 40
2.5
  9
$DIMTSZ
 40
0.0
  9
$DIMTOL
 70
     0
  9
$DIMLIM
 70
     0
  9
$DIMTIH
 70
     0
  9
$DIMTOH
 70
     0
  9
$DIMSE1
 70
     0
  9
$DIMSE2
 70
     0
  9
$DIMTAD
 70
     1
  9
$DIMZIN
 70
     8
  9
$DIMBLK
  1

  9
$DIMASO
 70
     1
  9
$DIMSHO
 70
     1
  9
$DIMPOST
  1

  9
$DIMAPOST
  1

  9
$DIMALT
 70
     0
  9
$DIMALTD
 70
     3
  9
$DIMALTF
 40
0.03937007874016
  9
$DIMLFAC
 40
1.0
  9
$DIMTOFL
 70
     1
  9
$DIMTVP
 40
0.0
  9
$DIMTIX
 70
     0
  9
$DIMSOXD
 70
     0
  9
$DIMSAH
 70
     0
  9
$DIMBLK1
  1

  9
$DIMBLK2
  1

  9
$DIMSTYLE
  2
ISO-25
  9
$DIMCLRD
 70
     0
  9
$DIMCLRE
 70
     0
  9
$DIMCLRT
 70
     0
  9
$DIMTFAC
 40
1.0
  9
$DIMGAP
 40
0.625
  9
$DIMJUST
 70
     0
  9
$DIMSD1
 70
     0
  9
$DIMSD2
 70
     0
  9
$DIMTOLJ
 70
     0
  9
$DIMTZIN
 70
     8
  9
$DIMALTZ
 70
     0
  9
$DIMALTTZ
 70
     0
  9
$DIMUPT
 70
     0
  9
$DIMDEC
 70
     2
  9
$DIMTDEC
 70
     2
  9
$DIMALTU
 70
     2
  9
$DIMALTTD
 70
     3
  9
$DIMTXSTY
  7
Standard
  9
$DIMAUNIT
 70
     0
  9
$DIMADEC
 70
     0
  9
$DIMALTRND
 40
0.0
  9
$DIMAZIN
 70
     0
  9
$DIMDSEP
 70
    44
  9
$DIMATFIT
 70
     3
  9
$DIMFRAC
 70
     0
  9
$DIMLDRBLK
  1

  9
$DIMLUNIT
 70
     2
  9
$DIMLWD
 70
    -2
  9
$DIMLWE
 70
    -2
  9
$DIMTMOVE
 70
     0
  9
$LUNITS
 70
     2
  9
$LUPREC
 70
     4
  9
$SKETCHINC
 40
1.0
  9
$FILLETRAD
 40
0.0
  9
$AUNITS
 70
     0
  9
$AUPREC
 70
     0
  9
$MENU
  1
.
  9
$ELEVATION
 40
0.0
  9
$PELEVATION
 40
0.0
  9
$THICKNESS
 40
0.0
  9
$LIMCHECK
 70
     0
  9
$CHAMFERA
 40
0.0
  9
$CHAMFERB
 40
0.0
  9
$CHAMFERC
 40
0.0
  9
$CHAMFERD
 40
0.0
  9
$SKPOLY
 70
     0
  9
$TDCREATE
 40
2455089.62420132
  9
$TDUCREATE
 40
2455089.540867986
  9
$TDUPDATE
 40
2455089.671186285
  9
$TDUUPDATE
 40
2455089.587852952
  9
$TDINDWG
 40
0.0429562153
  9
$TDUSRTIMER
 40
0.0429538773
  9
$USRTIMER
 70
     1
  9
$ANGBASE
 50
0.0
  9
$ANGDIR
 70
     0
  9
$PDMODE
 70
     0
  9
$PDSIZE
 40
0.0
  9
$PLINEWID
 40
0.0
  9
$SPLFRAME
 70
     0
  9
$SPLINETYPE
 70
     6
  9
$SPLINESEGS
 70
     8
  9
$HANDSEED
  5
3B2
  9
$SURFTAB1
 70
     6
  9
$SURFTAB2
 70
     6
  9
$SURFTYPE
 70
     6
  9
$SURFU
 70
     6
  9
$SURFV
 70
     6
  9
$UCSBASE
  2

  9
$UCSNAME
  2

  9
$UCSORG
 10
0.0
 20
0.0
 30
0.0
  9
$UCSXDIR
 10
1.0
 20
0.0
 30
0.0
  9
$UCSYDIR
 10
0.0
 20
1.0
 30
0.0
  9
$UCSORTHOREF
  2

  9
$UCSORTHOVIEW
 70
     0
  9
$UCSORGTOP
 10
0.0
 20
0.0
 30
0.0
  9
$UCSORGBOTTOM
 10
0.0
 20
0.0
 30
0.0
  9
$UCSORGLEFT
 10
0.0
 20
0.0
 30
0.0
  9
$UCSORGRIGHT
 10
0.0
 20
0.0
 30
0.0
  9
$UCSORGFRONT
 10
0.0
 20
0.0
 30
0.0
  9
$UCSORGBACK
 10
0.0
 20
0.0
 30
0.0
  9
$PUCSBASE
  2

  9
$PUCSNAME
  2

  9
$PUCSORG
 10
0.0
 20
0.0
 30
0.0
  9
$PUCSXDIR
 10
1.0
 20
0.0
 30
0.0
  9
$PUCSYDIR
 10
0.0
 20
1.0
 30
0.0
  9
$PUCSORTHOREF
  2

  9
$PUCSORTHOVIEW
 70
     0
  9
$PUCSORGTOP
 10
0.0
 20
0.0
 30
0.0
  9
$PUCSORGBOTTOM
 10
0.0
 20
0.0
 30
0.0
  9
$PUCSORGLEFT
 10
0.0
 20
0.0
 30
0.0
  9
$PUCSORGRIGHT
 10
0.0
 20
0.0
 30
0.0
  9
$PUCSORGFRONT
 10
0.0
 20
0.0
 30
0.0
  9
$PUCSORGBACK
 10
0.0
 20
0.0
 30
0.0
  9
$USERI1
 70
     0
  9
$USERI2
 70
     0
  9
$USERI3
 70
     0
  9
$USERI4
 70
     0
  9
$USERI5
 70
     0
  9
$USERR1
 40
0.0
  9
$USERR2
 40
0.0
  9
$USERR3
 40
0.0
  9
$USERR4
 40
0.0
  9
$USERR5
 40
0.0
  9
$WORLDVIEW
 70
     1
  9
$SHADEDGE
 70
     3
  9
$SHADEDIF
 70
    70
  9
$TILEMODE
 70
     1
  9
$MAXACTVP
 70
    64
  9
$PINSBASE
 10
0.0
 20
0.0
 30
0.0
  9
$PLIMCHECK
 70
     0
  9
$PEXTMIN
 10
0.0
 20
0.0
 30
0.0
  9
$PEXTMAX
 10
12.0
 20
9.0
 30
0.0
  9
$PLIMMIN
 10
0.0
 20
0.0
  9
$PLIMMAX
 10
12.0
 20
9.0
  9
$UNITMODE
 70
     0
  9
$VISRETAIN
 70
     1
  9
$PLINEGEN
 70
     0
  9
$PSLTSCALE
 70
     1
  9
$TREEDEPTH
 70
  3020
  9
$CMLSTYLE
  2
Standard
  9
$CMLJUST
 70
     0
  9
$CMLSCALE
 40
20.0
  9
$PROXYGRAPHICS
 70
     1
  9
$MEASUREMENT
 70
     1
  9
$CELWEIGHT
370
    -1
  9
$ENDCAPS
280
     0
  9
$JOINSTYLE
280
     0
  9
$LWDISPLAY
290
     0
  9
$INSUNITS
 70
     4
  9
$HYPERLINKBASE
  1

  9
$STYLESHEET
  1

  9
$XEDIT
290
     1
  9
$CEPSNTYPE
380
     0
  9
$PSTYLEMODE
290
     1
  9
$FINGERPRINTGUID
  2
{5559452E-1E62-4159-8551-BF76FFF3E7E8}
  9
$VERSIONGUID
  2
{3CEB9EF8-4431-4551-B596-6734A9F966A9}
  9
$EXTNAMES
290
     1
  9
$PSVPSCALE
 40
0.0
  9
$OLESTARTUP
290
     0
  0
ENDSEC
  0
SECTION
  2
CLASSES
  0
CLASS
  1
ACDBDICTIONARYWDFLT
  2
AcDbDictionaryWithDefault
  3
ObjectDBX Classes
 90
        0
280
     0
281
     0
  0
CLASS
  1
ACDBPLACEHOLDER
  2
AcDbPlaceHolder
  3
ObjectDBX Classes
 90
        0
280
     0
281
     0
  0
CLASS
  1
LAYOUT
  2
AcDbLayout
  3
ObjectDBX Classes
 90
        0
280
     0
281
     0
  0
CLASS
  1
DICTIONARYVAR
  2
AcDbDictionaryVar
  3
ObjectDBX Classes
 90
        0
280
     0
281
     0
  0
CLASS
  1
TABLESTYLE
  2
AcDbTableStyle
  3
ObjectDBX Classes
 90
     4095
280
     0
281
     0
  0
CLASS
  1
SCALE
  2
AcDbScale
  3
ObjectDBX Classes
 90
     1153
280
     0
281
     0
  0
ENDSEC
  0
SECTION
  2
TABLES
  0
TABLE
  2
VPORT
  5
8
330
0
100
AcDbSymbolTable
 70
     2
  0
VPORT
  5
97
330
8
100
AcDbSymbolTableRecord
100
AcDbViewportTableRecord
  2
*Active
 70
     0
 10
0.0
 20
0.0
 11
1.0
 21
1.0
 12
403.1307699712569
 22
183.4510085497936
 13
0.0
 23
0.0
 14
10.0
 24
10.0
 15
10.0
 25
10.0
 16
0.0
 26
0.0
 36
1.0
 17
0.0
 27
0.0
 37
0.0
 40
480.2065676022308
 41
1.664827586206897
 42
50.0
 43
0.0
 44
0.0
 50
0.0
 51
0.0
 71
     0
 72
  1000
 73
     1
 74
     3
 75
     0
 76
     0
 77
     0
 78
     0
281
     0
 65
     1
110
0.0
120
0.0
130
0.0
111
1.0
121
0.0
131
0.0
112
0.0
122
1.0
132
0.0
 79
     0
146
0.0
  0
ENDTAB
  0
TABLE
  2
LTYPE
  5
5
330
0
100
AcDbSymbolTable
 70
     3
  0
LTYPE
  5
14
330
5
100
AcDbSymbolTableRecord
100
AcDbLinetypeTableRecord
  2
ByBlock
 70
     0
  3

 72
    65
 73
     0
 40
0.0
  0
LTYPE
  5
15
330
5
100
AcDbSymbolTableRecord
100
AcDbLinetypeTableRecord
  2
ByLayer
 70
     0
  3

 72
    65
 73
     0
 40
0.0
  0
LTYPE
  5
16
330
5
100
AcDbSymbolTableRecord
100
AcDbLinetypeTableRecord
  2
Continuous
 70
     0
  3
Solid line
 72
    65
 73
     0
 40
0.0
  0
LTYPE
  5
37C
330
5
100
AcDbSymbolTableRecord
100
AcDbLinetypeTableRecord
  2
SOLID
 70
     0
  3

 72
    65
 73
     0
 40
0.0
  0
LTYPE
  5
37D
330
5
100
AcDbSymbolTableRecord
100
AcDbLinetypeTableRecord
  2
DASHDOT
 70
     0
  3
 __ . __ . __ . __ . __ . __ . __ . 
 72
    65
 73
     4
 40
18.5
 49
12.0
 74
     0
 49
-3.0
 74
     0
 49
0.5
 74
     0
 49
-3.0
 74
     0
  0
ENDTAB
  0
TABLE
  2
LAYER
  5
2
330
0
100
AcDbSymbolTable
 70
     3
  0
LAYER
  5
10
330
2
100
AcDbSymbolTableRecord
100
AcDbLayerTableRecord
  2
0
 70
     0
 62
     7
  6
Continuous
370
    -3
390
F
  0
LAYER
  5
FA
330
2
100
AcDbSymbolTableRecord
100
AcDbLayerTableRecord
  2
STANDARD_LAYER
 70
     0
 62
     7
  6
SOLID
370
    -3
390
F
  0
LAYER
  5
179
330
2
100
AcDbSymbolTableRecord
100
AcDbLayerTableRecord
  2
DEFPOINTS
 70
     0
 62
     7
  6
Continuous
290
     0
370
    -3
390
F
  0
ENDTAB
  0
TABLE
  2
STYLE
  5
3
330
0
100
AcDbSymbolTable
 70
     2
  0
STYLE
  5
11
330
3
100
AcDbSymbolTableRecord
100
AcDbTextStyleTableRecord
  2
Standard
 70
     0
 40
0.0
 41
1.0
 50
0.0
 71
     0
 42
2.5
  3
txt
  4

  0
STYLE
  5
F8
330
3
100
AcDbSymbolTableRecord
100
AcDbTextStyleTableRecord
  2
H
 70
     0
 40
1.75
 41
1.0
 50
0.0
 71
     0
 42
1.75
  3
swiss.ttf
  4

1001
ACAD
1000
Swis721 BT
1071
       34
  0
ENDTAB
  0
TABLE
  2
VIEW
  5
6
330
0
100
AcDbSymbolTable
 70
     0
  0
ENDTAB
  0
TABLE
  2
UCS
  5
7
330
0
100
AcDbSymbolTable
 70
     0
  0
ENDTAB
  0
TABLE
  2
APPID
  5
9
330
0
100
AcDbSymbolTable
 70
     2
  0
APPID
  5
12
330
9
100
AcDbSymbolTableRecord
100
AcDbRegAppTableRecord
  2
ACAD
 70
     0
  0
APPID
  5
37B
330
9
100
AcDbSymbolTableRecord
100
AcDbRegAppTableRecord
  2
PROGE_PRINT_SETTINGS
 70
     0
  0
ENDTAB
  0
TABLE
  2
DIMSTYLE
  5
A
330
0
100
AcDbSymbolTable
 70
     3
100
AcDbDimStyleTable
  0
DIMSTYLE
105
27
330
A
100
AcDbSymbolTableRecord
100
AcDbDimStyleTableRecord
  2
Standard
 70
     0
278
     0
340
11
  0
DIMSTYLE
105
29
102
{ACAD_REACTORS
330
186
330
192
330
19E
330
2EC
102
}
330
A
100
AcDbSymbolTableRecord
100
AcDbDimStyleTableRecord
  2
ISO-25
 70
     0
 41
2.5
 42
0.625
 43
3.75
 44
1.25
 73
     0
 74
     0
 77
     1
 78
     8
140
2.5
141
2.5
143
0.03937007874016
147
0.625
171
     3
172
     1
271
     2
272
     2
274
     3
278
    44
283
     0
284
     8
340
11
  0
DIMSTYLE
105
FB
330
A
100
AcDbSymbolTableRecord
100
AcDbDimStyleTableRecord
  2
GEWISS
 70
     0
 41
1.7
 42
1.0
 43
7.0
 44
0.3
 73
     0
 74
     0
 77
     1
140
20.0
141
1.5
147
0.75
172
     1
176
     1
177
     1
340
F8
  0
ENDTAB
  0
TABLE
  2
BLOCK_RECORD
  5
1
330
0
100
AcDbSymbolTable
 70
    24
  0
BLOCK_RECORD
  5
1F
330
1
100
AcDbSymbolTableRecord
100
AcDbBlockTableRecord
  2
*Model_Space
340
22
  0
BLOCK_RECORD
  5
73
330
1
100
AcDbSymbolTableRecord
100
AcDbBlockTableRecord
  2
*Paper_Space
340
21F
  0
BLOCK_RECORD
  5
D1
330
1
100
AcDbSymbolTableRecord
100
AcDbBlockTableRecord
  2
*Paper_Space0
340
74
  0
BLOCK_RECORD
  5
103
330
1
100
AcDbSymbolTableRecord
100
AcDbBlockTableRecord
  2
DWG141458582
340
0
  0
BLOCK_RECORD
  5
10B
330
1
100
AcDbSymbolTableRecord
100
AcDbBlockTableRecord
  2
DWG141459003
340
0
  0
BLOCK_RECORD
  5
113
330
1
100
AcDbSymbolTableRecord
100
AcDbBlockTableRecord
  2
DWG141459014
340
0
  0
BLOCK_RECORD
  5
202
330
1
100
AcDbSymbolTableRecord
100
AcDbBlockTableRecord
  2
*D4
340
0
  0
BLOCK_RECORD
  5
20E
330
1
100
AcDbSymbolTableRecord
100
AcDbBlockTableRecord
  2
*D5
340
0
  0
BLOCK_RECORD
  5
219
330
1
100
AcDbSymbolTableRecord
100
AcDbBlockTableRecord
  2
*D6
340
0
  0
BLOCK_RECORD
  5
253
330
1
100
AcDbSymbolTableRecord
100
AcDbBlockTableRecord
  2
BLOCK64
340
0
102
{BLKREFS
331
2B8
102
}
  0
BLOCK_RECORD
  5
25D
330
1
100
AcDbSymbolTableRecord
100
AcDbBlockTableRecord
  2
BLOCK65
340
0
102
{BLKREFS
331
2B9
102
}
  0
BLOCK_RECORD
  5
267
330
1
100
AcDbSymbolTableRecord
100
AcDbBlockTableRecord
  2
BLOCK66
340
0
102
{BLKREFS
331
2BA
102
}
  0
BLOCK_RECORD
  5
270
330
1
100
AcDbSymbolTableRecord
100
AcDbBlockTableRecord
  2
BLOCK67
340
0
102
{BLKREFS
331
2BB
102
}
  0
BLOCK_RECORD
  5
279
330
1
100
AcDbSymbolTableRecord
100
AcDbBlockTableRecord
  2
BLOCK68
340
0
102
{BLKREFS
331
2BC
102
}
  0
BLOCK_RECORD
  5
284
330
1
100
AcDbSymbolTableRecord
100
AcDbBlockTableRecord
  2
BLOCK69
340
0
102
{BLKREFS
331
2BD
102
}
  0
BLOCK_RECORD
  5
28F
330
1
100
AcDbSymbolTableRecord
100
AcDbBlockTableRecord
  2
BLOCK70
340
0
102
{BLKREFS
331
2BE
102
}
  0
BLOCK_RECORD
  5
2B6
330
1
100
AcDbSymbolTableRecord
100
AcDbBlockTableRecord
  2
BLOCK71
340
0
102
{BLKREFS
331
2BF
102
}
  0
BLOCK_RECORD
  5
2C1
330
1
100
AcDbSymbolTableRecord
100
AcDbBlockTableRecord
  2
DWG141519582
340
0
  0
BLOCK_RECORD
  5
2F7
330
1
100
AcDbSymbolTableRecord
100
AcDbBlockTableRecord
  2
*D16
340
0
  0
BLOCK_RECORD
  5
303
330
1
100
AcDbSymbolTableRecord
100
AcDbBlockTableRecord
  2
*D17
340
0
  0
BLOCK_RECORD
  5
30E
330
1
100
AcDbSymbolTableRecord
100
AcDbBlockTableRecord
  2
*D18
340
0
  0
BLOCK_RECORD
  5
319
330
1
100
AcDbSymbolTableRecord
100
AcDbBlockTableRecord
  2
*D19
340
0
  0
BLOCK_RECORD
  5
357
330
1
100
AcDbSymbolTableRecord
100
AcDbBlockTableRecord
  2
*D20
340
0
  0
BLOCK_RECORD
  5
362
330
1
100
AcDbSymbolTableRecord
100
AcDbBlockTableRecord
  2
*D21
340
0
  0
BLOCK_RECORD
  5
36E
330
1
100
AcDbSymbolTableRecord
100
AcDbBlockTableRecord
  2
*D22
340
0
  0
BLOCK_RECORD
  5
379
330
1
100
AcDbSymbolTableRecord
100
AcDbBlockTableRecord
  2
*D23
340
0
  0
ENDTAB
  0
ENDSEC
  0
SECTION
  2
BLOCKS
  0
BLOCK
  5
20
330
1F
100
AcDbEntity
  8
0
100
AcDbBlockBegin
  2
*Model_Space
 70
     0
 10
0.0
 20
0.0
 30
0.0
  3
*Model_Space
  1

  0
ENDBLK
  5
21
330
1F
100
AcDbEntity
  8
0
100
AcDbBlockEnd
  0
BLOCK
  5
75
330
73
100
AcDbEntity
 67
     1
  8
0
100
AcDbBlockBegin
  2
*Paper_Space
 70
     0
 10
0.0
 20
0.0
 30
0.0
  3
*Paper_Space
  1

  0
ENDBLK
  5
76
330
73
100
AcDbEntity
 67
     1
  8
0
100
AcDbBlockEnd
  0
BLOCK
  5
37E
330
D1
100
AcDbEntity
  8
0
100
AcDbBlockBegin
  2
*Paper_Space0
 70
     0
 10
0.0
 20
0.0
 30
0.0
  3
*Paper_Space0
  1

  0
VIEWPORT
  5
244
330
D1
100
AcDbEntity
  8
0
100
AcDbViewport
 10
7.8
 20
4.5
 30
0.0
 40
15.64
 41
9.0
 68
     1
 69
     1
 12
6.0
 22
4.5
 13
0.0
 23
0.0
 14
0.5
 24
0.5
 15
0.5
 25
0.5
 16
0.0
 26
0.0
 36
1.0
 17
0.0
 27
0.0
 37
0.0
 42
50.0
 43
0.0
 44
0.0
 45
12.0
 50
0.0
 51
0.0
 72
   100
 90
   557152
  1

281
     0
 71
     1
 74
     0
110
0.0
120
0.0
130
0.0
111
1.0
121
0.0
131
0.0
112
0.0
122
1.0
132
0.0
 79
     0
146
0.0
  0
ENDBLK
  5
37F
330
D1
100
AcDbEntity
  8
0
100
AcDbBlockEnd
  0
BLOCK
  5
380
330
103
100
AcDbEntity
  8
0
100
AcDbBlockBegin
  2
DWG141458582
 70
     0
 10
0.0
 20
0.0
 30
0.0
  3
DWG141458582
  1

  0
LINE
  5
FD
330
103
100
AcDbEntity
  8
STANDARD_LAYER
370
    60
100
AcDbLine
 10
16.25041332000001
 20
41.13527365999994
 30
0.0
 11
36.93209507999973
 21
69.04789033999896
 31
0.0
  0
LINE
  5
FE
330
103
100
AcDbEntity
  8
STANDARD_LAYER
370
    60
100
AcDbLine
 10
5.022224639999877
 20
12.04689543999984
 30
0.0
 11
25.7051487599997
 21
39.95969967999895
 31
0.0
  0
LINE
  5
FF
330
103
100
AcDbEntity
  8
STANDARD_LAYER
370
    60
100
AcDbLine
 10
0.0
 20
32.6133079199999
 30
0.0
 11
20.68212023999968
 21
60.52645601999984
 31
0.0
  0
LINE
  5
100
330
103
100
AcDbEntity
  8
STANDARD_LAYER
370
    60
100
AcDbLine
 10
33.6822588
 20
0.0
 30
0.0
 11
54.36474443999987
 21
27.91278339999894
 31
0.0
  0
LINE
  5
101
330
103
100
AcDbEntity
  8
STANDARD_LAYER
370
    60
100
AcDbLine
 10
50.81935175999979
 20
11.45886357999893
 30
0.0
 11
71.50157639999998
 21
39.37111555999991
 31
0.0
  0
ENDBLK
  5
381
330
103
100
AcDbEntity
  8
0
100
AcDbBlockEnd
  0
BLOCK
  5
382
330
10B
100
AcDbEntity
  8
0
100
AcDbBlockBegin
  2
DWG141459003
 70
     0
 10
0.0
 20
0.0
 30
0.0
  3
DWG141459003
  1

  0
LINE
  5
105
330
10B
100
AcDbEntity
  8
STANDARD_LAYER
370
    60
100
AcDbLine
 10
16.25041332000001
 20
41.13527365999994
 30
0.0
 11
36.93209507999973
 21
69.04789033999896
 31
0.0
  0
LINE
  5
106
330
10B
100
AcDbEntity
  8
STANDARD_LAYER
370
    60
100
AcDbLine
 10
5.022224639999877
 20
12.04689543999984
 30
0.0
 11
25.7051487599997
 21
39.95969967999895
 31
0.0
  0
LINE
  5
107
330
10B
100
AcDbEntity
  8
STANDARD_LAYER
370
    60
100
AcDbLine
 10
0.0
 20
32.6133079199999
 30
0.0
 11
20.68212023999968
 21
60.52645601999984
 31
0.0
  0
LINE
  5
108
330
10B
100
AcDbEntity
  8
STANDARD_LAYER
370
    60
100
AcDbLine
 10
33.6822588
 20
0.0
 30
0.0
 11
54.36474443999987
 21
27.91278339999894
 31
0.0
  0
LINE
  5
109
330
10B
100
AcDbEntity
  8
STANDARD_LAYER
370
    60
100
AcDbLine
 10
50.81935175999979
 20
11.45886357999893
 30
0.0
 11
71.50157639999998
 21
39.37111555999991
 31
0.0
  0
ENDBLK
  5
383
330
10B
100
AcDbEntity
  8
0
100
AcDbBlockEnd
  0
BLOCK
  5
384
330
113
100
AcDbEntity
  8
0
100
AcDbBlockBegin
  2
DWG141459014
 70
     0
 10
0.0
 20
0.0
 30
0.0
  3
DWG141459014
  1

  0
LINE
  5
10D
330
113
100
AcDbEntity
  8
STANDARD_LAYER
370
    60
100
AcDbLine
 10
16.25041332000001
 20
41.13527365999994
 30
0.0
 11
36.93209507999973
 21
69.04789033999896
 31
0.0
  0
LINE
  5
10E
330
113
100
AcDbEntity
  8
STANDARD_LAYER
370
    60
100
AcDbLine
 10
5.022224639999877
 20
12.04689543999984
 30
0.0
 11
25.7051487599997
 21
39.95969967999895
 31
0.0
  0
LINE
  5
10F
330
113
100
AcDbEntity
  8
STANDARD_LAYER
370
    60
100
AcDbLine
 10
0.0
 20
32.6133079199999
 30
0.0
 11
20.68212023999968
 21
60.52645601999984
 31
0.0
  0
LINE
  5
110
330
113
100
AcDbEntity
  8
STANDARD_LAYER
370
    60
100
AcDbLine
 10
33.6822588
 20
0.0
 30
0.0
 11
54.36474443999987
 21
27.91278339999894
 31
0.0
  0
LINE
  5
111
330
113
100
AcDbEntity
  8
STANDARD_LAYER
370
    60
100
AcDbLine
 10
50.81935175999979
 20
11.45886357999893
 30
0.0
 11
71.50157639999998
 21
39.37111555999991
 31
0.0
  0
ENDBLK
  5
385
330
113
100
AcDbEntity
  8
0
100
AcDbBlockEnd
  0
BLOCK
  5
386
330
202
100
AcDbEntity
  8
0
100
AcDbBlockBegin
  2
*D4
 70
     1
 10
0.0
 20
0.0
 30
0.0
  3
*D4
  1

  0
POINT
  5
1F9
330
202
100
AcDbEntity
  8
DEFPOINTS
  6
ByBlock
 62
     7
380
     1
100
AcDbPoint
 10
281.2928983113234
 20
247.0021419227467
 30
0.0
  0
POINT
  5
1FA
330
202
100
AcDbEntity
  8
DEFPOINTS
  6
ByBlock
 62
     7
380
     1
100
AcDbPoint
 10
281.2928983113234
 20
41.00214592274676
 30
0.0
  0
LINE
  5
1FB
330
202
100
AcDbEntity
  8
0
  6
ByBlock
 62
     7
370
    -2
380
     1
100
AcDbLine
 10
281.9178983113234
 20
247.0021419227467
 30
0.0
 11
325.0804070938337
 21
247.0021419227467
 31
0.0
  0
LINE
  5
1FC
330
202
100
AcDbEntity
  8
0
  6
ByBlock
 62
     7
370
    -2
380
     1
100
AcDbLine
 10
281.9178983113234
 20
41.00214592274676
 30
0.0
 11
325.0804070938337
 21
41.00214592274676
 31
0.0
  0
LINE
  5
1FD
330
202
100
AcDbEntity
  8
0
  6
ByBlock
 62
     7
370
    -2
380
     1
100
AcDbLine
 10
323.8304070938337
 20
237.0021419227467
 30
0.0
 11
323.8304070938337
 21
51.00214592274676
 31
0.0
  0
SOLID
  5
1FE
330
202
100
AcDbEntity
  8
0
  6
ByBlock
 62
     7
380
     1
100
AcDbTrace
 10
323.8304070938337
 20
247.0021419227467
 30
0.0
 11
322.163740427167
 21
237.0021419227467
 31
0.0
 12
325.4970737605004
 22
237.0021419227467
 32
0.0
 13
325.4970737605004
 23
237.0021419227467
 33
0.0
  0
SOLID
  5
1FF
330
202
100
AcDbEntity
  8
0
  6
ByBlock
 62
     7
380
     1
100
AcDbTrace
 10
323.8304070938337
 20
41.00214592274676
 30
0.0
 11
322.163740427167
 21
51.00214592274676
 31
0.0
 12
325.4970737605004
 22
51.00214592274676
 32
0.0
 13
325.4970737605004
 23
51.00214592274676
 33
0.0
  0
MTEXT
  5
200
330
202
100
AcDbEntity
  8
0
  6
ByBlock
 62
     0
370
    -2
380
     1
100
AcDbMText
 10
311.8304070938337
 20
144.0021439227467
 30
0.0
 40
14.0
 41
0.0
 71
     5
 72
     1
  1
\A1;206
 11
6.123031769111886E-17
 21
1.0
 31
0.0
 73
     1
 44
1.0
  0
ENDBLK
  5
387
330
202
100
AcDbEntity
  8
0
100
AcDbBlockEnd
  0
BLOCK
  5
388
330
20E
100
AcDbEntity
  8
0
100
AcDbBlockBegin
  2
*D5
 70
     1
 10
0.0
 20
0.0
 30
0.0
  3
*D5
  1

  0
POINT
  5
204
330
20E
100
AcDbEntity
  8
DEFPOINTS
  6
ByBlock
 62
     7
380
     1
100
AcDbPoint
 10
135.1448638591642
 20
247.0021419227467
 30
0.0
  0
POINT
  5
205
330
20E
100
AcDbEntity
  8
DEFPOINTS
  6
ByBlock
 62
     7
380
     1
100
AcDbPoint
 10
133.89905892939
 20
237.0021419227467
 30
0.0
  0
LINE
  5
206
330
20E
100
AcDbEntity
  8
0
  6
ByBlock
 62
     7
370
    -2
380
     1
100
AcDbLine
 10
134.5198638591642
 20
247.0021419227467
 30
0.0
 11
111.1083546770594
 21
247.0021419227467
 31
0.0
  0
LINE
  5
207
330
20E
100
AcDbEntity
  8
0
  6
ByBlock
 62
     7
370
    -2
380
     1
100
AcDbLine
 10
133.27405892939
 20
237.0021419227467
 30
0.0
 11
111.1083546770594
 21
237.0021419227467
 31
0.0
  0
LINE
  5
208
330
20E
100
AcDbEntity
  8
0
  6
ByBlock
 62
     7
370
    -2
380
     1
100
AcDbLine
 10
112.3583546770594
 20
257.0021419227467
 30
0.0
 11
112.3583546770594
 21
267.0021419227467
 31
0.0
  0
LINE
  5
209
330
20E
100
AcDbEntity
  8
0
  6
ByBlock
 62
     7
370
    -2
380
     1
100
AcDbLine
 10
112.3583546770594
 20
227.0021419227467
 30
0.0
 11
112.3583546770594
 21
217.0021419227467
 31
0.0
  0
SOLID
  5
20A
330
20E
100
AcDbEntity
  8
0
  6
ByBlock
 62
     7
380
     1
100
AcDbTrace
 10
112.3583546770594
 20
247.0021419227467
 30
0.0
 11
110.6916880103927
 21
257.0021419227467
 31
0.0
 12
114.0250213437261
 22
257.0021419227467
 32
0.0
 13
114.0250213437261
 23
257.0021419227467
 33
0.0
  0
SOLID
  5
20B
330
20E
100
AcDbEntity
  8
0
  6
ByBlock
 62
     7
380
     1
100
AcDbTrace
 10
112.3583546770594
 20
237.0021419227467
 30
0.0
 11
110.6916880103927
 21
227.0021419227467
 31
0.0
 12
114.0250213437261
 22
227.0021419227467
 32
0.0
 13
114.0250213437261
 23
227.0021419227467
 33
0.0
  0
MTEXT
  5
20C
330
20E
100
AcDbEntity
  8
0
  6
ByBlock
 62
     0
370
    -2
380
     1
100
AcDbMText
 10
100.3583546770594
 20
242.0021419227467
 30
0.0
 40
14.0
 41
0.0
 71
     5
 72
     1
  1
\A1;10
 11
6.123031769111886E-17
 21
1.0
 31
0.0
 73
     1
 44
1.0
  0
ENDBLK
  5
389
330
20E
100
AcDbEntity
  8
0
100
AcDbBlockEnd
  0
BLOCK
  5
38A
330
219
100
AcDbEntity
  8
0
100
AcDbBlockBegin
  2
*D6
 70
     1
 10
0.0
 20
0.0
 30
0.0
  3
*D6
  1

  0
POINT
  5
210
330
219
100
AcDbEntity
  8
DEFPOINTS
  6
ByBlock
 62
     7
380
     1
100
AcDbPoint
 10
133.89905892939
 20
245.9021434227467
 30
0.0
  0
POINT
  5
211
330
219
100
AcDbEntity
  8
DEFPOINTS
  6
ByBlock
 62
     7
380
     1
100
AcDbPoint
 10
283.89905592939
 20
245.9021434227467
 30
0.0
  0
LINE
  5
212
330
219
100
AcDbEntity
  8
0
  6
ByBlock
 62
     7
370
    -2
380
     1
100
AcDbLine
 10
133.89905892939
 20
246.5271434227467
 30
0.0
 11
133.89905892939
 21
271.8923027201232
 31
0.0
  0
LINE
  5
213
330
219
100
AcDbEntity
  8
0
  6
ByBlock
 62
     7
370
    -2
380
     1
100
AcDbLine
 10
283.89905592939
 20
246.5271434227467
 30
0.0
 11
283.89905592939
 21
271.8923027201232
 31
0.0
  0
LINE
  5
214
330
219
100
AcDbEntity
  8
0
  6
ByBlock
 62
     7
370
    -2
380
     1
100
AcDbLine
 10
143.89905892939
 20
270.6423027201232
 30
0.0
 11
273.89905592939
 21
270.6423027201232
 31
0.0
  0
SOLID
  5
215
330
219
100
AcDbEntity
  8
0
  6
ByBlock
 62
     7
380
     1
100
AcDbTrace
 10
133.89905892939
 20
270.6423027201232
 30
0.0
 11
143.89905892939
 21
268.9756360534565
 31
0.0
 12
143.89905892939
 22
272.3089693867899
 32
0.0
 13
143.89905892939
 23
272.3089693867899
 33
0.0
  0
SOLID
  5
216
330
219
100
AcDbEntity
  8
0
  6
ByBlock
 62
     7
380
     1
100
AcDbTrace
 10
283.89905592939
 20
270.6423027201232
 30
0.0
 11
273.89905592939
 21
268.9756360534565
 31
0.0
 12
273.89905592939
 22
272.3089693867899
 32
0.0
 13
273.89905592939
 23
272.3089693867899
 33
0.0
  0
MTEXT
  5
217
330
219
100
AcDbEntity
  8
0
  6
ByBlock
 62
     0
370
    -2
380
     1
100
AcDbMText
 10
208.89905742939
 20
282.6423027201232
 30
0.0
 40
14.0
 41
0.0
 71
     5
 72
     1
  1
\A1;150
 73
     1
 44
1.0
  0
ENDBLK
  5
38B
330
219
100
AcDbEntity
  8
0
100
AcDbBlockEnd
  0
BLOCK
  5
38C
330
253
100
AcDbEntity
  8
0
100
AcDbBlockBegin
  2
BLOCK64
 70
     0
 10
0.0
 20
0.0
 30
0.0
  3
BLOCK64
  1

  0
LINE
  5
249
330
253
100
AcDbEntity
  8
0
 62
     7
 48
0.125
370
   100
100
AcDbLine
 10
0.0
 20
270.355469
 30
0.0
 11
0.0
 21
265.355469
 31
0.0
  0
LINE
  5
24A
330
253
100
AcDbEntity
  8
0
 62
     7
 48
0.125
370
   100
100
AcDbLine
 10
0.0
 20
-23.227335
 30
0.0
 11
0.0
 21
-18.227335
 31
0.0
  0
LINE
  5
24B
330
253
100
AcDbEntity
  8
0
  6
DASHDOT
 62
     7
370
    13
100
AcDbLine
 10
0.0
 20
265.355469
 30
0.0
 11
0.0
 21
-18.227335
 31
0.0
  0
LINE
  5
24C
330
253
100
AcDbEntity
  8
0
 62
     7
 48
0.375
370
    13
100
AcDbLine
 10
0.0
 20
267.855469
 30
0.0
 11
-15.0
 21
267.855469
 31
0.0
  0
SOLID
  5
24D
330
253
100
AcDbEntity
  8
0
 62
     7
370
    13
100
AcDbTrace
 10
-4.0
 20
266.783661
 30
0.0
 11
0.0
 21
267.855469
 31
0.0
 12
-4.0
 22
268.927277
 32
0.0
 13
-4.0
 23
268.927277
 33
0.0
  0
TEXT
  5
24E
330
253
100
AcDbEntity
  8
0
 62
     7
370
    13
100
AcDbText
 10
-9.9999
 20
270.480469
 30
0.0
 40
3.5
  1
A
 41
1.301152714285714
 72
     5
 11
-6.963877
 21
270.480469
 31
0.0
100
AcDbText
  0
LINE
  5
24F
330
253
100
AcDbEntity
  8
0
 62
     7
 48
0.375
370
    13
100
AcDbLine
 10
0.0
 20
-20.727335
 30
0.0
 11
-15.0
 21
-20.727335
 31
0.0
  0
SOLID
  5
250
330
253
100
AcDbEntity
  8
0
 62
     7
370
    13
100
AcDbTrace
 10
-4.0
 20
-21.799131
 30
0.0
 11
0.0
 21
-20.727335
 31
0.0
 12
-4.0
 22
-19.655539
 32
0.0
 13
-4.0
 23
-19.655539
 33
0.0
  0
TEXT
  5
251
330
253
100
AcDbEntity
  8
0
 62
     7
370
    13
100
AcDbText
 10
-9.9999
 20
-18.102335
 30
0.0
 40
3.5
  1
A
 41
1.301152714285714
 72
     5
 11
-6.963877
 21
-18.102335
 31
0.0
100
AcDbText
  0
ENDBLK
  5
38D
330
253
100
AcDbEntity
  8
0
100
AcDbBlockEnd
  0
BLOCK
  5
38E
330
25D
100
AcDbEntity
  8
0
100
AcDbBlockBegin
  2
BLOCK65
 70
     0
 10
0.0
 20
0.0
 30
0.0
  3
BLOCK65
  1

  0
SOLID
  5
255
330
25D
100
AcDbEntity
  8
0
 62
     7
370
    13
100
AcDbTrace
 10
-100.068146
 20
113.725227
 30
0.0
 11
-102.0
 21
113.207588
 31
0.0
 12
-100.068146
 22
113.725227
 32
0.0
 13
-100.068146
 23
112.689949
 33
0.0
  0
SOLID
  5
256
330
25D
100
AcDbEntity
  8
0
 62
     7
370
    13
100
AcDbTrace
 10
100.068146
 20
112.689949
 30
0.0
 11
102.0
 21
113.207588
 31
0.0
 12
100.068146
 22
112.689949
 32
0.0
 13
100.068146
 23
113.725227
 33
0.0
  0
TEXT
  5
257
330
25D
100
AcDbEntity
  8
0
 62
     7
370
    13
100
AcDbText
 10
-9.676687
 20
115.207588
 30
0.0
 40
3.0
  1
204
 41
1.200922266666667
 72
     5
 11
-0.66977
 21
115.207588
 31
0.0
100
AcDbText
  0
TEXT
  5
258
330
25D
100
AcDbEntity
  8
0
 62
     7
370
    13
100
AcDbText
 10
1.13023
 20
115.657585
 30
0.0
 40
2.1
  1
%%p0.5
 41
1.436379327731093
 72
     5
 11
9.676687
 21
115.657585
 31
0.0
100
AcDbText
  0
LINE
  5
259
330
25D
100
AcDbEntity
  8
0
 62
     7
370
    13
100
AcDbLine
 10
-100.068146
 20
113.207588
 30
0.0
 11
100.068146
 21
113.207588
 31
0.0
  0
LWPOLYLINE
  5
25A
330
25D
100
AcDbEntity
  8
0
 62
     7
370
    13
100
AcDbPolyline
 90
        3
 70
     1
 43
0.0
 10
-100.068146
 20
113.725227
 10
-102.0
 20
113.207588
 10
-100.068146
 20
112.689949
  0
LWPOLYLINE
  5
25B
330
25D
100
AcDbEntity
  8
0
 62
     7
370
    13
100
AcDbPolyline
 90
        3
 70
     1
 43
0.0
 10
100.068146
 20
112.689949
 10
102.0
 20
113.207588
 10
100.068146
 20
113.725227
  0
ENDBLK
  5
38F
330
25D
100
AcDbEntity
  8
0
100
AcDbBlockEnd
  0
BLOCK
  5
390
330
267
100
AcDbEntity
  8
0
100
AcDbBlockBegin
  2
BLOCK66
 70
     0
 10
0.0
 20
0.0
 30
0.0
  3
BLOCK66
  1

  0
SOLID
  5
25F
330
267
100
AcDbEntity
  8
0
 62
     7
370
    13
100
AcDbTrace
 10
40.991058
 20
247.835968
 30
0.0
 11
40.473419
 21
249.767822
 31
0.0
 12
40.991058
 22
247.835968
 32
0.0
 13
39.95578
 23
247.835968
 33
0.0
  0
SOLID
  5
260
330
267
100
AcDbEntity
  8
0
 62
     7
370
    13
100
AcDbTrace
 10
39.95578
 20
47.699677
 30
0.0
 11
40.473419
 21
45.767826
 31
0.0
 12
39.95578
 22
47.699677
 32
0.0
 13
40.991058
 23
47.699677
 33
0.0
  0
TEXT
  5
261
330
267
100
AcDbEntity
  8
0
 62
     7
370
    13
100
AcDbText
 10
38.473419
 20
138.091141
 30
0.0
 40
3.0
  1
204
 50
90.0
 41
1.200923600000003
 72
     5
 11
38.473419
 21
147.098068
 31
0.0
100
AcDbText
  0
TEXT
  5
262
330
267
100
AcDbEntity
  8
0
 62
     7
370
    13
100
AcDbText
 10
38.023418
 20
148.898056
 30
0.0
 40
2.1
  1
%%p0.5
 50
90.0
 41
1.43637781512605
 72
     5
 11
38.023418
 21
157.444504
 31
0.0
100
AcDbText
  0
LINE
  5
263
330
267
100
AcDbEntity
  8
0
 62
     7
370
    13
100
AcDbLine
 10
40.473419
 20
47.699677
 30
0.0
 11
40.473419
 21
247.835968
 31
0.0
  0
LWPOLYLINE
  5
264
330
267
100
AcDbEntity
  8
0
 62
     7
370
    13
100
AcDbPolyline
 90
        3
 70
     1
 43
0.0
 10
40.991058
 20
247.835968
 10
40.473419
 20
249.767822
 10
39.95578
 20
247.835968
  0
LWPOLYLINE
  5
265
330
267
100
AcDbEntity
  8
0
 62
     7
370
    13
100
AcDbPolyline
 90
        3
 70
     1
 43
0.0
 10
39.95578
 20
47.699677
 10
40.473419
 20
45.767826
 10
40.991058
 20
47.699677
  0
ENDBLK
  5
391
330
267
100
AcDbEntity
  8
0
100
AcDbBlockEnd
  0
BLOCK
  5
392
330
270
100
AcDbEntity
  8
0
100
AcDbBlockBegin
  2
BLOCK67
 70
     0
 10
0.0
 20
0.0
 30
0.0
  3
BLOCK67
  1

  0
SOLID
  5
269
330
270
100
AcDbEntity
  8
0
 62
     7
370
    13
100
AcDbTrace
 10
103.691223
 20
251.564651
 30
0.0
 11
102.512459
 21
249.948944
 31
0.0
 12
103.691223
 22
251.564651
 32
0.0
 13
104.341156
 23
250.758804
 33
0.0
  0
TEXT
  5
26A
330
270
100
AcDbEntity
  8
0
 62
     7
370
    13
100
AcDbText
 10
130.530914
 20
275.115662
 30
0.0
 40
3.0
  1
2.2
 50
38.88652871952207
 41
1.501151531077144
 72
     5
 11
137.541809
 21
280.77002
 31
0.0
100
AcDbText
  0
TEXT
  5
26B
330
270
100
AcDbEntity
  8
0
 62
     7
370
    13
100
AcDbText
 10
127.726913
 20
272.854187
 30
0.0
 40
3.0
  1
R
 50
38.88646018885834
 41
1.30114790501638
 72
     5
 11
129.752518
 21
274.487854
 31
0.0
100
AcDbText
  0
LINE
  5
26C
330
270
100
AcDbEntity
  8
0
 62
     7
 48
0.055
370
    13
100
AcDbLine
 10
100.800003
 20
248.567825
 30
0.0
 11
102.512459
 21
249.948944
 31
0.0
  0
LINE
  5
26D
330
270
100
AcDbEntity
  8
0
 62
     7
370
    13
100
AcDbLine
 10
104.01619
 20
251.161728
 30
0.0
 11
138.797363
 21
279.213226
 31
0.0
  0
LWPOLYLINE
  5
26E
330
270
100
AcDbEntity
  8
0
 62
     7
370
    13
100
AcDbPolyline
 90
        3
 70
     1
 43
0.0
 10
103.691223
 20
251.564651
 10
102.512459
 20
249.948944
 10
104.341156
 20
250.758804
  0
ENDBLK
  5
393
330
270
100
AcDbEntity
  8
0
100
AcDbBlockEnd
  0
BLOCK
  5
394
330
279
100
AcDbEntity
  8
0
100
AcDbBlockBegin
  2
BLOCK68
 70
     0
 10
0.0
 20
0.0
 30
0.0
  3
BLOCK68
  1

  0
SOLID
  5
272
330
279
100
AcDbEntity
  8
0
 62
     7
370
    13
100
AcDbTrace
 10
102.816902
 20
44.080986
 30
0.0
 11
101.181587
 21
45.232399
 31
0.0
 12
102.816902
 22
44.080986
 32
0.0
 13
102.022102
 23
43.417591
 33
0.0
  0
TEXT
  5
273
330
279
100
AcDbEntity
  8
0
 62
     7
370
    13
100
AcDbText
 10
116.331398
 20
30.202997
 30
0.0
 40
3.0
  1
2
 50
309.8510335424265
 41
1.301153435647487
 72
     5
 11
117.99894
 21
28.205172
 31
0.0
100
AcDbText
  0
TEXT
  5
274
330
279
100
AcDbEntity
  8
0
 62
     7
370
    13
100
AcDbText
 10
114.023071
 20
32.96854
 30
0.0
 40
3.0
  1
R
 50
309.8510335424263
 41
1.301153435647482
 72
     5
 11
115.690613
 21
30.970715
 31
0.0
100
AcDbText
  0
LINE
  5
275
330
279
100
AcDbEntity
  8
0
 62
     7
 48
0.05
370
    13
100
AcDbLine
 10
99.900002
 20
46.767826
 30
0.0
 11
101.181587
 21
45.232399
 31
0.0
  0
LINE
  5
276
330
279
100
AcDbEntity
  8
0
 62
     7
370
    13
100
AcDbLine
 10
102.419502
 20
43.749287
 30
0.0
 11
116.463509
 21
26.923586
 31
0.0
  0
LWPOLYLINE
  5
277
330
279
100
AcDbEntity
  8
0
 62
     7
370
    13
100
AcDbPolyline
 90
        3
 70
     1
 43
0.0
 10
102.816902
 20
44.080986
 10
101.181587
 20
45.232399
 10
102.022102
 20
43.417591
  0
ENDBLK
  5
395
330
279
100
AcDbEntity
  8
0
100
AcDbBlockEnd
  0
BLOCK
  5
396
330
284
100
AcDbEntity
  8
0
100
AcDbBlockBegin
  2
BLOCK69
 70
     0
 10
0.0
 20
0.0
 30
0.0
  3
BLOCK69
  1

  0
SOLID
  5
27B
330
284
100
AcDbEntity
  8
0
 62
     7
370
    13
100
AcDbTrace
 10
65.207092
 20
47.699677
 30
0.0
 11
65.724731
 21
45.767826
 31
0.0
 12
65.207092
 22
47.699677
 32
0.0
 13
66.242371
 23
47.699677
 33
0.0
  0
SOLID
  5
27C
330
284
100
AcDbEntity
  8
0
 62
     7
370
    13
100
AcDbTrace
 10
66.242371
 20
42.835976
 30
0.0
 11
65.724731
 21
44.767826
 31
0.0
 12
66.242371
 22
42.835976
 32
0.0
 13
65.207092
 23
42.835976
 33
0.0
  0
TEXT
  5
27D
330
284
100
AcDbEntity
  8
0
 62
     7
370
    13
100
AcDbText
 10
63.724731
 20
25.900541
 30
0.0
 40
3.0
  1
1
 50
90.0
 41
2.602307
 72
     5
 11
63.724731
 21
28.502848
 31
0.0
100
AcDbText
  0
LINE
  5
27E
330
284
100
AcDbEntity
  8
0
 62
     7
 48
0.423386
370
    13
100
AcDbLine
 10
65.724731
 20
25.900541
 30
0.0
 11
65.724731
 21
42.835976
 31
0.0
  0
LINE
  5
27F
330
284
100
AcDbEntity
  8
0
 62
     7
 48
0.025
370
    13
100
AcDbLine
 10
65.724731
 20
44.767826
 30
0.0
 11
65.724731
 21
45.767826
 31
0.0
  0
LINE
  5
280
330
284
100
AcDbEntity
  8
0
 62
     7
 48
0.076704
370
    13
100
AcDbLine
 10
65.724731
 20
47.699677
 30
0.0
 11
65.724731
 21
50.767826
 31
0.0
  0
LWPOLYLINE
  5
281
330
284
100
AcDbEntity
  8
0
 62
     7
370
    13
100
AcDbPolyline
 90
        3
 70
     1
 43
0.0
 10
65.207092
 20
47.699677
 10
65.724731
 20
45.767826
 10
66.242371
 20
47.699677
  0
LWPOLYLINE
  5
282
330
284
100
AcDbEntity
  8
0
 62
     7
370
    13
100
AcDbPolyline
 90
        3
 70
     1
 43
0.0
 10
66.242371
 20
42.835976
 10
65.724731
 20
44.767826
 10
65.207092
 20
42.835976
  0
ENDBLK
  5
397
330
284
100
AcDbEntity
  8
0
100
AcDbBlockEnd
  0
BLOCK
  5
398
330
28F
100
AcDbEntity
  8
0
100
AcDbBlockBegin
  2
BLOCK70
 70
     0
 10
0.0
 20
0.0
 30
0.0
  3
BLOCK70
  1

  0
SOLID
  5
286
330
28F
100
AcDbEntity
  8
0
 62
     7
370
    13
100
AcDbTrace
 10
100.068146
 20
93.219154
 30
0.0
 11
102.0
 21
93.736786
 31
0.0
 12
100.068146
 22
93.219154
 32
0.0
 13
100.068146
 23
94.254425
 33
0.0
  0
SOLID
  5
287
330
28F
100
AcDbEntity
  8
0
 62
     7
370
    13
100
AcDbTrace
 10
104.931854
 20
94.254425
 30
0.0
 11
103.0
 21
93.736786
 31
0.0
 12
104.931854
 22
94.254425
 32
0.0
 13
104.931854
 23
93.219154
 33
0.0
  0
TEXT
  5
288
330
28F
100
AcDbEntity
  8
0
 62
     7
370
    13
100
AcDbText
 10
123.879997
 20
95.736786
 30
0.0
 40
3.0
  1
1
 41
2.602310000000003
 72
     5
 11
126.482307
 21
95.736786
 31
0.0
100
AcDbText
  0
LINE
  5
289
330
28F
100
AcDbEntity
  8
0
 62
     7
 48
0.076704
370
    13
100
AcDbLine
 10
97.0
 20
93.736786
 30
0.0
 11
100.068146
 21
93.736786
 31
0.0
  0
LINE
  5
28A
330
28F
100
AcDbEntity
  8
0
 62
     7
 48
0.025
370
    13
100
AcDbLine
 10
102.0
 20
93.736786
 30
0.0
 11
103.0
 21
93.736786
 31
0.0
  0
LINE
  5
28B
330
28F
100
AcDbEntity
  8
0
 62
     7
370
    13
100
AcDbLine
 10
104.931854
 20
93.736786
 30
0.0
 11
126.482307
 21
93.736786
 31
0.0
  0
LWPOLYLINE
  5
28C
330
28F
100
AcDbEntity
  8
0
 62
     7
370
    13
100
AcDbPolyline
 90
        3
 70
     1
 43
0.0
 10
100.068146
 20
93.219154
 10
102.0
 20
93.736786
 10
100.068146
 20
94.254425
  0
LWPOLYLINE
  5
28D
330
28F
100
AcDbEntity
  8
0
 62
     7
370
    13
100
AcDbPolyline
 90
        3
 70
     1
 43
0.0
 10
104.931854
 20
94.254425
 10
103.0
 20
93.736786
 10
104.931854
 20
93.219154
  0
ENDBLK
  5
399
330
28F
100
AcDbEntity
  8
0
100
AcDbBlockEnd
  0
BLOCK
  5
39A
330
2B6
100
AcDbEntity
  8
0
100
AcDbBlockBegin
  2
BLOCK71
 70
     0
 10
0.0
 20
0.0
 30
0.0
  3
BLOCK71
  1

  0
LINE
  5
291
330
2B6
100
AcDbEntity
  8
0
 62
     7
 48
0.0225
370
    35
100
AcDbLine
 10
-101.900002
 20
64.767822
 30
0.0
 11
-101.0
 21
64.767822
 31
0.0
  0
LINE
  5
292
330
2B6
100
AcDbEntity
  8
0
 62
     7
 48
0.45
370
    35
100
AcDbLine
 10
-101.0
 20
46.767826
 30
0.0
 11
-101.0
 21
64.767822
 31
0.0
  0
ARC
  5
293
330
2B6
100
AcDbEntity
  8
0
 62
     7
370
    35
100
AcDbCircle
 10
-100.0
 20
46.767826
 30
0.0
 40
1.0
100
AcDbArc
 50
180.000005
 51
269.999997
  0
ARC
  5
294
330
2B6
100
AcDbEntity
  8
0
 62
     7
370
    35
100
AcDbCircle
 10
100.0
 20
46.767826
 30
0.0
 40
1.0
100
AcDbArc
 50
269.999997
 51
0.0
  0
LINE
  5
295
330
2B6
100
AcDbEntity
  8
0
 62
     7
 48
0.0225
370
    35
100
AcDbLine
 10
101.0
 20
64.767822
 30
0.0
 11
101.900002
 21
64.767822
 31
0.0
  0
LINE
  5
296
330
2B6
100
AcDbEntity
  8
0
 62
     7
 48
0.45
370
    35
100
AcDbLine
 10
101.0
 20
46.767826
 30
0.0
 11
101.0
 21
64.767822
 31
0.0
  0
LINE
  5
297
330
2B6
100
AcDbEntity
  8
0
 62
     7
370
    35
100
AcDbLine
 10
-100.0
 20
45.767826
 30
0.0
 11
100.0
 21
45.767826
 31
0.0
  0
LINE
  5
298
330
2B6
100
AcDbEntity
  8
0
 62
     7
 48
0.45
370
    35
100
AcDbLine
 10
101.900002
 20
64.767822
 30
0.0
 11
101.900002
 21
46.767826
 31
0.0
  0
ARC
  5
299
330
2B6
100
AcDbEntity
  8
0
 62
     7
370
    35
100
AcDbCircle
 10
99.900002
 20
46.767826
 30
0.0
 40
2.0
100
AcDbArc
 50
269.999997
 51
0.0
  0
LINE
  5
29A
330
2B6
100
AcDbEntity
  8
0
 62
     7
 48
0.45
370
    35
100
AcDbLine
 10
-101.900002
 20
64.767822
 30
0.0
 11
-101.900002
 21
46.767826
 31
0.0
  0
LINE
  5
29B
330
2B6
100
AcDbEntity
  8
0
 62
     7
370
    35
100
AcDbLine
 10
99.900002
 20
44.767826
 30
0.0
 11
-99.900002
 21
44.767826
 31
0.0
  0
ARC
  5
29C
330
2B6
100
AcDbEntity
  8
0
 62
     7
370
    35
100
AcDbCircle
 10
-99.900002
 20
46.767826
 30
0.0
 40
2.0
100
AcDbArc
 50
180.000005
 51
269.999997
  0
LINE
  5
29D
330
2B6
100
AcDbEntity
  8
0
 62
     7
 48
0.025
370
    35
100
AcDbLine
 10
-102.0
 20
44.767826
 30
0.0
 11
-103.0
 21
44.767826
 31
0.0
  0
ARC
  5
29E
330
2B6
100
AcDbEntity
  8
0
 62
     7
370
    35
100
AcDbCircle
 10
-101.0
 20
248.767822
 30
0.0
 40
1.0
100
AcDbArc
 50
90.000003
 51
180.000005
  0
LINE
  5
29F
330
2B6
100
AcDbEntity
  8
0
 62
     7
 48
0.025
370
    35
100
AcDbLine
 10
-103.0
 20
240.767822
 30
0.0
 11
-102.0
 21
240.767822
 31
0.0
  0
LINE
  5
2A0
330
2B6
100
AcDbEntity
  8
0
 62
     7
 48
0.195
370
    35
100
AcDbLine
 10
-103.0
 20
240.767822
 30
0.0
 11
-103.0
 21
248.567825
 31
0.0
  0
ARC
  5
2A1
330
2B6
100
AcDbEntity
  8
0
 62
     7
370
    35
100
AcDbCircle
 10
-100.800003
 20
248.567825
 30
0.0
 40
2.2
100
AcDbArc
 50
90.000003
 51
179.999995
  0
LINE
  5
2A2
330
2B6
100
AcDbEntity
  8
0
 62
     7
370
    35
100
AcDbLine
 10
100.800003
 20
250.767822
 30
0.0
 11
-100.800003
 21
250.767822
 31
0.0
  0
ARC
  5
2A3
330
2B6
100
AcDbEntity
  8
0
 62
     7
370
    35
100
AcDbCircle
 10
100.800003
 20
248.567825
 30
0.0
 40
2.2
100
AcDbArc
 50
0.0
 51
90.000003
  0
LINE
  5
2A4
330
2B6
100
AcDbEntity
  8
0
 62
     7
 48
0.195
370
    35
100
AcDbLine
 10
103.0
 20
240.767822
 30
0.0
 11
103.0
 21
248.567825
 31
0.0
  0
LINE
  5
2A5
330
2B6
100
AcDbEntity
  8
0
 62
     7
 48
0.025
370
    35
100
AcDbLine
 10
102.0
 20
240.767822
 30
0.0
 11
103.0
 21
240.767822
 31
0.0
  0
LINE
  5
2A6
330
2B6
100
AcDbEntity
  8
0
 62
     7
 48
0.2
370
    35
100
AcDbLine
 10
102.0
 20
248.767822
 30
0.0
 11
102.0
 21
240.767822
 31
0.0
  0
ARC
  5
2A7
330
2B6
100
AcDbEntity
  8
0
 62
     7
370
    35
100
AcDbCircle
 10
101.0
 20
248.767822
 30
0.0
 40
1.0
100
AcDbArc
 50
0.0
 51
90.000003
  0
LINE
  5
2A8
330
2B6
100
AcDbEntity
  8
0
 62
     7
370
    35
100
AcDbLine
 10
-101.0
 20
249.767822
 30
0.0
 11
101.0
 21
249.767822
 31
0.0
  0
LINE
  5
2A9
330
2B6
100
AcDbEntity
  8
0
 62
     7
 48
0.2
370
    35
100
AcDbLine
 10
-102.0
 20
248.767822
 30
0.0
 11
-102.0
 21
240.767822
 31
0.0
  0
LINE
  5
2AA
330
2B6
100
AcDbEntity
  8
0
 62
     7
 48
0.055908
370
    35
100
AcDbLine
 10
103.0
 20
47.004143
 30
0.0
 11
103.0
 21
44.767826
 31
0.0
  0
LINE
  5
2AB
330
2B6
100
AcDbEntity
  8
0
 62
     7
370
    35
100
AcDbLine
 10
103.0
 20
240.767822
 30
0.0
 11
103.0
 21
47.004143
 31
0.0
  0
LINE
  5
2AC
330
2B6
100
AcDbEntity
  8
0
 62
     7
370
    35
100
AcDbLine
 10
102.0
 20
47.004143
 30
0.0
 11
102.0
 21
240.767822
 31
0.0
  0
LINE
  5
2AD
330
2B6
100
AcDbEntity
  8
0
 62
     7
 48
0.025
370
    13
100
AcDbLine
 10
103.0
 20
47.004143
 30
0.0
 11
102.0
 21
47.004143
 31
0.0
  0
LINE
  5
2AE
330
2B6
100
AcDbEntity
  8
0
 62
     7
 48
0.055908
370
    35
100
AcDbLine
 10
102.0
 20
44.767826
 30
0.0
 11
102.0
 21
47.004143
 31
0.0
  0
LINE
  5
2AF
330
2B6
100
AcDbEntity
  8
0
 62
     7
 48
0.025
370
    35
100
AcDbLine
 10
103.0
 20
44.767826
 30
0.0
 11
102.0
 21
44.767826
 31
0.0
  0
LINE
  5
2B0
330
2B6
100
AcDbEntity
  8
0
 62
     7
370
    35
100
AcDbLine
 10
-103.0
 20
240.767822
 30
0.0
 11
-103.0
 21
47.004143
 31
0.0
  0
LINE
  5
2B1
330
2B6
100
AcDbEntity
  8
0
 62
     7
 48
0.055908
370
    35
100
AcDbLine
 10
-103.0
 20
44.767826
 30
0.0
 11
-103.0
 21
47.004143
 31
0.0
  0
LINE
  5
2B2
330
2B6
100
AcDbEntity
  8
0
 62
     7
370
    35
100
AcDbLine
 10
-102.0
 20
47.004143
 30
0.0
 11
-102.0
 21
240.767822
 31
0.0
  0
LINE
  5
2B3
330
2B6
100
AcDbEntity
  8
0
 62
     7
 48
0.025
370
    13
100
AcDbLine
 10
-102.0
 20
47.004143
 30
0.0
 11
-103.0
 21
47.004143
 31
0.0
  0
LINE
  5
2B4
330
2B6
100
AcDbEntity
  8
0
 62
     7
 48
0.055908
370
    35
100
AcDbLine
 10
-102.0
 20
44.767826
 30
0.0
 11
-102.0
 21
47.004143
 31
0.0
  0
ENDBLK
  5
39B
330
2B6
100
AcDbEntity
  8
0
100
AcDbBlockEnd
  0
BLOCK
  5
39C
330
2C1
100
AcDbEntity
  8
0
100
AcDbBlockBegin
  2
DWG141519582
 70
     0
 10
0.0
 20
0.0
 30
0.0
  3
DWG141519582
  1

  0
INSERT
  5
2B8
330
2C1
100
AcDbEntity
  8
0
370
     0
100
AcDbBlockReference
  2
BLOCK64
 10
103.0000030000001
 20
23.22733500000001
 30
0.0
  0
INSERT
  5
2B9
330
2C1
100
AcDbEntity
  8
0
370
     0
100
AcDbBlockReference
  2
BLOCK65
 10
103.0000030000001
 20
23.22733500000001
 30
0.0
  0
INSERT
  5
2BA
330
2C1
100
AcDbEntity
  8
0
370
     0
100
AcDbBlockReference
  2
BLOCK66
 10
103.0000030000001
 20
23.22733500000001
 30
0.0
  0
INSERT
  5
2BB
330
2C1
100
AcDbEntity
  8
0
370
     0
100
AcDbBlockReference
  2
BLOCK67
 10
103.0000030000001
 20
23.22733500000001
 30
0.0
  0
INSERT
  5
2BC
330
2C1
100
AcDbEntity
  8
0
370
     0
100
AcDbBlockReference
  2
BLOCK68
 10
103.0000030000001
 20
23.22733500000001
 30
0.0
  0
INSERT
  5
2BD
330
2C1
100
AcDbEntity
  8
0
370
     0
100
AcDbBlockReference
  2
BLOCK69
 10
103.0000030000001
 20
23.22733500000001
 30
0.0
  0
INSERT
  5
2BE
330
2C1
100
AcDbEntity
  8
0
370
     0
100
AcDbBlockReference
  2
BLOCK70
 10
103.0000030000001
 20
23.22733500000001
 30
0.0
  0
INSERT
  5
2BF
330
2C1
100
AcDbEntity
  8
0
370
     0
100
AcDbBlockReference
  2
BLOCK71
 10
103.0000030000001
 20
23.22733500000001
 30
0.0
  0
ENDBLK
  5
39D
330
2C1
100
AcDbEntity
  8
0
100
AcDbBlockEnd
  0
BLOCK
  5
39E
330
2F7
100
AcDbEntity
  8
0
100
AcDbBlockBegin
  2
*D16
 70
     1
 10
0.0
 20
0.0
 30
0.0
  3
*D16
  1

  0
POINT
  5
2EE
330
2F7
100
AcDbEntity
  8
DEFPOINTS
  6
ByBlock
 62
     0
380
     1
100
AcDbPoint
 10
406.2431902173449
 20
186.1102191246977
 30
0.0
  0
POINT
  5
2EF
330
2F7
100
AcDbEntity
  8
DEFPOINTS
  6
ByBlock
 62
     0
380
     1
100
AcDbPoint
 10
612.2431902173448
 20
186.1102191246977
 30
0.0
  0
LINE
  5
2F0
330
2F7
100
AcDbEntity
  8
0
  6
ByBlock
 62
     0
370
    -2
380
     1
100
AcDbLine
 10
406.2431902173449
 20
186.7352191246977
 30
0.0
 11
406.2431902173449
 21
258.3004057723481
 31
0.0
  0
LINE
  5
2F1
330
2F7
100
AcDbEntity
  8
0
  6
ByBlock
 62
     0
370
    -2
380
     1
100
AcDbLine
 10
612.2431902173448
 20
186.7352191246977
 30
0.0
 11
612.2431902173448
 21
258.3004057723481
 31
0.0
  0
LINE
  5
2F2
330
2F7
100
AcDbEntity
  8
0
  6
ByBlock
 62
     0
370
    -2
380
     1
100
AcDbLine
 10
408.7431902173449
 20
257.0504057723481
 30
0.0
 11
609.7431902173448
 21
257.0504057723481
 31
0.0
  0
SOLID
  5
2F3
330
2F7
100
AcDbEntity
  8
0
  6
ByBlock
 62
     0
380
     1
100
AcDbTrace
 10
406.2431902173449
 20
257.0504057723481
 30
0.0
 11
408.7431902173449
 21
256.6337391056815
 31
0.0
 12
408.7431902173449
 22
257.4670724390148
 32
0.0
 13
408.7431902173449
 23
257.4670724390148
 33
0.0
  0
SOLID
  5
2F4
330
2F7
100
AcDbEntity
  8
0
  6
ByBlock
 62
     0
380
     1
100
AcDbTrace
 10
612.2431902173448
 20
257.0504057723481
 30
0.0
 11
609.7431902173448
 21
256.6337391056815
 31
0.0
 12
609.7431902173448
 22
257.4670724390148
 32
0.0
 13
609.7431902173448
 23
257.4670724390148
 33
0.0
  0
MTEXT
  5
2F5
330
2F7
100
AcDbEntity
  8
0
  6
ByBlock
 62
     0
370
    -2
380
     1
100
AcDbMText
 10
509.2431902173448
 20
258.9254057723481
 30
0.0
 40
2.5
 41
0.0
 71
     5
 72
     1
  1
\A1;206
 73
     1
 44
1.0
  0
ENDBLK
  5
39F
330
2F7
100
AcDbEntity
  8
0
100
AcDbBlockEnd
  0
BLOCK
  5
3A0
330
303
100
AcDbEntity
  8
0
100
AcDbBlockBegin
  2
*D17
 70
     1
 10
0.0
 20
0.0
 30
0.0
  3
*D17
  1

  0
POINT
  5
2FA
330
303
100
AcDbEntity
  8
DEFPOINTS
  6
ByBlock
 62
     0
380
     1
100
AcDbPoint
 10
406.2431902173449
 20
186.1102191246977
 30
0.0
  0
POINT
  5
2FB
330
303
100
AcDbEntity
  8
DEFPOINTS
  6
ByBlock
 62
     0
380
     1
100
AcDbPoint
 10
612.2431902173448
 20
186.1102191246977
 30
0.0
  0
LINE
  5
2FC
330
303
100
AcDbEntity
  8
0
  6
ByBlock
 62
     0
370
    -2
380
     1
100
AcDbLine
 10
406.2431902173449
 20
186.7352191246977
 30
0.0
 11
406.2431902173449
 21
271.8923027201232
 31
0.0
  0
LINE
  5
2FD
330
303
100
AcDbEntity
  8
0
  6
ByBlock
 62
     0
370
    -2
380
     1
100
AcDbLine
 10
612.2431902173448
 20
186.7352191246977
 30
0.0
 11
612.2431902173448
 21
271.8923027201232
 31
0.0
  0
LINE
  5
2FE
330
303
100
AcDbEntity
  8
0
  6
ByBlock
 62
     0
370
    -2
380
     1
100
AcDbLine
 10
408.7431902173449
 20
270.6423027201232
 30
0.0
 11
609.7431902173448
 21
270.6423027201232
 31
0.0
  0
SOLID
  5
2FF
330
303
100
AcDbEntity
  8
0
  6
ByBlock
 62
     0
380
     1
100
AcDbTrace
 10
406.2431902173449
 20
270.6423027201232
 30
0.0
 11
408.7431902173449
 21
270.2256360534565
 31
0.0
 12
408.7431902173449
 22
271.0589693867899
 32
0.0
 13
408.7431902173449
 23
271.0589693867899
 33
0.0
  0
SOLID
  5
300
330
303
100
AcDbEntity
  8
0
  6
ByBlock
 62
     0
380
     1
100
AcDbTrace
 10
612.2431902173448
 20
270.6423027201232
 30
0.0
 11
609.7431902173448
 21
270.2256360534565
 31
0.0
 12
609.7431902173448
 22
271.0589693867899
 32
0.0
 13
609.7431902173448
 23
271.0589693867899
 33
0.0
  0
MTEXT
  5
301
330
303
100
AcDbEntity
  8
0
  6
ByBlock
 62
     0
370
    -2
380
     1
100
AcDbMText
 10
509.2431902173448
 20
272.5173027201232
 30
0.0
 40
2.5
 41
0.0
 71
     5
 72
     1
  1
\A1;206
 73
     1
 44
1.0
  0
ENDBLK
  5
3A1
330
303
100
AcDbEntity
  8
0
100
AcDbBlockEnd
  0
BLOCK
  5
3A2
330
30E
100
AcDbEntity
  8
0
100
AcDbBlockBegin
  2
*D18
 70
     1
 10
0.0
 20
0.0
 30
0.0
  3
*D18
  1

  0
POINT
  5
305
330
30E
100
AcDbEntity
  8
DEFPOINTS
  6
ByBlock
 62
     0
380
     1
100
AcDbPoint
 10
406.2431902173449
 20
186.1102191246977
 30
0.0
  0
POINT
  5
306
330
30E
100
AcDbEntity
  8
DEFPOINTS
  6
ByBlock
 62
     0
380
     1
100
AcDbPoint
 10
612.2431902173448
 20
186.1102191246977
 30
0.0
  0
LINE
  5
307
330
30E
100
AcDbEntity
  8
0
  6
ByBlock
 62
     0
370
    -2
380
     1
100
AcDbLine
 10
406.2431902173449
 20
186.7352191246977
 30
0.0
 11
406.2431902173449
 21
271.8923027201232
 31
0.0
  0
LINE
  5
308
330
30E
100
AcDbEntity
  8
0
  6
ByBlock
 62
     0
370
    -2
380
     1
100
AcDbLine
 10
612.2431902173448
 20
186.7352191246977
 30
0.0
 11
612.2431902173448
 21
271.8923027201232
 31
0.0
  0
LINE
  5
309
330
30E
100
AcDbEntity
  8
0
  6
ByBlock
 62
     0
370
    -2
380
     1
100
AcDbLine
 10
408.7431902173449
 20
270.6423027201232
 30
0.0
 11
609.7431902173448
 21
270.6423027201232
 31
0.0
  0
SOLID
  5
30A
330
30E
100
AcDbEntity
  8
0
  6
ByBlock
 62
     0
380
     1
100
AcDbTrace
 10
406.2431902173449
 20
270.6423027201232
 30
0.0
 11
408.7431902173449
 21
270.2256360534565
 31
0.0
 12
408.7431902173449
 22
271.0589693867899
 32
0.0
 13
408.7431902173449
 23
271.0589693867899
 33
0.0
  0
SOLID
  5
30B
330
30E
100
AcDbEntity
  8
0
  6
ByBlock
 62
     0
380
     1
100
AcDbTrace
 10
612.2431902173448
 20
270.6423027201232
 30
0.0
 11
609.7431902173448
 21
270.2256360534565
 31
0.0
 12
609.7431902173448
 22
271.0589693867899
 32
0.0
 13
609.7431902173448
 23
271.0589693867899
 33
0.0
  0
MTEXT
  5
30C
330
30E
100
AcDbEntity
  8
0
  6
ByBlock
 62
     0
370
    -2
380
     1
100
AcDbMText
 10
509.2431902173448
 20
272.5173027201232
 30
0.0
 40
2.5
 41
0.0
 71
     5
 72
     1
  1
\A1;206
 73
     1
 44
1.0
  0
ENDBLK
  5
3A3
330
30E
100
AcDbEntity
  8
0
100
AcDbBlockEnd
  0
BLOCK
  5
3A4
330
319
100
AcDbEntity
  8
0
100
AcDbBlockBegin
  2
*D19
 70
     1
 10
0.0
 20
0.0
 30
0.0
  3
*D19
  1

  0
POINT
  5
310
330
319
100
AcDbEntity
  8
DEFPOINTS
  6
ByBlock
 62
     7
380
     1
100
AcDbPoint
 10
406.2431902173449
 20
186.1102191246977
 30
0.0
  0
POINT
  5
311
330
319
100
AcDbEntity
  8
DEFPOINTS
  6
ByBlock
 62
     7
380
     1
100
AcDbPoint
 10
612.2431902173448
 20
186.1102191246977
 30
0.0
  0
LINE
  5
312
330
319
100
AcDbEntity
  8
0
  6
ByBlock
 62
     7
370
    -2
380
     1
100
AcDbLine
 10
406.2431902173449
 20
186.7352191246977
 30
0.0
 11
406.2431902173449
 21
271.8923027201232
 31
0.0
  0
LINE
  5
313
330
319
100
AcDbEntity
  8
0
  6
ByBlock
 62
     7
370
    -2
380
     1
100
AcDbLine
 10
612.2431902173448
 20
186.7352191246977
 30
0.0
 11
612.2431902173448
 21
271.8923027201232
 31
0.0
  0
LINE
  5
314
330
319
100
AcDbEntity
  8
0
  6
ByBlock
 62
     7
370
    -2
380
     1
100
AcDbLine
 10
416.2431902173449
 20
270.6423027201232
 30
0.0
 11
602.2431902173448
 21
270.6423027201232
 31
0.0
  0
SOLID
  5
315
330
319
100
AcDbEntity
  8
0
  6
ByBlock
 62
     7
380
     1
100
AcDbTrace
 10
406.2431902173449
 20
270.6423027201232
 30
0.0
 11
416.2431902173449
 21
268.9756360534565
 31
0.0
 12
416.2431902173449
 22
272.3089693867899
 32
0.0
 13
416.2431902173449
 23
272.3089693867899
 33
0.0
  0
SOLID
  5
316
330
319
100
AcDbEntity
  8
0
  6
ByBlock
 62
     7
380
     1
100
AcDbTrace
 10
612.2431902173448
 20
270.6423027201232
 30
0.0
 11
602.2431902173448
 21
268.9756360534565
 31
0.0
 12
602.2431902173448
 22
272.3089693867899
 32
0.0
 13
602.2431902173448
 23
272.3089693867899
 33
0.0
  0
MTEXT
  5
317
330
319
100
AcDbEntity
  8
0
  6
ByBlock
 62
     0
370
    -2
380
     1
100
AcDbMText
 10
509.2431902173448
 20
282.6423027201232
 30
0.0
 40
14.0
 41
0.0
 71
     5
 72
     1
  1
\A1;206
 73
     1
 44
1.0
  0
ENDBLK
  5
3A5
330
319
100
AcDbEntity
  8
0
100
AcDbBlockEnd
  0
BLOCK
  5
3A6
330
357
100
AcDbEntity
  8
0
100
AcDbBlockBegin
  2
*D20
 70
     1
 10
0.0
 20
0.0
 30
0.0
  3
*D20
  1

  0
POINT
  5
34E
330
357
100
AcDbEntity
  8
DEFPOINTS
  6
ByBlock
 62
     7
380
     1
100
AcDbPoint
 10
133.89905892939
 20
245.9021434227467
 30
0.0
  0
POINT
  5
34F
330
357
100
AcDbEntity
  8
DEFPOINTS
  6
ByBlock
 62
     7
380
     1
100
AcDbPoint
 10
283.89905592939
 20
245.9021434227467
 30
0.0
  0
LINE
  5
350
330
357
100
AcDbEntity
  8
0
  6
ByBlock
 62
     7
370
    -2
380
     1
100
AcDbLine
 10
133.89905892939
 20
246.5271434227467
 30
0.0
 11
133.89905892939
 21
271.8923027201232
 31
0.0
  0
LINE
  5
351
330
357
100
AcDbEntity
  8
0
  6
ByBlock
 62
     7
370
    -2
380
     1
100
AcDbLine
 10
283.89905592939
 20
246.5271434227467
 30
0.0
 11
283.89905592939
 21
271.8923027201232
 31
0.0
  0
LINE
  5
352
330
357
100
AcDbEntity
  8
0
  6
ByBlock
 62
     7
370
    -2
380
     1
100
AcDbLine
 10
143.89905892939
 20
270.6423027201232
 30
0.0
 11
273.89905592939
 21
270.6423027201232
 31
0.0
  0
SOLID
  5
353
330
357
100
AcDbEntity
  8
0
  6
ByBlock
 62
     7
380
     1
100
AcDbTrace
 10
133.89905892939
 20
270.6423027201232
 30
0.0
 11
143.89905892939
 21
268.9756360534565
 31
0.0
 12
143.89905892939
 22
272.3089693867899
 32
0.0
 13
143.89905892939
 23
272.3089693867899
 33
0.0
  0
SOLID
  5
354
330
357
100
AcDbEntity
  8
0
  6
ByBlock
 62
     7
380
     1
100
AcDbTrace
 10
283.89905592939
 20
270.6423027201232
 30
0.0
 11
273.89905592939
 21
268.9756360534565
 31
0.0
 12
273.89905592939
 22
272.3089693867899
 32
0.0
 13
273.89905592939
 23
272.3089693867899
 33
0.0
  0
MTEXT
  5
355
330
357
100
AcDbEntity
  8
0
  6
ByBlock
 62
     0
370
    -2
380
     1
100
AcDbMText
 10
208.89905742939
 20
282.6423027201232
 30
0.0
 40
14.0
 41
0.0
 71
     5
 72
     1
  1
\A1;150
 73
     1
 44
1.0
  0
ENDBLK
  5
3A7
330
357
100
AcDbEntity
  8
0
100
AcDbBlockEnd
  0
BLOCK
  5
3A8
330
362
100
AcDbEntity
  8
0
100
AcDbBlockBegin
  2
*D21
 70
     1
 10
0.0
 20
0.0
 30
0.0
  3
*D21
  1

  0
POINT
  5
359
330
362
100
AcDbEntity
  8
DEFPOINTS
  6
ByBlock
 62
     7
380
     1
100
AcDbPoint
 10
281.2928983113234
 20
247.0021419227467
 30
0.0
  0
POINT
  5
35A
330
362
100
AcDbEntity
  8
DEFPOINTS
  6
ByBlock
 62
     7
380
     1
100
AcDbPoint
 10
281.2928983113234
 20
41.00214592274676
 30
0.0
  0
LINE
  5
35B
330
362
100
AcDbEntity
  8
0
  6
ByBlock
 62
     7
370
    -2
380
     1
100
AcDbLine
 10
281.9178983113234
 20
247.0021419227467
 30
0.0
 11
325.0804070938337
 21
247.0021419227467
 31
0.0
  0
LINE
  5
35C
330
362
100
AcDbEntity
  8
0
  6
ByBlock
 62
     7
370
    -2
380
     1
100
AcDbLine
 10
281.9178983113234
 20
41.00214592274676
 30
0.0
 11
325.0804070938337
 21
41.00214592274676
 31
0.0
  0
LINE
  5
35D
330
362
100
AcDbEntity
  8
0
  6
ByBlock
 62
     7
370
    -2
380
     1
100
AcDbLine
 10
323.8304070938337
 20
237.0021419227467
 30
0.0
 11
323.8304070938337
 21
51.00214592274676
 31
0.0
  0
SOLID
  5
35E
330
362
100
AcDbEntity
  8
0
  6
ByBlock
 62
     7
380
     1
100
AcDbTrace
 10
323.8304070938337
 20
247.0021419227467
 30
0.0
 11
322.163740427167
 21
237.0021419227467
 31
0.0
 12
325.4970737605004
 22
237.0021419227467
 32
0.0
 13
325.4970737605004
 23
237.0021419227467
 33
0.0
  0
SOLID
  5
35F
330
362
100
AcDbEntity
  8
0
  6
ByBlock
 62
     7
380
     1
100
AcDbTrace
 10
323.8304070938337
 20
41.00214592274676
 30
0.0
 11
322.163740427167
 21
51.00214592274676
 31
0.0
 12
325.4970737605004
 22
51.00214592274676
 32
0.0
 13
325.4970737605004
 23
51.00214592274676
 33
0.0
  0
MTEXT
  5
360
330
362
100
AcDbEntity
  8
0
  6
ByBlock
 62
     0
370
    -2
380
     1
100
AcDbMText
 10
311.8304070938337
 20
144.0021439227467
 30
0.0
 40
14.0
 41
0.0
 71
     5
 72
     1
  1
\A1;206
 11
6.123031769111886E-17
 21
1.0
 31
0.0
 73
     1
 44
1.0
  0
ENDBLK
  5
3A9
330
362
100
AcDbEntity
  8
0
100
AcDbBlockEnd
  0
BLOCK
  5
3AA
330
36E
100
AcDbEntity
  8
0
100
AcDbBlockBegin
  2
*D22
 70
     1
 10
0.0
 20
0.0
 30
0.0
  3
*D22
  1

  0
POINT
  5
364
330
36E
100
AcDbEntity
  8
DEFPOINTS
  6
ByBlock
 62
     7
380
     1
100
AcDbPoint
 10
135.1448638591642
 20
247.0021419227467
 30
0.0
  0
POINT
  5
365
330
36E
100
AcDbEntity
  8
DEFPOINTS
  6
ByBlock
 62
     7
380
     1
100
AcDbPoint
 10
133.89905892939
 20
237.0021419227467
 30
0.0
  0
LINE
  5
366
330
36E
100
AcDbEntity
  8
0
  6
ByBlock
 62
     7
370
    -2
380
     1
100
AcDbLine
 10
134.5198638591642
 20
247.0021419227467
 30
0.0
 11
111.1083546770594
 21
247.0021419227467
 31
0.0
  0
LINE
  5
367
330
36E
100
AcDbEntity
  8
0
  6
ByBlock
 62
     7
370
    -2
380
     1
100
AcDbLine
 10
133.27405892939
 20
237.0021419227467
 30
0.0
 11
111.1083546770594
 21
237.0021419227467
 31
0.0
  0
LINE
  5
368
330
36E
100
AcDbEntity
  8
0
  6
ByBlock
 62
     7
370
    -2
380
     1
100
AcDbLine
 10
112.3583546770594
 20
257.0021419227467
 30
0.0
 11
112.3583546770594
 21
267.0021419227467
 31
0.0
  0
LINE
  5
369
330
36E
100
AcDbEntity
  8
0
  6
ByBlock
 62
     7
370
    -2
380
     1
100
AcDbLine
 10
112.3583546770594
 20
227.0021419227467
 30
0.0
 11
112.3583546770594
 21
217.0021419227467
 31
0.0
  0
SOLID
  5
36A
330
36E
100
AcDbEntity
  8
0
  6
ByBlock
 62
     7
380
     1
100
AcDbTrace
 10
112.3583546770594
 20
247.0021419227467
 30
0.0
 11
110.6916880103927
 21
257.0021419227467
 31
0.0
 12
114.0250213437261
 22
257.0021419227467
 32
0.0
 13
114.0250213437261
 23
257.0021419227467
 33
0.0
  0
SOLID
  5
36B
330
36E
100
AcDbEntity
  8
0
  6
ByBlock
 62
     7
380
     1
100
AcDbTrace
 10
112.3583546770594
 20
237.0021419227467
 30
0.0
 11
110.6916880103927
 21
227.0021419227467
 31
0.0
 12
114.0250213437261
 22
227.0021419227467
 32
0.0
 13
114.0250213437261
 23
227.0021419227467
 33
0.0
  0
MTEXT
  5
36C
330
36E
100
AcDbEntity
  8
0
  6
ByBlock
 62
     0
370
    -2
380
     1
100
AcDbMText
 10
100.3583546770594
 20
242.0021419227467
 30
0.0
 40
14.0
 41
0.0
 71
     5
 72
     1
  1
\A1;10
 11
6.123031769111886E-17
 21
1.0
 31
0.0
 73
     1
 44
1.0
  0
ENDBLK
  5
3AB
330
36E
100
AcDbEntity
  8
0
100
AcDbBlockEnd
  0
BLOCK
  5
3AC
330
379
100
AcDbEntity
  8
0
100
AcDbBlockBegin
  2
*D23
 70
     1
 10
0.0
 20
0.0
 30
0.0
  3
*D23
  1

  0
POINT
  5
370
330
379
100
AcDbEntity
  8
DEFPOINTS
  6
ByBlock
 62
     7
380
     1
100
AcDbPoint
 10
133.89905892939
 20
245.9021434227467
 30
0.0
  0
POINT
  5
371
330
379
100
AcDbEntity
  8
DEFPOINTS
  6
ByBlock
 62
     7
380
     1
100
AcDbPoint
 10
283.89905592939
 20
245.9021434227467
 30
0.0
  0
LINE
  5
372
330
379
100
AcDbEntity
  8
0
  6
ByBlock
 62
     7
370
    -2
380
     1
100
AcDbLine
 10
133.89905892939
 20
246.5271434227467
 30
0.0
 11
133.89905892939
 21
271.8923027201232
 31
0.0
  0
LINE
  5
373
330
379
100
AcDbEntity
  8
0
  6
ByBlock
 62
     7
370
    -2
380
     1
100
AcDbLine
 10
283.89905592939
 20
246.5271434227467
 30
0.0
 11
283.89905592939
 21
271.8923027201232
 31
0.0
  0
LINE
  5
374
330
379
100
AcDbEntity
  8
0
  6
ByBlock
 62
     7
370
    -2
380
     1
100
AcDbLine
 10
143.89905892939
 20
270.6423027201232
 30
0.0
 11
273.89905592939
 21
270.6423027201232
 31
0.0
  0
SOLID
  5
375
330
379
100
AcDbEntity
  8
0
  6
ByBlock
 62
     7
380
     1
100
AcDbTrace
 10
133.89905892939
 20
270.6423027201232
 30
0.0
 11
143.89905892939
 21
268.9756360534565
 31
0.0
 12
143.89905892939
 22
272.3089693867899
 32
0.0
 13
143.89905892939
 23
272.3089693867899
 33
0.0
  0
SOLID
  5
376
330
379
100
AcDbEntity
  8
0
  6
ByBlock
 62
     7
380
     1
100
AcDbTrace
 10
283.89905592939
 20
270.6423027201232
 30
0.0
 11
273.89905592939
 21
268.9756360534565
 31
0.0
 12
273.89905592939
 22
272.3089693867899
 32
0.0
 13
273.89905592939
 23
272.3089693867899
 33
0.0
  0
MTEXT
  5
377
330
379
100
AcDbEntity
  8
0
  6
ByBlock
 62
     0
370
    -2
380
     1
100
AcDbMText
 10
208.89905742939
 20
282.6423027201232
 30
0.0
 40
14.0
 41
0.0
 71
     5
 72
     1
  1
\A1;150
 73
     1
 44
1.0
  0
ENDBLK
  5
3AD
330
379
100
AcDbEntity
  8
0
100
AcDbBlockEnd
  0
ENDSEC
  0
SECTION
  2
ENTITIES
  0
POINT
  5
115
330
1F
100
AcDbEntity
  8
0
 62
     7
370
    60
100
AcDbPoint
 10
133.89905992939
 20
237.0021419227467
 30
0.0
  0
POINT
  5
116
330
1F
100
AcDbEntity
  8
0
 62
     7
370
    60
100
AcDbPoint
 10
133.89905992939
 20
247.0021419227467
 30
0.0
  0
LINE
  5
166
330
1F
100
AcDbEntity
  8
0
 62
     7
 48
0.432912
370
    60
100
AcDbLine
 10
283.89905592939
 20
41.00214592274676
 30
0.0
 11
266.58256192939
 21
41.00214592274676
 31
0.0
  0
LINE
  5
167
330
1F
100
AcDbEntity
  8
0
 62
     7
 48
0.195
370
    60
100
AcDbLine
 10
133.89905892939
 20
237.0021419227467
 30
0.0
 11
133.89905892939
 21
244.8021449227468
 31
0.0
  0
LINE
  5
168
330
1F
100
AcDbEntity
  8
0
 62
     7
 48
0.055
370
    60
100
AcDbLine
 10
133.89905892939
 20
247.0021419227467
 30
0.0
 11
133.89905892939
 21
244.8021449227468
 31
0.0
  0
LINE
  5
169
330
1F
100
AcDbEntity
  8
0
 62
     7
370
    60
100
AcDbLine
 10
133.89905892939
 20
244.8021449227468
 30
0.0
 11
283.89905592939
 21
244.8021449227468
 31
0.0
  0
LINE
  5
16A
330
1F
100
AcDbEntity
  8
0
 62
     7
370
    60
100
AcDbLine
 10
133.89905892939
 20
247.0021419227467
 30
0.0
 11
283.89905592939
 21
247.0021419227467
 31
0.0
  0
LINE
  5
16B
330
1F
100
AcDbEntity
  8
0
 62
     7
 48
0.055
370
    60
100
AcDbLine
 10
283.89905592939
 20
247.0021419227467
 30
0.0
 11
283.89905592939
 21
244.8021449227468
 31
0.0
  0
LINE
  5
16C
330
1F
100
AcDbEntity
  8
0
 62
     7
370
    60
100
AcDbLine
 10
133.89905892939
 20
237.0021419227467
 30
0.0
 11
262.4157829293899
 21
43.23846292274675
 31
0.0
  0
ARC
  5
16D
330
1F
100
AcDbEntity
  8
0
 62
     7
370
    60
100
AcDbCircle
 10
266.58256192939
 20
46.00214592274676
 30
0.0
 40
4.999999999999985
100
AcDbArc
 50
213.5549369999999
 51
270.0000029999999
  0
LINE
  5
16E
330
1F
100
AcDbEntity
  8
0
 62
     7
370
    60
100
AcDbLine
 10
283.89905592939
 20
41.00214592274676
 30
0.0
 11
283.89905592939
 21
244.8021449227468
 31
0.0
  0
CIRCLE
  5
16F
330
1F
100
AcDbEntity
  8
0
 62
     7
370
    60
100
AcDbCircle
 10
268.6990549293899
 20
134.0438139227468
 30
0.0
 40
2.100000000000023
  0
CIRCLE
  5
170
330
1F
100
AcDbEntity
  8
0
 62
     7
370
    60
100
AcDbCircle
 10
268.6990549293899
 20
154.0438139227468
 30
0.0
 40
2.100000000000023
  0
POINT
  5
171
330
1F
100
AcDbEntity
  8
0
370
    60
100
AcDbPoint
 10
277.8528387573818
 20
247.0021419227467
 30
0.0
  0
POINT
  5
172
330
1F
100
AcDbEntity
  8
0
370
    60
100
AcDbPoint
 10
275.24080892939
 20
41.00214592274676
 30
0.0
  0
DIMENSION
  5
186
330
1F
100
AcDbEntity
  8
0
370
    25
100
AcDbDimension
  2
*D23
 10
283.89905592939
 20
270.6423027201232
 30
0.0
 11
208.89905742939
 21
282.6423027201232
 31
0.0
 70
   160
 71
     5
 41
2.5
 42
149.999997
  3
ISO-25
100
AcDbAlignedDimension
 13
133.89905892939
 23
245.9021434227467
 33
0.0
 14
283.89905592939
 24
245.9021434227467
 34
0.0
100
AcDbRotatedDimension
1001
ACAD
1000
DSTYLE
1002
{
1070
    41
1040
10.0
1070
   140
1040
14.0
1070
   147
1040
5.0
1070
   176
1070
     7
1070
   177
1070
     7
1002
}
  0
DIMENSION
  5
192
330
1F
100
AcDbEntity
  8
0
370
    25
100
AcDbDimension
  2
*D22
 10
112.3583546770594
 20
237.0021419227467
 30
0.0
 11
100.3583546770594
 21
242.0021419227467
 31
0.0
 70
   160
 71
     5
 41
2.5
 42
10.0
  3
ISO-25
100
AcDbAlignedDimension
 13
135.1448638591642
 23
247.0021419227467
 33
0.0
 14
133.89905892939
 24
237.0021419227467
 34
0.0
 50
90.0
100
AcDbRotatedDimension
1001
ACAD
1000
DSTYLE
1002
{
1070
    41
1040
10.0
1070
   140
1040
14.0
1070
   147
1040
5.0
1070
   176
1070
     7
1070
   177
1070
     7
1002
}
  0
DIMENSION
  5
19E
330
1F
100
AcDbEntity
  8
0
370
    25
100
AcDbDimension
  2
*D21
 10
323.8304070938337
 20
41.00214592274676
 30
0.0
 11
311.8304070938337
 21
144.0021439227467
 31
0.0
 70
    32
 71
     5
 41
2.5
 42
205.9999959999999
  3
ISO-25
100
AcDbAlignedDimension
 13
281.2928983113234
 23
247.0021419227467
 33
0.0
 14
281.2928983113234
 24
41.00214592274676
 34
0.0
 50
90.0
100
AcDbRotatedDimension
1001
ACAD
1000
DSTYLE
1002
{
1070
    41
1040
10.0
1070
   140
1040
14.0
1070
   147
1040
5.0
1070
   176
1070
     7
1070
   177
1070
     7
1002
}
  0
ARC
  5
2CA
330
1F
100
AcDbEntity
  8
0
 62
     7
370
    60
100
AcDbCircle
 10
608.4124008073961
 20
44.76643265187414
 30
0.0
 40
3.834567838868224
100
AcDbArc
 50
280.9866246200281
 51
357.4562717474242
  0
LINE
  5
2CB
330
1F
100
AcDbEntity
  8
0
 62
     7
370
    60
100
AcDbLine
 10
609.1431922173449
 20
41.00214592274676
 30
0.0
 11
409.3431882173449
 21
41.00214592274676
 31
0.0
  0
ARC
  5
2CC
330
1F
100
AcDbEntity
  8
0
 62
     7
370
    60
100
AcDbCircle
 10
410.0940328936326
 20
44.81484523399143
 30
0.0
 40
3.885928965270968
100
AcDbArc
 50
187.7052411339689
 51
258.8591563792208
  0
LINE
  5
2CD
330
1F
100
AcDbEntity
  8
0
 62
     7
 48
0.195
370
    60
100
AcDbLine
 10
406.2431902173449
 20
237.0021419227467
 30
0.0
 11
406.2431902173449
 21
244.8021449227468
 31
0.0
  0
ARC
  5
2CE
330
1F
100
AcDbEntity
  8
0
 62
     7
370
    60
100
AcDbCircle
 10
408.4431872173449
 20
244.8021449227468
 30
0.0
 40
2.200000000000049
100
AcDbArc
 50
90.00000300000093
 51
179.999995000001
  0
LINE
  5
2CF
330
1F
100
AcDbEntity
  8
0
 62
     7
370
    60
100
AcDbLine
 10
610.0431932173449
 20
247.0021419227467
 30
0.0
 11
408.4431872173449
 21
247.0021419227467
 31
0.0
  0
ARC
  5
2D0
330
1F
100
AcDbEntity
  8
0
 62
     7
370
    60
100
AcDbCircle
 10
610.0431932173449
 20
244.8021449227468
 30
0.0
 40
2.199999999999932
100
AcDbArc
 50
0.0
 51
90.00000299999999
  0
LINE
  5
2D1
330
1F
100
AcDbEntity
  8
0
 62
     7
 48
0.195
370
    60
100
AcDbLine
 10
612.2431902173448
 20
237.0021419227467
 30
0.0
 11
612.2431902173448
 21
244.8021449227468
 31
0.0
  0
LINE
  5
2D2
330
1F
100
AcDbEntity
  8
0
 62
     7
370
    60
100
AcDbLine
 10
612.2431902173448
 20
237.0021419227467
 30
0.0
 11
612.2431902173448
 21
44.59624743657486
 31
0.0
  0
LINE
  5
2D3
330
1F
100
AcDbEntity
  8
0
 62
     7
370
    60
100
AcDbLine
 10
406.2431902173449
 20
237.0021419227467
 30
0.0
 11
406.2431902173449
 21
44.29383217694459
 31
0.0
  0
POINT
  5
2D4
330
1F
100
AcDbEntity
  8
0
 62
     7
100
AcDbPoint
 10
406.2431902173449
 20
214.7712984612194
 30
0.0
  0
POINT
  5
2D5
330
1F
100
AcDbEntity
  8
0
 62
     7
100
AcDbPoint
 10
612.2431902173448
 20
211.6541255661405
 30
0.0
  0
DIMENSION
  5
2EC
330
1F
100
AcDbEntity
  8
0
370
    25
100
AcDbDimension
  2
*D19
 10
612.2431902173448
 20
270.6423027201232
 30
0.0
 11
509.2431902173448
 21
282.6423027201232
 31
0.0
 70
   160
 71
     5
 41
2.5
 42
205.9999999999999
  3
ISO-25
100
AcDbAlignedDimension
 13
406.2431902173449
 23
186.1102191246977
 33
0.0
 14
612.2431902173448
 24
186.1102191246977
 34
0.0
100
AcDbRotatedDimension
1001
ACAD
1000
DSTYLE
1002
{
1070
    41
1040
10.0
1070
   140
1040
14.0
1070
   147
1040
5.0
1070
   176
1070
     7
1070
   177
1070
     7
1002
}
  0
VIEWPORT
  5
BB
330
73
100
AcDbEntity
 67
     1
  8
0
100
AcDbViewport
 10
7.8
 20
4.5
 30
0.0
 40
15.64
 41
9.0
 68
     1
 69
     1
 12
6.0
 22
4.5
 13
0.0
 23
0.0
 14
0.5
 24
0.5
 15
0.5
 25
0.5
 16
0.0
 26
0.0
 36
1.0
 17
0.0
 27
0.0
 37
0.0
 42
50.0
 43
0.0
 44
0.0
 45
12.0
 50
0.0
 51
0.0
 72
   100
 90
   557152
  1

281
     0
 71
     1
 74
     0
110
0.0
120
0.0
130
0.0
111
1.0
121
0.0
131
0.0
112
0.0
122
1.0
132
0.0
 79
     0
146
0.0
  0
ENDSEC
  0
SECTION
  2
OBJECTS
  0
DICTIONARY
  5
C
330
0
100
AcDbDictionary
281
     1
  3
ACAD_COLOR
350
6C
  3
ACAD_GROUP
350
D
  3
ACAD_LAYOUT
350
1A
  3
ACAD_MATERIAL
350
6B
  3
ACAD_MLEADERSTYLE
350
245
  3
ACAD_MLINESTYLE
350
17
  3
ACAD_PLOTSETTINGS
350
19
  3
ACAD_PLOTSTYLENAME
350
E
  3
ACAD_SCALELIST
350
99
  3
ACAD_TABLESTYLE
350
92
  3
ACDBHEADERROUNDTRIPXREC
350
3AE
  3
AcDbVariableDictionary
350
59
  3
DWGPROPS
350
3B1
  0
DICTIONARY
  5
6C
102
{ACAD_REACTORS
330
C
102
}
330
C
100
AcDbDictionary
281
     1
  0
DICTIONARY
  5
D
102
{ACAD_REACTORS
330
C
102
}
330
C
100
AcDbDictionary
281
     1
  0
DICTIONARY
  5
1A
102
{ACAD_REACTORS
330
C
102
}
330
C
100
AcDbDictionary
281
     1
  3
Layout1
350
74
  3
Layout2
350
21F
  3
Model
350
22
  0
DICTIONARY
  5
6B
102
{ACAD_REACTORS
330
C
102
}
330
C
100
AcDbDictionary
281
     1
  0
DICTIONARY
  5
245
102
{ACAD_REACTORS
330
C
102
}
330
C
100
AcDbDictionary
281
     1
  0
DICTIONARY
  5
17
102
{ACAD_REACTORS
330
C
102
}
330
C
100
AcDbDictionary
281
     1
  3
Standard
350
18
  0
DICTIONARY
  5
19
102
{ACAD_REACTORS
330
C
102
}
330
C
100
AcDbDictionary
281
     1
  0
ACDBDICTIONARYWDFLT
  5
E
102
{ACAD_REACTORS
330
C
102
}
330
C
100
AcDbDictionary
281
     1
  3
Normal
350
F
100
AcDbDictionaryWithDefault
340
F
  0
DICTIONARY
  5
99
102
{ACAD_REACTORS
330
C
102
}
330
C
100
AcDbDictionary
281
     1
  3
A0
350
D5
  3
A1
350
D6
  3
A2
350
D7
  3
A3
350
D8
  3
A4
350
D9
  3
A5
350
DA
  3
A6
350
DB
  3
A7
350
DC
  3
A8
350
DD
  3
A9
350
DE
  3
B0
350
DF
  3
B1
350
E0
  3
B2
350
E1
  3
B3
350
E2
  3
B4
350
E3
  3
B5
350
E4
  3
B6
350
E5
  3
B7
350
E6
  3
B8
350
E7
  3
B9
350
E8
  3
C0
350
E9
  3
C1
350
EA
  3
C2
350
EB
  3
C3
350
EC
  3
C4
350
ED
  3
C5
350
EE
  3
C6
350
EF
  3
C7
350
F0
  3
C8
350
F1
  3
C9
350
F2
  3
D0
350
F3
  3
D1
350
F4
  3
D2
350
F5
  0
DICTIONARY
  5
92
102
{ACAD_REACTORS
330
C
102
}
330
C
100
AcDbDictionary
281
     1
  0
DICTIONARY
  5
3AE
102
{ACAD_REACTORS
330
C
102
}
330
C
100
AcDbDictionary
281
     1
  3
COLORDICT
350
3AF
  3
MATERIALDICT
350
3B0
  0
DICTIONARY
  5
59
102
{ACAD_REACTORS
330
C
102
}
330
C
100
AcDbDictionary
281
     1
  3
CTABLESTYLE
350
98
  3
DIMASSOC
350
5A
  3
HIDETEXT
350
5E
  0
XRECORD
  5
3B1
102
{ACAD_REACTORS
330
C
102
}
330
C
100
AcDbXrecord
280
     1
  1
DWGPROPS COOKIE
  2

  3

  4

  6

  7

  8
BelottiMc
  9

300
=
301
=
302
=
303
=
304
=
305
=
306
=
307
=
308
=
309
=
 40
0.0
 41
2455089.540867986
 42
2455089.587852952
  1

 90
        0
  0
LAYOUT
  5
74
102
{ACAD_REACTORS
330
1A
102
}
330
1A
100
AcDbPlotSettings
  1

  2
ProgeSOFT PDF Wizard
  4
A4
  6

 40
5.926666666666667
 41
6.011333333333317
 42
6.095999999999985
 43
5.926666666666667
 44
210.0
 45
297.0
 46
88.56200000000001
 47
136.531
 48
0.0
 49
0.0
140
0.0
141
0.0
142
1.0
143
1.0
 70
   692
 72
     1
 73
     0
 74
     0
  7

 75
    16
147
1.0
148
4.426666666666668
149
1.5
100
AcDbLayout
  1
Layout1
 70
     1
 71
     1
 10
0.0
 20
0.0
 11
0.0
 21
0.0
 12
0.0
 22
0.0
 32
0.0
 14
0.0
 24
0.0
 34
0.0
 15
0.0
 25
0.0
 35
0.0
146
0.0
 13
0.0
 23
0.0
 33
0.0
 16
1.0
 26
0.0
 36
0.0
 17
0.0
 27
1.0
 37
0.0
 76
     0
330
D1
331
244
1001
PROGE_PRINT_SETTINGS
1070
    73
1070
     1
  0
LAYOUT
  5
21F
102
{ACAD_REACTORS
330
1A
102
}
330
1A
100
AcDbPlotSettings
  1

  2
ProgeSOFT PDF Wizard
  4
A4
  6

 40
5.926666666666667
 41
6.011333333333317
 42
6.095999999999985
 43
5.926666666666667
 44
210.0
 45
297.0
 46
88.562
 47
136.531
 48
0.0
 49
0.0
140
0.0
141
0.0
142
1.0
143
1.0
 70
   692
 72
     1
 73
     0
 74
     0
  7

 75
    16
147
1.0
148
0.0
149
0.0
100
AcDbLayout
  1
Layout2
 70
     1
 71
     2
 10
0.0
 20
0.0
 11
12.0
 21
9.0
 12
0.0
 22
0.0
 32
0.0
 14
0.0
 24
0.0
 34
0.0
 15
12.0
 25
9.0
 35
0.0
146
0.0
 13
0.0
 23
0.0
 33
0.0
 16
1.0
 26
0.0
 36
0.0
 17
0.0
 27
1.0
 37
0.0
 76
     0
330
73
331
BB
1001
PROGE_PRINT_SETTINGS
1070
    73
1070
     1
  0
LAYOUT
  5
22
102
{ACAD_REACTORS
330
1A
102
}
330
1A
100
AcDbPlotSettings
  1

  2
ProgeSOFT PDF Wizard
  4
A4
  6

 40
5.926666666666667
 41
6.011333333333317
 42
6.095999999999985
 43
5.926666666666667
 44
210.0
 45
297.0
 46
0.0000000000000112
 47
83.0721902789285
 48
0.0
 49
0.0
140
0.0
141
0.0
142
1.0
143
4.038144808607321
 70
 11956
 72
     1
 73
     0
 74
     0
  7

 75
     0
147
0.2476384694943322
148
-3.400199560296358
149
56.65227525132178
100
AcDbLayout
  1
Model
 70
     1
 71
     0
 10
0.0
 20
0.0
 11
0.0
 21
0.0
 12
0.0
 22
0.0
 32
0.0
 14
93.3583546770594
 24
41.00214592274676
 34
0.0
 15
612.2431932173448
 25
289.6423027201232
 35
0.0
146
0.0
 13
0.0
 23
0.0
 33
0.0
 16
1.0
 26
0.0
 36
0.0
 17
0.0
 27
1.0
 37
0.0
 76
     0
330
1F
331
97
1001
PROGE_PRINT_SETTINGS
1070
    73
1070
     1
  0
MLINESTYLE
  5
18
102
{ACAD_REACTORS
330
17
102
}
330
17
100
AcDbMlineStyle
  2
STANDARD
 70
     0
  3

 62
   256
 51
90.0
 52
90.0
 71
     2
 49
0.5
 62
   256
  6
BYLAYER
 49
-0.5
 62
   256
  6
BYLAYER
  0
ACDBPLACEHOLDER
  5
F
102
{ACAD_REACTORS
330
E
102
}
330
E
  0
SCALE
  5
D5
102
{ACAD_REACTORS
330
99
102
}
330
99
100
AcDbScale
 70
     0
300
1:1
140
1.0
141
1.0
290
     1
  0
SCALE
  5
D6
102
{ACAD_REACTORS
330
99
102
}
330
99
100
AcDbScale
 70
     0
300
1:2
140
1.0
141
2.0
290
     0
  0
SCALE
  5
D7
102
{ACAD_REACTORS
330
99
102
}
330
99
100
AcDbScale
 70
     0
300
1:4
140
1.0
141
4.0
290
     0
  0
SCALE
  5
D8
102
{ACAD_REACTORS
330
99
102
}
330
99
100
AcDbScale
 70
     0
300
1:5
140
1.0
141
5.0
290
     0
  0
SCALE
  5
D9
102
{ACAD_REACTORS
330
99
102
}
330
99
100
AcDbScale
 70
     0
300
1:8
140
1.0
141
8.0
290
     0
  0
SCALE
  5
DA
102
{ACAD_REACTORS
330
99
102
}
330
99
100
AcDbScale
 70
     0
300
1:10
140
1.0
141
10.0
290
     0
  0
SCALE
  5
DB
102
{ACAD_REACTORS
330
99
102
}
330
99
100
AcDbScale
 70
     0
300
1:16
140
1.0
141
16.0
290
     0
  0
SCALE
  5
DC
102
{ACAD_REACTORS
330
99
102
}
330
99
100
AcDbScale
 70
     0
300
1:20
140
1.0
141
20.0
290
     0
  0
SCALE
  5
DD
102
{ACAD_REACTORS
330
99
102
}
330
99
100
AcDbScale
 70
     0
300
1:30
140
1.0
141
30.0
290
     0
  0
SCALE
  5
DE
102
{ACAD_REACTORS
330
99
102
}
330
99
100
AcDbScale
 70
     0
300
1:40
140
1.0
141
40.0
290
     0
  0
SCALE
  5
DF
102
{ACAD_REACTORS
330
99
102
}
330
99
100
AcDbScale
 70
     0
300
1:50
140
1.0
141
50.0
290
     0
  0
SCALE
  5
E0
102
{ACAD_REACTORS
330
99
102
}
330
99
100
AcDbScale
 70
     0
300
1:100
140
1.0
141
100.0
290
     0
  0
SCALE
  5
E1
102
{ACAD_REACTORS
330
99
102
}
330
99
100
AcDbScale
 70
     0
300
2:1
140
2.0
141
1.0
290
     0
  0
SCALE
  5
E2
102
{ACAD_REACTORS
330
99
102
}
330
99
100
AcDbScale
 70
     0
300
4:1
140
4.0
141
1.0
290
     0
  0
SCALE
  5
E3
102
{ACAD_REACTORS
330
99
102
}
330
99
100
AcDbScale
 70
     0
300
8:1
140
8.0
141
1.0
290
     0
  0
SCALE
  5
E4
102
{ACAD_REACTORS
330
99
102
}
330
99
100
AcDbScale
 70
     0
300
10:1
140
10.0
141
1.0
290
     0
  0
SCALE
  5
E5
102
{ACAD_REACTORS
330
99
102
}
330
99
100
AcDbScale
 70
     0
300
100:1
140
100.0
141
1.0
290
     0
  0
SCALE
  5
E6
102
{ACAD_REACTORS
330
99
102
}
330
99
100
AcDbScale
 70
     0
300
1/128" = 1'-0"
140
0.0078125
141
12.0
290
     0
  0
SCALE
  5
E7
102
{ACAD_REACTORS
330
99
102
}
330
99
100
AcDbScale
 70
     0
300
1/64" = 1'-0"
140
0.015625
141
12.0
290
     0
  0
SCALE
  5
E8
102
{ACAD_REACTORS
330
99
102
}
330
99
100
AcDbScale
 70
     0
300
1/32" = 1'-0"
140
0.03125
141
12.0
290
     0
  0
SCALE
  5
E9
102
{ACAD_REACTORS
330
99
102
}
330
99
100
AcDbScale
 70
     0
300
1/16" = 1'-0"
140
0.0625
141
12.0
290
     0
  0
SCALE
  5
EA
102
{ACAD_REACTORS
330
99
102
}
330
99
100
AcDbScale
 70
     0
300
3/32" = 1'-0"
140
0.09375
141
12.0
290
     0
  0
SCALE
  5
EB
102
{ACAD_REACTORS
330
99
102
}
330
99
100
AcDbScale
 70
     0
300
1/8" = 1'-0"
140
0.125
141
12.0
290
     0
  0
SCALE
  5
EC
102
{ACAD_REACTORS
330
99
102
}
330
99
100
AcDbScale
 70
     0
300
3/16" = 1'-0"
140
0.1875
141
12.0
290
     0
  0
SCALE
  5
ED
102
{ACAD_REACTORS
330
99
102
}
330
99
100
AcDbScale
 70
     0
300
1/4" = 1'-0"
140
0.25
141
12.0
290
     0
  0
SCALE
  5
EE
102
{ACAD_REACTORS
330
99
102
}
330
99
100
AcDbScale
 70
     0
300
3/8" = 1'-0"
140
0.375
141
12.0
290
     0
  0
SCALE
  5
EF
102
{ACAD_REACTORS
330
99
102
}
330
99
100
AcDbScale
 70
     0
300
1/2" = 1'-0"
140
0.5
141
12.0
290
     0
  0
SCALE
  5
F0
102
{ACAD_REACTORS
330
99
102
}
330
99
100
AcDbScale
 70
     0
300
3/4" = 1'-0"
140
0.75
141
12.0
290
     0
  0
SCALE
  5
F1
102
{ACAD_REACTORS
330
99
102
}
330
99
100
AcDbScale
 70
     0
300
1" = 1'-0"
140
1.0
141
12.0
290
     0
  0
SCALE
  5
F2
102
{ACAD_REACTORS
330
99
102
}
330
99
100
AcDbScale
 70
     0
300
1-1/2" = 1'-0"
140
1.5
141
12.0
290
     0
  0
SCALE
  5
F3
102
{ACAD_REACTORS
330
99
102
}
330
99
100
AcDbScale
 70
     0
300
3" = 1'-0"
140
3.0
141
12.0
290
     0
  0
SCALE
  5
F4
102
{ACAD_REACTORS
330
99
102
}
330
99
100
AcDbScale
 70
     0
300
6" = 1'-0"
140
6.0
141
12.0
290
     0
  0
SCALE
  5
F5
102
{ACAD_REACTORS
330
99
102
}
330
99
100
AcDbScale
 70
     0
300
1'-0" = 1'-0"
140
12.0
141
12.0
290
     0
  0
XRECORD
  5
3AF
102
{ACAD_REACTORS
330
3AE
102
}
330
3AE
100
AcDbXrecord
280
     1
340
6C
  0
XRECORD
  5
3B0
102
{ACAD_REACTORS
330
3AE
102
}
330
3AE
100
AcDbXrecord
280
     1
340
6B
  0
DICTIONARYVAR
  5
98
102
{ACAD_REACTORS
330
59
102
}
330
59
100
DictionaryVariables
280
     0
  1
Standard
  0
DICTIONARYVAR
  5
5A
102
{ACAD_REACTORS
330
59
102
}
330
59
100
DictionaryVariables
280
     0
  1
2
  0
DICTIONARYVAR
  5
5E
102
{ACAD_REACTORS
330
59
102
}
330
59
100
DictionaryVariables
280
     0
  1
1
  0
ENDSEC
  0
SECTION
  2
THUMBNAILIMAGE
 90
    17264
310
28000000B40000005A0000000100080000000000483F0000697ED2E07E2A5440000100000000000000000000000080000080000000808000800000008000800080800000C0C0C000C0DCC000F0CAA6000020400000206000002080000020A0000020C0000020E00000400000004020000040400000406000004080000040A0
310
000040C0000040E00000600000006020000060400000606000006080000060A0000060C0000060E00000800000008020000080400000806000008080000080A0000080C0000080E00000A0000000A0200000A0400000A0600000A0800000A0A00000A0C00000A0E00000C0000000C0200000C0400000C0600000C0800000C0
310
A00000C0C00000C0E00000E0000000E0200000E0400000E0600000E0800000E0A00000E0C00000E0E00040000000400020004000400040006000400080004000A0004000C0004000E00040200000402020004020400040206000402080004020A0004020C0004020E000404000004040200040404000404060004040800040
310
40A0004040C0004040E00040600000406020004060400040606000406080004060A0004060C0004060E00040800000408020004080400040806000408080004080A0004080C0004080E00040A0000040A0200040A0400040A0600040A0800040A0A00040A0C00040A0E00040C0000040C0200040C0400040C0600040C08000
310
40C0A00040C0C00040C0E00040E0000040E0200040E0400040E0600040E0800040E0A00040E0C00040E0E00080000000800020008000400080006000800080008000A0008000C0008000E00080200000802020008020400080206000802080008020A0008020C0008020E00080400000804020008040400080406000804080
310
008040A0008040C0008040E00080600000806020008060400080606000806080008060A0008060C0008060E00080800000808020008080400080806000808080008080A0008080C0008080E00080A0000080A0200080A0400080A0600080A0800080A0A00080A0C00080A0E00080C0000080C0200080C0400080C0600080C0
310
800080C0A00080C0C00080C0E00080E0000080E0200080E0400080E0600080E0800080E0A00080E0C00080E0E000C0000000C0002000C0004000C0006000C0008000C000A000C000C000C000E000C0200000C0202000C0204000C0206000C0208000C020A000C020C000C020E000C0400000C0402000C0404000C0406000C0
310
408000C040A000C040C000C040E000C0600000C0602000C0604000C0606000C0608000C060A000C060C000C060E000C0800000C0802000C0804000C0806000C0808000C080A000C080C000C080E000C0A00000C0A02000C0A04000C0A06000C0A08000C0A0A000C0A0C000C0A0E000C0C00000C0C02000C0C04000C0C06000
310
C0C08000C0C0A000F0FBFF00A4A0A000808080000000FF0000FF000000FFFF00FF000000FF00FF00FFFF0000FFFFFF0000000000000000000000000000000000000000000000000000000000000000000000000000000000000000000000000000000000000000000000000000000000000000000000000000000000000000
310
00000000000000000000000000000000000000000000000000000000000000000000000000000000000000000000000000000000000000000000000000000000000000000000000000000000000000000000000000000000000000000000000000000000000000000000000000000000000000000000000000000000000000
310
00000000000000000000000000000000000000000000000000000000000000000000000000000000000000000000000000000000000000000000000000000000000000000000000000000000000000000000000000000000000000000000000000000000000000000000000000000000000000000000000000000000000000
310
00000000000000000000000000000000000000000000000000000000000000000000000000000000000000000000000000000000000000000000000000000000000000000000000000000000000000000000000000000000000000000000000000000000000000000000000000000000000000000000000000000000000000
310
00000000000000000000000000000000000000000000000000000000000000000000000000000000000000000000000000000000000000000000000000000000000000000000000000000000000000000000000000000000000000000000000000000000000000000000000000000000000000000000000000000000000000
310
00000000000000000000000000000000000000000000000000000000000000000000000000000000000000000000000000000000000000000000000000000000000000000000000000000000000000000000000000000000000000000000000000000000000000000000000000000000000000000000000000000000000000
310
00000000000000000000000000000000000000000000000000000000000000000000000000000000000000000000000000000000000000000000000000000000000000000000000000000000000000000000000000000000000000000000000000000000000000000000000000000000000000000000000000000000000000
310
00000000000000000000000000000000000000000000000000000000000000000000000000000000000000000000000000000000000000000000000000000000000000000000000000000000000000000000000000000000000000000000000000000000000000000000000000000000000000000000000000000000000000
310
00000000000000000000000000000000000000000000000000000000000000000000000000000000000000000000000000000000000000000000000000000000000000000000000000000000000000000000000000000000000000000000000000000000000000000000000000000000000000000000000000000000000000
310
00000000000000000000000000000000000000000000000000000000000000000000000000000000000000000000000000000000000000000000000000000000000000000000000000000000000000000000000000000000000000000000000000000000000000000000000000000000000000000000000000000000000000
310
00000000000000000000000000000000000000000000000000000000000000000000000000000000000000000000000000000000000000000000000000000000000000000000000000000000000000000000000000000000000000000000000000000000000000000000000000000000000000000000000000000000000000
310
00000000000000000000000000000000000000000000000000000000000000000000000000000000000000000000000000000000000000000000000000000000000000000000000000000000000000000000000000000000000000000000000000000000000000000000000000000000000000000000000000000000000000
310
00000000000000000000000000000000000000000000000000000000000000000000000000000000000000000000000000000000000000000000000000000000000000000000000000000000000000000000000000000000000000000000000000000000000000000000000000000000000000000000000000000000000000
310
00000000000000000000000000000000000000000000000000000000000000000000000000000000000000000000000000000000000000000000000000000000000000000000000000000000000000000000000000000000000000000000000000000000000000000000000000000000000000000000000000000000000000
310
00000000000000000000000000000000000000000000000000000000000000000000000000000000000000000000000000000000000000000000000000000000000000000000000000000000000000000000000000000000000000000000000000000000000000000000000000000000000000000000000000000000000000
310
00000000000000000000000000000000000000000000000000000000000000000000000000000000000000000000000000000000000000000000000000000000000000000000000000000000000000000000000000000000000000000000000000000000000000000000000000000000000000000000000000000000000000
310
00000000000000000000000000000000000000000000000000000000000000000000000000000000000000000000000000000000000000000000000000000000000000000000000000000000000000000000000000000000000000000000000000000000000000000000000000000000000000000000000000000000000000
310
00000000000000000000000000000000000000000000000000000000000000000000000000000000000000000000000000000000000000000000000000000000000000000000000000000000000000000000000000000000000000000000000000000000000000000000000000000000000000000000000000000000000000
310
00000000000000000000000000000000000000000000000000000000000000000000000000000000000000000000000000000000000000000000000000000000000000000000000000000000000000000000000000000000000000000000000000000000000000000000000000000000000000000000000000000000000000
310
00000000000000000000000000000000000000000000000000000000000000000000000000000000000000000000000000000000000000000000000000000000000000000000000000000000000000000000000000000000000000000000000000000000000000000000000000000000000000000000000000000000000000
310
00000000000000000000000000000000000000000000000000000000000000000000000000000000000000000000000000000000000000000000000000000000000000000000000000000000000000000000000000000000000000000000000000000000000000000000000000000000000000000000000000000000000000
310
00000000000000000000000000000000000000000000000000000000000000000000000000000000000000000000000000000000000000000000000000000000000000000000000000000000000000000000000000000000000000000000000000000000000000000000000000000000000000000000000000000000000000
310
00000000000000000000000000000000000000000000000000000000000000000000000000000000000000000000000000000000000000000000000000000000000000000000000000000000000000000000000000000000000000000000000000000000000000000000000000000000000000000000000000000000000000
310
0000000000000000000000000000000000000000000000000000000000000000000000000000000000000000000000000000000000000000000000000000000000000000000000000000000000000000000000000000FFFFFFFFFFFFFFFFFFFFFFFFFF00000000000000000000000000000000000000000000000000000000
310
00000000000000000000000000000000000000000000000000000000000000000000000000000000000000000000000000000000000000000000000000000000000000000000000000000000000000000000000000000000000000000000000000000000000000000000000000000000000000000000000000000000000000
310
000000000000000000000000FF000000FF00000000000000FF000000000000000000000000000000000000000000000000000000000000000000000000000000000000000000000000000000000000000000000000000000000000000000000000000000000000000000000000000000000000000000000000000000000000
310
00000000000000000000000000000000000000000000000000000000000000000000000000000000000000000000000000000000000000000000000000000000FF00000000FF00000000000000FF00000000000000000000000000000000000000000000000000000000000000000000000000000000000000000000000000
310
000000000000000000000000000000000000000000000000000000000000000000000000000000000000000000000000000000000000000000000000000000000000000000000000000000000000000000000000000000000000000000000000000000000000000000000000000000000000000000FF00000000FF00000000
310
000000FF000000000000000000000000000000000000000000000000000000000000000000000000000000000000000000000000000000000000000000000000000000000000000000000000000000000000000000000000000000000000000000000000000000000000000000000000000000000000000000000000000000
310
000000000000000000000000000000000000000000000000000000000000000000000000000000000000FF0000000000FF00000000000000FF00000000000000000000000000000000000000000000000000000000000000000000000000000000000000000000000000000000000000000000000000000000000000000000
310
00000000000000000000000000000000000000000000000000000000000000000000000000000000000000000000000000000000000000000000000000000000000000000000000000000000000000000000000000000000000000000000FF000000000000FF00000000000000FF0000000000000000000000000000000000
310
00000000000000000000000000000000000000000000000000000000000000000000000000000000000000000000000000000000000000000000000000000000000000000000000000000000000000000000000000000000000000000000000000000000000000000000000000000000000000000000000000000000000000
310
0000000000000000000000000000000000000000FF000000000000FF00000000000000FF00000000000000000000000000000000000000000000000000000000000000000000000000000000000000000000000000000000000000000000000000000000000000000000000000000000000000000000000000000000000000
310
000000000000000000000000000000000000000000000000000000000000000000000000000000000000000000000000000000000000000000000000000000000000000000000000FF00000000000000FF00000000000000FF0000000000000000000000000000000000000000000000000000000000000000000000000000
310
00000000000000000000000000000000000000000000000000000000000000000000000000000000000000000000000000000000000000000000000000000000000000000000000000000000000000000000000000000000000000000000000000000000000000000000000000000000000000000000000000000000FF0000
310
000000000000FF00000000000000FF00000000000000000000000000000000000000000000000000000000000000000000000000000000000000000000000000000000000000000000000000000000000000000000000000000000000000000000000000000000000000000000000000000000000000000000000000000000
310
0000000000000000000000000000000000000000000000000000000000000000000000000000000000000000000000000000FF0000000000000000FF00000000000000FF0000000000000000000000000000000000000000000000000000000000000000000000000000000000000000000000000000000000000000000000
310
000000000000000000000000000000000000000000000000000000000000000000000000000000000000000000000000000000000000000000000000000000000000000000000000000000000000000000000000000000000000000000000000000000000000FF000000000000000000FF00000000000000FF000000000000
310
00000000000000000000000000000000000000000000000000000000000000000000000000000000000000000000000000000000000000000000000000000000000000000000000000000000000000000000000000000000000000000000000000000000000000000000000000000000000000000000000000000000000000
310
000000000000000000000000000000000000000000000000000000FF00000000000000000000FF00000000000000FF0000000000000000000000000000000000000000000000000000000000000000000000000000000000000000000000000000000000000000000000000000000000000000000000000000000000000000
310
00000000000000000000000000000000000000000000000000000000000000000000000000000000000000000000000000000000000000000000000000000000000000000000000000000000000000FF0000000000000000000000FF00000000000000FF000000000000000000000000000000000000000000000000000000
310
00000000000000000000000000000000000000000000000000000000000000000000000000000000000000000000000000000000000000000000000000000000000000000000000000000000000000000000000000000000000000000000000000000000000000000000000000000000000000000000000000000000000000
310
0000000000FF0000000000000000000000FF00000000000000FF0000000000000000000000000000000000000000000000000000000000000000000000000000000000000000000000000000000000000000000000000000000000000000000000000000000000000000000000000000000000000000000000000000000000
310
000000000000000000000000000000000000000000000000000000000000000000000000000000000000000000000000000000000000000000FF000000000000000000000000FF00000000000000FF000000000000000000000000000000000000000000000000000000000000000000000000000000000000000000000000
310
00000000000000000000000000000000000000000000000000000000000000000000000000000000000000000000000000000000000000000000000000000000000000000000000000000000000000000000000000000000000000000000000000000000000000000000000000FF00000000000000000000000000FF000000
310
00000000FF0000000000000000000000000000000000000000000000000000000000000000000000000000000000000000000000000000000000000000000000000000000000000000000000000000000000000000000000000000000000000000000000000000000000000000000000000000000000000000000000000000
310
0000000000000000000000000000000000000000000000000000000000000000000000FF00000000000000000000000000FF00000000000000FF000000000000000000000000000000000000000000000000000000000000000000000000000000000000000000000000000000000000000000000000000000000000000000
310
000000000000000000000000000000000000000000000000000000000000000000000000000000000000000000000000000000000000000000000000000000000000000000000000000000000000000000000000000000FF0000000000000000000000000000FF00000000FFFFFFFF00000000000000000000000000000000
310
00000000000000000000000000000000000000000000000000000000000000000000000000000000000000000000000000000000000000000000000000000000000000000000000000000000000000000000000000000000000000000000000000000000000000000000000000000000000000000000000000000000000000
310
000000000000000000000000FF000000000000000000000000FF0000FF000000FF00FFFFFF000000000000000000000000000000000000000000000000000000000000000000000000000000000000000000000000000000000000000000000000000000000000000000000000000000000000000000000000000000000000
310
0000000000000000000000000000000000000000000000000000000000000000000000000000000000000000000000000000000000000000000000000000000000FF0000000000000000000000FFFF0000FF000000FFFFFFFFFF00000000000000000000000000000000000000000000000000000000000000000000000000
310
000000000000000000000000000000000000000000000000000000000000000000000000000000000000000000000000000000000000000000000000000000000000000000000000000000000000000000000000000000000000000000000000000000000000000000000000000000000000000000FF000000000000000000
310
00000000000000FF00000000FFFF00FF000000000000000000000000000000000000000000000000000000000000000000000000000000000000000000000000000000000000000000000000000000000000000000000000000000000000000000000000000000000000000000000000000000000000000000000000000000
310
000000000000000000000000000000000000000000000000000000000000000000000000000000000000FF0000000000000000000000000000000000FF000000FFFFFFFFFF00000000000000000000000000000000000000000000000000000000000000000000000000000000000000000000000000000000000000000000
310
0000000000000000000000000000000000000000000000000000000000000000000000000000000000000000000000000000000000000000000000000000000000000000000000000000000000000000000000000000000000000000000000FF0000000000000000000000000000FF0000FF00000000FFFF00FF0000000000
310
00000000000000000000000000000000000000000000000000000000000000000000000000000000000000000000000000000000000000000000000000000000000000000000000000000000000000000000000000000000000000000000000000000000000000000000000000000000000000000000000000000000000000
310
0000000000000000000000000000000000000000FF0000000000000000000000000000FFFF0000FF000000FF00FFFFFF00000000000000000000000000000000000000000000000000000000000000000000000000000000000000000000000000000000000000000000000000000000000000000000000000000000000000
310
000000000000000000000000000000000000000000000000000000000000000000000000000000000000000000000000000000000000000000000000000000000000000000000000FF00000000000000000000000000000000000000FF000000FF00FFFFFF0000000000000000000000000000000000000000000000000000
310
0000000000000000000000000000000000000000000000000000000000000000000000000000000000000000000000000000000000000000000000000000000000000000000000000000000000000000000000000000000000000000000000000000000000000000000000000000000000000000000000000000000000FF00
310
000000000000000000000000000000000000FF00000000000000FF00000000000000000000000000000000000000000000000000000000000000000000000000000000000000000000000000000000000000000000000000000000000000000000000000000000000000000000000000000000000000000000000000000000
310
0000000000000000000000000000000000000000000000000000000000000000000000000000000000000000000000000000FF0000000000000000000000000000000000000000FF00000000000000FF0000000000000000000000000000000000000000000000000000000000000000000000000000000000000000000000
310
000000000000000000000000000000000000000000000000000000000000000000000000000000000000000000000000000000000000000000000000000000000000000000000000000000000000000000000000000000000000000000000000000000000000FF000000000000000000000000000000000000000000FF0000
310
0000000000FF00000000000000000000000000000000000000000000000000000000000000000000000000000000000000000000000000000000000000000000000000000000000000000000000000000000000000000000000000000000000000000000000000000000000000000000000000000000000000000000000000
310
00000000000000000000000000000000000000000000000000000000FF000000000000000000000000000000000000000000FF00000000000000FF0000000000000000000000000000000000000000000000000000000000000000000000000000000000000000000000000000000000000000000000000000000000000000
310
0000000000000000000000000000000000000000000000000000000000000000000000000000000000000000000000000000000000000000000000000000000000000000000000000000000000000000FF00000000000000000000000000000000000000000000FF00000000000000FF000000000000000000000000000000
310
00000000000000000000000000000000000000000000000000000000000000000000000000000000000000000000000000000000000000000000000000000000000000000000000000000000000000000000000000000000000000000000000000000000000000000000000000000000000000000000000000000000000000
310
0000000000FF0000000000000000000000000000000000000000000000FF00000000000000FF0000000000000000000000000000000000000000000000000000000000000000000000000000000000000000000000000000000000000000000000000000000000000000000000000000000000000000000000000000000000
310
000000000000000000000000000000000000000000000000000000000000000000000000000000000000000000000000000000000000000000FF000000000000000000000000000000000000000000000000FF00000000000000FF000000000000000000000000000000000000000000000000000000000000000000000000
310
0000000000000000000000000000000000000000000000000000000000000000000000000000000000000000000000000000000000000000000000000000000000000000000000000000000000000000000000000000000000000000000000000000000000000000000000000000FF00000000000000000000000000000000
310
0000000000000000FF00000000000000FF0000000000000000000000000000000000000000000000000000000000000000000000000000000000000000000000000000000000000000000000000000000000000000000000000000000000000000000000000000000000000000000000000000000000000000000000000000
310
0000000000000000000000000000000000000000000000000000000000000000000000FF00000000000000000000000000000000000000000000000000FF00000000000000FF000000000000000000000000000000000000000000000000000000000000000000000000000000000000000000000000000000000000000000
310
000000000000000000000000000000000000000000000000000000000000000000000000000000000000000000000000000000000000000000000000000000000000000000000000000000000000000000000000000000FF0000000000000000000000000000000000000000000000000000FF00000000000000FF00000000
310
00000000000000000000000000000000000000000000000000000000000000000000000000000000000000000000000000000000000000000000000000000000000000000000000000000000000000000000000000000000000000000000000000000000000000000000000000000000000000000000000000000000000000
310
000000000000FF000000000000FF0000000000000000000000000000000000000000000000000000FF00000000000000FF000000000000000000000000000000000000000000000000000000000000000000000000000000000000000000000000000000000000000000000000000000000000000000000000000000000000
310
0000000000000000000000000000000000000000000000000000000000000000000000000000000000000000000000000000000000000000000000FF0000000000FF000000000000000000000000000000000000000000000000000000FF00000000000000FF00000000000000000000000000000000000000000000000000
310
000000000000000000000000000000000000000000000000000000000000000000000000000000000000000000000000000000000000000000000000000000000000000000000000000000000000000000000000000000000000000000000000000000000000000000000000000000FFFF00000000FF000000000000000000
310
00000000000000000000000000000000000000FF00000000000000FF000000000000000000000000000000000000000000000000000000000000000000000000000000000000000000000000000000000000000000000000000000000000000000000000000000000000000000000000000000000000000000000000000000
310
00000000000000000000000000000000000000000000000000000000000000000000000000FFFF00000000FF00000000000000000000000000000000000000000000000000000000FF00000000000000FF00000000000000000000000000000000000000000000000000000000000000000000000000000000000000000000
310
000000000000000000000000000000000000000000000000000000000000000000000000000000000000000000000000000000000000000000000000000000000000000000000000000000000000000000000000000000FFFFFFFFFFFFFFFFFF0000000000000000000000000000000000000000000000000000000000FF00
310
000000000000FF000000000000000000000000000000000000000000000000000000000000000000000000000000000000000000000000000000000000000000000000000000000000000000000000000000000000000000000000000000000000000000000000000000000000000000000000000000000000000000000000
310
00000000000000000000000000000000FF00000000FF0000000000000000000000000000000000000000000000000000000000FF00000000000000FF00000000000000000000000000000000000000000000000000000000000000000000000000000000000000000000000000000000000000000000000000000000000000
310
000000000000000000000000000000000000000000000000000000000000000000000000000000000000000000000000000000000000000000000000000000000000FFFFFFFFFFFFFFFFFFFFFFFFFFFFFFFFFFFFFFFFFFFFFFFFFFFFFFFFFFFFFFFFFFFFFFFFFFFFFFFFFFFFFFFFFFFFFF0000000000000000000000000000
310
0000000000000000000000000000000000000000000000000000000000000000000000000000000000000000000000000000000000000000000000000000000000000000000000000000000000000000000000000000000000000000000000000000000000000000000000000000000000000000000000FFFFFFFFFF000000
310
FF0000000000000000000000000000000000000000000000000000000000FF000000000000000000000000000000000000000000000000000000000000000000000000000000000000000000000000000000000000000000000000000000000000000000000000000000000000000000000000000000000000000000000000
310
000000000000000000000000000000000000000000000000000000000000000000000000000000000000000000000000FFFF000000FF0000000000000000000000000000000000000000000000000000000000FF00000000000000000000000000000000000000000000000000000000000000000000000000000000000000
310
000000000000000000000000000000000000000000000000000000000000000000000000000000000000000000000000000000000000000000000000000000000000000000000000000000000000000000000000000000000000000000000000000000000000FF000000FF0000000000000000000000000000000000000000
310
000000000000000000FF000000000000000000000000000000000000000000000000000000000000000000000000000000000000000000000000000000000000000000000000000000000000000000000000000000000000000000000000000000000000000000000000000000000000000000000000000000000000000000
310
00000000000000000000000000000000000000000000000000000000FF000000FF0000000000000000000000000000000000000000000000000000000000FF00000000000000000000000000000000000000000000000000000000000000000000000000000000000000000000000000000000000000000000000000000000
310
00000000000000000000000000000000000000000000000000000000000000000000000000000000000000000000000000000000000000000000000000000000000000000000000000000000000000000000000000FFFFFFFFFFFFFFFFFFFFFFFFFFFFFFFFFFFFFFFFFFFFFFFFFFFFFFFFFFFFFF0000000000000000000000
310
00000000000000000000000000000000000000000000000000000000000000000000000000000000000000000000000000000000000000000000000000000000000000000000000000000000000000000000000000000000000000000000000000000000000000000000000000000000000000000000000000000000000000
310
0000000000000000000000000000000000000000000000FFFFFFFF00FF0000000000000000000000000000000000000000000000000000000000000000000000000000000000000000000000000000000000000000000000000000000000000000000000000000000000000000000000000000000000000000000000000000
310
00000000000000000000000000000000000000000000000000000000000000000000000000000000000000000000000000000000000000000000000000000000000000000000000000000000FF00FF00FFFFFF0000000000000000000000000000000000000000000000000000000000000000000000000000000000000000
310
00000000000000000000000000000000000000000000000000000000000000000000000000000000000000000000000000000000000000000000000000000000000000000000000000000000000000000000000000000000000000000000000000000000000000000000000000000000000000000000000000000000000000
310
0000FF00FFFFFFFFFF00000000000000000000000000000000000000000000000000000000000000000000000000000000000000000000000000000000000000000000000000000000000000000000000000000000000000000000000000000000000000000000000000000000000000000000000000000000000000000000
310
00000000000000000000000000000000000000000000000000000000000000000000000000000000000000000000000000000000000000FF00FFFFFFFF000000000000000000000000000000000000000000000000000000000000000000000000000000000000000000000000000000000000000000000000000000000000
310
00000000000000000000000000000000000000000000000000000000000000000000000000000000000000000000000000000000000000000000000000000000000000000000000000000000000000000000000000000000000000000000000000000000000000000000000000000000000000000000000000000000000000
310
00000000000000000000000000000000000000000000000000000000000000000000000000000000000000000000000000000000000000000000000000000000000000000000000000000000000000000000000000000000000000000000000000000000000000000000000000000000000000000000000000000000000000
310
00000000000000000000000000000000000000000000000000000000000000000000000000000000000000000000000000000000000000000000000000000000000000000000000000000000000000000000000000000000000000000000000000000000000000000000000000000000000000000000000000000000000000
310
00000000000000000000000000000000000000000000000000000000000000000000000000000000000000000000000000000000000000000000000000000000000000000000000000000000000000000000000000000000000000000000000000000000000000000000000000000000000000000000000000000000000000
310
00000000000000000000000000000000000000000000000000000000000000000000000000000000000000000000000000000000000000000000000000000000000000000000000000000000000000000000000000000000000000000000000000000000000000000000000000000000000000000000000000000000000000
310
00000000000000000000000000000000000000000000000000000000000000000000000000000000000000000000000000000000000000000000000000000000000000000000000000000000000000000000000000000000000000000000000000000000000000000000000000000000000000000000000000000000000000
310
00000000000000000000000000000000000000000000000000000000000000000000000000000000000000000000000000000000000000000000000000000000000000000000000000000000000000000000000000000000000000000000000000000000000000000000000000000000000000000000000000000000000000
310
00000000000000000000000000000000000000000000000000000000000000000000000000000000000000000000000000000000000000000000000000000000000000000000000000000000000000000000000000000000000000000000000000000000000000000000000000000000000000000000000000000000000000
310
00000000000000000000000000000000000000000000000000000000000000000000000000000000000000000000000000000000000000000000000000000000000000000000000000000000000000000000000000000000000000000000000000000000000000000000000000000000000000000000000000000000000000
310
00000000000000000000000000000000000000000000000000000000000000000000000000000000000000000000000000000000000000000000000000000000000000000000000000000000000000000000000000000000000000000000000000000000000000000000000000000000000000000000000000000000000000
310
00000000000000000000000000000000000000000000000000000000000000000000000000000000000000000000000000000000000000000000000000000000000000000000000000000000000000000000000000000000000000000000000000000000000000000000000000000000000000000000000000000000000000
310
00000000000000000000000000000000000000000000000000000000000000000000000000000000000000000000000000000000000000000000000000000000000000000000000000000000000000000000000000000000000000000000000000000000000000000000000000000000000000000000000000000000000000
310
00000000000000000000000000000000000000000000000000000000000000000000000000000000000000000000000000000000000000000000000000000000000000000000000000000000000000000000000000000000000000000000000000000000000000000000000000000000000000000000000000000000000000
310
00000000000000000000000000000000000000000000000000000000000000000000000000000000000000000000000000000000000000000000000000000000000000000000000000000000000000000000000000000000000000000000000000000000000000000000000000000000000000000000000000000000000000
310
00000000000000000000000000000000000000000000000000000000000000000000000000000000000000000000000000000000000000000000000000000000000000000000000000000000000000000000000000000000000000000000000000000000000000000000000000000000000000000000000000000000000000
310
00000000000000000000000000000000000000000000000000000000000000000000000000000000000000000000000000000000000000000000000000000000000000000000000000000000000000000000000000000000000000000000000000000000000000000000000000000000000000000000000000000000000000
310
00000000000000000000000000000000000000000000000000000000000000000000000000000000000000000000000000000000000000000000000000000000000000000000000000000000000000000000000000000000000000000000000000000000000000000000000000000000000000000000000000000000000000
310
00000000000000000000000000000000000000000000000000000000000000000000000000000000000000000000000000000000000000000000000000000000000000000000000000000000000000000000000000000000000000000000000000000000000000000000000000000000000000000000000000000000000000
310
00000000000000000000000000000000000000000000000000000000000000000000000000000000000000000000000000000000000000000000000000000000000000000000000000000000000000000000000000000000000000000000000000000000000000000000000000000000000000000000000000000000000000
310
00000000000000000000000000000000000000000000000000000000000000000000000000000000000000000000000000000000000000000000000000000000000000000000000000000000000000000000000000000000000000000000000000000000000000000000000000000000000000000000000000000000000000
310
00000000000000000000000000000000000000000000000000000000000000000000000000000000000000000000000000000000000000000000000000000000000000000000000000000000000000000000000000000000000000000000000000000000000000000000000000000000000000000000000000000000000000
310
00000000000000000000000000000000000000000000000000000000000000000000000000000000000000000000000000000000000000000000000000000000000000000000000000000000000000000000000000000000000000000000000000000000000000000000000000000000000000000000000000000000000000
310
00000000000000000000000000000000000000000000000000000000000000000000000000000000000000000000000000000000000000000000000000000000000000000000000000000000000000000000000000000000000000000000000000000000000000000000000000000000000000000000000000000000000000
310
00000000000000000000000000000000000000000000000000000000000000000000000000000000000000000000000000000000000000000000000000000000000000000000000000000000000000000000000000000000000000000000000000000000000000000000000000000000000000000000000000000000000000
310
00000000000000000000000000000000000000000000000000000000000000000000000000000000000000000000000000000000000000000000000000000000000000000000000000000000000000000000000000000000000000000000000000000000000000000000000000000000000000000000000000000000000000
310
00000000000000000000000000000000000000000000000000000000000000000000000000000000000000000000000000000000000000000000000000000000000000000000000000000000000000000000000000000000000000000000000000000000000000000000000000000000000000000000000000000000000000
310
00000000000000000000000000000000000000000000000000000000000000000000000000000000000000000000000000000000000000000000000000000000000000000000000000000000000000000000000000000000000000000000000000000000000000000000000000000000000000000000000000000000000000
310
00000000000000000000000000000000000000000000000000000000000000000000000000000000000000000000000000000000000000000000000000000000000000000000000000000000000000000000000000000000000000000000000000000000000000000000000000000000000000000000000000000000000000
310
00000000000000000000000000000000000000000000000000000000000000000000000000000000000000000000000000000000000000000000000000000000000000000000000000000000000000000000000000000000000000000000000000000000000000000000000000000000000000000000000000000000000000
310
00000000000000000000000000000000000000000000000000000000000000000000000000000000000000000000000000000000000000000000000000000000000000000000000000000000000000000000000000000000000000000000000000000000000000000000000000000000000000000000000000000000000000
310
00000000000000000000000000000000000000000000000000000000000000000000000000000000000000000000000000000000000000000000000000000000000000000000000000000000000000000000000000000000000000000000000000000000000000000000000000000000000000000000000000000000000000
310
00000000000000000000000000000000000000000000000000000000000000000000000000000000000000000000000000000000000000000000000000000000000000000000000000000000000000000000000000000000000000000000000000000000000000000000000000000000000000000000000000000000000000
310
0000000000000000000000000000000000000000000000000000000000000000000000000000000000000000000000000000000000000000000000000000000000000000000000000000000000000000000000000000000000000000000000000000000000000000000000000000000000000000000000
  0
ENDSEC
  0
EOF
