  0
SECTION
  2
HEADER
  9
$ACADVER
  1
AC1015
  9
$ACADMAINTVER
 70
     6
  9
$DWGCODEPAGE
  3
ANSI_1252
  9
$INSBASE
 10
0.0
 20
0.0
 30
0.0
  9
$EXTMIN
 10
-23.35665475666667
 20
67.62208893
 30
0.0
  9
$EXTMAX
 10
88.40543555922477
 20
116.1604792393757
 30
0.0
  9
$LIMMIN
 10
0.0
 20
0.0
  9
$LIMMAX
 10
0.0
 20
0.0
  9
$ORTHOMODE
 70
     0
  9
$REGENMODE
 70
     1
  9
$FILLMODE
 70
     1
  9
$QTEXTMODE
 70
     0
  9
$MIRRTEXT
 70
     0
  9
$LTSCALE
 40
1.0
  9
$ATTMODE
 70
     1
  9
$TEXTSIZE
 40
2.5
  9
$TRACEWID
 40
1.0
  9
$TEXTSTYLE
  7
Standard
  9
$CLAYER
  8
0
  9
$CELTYPE
  6
ByLayer
  9
$CECOLOR
 62
   256
  9
$CELTSCALE
 40
1.0
  9
$DISPSILH
 70
     0
  9
$DIMSCALE
 40
1.0
  9
$DIMASZ
 40
2.5
  9
$DIMEXO
 40
0.625
  9
$DIMDLI
 40
3.75
  9
$DIMRND
 40
0.0
  9
$DIMDLE
 40
0.0
  9
$DIMEXE
 40
1.25
  9
$DIMTP
 40
0.0
  9
$DIMTM
 40
0.0
  9
$DIMTXT
 40
2.5
  9
$DIMCEN
 40
2.5
  9
$DIMTSZ
 40
0.0
  9
$DIMTOL
 70
     0
  9
$DIMLIM
 70
     0
  9
$DIMTIH
 70
     0
  9
$DIMTOH
 70
     0
  9
$DIMSE1
 70
     0
  9
$DIMSE2
 70
     0
  9
$DIMTAD
 70
     1
  9
$DIMZIN
 70
     8
  9
$DIMBLK
  1

  9
$DIMASO
 70
     1
  9
$DIMSHO
 70
     1
  9
$DIMPOST
  1

  9
$DIMAPOST
  1

  9
$DIMALT
 70
     0
  9
$DIMALTD
 70
     3
  9
$DIMALTF
 40
0.03937007874016
  9
$DIMLFAC
 40
1.0
  9
$DIMTOFL
 70
     1
  9
$DIMTVP
 40
0.0
  9
$DIMTIX
 70
     0
  9
$DIMSOXD
 70
     0
  9
$DIMSAH
 70
     0
  9
$DIMBLK1
  1

  9
$DIMBLK2
  1

  9
$DIMSTYLE
  2
ISO-25
  9
$DIMCLRD
 70
     0
  9
$DIMCLRE
 70
     0
  9
$DIMCLRT
 70
     0
  9
$DIMTFAC
 40
1.0
  9
$DIMGAP
 40
0.625
  9
$DIMJUST
 70
     0
  9
$DIMSD1
 70
     0
  9
$DIMSD2
 70
     0
  9
$DIMTOLJ
 70
     0
  9
$DIMTZIN
 70
     8
  9
$DIMALTZ
 70
     0
  9
$DIMALTTZ
 70
     0
  9
$DIMUPT
 70
     0
  9
$DIMDEC
 70
     2
  9
$DIMTDEC
 70
     2
  9
$DIMALTU
 70
     2
  9
$DIMALTTD
 70
     3
  9
$DIMTXSTY
  7
Standard
  9
$DIMAUNIT
 70
     0
  9
$DIMADEC
 70
     0
  9
$DIMALTRND
 40
0.0
  9
$DIMAZIN
 70
     0
  9
$DIMDSEP
 70
    44
  9
$DIMATFIT
 70
     3
  9
$DIMFRAC
 70
     0
  9
$DIMLDRBLK
  1

  9
$DIMLUNIT
 70
     2
  9
$DIMLWD
 70
    -2
  9
$DIMLWE
 70
    -2
  9
$DIMTMOVE
 70
     0
  9
$LUNITS
 70
     2
  9
$LUPREC
 70
     4
  9
$SKETCHINC
 40
1.0
  9
$FILLETRAD
 40
0.0
  9
$AUNITS
 70
     0
  9
$AUPREC
 70
     0
  9
$MENU
  1
.
  9
$ELEVATION
 40
0.0
  9
$PELEVATION
 40
0.0
  9
$THICKNESS
 40
0.0
  9
$LIMCHECK
 70
     0
  9
$CHAMFERA
 40
0.0
  9
$CHAMFERB
 40
0.0
  9
$CHAMFERC
 40
0.0
  9
$CHAMFERD
 40
0.0
  9
$SKPOLY
 70
     0
  9
$TDCREATE
 40
2455090.677186088
  9
$TDUCREATE
 40
2455090.593852755
  9
$TDUPDATE
 40
2455090.718852731
  9
$TDUUPDATE
 40
2455090.635519398
  9
$TDINDWG
 40
0.0360349074
  9
$TDUSRTIMER
 40
0.0360325463
  9
$USRTIMER
 70
     1
  9
$ANGBASE
 50
0.0
  9
$ANGDIR
 70
     0
  9
$PDMODE
 70
     0
  9
$PDSIZE
 40
0.0
  9
$PLINEWID
 40
0.0
  9
$SPLFRAME
 70
     0
  9
$SPLINETYPE
 70
     6
  9
$SPLINESEGS
 70
     8
  9
$HANDSEED
  5
7A1
  9
$SURFTAB1
 70
     6
  9
$SURFTAB2
 70
     6
  9
$SURFTYPE
 70
     6
  9
$SURFU
 70
     6
  9
$SURFV
 70
     6
  9
$UCSBASE
  2

  9
$UCSNAME
  2

  9
$UCSORG
 10
0.0
 20
0.0
 30
0.0
  9
$UCSXDIR
 10
1.0
 20
0.0
 30
0.0
  9
$UCSYDIR
 10
0.0
 20
1.0
 30
0.0
  9
$UCSORTHOREF
  2

  9
$UCSORTHOVIEW
 70
     0
  9
$UCSORGTOP
 10
0.0
 20
0.0
 30
0.0
  9
$UCSORGBOTTOM
 10
0.0
 20
0.0
 30
0.0
  9
$UCSORGLEFT
 10
0.0
 20
0.0
 30
0.0
  9
$UCSORGRIGHT
 10
0.0
 20
0.0
 30
0.0
  9
$UCSORGFRONT
 10
0.0
 20
0.0
 30
0.0
  9
$UCSORGBACK
 10
0.0
 20
0.0
 30
0.0
  9
$PUCSBASE
  2

  9
$PUCSNAME
  2

  9
$PUCSORG
 10
0.0
 20
0.0
 30
0.0
  9
$PUCSXDIR
 10
1.0
 20
0.0
 30
0.0
  9
$PUCSYDIR
 10
0.0
 20
1.0
 30
0.0
  9
$PUCSORTHOREF
  2

  9
$PUCSORTHOVIEW
 70
     0
  9
$PUCSORGTOP
 10
0.0
 20
0.0
 30
0.0
  9
$PUCSORGBOTTOM
 10
0.0
 20
0.0
 30
0.0
  9
$PUCSORGLEFT
 10
0.0
 20
0.0
 30
0.0
  9
$PUCSORGRIGHT
 10
0.0
 20
0.0
 30
0.0
  9
$PUCSORGFRONT
 10
0.0
 20
0.0
 30
0.0
  9
$PUCSORGBACK
 10
0.0
 20
0.0
 30
0.0
  9
$USERI1
 70
     0
  9
$USERI2
 70
     0
  9
$USERI3
 70
     0
  9
$USERI4
 70
     0
  9
$USERI5
 70
     0
  9
$USERR1
 40
0.0
  9
$USERR2
 40
0.0
  9
$USERR3
 40
0.0
  9
$USERR4
 40
0.0
  9
$USERR5
 40
0.0
  9
$WORLDVIEW
 70
     1
  9
$SHADEDGE
 70
     3
  9
$SHADEDIF
 70
    70
  9
$TILEMODE
 70
     1
  9
$MAXACTVP
 70
    64
  9
$PINSBASE
 10
0.0
 20
0.0
 30
0.0
  9
$PLIMCHECK
 70
     0
  9
$PEXTMIN
 10
0.0
 20
0.0
 30
0.0
  9
$PEXTMAX
 10
12.0
 20
9.0
 30
0.0
  9
$PLIMMIN
 10
0.0
 20
0.0
  9
$PLIMMAX
 10
12.0
 20
9.0
  9
$UNITMODE
 70
     0
  9
$VISRETAIN
 70
     1
  9
$PLINEGEN
 70
     0
  9
$PSLTSCALE
 70
     1
  9
$TREEDEPTH
 70
  3020
  9
$CMLSTYLE
  2
Standard
  9
$CMLJUST
 70
     0
  9
$CMLSCALE
 40
20.0
  9
$PROXYGRAPHICS
 70
     1
  9
$MEASUREMENT
 70
     1
  9
$CELWEIGHT
370
    -1
  9
$ENDCAPS
280
     0
  9
$JOINSTYLE
280
     0
  9
$LWDISPLAY
290
     0
  9
$INSUNITS
 70
     4
  9
$HYPERLINKBASE
  1

  9
$STYLESHEET
  1

  9
$XEDIT
290
     1
  9
$CEPSNTYPE
380
     0
  9
$PSTYLEMODE
290
     1
  9
$FINGERPRINTGUID
  2
{5559452E-1E62-4159-8551-BF76FFF3E7E8}
  9
$VERSIONGUID
  2
{3CEB9EF8-4431-4551-B596-6734A9F966A9}
  9
$EXTNAMES
290
     1
  9
$PSVPSCALE
 40
0.0
  9
$OLESTARTUP
290
     0
  0
ENDSEC
  0
SECTION
  2
CLASSES
  0
CLASS
  1
ACDBDICTIONARYWDFLT
  2
AcDbDictionaryWithDefault
  3
ObjectDBX Classes
 90
        0
280
     0
281
     0
  0
CLASS
  1
ACDBPLACEHOLDER
  2
AcDbPlaceHolder
  3
ObjectDBX Classes
 90
        0
280
     0
281
     0
  0
CLASS
  1
LAYOUT
  2
AcDbLayout
  3
ObjectDBX Classes
 90
        0
280
     0
281
     0
  0
CLASS
  1
DICTIONARYVAR
  2
AcDbDictionaryVar
  3
ObjectDBX Classes
 90
        0
280
     0
281
     0
  0
CLASS
  1
TABLESTYLE
  2
AcDbTableStyle
  3
ObjectDBX Classes
 90
     4095
280
     0
281
     0
  0
CLASS
  1
SCALE
  2
AcDbScale
  3
ObjectDBX Classes
 90
     1153
280
     0
281
     0
  0
ENDSEC
  0
SECTION
  2
TABLES
  0
TABLE
  2
VPORT
  5
8
330
0
100
AcDbSymbolTable
 70
     2
  0
VPORT
  5
97
330
8
100
AcDbSymbolTableRecord
100
AcDbViewportTableRecord
  2
*Active
 70
     0
 10
0.0
 20
0.0
 11
1.0
 21
1.0
 12
14.78884413205207
 22
40.92006048316986
 13
0.0
 23
0.0
 14
10.0
 24
10.0
 15
10.0
 25
10.0
 16
0.0
 26
0.0
 36
1.0
 17
0.0
 27
0.0
 37
0.0
 40
237.5951795054014
 41
1.664827586206897
 42
50.0
 43
0.0
 44
0.0
 50
0.0
 51
0.0
 71
     0
 72
  1000
 73
     1
 74
     3
 75
     0
 76
     0
 77
     0
 78
     0
281
     0
 65
     1
110
0.0
120
0.0
130
0.0
111
1.0
121
0.0
131
0.0
112
0.0
122
1.0
132
0.0
 79
     0
146
0.0
  0
ENDTAB
  0
TABLE
  2
LTYPE
  5
5
330
0
100
AcDbSymbolTable
 70
     2
  0
LTYPE
  5
14
330
5
100
AcDbSymbolTableRecord
100
AcDbLinetypeTableRecord
  2
ByBlock
 70
     0
  3

 72
    65
 73
     0
 40
0.0
  0
LTYPE
  5
15
330
5
100
AcDbSymbolTableRecord
100
AcDbLinetypeTableRecord
  2
ByLayer
 70
     0
  3

 72
    65
 73
     0
 40
0.0
  0
LTYPE
  5
16
330
5
100
AcDbSymbolTableRecord
100
AcDbLinetypeTableRecord
  2
Continuous
 70
     0
  3
Solid line
 72
    65
 73
     0
 40
0.0
  0
LTYPE
  5
660
330
5
100
AcDbSymbolTableRecord
100
AcDbLinetypeTableRecord
  2
DASHDOT
 70
     0
  3
 __ . __ . __ . __ . __ . __ . __ . 
 72
    65
 73
     4
 40
18.5
 49
12.0
 74
     0
 49
-3.0
 74
     0
 49
0.5
 74
     0
 49
-3.0
 74
     0
  0
ENDTAB
  0
TABLE
  2
LAYER
  5
2
330
0
100
AcDbSymbolTable
 70
     3
  0
LAYER
  5
10
330
2
100
AcDbSymbolTableRecord
100
AcDbLayerTableRecord
  2
0
 70
     0
 62
     7
  6
Continuous
370
    -3
390
F
  0
LAYER
  5
FB
330
2
100
AcDbSymbolTableRecord
100
AcDbLayerTableRecord
  2
100
 70
     0
 62
     7
  6
Continuous
370
    13
390
F
  0
LAYER
  5
FC
330
2
100
AcDbSymbolTableRecord
100
AcDbLayerTableRecord
  2
DEFPOINTS
 70
     0
 62
     7
  6
Continuous
290
     0
370
    -3
390
F
  0
ENDTAB
  0
TABLE
  2
STYLE
  5
3
330
0
100
AcDbSymbolTable
 70
     2
  0
STYLE
  5
11
330
3
100
AcDbSymbolTableRecord
100
AcDbTextStyleTableRecord
  2
Standard
 70
     0
 40
0.0
 41
1.0
 50
0.0
 71
     0
 42
2.5
  3
txt
  4

  0
STYLE
  5
F9
330
3
100
AcDbSymbolTableRecord
100
AcDbTextStyleTableRecord
  2
GDT
 70
     0
 40
0.0
 41
1.0
 50
0.0
 71
     0
 42
0.2
  3
gdt.shx
  4

  0
ENDTAB
  0
TABLE
  2
VIEW
  5
6
330
0
100
AcDbSymbolTable
 70
     0
  0
ENDTAB
  0
TABLE
  2
UCS
  5
7
330
0
100
AcDbSymbolTable
 70
     0
  0
ENDTAB
  0
TABLE
  2
APPID
  5
9
330
0
100
AcDbSymbolTable
 70
     3
  0
APPID
  5
12
330
9
100
AcDbSymbolTableRecord
100
AcDbRegAppTableRecord
  2
ACAD
 70
     0
  0
APPID
  5
65E
330
9
100
AcDbSymbolTableRecord
100
AcDbRegAppTableRecord
  2
PROGE_PRINT_SETTINGS
 70
     0
  0
APPID
  5
65F
330
9
100
AcDbSymbolTableRecord
100
AcDbRegAppTableRecord
  2
Conv5506CA
 70
     0
  0
ENDTAB
  0
TABLE
  2
DIMSTYLE
  5
A
330
0
100
AcDbSymbolTable
 70
     2
100
AcDbDimStyleTable
  0
DIMSTYLE
105
27
330
A
100
AcDbSymbolTableRecord
100
AcDbDimStyleTableRecord
  2
Standard
 70
     0
278
     0
340
11
  0
DIMSTYLE
105
29
102
{ACAD_REACTORS
330
3E3
330
468
102
}
330
A
100
AcDbSymbolTableRecord
100
AcDbDimStyleTableRecord
  2
ISO-25
 70
     0
 41
2.5
 42
0.625
 43
3.75
 44
1.25
 73
     0
 74
     0
 77
     1
 78
     8
140
2.5
141
2.5
143
0.03937007874016
147
0.625
171
     3
172
     1
271
     2
272
     2
274
     3
278
    44
283
     0
284
     8
340
11
  0
ENDTAB
  0
TABLE
  2
BLOCK_RECORD
  5
1
330
0
100
AcDbSymbolTable
 70
   158
  0
BLOCK_RECORD
  5
1F
330
1
100
AcDbSymbolTableRecord
100
AcDbBlockTableRecord
  2
*Model_Space
340
22
  0
BLOCK_RECORD
  5
73
330
1
100
AcDbSymbolTableRecord
100
AcDbBlockTableRecord
  2
*Paper_Space
340
4EE
  0
BLOCK_RECORD
  5
D1
330
1
100
AcDbSymbolTableRecord
100
AcDbBlockTableRecord
  2
*Paper_Space0
340
74
  0
BLOCK_RECORD
  5
100
330
1
100
AcDbSymbolTableRecord
100
AcDbBlockTableRecord
  2
BLOCK1
340
0
  0
BLOCK_RECORD
  5
104
330
1
100
AcDbSymbolTableRecord
100
AcDbBlockTableRecord
  2
BLOCK2
340
0
  0
BLOCK_RECORD
  5
108
330
1
100
AcDbSymbolTableRecord
100
AcDbBlockTableRecord
  2
BLOCK3
340
0
  0
BLOCK_RECORD
  5
10C
330
1
100
AcDbSymbolTableRecord
100
AcDbBlockTableRecord
  2
BLOCK4
340
0
  0
BLOCK_RECORD
  5
110
330
1
100
AcDbSymbolTableRecord
100
AcDbBlockTableRecord
  2
BLOCK5
340
0
  0
BLOCK_RECORD
  5
114
330
1
100
AcDbSymbolTableRecord
100
AcDbBlockTableRecord
  2
BLOCK6
340
0
  0
BLOCK_RECORD
  5
118
330
1
100
AcDbSymbolTableRecord
100
AcDbBlockTableRecord
  2
BLOCK7
340
0
  0
BLOCK_RECORD
  5
11C
330
1
100
AcDbSymbolTableRecord
100
AcDbBlockTableRecord
  2
BLOCK8
340
0
  0
BLOCK_RECORD
  5
120
330
1
100
AcDbSymbolTableRecord
100
AcDbBlockTableRecord
  2
BLOCK9
340
0
  0
BLOCK_RECORD
  5
124
330
1
100
AcDbSymbolTableRecord
100
AcDbBlockTableRecord
  2
BLOCK10
340
0
  0
BLOCK_RECORD
  5
128
330
1
100
AcDbSymbolTableRecord
100
AcDbBlockTableRecord
  2
BLOCK11
340
0
  0
BLOCK_RECORD
  5
12C
330
1
100
AcDbSymbolTableRecord
100
AcDbBlockTableRecord
  2
BLOCK12
340
0
  0
BLOCK_RECORD
  5
130
330
1
100
AcDbSymbolTableRecord
100
AcDbBlockTableRecord
  2
BLOCK13
340
0
  0
BLOCK_RECORD
  5
134
330
1
100
AcDbSymbolTableRecord
100
AcDbBlockTableRecord
  2
BLOCK14
340
0
  0
BLOCK_RECORD
  5
138
330
1
100
AcDbSymbolTableRecord
100
AcDbBlockTableRecord
  2
BLOCK15
340
0
  0
BLOCK_RECORD
  5
13C
330
1
100
AcDbSymbolTableRecord
100
AcDbBlockTableRecord
  2
BLOCK16
340
0
  0
BLOCK_RECORD
  5
140
330
1
100
AcDbSymbolTableRecord
100
AcDbBlockTableRecord
  2
BLOCK17
340
0
  0
BLOCK_RECORD
  5
144
330
1
100
AcDbSymbolTableRecord
100
AcDbBlockTableRecord
  2
BLOCK18
340
0
  0
BLOCK_RECORD
  5
148
330
1
100
AcDbSymbolTableRecord
100
AcDbBlockTableRecord
  2
BLOCK19
340
0
  0
BLOCK_RECORD
  5
14C
330
1
100
AcDbSymbolTableRecord
100
AcDbBlockTableRecord
  2
BLOCK20
340
0
  0
BLOCK_RECORD
  5
150
330
1
100
AcDbSymbolTableRecord
100
AcDbBlockTableRecord
  2
BLOCK21
340
0
  0
BLOCK_RECORD
  5
154
330
1
100
AcDbSymbolTableRecord
100
AcDbBlockTableRecord
  2
BLOCK22
340
0
  0
BLOCK_RECORD
  5
158
330
1
100
AcDbSymbolTableRecord
100
AcDbBlockTableRecord
  2
BLOCK23
340
0
  0
BLOCK_RECORD
  5
15C
330
1
100
AcDbSymbolTableRecord
100
AcDbBlockTableRecord
  2
BLOCK24
340
0
  0
BLOCK_RECORD
  5
160
330
1
100
AcDbSymbolTableRecord
100
AcDbBlockTableRecord
  2
BLOCK25
340
0
  0
BLOCK_RECORD
  5
164
330
1
100
AcDbSymbolTableRecord
100
AcDbBlockTableRecord
  2
BLOCK26
340
0
  0
BLOCK_RECORD
  5
168
330
1
100
AcDbSymbolTableRecord
100
AcDbBlockTableRecord
  2
BLOCK27
340
0
  0
BLOCK_RECORD
  5
16C
330
1
100
AcDbSymbolTableRecord
100
AcDbBlockTableRecord
  2
BLOCK28
340
0
  0
BLOCK_RECORD
  5
170
330
1
100
AcDbSymbolTableRecord
100
AcDbBlockTableRecord
  2
BLOCK29
340
0
  0
BLOCK_RECORD
  5
174
330
1
100
AcDbSymbolTableRecord
100
AcDbBlockTableRecord
  2
BLOCK30
340
0
  0
BLOCK_RECORD
  5
178
330
1
100
AcDbSymbolTableRecord
100
AcDbBlockTableRecord
  2
BLOCK31
340
0
  0
BLOCK_RECORD
  5
17C
330
1
100
AcDbSymbolTableRecord
100
AcDbBlockTableRecord
  2
BLOCK32
340
0
  0
BLOCK_RECORD
  5
180
330
1
100
AcDbSymbolTableRecord
100
AcDbBlockTableRecord
  2
BLOCK33
340
0
  0
BLOCK_RECORD
  5
184
330
1
100
AcDbSymbolTableRecord
100
AcDbBlockTableRecord
  2
BLOCK34
340
0
  0
BLOCK_RECORD
  5
188
330
1
100
AcDbSymbolTableRecord
100
AcDbBlockTableRecord
  2
BLOCK35
340
0
  0
BLOCK_RECORD
  5
18C
330
1
100
AcDbSymbolTableRecord
100
AcDbBlockTableRecord
  2
BLOCK36
340
0
  0
BLOCK_RECORD
  5
190
330
1
100
AcDbSymbolTableRecord
100
AcDbBlockTableRecord
  2
BLOCK37
340
0
  0
BLOCK_RECORD
  5
194
330
1
100
AcDbSymbolTableRecord
100
AcDbBlockTableRecord
  2
BLOCK38
340
0
  0
BLOCK_RECORD
  5
198
330
1
100
AcDbSymbolTableRecord
100
AcDbBlockTableRecord
  2
BLOCK39
340
0
  0
BLOCK_RECORD
  5
19C
330
1
100
AcDbSymbolTableRecord
100
AcDbBlockTableRecord
  2
BLOCK40
340
0
  0
BLOCK_RECORD
  5
1A0
330
1
100
AcDbSymbolTableRecord
100
AcDbBlockTableRecord
  2
BLOCK41
340
0
  0
BLOCK_RECORD
  5
1A4
330
1
100
AcDbSymbolTableRecord
100
AcDbBlockTableRecord
  2
BLOCK42
340
0
  0
BLOCK_RECORD
  5
1A8
330
1
100
AcDbSymbolTableRecord
100
AcDbBlockTableRecord
  2
BLOCK43
340
0
  0
BLOCK_RECORD
  5
1AC
330
1
100
AcDbSymbolTableRecord
100
AcDbBlockTableRecord
  2
BLOCK44
340
0
  0
BLOCK_RECORD
  5
1B0
330
1
100
AcDbSymbolTableRecord
100
AcDbBlockTableRecord
  2
BLOCK45
340
0
  0
BLOCK_RECORD
  5
1B4
330
1
100
AcDbSymbolTableRecord
100
AcDbBlockTableRecord
  2
BLOCK46
340
0
  0
BLOCK_RECORD
  5
1B8
330
1
100
AcDbSymbolTableRecord
100
AcDbBlockTableRecord
  2
BLOCK47
340
0
  0
BLOCK_RECORD
  5
1BC
330
1
100
AcDbSymbolTableRecord
100
AcDbBlockTableRecord
  2
BLOCK48
340
0
  0
BLOCK_RECORD
  5
1C0
330
1
100
AcDbSymbolTableRecord
100
AcDbBlockTableRecord
  2
BLOCK49
340
0
  0
BLOCK_RECORD
  5
1C4
330
1
100
AcDbSymbolTableRecord
100
AcDbBlockTableRecord
  2
BLOCK50
340
0
  0
BLOCK_RECORD
  5
1C8
330
1
100
AcDbSymbolTableRecord
100
AcDbBlockTableRecord
  2
BLOCK51
340
0
  0
BLOCK_RECORD
  5
1CC
330
1
100
AcDbSymbolTableRecord
100
AcDbBlockTableRecord
  2
BLOCK52
340
0
  0
BLOCK_RECORD
  5
1D0
330
1
100
AcDbSymbolTableRecord
100
AcDbBlockTableRecord
  2
BLOCK53
340
0
  0
BLOCK_RECORD
  5
1D4
330
1
100
AcDbSymbolTableRecord
100
AcDbBlockTableRecord
  2
BLOCK54
340
0
  0
BLOCK_RECORD
  5
1D8
330
1
100
AcDbSymbolTableRecord
100
AcDbBlockTableRecord
  2
BLOCK55
340
0
  0
BLOCK_RECORD
  5
1DC
330
1
100
AcDbSymbolTableRecord
100
AcDbBlockTableRecord
  2
BLOCK56
340
0
  0
BLOCK_RECORD
  5
1E0
330
1
100
AcDbSymbolTableRecord
100
AcDbBlockTableRecord
  2
BLOCK57
340
0
  0
BLOCK_RECORD
  5
1E4
330
1
100
AcDbSymbolTableRecord
100
AcDbBlockTableRecord
  2
BLOCK58
340
0
  0
BLOCK_RECORD
  5
1E8
330
1
100
AcDbSymbolTableRecord
100
AcDbBlockTableRecord
  2
BLOCK59
340
0
  0
BLOCK_RECORD
  5
1EC
330
1
100
AcDbSymbolTableRecord
100
AcDbBlockTableRecord
  2
BLOCK60
340
0
  0
BLOCK_RECORD
  5
1F0
330
1
100
AcDbSymbolTableRecord
100
AcDbBlockTableRecord
  2
BLOCK61
340
0
  0
BLOCK_RECORD
  5
1F4
330
1
100
AcDbSymbolTableRecord
100
AcDbBlockTableRecord
  2
BLOCK62
340
0
  0
BLOCK_RECORD
  5
1F8
330
1
100
AcDbSymbolTableRecord
100
AcDbBlockTableRecord
  2
BLOCK63
340
0
  0
BLOCK_RECORD
  5
1FC
330
1
100
AcDbSymbolTableRecord
100
AcDbBlockTableRecord
  2
BLOCK64
340
0
  0
BLOCK_RECORD
  5
200
330
1
100
AcDbSymbolTableRecord
100
AcDbBlockTableRecord
  2
BLOCK65
340
0
  0
BLOCK_RECORD
  5
204
330
1
100
AcDbSymbolTableRecord
100
AcDbBlockTableRecord
  2
BLOCK66
340
0
  0
BLOCK_RECORD
  5
208
330
1
100
AcDbSymbolTableRecord
100
AcDbBlockTableRecord
  2
BLOCK67
340
0
  0
BLOCK_RECORD
  5
20C
330
1
100
AcDbSymbolTableRecord
100
AcDbBlockTableRecord
  2
BLOCK68
340
0
  0
BLOCK_RECORD
  5
210
330
1
100
AcDbSymbolTableRecord
100
AcDbBlockTableRecord
  2
BLOCK69
340
0
  0
BLOCK_RECORD
  5
214
330
1
100
AcDbSymbolTableRecord
100
AcDbBlockTableRecord
  2
BLOCK70
340
0
  0
BLOCK_RECORD
  5
218
330
1
100
AcDbSymbolTableRecord
100
AcDbBlockTableRecord
  2
BLOCK71
340
0
  0
BLOCK_RECORD
  5
21C
330
1
100
AcDbSymbolTableRecord
100
AcDbBlockTableRecord
  2
BLOCK72
340
0
  0
BLOCK_RECORD
  5
220
330
1
100
AcDbSymbolTableRecord
100
AcDbBlockTableRecord
  2
BLOCK73
340
0
  0
BLOCK_RECORD
  5
224
330
1
100
AcDbSymbolTableRecord
100
AcDbBlockTableRecord
  2
BLOCK74
340
0
  0
BLOCK_RECORD
  5
228
330
1
100
AcDbSymbolTableRecord
100
AcDbBlockTableRecord
  2
BLOCK75
340
0
  0
BLOCK_RECORD
  5
22C
330
1
100
AcDbSymbolTableRecord
100
AcDbBlockTableRecord
  2
BLOCK76
340
0
  0
BLOCK_RECORD
  5
230
330
1
100
AcDbSymbolTableRecord
100
AcDbBlockTableRecord
  2
BLOCK77
340
0
  0
BLOCK_RECORD
  5
234
330
1
100
AcDbSymbolTableRecord
100
AcDbBlockTableRecord
  2
BLOCK78
340
0
  0
BLOCK_RECORD
  5
238
330
1
100
AcDbSymbolTableRecord
100
AcDbBlockTableRecord
  2
BLOCK79
340
0
  0
BLOCK_RECORD
  5
23C
330
1
100
AcDbSymbolTableRecord
100
AcDbBlockTableRecord
  2
BLOCK80
340
0
  0
BLOCK_RECORD
  5
240
330
1
100
AcDbSymbolTableRecord
100
AcDbBlockTableRecord
  2
BLOCK81
340
0
  0
BLOCK_RECORD
  5
244
330
1
100
AcDbSymbolTableRecord
100
AcDbBlockTableRecord
  2
BLOCK82
340
0
  0
BLOCK_RECORD
  5
248
330
1
100
AcDbSymbolTableRecord
100
AcDbBlockTableRecord
  2
BLOCK83
340
0
  0
BLOCK_RECORD
  5
24C
330
1
100
AcDbSymbolTableRecord
100
AcDbBlockTableRecord
  2
BLOCK84
340
0
  0
BLOCK_RECORD
  5
250
330
1
100
AcDbSymbolTableRecord
100
AcDbBlockTableRecord
  2
BLOCK85
340
0
  0
BLOCK_RECORD
  5
254
330
1
100
AcDbSymbolTableRecord
100
AcDbBlockTableRecord
  2
BLOCK86
340
0
  0
BLOCK_RECORD
  5
258
330
1
100
AcDbSymbolTableRecord
100
AcDbBlockTableRecord
  2
BLOCK87
340
0
  0
BLOCK_RECORD
  5
25C
330
1
100
AcDbSymbolTableRecord
100
AcDbBlockTableRecord
  2
BLOCK88
340
0
  0
BLOCK_RECORD
  5
260
330
1
100
AcDbSymbolTableRecord
100
AcDbBlockTableRecord
  2
BLOCK89
340
0
  0
BLOCK_RECORD
  5
264
330
1
100
AcDbSymbolTableRecord
100
AcDbBlockTableRecord
  2
BLOCK90
340
0
  0
BLOCK_RECORD
  5
268
330
1
100
AcDbSymbolTableRecord
100
AcDbBlockTableRecord
  2
BLOCK91
340
0
  0
BLOCK_RECORD
  5
26C
330
1
100
AcDbSymbolTableRecord
100
AcDbBlockTableRecord
  2
BLOCK92
340
0
  0
BLOCK_RECORD
  5
270
330
1
100
AcDbSymbolTableRecord
100
AcDbBlockTableRecord
  2
BLOCK93
340
0
  0
BLOCK_RECORD
  5
274
330
1
100
AcDbSymbolTableRecord
100
AcDbBlockTableRecord
  2
BLOCK94
340
0
  0
BLOCK_RECORD
  5
278
330
1
100
AcDbSymbolTableRecord
100
AcDbBlockTableRecord
  2
BLOCK95
340
0
  0
BLOCK_RECORD
  5
27C
330
1
100
AcDbSymbolTableRecord
100
AcDbBlockTableRecord
  2
BLOCK96
340
0
  0
BLOCK_RECORD
  5
280
330
1
100
AcDbSymbolTableRecord
100
AcDbBlockTableRecord
  2
BLOCK97
340
0
  0
BLOCK_RECORD
  5
284
330
1
100
AcDbSymbolTableRecord
100
AcDbBlockTableRecord
  2
BLOCK98
340
0
  0
BLOCK_RECORD
  5
288
330
1
100
AcDbSymbolTableRecord
100
AcDbBlockTableRecord
  2
BLOCK99
340
0
  0
BLOCK_RECORD
  5
28C
330
1
100
AcDbSymbolTableRecord
100
AcDbBlockTableRecord
  2
BLOCK100
340
0
  0
BLOCK_RECORD
  5
290
330
1
100
AcDbSymbolTableRecord
100
AcDbBlockTableRecord
  2
BLOCK101
340
0
  0
BLOCK_RECORD
  5
294
330
1
100
AcDbSymbolTableRecord
100
AcDbBlockTableRecord
  2
BLOCK102
340
0
  0
BLOCK_RECORD
  5
298
330
1
100
AcDbSymbolTableRecord
100
AcDbBlockTableRecord
  2
BLOCK103
340
0
  0
BLOCK_RECORD
  5
29C
330
1
100
AcDbSymbolTableRecord
100
AcDbBlockTableRecord
  2
BLOCK104
340
0
  0
BLOCK_RECORD
  5
2A0
330
1
100
AcDbSymbolTableRecord
100
AcDbBlockTableRecord
  2
BLOCK105
340
0
  0
BLOCK_RECORD
  5
2A4
330
1
100
AcDbSymbolTableRecord
100
AcDbBlockTableRecord
  2
BLOCK106
340
0
  0
BLOCK_RECORD
  5
2A8
330
1
100
AcDbSymbolTableRecord
100
AcDbBlockTableRecord
  2
BLOCK107
340
0
  0
BLOCK_RECORD
  5
2AC
330
1
100
AcDbSymbolTableRecord
100
AcDbBlockTableRecord
  2
BLOCK108
340
0
  0
BLOCK_RECORD
  5
2B0
330
1
100
AcDbSymbolTableRecord
100
AcDbBlockTableRecord
  2
BLOCK109
340
0
  0
BLOCK_RECORD
  5
2B4
330
1
100
AcDbSymbolTableRecord
100
AcDbBlockTableRecord
  2
BLOCK110
340
0
  0
BLOCK_RECORD
  5
2B8
330
1
100
AcDbSymbolTableRecord
100
AcDbBlockTableRecord
  2
BLOCK111
340
0
  0
BLOCK_RECORD
  5
2BC
330
1
100
AcDbSymbolTableRecord
100
AcDbBlockTableRecord
  2
BLOCK112
340
0
  0
BLOCK_RECORD
  5
2C0
330
1
100
AcDbSymbolTableRecord
100
AcDbBlockTableRecord
  2
BLOCK113
340
0
  0
BLOCK_RECORD
  5
2C4
330
1
100
AcDbSymbolTableRecord
100
AcDbBlockTableRecord
  2
BLOCK114
340
0
  0
BLOCK_RECORD
  5
2E0
330
1
100
AcDbSymbolTableRecord
100
AcDbBlockTableRecord
  2
BLOCK115
340
0
  0
BLOCK_RECORD
  5
2E4
330
1
100
AcDbSymbolTableRecord
100
AcDbBlockTableRecord
  2
BLOCK116
340
0
  0
BLOCK_RECORD
  5
2E8
330
1
100
AcDbSymbolTableRecord
100
AcDbBlockTableRecord
  2
BLOCK117
340
0
  0
BLOCK_RECORD
  5
2EC
330
1
100
AcDbSymbolTableRecord
100
AcDbBlockTableRecord
  2
BLOCK118
340
0
  0
BLOCK_RECORD
  5
2F0
330
1
100
AcDbSymbolTableRecord
100
AcDbBlockTableRecord
  2
BLOCK119
340
0
  0
BLOCK_RECORD
  5
2F4
330
1
100
AcDbSymbolTableRecord
100
AcDbBlockTableRecord
  2
BLOCK120
340
0
  0
BLOCK_RECORD
  5
2FD
330
1
100
AcDbSymbolTableRecord
100
AcDbBlockTableRecord
  2
BLOCK121
340
0
  0
BLOCK_RECORD
  5
305
330
1
100
AcDbSymbolTableRecord
100
AcDbBlockTableRecord
  2
BLOCK122
340
0
  0
BLOCK_RECORD
  5
30D
330
1
100
AcDbSymbolTableRecord
100
AcDbBlockTableRecord
  2
BLOCK123
340
0
  0
BLOCK_RECORD
  5
316
330
1
100
AcDbSymbolTableRecord
100
AcDbBlockTableRecord
  2
BLOCK124
340
0
  0
BLOCK_RECORD
  5
31F
330
1
100
AcDbSymbolTableRecord
100
AcDbBlockTableRecord
  2
BLOCK125
340
0
  0
BLOCK_RECORD
  5
327
330
1
100
AcDbSymbolTableRecord
100
AcDbBlockTableRecord
  2
BLOCK126
340
0
  0
BLOCK_RECORD
  5
32E
330
1
100
AcDbSymbolTableRecord
100
AcDbBlockTableRecord
  2
BLOCK127
340
0
  0
BLOCK_RECORD
  5
337
330
1
100
AcDbSymbolTableRecord
100
AcDbBlockTableRecord
  2
BLOCK128
340
0
  0
BLOCK_RECORD
  5
340
330
1
100
AcDbSymbolTableRecord
100
AcDbBlockTableRecord
  2
BLOCK129
340
0
  0
BLOCK_RECORD
  5
349
330
1
100
AcDbSymbolTableRecord
100
AcDbBlockTableRecord
  2
BLOCK130
340
0
  0
BLOCK_RECORD
  5
353
330
1
100
AcDbSymbolTableRecord
100
AcDbBlockTableRecord
  2
BLOCK131
340
0
  0
BLOCK_RECORD
  5
35C
330
1
100
AcDbSymbolTableRecord
100
AcDbBlockTableRecord
  2
BLOCK132
340
0
  0
BLOCK_RECORD
  5
365
330
1
100
AcDbSymbolTableRecord
100
AcDbBlockTableRecord
  2
BLOCK133
340
0
  0
BLOCK_RECORD
  5
36E
330
1
100
AcDbSymbolTableRecord
100
AcDbBlockTableRecord
  2
BLOCK134
340
0
  0
BLOCK_RECORD
  5
379
330
1
100
AcDbSymbolTableRecord
100
AcDbBlockTableRecord
  2
*D135
340
0
  0
BLOCK_RECORD
  5
3E2
330
1
100
AcDbSymbolTableRecord
100
AcDbBlockTableRecord
  2
*D136
340
0
  0
BLOCK_RECORD
  5
3EE
330
1
100
AcDbSymbolTableRecord
100
AcDbBlockTableRecord
  2
*D137
340
0
  0
BLOCK_RECORD
  5
3FA
330
1
100
AcDbSymbolTableRecord
100
AcDbBlockTableRecord
  2
*D138
340
0
  0
BLOCK_RECORD
  5
405
330
1
100
AcDbSymbolTableRecord
100
AcDbBlockTableRecord
  2
*D139
340
0
  0
BLOCK_RECORD
  5
410
330
1
100
AcDbSymbolTableRecord
100
AcDbBlockTableRecord
  2
*D140
340
0
  0
BLOCK_RECORD
  5
41D
330
1
100
AcDbSymbolTableRecord
100
AcDbBlockTableRecord
  2
*D141
340
0
  0
BLOCK_RECORD
  5
45A
330
1
100
AcDbSymbolTableRecord
100
AcDbBlockTableRecord
  2
*D142
340
0
  0
BLOCK_RECORD
  5
473
330
1
100
AcDbSymbolTableRecord
100
AcDbBlockTableRecord
  2
*D143
340
0
  0
BLOCK_RECORD
  5
47E
330
1
100
AcDbSymbolTableRecord
100
AcDbBlockTableRecord
  2
*D144
340
0
  0
BLOCK_RECORD
  5
489
330
1
100
AcDbSymbolTableRecord
100
AcDbBlockTableRecord
  2
*D145
340
0
  0
BLOCK_RECORD
  5
494
330
1
100
AcDbSymbolTableRecord
100
AcDbBlockTableRecord
  2
*D146
340
0
  0
BLOCK_RECORD
  5
49F
330
1
100
AcDbSymbolTableRecord
100
AcDbBlockTableRecord
  2
*D147
340
0
  0
BLOCK_RECORD
  5
4AB
330
1
100
AcDbSymbolTableRecord
100
AcDbBlockTableRecord
  2
*D148
340
0
  0
BLOCK_RECORD
  5
4B7
330
1
100
AcDbSymbolTableRecord
100
AcDbBlockTableRecord
  2
*D149
340
0
  0
BLOCK_RECORD
  5
4C4
330
1
100
AcDbSymbolTableRecord
100
AcDbBlockTableRecord
  2
*D150
340
0
  0
BLOCK_RECORD
  5
4D0
330
1
100
AcDbSymbolTableRecord
100
AcDbBlockTableRecord
  2
*D151
340
0
  0
BLOCK_RECORD
  5
4DC
330
1
100
AcDbSymbolTableRecord
100
AcDbBlockTableRecord
  2
*D152
340
0
  0
BLOCK_RECORD
  5
4E8
330
1
100
AcDbSymbolTableRecord
100
AcDbBlockTableRecord
  2
*D153
340
0
  0
BLOCK_RECORD
  5
636
330
1
100
AcDbSymbolTableRecord
100
AcDbBlockTableRecord
  2
*D154
340
0
  0
BLOCK_RECORD
  5
642
330
1
100
AcDbSymbolTableRecord
100
AcDbBlockTableRecord
  2
*D155
340
0
  0
BLOCK_RECORD
  5
64F
330
1
100
AcDbSymbolTableRecord
100
AcDbBlockTableRecord
  2
*D156
340
0
  0
BLOCK_RECORD
  5
65C
330
1
100
AcDbSymbolTableRecord
100
AcDbBlockTableRecord
  2
*D157
340
0
  0
ENDTAB
  0
ENDSEC
  0
SECTION
  2
BLOCKS
  0
BLOCK
  5
20
330
1F
100
AcDbEntity
  8
0
100
AcDbBlockBegin
  2
*Model_Space
 70
     0
 10
0.0
 20
0.0
 30
0.0
  3
*Model_Space
  1

  0
ENDBLK
  5
21
330
1F
100
AcDbEntity
  8
0
100
AcDbBlockEnd
  0
BLOCK
  5
75
330
73
100
AcDbEntity
 67
     1
  8
0
100
AcDbBlockBegin
  2
*Paper_Space
 70
     0
 10
0.0
 20
0.0
 30
0.0
  3
*Paper_Space
  1

  0
ENDBLK
  5
76
330
73
100
AcDbEntity
 67
     1
  8
0
100
AcDbBlockEnd
  0
BLOCK
  5
661
330
D1
100
AcDbEntity
  8
0
100
AcDbBlockBegin
  2
*Paper_Space0
 70
     0
 10
0.0
 20
0.0
 30
0.0
  3
*Paper_Space0
  1

  0
VIEWPORT
  5
623
330
D1
100
AcDbEntity
  8
0
100
AcDbViewport
 10
7.8
 20
4.5
 30
0.0
 40
15.64
 41
9.0
 68
     1
 69
     1
 12
6.0
 22
4.5
 13
0.0
 23
0.0
 14
0.5
 24
0.5
 15
0.5
 25
0.5
 16
0.0
 26
0.0
 36
1.0
 17
0.0
 27
0.0
 37
0.0
 42
50.0
 43
0.0
 44
0.0
 45
12.0
 50
0.0
 51
0.0
 72
   100
 90
   557152
  1

281
     0
 71
     1
 74
     0
110
0.0
120
0.0
130
0.0
111
1.0
121
0.0
131
0.0
112
0.0
122
1.0
132
0.0
 79
     0
146
0.0
  0
ENDBLK
  5
662
330
D1
100
AcDbEntity
  8
0
100
AcDbBlockEnd
  0
BLOCK
  5
663
330
100
100
AcDbEntity
  8
0
100
AcDbBlockBegin
  2
BLOCK1
 70
     0
 10
0.0
 20
0.0
 30
0.0
  3
BLOCK1
  1

  0
TEXT
  5
FE
330
100
100
AcDbEntity
  8
100
 62
     7
370
    13
390
F
100
AcDbText
 10
-36.20575
 20
47.416668
 30
0.0
 40
1.5
  1
/Approved
 41
0.7501385384615384
 72
     5
 11
-26.453949
 21
47.416668
 31
0.0
100
AcDbText
  0
ENDBLK
  5
664
330
100
100
AcDbEntity
  8
0
100
AcDbBlockEnd
  0
BLOCK
  5
665
330
104
100
AcDbEntity
  8
0
100
AcDbBlockBegin
  2
BLOCK2
 70
     0
 10
0.0
 20
0.0
 30
0.0
  3
BLOCK2
  1

  0
TEXT
  5
102
330
104
100
AcDbEntity
  8
100
 62
     7
370
    13
390
F
100
AcDbText
 10
-49.0
 20
47.416668
 30
0.0
 40
1.5
  1
APPROVATO
 41
0.911111037037037
 72
     5
 11
-36.700001
 21
47.416668
 31
0.0
100
AcDbText
  0
ENDBLK
  5
666
330
104
100
AcDbEntity
  8
0
100
AcDbBlockEnd
  0
BLOCK
  5
667
330
108
100
AcDbEntity
  8
0
100
AcDbBlockBegin
  2
BLOCK3
 70
     0
 10
0.0
 20
0.0
 30
0.0
  3
BLOCK3
  1

  0
TEXT
  5
106
330
108
100
AcDbEntity
  8
0
 62
     7
370
    70
390
F
100
AcDbText
 10
-122.98661
 20
20.575142
 30
0.0
 40
2.8
  1
PROFILO X PALO
 41
0.9649999285714286
 72
     5
 11
-86.959946
 21
20.575142
 31
0.0
100
AcDbText
  0
ENDBLK
  5
668
330
108
100
AcDbEntity
  8
0
100
AcDbBlockEnd
  0
BLOCK
  5
669
330
10C
100
AcDbEntity
  8
0
100
AcDbBlockBegin
  2
BLOCK4
 70
     0
 10
0.0
 20
0.0
 30
0.0
  3
BLOCK4
  1

  0
TEXT
  5
10A
330
10C
100
AcDbEntity
  8
100
 62
     7
370
    13
390
F
100
AcDbText
 10
-167.393768
 20
104.191086
 30
0.0
 40
2.0
  1
/Tol.
 41
1.000189571428572
 72
     5
 11
-160.392441
 21
104.191086
 31
0.0
100
AcDbText
  0
ENDBLK
  5
66A
330
10C
100
AcDbEntity
  8
0
100
AcDbBlockEnd
  0
BLOCK
  5
66B
330
110
100
AcDbEntity
  8
0
100
AcDbBlockBegin
  2
BLOCK5
 70
     0
 10
0.0
 20
0.0
 30
0.0
  3
BLOCK5
  1

  0
TEXT
  5
10E
330
110
100
AcDbEntity
  8
100
 62
     7
370
    13
390
F
100
AcDbText
 10
-173.570404
 20
104.144264
 30
0.0
 40
2.0
  1
TOL.
 41
0.9168446666666673
 72
     5
 11
-168.069336
 21
104.144264
 31
0.0
100
AcDbText
  0
ENDBLK
  5
66C
330
110
100
AcDbEntity
  8
0
100
AcDbBlockEnd
  0
BLOCK
  5
66D
330
114
100
AcDbEntity
  8
0
100
AcDbBlockBegin
  2
BLOCK6
 70
     0
 10
0.0
 20
0.0
 30
0.0
  3
BLOCK6
  1

  0
TEXT
  5
112
330
114
100
AcDbEntity
  8
100
 62
     7
370
    13
390
F
100
AcDbText
 10
-182.393768
 20
104.191086
 30
0.0
 40
2.0
  1
/Dim.
 41
1.05019905
 72
     5
 11
-175.392441
 21
104.191086
 31
0.0
100
AcDbText
  0
ENDBLK
  5
66E
330
114
100
AcDbEntity
  8
0
100
AcDbBlockEnd
  0
BLOCK
  5
66F
330
118
100
AcDbEntity
  8
0
100
AcDbBlockBegin
  2
BLOCK7
 70
     0
 10
0.0
 20
0.0
 30
0.0
  3
BLOCK7
  1

  0
TEXT
  5
116
330
118
100
AcDbEntity
  8
100
 62
     7
370
    13
390
F
100
AcDbText
 10
-188.570404
 20
104.144264
 30
0.0
 40
2.0
  1
DIM.
 41
1.031450250000001
 72
     5
 11
-183.069336
 21
104.144264
 31
0.0
100
AcDbText
  0
ENDBLK
  5
670
330
118
100
AcDbEntity
  8
0
100
AcDbBlockEnd
  0
BLOCK
  5
671
330
11C
100
AcDbEntity
  8
0
100
AcDbBlockBegin
  2
BLOCK8
 70
     0
 10
0.0
 20
0.0
 30
0.0
  3
BLOCK8
  1

  0
TEXT
  5
11A
330
11C
100
AcDbEntity
  8
100
 62
     7
370
    70
390
F
100
AcDbText
 10
-172.267624
 20
58.485474
 30
0.0
 40
2.0
  1
-
 41
1.099995000000014
 72
     5
 11
-170.800964
 21
58.485474
 31
0.0
100
AcDbText
  0
ENDBLK
  5
672
330
11C
100
AcDbEntity
  8
0
100
AcDbBlockEnd
  0
BLOCK
  5
673
330
120
100
AcDbEntity
  8
0
100
AcDbBlockBegin
  2
BLOCK9
 70
     0
 10
0.0
 20
0.0
 30
0.0
  3
BLOCK9
  1

  0
TEXT
  5
11E
330
120
100
AcDbEntity
  8
100
 62
     7
370
    70
390
F
100
AcDbText
 10
-172.267624
 20
62.485474
 30
0.0
 40
2.0
  1
-
 41
1.099995000000014
 72
     5
 11
-170.800964
 21
62.485474
 31
0.0
100
AcDbText
  0
ENDBLK
  5
674
330
120
100
AcDbEntity
  8
0
100
AcDbBlockEnd
  0
BLOCK
  5
675
330
124
100
AcDbEntity
  8
0
100
AcDbBlockBegin
  2
BLOCK10
 70
     0
 10
0.0
 20
0.0
 30
0.0
  3
BLOCK10
  1

  0
TEXT
  5
122
330
124
100
AcDbEntity
  8
100
 62
     7
370
    70
390
F
100
AcDbText
 10
-172.267624
 20
66.485474
 30
0.0
 40
2.0
  1
-
 41
1.099995000000014
 72
     5
 11
-170.800964
 21
66.485474
 31
0.0
100
AcDbText
  0
ENDBLK
  5
676
330
124
100
AcDbEntity
  8
0
100
AcDbBlockEnd
  0
BLOCK
  5
677
330
128
100
AcDbEntity
  8
0
100
AcDbBlockBegin
  2
BLOCK11
 70
     0
 10
0.0
 20
0.0
 30
0.0
  3
BLOCK11
  1

  0
TEXT
  5
126
330
128
100
AcDbEntity
  8
100
 62
     7
370
    70
390
F
100
AcDbText
 10
-172.267624
 20
70.485474
 30
0.0
 40
2.0
  1
-
 41
1.099995000000014
 72
     5
 11
-170.800964
 21
70.485474
 31
0.0
100
AcDbText
  0
ENDBLK
  5
678
330
128
100
AcDbEntity
  8
0
100
AcDbBlockEnd
  0
BLOCK
  5
679
330
12C
100
AcDbEntity
  8
0
100
AcDbBlockBegin
  2
BLOCK12
 70
     0
 10
0.0
 20
0.0
 30
0.0
  3
BLOCK12
  1

  0
TEXT
  5
12A
330
12C
100
AcDbEntity
  8
100
 62
     7
370
    70
390
F
100
AcDbText
 10
-172.267624
 20
74.485474
 30
0.0
 40
2.0
  1
-
 41
1.099995000000014
 72
     5
 11
-170.800964
 21
74.485474
 31
0.0
100
AcDbText
  0
ENDBLK
  5
67A
330
12C
100
AcDbEntity
  8
0
100
AcDbBlockEnd
  0
BLOCK
  5
67B
330
130
100
AcDbEntity
  8
0
100
AcDbBlockBegin
  2
BLOCK13
 70
     0
 10
0.0
 20
0.0
 30
0.0
  3
BLOCK13
  1

  0
TEXT
  5
12E
330
130
100
AcDbEntity
  8
100
 62
     7
370
    70
390
F
100
AcDbText
 10
-172.267624
 20
78.485474
 30
0.0
 40
2.0
  1
-
 41
1.099995000000014
 72
     5
 11
-170.800964
 21
78.485474
 31
0.0
100
AcDbText
  0
ENDBLK
  5
67C
330
130
100
AcDbEntity
  8
0
100
AcDbBlockEnd
  0
BLOCK
  5
67D
330
134
100
AcDbEntity
  8
0
100
AcDbBlockBegin
  2
BLOCK14
 70
     0
 10
0.0
 20
0.0
 30
0.0
  3
BLOCK14
  1

  0
TEXT
  5
132
330
134
100
AcDbEntity
  8
100
 62
     7
370
    70
390
F
100
AcDbText
 10
-172.267624
 20
82.485474
 30
0.0
 40
2.0
  1
-
 41
1.099995000000014
 72
     5
 11
-170.800964
 21
82.485474
 31
0.0
100
AcDbText
  0
ENDBLK
  5
67E
330
134
100
AcDbEntity
  8
0
100
AcDbBlockEnd
  0
BLOCK
  5
67F
330
138
100
AcDbEntity
  8
0
100
AcDbBlockBegin
  2
BLOCK15
 70
     0
 10
0.0
 20
0.0
 30
0.0
  3
BLOCK15
  1

  0
TEXT
  5
136
330
138
100
AcDbEntity
  8
100
 62
     7
370
    70
390
F
100
AcDbText
 10
-172.267624
 20
86.485474
 30
0.0
 40
2.0
  1
-
 41
1.099995000000014
 72
     5
 11
-170.800964
 21
86.485474
 31
0.0
100
AcDbText
  0
ENDBLK
  5
680
330
138
100
AcDbEntity
  8
0
100
AcDbBlockEnd
  0
BLOCK
  5
681
330
13C
100
AcDbEntity
  8
0
100
AcDbBlockBegin
  2
BLOCK16
 70
     0
 10
0.0
 20
0.0
 30
0.0
  3
BLOCK16
  1

  0
TEXT
  5
13A
330
13C
100
AcDbEntity
  8
100
 62
     7
370
    70
390
F
100
AcDbText
 10
-172.267624
 20
90.485474
 30
0.0
 40
2.0
  1
-
 41
1.099995000000014
 72
     5
 11
-170.800964
 21
90.485474
 31
0.0
100
AcDbText
  0
ENDBLK
  5
682
330
13C
100
AcDbEntity
  8
0
100
AcDbBlockEnd
  0
BLOCK
  5
683
330
140
100
AcDbEntity
  8
0
100
AcDbBlockBegin
  2
BLOCK17
 70
     0
 10
0.0
 20
0.0
 30
0.0
  3
BLOCK17
  1

  0
TEXT
  5
13E
330
140
100
AcDbEntity
  8
100
 62
     7
370
    70
390
F
100
AcDbText
 10
-172.267624
 20
94.485474
 30
0.0
 40
2.0
  1
-
 41
1.099995000000014
 72
     5
 11
-170.800964
 21
94.485474
 31
0.0
100
AcDbText
  0
ENDBLK
  5
684
330
140
100
AcDbEntity
  8
0
100
AcDbBlockEnd
  0
BLOCK
  5
685
330
144
100
AcDbEntity
  8
0
100
AcDbBlockBegin
  2
BLOCK18
 70
     0
 10
0.0
 20
0.0
 30
0.0
  3
BLOCK18
  1

  0
TEXT
  5
142
330
144
100
AcDbEntity
  8
100
 62
     7
370
    70
390
F
100
AcDbText
 10
-172.267624
 20
59.497437
 30
0.0
 40
2.0
  1
+
 41
1.099995000000014
 72
     5
 11
-170.800964
 21
59.497437
 31
0.0
100
AcDbText
  0
ENDBLK
  5
686
330
144
100
AcDbEntity
  8
0
100
AcDbBlockEnd
  0
BLOCK
  5
687
330
148
100
AcDbEntity
  8
0
100
AcDbBlockBegin
  2
BLOCK19
 70
     0
 10
0.0
 20
0.0
 30
0.0
  3
BLOCK19
  1

  0
TEXT
  5
146
330
148
100
AcDbEntity
  8
100
 62
     7
370
    70
390
F
100
AcDbText
 10
-172.267624
 20
63.497437
 30
0.0
 40
2.0
  1
+
 41
1.099995000000014
 72
     5
 11
-170.800964
 21
63.497437
 31
0.0
100
AcDbText
  0
ENDBLK
  5
688
330
148
100
AcDbEntity
  8
0
100
AcDbBlockEnd
  0
BLOCK
  5
689
330
14C
100
AcDbEntity
  8
0
100
AcDbBlockBegin
  2
BLOCK20
 70
     0
 10
0.0
 20
0.0
 30
0.0
  3
BLOCK20
  1

  0
TEXT
  5
14A
330
14C
100
AcDbEntity
  8
100
 62
     7
370
    70
390
F
100
AcDbText
 10
-172.267624
 20
67.497437
 30
0.0
 40
2.0
  1
+
 41
1.099995000000014
 72
     5
 11
-170.800964
 21
67.497437
 31
0.0
100
AcDbText
  0
ENDBLK
  5
68A
330
14C
100
AcDbEntity
  8
0
100
AcDbBlockEnd
  0
BLOCK
  5
68B
330
150
100
AcDbEntity
  8
0
100
AcDbBlockBegin
  2
BLOCK21
 70
     0
 10
0.0
 20
0.0
 30
0.0
  3
BLOCK21
  1

  0
TEXT
  5
14E
330
150
100
AcDbEntity
  8
100
 62
     7
370
    70
390
F
100
AcDbText
 10
-172.267624
 20
71.497437
 30
0.0
 40
2.0
  1
+
 41
1.099995000000014
 72
     5
 11
-170.800964
 21
71.497437
 31
0.0
100
AcDbText
  0
ENDBLK
  5
68C
330
150
100
AcDbEntity
  8
0
100
AcDbBlockEnd
  0
BLOCK
  5
68D
330
154
100
AcDbEntity
  8
0
100
AcDbBlockBegin
  2
BLOCK22
 70
     0
 10
0.0
 20
0.0
 30
0.0
  3
BLOCK22
  1

  0
TEXT
  5
152
330
154
100
AcDbEntity
  8
100
 62
     7
370
    70
390
F
100
AcDbText
 10
-172.267624
 20
75.497437
 30
0.0
 40
2.0
  1
+
 41
1.099995000000014
 72
     5
 11
-170.800964
 21
75.497437
 31
0.0
100
AcDbText
  0
ENDBLK
  5
68E
330
154
100
AcDbEntity
  8
0
100
AcDbBlockEnd
  0
BLOCK
  5
68F
330
158
100
AcDbEntity
  8
0
100
AcDbBlockBegin
  2
BLOCK23
 70
     0
 10
0.0
 20
0.0
 30
0.0
  3
BLOCK23
  1

  0
TEXT
  5
156
330
158
100
AcDbEntity
  8
100
 62
     7
370
    70
390
F
100
AcDbText
 10
-172.267624
 20
79.497437
 30
0.0
 40
2.0
  1
+
 41
1.099995000000014
 72
     5
 11
-170.800964
 21
79.497437
 31
0.0
100
AcDbText
  0
ENDBLK
  5
690
330
158
100
AcDbEntity
  8
0
100
AcDbBlockEnd
  0
BLOCK
  5
691
330
15C
100
AcDbEntity
  8
0
100
AcDbBlockBegin
  2
BLOCK24
 70
     0
 10
0.0
 20
0.0
 30
0.0
  3
BLOCK24
  1

  0
TEXT
  5
15A
330
15C
100
AcDbEntity
  8
100
 62
     7
370
    70
390
F
100
AcDbText
 10
-172.267624
 20
83.497437
 30
0.0
 40
2.0
  1
+
 41
1.099995000000014
 72
     5
 11
-170.800964
 21
83.497437
 31
0.0
100
AcDbText
  0
ENDBLK
  5
692
330
15C
100
AcDbEntity
  8
0
100
AcDbBlockEnd
  0
BLOCK
  5
693
330
160
100
AcDbEntity
  8
0
100
AcDbBlockBegin
  2
BLOCK25
 70
     0
 10
0.0
 20
0.0
 30
0.0
  3
BLOCK25
  1

  0
TEXT
  5
15E
330
160
100
AcDbEntity
  8
100
 62
     7
370
    70
390
F
100
AcDbText
 10
-172.267624
 20
87.497437
 30
0.0
 40
2.0
  1
+
 41
1.099995000000014
 72
     5
 11
-170.800964
 21
87.497437
 31
0.0
100
AcDbText
  0
ENDBLK
  5
694
330
160
100
AcDbEntity
  8
0
100
AcDbBlockEnd
  0
BLOCK
  5
695
330
164
100
AcDbEntity
  8
0
100
AcDbBlockBegin
  2
BLOCK26
 70
     0
 10
0.0
 20
0.0
 30
0.0
  3
BLOCK26
  1

  0
TEXT
  5
162
330
164
100
AcDbEntity
  8
100
 62
     7
370
    70
390
F
100
AcDbText
 10
-172.267624
 20
91.497437
 30
0.0
 40
2.0
  1
+
 41
1.099995000000014
 72
     5
 11
-170.800964
 21
91.497437
 31
0.0
100
AcDbText
  0
ENDBLK
  5
696
330
164
100
AcDbEntity
  8
0
100
AcDbBlockEnd
  0
BLOCK
  5
697
330
168
100
AcDbEntity
  8
0
100
AcDbBlockBegin
  2
BLOCK27
 70
     0
 10
0.0
 20
0.0
 30
0.0
  3
BLOCK27
  1

  0
TEXT
  5
166
330
168
100
AcDbEntity
  8
100
 62
     7
370
    70
390
F
100
AcDbText
 10
-172.267624
 20
95.497437
 30
0.0
 40
2.0
  1
+
 41
1.099995000000014
 72
     5
 11
-170.800964
 21
95.497437
 31
0.0
100
AcDbText
  0
ENDBLK
  5
698
330
168
100
AcDbEntity
  8
0
100
AcDbBlockEnd
  0
BLOCK
  5
699
330
16C
100
AcDbEntity
  8
0
100
AcDbBlockBegin
  2
BLOCK28
 70
     0
 10
0.0
 20
0.0
 30
0.0
  3
BLOCK28
  1

  0
TEXT
  5
16A
330
16C
100
AcDbEntity
  8
0
 62
     7
370
    70
390
F
100
AcDbText
 10
-183.327637
 20
58.912903
 30
0.0
 40
2.0
  1
:
 41
4.88886666666673
 72
     5
 11
-181.860977
 21
58.912903
 31
0.0
100
AcDbText
  0
ENDBLK
  5
69A
330
16C
100
AcDbEntity
  8
0
100
AcDbBlockEnd
  0
BLOCK
  5
69B
330
170
100
AcDbEntity
  8
0
100
AcDbBlockBegin
  2
BLOCK29
 70
     0
 10
0.0
 20
0.0
 30
0.0
  3
BLOCK29
  1

  0
TEXT
  5
16E
330
170
100
AcDbEntity
  8
0
 62
     7
370
    70
390
F
100
AcDbText
 10
-183.327637
 20
62.912903
 30
0.0
 40
2.0
  1
:
 41
4.88886666666673
 72
     5
 11
-181.860977
 21
62.912903
 31
0.0
100
AcDbText
  0
ENDBLK
  5
69C
330
170
100
AcDbEntity
  8
0
100
AcDbBlockEnd
  0
BLOCK
  5
69D
330
174
100
AcDbEntity
  8
0
100
AcDbBlockBegin
  2
BLOCK30
 70
     0
 10
0.0
 20
0.0
 30
0.0
  3
BLOCK30
  1

  0
TEXT
  5
172
330
174
100
AcDbEntity
  8
0
 62
     7
370
    70
390
F
100
AcDbText
 10
-183.327637
 20
66.912903
 30
0.0
 40
2.0
  1
:
 41
4.88886666666673
 72
     5
 11
-181.860977
 21
66.912903
 31
0.0
100
AcDbText
  0
ENDBLK
  5
69E
330
174
100
AcDbEntity
  8
0
100
AcDbBlockEnd
  0
BLOCK
  5
69F
330
178
100
AcDbEntity
  8
0
100
AcDbBlockBegin
  2
BLOCK31
 70
     0
 10
0.0
 20
0.0
 30
0.0
  3
BLOCK31
  1

  0
TEXT
  5
176
330
178
100
AcDbEntity
  8
0
 62
     7
370
    70
390
F
100
AcDbText
 10
-183.327637
 20
70.912903
 30
0.0
 40
2.0
  1
:
 41
4.88886666666673
 72
     5
 11
-181.860977
 21
70.912903
 31
0.0
100
AcDbText
  0
ENDBLK
  5
6A0
330
178
100
AcDbEntity
  8
0
100
AcDbBlockEnd
  0
BLOCK
  5
6A1
330
17C
100
AcDbEntity
  8
0
100
AcDbBlockBegin
  2
BLOCK32
 70
     0
 10
0.0
 20
0.0
 30
0.0
  3
BLOCK32
  1

  0
TEXT
  5
17A
330
17C
100
AcDbEntity
  8
0
 62
     7
370
    70
390
F
100
AcDbText
 10
-183.327637
 20
74.912903
 30
0.0
 40
2.0
  1
:
 41
4.88886666666673
 72
     5
 11
-181.860977
 21
74.912903
 31
0.0
100
AcDbText
  0
ENDBLK
  5
6A2
330
17C
100
AcDbEntity
  8
0
100
AcDbBlockEnd
  0
BLOCK
  5
6A3
330
180
100
AcDbEntity
  8
0
100
AcDbBlockBegin
  2
BLOCK33
 70
     0
 10
0.0
 20
0.0
 30
0.0
  3
BLOCK33
  1

  0
TEXT
  5
17E
330
180
100
AcDbEntity
  8
0
 62
     7
370
    70
390
F
100
AcDbText
 10
-183.327637
 20
78.912903
 30
0.0
 40
2.0
  1
:
 41
4.88886666666673
 72
     5
 11
-181.860977
 21
78.912903
 31
0.0
100
AcDbText
  0
ENDBLK
  5
6A4
330
180
100
AcDbEntity
  8
0
100
AcDbBlockEnd
  0
BLOCK
  5
6A5
330
184
100
AcDbEntity
  8
0
100
AcDbBlockBegin
  2
BLOCK34
 70
     0
 10
0.0
 20
0.0
 30
0.0
  3
BLOCK34
  1

  0
TEXT
  5
182
330
184
100
AcDbEntity
  8
0
 62
     7
370
    70
390
F
100
AcDbText
 10
-183.327637
 20
82.912903
 30
0.0
 40
2.0
  1
:
 41
4.88886666666673
 72
     5
 11
-181.860977
 21
82.912903
 31
0.0
100
AcDbText
  0
ENDBLK
  5
6A6
330
184
100
AcDbEntity
  8
0
100
AcDbBlockEnd
  0
BLOCK
  5
6A7
330
188
100
AcDbEntity
  8
0
100
AcDbBlockBegin
  2
BLOCK35
 70
     0
 10
0.0
 20
0.0
 30
0.0
  3
BLOCK35
  1

  0
TEXT
  5
186
330
188
100
AcDbEntity
  8
0
 62
     7
370
    70
390
F
100
AcDbText
 10
-183.327637
 20
86.912903
 30
0.0
 40
2.0
  1
:
 41
4.88886666666673
 72
     5
 11
-181.860977
 21
86.912903
 31
0.0
100
AcDbText
  0
ENDBLK
  5
6A8
330
188
100
AcDbEntity
  8
0
100
AcDbBlockEnd
  0
BLOCK
  5
6A9
330
18C
100
AcDbEntity
  8
0
100
AcDbBlockBegin
  2
BLOCK36
 70
     0
 10
0.0
 20
0.0
 30
0.0
  3
BLOCK36
  1

  0
TEXT
  5
18A
330
18C
100
AcDbEntity
  8
0
 62
     7
370
    70
390
F
100
AcDbText
 10
-183.327637
 20
90.912903
 30
0.0
 40
2.0
  1
:
 41
4.88886666666673
 72
     5
 11
-181.860977
 21
90.912903
 31
0.0
100
AcDbText
  0
ENDBLK
  5
6AA
330
18C
100
AcDbEntity
  8
0
100
AcDbBlockEnd
  0
BLOCK
  5
6AB
330
190
100
AcDbEntity
  8
0
100
AcDbBlockBegin
  2
BLOCK37
 70
     0
 10
0.0
 20
0.0
 30
0.0
  3
BLOCK37
  1

  0
TEXT
  5
18E
330
190
100
AcDbEntity
  8
0
 62
     7
370
    70
390
F
100
AcDbText
 10
-183.327637
 20
94.912903
 30
0.0
 40
2.0
  1
:
 41
4.88886666666673
 72
     5
 11
-181.860977
 21
94.912903
 31
0.0
100
AcDbText
  0
ENDBLK
  5
6AC
330
190
100
AcDbEntity
  8
0
100
AcDbBlockEnd
  0
BLOCK
  5
6AD
330
194
100
AcDbEntity
  8
0
100
AcDbBlockBegin
  2
BLOCK38
 70
     0
 10
0.0
 20
0.0
 30
0.0
  3
BLOCK38
  1

  0
TEXT
  5
192
330
194
100
AcDbEntity
  8
0
 62
     7
370
    70
390
F
100
AcDbText
 10
-183.327637
 20
98.912903
 30
0.0
 40
2.0
  1
:
 41
4.88886666666673
 72
     5
 11
-181.860977
 21
98.912903
 31
0.0
100
AcDbText
  0
ENDBLK
  5
6AE
330
194
100
AcDbEntity
  8
0
100
AcDbBlockEnd
  0
BLOCK
  5
6AF
330
198
100
AcDbEntity
  8
0
100
AcDbBlockBegin
  2
BLOCK39
 70
     0
 10
0.0
 20
0.0
 30
0.0
  3
BLOCK39
  1

  0
TEXT
  5
196
330
198
100
AcDbEntity
  8
0
 62
     7
370
    70
390
F
100
AcDbText
 10
-186.495407
 20
94.87088
 30
0.0
 40
2.0
  1
10-18
 41
1.043305043478261
 72
     5
 11
-178.496735
 21
94.87088
 31
0.0
100
AcDbText
  0
ENDBLK
  5
6B0
330
198
100
AcDbEntity
  8
0
100
AcDbBlockEnd
  0
BLOCK
  5
6B1
330
19C
100
AcDbEntity
  8
0
100
AcDbBlockBegin
  2
BLOCK40
 70
     0
 10
0.0
 20
0.0
 30
0.0
  3
BLOCK40
  1

  0
TEXT
  5
19A
330
19C
100
AcDbEntity
  8
0
 62
     7
370
    70
390
F
100
AcDbText
 10
-184.945496
 20
98.87088
 30
0.0
 40
2.0
  1
0-10
 41
1.0498225
 72
     5
 11
-178.646561
 21
98.87088
 31
0.0
100
AcDbText
  0
ENDBLK
  5
6B2
330
19C
100
AcDbEntity
  8
0
100
AcDbBlockEnd
  0
BLOCK
  5
6B3
330
1A0
100
AcDbEntity
  8
0
100
AcDbBlockBegin
  2
BLOCK41
 70
     0
 10
0.0
 20
0.0
 30
0.0
  3
BLOCK41
  1

  0
TEXT
  5
19E
330
1A0
100
AcDbEntity
  8
100
 62
     7
370
    70
390
F
100
AcDbText
 10
-172.267624
 20
98.485474
 30
0.0
 40
2.0
  1
-
 41
1.099995000000014
 72
     5
 11
-170.800964
 21
98.485474
 31
0.0
100
AcDbText
  0
ENDBLK
  5
6B4
330
1A0
100
AcDbEntity
  8
0
100
AcDbBlockEnd
  0
BLOCK
  5
6B5
330
1A4
100
AcDbEntity
  8
0
100
AcDbBlockBegin
  2
BLOCK42
 70
     0
 10
0.0
 20
0.0
 30
0.0
  3
BLOCK42
  1

  0
TEXT
  5
1A2
330
1A4
100
AcDbEntity
  8
100
 62
     7
370
    70
390
F
100
AcDbText
 10
-172.267624
 20
99.497437
 30
0.0
 40
2.0
  1
+
 41
1.099995000000014
 72
     5
 11
-170.800964
 21
99.497437
 31
0.0
100
AcDbText
  0
ENDBLK
  5
6B6
330
1A4
100
AcDbEntity
  8
0
100
AcDbBlockEnd
  0
BLOCK
  5
6B7
330
1A8
100
AcDbEntity
  8
0
100
AcDbBlockBegin
  2
BLOCK43
 70
     0
 10
0.0
 20
0.0
 30
0.0
  3
BLOCK43
  1

  0
TEXT
  5
1A6
330
1A8
100
AcDbEntity
  8
100
 62
     7
370
    70
390
F
100
AcDbText
 10
-169.476929
 20
98.949829
 30
0.0
 40
2.0
  1
0.025
 41
1.09072813636364
 72
     5
 11
-161.478256
 21
98.949829
 31
0.0
100
AcDbText
  0
ENDBLK
  5
6B8
330
1A8
100
AcDbEntity
  8
0
100
AcDbBlockEnd
  0
BLOCK
  5
6B9
330
1AC
100
AcDbEntity
  8
0
100
AcDbBlockBegin
  2
BLOCK44
 70
     0
 10
0.0
 20
0.0
 30
0.0
  3
BLOCK44
  1

  0
TEXT
  5
1AA
330
1AC
100
AcDbEntity
  8
100
 62
     7
370
    70
390
F
100
AcDbText
 10
-169.510254
 20
94.949829
 30
0.0
 40
2.0
  1
0.03
 41
1.324999875
 72
     5
 11
-162.443588
 21
94.949829
 31
0.0
100
AcDbText
  0
ENDBLK
  5
6BA
330
1AC
100
AcDbEntity
  8
0
100
AcDbBlockEnd
  0
BLOCK
  5
6BB
330
1B0
100
AcDbEntity
  8
0
100
AcDbBlockBegin
  2
BLOCK45
 70
     0
 10
0.0
 20
0.0
 30
0.0
  3
BLOCK45
  1

  0
TEXT
  5
1AE
330
1B0
100
AcDbEntity
  8
100
 62
     7
370
    70
390
F
100
AcDbText
 10
-169.510254
 20
90.949829
 30
0.0
 40
2.0
  1
0.05
 41
1.324999875
 72
     5
 11
-162.443588
 21
90.949829
 31
0.0
100
AcDbText
  0
ENDBLK
  5
6BC
330
1B0
100
AcDbEntity
  8
0
100
AcDbBlockEnd
  0
BLOCK
  5
6BD
330
1B4
100
AcDbEntity
  8
0
100
AcDbBlockBegin
  2
BLOCK46
 70
     0
 10
0.0
 20
0.0
 30
0.0
  3
BLOCK46
  1

  0
TEXT
  5
1B2
330
1B4
100
AcDbEntity
  8
100
 62
     7
370
    70
390
F
100
AcDbText
 10
-169.510254
 20
86.949829
 30
0.0
 40
2.0
  1
0.1
 41
1.733332333333332
 72
     5
 11
-164.310257
 21
86.949829
 31
0.0
100
AcDbText
  0
ENDBLK
  5
6BE
330
1B4
100
AcDbEntity
  8
0
100
AcDbBlockEnd
  0
BLOCK
  5
6BF
330
1B8
100
AcDbEntity
  8
0
100
AcDbBlockBegin
  2
BLOCK47
 70
     0
 10
0.0
 20
0.0
 30
0.0
  3
BLOCK47
  1

  0
TEXT
  5
1B6
330
1B8
100
AcDbEntity
  8
100
 62
     7
370
    70
390
F
100
AcDbText
 10
-169.510254
 20
82.949829
 30
0.0
 40
2.0
  1
0.1
 41
1.733332333333332
 72
     5
 11
-164.310257
 21
82.949829
 31
0.0
100
AcDbText
  0
ENDBLK
  5
6C0
330
1B8
100
AcDbEntity
  8
0
100
AcDbBlockEnd
  0
BLOCK
  5
6C1
330
1BC
100
AcDbEntity
  8
0
100
AcDbBlockBegin
  2
BLOCK48
 70
     0
 10
0.0
 20
0.0
 30
0.0
  3
BLOCK48
  1

  0
TEXT
  5
1BA
330
1BC
100
AcDbEntity
  8
100
 62
     7
370
    70
390
F
100
AcDbText
 10
-169.510254
 20
78.949829
 30
0.0
 40
2.0
  1
0.15
 41
1.4133332
 72
     5
 11
-162.443588
 21
78.949829
 31
0.0
100
AcDbText
  0
ENDBLK
  5
6C2
330
1BC
100
AcDbEntity
  8
0
100
AcDbBlockEnd
  0
BLOCK
  5
6C3
330
1C0
100
AcDbEntity
  8
0
100
AcDbBlockBegin
  2
BLOCK49
 70
     0
 10
0.0
 20
0.0
 30
0.0
  3
BLOCK49
  1

  0
TEXT
  5
1BE
330
1C0
100
AcDbEntity
  8
100
 62
     7
370
    70
390
F
100
AcDbText
 10
-169.510254
 20
74.949829
 30
0.0
 40
2.0
  1
0.25
 41
1.247058705882353
 72
     5
 11
-162.443588
 21
74.949829
 31
0.0
100
AcDbText
  0
ENDBLK
  5
6C4
330
1C0
100
AcDbEntity
  8
0
100
AcDbBlockEnd
  0
BLOCK
  5
6C5
330
1C4
100
AcDbEntity
  8
0
100
AcDbBlockBegin
  2
BLOCK50
 70
     0
 10
0.0
 20
0.0
 30
0.0
  3
BLOCK50
  1

  0
TEXT
  5
1C2
330
1C4
100
AcDbEntity
  8
100
 62
     7
370
    70
390
F
100
AcDbText
 10
-169.510254
 20
70.949829
 30
0.0
 40
2.0
  1
0.35
 41
1.247058705882353
 72
     5
 11
-162.443588
 21
70.949829
 31
0.0
100
AcDbText
  0
ENDBLK
  5
6C6
330
1C4
100
AcDbEntity
  8
0
100
AcDbBlockEnd
  0
BLOCK
  5
6C7
330
1C8
100
AcDbEntity
  8
0
100
AcDbBlockBegin
  2
BLOCK51
 70
     0
 10
0.0
 20
0.0
 30
0.0
  3
BLOCK51
  1

  0
TEXT
  5
1C6
330
1C8
100
AcDbEntity
  8
100
 62
     7
370
    70
390
F
100
AcDbText
 10
-169.510254
 20
66.949829
 30
0.0
 40
2.0
  1
0.5
 41
1.418180999999999
 72
     5
 11
-164.310257
 21
66.949829
 31
0.0
100
AcDbText
  0
ENDBLK
  5
6C8
330
1C8
100
AcDbEntity
  8
0
100
AcDbBlockEnd
  0
BLOCK
  5
6C9
330
1CC
100
AcDbEntity
  8
0
100
AcDbBlockBegin
  2
BLOCK52
 70
     0
 10
0.0
 20
0.0
 30
0.0
  3
BLOCK52
  1

  0
TEXT
  5
1CA
330
1CC
100
AcDbEntity
  8
100
 62
     7
370
    70
390
F
100
AcDbText
 10
-169.510254
 20
62.949829
 30
0.0
 40
2.0
  1
0.5
 41
1.418180999999999
 72
     5
 11
-164.310257
 21
62.949829
 31
0.0
100
AcDbText
  0
ENDBLK
  5
6CA
330
1CC
100
AcDbEntity
  8
0
100
AcDbBlockEnd
  0
BLOCK
  5
6CB
330
1D0
100
AcDbEntity
  8
0
100
AcDbBlockBegin
  2
BLOCK53
 70
     0
 10
0.0
 20
0.0
 30
0.0
  3
BLOCK53
  1

  0
TEXT
  5
1CE
330
1D0
100
AcDbEntity
  8
100
 62
     7
370
    70
390
F
100
AcDbText
 10
-169.510254
 20
58.949829
 30
0.0
 40
2.0
  1
0.75
 41
1.247058705882353
 72
     5
 11
-162.443588
 21
58.949829
 31
0.0
100
AcDbText
  0
ENDBLK
  5
6CC
330
1D0
100
AcDbEntity
  8
0
100
AcDbBlockEnd
  0
BLOCK
  5
6CD
330
1D4
100
AcDbEntity
  8
0
100
AcDbBlockBegin
  2
BLOCK54
 70
     0
 10
0.0
 20
0.0
 30
0.0
  3
BLOCK54
  1

  0
TEXT
  5
1D2
330
1D4
100
AcDbEntity
  8
100
 62
     7
370
    70
390
F
100
AcDbText
 10
-8.416659
 20
258.233337
 30
0.0
 40
2.0
  1
A
 41
1.099999499999999
 72
     5
 11
-6.949993
 21
258.233337
 31
0.0
100
AcDbText
  0
ENDBLK
  5
6CE
330
1D4
100
AcDbEntity
  8
0
100
AcDbBlockEnd
  0
BLOCK
  5
6CF
330
1D8
100
AcDbEntity
  8
0
100
AcDbBlockBegin
  2
BLOCK55
 70
     0
 10
0.0
 20
0.0
 30
0.0
  3
BLOCK55
  1

  0
TEXT
  5
1D6
330
1D8
100
AcDbEntity
  8
100
 62
     7
370
    70
390
F
100
AcDbText
 10
-168.416656
 20
288.5
 30
0.0
 40
2.0
  1
1
 41
2.199988499999989
 72
     5
 11
-166.949997
 21
288.5
 31
0.0
100
AcDbText
  0
ENDBLK
  5
6D0
330
1D8
100
AcDbEntity
  8
0
100
AcDbBlockEnd
  0
BLOCK
  5
6D1
330
1DC
100
AcDbEntity
  8
0
100
AcDbBlockBegin
  2
BLOCK56
 70
     0
 10
0.0
 20
0.0
 30
0.0
  3
BLOCK56
  1

  0
TEXT
  5
1DA
330
1DC
100
AcDbEntity
  8
0
 62
     7
370
    70
390
F
100
AcDbText
 10
-186.495407
 20
90.87088
 30
0.0
 40
2.0
  1
18-30
 41
0.9598406399999998
 72
     5
 11
-178.496735
 21
90.87088
 31
0.0
100
AcDbText
  0
ENDBLK
  5
6D2
330
1DC
100
AcDbEntity
  8
0
100
AcDbBlockEnd
  0
BLOCK
  5
6D3
330
1E0
100
AcDbEntity
  8
0
100
AcDbBlockBegin
  2
BLOCK57
 70
     0
 10
0.0
 20
0.0
 30
0.0
  3
BLOCK57
  1

  0
TEXT
  5
1DE
330
1E0
100
AcDbEntity
  8
0
 62
     7
370
    70
390
F
100
AcDbText
 10
-186.495407
 20
86.87088
 30
0.0
 40
2.0
  1
30-50
 41
0.9229236923076922
 72
     5
 11
-178.496735
 21
86.87088
 31
0.0
100
AcDbText
  0
ENDBLK
  5
6D4
330
1E0
100
AcDbEntity
  8
0
100
AcDbBlockEnd
  0
BLOCK
  5
6D5
330
1E4
100
AcDbEntity
  8
0
100
AcDbBlockBegin
  2
BLOCK58
 70
     0
 10
0.0
 20
0.0
 30
0.0
  3
BLOCK58
  1

  0
TEXT
  5
1E2
330
1E4
100
AcDbEntity
  8
0
 62
     7
370
    70
390
F
100
AcDbText
 10
-186.495407
 20
82.87088
 30
0.0
 40
2.0
  1
50-80
 41
0.9229236923076922
 72
     5
 11
-178.496735
 21
82.87088
 31
0.0
100
AcDbText
  0
ENDBLK
  5
6D6
330
1E4
100
AcDbEntity
  8
0
100
AcDbBlockEnd
  0
BLOCK
  5
6D7
330
1E8
100
AcDbEntity
  8
0
100
AcDbBlockBegin
  2
BLOCK59
 70
     0
 10
0.0
 20
0.0
 30
0.0
  3
BLOCK59
  1

  0
TEXT
  5
1E6
330
1E8
100
AcDbEntity
  8
0
 62
     7
370
    70
390
F
100
AcDbText
 10
-186.645233
 20
78.87088
 30
0.0
 40
2.0
  1
80-120
 41
0.9698394999999976
 72
     5
 11
-176.946838
 21
78.87088
 31
0.0
100
AcDbText
  0
ENDBLK
  5
6D8
330
1E8
100
AcDbEntity
  8
0
100
AcDbBlockEnd
  0
BLOCK
  5
6D9
330
1EC
100
AcDbEntity
  8
0
100
AcDbBlockBegin
  2
BLOCK60
 70
     0
 10
0.0
 20
0.0
 30
0.0
  3
BLOCK60
  1

  0
TEXT
  5
1EA
330
1EC
100
AcDbEntity
  8
0
 62
     7
370
    70
390
F
100
AcDbText
 10
-188.195145
 20
74.87085
 30
0.0
 40
2.0
  1
120-180
 41
1.005717617647059
 72
     5
 11
-176.797012
 21
74.87085
 31
0.0
100
AcDbText
  0
ENDBLK
  5
6DA
330
1EC
100
AcDbEntity
  8
0
100
AcDbBlockEnd
  0
BLOCK
  5
6DB
330
1F0
100
AcDbEntity
  8
0
100
AcDbBlockBegin
  2
BLOCK61
 70
     0
 10
0.0
 20
0.0
 30
0.0
  3
BLOCK61
  1

  0
TEXT
  5
1EE
330
1F0
100
AcDbEntity
  8
0
 62
     7
370
    70
390
F
100
AcDbText
 10
-188.195145
 20
70.87085
 30
0.0
 40
2.0
  1
180-250
 41
0.9498444166666667
 72
     5
 11
-176.797012
 21
70.87085
 31
0.0
100
AcDbText
  0
ENDBLK
  5
6DC
330
1F0
100
AcDbEntity
  8
0
100
AcDbBlockEnd
  0
BLOCK
  5
6DD
330
1F4
100
AcDbEntity
  8
0
100
AcDbBlockBegin
  2
BLOCK62
 70
     0
 10
0.0
 20
0.0
 30
0.0
  3
BLOCK62
  1

  0
TEXT
  5
1F2
330
1F4
100
AcDbEntity
  8
0
 62
     7
370
    70
390
F
100
AcDbText
 10
-188.195145
 20
66.87085
 30
0.0
 40
2.0
  1
250-320
 41
0.899852605263158
 72
     5
 11
-176.797012
 21
66.87085
 31
0.0
100
AcDbText
  0
ENDBLK
  5
6DE
330
1F4
100
AcDbEntity
  8
0
100
AcDbBlockEnd
  0
BLOCK
  5
6DF
330
1F8
100
AcDbEntity
  8
0
100
AcDbBlockBegin
  2
BLOCK63
 70
     0
 10
0.0
 20
0.0
 30
0.0
  3
BLOCK63
  1

  0
TEXT
  5
1F6
330
1F8
100
AcDbEntity
  8
0
 62
     7
370
    70
390
F
100
AcDbText
 10
-188.195145
 20
62.87085
 30
0.0
 40
2.0
  1
320-400
 41
0.9241729459459461
 72
     5
 11
-176.797012
 21
62.87085
 31
0.0
100
AcDbText
  0
ENDBLK
  5
6E0
330
1F8
100
AcDbEntity
  8
0
100
AcDbBlockEnd
  0
BLOCK
  5
6E1
330
1FC
100
AcDbEntity
  8
0
100
AcDbBlockBegin
  2
BLOCK64
 70
     0
 10
0.0
 20
0.0
 30
0.0
  3
BLOCK64
  1

  0
TEXT
  5
1FA
330
1FC
100
AcDbEntity
  8
0
 62
     7
370
    70
390
F
100
AcDbText
 10
-188.195145
 20
58.87085
 30
0.0
 40
2.0
  1
400-500
 41
0.9498444166666667
 72
     5
 11
-176.797012
 21
58.87085
 31
0.0
100
AcDbText
  0
ENDBLK
  5
6E2
330
1FC
100
AcDbEntity
  8
0
100
AcDbBlockEnd
  0
BLOCK
  5
6E3
330
200
100
AcDbEntity
  8
0
100
AcDbBlockBegin
  2
BLOCK65
 70
     0
 10
0.0
 20
0.0
 30
0.0
  3
BLOCK65
  1

  0
TEXT
  5
1FE
330
200
100
AcDbEntity
  8
100
 62
     7
370
    13
390
F
100
AcDbText
 10
-39.805885
 20
30.75
 30
0.0
 40
1.5
  1
/Code
 41
0.7501427142857143
 72
     5
 11
-34.554886
 21
30.75
 31
0.0
100
AcDbText
  0
ENDBLK
  5
6E4
330
200
100
AcDbEntity
  8
0
100
AcDbBlockEnd
  0
BLOCK
  5
6E5
330
204
100
AcDbEntity
  8
0
100
AcDbBlockBegin
  2
BLOCK66
 70
     0
 10
0.0
 20
0.0
 30
0.0
  3
BLOCK66
  1

  0
TEXT
  5
202
330
204
100
AcDbEntity
  8
100
 62
     7
370
    13
390
F
100
AcDbText
 10
-159.0
 20
30.75
 30
0.0
 40
1.5
  1
DESCRIZIONE
 41
1.006667066666667
 72
     5
 11
-143.899994
 21
30.75
 31
0.0
100
AcDbText
  0
ENDBLK
  5
6E6
330
204
100
AcDbEntity
  8
0
100
AcDbBlockEnd
  0
BLOCK
  5
6E7
330
208
100
AcDbEntity
  8
0
100
AcDbBlockBegin
  2
BLOCK67
 70
     0
 10
0.0
 20
0.0
 30
0.0
  3
BLOCK67
  1

  0
TEXT
  5
206
330
208
100
AcDbEntity
  8
100
 62
     7
370
    13
390
F
100
AcDbText
 10
-142.805893
 20
30.75
 30
0.0
 40
1.5
  1
/Description
 41
0.8469287741935487
 72
     5
 11
-129.678497
 21
30.75
 31
0.0
100
AcDbText
  0
ENDBLK
  5
6E8
330
208
100
AcDbEntity
  8
0
100
AcDbBlockEnd
  0
BLOCK
  5
6E9
330
20C
100
AcDbEntity
  8
0
100
AcDbBlockBegin
  2
BLOCK68
 70
     0
 10
0.0
 20
0.0
 30
0.0
  3
BLOCK68
  1

  0
TEXT
  5
20A
330
20C
100
AcDbEntity
  8
0
 62
     7
370
    70
390
F
100
AcDbText
 10
-106.273468
 20
11.075141
 30
0.0
 40
2.8
  1
.
 41
3.334226190476183
 72
     5
 11
-104.873093
 21
11.075141
 31
0.0
100
AcDbText
  0
ENDBLK
  5
6EA
330
20C
100
AcDbEntity
  8
0
100
AcDbBlockEnd
  0
BLOCK
  5
6EB
330
210
100
AcDbEntity
  8
0
100
AcDbBlockBegin
  2
BLOCK69
 70
     0
 10
0.0
 20
0.0
 30
0.0
  3
BLOCK69
  1

  0
TEXT
  5
20E
330
210
100
AcDbEntity
  8
100
 62
     7
370
    13
390
F
100
AcDbText
 10
-189.0
 20
55.75
 30
0.0
 40
1.5
  1
SCALA
 41
0.9571424285714281
 72
     5
 11
-182.300003
 21
55.75
 31
0.0
100
AcDbText
  0
ENDBLK
  5
6EC
330
210
100
AcDbEntity
  8
0
100
AcDbBlockEnd
  0
BLOCK
  5
6ED
330
214
100
AcDbEntity
  8
0
100
AcDbBlockBegin
  2
BLOCK70
 70
     0
 10
0.0
 20
0.0
 30
0.0
  3
BLOCK70
  1

  0
TEXT
  5
212
330
214
100
AcDbEntity
  8
100
 62
     7
370
    13
390
F
100
AcDbText
 10
-181.605896
 20
55.75
 30
0.0
 40
1.5
  1
/Scale
 41
0.8227361290322579
 72
     5
 11
-175.229691
 21
55.75
 31
0.0
100
AcDbText
  0
ENDBLK
  5
6EE
330
214
100
AcDbEntity
  8
0
100
AcDbBlockEnd
  0
BLOCK
  5
6EF
330
218
100
AcDbEntity
  8
0
100
AcDbBlockBegin
  2
BLOCK71
 70
     0
 10
0.0
 20
0.0
 30
0.0
  3
BLOCK71
  1

  0
TEXT
  5
216
330
218
100
AcDbEntity
  8
0
 62
     7
370
    70
390
F
100
AcDbText
 10
-187.938095
 20
49.290386
 30
0.0
 40
4.0
  1
3:1
 41
1.559999099999999
 72
     5
 11
-177.538101
 21
49.290386
 31
0.0
100
AcDbText
  0
ENDBLK
  5
6F0
330
218
100
AcDbEntity
  8
0
100
AcDbBlockEnd
  0
BLOCK
  5
6F1
330
21C
100
AcDbEntity
  8
0
100
AcDbBlockBegin
  2
BLOCK72
 70
     0
 10
0.0
 20
0.0
 30
0.0
  3
BLOCK72
  1

  0
TEXT
  5
21A
330
21C
100
AcDbEntity
  8
100
 62
     7
370
    13
390
F
100
AcDbText
 10
-159.0
 20
43.25
 30
0.0
 40
1.5
  1
MATERIALE
 41
0.9840002400000003
 72
     5
 11
-146.699997
 21
43.25
 31
0.0
100
AcDbText
  0
ENDBLK
  5
6F2
330
21C
100
AcDbEntity
  8
0
100
AcDbBlockEnd
  0
BLOCK
  5
6F3
330
220
100
AcDbEntity
  8
0
100
AcDbBlockBegin
  2
BLOCK73
 70
     0
 10
0.0
 20
0.0
 30
0.0
  3
BLOCK73
  1

  0
TEXT
  5
21E
330
220
100
AcDbEntity
  8
100
 62
     7
370
    13
390
F
100
AcDbText
 10
-145.805893
 20
43.25
 30
0.0
 40
1.5
  1
/Material
 41
0.8668267555555557
 72
     5
 11
-136.054092
 21
43.25
 31
0.0
100
AcDbText
  0
ENDBLK
  5
6F4
330
220
100
AcDbEntity
  8
0
100
AcDbBlockEnd
  0
BLOCK
  5
6F5
330
224
100
AcDbEntity
  8
0
100
AcDbBlockBegin
  2
BLOCK74
 70
     0
 10
0.0
 20
0.0
 30
0.0
  3
BLOCK74
  1

  0
TEXT
  5
222
330
224
100
AcDbEntity
  8
0
 62
     7
370
    70
390
F
100
AcDbText
 10
-120.00354
 20
38.485401
 30
0.0
 40
2.5
  1
PVC  col.nero
 41
1.008451030985915
 72
     5
 11
-90.170197
 21
38.485401
 31
0.0
100
AcDbText
  0
ENDBLK
  5
6F6
330
224
100
AcDbEntity
  8
0
100
AcDbBlockEnd
  0
BLOCK
  5
6F7
330
228
100
AcDbEntity
  8
0
100
AcDbBlockBegin
  2
BLOCK75
 70
     0
 10
0.0
 20
0.0
 30
0.0
  3
BLOCK75
  1

  0
TEXT
  5
226
330
228
100
AcDbEntity
  8
100
 62
     7
370
    13
390
F
100
AcDbText
 10
-159.0
 20
55.75
 30
0.0
 40
1.5
  1
FINITURA
 41
1.038094666666666
 72
     5
 11
-148.100006
 21
55.75
 31
0.0
100
AcDbText
  0
ENDBLK
  5
6F8
330
228
100
AcDbEntity
  8
0
100
AcDbBlockEnd
  0
BLOCK
  5
6F9
330
22C
100
AcDbEntity
  8
0
100
AcDbBlockBegin
  2
BLOCK76
 70
     0
 10
0.0
 20
0.0
 30
0.0
  3
BLOCK76
  1

  0
TEXT
  5
22A
330
22C
100
AcDbEntity
  8
100
 62
     7
370
    13
390
F
100
AcDbText
 10
-147.205887
 20
55.75
 30
0.0
 40
1.5
  1
/Finishing
 41
0.9458259999999986
 72
     5
 11
-136.328888
 21
55.75
 31
0.0
100
AcDbText
  0
ENDBLK
  5
6FA
330
22C
100
AcDbEntity
  8
0
100
AcDbBlockEnd
  0
BLOCK
  5
6FB
330
230
100
AcDbEntity
  8
0
100
AcDbBlockBegin
  2
BLOCK77
 70
     0
 10
0.0
 20
0.0
 30
0.0
  3
BLOCK77
  1

  0
TEXT
  5
22E
330
230
100
AcDbEntity
  8
0
 62
     7
370
    70
390
F
100
AcDbText
 10
-46.644741
 20
17.81024
 30
0.0
 40
5.0
  1
56327752
 41
0.8868135130434783
 72
     5
 11
-12.650223
 21
17.81024
 31
0.0
100
AcDbText
  0
ENDBLK
  5
6FC
330
230
100
AcDbEntity
  8
0
100
AcDbBlockEnd
  0
BLOCK
  5
6FD
330
234
100
AcDbEntity
  8
0
100
AcDbBlockBegin
  2
BLOCK78
 70
     0
 10
0.0
 20
0.0
 30
0.0
  3
BLOCK78
  1

  0
TEXT
  5
232
330
234
100
AcDbEntity
  8
100
 62
     7
370
    13
390
F
100
AcDbText
 10
-49.0
 20
30.75
 30
0.0
 40
1.5
  1
CODICE
 41
1.01249975
 72
     5
 11
-40.900002
 21
30.75
 31
0.0
100
AcDbText
  0
ENDBLK
  5
6FE
330
234
100
AcDbEntity
  8
0
100
AcDbBlockEnd
  0
BLOCK
  5
6FF
330
238
100
AcDbEntity
  8
0
100
AcDbBlockBegin
  2
BLOCK79
 70
     0
 10
0.0
 20
0.0
 30
0.0
  3
BLOCK79
  1

  0
TEXT
  5
236
330
238
100
AcDbEntity
  8
100
 62
     7
370
    13
390
F
100
AcDbText
 10
-49.0
 20
39.416668
 30
0.0
 40
1.5
  1
VISTO
 41
0.9571430000000001
 72
     5
 11
-42.299999
 21
39.416668
 31
0.0
100
AcDbText
  0
ENDBLK
  5
700
330
238
100
AcDbEntity
  8
0
100
AcDbBlockEnd
  0
BLOCK
  5
701
330
23C
100
AcDbEntity
  8
0
100
AcDbBlockBegin
  2
BLOCK80
 70
     0
 10
0.0
 20
0.0
 30
0.0
  3
BLOCK80
  1

  0
TEXT
  5
23A
330
23C
100
AcDbEntity
  8
100
 62
     7
370
    13
390
F
100
AcDbText
 10
-41.20575
 20
39.416668
 30
0.0
 40
1.5
  1
/Checked
 41
0.7501393913043481
 72
     5
 11
-32.579147
 21
39.416668
 31
0.0
100
AcDbText
  0
ENDBLK
  5
702
330
23C
100
AcDbEntity
  8
0
100
AcDbBlockEnd
  0
BLOCK
  5
703
330
240
100
AcDbEntity
  8
0
100
AcDbBlockBegin
  2
BLOCK81
 70
     0
 10
0.0
 20
0.0
 30
0.0
  3
BLOCK81
  1

  0
TEXT
  5
23E
330
240
100
AcDbEntity
  8
100
 62
     7
370
    13
390
F
100
AcDbText
 10
-49.0
 20
112.550003
 30
0.0
 40
1.5
  1
DATA
 41
0.9636361818181818
 72
     5
 11
-43.700001
 21
112.550003
 31
0.0
100
AcDbText
  0
ENDBLK
  5
704
330
240
100
AcDbEntity
  8
0
100
AcDbBlockEnd
  0
BLOCK
  5
705
330
244
100
AcDbEntity
  8
0
100
AcDbBlockBegin
  2
BLOCK82
 70
     0
 10
0.0
 20
0.0
 30
0.0
  3
BLOCK82
  1

  0
TEXT
  5
242
330
244
100
AcDbEntity
  8
100
 62
     7
370
    13
390
F
100
AcDbText
 10
-48.855663
 20
109.571449
 30
0.0
 40
1.5
  1
Date
 41
0.7501456363636368
 72
     5
 11
-44.729862
 21
109.571449
 31
0.0
100
AcDbText
  0
ENDBLK
  5
706
330
244
100
AcDbEntity
  8
0
100
AcDbBlockEnd
  0
BLOCK
  5
707
330
248
100
AcDbEntity
  8
0
100
AcDbBlockBegin
  2
BLOCK83
 70
     0
 10
0.0
 20
0.0
 30
0.0
  3
BLOCK83
  1

  0
TEXT
  5
246
330
248
100
AcDbEntity
  8
100
 62
     7
370
    13
390
F
100
AcDbText
 10
-29.0
 20
112.550003
 30
0.0
 40
1.5
  1
DISEGNATO
 41
0.9839999199999999
 72
     5
 11
-16.700001
 21
112.550003
 31
0.0
100
AcDbText
  0
ENDBLK
  5
708
330
248
100
AcDbEntity
  8
0
100
AcDbBlockEnd
  0
BLOCK
  5
709
330
24C
100
AcDbEntity
  8
0
100
AcDbBlockBegin
  2
BLOCK84
 70
     0
 10
0.0
 20
0.0
 30
0.0
  3
BLOCK84
  1

  0
TEXT
  5
24A
330
24C
100
AcDbEntity
  8
100
 62
     7
370
    13
390
F
100
AcDbText
 10
-28.855663
 20
109.571449
 30
0.0
 40
1.5
  1
Drawn
 41
0.7501427142857143
 72
     5
 11
-23.604664
 21
109.571449
 31
0.0
100
AcDbText
  0
ENDBLK
  5
70A
330
24C
100
AcDbEntity
  8
0
100
AcDbBlockEnd
  0
BLOCK
  5
70B
330
250
100
AcDbEntity
  8
0
100
AcDbBlockBegin
  2
BLOCK85
 70
     0
 10
0.0
 20
0.0
 30
0.0
  3
BLOCK85
  1

  0
TEXT
  5
24E
330
250
100
AcDbEntity
  8
100
 62
     7
370
    13
390
F
100
AcDbText
 10
-126.0
 20
112.550003
 30
0.0
 40
1.5
  1
DESCRIZIONE
 41
1.006666533333333
 72
     5
 11
-110.900002
 21
112.550003
 31
0.0
100
AcDbText
  0
ENDBLK
  5
70C
330
250
100
AcDbEntity
  8
0
100
AcDbBlockEnd
  0
BLOCK
  5
70D
330
254
100
AcDbEntity
  8
0
100
AcDbBlockBegin
  2
BLOCK86
 70
     0
 10
0.0
 20
0.0
 30
0.0
  3
BLOCK86
  1

  0
TEXT
  5
252
330
254
100
AcDbEntity
  8
100
 62
     7
370
    13
390
F
100
AcDbText
 10
-126.055664
 20
109.571449
 30
0.0
 40
1.5
  1
Description
 41
0.8573003571428564
 72
     5
 11
-114.053459
 21
109.571449
 31
0.0
100
AcDbText
  0
ENDBLK
  5
70E
330
254
100
AcDbEntity
  8
0
100
AcDbBlockEnd
  0
BLOCK
  5
70F
330
258
100
AcDbEntity
  8
0
100
AcDbBlockBegin
  2
BLOCK87
 70
     0
 10
0.0
 20
0.0
 30
0.0
  3
BLOCK87
  1

  0
TEXT
  5
256
330
258
100
AcDbEntity
  8
100
 62
     7
370
    13
390
F
100
AcDbText
 10
-141.0
 20
112.550003
 30
0.0
 40
1.5
  1
RIF.TO
 41
1.157143714285715
 72
     5
 11
-132.899994
 21
112.550003
 31
0.0
100
AcDbText
  0
ENDBLK
  5
710
330
258
100
AcDbEntity
  8
0
100
AcDbBlockEnd
  0
BLOCK
  5
711
330
25C
100
AcDbEntity
  8
0
100
AcDbBlockBegin
  2
BLOCK88
 70
     0
 10
0.0
 20
0.0
 30
0.0
  3
BLOCK88
  1

  0
TEXT
  5
25A
330
25C
100
AcDbEntity
  8
100
 62
     7
370
    13
390
F
100
AcDbText
 10
-140.855667
 20
109.571449
 30
0.0
 40
1.5
  1
Ref.ce
 41
0.8501606666666665
 72
     5
 11
-134.479462
 21
109.571449
 31
0.0
100
AcDbText
  0
ENDBLK
  5
712
330
25C
100
AcDbEntity
  8
0
100
AcDbBlockEnd
  0
BLOCK
  5
713
330
260
100
AcDbEntity
  8
0
100
AcDbBlockBegin
  2
BLOCK89
 70
     0
 10
0.0
 20
0.0
 30
0.0
  3
BLOCK89
  1

  0
TEXT
  5
25E
330
260
100
AcDbEntity
  8
100
 62
     7
370
    13
390
F
100
AcDbText
 10
-151.899994
 20
112.550003
 30
0.0
 40
1.5
  1
IND.
 41
1.325000750000001
 72
     5
 11
-146.599991
 21
112.550003
 31
0.0
100
AcDbText
  0
ENDBLK
  5
714
330
260
100
AcDbEntity
  8
0
100
AcDbBlockEnd
  0
BLOCK
  5
715
330
264
100
AcDbEntity
  8
0
100
AcDbBlockBegin
  2
BLOCK90
 70
     0
 10
0.0
 20
0.0
 30
0.0
  3
BLOCK90
  1

  0
TEXT
  5
262
330
264
100
AcDbEntity
  8
100
 62
     7
370
    13
390
F
100
AcDbText
 10
-151.355667
 20
109.571449
 30
0.0
 40
1.5
  1
Ind.
 41
1.031448250000004
 72
     5
 11
-147.229874
 21
109.571449
 31
0.0
100
AcDbText
  0
ENDBLK
  5
716
330
264
100
AcDbEntity
  8
0
100
AcDbBlockEnd
  0
BLOCK
  5
717
330
268
100
AcDbEntity
  8
0
100
AcDbBlockBegin
  2
BLOCK91
 70
     0
 10
0.0
 20
0.0
 30
0.0
  3
BLOCK91
  1

  0
TEXT
  5
266
330
268
100
AcDbEntity
  8
100
 62
     7
370
    13
390
F
100
AcDbText
 10
-188.26506
 20
112.142639
 30
0.0
 40
1.5
  1
TOLL. GENERALI
 41
1.015789631578947
 72
     5
 11
-168.965057
 21
112.142639
 31
0.0
100
AcDbText
  0
ENDBLK
  5
718
330
268
100
AcDbEntity
  8
0
100
AcDbBlockEnd
  0
BLOCK
  5
719
330
26C
100
AcDbEntity
  8
0
100
AcDbBlockBegin
  2
BLOCK92
 70
     0
 10
0.0
 20
0.0
 30
0.0
  3
BLOCK92
  1

  0
TEXT
  5
26A
330
26C
100
AcDbEntity
  8
100
 62
     7
370
    13
390
F
100
AcDbText
 10
-188.120728
 20
109.164085
 30
0.0
 40
1.5
  1
General Toll.
 41
0.9049276190476193
 72
     5
 11
-173.868118
 21
109.164085
 31
0.0
100
AcDbText
  0
ENDBLK
  5
71A
330
26C
100
AcDbEntity
  8
0
100
AcDbBlockEnd
  0
BLOCK
  5
71B
330
270
100
AcDbEntity
  8
0
100
AcDbBlockBegin
  2
BLOCK93
 70
     0
 10
0.0
 20
0.0
 30
0.0
  3
BLOCK93
  1

  0
TEXT
  5
26E
330
270
100
AcDbEntity
  8
0
 62
     7
370
    70
390
F
100
AcDbText
 10
-155.315781
 20
66.616768
 30
0.0
 40
2.0
  1
MODIFICHE
 50
90.0
 41
1.0250000625
 72
     5
 11
-155.315781
 21
83.016769
 31
0.0
100
AcDbText
  0
ENDBLK
  5
71C
330
270
100
AcDbEntity
  8
0
100
AcDbBlockEnd
  0
BLOCK
  5
71D
330
274
100
AcDbEntity
  8
0
100
AcDbBlockBegin
  2
BLOCK94
 70
     0
 10
0.0
 20
0.0
 30
0.0
  3
BLOCK94
  1

  0
TEXT
  5
272
330
274
100
AcDbEntity
  8
0
 62
     7
370
    70
390
F
100
AcDbText
 10
-155.315781
 20
84.875587
 30
0.0
 40
2.0
  1
/Modifications
 50
90.0
 41
0.8787316714285719
 72
     5
 11
-155.315781
 21
105.379326
 31
0.0
100
AcDbText
  0
ENDBLK
  5
71E
330
274
100
AcDbEntity
  8
0
100
AcDbBlockEnd
  0
BLOCK
  5
71F
330
278
100
AcDbEntity
  8
0
100
AcDbBlockBegin
  2
BLOCK95
 70
     0
 10
0.0
 20
0.0
 30
0.0
  3
BLOCK95
  1

  0
TEXT
  5
276
330
278
100
AcDbEntity
  8
100
 62
     7
370
    13
390
F
100
AcDbText
 10
-49.0
 20
55.75
 30
0.0
 40
1.5
  1
DISEGNATO
 41
0.9839999199999999
 72
     5
 11
-36.700001
 21
55.75
 31
0.0
100
AcDbText
  0
ENDBLK
  5
720
330
278
100
AcDbEntity
  8
0
100
AcDbBlockEnd
  0
BLOCK
  5
721
330
27C
100
AcDbEntity
  8
0
100
AcDbBlockBegin
  2
BLOCK96
 70
     0
 10
0.0
 20
0.0
 30
0.0
  3
BLOCK96
  1

  0
TEXT
  5
27A
330
27C
100
AcDbEntity
  8
100
 62
     7
370
    13
390
F
100
AcDbText
 10
-36.20575
 20
55.75
 30
0.0
 40
1.5
  1
/Drawn
 41
0.7501414117647062
 72
     5
 11
-29.829548
 21
55.75
 31
0.0
100
AcDbText
  0
ENDBLK
  5
722
330
27C
100
AcDbEntity
  8
0
100
AcDbBlockEnd
  0
BLOCK
  5
723
330
280
100
AcDbEntity
  8
0
100
AcDbBlockBegin
  2
BLOCK97
 70
     0
 10
0.0
 20
0.0
 30
0.0
  3
BLOCK97
  1

  0
TEXT
  5
27E
330
280
100
AcDbEntity
  8
100
 62
     7
370
    70
390
F
100
AcDbText
 10
-8.416659
 20
202.833344
 30
0.0
 40
2.0
  1
B
 41
1.099999499999999
 72
     5
 11
-6.949993
 21
202.833344
 31
0.0
100
AcDbText
  0
ENDBLK
  5
724
330
280
100
AcDbEntity
  8
0
100
AcDbBlockEnd
  0
BLOCK
  5
725
330
284
100
AcDbEntity
  8
0
100
AcDbBlockBegin
  2
BLOCK98
 70
     0
 10
0.0
 20
0.0
 30
0.0
  3
BLOCK98
  1

  0
TEXT
  5
282
330
284
100
AcDbEntity
  8
100
 62
     7
370
    70
390
F
100
AcDbText
 10
-8.416659
 20
147.43335
 30
0.0
 40
2.0
  1
C
 41
1.099999499999999
 72
     5
 11
-6.949993
 21
147.43335
 31
0.0
100
AcDbText
  0
ENDBLK
  5
726
330
284
100
AcDbEntity
  8
0
100
AcDbBlockEnd
  0
BLOCK
  5
727
330
288
100
AcDbEntity
  8
0
100
AcDbBlockBegin
  2
BLOCK99
 70
     0
 10
0.0
 20
0.0
 30
0.0
  3
BLOCK99
  1

  0
TEXT
  5
286
330
288
100
AcDbEntity
  8
100
 62
     7
370
    70
390
F
100
AcDbText
 10
-8.416659
 20
92.03334
 30
0.0
 40
2.0
  1
D
 41
1.099999499999999
 72
     5
 11
-6.949993
 21
92.03334
 31
0.0
100
AcDbText
  0
ENDBLK
  5
728
330
288
100
AcDbEntity
  8
0
100
AcDbBlockEnd
  0
BLOCK
  5
729
330
28C
100
AcDbEntity
  8
0
100
AcDbBlockBegin
  2
BLOCK100
 70
     0
 10
0.0
 20
0.0
 30
0.0
  3
BLOCK100
  1

  0
TEXT
  5
28A
330
28C
100
AcDbEntity
  8
100
 62
     7
370
    70
390
F
100
AcDbText
 10
-8.416659
 20
36.633343
 30
0.0
 40
2.0
  1
E
 41
1.099999499999999
 72
     5
 11
-6.949993
 21
36.633343
 31
0.0
100
AcDbText
  0
ENDBLK
  5
72A
330
28C
100
AcDbEntity
  8
0
100
AcDbBlockEnd
  0
BLOCK
  5
72B
330
290
100
AcDbEntity
  8
0
100
AcDbBlockBegin
  2
BLOCK101
 70
     0
 10
0.0
 20
0.0
 30
0.0
  3
BLOCK101
  1

  0
TEXT
  5
28E
330
290
100
AcDbEntity
  8
100
 62
     7
370
    70
390
F
100
AcDbText
 10
-193.416656
 20
258.233337
 30
0.0
 40
2.0
  1
A
 41
1.099994249999995
 72
     5
 11
-191.949997
 21
258.233337
 31
0.0
100
AcDbText
  0
ENDBLK
  5
72C
330
290
100
AcDbEntity
  8
0
100
AcDbBlockEnd
  0
BLOCK
  5
72D
330
294
100
AcDbEntity
  8
0
100
AcDbBlockBegin
  2
BLOCK102
 70
     0
 10
0.0
 20
0.0
 30
0.0
  3
BLOCK102
  1

  0
TEXT
  5
292
330
294
100
AcDbEntity
  8
100
 62
     7
370
    70
390
F
100
AcDbText
 10
-193.416656
 20
202.833344
 30
0.0
 40
2.0
  1
B
 41
1.099994249999995
 72
     5
 11
-191.949997
 21
202.833344
 31
0.0
100
AcDbText
  0
ENDBLK
  5
72E
330
294
100
AcDbEntity
  8
0
100
AcDbBlockEnd
  0
BLOCK
  5
72F
330
298
100
AcDbEntity
  8
0
100
AcDbBlockBegin
  2
BLOCK103
 70
     0
 10
0.0
 20
0.0
 30
0.0
  3
BLOCK103
  1

  0
TEXT
  5
296
330
298
100
AcDbEntity
  8
100
 62
     7
370
    70
390
F
100
AcDbText
 10
-193.416656
 20
147.43335
 30
0.0
 40
2.0
  1
C
 41
1.099994249999995
 72
     5
 11
-191.949997
 21
147.43335
 31
0.0
100
AcDbText
  0
ENDBLK
  5
730
330
298
100
AcDbEntity
  8
0
100
AcDbBlockEnd
  0
BLOCK
  5
731
330
29C
100
AcDbEntity
  8
0
100
AcDbBlockBegin
  2
BLOCK104
 70
     0
 10
0.0
 20
0.0
 30
0.0
  3
BLOCK104
  1

  0
TEXT
  5
29A
330
29C
100
AcDbEntity
  8
100
 62
     7
370
    70
390
F
100
AcDbText
 10
-193.416656
 20
92.03334
 30
0.0
 40
2.0
  1
D
 41
1.099994249999995
 72
     5
 11
-191.949997
 21
92.03334
 31
0.0
100
AcDbText
  0
ENDBLK
  5
732
330
29C
100
AcDbEntity
  8
0
100
AcDbBlockEnd
  0
BLOCK
  5
733
330
2A0
100
AcDbEntity
  8
0
100
AcDbBlockBegin
  2
BLOCK105
 70
     0
 10
0.0
 20
0.0
 30
0.0
  3
BLOCK105
  1

  0
TEXT
  5
29E
330
2A0
100
AcDbEntity
  8
100
 62
     7
370
    70
390
F
100
AcDbText
 10
-193.416656
 20
36.633343
 30
0.0
 40
2.0
  1
E
 41
1.099994249999995
 72
     5
 11
-191.949997
 21
36.633343
 31
0.0
100
AcDbText
  0
ENDBLK
  5
734
330
2A0
100
AcDbEntity
  8
0
100
AcDbBlockEnd
  0
BLOCK
  5
735
330
2A4
100
AcDbEntity
  8
0
100
AcDbBlockBegin
  2
BLOCK106
 70
     0
 10
0.0
 20
0.0
 30
0.0
  3
BLOCK106
  1

  0
TEXT
  5
2A2
330
2A4
100
AcDbEntity
  8
100
 62
     7
370
    70
390
F
100
AcDbText
 10
-123.416656
 20
288.5
 30
0.0
 40
2.0
  1
2
 41
1.100000250000001
 72
     5
 11
-121.949989
 21
288.5
 31
0.0
100
AcDbText
  0
ENDBLK
  5
736
330
2A4
100
AcDbEntity
  8
0
100
AcDbBlockEnd
  0
BLOCK
  5
737
330
2A8
100
AcDbEntity
  8
0
100
AcDbBlockBegin
  2
BLOCK107
 70
     0
 10
0.0
 20
0.0
 30
0.0
  3
BLOCK107
  1

  0
TEXT
  5
2A6
330
2A8
100
AcDbEntity
  8
100
 62
     7
370
    70
390
F
100
AcDbText
 10
-78.416656
 20
288.5
 30
0.0
 40
2.0
  1
3
 41
1.100000250000001
 72
     5
 11
-76.949989
 21
288.5
 31
0.0
100
AcDbText
  0
ENDBLK
  5
738
330
2A8
100
AcDbEntity
  8
0
100
AcDbBlockEnd
  0
BLOCK
  5
739
330
2AC
100
AcDbEntity
  8
0
100
AcDbBlockBegin
  2
BLOCK108
 70
     0
 10
0.0
 20
0.0
 30
0.0
  3
BLOCK108
  1

  0
TEXT
  5
2AA
330
2AC
100
AcDbEntity
  8
100
 62
     7
370
    70
390
F
100
AcDbText
 10
-33.41666
 20
288.5
 30
0.0
 40
2.0
  1
4
 41
1.100000250000001
 72
     5
 11
-31.949993
 21
288.5
 31
0.0
100
AcDbText
  0
ENDBLK
  5
73A
330
2AC
100
AcDbEntity
  8
0
100
AcDbBlockEnd
  0
BLOCK
  5
73B
330
2B0
100
AcDbEntity
  8
0
100
AcDbBlockBegin
  2
BLOCK109
 70
     0
 10
0.0
 20
0.0
 30
0.0
  3
BLOCK109
  1

  0
TEXT
  5
2AE
330
2B0
100
AcDbEntity
  8
100
 62
     7
370
    70
390
F
100
AcDbText
 10
-168.416656
 20
6.5
 30
0.0
 40
2.0
  1
1
 41
2.199988499999989
 72
     5
 11
-166.949997
 21
6.5
 31
0.0
100
AcDbText
  0
ENDBLK
  5
73C
330
2B0
100
AcDbEntity
  8
0
100
AcDbBlockEnd
  0
BLOCK
  5
73D
330
2B4
100
AcDbEntity
  8
0
100
AcDbBlockBegin
  2
BLOCK110
 70
     0
 10
0.0
 20
0.0
 30
0.0
  3
BLOCK110
  1

  0
TEXT
  5
2B2
330
2B4
100
AcDbEntity
  8
100
 62
     7
370
    70
390
F
100
AcDbText
 10
-123.416656
 20
6.5
 30
0.0
 40
2.0
  1
2
 41
1.100000250000001
 72
     5
 11
-121.949989
 21
6.5
 31
0.0
100
AcDbText
  0
ENDBLK
  5
73E
330
2B4
100
AcDbEntity
  8
0
100
AcDbBlockEnd
  0
BLOCK
  5
73F
330
2B8
100
AcDbEntity
  8
0
100
AcDbBlockBegin
  2
BLOCK111
 70
     0
 10
0.0
 20
0.0
 30
0.0
  3
BLOCK111
  1

  0
TEXT
  5
2B6
330
2B8
100
AcDbEntity
  8
100
 62
     7
370
    70
390
F
100
AcDbText
 10
-78.416656
 20
6.5
 30
0.0
 40
2.0
  1
3
 41
1.100000250000001
 72
     5
 11
-76.949989
 21
6.5
 31
0.0
100
AcDbText
  0
ENDBLK
  5
740
330
2B8
100
AcDbEntity
  8
0
100
AcDbBlockEnd
  0
BLOCK
  5
741
330
2BC
100
AcDbEntity
  8
0
100
AcDbBlockBegin
  2
BLOCK112
 70
     0
 10
0.0
 20
0.0
 30
0.0
  3
BLOCK112
  1

  0
TEXT
  5
2BA
330
2BC
100
AcDbEntity
  8
100
 62
     7
370
    70
390
F
100
AcDbText
 10
-33.41666
 20
6.5
 30
0.0
 40
2.0
  1
4
 41
1.100000250000001
 72
     5
 11
-31.949993
 21
6.5
 31
0.0
100
AcDbText
  0
ENDBLK
  5
742
330
2BC
100
AcDbEntity
  8
0
100
AcDbBlockEnd
  0
BLOCK
  5
743
330
2C0
100
AcDbEntity
  8
0
100
AcDbBlockBegin
  2
BLOCK113
 70
     0
 10
0.0
 20
0.0
 30
0.0
  3
BLOCK113
  1

  0
TEXT
  5
2BE
330
2C0
100
AcDbEntity
  8
0
 62
     7
370
    70
390
F
100
AcDbText
 10
-47.474407
 20
51.241112
 30
0.0
 40
2.0
  1
03.06.2003
 41
0.9458260434782608
 72
     5
 11
-32.971741
 21
51.241112
 31
0.0
100
AcDbText
  0
ENDBLK
  5
744
330
2C0
100
AcDbEntity
  8
0
100
AcDbBlockEnd
  0
BLOCK
  5
745
330
2C4
100
AcDbEntity
  8
0
100
AcDbBlockBegin
  2
BLOCK114
 70
     0
 10
0.0
 20
0.0
 30
0.0
  3
BLOCK114
  1

  0
TEXT
  5
2C2
330
2C4
100
AcDbEntity
  8
0
 62
     7
370
    70
390
F
100
AcDbText
 10
-105.89994
 20
24.575142
 30
0.0
 40
2.8
  1
.
 41
4.888897619047618
 72
     5
 11
-103.846603
 21
24.575142
 31
0.0
100
AcDbText
  0
ENDBLK
  5
746
330
2C4
100
AcDbEntity
  8
0
100
AcDbBlockEnd
  0
BLOCK
  5
747
330
2E0
100
AcDbEntity
  8
0
100
AcDbBlockBegin
  2
BLOCK115
 70
     0
 10
0.0
 20
0.0
 30
0.0
  3
BLOCK115
  1

  0
LINE
  5
2C6
330
2E0
100
AcDbEntity
  8
0
 62
     7
 48
0.031752
370
     5
390
F
100
AcDbLine
 10
-183.510757
 20
19.088909
 30
0.0
 11
-184.780838
 21
19.088909
 31
0.0
  0
LINE
  5
2C7
330
2E0
100
AcDbEntity
  8
0
 62
     7
 48
0.012496
370
     5
390
F
100
AcDbLine
 10
-184.780838
 20
19.088909
 30
0.0
 11
-185.278259
 21
19.137899
 31
0.0
  0
LINE
  5
2C8
330
2E0
100
AcDbEntity
  8
0
 62
     7
 48
0.012372
370
     5
390
F
100
AcDbLine
 10
-185.278259
 20
19.137899
 30
0.0
 11
-185.751846
 21
19.281559
 31
0.0
  0
LINE
  5
2C9
330
2E0
100
AcDbEntity
  8
0
 62
     7
 48
0.012372
370
     5
390
F
100
AcDbLine
 10
-185.751846
 20
19.281559
 30
0.0
 11
-186.188293
 21
19.514851
 31
0.0
  0
LINE
  5
2CA
330
2E0
100
AcDbEntity
  8
0
 62
     7
 48
0.012372
370
     5
390
F
100
AcDbLine
 10
-186.188293
 20
19.514851
 30
0.0
 11
-186.570847
 21
19.828806
 31
0.0
  0
LINE
  5
2CB
330
2E0
100
AcDbEntity
  8
0
 62
     7
 48
0.012372
370
     5
390
F
100
AcDbLine
 10
-186.570847
 20
19.828806
 30
0.0
 11
-186.884811
 21
20.211363
 31
0.0
  0
LINE
  5
2CC
330
2E0
100
AcDbEntity
  8
0
 62
     7
 48
0.012372
370
     5
390
F
100
AcDbLine
 10
-186.884811
 20
20.211363
 30
0.0
 11
-187.118103
 21
20.647818
 31
0.0
  0
LINE
  5
2CD
330
2E0
100
AcDbEntity
  8
0
 62
     7
 48
0.012372
370
     5
390
F
100
AcDbLine
 10
-187.118103
 20
20.647818
 30
0.0
 11
-187.261765
 21
21.121399
 31
0.0
  0
LINE
  5
2CE
330
2E0
100
AcDbEntity
  8
0
 62
     7
 48
0.012372
370
     5
390
F
100
AcDbLine
 10
-187.261765
 20
21.121399
 30
0.0
 11
-187.310272
 21
21.613909
 31
0.0
  0
LINE
  5
2CF
330
2E0
100
AcDbEntity
  8
0
 62
     7
 48
0.012372
370
     5
390
F
100
AcDbLine
 10
-187.310272
 20
21.613909
 30
0.0
 11
-187.261765
 21
22.106417
 31
0.0
  0
LINE
  5
2D0
330
2E0
100
AcDbEntity
  8
0
 62
     7
 48
0.012372
370
     5
390
F
100
AcDbLine
 10
-187.261765
 20
22.106417
 30
0.0
 11
-187.118103
 21
22.58
 31
0.0
  0
LINE
  5
2D1
330
2E0
100
AcDbEntity
  8
0
 62
     7
 48
0.012372
370
     5
390
F
100
AcDbLine
 10
-187.118103
 20
22.58
 30
0.0
 11
-186.884811
 21
23.016455
 31
0.0
  0
LINE
  5
2D2
330
2E0
100
AcDbEntity
  8
0
 62
     7
 48
0.012372
370
     5
390
F
100
AcDbLine
 10
-186.884811
 20
23.016455
 30
0.0
 11
-186.570847
 21
23.399012
 31
0.0
  0
LINE
  5
2D3
330
2E0
100
AcDbEntity
  8
0
 62
     7
 48
0.012372
370
     5
390
F
100
AcDbLine
 10
-186.570847
 20
23.399012
 30
0.0
 11
-186.188293
 21
23.712967
 31
0.0
  0
LINE
  5
2D4
330
2E0
100
AcDbEntity
  8
0
 62
     7
 48
0.012372
370
     5
390
F
100
AcDbLine
 10
-186.188293
 20
23.712967
 30
0.0
 11
-185.751846
 21
23.946257
 31
0.0
  0
LINE
  5
2D5
330
2E0
100
AcDbEntity
  8
0
 62
     7
 48
0.012372
370
     5
390
F
100
AcDbLine
 10
-185.751846
 20
23.946257
 30
0.0
 11
-185.278259
 21
24.089916
 31
0.0
  0
LINE
  5
2D6
330
2E0
100
AcDbEntity
  8
0
 62
     7
 48
0.012496
370
     5
390
F
100
AcDbLine
 10
-185.278259
 20
24.089916
 30
0.0
 11
-184.780838
 21
24.138908
 31
0.0
  0
LINE
  5
2D7
330
2E0
100
AcDbEntity
  8
0
 62
     7
 48
0.031752
370
     5
390
F
100
AcDbLine
 10
-184.780838
 20
24.138908
 30
0.0
 11
-183.510757
 21
24.138908
 31
0.0
  0
LINE
  5
2D8
330
2E0
100
AcDbEntity
  8
0
 62
     7
 48
0.0325
370
     5
390
F
100
AcDbLine
 10
-183.510757
 20
24.138908
 30
0.0
 11
-183.510757
 21
22.838909
 31
0.0
  0
LINE
  5
2D9
330
2E0
100
AcDbEntity
  8
0
 62
     7
 48
0.05
370
     5
390
F
100
AcDbLine
 10
-183.510757
 20
22.838909
 30
0.0
 11
-185.510757
 21
22.838909
 31
0.0
  0
LINE
  5
2DA
330
2E0
100
AcDbEntity
  8
0
 62
     7
 48
0.06125
370
     5
390
F
100
AcDbLine
 10
-185.510757
 20
22.838909
 30
0.0
 11
-185.510757
 21
20.388908
 31
0.0
  0
LINE
  5
2DB
330
2E0
100
AcDbEntity
  8
0
 62
     7
 48
0.014375
370
     5
390
F
100
AcDbLine
 10
-185.510757
 20
20.388908
 30
0.0
 11
-184.935745
 21
20.388908
 31
0.0
  0
LINE
  5
2DC
330
2E0
100
AcDbEntity
  8
0
 62
     7
 48
0.046875
370
     5
390
F
100
AcDbLine
 10
-184.935745
 20
20.388908
 30
0.0
 11
-184.935745
 21
22.263908
 31
0.0
  0
LINE
  5
2DD
330
2E0
100
AcDbEntity
  8
0
 62
     7
 48
0.035625
370
     5
390
F
100
AcDbLine
 10
-184.935745
 20
22.263908
 30
0.0
 11
-183.510757
 21
22.263908
 31
0.0
  0
LINE
  5
2DE
330
2E0
100
AcDbEntity
  8
0
 62
     7
 48
0.079375
370
     5
390
F
100
AcDbLine
 10
-183.510757
 20
22.263908
 30
0.0
 11
-183.510757
 21
19.088909
 31
0.0
  0
ENDBLK
  5
748
330
2E0
100
AcDbEntity
  8
0
100
AcDbBlockEnd
  0
BLOCK
  5
749
330
2E4
100
AcDbEntity
  8
0
100
AcDbBlockBegin
  2
BLOCK116
 70
     0
 10
0.0
 20
0.0
 30
0.0
  3
BLOCK116
  1

  0
TEXT
  5
2E2
330
2E4
100
AcDbEntity
  8
0
 62
     7
370
    70
390
F
100
AcDbText
 10
-20.893904
 20
-84.371994
 30
0.0
 40
1.166667
  1
Il pezzo deve essere esente da bave
 41
0.959606098803606
 72
     5
 11
16.983892
 21
-84.371994
 31
0.0
100
AcDbText
  0
ENDBLK
  5
74A
330
2E4
100
AcDbEntity
  8
0
100
AcDbBlockEnd
  0
BLOCK
  5
74B
330
2E8
100
AcDbEntity
  8
0
100
AcDbBlockBegin
  2
BLOCK117
 70
     0
 10
0.0
 20
0.0
 30
0.0
  3
BLOCK117
  1

  0
TEXT
  5
2E6
330
2E8
100
AcDbEntity
  8
0
 62
     7
370
    70
390
F
100
AcDbText
 10
19.736099
 20
-116.656265
 30
0.0
 40
0.666667
  1
30.09.2003
 41
1.191303969565406
 72
     5
 11
25.824989
 21
-116.656265
 31
0.0
100
AcDbText
  0
ENDBLK
  5
74C
330
2E8
100
AcDbEntity
  8
0
100
AcDbBlockEnd
  0
BLOCK
  5
74D
330
2EC
100
AcDbEntity
  8
0
100
AcDbBlockBegin
  2
BLOCK118
 70
     0
 10
0.0
 20
0.0
 30
0.0
  3
BLOCK118
  1

  0
TEXT
  5
2EA
330
2EC
100
AcDbEntity
  8
0
 62
     7
370
    70
390
F
100
AcDbText
 10
19.612682
 20
-119.309769
 30
0.0
 40
0.666667
  1
30.09.2003
 41
1.191303969565406
 72
     5
 11
25.701572
 21
-119.309769
 31
0.0
100
AcDbText
  0
ENDBLK
  5
74E
330
2EC
100
AcDbEntity
  8
0
100
AcDbBlockEnd
  0
BLOCK
  5
74F
330
2F0
100
AcDbEntity
  8
0
100
AcDbBlockBegin
  2
BLOCK119
 70
     0
 10
0.0
 20
0.0
 30
0.0
  3
BLOCK119
  1

  0
TEXT
  5
2EE
330
2F0
100
AcDbEntity
  8
0
 62
     7
370
    70
390
F
100
AcDbText
 10
-22.706182
 20
-80.027161
 30
0.0
 40
1.0
  1
NOTE:
 41
1.116666749999999
 72
     5
 11
-18.239515
 21
-80.027161
 31
0.0
100
AcDbText
  0
ENDBLK
  5
750
330
2F0
100
AcDbEntity
  8
0
100
AcDbBlockEnd
  0
BLOCK
  5
751
330
2F4
100
AcDbEntity
  8
0
100
AcDbBlockBegin
  2
BLOCK120
 70
     0
 10
0.0
 20
0.0
 30
0.0
  3
BLOCK120
  1

  0
TEXT
  5
2F2
330
2F4
100
AcDbEntity
  8
0
 62
     7
370
    70
390
F
100
AcDbText
 10
-20.94878
 20
-87.227264
 30
0.0
 40
1.0
  1
Il particolare accoppia con il palo Dis. cod. 66412685
 41
1.068085723404255
 72
     5
 11
29.251249
 21
-87.227264
 31
0.0
100
AcDbText
  0
ENDBLK
  5
752
330
2F4
100
AcDbEntity
  8
0
100
AcDbBlockEnd
  0
BLOCK
  5
753
330
2FD
100
AcDbEntity
  8
0
100
AcDbBlockBegin
  2
BLOCK121
 70
     0
 10
0.0
 20
0.0
 30
0.0
  3
BLOCK121
  1

  0
TEXT
  5
2F6
330
2FD
100
AcDbEntity
  8
0
 62
     7
370
    13
390
F
100
AcDbText
 10
-1.473905
 20
-44.677757
 30
0.0
 40
1.166667
  1
22
 41
0.9999994857144328
 72
     5
 11
0.470539
 21
-44.677757
 31
0.0
100
AcDbText
  0
LINE
  5
2F7
330
2FD
100
AcDbEntity
  8
0
 62
     7
 48
0.269069
370
    13
390
F
100
AcDbLine
 10
-11.0
 20
-55.440502
 30
0.0
 11
-11.0
 21
-44.677761
 31
0.0
  0
LINE
  5
2F8
330
2FD
100
AcDbEntity
  8
0
 62
     7
 48
0.269069
370
    13
390
F
100
AcDbLine
 10
11.0
 20
-55.440502
 30
0.0
 11
11.0
 21
-44.677761
 31
0.0
  0
LWPOLYLINE
  5
2F9
330
2FD
100
AcDbEntity
  8
0
 62
     7
370
    13
390
F
100
AcDbPolyline
 90
        3
 70
     0
 43
0.0
 10
-10.35605
 20
-45.171879
 10
-11.0
 20
-45.344425
 10
-10.35605
 20
-45.516972
  0
LWPOLYLINE
  5
2FA
330
2FD
100
AcDbEntity
  8
0
 62
     7
370
    13
390
F
100
AcDbPolyline
 90
        3
 70
     0
 43
0.0
 10
10.35605
 20
-45.516972
 10
11.0
 20
-45.344425
 10
10.35605
 20
-45.171879
  0
LINE
  5
2FB
330
2FD
100
AcDbEntity
  8
0
 62
     7
370
    13
390
F
100
AcDbLine
 10
-11.0
 20
-45.344425
 30
0.0
 11
11.0
 21
-45.344425
 31
0.0
  0
ENDBLK
  5
754
330
2FD
100
AcDbEntity
  8
0
100
AcDbBlockEnd
  0
BLOCK
  5
755
330
305
100
AcDbEntity
  8
0
100
AcDbBlockBegin
  2
BLOCK122
 70
     0
 10
0.0
 20
0.0
 30
0.0
  3
BLOCK122
  1

  0
TEXT
  5
2FF
330
305
100
AcDbEntity
  8
0
 62
   172
370
    13
390
F
100
AcDbText
 10
-6.46836
 20
-66.119942
 30
0.0
 40
1.166667
  1
40
 50
82.36794511378426
 41
1.111108848205937
 72
     5
 11
-6.210117
 21
-64.192726
 31
0.0
100
AcDbText
  0
TEXT
  5
300
330
305
100
AcDbEntity
  8
0
 62
   172
370
    13
390
F
100
AcDbText
 10
-6.626257
 20
-67.298302
 30
0.0
 40
1.166667
  1
R
 50
82.36795723639496
 41
1.100000271060045
 72
     5
 11
-6.51263
 21
-66.450325
 31
0.0
100
AcDbText
  0
ARC
  5
301
330
305
100
AcDbEntity
  8
0
 62
   172
370
    13
390
F
100
AcDbCircle
 10
0.0
 20
-22.867447
 30
0.0
 40
40.0
100
AcDbArc
 50
243.735222
 51
263.322887
  0
LWPOLYLINE
  5
302
330
305
100
AcDbEntity
  8
0
 62
   172
370
    13
390
F
100
AcDbPolyline
 90
        3
 70
     0
 43
0.0
 10
-5.226933
 20
-63.174267
 10
-5.312428
 20
-62.513103
 10
-5.568968
 20
-63.128433
  0
LINE
  5
303
330
305
100
AcDbEntity
  8
0
 62
   172
 48
0.208333
370
    13
390
F
100
AcDbLine
 10
-4.869725
 20
-59.209301
 30
0.0
 11
-5.976481
 21
-67.468811
 31
0.0
  0
ENDBLK
  5
756
330
305
100
AcDbEntity
  8
0
100
AcDbBlockEnd
  0
BLOCK
  5
757
330
30D
100
AcDbEntity
  8
0
100
AcDbBlockBegin
  2
BLOCK123
 70
     0
 10
0.0
 20
0.0
 30
0.0
  3
BLOCK123
  1

  0
TEXT
  5
307
330
30D
100
AcDbEntity
  8
0
 62
   172
370
    13
390
F
100
AcDbText
 10
3.719822
 20
-57.174801
 30
0.0
 40
1.166667
  1
95
 50
42.49993940014916
 41
0.9999988695739259
 72
     5
 11
5.153417
 21
-55.861156
 31
0.0
100
AcDbText
  0
TEXT
  5
308
330
30D
100
AcDbEntity
  8
0
 62
   172
370
    13
390
F
100
AcDbText
 10
4.995779
 20
-55.689121
 30
0.0
 40
1.166667
  1
%%d
 50
42.49989085148984
 41
2.199996502451322
 72
     5
 11
5.626561
 21
-55.111118
 31
0.0
100
AcDbText
  0
LWPOLYLINE
  5
309
330
30D
100
AcDbEntity
  8
0
 62
   172
370
    13
390
F
100
AcDbPolyline
 90
        3
 70
     0
 43
0.0
 10
7.911587
 20
-55.693752
 10
8.568126
 20
-55.577988
 10
7.941664
 20
-55.349976
  0
LWPOLYLINE
  5
30A
330
30D
100
AcDbEntity
  8
0
 62
   172
370
    13
390
F
100
AcDbPolyline
 90
        3
 70
     0
 43
0.0
 10
3.598354
 20
-59.329884
 10
3.7709
 20
-59.973835
 10
3.943446
 20
-59.329884
  0
ARC
  5
30B
330
30D
100
AcDbEntity
  8
0
 62
   172
370
    13
390
F
100
AcDbCircle
 10
8.183539
 20
-59.973835
 30
0.0
 40
4.412639
100
AcDbArc
 50
84.999997
 51
180.000009
  0
ENDBLK
  5
758
330
30D
100
AcDbEntity
  8
0
100
AcDbBlockEnd
  0
BLOCK
  5
759
330
316
100
AcDbEntity
  8
0
100
AcDbBlockBegin
  2
BLOCK124
 70
     0
 10
0.0
 20
0.0
 30
0.0
  3
BLOCK124
  1

  0
TEXT
  5
30F
330
316
100
AcDbEntity
  8
0
 62
   172
370
    13
390
F
100
AcDbText
 10
25.849968
 20
-59.507019
 30
0.0
 40
1.166667
  1
4.2
 50
90.0
 41
1.299999485714432
 72
     5
 11
25.849968
 21
-56.473686
 31
0.0
100
AcDbText
  0
LINE
  5
310
330
316
100
AcDbEntity
  8
0
 62
   172
 48
0.466661
370
    13
390
F
100
AcDbLine
 10
8.516872
 20
-59.973835
 30
0.0
 11
27.1833
 21
-59.973835
 31
0.0
  0
LINE
  5
311
330
316
100
AcDbEntity
  8
0
 62
   172
 48
0.396249
370
    13
390
F
100
AcDbLine
 10
11.333333
 20
-55.773834
 30
0.0
 11
27.1833
 21
-55.773834
 31
0.0
  0
LWPOLYLINE
  5
312
330
316
100
AcDbEntity
  8
0
 62
   172
370
    13
390
F
100
AcDbPolyline
 90
        3
 70
     0
 43
0.0
 10
26.68918
 20
-60.617786
 10
26.516634
 20
-59.973835
 10
26.344088
 20
-60.617786
  0
LWPOLYLINE
  5
313
330
316
100
AcDbEntity
  8
0
 62
   172
370
    13
390
F
100
AcDbPolyline
 90
        3
 70
     0
 43
0.0
 10
26.344088
 20
-55.129887
 10
26.516634
 20
-55.773834
 10
26.68918
 20
-55.129887
  0
LINE
  5
314
330
316
100
AcDbEntity
  8
0
 62
   172
 48
0.188333
370
    13
390
F
100
AcDbLine
 10
26.516634
 20
-61.640503
 30
0.0
 11
26.516634
 21
-54.10717
 31
0.0
  0
ENDBLK
  5
75A
330
316
100
AcDbEntity
  8
0
100
AcDbBlockEnd
  0
BLOCK
  5
75B
330
31F
100
AcDbEntity
  8
0
100
AcDbBlockBegin
  2
BLOCK125
 70
     0
 10
0.0
 20
0.0
 30
0.0
  3
BLOCK125
  1

  0
TEXT
  5
318
330
31F
100
AcDbEntity
  8
0
 62
   172
370
    13
390
F
100
AcDbText
 10
-1.348876
 20
-41.747196
 30
0.0
 40
1.166667
  1
36
 72
     5
 11
0.595569
 21
-41.747196
 31
0.0
100
AcDbText
  0
LINE
  5
319
330
31F
100
AcDbEntity
  8
0
 62
   172
 48
0.402701
370
    13
390
F
100
AcDbLine
 10
-18.0
 20
-57.855255
 30
0.0
 11
-18.0
 21
-41.7472
 31
0.0
  0
LINE
  5
31A
330
31F
100
AcDbEntity
  8
0
 62
   172
 48
0.402701
370
    13
390
F
100
AcDbLine
 10
18.0
 20
-57.855255
 30
0.0
 11
18.0
 21
-41.7472
 31
0.0
  0
LWPOLYLINE
  5
31B
330
31F
100
AcDbEntity
  8
0
 62
   172
370
    13
390
F
100
AcDbPolyline
 90
        3
 70
     0
 43
0.0
 10
-17.356049
 20
-42.241318
 10
-18.0
 20
-42.413864
 10
-17.356049
 20
-42.586411
  0
LWPOLYLINE
  5
31C
330
31F
100
AcDbEntity
  8
0
 62
   172
370
    13
390
F
100
AcDbPolyline
 90
        3
 70
     0
 43
0.0
 10
17.356049
 20
-42.586411
 10
18.0
 20
-42.413864
 10
17.356049
 20
-42.241318
  0
LINE
  5
31D
330
31F
100
AcDbEntity
  8
0
 62
   172
370
    13
390
F
100
AcDbLine
 10
-18.0
 20
-42.413864
 30
0.0
 11
18.0
 21
-42.413864
 31
0.0
  0
ENDBLK
  5
75C
330
31F
100
AcDbEntity
  8
0
100
AcDbBlockEnd
  0
BLOCK
  5
75D
330
327
100
AcDbEntity
  8
0
100
AcDbBlockBegin
  2
BLOCK126
 70
     0
 10
0.0
 20
0.0
 30
0.0
  3
BLOCK126
  1

  0
TEXT
  5
321
330
327
100
AcDbEntity
  8
0
 62
   172
370
    13
390
F
100
AcDbText
 10
0.94469
 20
-56.986317
 30
0.0
 40
1.166667
  1
10.1
 50
90.00001389924309
 41
1.630769072527565
 72
     5
 11
0.944689
 21
-52.864094
 31
0.0
100
AcDbText
  0
LINE
  5
322
330
327
100
AcDbEntity
  8
0
 62
   172
 48
0.053047
370
    13
390
F
100
AcDbLine
 10
3.066575
 20
-49.876572
 30
0.0
 11
0.944689
 21
-49.876572
 31
0.0
  0
LWPOLYLINE
  5
323
330
327
100
AcDbEntity
  8
0
 62
   172
370
    13
390
F
100
AcDbPolyline
 90
        3
 70
     0
 43
0.0
 10
1.43881
 20
-59.329884
 10
1.611356
 20
-59.973835
 10
1.783902
 20
-59.329884
  0
LWPOLYLINE
  5
324
330
327
100
AcDbEntity
  8
0
 62
   172
370
    13
390
F
100
AcDbPolyline
 90
        3
 70
     0
 43
0.0
 10
1.783902
 20
-50.520523
 10
1.611356
 20
-49.876572
 10
1.43881
 20
-50.520523
  0
LINE
  5
325
330
327
100
AcDbEntity
  8
0
 62
   172
 48
0.252432
370
    13
390
F
100
AcDbLine
 10
1.611356
 20
-59.973835
 30
0.0
 11
1.611356
 21
-49.876572
 31
0.0
  0
ENDBLK
  5
75E
330
327
100
AcDbEntity
  8
0
100
AcDbBlockEnd
  0
BLOCK
  5
75F
330
32E
100
AcDbEntity
  8
0
100
AcDbBlockBegin
  2
BLOCK127
 70
     0
 10
0.0
 20
0.0
 30
0.0
  3
BLOCK127
  1

  0
TEXT
  5
329
330
32E
100
AcDbEntity
  8
0
 62
   172
370
    13
390
F
100
AcDbText
 10
6.874174
 20
-44.69479
 30
0.0
 40
1.166667
  1
0.8
 50
301.810096377137
 41
1.418182443157022
 72
     5
 11
8.473062
 21
-47.272518
 31
0.0
100
AcDbText
  0
TEXT
  5
32A
330
32E
100
AcDbEntity
  8
0
 62
   172
370
    13
390
F
100
AcDbText
 10
6.247504
 20
-43.684475
 30
0.0
 40
1.166667
  1
R
 50
301.8101471369335
 41
1.100000352138124
 72
     5
 11
6.698473
 21
-44.411526
 31
0.0
100
AcDbText
  0
LWPOLYLINE
  5
32B
330
32E
100
AcDbEntity
  8
0
 62
   172
370
    13
390
F
100
AcDbPolyline
 90
        3
 70
     0
 43
0.0
 10
8.892256
 20
-49.540455
 10
9.378315
 20
-49.996731
 10
9.185514
 20
-49.358555
  0
LINE
  5
32C
330
32E
100
AcDbEntity
  8
0
 62
   172
 48
0.258694
370
    13
390
F
100
AcDbLine
 10
11.135335
 20
-52.829399
 30
0.0
 11
5.680971
 21
-44.035877
 31
0.0
  0
ENDBLK
  5
760
330
32E
100
AcDbEntity
  8
0
100
AcDbBlockEnd
  0
BLOCK
  5
761
330
337
100
AcDbEntity
  8
0
100
AcDbBlockBegin
  2
BLOCK128
 70
     0
 10
0.0
 20
0.0
 30
0.0
  3
BLOCK128
  1

  0
TEXT
  5
330
330
337
100
AcDbEntity
  8
0
 62
   172
370
    13
390
F
100
AcDbText
 10
12.59153
 20
-67.037735
 30
0.0
 40
1.166667
  1
2.4
 50
354.9999709476428
 41
1.299999865117858
 72
     5
 11
15.613321
 21
-67.302109
 31
0.0
100
AcDbText
  0
LINE
  5
331
330
337
100
AcDbEntity
  8
0
 62
   172
 48
0.191321
370
    13
390
F
100
AcDbLine
 10
8.154487
 20
-60.305901
 30
0.0
 11
7.487499
 21
-67.929611
 31
0.0
  0
LINE
  5
332
330
337
100
AcDbEntity
  8
0
 62
   172
 48
0.196657
370
    13
390
F
100
AcDbLine
 10
10.603496
 20
-60.305901
 30
0.0
 11
9.917904
 21
-68.142242
 31
0.0
  0
LWPOLYLINE
  5
333
330
337
100
AcDbEntity
  8
0
 62
   172
370
    13
390
F
100
AcDbPolyline
 90
        3
 70
     0
 43
0.0
 10
8.202141
 20
-67.149719
 10
7.545602
 20
-67.26548
 10
8.172064
 20
-67.4935
  0
LWPOLYLINE
  5
334
330
337
100
AcDbEntity
  8
0
 62
   172
370
    13
390
F
100
AcDbPolyline
 90
        3
 70
     0
 43
0.0
 10
9.319469
 20
-67.59388
 10
9.976008
 20
-67.478119
 10
9.349546
 20
-67.250099
  0
LINE
  5
335
330
337
100
AcDbEntity
  8
0
 62
   172
 48
0.201005
370
    13
390
F
100
AcDbLine
 10
7.545602
 20
-67.26548
 30
0.0
 11
15.555218
 21
-67.966232
 31
0.0
  0
ENDBLK
  5
762
330
337
100
AcDbEntity
  8
0
100
AcDbBlockEnd
  0
BLOCK
  5
763
330
340
100
AcDbEntity
  8
0
100
AcDbBlockBegin
  2
BLOCK129
 70
     0
 10
0.0
 20
0.0
 30
0.0
  3
BLOCK129
  1

  0
TEXT
  5
339
330
340
100
AcDbEntity
  8
0
 62
     7
370
    13
390
F
100
AcDbText
 10
-25.232737
 20
-60.681736
 30
0.0
 40
1.166667
  1
2.9
 50
90.0
 41
1.299999485714432
 72
     5
 11
-25.232737
 21
-57.648403
 31
0.0
100
AcDbText
  0
LINE
  5
33A
330
340
100
AcDbEntity
  8
0
 62
     7
370
    13
390
F
100
AcDbLine
 10
-0.333333
 20
-62.867447
 30
0.0
 11
-25.232738
 21
-62.867447
 31
0.0
  0
LINE
  5
33B
330
340
100
AcDbEntity
  8
0
 62
     7
370
    13
390
F
100
AcDbLine
 10
-0.333333
 20
-59.973835
 30
0.0
 11
-25.232738
 21
-59.973835
 31
0.0
  0
LWPOLYLINE
  5
33C
330
340
100
AcDbEntity
  8
0
 62
     7
370
    13
390
F
100
AcDbPolyline
 90
        3
 70
     0
 43
0.0
 10
-24.393524
 20
-60.617786
 10
-24.566071
 20
-59.973835
 10
-24.738617
 20
-60.617786
  0
LWPOLYLINE
  5
33D
330
340
100
AcDbEntity
  8
0
 62
     7
370
    13
390
F
100
AcDbPolyline
 90
        3
 70
     0
 43
0.0
 10
-24.738617
 20
-62.223495
 10
-24.566071
 20
-62.867447
 10
-24.393524
 20
-62.223495
  0
LINE
  5
33E
330
340
100
AcDbEntity
  8
0
 62
     7
 48
0.130476
370
    13
390
F
100
AcDbLine
 10
-24.566071
 20
-62.867447
 30
0.0
 11
-24.566071
 21
-57.648403
 31
0.0
  0
ENDBLK
  5
764
330
340
100
AcDbEntity
  8
0
100
AcDbBlockEnd
  0
BLOCK
  5
765
330
349
100
AcDbEntity
  8
0
100
AcDbBlockBegin
  2
BLOCK130
 70
     0
 10
0.0
 20
0.0
 30
0.0
  3
BLOCK130
  1

  0
TEXT
  5
342
330
349
100
AcDbEntity
  8
0
 62
   172
370
    13
390
F
100
AcDbText
 10
-23.147461
 20
-55.107883
 30
0.0
 40
1.166667
  1
1.8
 50
90.0
 41
1.559998868571753
 72
     5
 11
-23.147461
 21
-52.074551
 31
0.0
100
AcDbText
  0
LINE
  5
343
330
349
100
AcDbEntity
  8
0
 62
   172
 48
0.365765
370
    13
390
F
100
AcDbLine
 10
-8.516872
 20
-59.973835
 30
0.0
 11
-23.147461
 21
-59.973835
 31
0.0
  0
LINE
  5
344
330
349
100
AcDbEntity
  8
0
 62
   172
 48
0.120353
370
    13
390
F
100
AcDbLine
 10
-18.333334
 20
-58.188591
 30
0.0
 11
-23.147461
 21
-58.188591
 31
0.0
  0
LWPOLYLINE
  5
345
330
349
100
AcDbEntity
  8
0
 62
   172
370
    13
390
F
100
AcDbPolyline
 90
        3
 70
     0
 43
0.0
 10
-22.308249
 20
-60.617786
 10
-22.480795
 20
-59.973835
 10
-22.653341
 20
-60.617786
  0
LWPOLYLINE
  5
346
330
349
100
AcDbEntity
  8
0
 62
   172
370
    13
390
F
100
AcDbPolyline
 90
        3
 70
     0
 43
0.0
 10
-22.653341
 20
-57.54464
 10
-22.480795
 20
-58.188591
 10
-22.308249
 20
-57.54464
  0
LINE
  5
347
330
349
100
AcDbEntity
  8
0
 62
   172
 48
0.239149
370
    13
390
F
100
AcDbLine
 10
-22.480795
 20
-61.640503
 30
0.0
 11
-22.480795
 21
-52.074551
 31
0.0
  0
ENDBLK
  5
766
330
349
100
AcDbEntity
  8
0
100
AcDbBlockEnd
  0
BLOCK
  5
767
330
353
100
AcDbEntity
  8
0
100
AcDbBlockBegin
  2
BLOCK131
 70
     0
 10
0.0
 20
0.0
 30
0.0
  3
BLOCK131
  1

  0
TEXT
  5
34B
330
353
100
AcDbEntity
  8
0
 62
   172
370
    13
390
F
100
AcDbText
 10
21.224834
 20
-53.835487
 30
0.0
 40
1.166667
  1
30
 50
284.9999651113176
 41
1.111110549255616
 72
     5
 11
21.728092
 21
-55.713676
 31
0.0
100
AcDbText
  0
TEXT
  5
34C
330
353
100
AcDbEntity
  8
0
 62
   172
370
    13
390
F
100
AcDbText
 10
21.953476
 20
-55.653286
 30
0.0
 40
1.166667
  1
%%d
 50
285.0000982875777
 41
2.199994507493516
 72
     5
 11
22.174911
 21
-56.479687
 31
0.0
100
AcDbText
  0
LINE
  5
34D
330
353
100
AcDbEntity
  8
0
 62
   172
 48
0.34251
370
    13
390
F
100
AcDbLine
 10
8.516872
 20
-59.973835
 30
0.0
 11
22.217278
 21
-59.973835
 31
0.0
  0
LINE
  5
34E
330
353
100
AcDbEntity
  8
0
 62
   172
 48
0.186229
370
    13
390
F
100
AcDbLine
 10
13.288675
 20
-54.452469
 30
0.0
 11
19.739834
 21
-50.72789
 31
0.0
  0
LWPOLYLINE
  5
34F
330
353
100
AcDbEntity
  8
0
 62
   172
370
    13
390
F
100
AcDbPolyline
 90
        3
 70
     0
 43
0.0
 10
21.378065
 20
-59.329884
 10
21.55061
 20
-59.973835
 10
21.723156
 20
-59.329884
  0
LWPOLYLINE
  5
350
330
353
100
AcDbEntity
  8
0
 62
   172
370
    13
390
F
100
AcDbPolyline
 90
        3
 70
     0
 43
0.0
 10
19.633888
 20
-51.532627
 10
19.162483
 20
-51.061222
 10
19.33503
 20
-51.705173
  0
ARC
  5
351
330
353
100
AcDbEntity
  8
0
 62
   172
370
    13
390
F
100
AcDbCircle
 10
3.725387
 20
-59.973835
 30
0.0
 40
17.825224
100
AcDbArc
 50
0.0
 51
30.000001
  0
ENDBLK
  5
768
330
353
100
AcDbEntity
  8
0
100
AcDbBlockEnd
  0
BLOCK
  5
769
330
35C
100
AcDbEntity
  8
0
100
AcDbBlockBegin
  2
BLOCK132
 70
     0
 10
0.0
 20
0.0
 30
0.0
  3
BLOCK132
  1

  0
TEXT
  5
355
330
35C
100
AcDbEntity
  8
0
 62
     7
370
    13
390
F
100
AcDbText
 10
15.636246
 20
-47.691689
 30
0.0
 40
1.166667
  1
2
 41
1.100000257142784
 72
     5
 11
16.491802
 21
-47.691689
 31
0.0
100
AcDbText
  0
LINE
  5
356
330
35C
100
AcDbEntity
  8
0
 62
     7
 48
0.19372
370
    13
390
F
100
AcDbLine
 10
11.0
 20
-55.440502
 30
0.0
 11
11.0
 21
-47.691689
 31
0.0
  0
LINE
  5
357
330
35C
100
AcDbEntity
  8
0
 62
     7
 48
0.142106
370
    13
390
F
100
AcDbLine
 10
13.0
 20
-53.375919
 30
0.0
 11
13.0
 21
-47.691689
 31
0.0
  0
LWPOLYLINE
  5
358
330
35C
100
AcDbEntity
  8
0
 62
     7
370
    13
390
F
100
AcDbPolyline
 90
        3
 70
     0
 43
0.0
 10
13.64395
 20
-48.18581
 10
13.0
 20
-48.358356
 10
13.64395
 20
-48.530903
  0
LWPOLYLINE
  5
359
330
35C
100
AcDbEntity
  8
0
 62
     7
370
    13
390
F
100
AcDbPolyline
 90
        3
 70
     0
 43
0.0
 10
10.35605
 20
-48.530903
 10
11.0
 20
-48.358356
 10
10.35605
 20
-48.18581
  0
LINE
  5
35A
330
35C
100
AcDbEntity
  8
0
 62
     7
 48
0.178962
370
    13
390
F
100
AcDbLine
 10
9.333333
 20
-48.358356
 30
0.0
 11
16.491802
 21
-48.358356
 31
0.0
  0
ENDBLK
  5
76A
330
35C
100
AcDbEntity
  8
0
100
AcDbBlockEnd
  0
BLOCK
  5
76B
330
365
100
AcDbEntity
  8
0
100
AcDbBlockBegin
  2
BLOCK133
 70
     0
 10
0.0
 20
0.0
 30
0.0
  3
BLOCK133
  1

  0
TEXT
  5
35E
330
365
100
AcDbEntity
  8
0
 62
   172
370
    13
390
F
100
AcDbText
 10
-20.333332
 20
-56.521923
 30
0.0
 40
1.166667
  1
0.4
 50
90.0
 41
1.418181257143017
 72
     5
 11
-20.333332
 21
-53.48859
 31
0.0
100
AcDbText
  0
LINE
  5
35F
330
365
100
AcDbEntity
  8
0
 62
   172
 48
0.05
370
    13
390
F
100
AcDbLine
 10
-18.333334
 20
-58.588589
 30
0.0
 11
-20.333334
 21
-58.588589
 31
0.0
  0
LINE
  5
360
330
365
100
AcDbEntity
  8
0
 62
   172
 48
0.05
370
    13
390
F
100
AcDbLine
 10
-18.333334
 20
-58.188591
 30
0.0
 11
-20.333334
 21
-58.188591
 31
0.0
  0
LWPOLYLINE
  5
361
330
365
100
AcDbEntity
  8
0
 62
   172
370
    13
390
F
100
AcDbPolyline
 90
        3
 70
     0
 43
0.0
 10
-19.494122
 20
-59.23254
 10
-19.666666
 20
-58.588589
 10
-19.839212
 20
-59.23254
  0
LWPOLYLINE
  5
362
330
365
100
AcDbEntity
  8
0
 62
   172
370
    13
390
F
100
AcDbPolyline
 90
        3
 70
     0
 43
0.0
 10
-19.839212
 20
-57.54464
 10
-19.666666
 20
-58.188591
 10
-19.494122
 20
-57.54464
  0
LINE
  5
363
330
365
100
AcDbEntity
  8
0
 62
   172
 48
0.169167
370
    13
390
F
100
AcDbLine
 10
-19.666666
 20
-60.255257
 30
0.0
 11
-19.666666
 21
-53.48859
 31
0.0
  0
ENDBLK
  5
76C
330
365
100
AcDbEntity
  8
0
100
AcDbBlockEnd
  0
BLOCK
  5
76D
330
36E
100
AcDbEntity
  8
0
100
AcDbBlockBegin
  2
BLOCK134
 70
     0
 10
0.0
 20
0.0
 30
0.0
  3
BLOCK134
  1

  0
TEXT
  5
367
330
36E
100
AcDbEntity
  8
0
 62
     7
370
    13
390
F
100
AcDbText
 10
-3.648812
 20
-70.310791
 30
0.0
 40
1.166667
  1
21.3
 41
1.324999550000129
 72
     5
 11
0.47341
 21
-70.310791
 31
0.0
100
AcDbText
  0
LINE
  5
368
330
36E
100
AcDbEntity
  8
0
 62
     7
 48
0.283424
370
    13
390
F
100
AcDbLine
 10
-10.632547
 20
-60.307167
 30
0.0
 11
-10.632547
 21
-71.644119
 31
0.0
  0
LINE
  5
369
330
36E
100
AcDbEntity
  8
0
 62
     7
 48
0.283424
370
    13
390
F
100
AcDbLine
 10
10.632547
 20
-60.307167
 30
0.0
 11
10.632547
 21
-71.644119
 31
0.0
  0
LWPOLYLINE
  5
36A
330
36E
100
AcDbEntity
  8
0
 62
     7
370
    13
390
F
100
AcDbPolyline
 90
        3
 70
     0
 43
0.0
 10
-9.988597
 20
-70.804909
 10
-10.632547
 20
-70.977455
 10
-9.988597
 20
-71.150002
  0
LWPOLYLINE
  5
36B
330
36E
100
AcDbEntity
  8
0
 62
     7
370
    13
390
F
100
AcDbPolyline
 90
        3
 70
     0
 43
0.0
 10
9.988597
 20
-71.150002
 10
10.632547
 20
-70.977455
 10
9.988597
 20
-70.804909
  0
LINE
  5
36C
330
36E
100
AcDbEntity
  8
0
 62
     7
370
    13
390
F
100
AcDbLine
 10
-10.632547
 20
-70.977455
 30
0.0
 11
10.632547
 21
-70.977455
 31
0.0
  0
ENDBLK
  5
76E
330
36E
100
AcDbEntity
  8
0
100
AcDbBlockEnd
  0
BLOCK
  5
76F
330
379
100
AcDbEntity
  8
0
100
AcDbBlockBegin
  2
*D135
 70
     1
 10
0.0
 20
0.0
 30
0.0
  3
*D135
  1

  0
POINT
  5
370
330
379
100
AcDbEntity
  8
DEFPOINTS
  6
ByBlock
 62
     0
380
     1
100
AcDbPoint
 10
47.909127
 20
236.6582905893287
 30
0.0
  0
POINT
  5
371
330
379
100
AcDbEntity
  8
DEFPOINTS
  6
ByBlock
 62
     0
380
     1
100
AcDbPoint
 10
155.909127
 20
236.6582905893287
 30
0.0
  0
LINE
  5
372
330
379
100
AcDbEntity
  8
0
  6
ByBlock
 62
     0
370
    -2
380
     1
100
AcDbLine
 10
47.909127
 20
237.2832905893287
 30
0.0
 11
47.909127
 21
280.2647036886786
 31
0.0
  0
LINE
  5
373
330
379
100
AcDbEntity
  8
0
  6
ByBlock
 62
     0
370
    -2
380
     1
100
AcDbLine
 10
155.909127
 20
237.2832905893287
 30
0.0
 11
155.909127
 21
280.2647036886786
 31
0.0
  0
LINE
  5
374
330
379
100
AcDbEntity
  8
0
  6
ByBlock
 62
     0
370
    -2
380
     1
100
AcDbLine
 10
50.409127
 20
279.0147036886786
 30
0.0
 11
153.409127
 21
279.0147036886786
 31
0.0
  0
SOLID
  5
375
330
379
100
AcDbEntity
  8
0
  6
ByBlock
 62
     0
380
     1
100
AcDbTrace
 10
47.909127
 20
279.0147036886786
 30
0.0
 11
50.409127
 21
278.5980370220119
 31
0.0
 12
50.409127
 22
279.4313703553453
 32
0.0
 13
50.409127
 23
279.4313703553453
 33
0.0
  0
SOLID
  5
376
330
379
100
AcDbEntity
  8
0
  6
ByBlock
 62
     0
380
     1
100
AcDbTrace
 10
155.909127
 20
279.0147036886786
 30
0.0
 11
153.409127
 21
278.5980370220119
 31
0.0
 12
153.409127
 22
279.4313703553453
 32
0.0
 13
153.409127
 23
279.4313703553453
 33
0.0
  0
MTEXT
  5
377
330
379
100
AcDbEntity
  8
0
  6
ByBlock
 62
     0
370
    -2
380
     1
100
AcDbMText
 10
101.909127
 20
280.7656879406471
 30
0.0
 40
2.5
 41
0.0
 71
     5
 72
     1
  1
\A1;108
 73
     1
 44
1.0
  0
ENDBLK
  5
770
330
379
100
AcDbEntity
  8
0
100
AcDbBlockEnd
  0
BLOCK
  5
771
330
3E2
100
AcDbEntity
  8
0
100
AcDbBlockBegin
  2
*D136
 70
     1
 10
0.0
 20
0.0
 30
0.0
  3
*D136
  1

  0
POINT
  5
3D9
330
3E2
100
AcDbEntity
  8
DEFPOINTS
  6
ByBlock
 62
     0
380
     1
100
AcDbPoint
 10
15.81001191
 20
82.8018434154189
 30
0.0
  0
POINT
  5
3DA
330
3E2
100
AcDbEntity
  8
DEFPOINTS
  6
ByBlock
 62
     0
380
     1
100
AcDbPoint
 10
51.45001191000001
 20
81.56575792948584
 30
0.0
  0
LINE
  5
3DB
330
3E2
100
AcDbEntity
  8
0
  6
ByBlock
 62
     0
370
    -2
380
     1
100
AcDbLine
 10
15.81001191
 20
83.4268434154189
 30
0.0
 11
15.81001191
 21
93.46963759395655
 31
0.0
  0
LINE
  5
3DC
330
3E2
100
AcDbEntity
  8
0
  6
ByBlock
 62
     0
370
    -2
380
     1
100
AcDbLine
 10
51.45001191000001
 20
82.19075792948584
 30
0.0
 11
51.45001191000001
 21
93.46963759395655
 31
0.0
  0
LINE
  5
3DD
330
3E2
100
AcDbEntity
  8
0
  6
ByBlock
 62
     0
370
    -2
380
     1
100
AcDbLine
 10
18.31001191
 20
92.21963759395655
 30
0.0
 11
48.95001191000001
 21
92.21963759395655
 31
0.0
  0
SOLID
  5
3DE
330
3E2
100
AcDbEntity
  8
0
  6
ByBlock
 62
     0
380
     1
100
AcDbTrace
 10
15.81001191
 20
92.21963759395655
 30
0.0
 11
18.31001191
 21
91.80297092728988
 31
0.0
 12
18.31001191
 22
92.63630426062322
 32
0.0
 13
18.31001191
 23
92.63630426062322
 33
0.0
  0
SOLID
  5
3DF
330
3E2
100
AcDbEntity
  8
0
  6
ByBlock
 62
     0
380
     1
100
AcDbTrace
 10
51.45001191000001
 20
92.21963759395655
 30
0.0
 11
48.95001191000001
 21
91.80297092728988
 31
0.0
 12
48.95001191000001
 22
92.63630426062322
 32
0.0
 13
48.95001191000001
 23
92.63630426062322
 33
0.0
  0
MTEXT
  5
3E0
330
3E2
100
AcDbEntity
  8
0
  6
ByBlock
 62
     0
370
    -2
380
     1
100
AcDbMText
 10
33.63001191000001
 20
94.30297092728989
 30
0.0
 40
2.5
 41
0.0
 71
     5
 72
     1
  1
\A1;35,64
 73
     1
 44
1.0
  0
ENDBLK
  5
772
330
3E2
100
AcDbEntity
  8
0
100
AcDbBlockEnd
  0
BLOCK
  5
773
330
3EE
100
AcDbEntity
  8
0
100
AcDbBlockBegin
  2
*D137
 70
     1
 10
0.0
 20
0.0
 30
0.0
  3
*D137
  1

  0
POINT
  5
3E5
330
3EE
100
AcDbEntity
  8
DEFPOINTS
  6
ByBlock
 62
     0
380
     1
100
AcDbPoint
 10
15.81001191
 20
72.25415604
 30
0.0
  0
POINT
  5
3E6
330
3EE
100
AcDbEntity
  8
DEFPOINTS
  6
ByBlock
 62
     0
380
     1
100
AcDbPoint
 10
51.45002030214616
 20
72.25416031466267
 30
0.0
  0
LINE
  5
3E7
330
3EE
100
AcDbEntity
  8
0
  6
ByBlock
 62
     0
370
    -2
380
     1
100
AcDbLine
 10
15.81001191
 20
72.87915604
 30
0.0
 11
15.81001191
 21
91.2945869598479
 31
0.0
  0
LINE
  5
3E8
330
3EE
100
AcDbEntity
  8
0
  6
ByBlock
 62
     0
370
    -2
380
     1
100
AcDbLine
 10
51.45002030214616
 20
72.87916031466267
 30
0.0
 11
51.45002030214616
 21
91.2945869598479
 31
0.0
  0
LINE
  5
3E9
330
3EE
100
AcDbEntity
  8
0
  6
ByBlock
 62
     0
370
    -2
380
     1
100
AcDbLine
 10
18.31001191
 20
90.0445869598479
 30
0.0
 11
48.95002030214616
 21
90.0445869598479
 31
0.0
  0
SOLID
  5
3EA
330
3EE
100
AcDbEntity
  8
0
  6
ByBlock
 62
     0
380
     1
100
AcDbTrace
 10
15.81001191
 20
90.0445869598479
 30
0.0
 11
18.31001191
 21
89.62792029318123
 31
0.0
 12
18.31001191
 22
90.46125362651458
 32
0.0
 13
18.31001191
 23
90.46125362651458
 33
0.0
  0
SOLID
  5
3EB
330
3EE
100
AcDbEntity
  8
0
  6
ByBlock
 62
     0
380
     1
100
AcDbTrace
 10
51.45002030214616
 20
90.0445869598479
 30
0.0
 11
48.95002030214616
 21
89.62792029318123
 31
0.0
 12
48.95002030214616
 22
90.46125362651458
 32
0.0
 13
48.95002030214616
 23
90.46125362651458
 33
0.0
  0
MTEXT
  5
3EC
330
3EE
100
AcDbEntity
  8
0
  6
ByBlock
 62
     0
370
    -2
380
     1
100
AcDbMText
 10
33.63001610607309
 20
92.12792029318123
 30
0.0
 40
2.5
 41
0.0
 71
     5
 72
     1
  1
\A1;35,64
 73
     1
 44
1.0
  0
ENDBLK
  5
774
330
3EE
100
AcDbEntity
  8
0
100
AcDbBlockEnd
  0
BLOCK
  5
775
330
3FA
100
AcDbEntity
  8
0
100
AcDbBlockBegin
  2
*D138
 70
     1
 10
0.0
 20
0.0
 30
0.0
  3
*D138
  1

  0
POINT
  5
3F1
330
3FA
100
AcDbEntity
  8
DEFPOINTS
  6
ByBlock
 62
     0
380
     1
100
AcDbPoint
 10
22.74001191
 20
74.64476547
 30
0.0
  0
POINT
  5
3F2
330
3FA
100
AcDbEntity
  8
DEFPOINTS
  6
ByBlock
 62
     0
380
     1
100
AcDbPoint
 10
44.52001191000001
 20
74.64476547
 30
0.0
  0
LINE
  5
3F3
330
3FA
100
AcDbEntity
  8
0
  6
ByBlock
 62
     0
370
    -2
380
     1
100
AcDbLine
 10
22.74001191
 20
75.26976547
 30
0.0
 11
22.74001191
 21
84.85160335981388
 31
0.0
  0
LINE
  5
3F4
330
3FA
100
AcDbEntity
  8
0
  6
ByBlock
 62
     0
370
    -2
380
     1
100
AcDbLine
 10
44.52001191000001
 20
75.26976547
 30
0.0
 11
44.52001191000001
 21
84.85160335981388
 31
0.0
  0
LINE
  5
3F5
330
3FA
100
AcDbEntity
  8
0
  6
ByBlock
 62
     0
370
    -2
380
     1
100
AcDbLine
 10
25.24001191
 20
83.60160335981388
 30
0.0
 11
42.02001191000001
 21
83.60160335981388
 31
0.0
  0
SOLID
  5
3F6
330
3FA
100
AcDbEntity
  8
0
  6
ByBlock
 62
     0
380
     1
100
AcDbTrace
 10
22.74001191
 20
83.60160335981388
 30
0.0
 11
25.24001191
 21
83.18493669314721
 31
0.0
 12
25.24001191
 22
84.01827002648055
 32
0.0
 13
25.24001191
 23
84.01827002648055
 33
0.0
  0
SOLID
  5
3F7
330
3FA
100
AcDbEntity
  8
0
  6
ByBlock
 62
     0
380
     1
100
AcDbTrace
 10
44.52001191000001
 20
83.60160335981388
 30
0.0
 11
42.02001191000001
 21
83.18493669314721
 31
0.0
 12
42.02001191000001
 22
84.01827002648055
 32
0.0
 13
42.02001191000001
 23
84.01827002648055
 33
0.0
  0
MTEXT
  5
3F8
330
3FA
100
AcDbEntity
  8
0
  6
ByBlock
 62
     0
370
    -2
380
     1
100
AcDbMText
 10
33.63001191000001
 20
85.68493669314722
 30
0.0
 40
2.5
 41
0.0
 71
     5
 72
     1
  1
\A1;21,78
 73
     1
 44
1.0
  0
ENDBLK
  5
776
330
3FA
100
AcDbEntity
  8
0
100
AcDbBlockEnd
  0
BLOCK
  5
777
330
405
100
AcDbEntity
  8
0
100
AcDbBlockBegin
  2
*D139
 70
     1
 10
0.0
 20
0.0
 30
0.0
  3
*D139
  1

  0
POINT
  5
3FC
330
405
100
AcDbEntity
  8
DEFPOINTS
  6
ByBlock
 62
     0
380
     1
100
AcDbPoint
 10
15.81001191
 20
72.25415604
 30
0.0
  0
POINT
  5
3FD
330
405
100
AcDbEntity
  8
DEFPOINTS
  6
ByBlock
 62
     0
380
     1
100
AcDbPoint
 10
51.45002030214616
 20
72.25416031466267
 30
0.0
  0
LINE
  5
3FE
330
405
100
AcDbEntity
  8
0
  6
ByBlock
 62
     0
370
    -2
380
     1
100
AcDbLine
 10
15.81001191
 20
72.87915604
 30
0.0
 11
15.81001191
 21
91.2945869598479
 31
0.0
  0
LINE
  5
3FF
330
405
100
AcDbEntity
  8
0
  6
ByBlock
 62
     0
370
    -2
380
     1
100
AcDbLine
 10
51.45002030214616
 20
72.87916031466267
 30
0.0
 11
51.45002030214616
 21
91.2945869598479
 31
0.0
  0
LINE
  5
400
330
405
100
AcDbEntity
  8
0
  6
ByBlock
 62
     0
370
    -2
380
     1
100
AcDbLine
 10
18.31001191
 20
90.0445869598479
 30
0.0
 11
48.95002030214616
 21
90.0445869598479
 31
0.0
  0
SOLID
  5
401
330
405
100
AcDbEntity
  8
0
  6
ByBlock
 62
     0
380
     1
100
AcDbTrace
 10
15.81001191
 20
90.0445869598479
 30
0.0
 11
18.31001191
 21
89.62792029318123
 31
0.0
 12
18.31001191
 22
90.46125362651458
 32
0.0
 13
18.31001191
 23
90.46125362651458
 33
0.0
  0
SOLID
  5
402
330
405
100
AcDbEntity
  8
0
  6
ByBlock
 62
     0
380
     1
100
AcDbTrace
 10
51.45002030214616
 20
90.0445869598479
 30
0.0
 11
48.95002030214616
 21
89.62792029318123
 31
0.0
 12
48.95002030214616
 22
90.46125362651458
 32
0.0
 13
48.95002030214616
 23
90.46125362651458
 33
0.0
  0
MTEXT
  5
403
330
405
100
AcDbEntity
  8
0
  6
ByBlock
 62
     0
370
    -2
380
     1
100
AcDbMText
 10
33.63001610607309
 20
92.12792029318123
 30
0.0
 40
2.5
 41
0.0
 71
     5
 72
     1
  1
\A1;35,64
 73
     1
 44
1.0
  0
ENDBLK
  5
778
330
405
100
AcDbEntity
  8
0
100
AcDbBlockEnd
  0
BLOCK
  5
779
330
410
100
AcDbEntity
  8
0
100
AcDbBlockBegin
  2
*D140
 70
     1
 10
0.0
 20
0.0
 30
0.0
  3
*D140
  1

  0
POINT
  5
407
330
410
100
AcDbEntity
  8
DEFPOINTS
  6
ByBlock
 62
     0
380
     1
100
AcDbPoint
 10
22.74001191
 20
74.64476547
 30
0.0
  0
POINT
  5
408
330
410
100
AcDbEntity
  8
DEFPOINTS
  6
ByBlock
 62
     0
380
     1
100
AcDbPoint
 10
44.52001191000001
 20
74.64476547
 30
0.0
  0
LINE
  5
409
330
410
100
AcDbEntity
  8
0
  6
ByBlock
 62
     0
370
    -2
380
     1
100
AcDbLine
 10
22.74001191
 20
75.26976547
 30
0.0
 11
22.74001191
 21
84.85160335981388
 31
0.0
  0
LINE
  5
40A
330
410
100
AcDbEntity
  8
0
  6
ByBlock
 62
     0
370
    -2
380
     1
100
AcDbLine
 10
44.52001191000001
 20
75.26976547
 30
0.0
 11
44.52001191000001
 21
84.85160335981388
 31
0.0
  0
LINE
  5
40B
330
410
100
AcDbEntity
  8
0
  6
ByBlock
 62
     0
370
    -2
380
     1
100
AcDbLine
 10
25.24001191
 20
83.60160335981388
 30
0.0
 11
42.02001191000001
 21
83.60160335981388
 31
0.0
  0
SOLID
  5
40C
330
410
100
AcDbEntity
  8
0
  6
ByBlock
 62
     0
380
     1
100
AcDbTrace
 10
22.74001191
 20
83.60160335981388
 30
0.0
 11
25.24001191
 21
83.18493669314721
 31
0.0
 12
25.24001191
 22
84.01827002648055
 32
0.0
 13
25.24001191
 23
84.01827002648055
 33
0.0
  0
SOLID
  5
40D
330
410
100
AcDbEntity
  8
0
  6
ByBlock
 62
     0
380
     1
100
AcDbTrace
 10
44.52001191000001
 20
83.60160335981388
 30
0.0
 11
42.02001191000001
 21
83.18493669314721
 31
0.0
 12
42.02001191000001
 22
84.01827002648055
 32
0.0
 13
42.02001191000001
 23
84.01827002648055
 33
0.0
  0
MTEXT
  5
40E
330
410
100
AcDbEntity
  8
0
  6
ByBlock
 62
     0
370
    -2
380
     1
100
AcDbMText
 10
33.63001191000001
 20
85.68493669314722
 30
0.0
 40
2.5
 41
0.0
 71
     5
 72
     1
  1
\A1;21,78
 73
     1
 44
1.0
  0
ENDBLK
  5
77A
330
410
100
AcDbEntity
  8
0
100
AcDbBlockEnd
  0
BLOCK
  5
77B
330
41D
100
AcDbEntity
  8
0
100
AcDbBlockBegin
  2
*D141
 70
     1
 10
0.0
 20
0.0
 30
0.0
  3
*D141
  1

  0
POINT
  5
412
330
41D
100
AcDbEntity
  8
DEFPOINTS
  6
ByBlock
 62
     7
380
     1
100
AcDbPoint
 10
22.74001191
 20
74.64476547
 30
0.0
  0
POINT
  5
413
330
41D
100
AcDbEntity
  8
DEFPOINTS
  6
ByBlock
 62
     7
380
     1
100
AcDbPoint
 10
44.52001191000001
 20
74.64476547
 30
0.0
  0
LINE
  5
414
330
41D
100
AcDbEntity
  8
0
  6
ByBlock
 62
     7
370
    -2
380
     1
100
AcDbLine
 10
22.74001191
 20
75.26976547
 30
0.0
 11
22.74001191
 21
84.85160335981388
 31
0.0
  0
LINE
  5
415
330
41D
100
AcDbEntity
  8
0
  6
ByBlock
 62
     7
370
    -2
380
     1
100
AcDbLine
 10
44.52001191000001
 20
75.26976547
 30
0.0
 11
44.52001191000001
 21
84.85160335981388
 31
0.0
  0
LINE
  5
416
330
41D
100
AcDbEntity
  8
0
  6
ByBlock
 62
     7
370
    -2
380
     1
100
AcDbLine
 10
12.74001191
 20
83.60160335981388
 30
0.0
 11
2.74001191
 21
83.60160335981388
 31
0.0
  0
LINE
  5
417
330
41D
100
AcDbEntity
  8
0
  6
ByBlock
 62
     7
370
    -2
380
     1
100
AcDbLine
 10
54.52001191000001
 20
83.60160335981388
 30
0.0
 11
128.1866785766667
 21
83.60160335981388
 31
0.0
  0
SOLID
  5
418
330
41D
100
AcDbEntity
  8
0
  6
ByBlock
 62
     7
380
     1
100
AcDbTrace
 10
22.74001191
 20
83.60160335981388
 30
0.0
 11
12.74001191
 21
81.93493669314721
 31
0.0
 12
12.74001191
 22
85.26827002648055
 32
0.0
 13
12.74001191
 23
85.26827002648055
 33
0.0
  0
SOLID
  5
419
330
41D
100
AcDbEntity
  8
0
  6
ByBlock
 62
     7
380
     1
100
AcDbTrace
 10
44.52001191000001
 20
83.60160335981388
 30
0.0
 11
54.52001191000001
 21
81.93493669314721
 31
0.0
 12
54.52001191000001
 22
85.26827002648055
 32
0.0
 13
54.52001191000001
 23
85.26827002648055
 33
0.0
  0
LINE
  5
41A
330
41D
100
AcDbEntity
  8
0
  6
ByBlock
 62
     7
370
    -2
380
     1
100
AcDbLine
 10
22.74001191
 20
83.60160335981388
 30
0.0
 11
44.52001191000001
 21
83.60160335981388
 31
0.0
  0
MTEXT
  5
41B
330
41D
100
AcDbEntity
  8
0
  6
ByBlock
 62
     0
370
    -2
380
     1
100
AcDbMText
 10
96.35334524333334
 20
96.76827002648054
 30
0.0
 40
14.0
 41
0.0
 71
     5
 72
     1
  1
\A1;21,78
 73
     1
 44
1.0
  0
ENDBLK
  5
77C
330
41D
100
AcDbEntity
  8
0
100
AcDbBlockEnd
  0
BLOCK
  5
77D
330
45A
100
AcDbEntity
  8
0
100
AcDbBlockBegin
  2
*D142
 70
     1
 10
0.0
 20
0.0
 30
0.0
  3
*D142
  1

  0
POINT
  5
44F
330
45A
100
AcDbEntity
  8
DEFPOINTS
  6
ByBlock
 62
     7
380
     1
100
AcDbPoint
 10
22.66107923420843
 20
73.53970800891808
 30
0.0
  0
POINT
  5
450
330
45A
100
AcDbEntity
  8
DEFPOINTS
  6
ByBlock
 62
     7
380
     1
100
AcDbPoint
 10
44.44107923420844
 20
73.53970800891808
 30
0.0
  0
LINE
  5
451
330
45A
100
AcDbEntity
  8
0
  6
ByBlock
 62
     7
370
    -2
380
     1
100
AcDbLine
 10
22.66107923420843
 20
74.16470800891808
 30
0.0
 11
22.66107923420843
 21
83.74654589873197
 31
0.0
  0
LINE
  5
452
330
45A
100
AcDbEntity
  8
0
  6
ByBlock
 62
     7
370
    -2
380
     1
100
AcDbLine
 10
44.44107923420844
 20
74.16470800891808
 30
0.0
 11
44.44107923420844
 21
83.74654589873197
 31
0.0
  0
LINE
  5
453
330
45A
100
AcDbEntity
  8
0
  6
ByBlock
 62
     7
370
    -2
380
     1
100
AcDbLine
 10
12.66107923420843
 20
82.49654589873197
 30
0.0
 11
2.661079234208433
 21
82.49654589873197
 31
0.0
  0
LINE
  5
454
330
45A
100
AcDbEntity
  8
0
  6
ByBlock
 62
     7
370
    -2
380
     1
100
AcDbLine
 10
54.44107923420844
 20
82.49654589873197
 30
0.0
 11
128.1077459008751
 21
82.49654589873197
 31
0.0
  0
SOLID
  5
455
330
45A
100
AcDbEntity
  8
0
  6
ByBlock
 62
     7
380
     1
100
AcDbTrace
 10
22.66107923420843
 20
82.49654589873197
 30
0.0
 11
12.66107923420843
 21
80.8298792320653
 31
0.0
 12
12.66107923420843
 22
84.16321256539864
 32
0.0
 13
12.66107923420843
 23
84.16321256539864
 33
0.0
  0
SOLID
  5
456
330
45A
100
AcDbEntity
  8
0
  6
ByBlock
 62
     7
380
     1
100
AcDbTrace
 10
44.44107923420844
 20
82.49654589873197
 30
0.0
 11
54.44107923420844
 21
80.8298792320653
 31
0.0
 12
54.44107923420844
 22
84.16321256539864
 32
0.0
 13
54.44107923420844
 23
84.16321256539864
 33
0.0
  0
LINE
  5
457
330
45A
100
AcDbEntity
  8
0
  6
ByBlock
 62
     7
370
    -2
380
     1
100
AcDbLine
 10
22.66107923420843
 20
82.49654589873197
 30
0.0
 11
44.44107923420844
 21
82.49654589873197
 31
0.0
  0
MTEXT
  5
458
330
45A
100
AcDbEntity
  8
0
  6
ByBlock
 62
     0
370
    -2
380
     1
100
AcDbMText
 10
96.27441256754177
 20
95.66321256539862
 30
0.0
 40
14.0
 41
0.0
 71
     5
 72
     1
  1
\A1;21,78
 73
     1
 44
1.0
  0
ENDBLK
  5
77E
330
45A
100
AcDbEntity
  8
0
100
AcDbBlockEnd
  0
BLOCK
  5
77F
330
473
100
AcDbEntity
  8
0
100
AcDbBlockBegin
  2
*D143
 70
     1
 10
0.0
 20
0.0
 30
0.0
  3
*D143
  1

  0
POINT
  5
46A
330
473
100
AcDbEntity
  8
DEFPOINTS
  6
ByBlock
 62
     0
380
     1
100
AcDbPoint
 10
22.74001191
 20
74.64476547
 30
0.0
  0
POINT
  5
46B
330
473
100
AcDbEntity
  8
DEFPOINTS
  6
ByBlock
 62
     0
380
     1
100
AcDbPoint
 10
44.52001191000001
 20
74.64476547
 30
0.0
  0
LINE
  5
46C
330
473
100
AcDbEntity
  8
0
  6
ByBlock
 62
     0
370
    -2
380
     1
100
AcDbLine
 10
22.74001191
 20
75.26976547
 30
0.0
 11
22.74001191
 21
88.16812448638042
 31
0.0
  0
LINE
  5
46D
330
473
100
AcDbEntity
  8
0
  6
ByBlock
 62
     0
370
    -2
380
     1
100
AcDbLine
 10
44.52001191000001
 20
75.26976547
 30
0.0
 11
44.52001191000001
 21
88.16812448638042
 31
0.0
  0
LINE
  5
46E
330
473
100
AcDbEntity
  8
0
  6
ByBlock
 62
     0
370
    -2
380
     1
100
AcDbLine
 10
25.24001191
 20
86.91812448638042
 30
0.0
 11
42.02001191000001
 21
86.91812448638042
 31
0.0
  0
SOLID
  5
46F
330
473
100
AcDbEntity
  8
0
  6
ByBlock
 62
     0
380
     1
100
AcDbTrace
 10
22.74001191
 20
86.91812448638042
 30
0.0
 11
25.24001191
 21
86.50145781971375
 31
0.0
 12
25.24001191
 22
87.33479115304709
 32
0.0
 13
25.24001191
 23
87.33479115304709
 33
0.0
  0
SOLID
  5
470
330
473
100
AcDbEntity
  8
0
  6
ByBlock
 62
     0
380
     1
100
AcDbTrace
 10
44.52001191000001
 20
86.91812448638042
 30
0.0
 11
42.02001191000001
 21
86.50145781971375
 31
0.0
 12
42.02001191000001
 22
87.33479115304709
 32
0.0
 13
42.02001191000001
 23
87.33479115304709
 33
0.0
  0
MTEXT
  5
471
330
473
100
AcDbEntity
  8
0
  6
ByBlock
 62
     0
370
    -2
380
     1
100
AcDbMText
 10
33.63001191000001
 20
89.00145781971375
 30
0.0
 40
2.5
 41
0.0
 71
     5
 72
     1
  1
\A1;21,78
 73
     1
 44
1.0
  0
ENDBLK
  5
780
330
473
100
AcDbEntity
  8
0
100
AcDbBlockEnd
  0
BLOCK
  5
781
330
47E
100
AcDbEntity
  8
0
100
AcDbBlockBegin
  2
*D144
 70
     1
 10
0.0
 20
0.0
 30
0.0
  3
*D144
  1

  0
POINT
  5
475
330
47E
100
AcDbEntity
  8
DEFPOINTS
  6
ByBlock
 62
     0
380
     1
100
AcDbPoint
 10
15.81001191
 20
72.25415604
 30
0.0
  0
POINT
  5
476
330
47E
100
AcDbEntity
  8
DEFPOINTS
  6
ByBlock
 62
     0
380
     1
100
AcDbPoint
 10
51.45002030214616
 20
72.25416031466267
 30
0.0
  0
LINE
  5
477
330
47E
100
AcDbEntity
  8
0
  6
ByBlock
 62
     0
370
    -2
380
     1
100
AcDbLine
 10
15.81001191
 20
72.87915604
 30
0.0
 11
15.81001191
 21
100.1604792393758
 31
0.0
  0
LINE
  5
478
330
47E
100
AcDbEntity
  8
0
  6
ByBlock
 62
     0
370
    -2
380
     1
100
AcDbLine
 10
51.45002030214616
 20
72.87916031466267
 30
0.0
 11
51.45002030214616
 21
100.1604792393758
 31
0.0
  0
LINE
  5
479
330
47E
100
AcDbEntity
  8
0
  6
ByBlock
 62
     0
370
    -2
380
     1
100
AcDbLine
 10
18.31001191
 20
98.91047923937576
 30
0.0
 11
48.95002030214616
 21
98.91047923937576
 31
0.0
  0
SOLID
  5
47A
330
47E
100
AcDbEntity
  8
0
  6
ByBlock
 62
     0
380
     1
100
AcDbTrace
 10
15.81001191
 20
98.91047923937576
 30
0.0
 11
18.31001191
 21
98.49381257270909
 31
0.0
 12
18.31001191
 22
99.32714590604243
 32
0.0
 13
18.31001191
 23
99.32714590604243
 33
0.0
  0
SOLID
  5
47B
330
47E
100
AcDbEntity
  8
0
  6
ByBlock
 62
     0
380
     1
100
AcDbTrace
 10
51.45002030214616
 20
98.91047923937576
 30
0.0
 11
48.95002030214616
 21
98.49381257270909
 31
0.0
 12
48.95002030214616
 22
99.32714590604243
 32
0.0
 13
48.95002030214616
 23
99.32714590604243
 33
0.0
  0
MTEXT
  5
47C
330
47E
100
AcDbEntity
  8
0
  6
ByBlock
 62
     0
370
    -2
380
     1
100
AcDbMText
 10
33.63001610607309
 20
100.9938125727091
 30
0.0
 40
2.5
 41
0.0
 71
     5
 72
     1
  1
\A1;35,64
 73
     1
 44
1.0
  0
ENDBLK
  5
782
330
47E
100
AcDbEntity
  8
0
100
AcDbBlockEnd
  0
BLOCK
  5
783
330
489
100
AcDbEntity
  8
0
100
AcDbBlockBegin
  2
*D145
 70
     1
 10
0.0
 20
0.0
 30
0.0
  3
*D145
  1

  0
POINT
  5
480
330
489
100
AcDbEntity
  8
DEFPOINTS
  6
ByBlock
 62
     0
380
     1
100
AcDbPoint
 10
22.74001191
 20
74.64476547
 30
0.0
  0
POINT
  5
481
330
489
100
AcDbEntity
  8
DEFPOINTS
  6
ByBlock
 62
     0
380
     1
100
AcDbPoint
 10
44.52001191000001
 20
74.64476547
 30
0.0
  0
LINE
  5
482
330
489
100
AcDbEntity
  8
0
  6
ByBlock
 62
     0
370
    -2
380
     1
100
AcDbLine
 10
22.74001191
 20
75.26976547
 30
0.0
 11
22.74001191
 21
88.16812448638042
 31
0.0
  0
LINE
  5
483
330
489
100
AcDbEntity
  8
0
  6
ByBlock
 62
     0
370
    -2
380
     1
100
AcDbLine
 10
44.52001191000001
 20
75.26976547
 30
0.0
 11
44.52001191000001
 21
88.16812448638042
 31
0.0
  0
LINE
  5
484
330
489
100
AcDbEntity
  8
0
  6
ByBlock
 62
     0
370
    -2
380
     1
100
AcDbLine
 10
25.24001191
 20
86.91812448638042
 30
0.0
 11
42.02001191000001
 21
86.91812448638042
 31
0.0
  0
SOLID
  5
485
330
489
100
AcDbEntity
  8
0
  6
ByBlock
 62
     0
380
     1
100
AcDbTrace
 10
22.74001191
 20
86.91812448638042
 30
0.0
 11
25.24001191
 21
86.50145781971375
 31
0.0
 12
25.24001191
 22
87.33479115304709
 32
0.0
 13
25.24001191
 23
87.33479115304709
 33
0.0
  0
SOLID
  5
486
330
489
100
AcDbEntity
  8
0
  6
ByBlock
 62
     0
380
     1
100
AcDbTrace
 10
44.52001191000001
 20
86.91812448638042
 30
0.0
 11
42.02001191000001
 21
86.50145781971375
 31
0.0
 12
42.02001191000001
 22
87.33479115304709
 32
0.0
 13
42.02001191000001
 23
87.33479115304709
 33
0.0
  0
MTEXT
  5
487
330
489
100
AcDbEntity
  8
0
  6
ByBlock
 62
     0
370
    -2
380
     1
100
AcDbMText
 10
33.63001191000001
 20
89.00145781971375
 30
0.0
 40
2.5
 41
0.0
 71
     5
 72
     1
  1
\A1;21,78
 73
     1
 44
1.0
  0
ENDBLK
  5
784
330
489
100
AcDbEntity
  8
0
100
AcDbBlockEnd
  0
BLOCK
  5
785
330
494
100
AcDbEntity
  8
0
100
AcDbBlockBegin
  2
*D146
 70
     1
 10
0.0
 20
0.0
 30
0.0
  3
*D146
  1

  0
POINT
  5
48B
330
494
100
AcDbEntity
  8
DEFPOINTS
  6
ByBlock
 62
     0
380
     1
100
AcDbPoint
 10
22.74001191
 20
74.64476547
 30
0.0
  0
POINT
  5
48C
330
494
100
AcDbEntity
  8
DEFPOINTS
  6
ByBlock
 62
     0
380
     1
100
AcDbPoint
 10
44.52001191000001
 20
74.64476547
 30
0.0
  0
LINE
  5
48D
330
494
100
AcDbEntity
  8
0
  6
ByBlock
 62
     0
370
    -2
380
     1
100
AcDbLine
 10
22.74001191
 20
75.26976547
 30
0.0
 11
22.74001191
 21
88.16812448638042
 31
0.0
  0
LINE
  5
48E
330
494
100
AcDbEntity
  8
0
  6
ByBlock
 62
     0
370
    -2
380
     1
100
AcDbLine
 10
44.52001191000001
 20
75.26976547
 30
0.0
 11
44.52001191000001
 21
88.16812448638042
 31
0.0
  0
LINE
  5
48F
330
494
100
AcDbEntity
  8
0
  6
ByBlock
 62
     0
370
    -2
380
     1
100
AcDbLine
 10
25.24001191
 20
86.91812448638042
 30
0.0
 11
42.02001191000001
 21
86.91812448638042
 31
0.0
  0
SOLID
  5
490
330
494
100
AcDbEntity
  8
0
  6
ByBlock
 62
     0
380
     1
100
AcDbTrace
 10
22.74001191
 20
86.91812448638042
 30
0.0
 11
25.24001191
 21
86.50145781971375
 31
0.0
 12
25.24001191
 22
87.33479115304709
 32
0.0
 13
25.24001191
 23
87.33479115304709
 33
0.0
  0
SOLID
  5
491
330
494
100
AcDbEntity
  8
0
  6
ByBlock
 62
     0
380
     1
100
AcDbTrace
 10
44.52001191000001
 20
86.91812448638042
 30
0.0
 11
42.02001191000001
 21
86.50145781971375
 31
0.0
 12
42.02001191000001
 22
87.33479115304709
 32
0.0
 13
42.02001191000001
 23
87.33479115304709
 33
0.0
  0
MTEXT
  5
492
330
494
100
AcDbEntity
  8
0
  6
ByBlock
 62
     0
370
    -2
380
     1
100
AcDbMText
 10
33.63001191000001
 20
89.00145781971375
 30
0.0
 40
2.5
 41
0.0
 71
     5
 72
     1
  1
\A1;21,78
 73
     1
 44
1.0
  0
ENDBLK
  5
786
330
494
100
AcDbEntity
  8
0
100
AcDbBlockEnd
  0
BLOCK
  5
787
330
49F
100
AcDbEntity
  8
0
100
AcDbBlockBegin
  2
*D147
 70
     1
 10
0.0
 20
0.0
 30
0.0
  3
*D147
  1

  0
POINT
  5
496
330
49F
100
AcDbEntity
  8
DEFPOINTS
  6
ByBlock
 62
     0
380
     1
100
AcDbPoint
 10
15.81001191
 20
72.25415604
 30
0.0
  0
POINT
  5
497
330
49F
100
AcDbEntity
  8
DEFPOINTS
  6
ByBlock
 62
     0
380
     1
100
AcDbPoint
 10
51.45002030214616
 20
72.25416031466267
 30
0.0
  0
LINE
  5
498
330
49F
100
AcDbEntity
  8
0
  6
ByBlock
 62
     0
370
    -2
380
     1
100
AcDbLine
 10
15.81001191
 20
72.87915604
 30
0.0
 11
15.81001191
 21
100.1604792393758
 31
0.0
  0
LINE
  5
499
330
49F
100
AcDbEntity
  8
0
  6
ByBlock
 62
     0
370
    -2
380
     1
100
AcDbLine
 10
51.45002030214616
 20
72.87916031466267
 30
0.0
 11
51.45002030214616
 21
100.1604792393758
 31
0.0
  0
LINE
  5
49A
330
49F
100
AcDbEntity
  8
0
  6
ByBlock
 62
     0
370
    -2
380
     1
100
AcDbLine
 10
18.31001191
 20
98.91047923937576
 30
0.0
 11
48.95002030214616
 21
98.91047923937576
 31
0.0
  0
SOLID
  5
49B
330
49F
100
AcDbEntity
  8
0
  6
ByBlock
 62
     0
380
     1
100
AcDbTrace
 10
15.81001191
 20
98.91047923937576
 30
0.0
 11
18.31001191
 21
98.49381257270909
 31
0.0
 12
18.31001191
 22
99.32714590604243
 32
0.0
 13
18.31001191
 23
99.32714590604243
 33
0.0
  0
SOLID
  5
49C
330
49F
100
AcDbEntity
  8
0
  6
ByBlock
 62
     0
380
     1
100
AcDbTrace
 10
51.45002030214616
 20
98.91047923937576
 30
0.0
 11
48.95002030214616
 21
98.49381257270909
 31
0.0
 12
48.95002030214616
 22
99.32714590604243
 32
0.0
 13
48.95002030214616
 23
99.32714590604243
 33
0.0
  0
MTEXT
  5
49D
330
49F
100
AcDbEntity
  8
0
  6
ByBlock
 62
     0
370
    -2
380
     1
100
AcDbMText
 10
33.63001610607309
 20
100.9938125727091
 30
0.0
 40
2.5
 41
0.0
 71
     5
 72
     1
  1
\A1;35,64
 73
     1
 44
1.0
  0
ENDBLK
  5
788
330
49F
100
AcDbEntity
  8
0
100
AcDbBlockEnd
  0
BLOCK
  5
789
330
4AB
100
AcDbEntity
  8
0
100
AcDbBlockBegin
  2
*D148
 70
     1
 10
0.0
 20
0.0
 30
0.0
  3
*D148
  1

  0
POINT
  5
4A1
330
4AB
100
AcDbEntity
  8
DEFPOINTS
  6
ByBlock
 62
     7
380
     1
100
AcDbPoint
 10
22.74001191
 20
74.64476547
 30
0.0
  0
POINT
  5
4A2
330
4AB
100
AcDbEntity
  8
DEFPOINTS
  6
ByBlock
 62
     7
380
     1
100
AcDbPoint
 10
44.52001191000001
 20
74.64476547
 30
0.0
  0
LINE
  5
4A3
330
4AB
100
AcDbEntity
  8
0
  6
ByBlock
 62
     7
370
    -2
380
     1
100
AcDbLine
 10
22.74001191
 20
75.26976547
 30
0.0
 11
22.74001191
 21
88.16812448638042
 31
0.0
  0
LINE
  5
4A4
330
4AB
100
AcDbEntity
  8
0
  6
ByBlock
 62
     7
370
    -2
380
     1
100
AcDbLine
 10
44.52001191000001
 20
75.26976547
 30
0.0
 11
44.52001191000001
 21
88.16812448638042
 31
0.0
  0
LINE
  5
4A5
330
4AB
100
AcDbEntity
  8
0
  6
ByBlock
 62
     7
370
    -2
380
     1
100
AcDbLine
 10
27.74001191
 20
86.91812448638042
 30
0.0
 11
39.52001191000001
 21
86.91812448638042
 31
0.0
  0
LINE
  5
4A6
330
4AB
100
AcDbEntity
  8
0
  6
ByBlock
 62
     7
370
    -2
380
     1
100
AcDbLine
 10
44.52001191000001
 20
86.91812448638042
 30
0.0
 11
81.35334524333334
 21
86.91812448638042
 31
0.0
  0
SOLID
  5
4A7
330
4AB
100
AcDbEntity
  8
0
  6
ByBlock
 62
     7
380
     1
100
AcDbTrace
 10
22.74001191
 20
86.91812448638042
 30
0.0
 11
27.74001191
 21
86.08479115304709
 31
0.0
 12
27.74001191
 22
87.75145781971375
 32
0.0
 13
27.74001191
 23
87.75145781971375
 33
0.0
  0
SOLID
  5
4A8
330
4AB
100
AcDbEntity
  8
0
  6
ByBlock
 62
     7
380
     1
100
AcDbTrace
 10
44.52001191000001
 20
86.91812448638042
 30
0.0
 11
39.52001191000001
 21
86.08479115304709
 31
0.0
 12
39.52001191000001
 22
87.75145781971375
 32
0.0
 13
39.52001191000001
 23
87.75145781971375
 33
0.0
  0
MTEXT
  5
4A9
330
4AB
100
AcDbEntity
  8
0
  6
ByBlock
 62
     0
370
    -2
380
     1
100
AcDbMText
 10
65.43667857666668
 20
93.50145781971375
 30
0.0
 40
7.0
 41
0.0
 71
     5
 72
     1
  1
\A1;21,78
 73
     1
 44
1.0
  0
ENDBLK
  5
78A
330
4AB
100
AcDbEntity
  8
0
100
AcDbBlockEnd
  0
BLOCK
  5
78B
330
4B7
100
AcDbEntity
  8
0
100
AcDbBlockBegin
  2
*D149
 70
     1
 10
0.0
 20
0.0
 30
0.0
  3
*D149
  1

  0
POINT
  5
4AD
330
4B7
100
AcDbEntity
  8
DEFPOINTS
  6
ByBlock
 62
     7
380
     1
100
AcDbPoint
 10
15.81001191
 20
72.25415604
 30
0.0
  0
POINT
  5
4AE
330
4B7
100
AcDbEntity
  8
DEFPOINTS
  6
ByBlock
 62
     7
380
     1
100
AcDbPoint
 10
51.45002030214616
 20
72.25416031466267
 30
0.0
  0
LINE
  5
4AF
330
4B7
100
AcDbEntity
  8
0
  6
ByBlock
 62
     7
370
    -2
380
     1
100
AcDbLine
 10
15.81001191
 20
72.87915604
 30
0.0
 11
15.81001191
 21
100.1604792393758
 31
0.0
  0
LINE
  5
4B0
330
4B7
100
AcDbEntity
  8
0
  6
ByBlock
 62
     7
370
    -2
380
     1
100
AcDbLine
 10
51.45002030214616
 20
72.87916031466267
 30
0.0
 11
51.45002030214616
 21
100.1604792393758
 31
0.0
  0
LINE
  5
4B1
330
4B7
100
AcDbEntity
  8
0
  6
ByBlock
 62
     7
370
    -2
380
     1
100
AcDbLine
 10
10.81001191
 20
98.91047923937576
 30
0.0
 11
5.81001191
 21
98.91047923937576
 31
0.0
  0
LINE
  5
4B2
330
4B7
100
AcDbEntity
  8
0
  6
ByBlock
 62
     7
370
    -2
380
     1
100
AcDbLine
 10
56.45002030214616
 20
98.91047923937576
 30
0.0
 11
61.45002030214616
 21
98.91047923937576
 31
0.0
  0
SOLID
  5
4B3
330
4B7
100
AcDbEntity
  8
0
  6
ByBlock
 62
     7
380
     1
100
AcDbTrace
 10
15.81001191
 20
98.91047923937576
 30
0.0
 11
10.81001191
 21
98.07714590604243
 31
0.0
 12
10.81001191
 22
99.74381257270909
 32
0.0
 13
10.81001191
 23
99.74381257270909
 33
0.0
  0
SOLID
  5
4B4
330
4B7
100
AcDbEntity
  8
0
  6
ByBlock
 62
     7
380
     1
100
AcDbTrace
 10
51.45002030214616
 20
98.91047923937576
 30
0.0
 11
56.45002030214616
 21
98.07714590604243
 31
0.0
 12
56.45002030214616
 22
99.74381257270909
 32
0.0
 13
56.45002030214616
 23
99.74381257270909
 33
0.0
  0
MTEXT
  5
4B5
330
4B7
100
AcDbEntity
  8
0
  6
ByBlock
 62
     0
370
    -2
380
     1
100
AcDbMText
 10
33.63001610607309
 20
105.4938125727091
 30
0.0
 40
7.0
 41
0.0
 71
     5
 72
     1
  1
\A1;35,64
 73
     1
 44
1.0
  0
ENDBLK
  5
78C
330
4B7
100
AcDbEntity
  8
0
100
AcDbBlockEnd
  0
BLOCK
  5
78D
330
4C4
100
AcDbEntity
  8
0
100
AcDbBlockBegin
  2
*D150
 70
     1
 10
0.0
 20
0.0
 30
0.0
  3
*D150
  1

  0
POINT
  5
4B9
330
4C4
100
AcDbEntity
  8
DEFPOINTS
  6
ByBlock
 62
     7
380
     1
100
AcDbPoint
 10
15.81001191
 20
72.25415604
 30
0.0
  0
POINT
  5
4BA
330
4C4
100
AcDbEntity
  8
DEFPOINTS
  6
ByBlock
 62
     7
380
     1
100
AcDbPoint
 10
51.45002030214616
 20
72.25416031466267
 30
0.0
  0
LINE
  5
4BB
330
4C4
100
AcDbEntity
  8
0
  6
ByBlock
 62
     7
370
    -2
380
     1
100
AcDbLine
 10
15.81001191
 20
72.87915604
 30
0.0
 11
15.81001191
 21
106.7438125727091
 31
0.0
  0
LINE
  5
4BC
330
4C4
100
AcDbEntity
  8
0
  6
ByBlock
 62
     7
370
    -2
380
     1
100
AcDbLine
 10
51.45002030214616
 20
72.87916031466267
 30
0.0
 11
51.45002030214616
 21
106.7438125727091
 31
0.0
  0
LINE
  5
4BD
330
4C4
100
AcDbEntity
  8
0
  6
ByBlock
 62
     7
370
    -2
380
     1
100
AcDbLine
 10
56.45002030214616
 20
105.4938125727091
 30
0.0
 11
61.45002030214616
 21
105.4938125727091
 31
0.0
  0
LINE
  5
4BE
330
4C4
100
AcDbEntity
  8
0
  6
ByBlock
 62
     7
370
    -2
380
     1
100
AcDbLine
 10
10.81001191
 20
105.4938125727091
 30
0.0
 11
-23.35665475666667
 21
105.4938125727091
 31
0.0
  0
SOLID
  5
4BF
330
4C4
100
AcDbEntity
  8
0
  6
ByBlock
 62
     7
380
     1
100
AcDbTrace
 10
15.81001191
 20
105.4938125727091
 30
0.0
 11
10.81001191
 21
104.6604792393757
 31
0.0
 12
10.81001191
 22
106.3271459060424
 32
0.0
 13
10.81001191
 23
106.3271459060424
 33
0.0
  0
SOLID
  5
4C0
330
4C4
100
AcDbEntity
  8
0
  6
ByBlock
 62
     7
380
     1
100
AcDbTrace
 10
51.45002030214616
 20
105.4938125727091
 30
0.0
 11
56.45002030214616
 21
104.6604792393757
 31
0.0
 12
56.45002030214616
 22
106.3271459060424
 32
0.0
 13
56.45002030214616
 23
106.3271459060424
 33
0.0
  0
LINE
  5
4C1
330
4C4
100
AcDbEntity
  8
0
  6
ByBlock
 62
     7
370
    -2
380
     1
100
AcDbLine
 10
15.81001191
 20
105.4938125727091
 30
0.0
 11
51.45002030214616
 21
105.4938125727091
 31
0.0
  0
MTEXT
  5
4C2
330
4C4
100
AcDbEntity
  8
0
  6
ByBlock
 62
     0
370
    -2
380
     1
100
AcDbMText
 10
-6.273321423333336
 20
112.0771459060424
 30
0.0
 40
7.0
 41
0.0
 71
     5
 72
     1
  1
\A1;35,64
 73
     1
 44
1.0
  0
ENDBLK
  5
78E
330
4C4
100
AcDbEntity
  8
0
100
AcDbBlockEnd
  0
BLOCK
  5
78F
330
4D0
100
AcDbEntity
  8
0
100
AcDbBlockBegin
  2
*D151
 70
     1
 10
0.0
 20
0.0
 30
0.0
  3
*D151
  1

  0
POINT
  5
4C6
330
4D0
100
AcDbEntity
  8
DEFPOINTS
  6
ByBlock
 62
     7
380
     1
100
AcDbPoint
 10
22.74001191
 20
74.64476547
 30
0.0
  0
POINT
  5
4C7
330
4D0
100
AcDbEntity
  8
DEFPOINTS
  6
ByBlock
 62
     7
380
     1
100
AcDbPoint
 10
44.52001191000001
 20
74.64476547
 30
0.0
  0
LINE
  5
4C8
330
4D0
100
AcDbEntity
  8
0
  6
ByBlock
 62
     7
370
    -2
380
     1
100
AcDbLine
 10
22.74001191
 20
75.26976547
 30
0.0
 11
22.74001191
 21
88.16812448638042
 31
0.0
  0
LINE
  5
4C9
330
4D0
100
AcDbEntity
  8
0
  6
ByBlock
 62
     7
370
    -2
380
     1
100
AcDbLine
 10
44.52001191000001
 20
75.26976547
 30
0.0
 11
44.52001191000001
 21
88.16812448638042
 31
0.0
  0
LINE
  5
4CA
330
4D0
100
AcDbEntity
  8
0
  6
ByBlock
 62
     7
370
    -2
380
     1
100
AcDbLine
 10
27.74001191
 20
86.91812448638042
 30
0.0
 11
39.52001191000001
 21
86.91812448638042
 31
0.0
  0
LINE
  5
4CB
330
4D0
100
AcDbEntity
  8
0
  6
ByBlock
 62
     7
370
    -2
380
     1
100
AcDbLine
 10
44.52001191000001
 20
86.91812448638042
 30
0.0
 11
97.27001191
 21
86.91812448638042
 31
0.0
  0
SOLID
  5
4CC
330
4D0
100
AcDbEntity
  8
0
  6
ByBlock
 62
     7
380
     1
100
AcDbTrace
 10
22.74001191
 20
86.91812448638042
 30
0.0
 11
27.74001191
 21
86.08479115304709
 31
0.0
 12
27.74001191
 22
87.75145781971375
 32
0.0
 13
27.74001191
 23
87.75145781971375
 33
0.0
  0
SOLID
  5
4CD
330
4D0
100
AcDbEntity
  8
0
  6
ByBlock
 62
     7
380
     1
100
AcDbTrace
 10
44.52001191000001
 20
86.91812448638042
 30
0.0
 11
39.52001191000001
 21
86.08479115304709
 31
0.0
 12
39.52001191000001
 22
87.75145781971375
 32
0.0
 13
39.52001191000001
 23
87.75145781971375
 33
0.0
  0
MTEXT
  5
4CE
330
4D0
100
AcDbEntity
  8
0
  6
ByBlock
 62
     0
370
    -2
380
     1
100
AcDbMText
 10
81.35334524333334
 20
93.50145781971375
 30
0.0
 40
7.0
 41
0.0
 71
     5
 72
     1
  1
\A1;21,78
 73
     1
 44
1.0
  0
ENDBLK
  5
790
330
4D0
100
AcDbEntity
  8
0
100
AcDbBlockEnd
  0
BLOCK
  5
791
330
4DC
100
AcDbEntity
  8
0
100
AcDbBlockBegin
  2
*D152
 70
     1
 10
0.0
 20
0.0
 30
0.0
  3
*D152
  1

  0
POINT
  5
4D2
330
4DC
100
AcDbEntity
  8
DEFPOINTS
  6
ByBlock
 62
     7
380
     1
100
AcDbPoint
 10
22.74001191
 20
74.64476547
 30
0.0
  0
POINT
  5
4D3
330
4DC
100
AcDbEntity
  8
DEFPOINTS
  6
ByBlock
 62
     7
380
     1
100
AcDbPoint
 10
44.52001191000001
 20
74.64476547
 30
0.0
  0
LINE
  5
4D4
330
4DC
100
AcDbEntity
  8
0
  6
ByBlock
 62
     7
370
    -2
380
     1
100
AcDbLine
 10
22.74001191
 20
75.26976547
 30
0.0
 11
22.74001191
 21
88.16812448638042
 31
0.0
  0
LINE
  5
4D5
330
4DC
100
AcDbEntity
  8
0
  6
ByBlock
 62
     7
370
    -2
380
     1
100
AcDbLine
 10
44.52001191000001
 20
75.26976547
 30
0.0
 11
44.52001191000001
 21
88.16812448638042
 31
0.0
  0
LINE
  5
4D6
330
4DC
100
AcDbEntity
  8
0
  6
ByBlock
 62
     7
370
    -2
380
     1
100
AcDbLine
 10
27.74001191
 20
86.91812448638042
 30
0.0
 11
39.52001191000001
 21
86.91812448638042
 31
0.0
  0
LINE
  5
4D7
330
4DC
100
AcDbEntity
  8
0
  6
ByBlock
 62
     7
370
    -2
380
     1
100
AcDbLine
 10
44.52001191000001
 20
86.91812448638042
 30
0.0
 11
91.98702483338963
 21
86.91812448638042
 31
0.0
  0
SOLID
  5
4D8
330
4DC
100
AcDbEntity
  8
0
  6
ByBlock
 62
     7
380
     1
100
AcDbTrace
 10
22.74001191
 20
86.91812448638042
 30
0.0
 11
27.74001191
 21
86.08479115304709
 31
0.0
 12
27.74001191
 22
87.75145781971375
 32
0.0
 13
27.74001191
 23
87.75145781971375
 33
0.0
  0
SOLID
  5
4D9
330
4DC
100
AcDbEntity
  8
0
  6
ByBlock
 62
     7
380
     1
100
AcDbTrace
 10
44.52001191000001
 20
86.91812448638042
 30
0.0
 11
39.52001191000001
 21
86.08479115304709
 31
0.0
 12
39.52001191000001
 22
87.75145781971375
 32
0.0
 13
39.52001191000001
 23
87.75145781971375
 33
0.0
  0
MTEXT
  5
4DA
330
4DC
100
AcDbEntity
  8
0
  6
ByBlock
 62
     0
370
    -2
380
     1
100
AcDbMText
 10
76.07035816672297
 20
93.50145781971375
 30
0.0
 40
7.0
 41
0.0
 71
     5
 72
     1
  1
\A1;21,78
 73
     1
 44
1.0
  0
ENDBLK
  5
792
330
4DC
100
AcDbEntity
  8
0
100
AcDbBlockEnd
  0
BLOCK
  5
793
330
4E8
100
AcDbEntity
  8
0
100
AcDbBlockBegin
  2
*D153
 70
     1
 10
0.0
 20
0.0
 30
0.0
  3
*D153
  1

  0
POINT
  5
4DE
330
4E8
100
AcDbEntity
  8
DEFPOINTS
  6
ByBlock
 62
     7
380
     1
100
AcDbPoint
 10
22.74001191
 20
74.64476547
 30
0.0
  0
POINT
  5
4DF
330
4E8
100
AcDbEntity
  8
DEFPOINTS
  6
ByBlock
 62
     7
380
     1
100
AcDbPoint
 10
44.52001191000001
 20
74.64476547
 30
0.0
  0
LINE
  5
4E0
330
4E8
100
AcDbEntity
  8
0
  6
ByBlock
 62
     7
370
    -2
380
     1
100
AcDbLine
 10
22.74001191
 20
75.26976547
 30
0.0
 11
22.74001191
 21
88.16812448638042
 31
0.0
  0
LINE
  5
4E1
330
4E8
100
AcDbEntity
  8
0
  6
ByBlock
 62
     7
370
    -2
380
     1
100
AcDbLine
 10
44.52001191000001
 20
75.26976547
 30
0.0
 11
44.52001191000001
 21
88.16812448638042
 31
0.0
  0
LINE
  5
4E2
330
4E8
100
AcDbEntity
  8
0
  6
ByBlock
 62
     7
370
    -2
380
     1
100
AcDbLine
 10
27.74001191
 20
86.91812448638042
 30
0.0
 11
39.52001191000001
 21
86.91812448638042
 31
0.0
  0
LINE
  5
4E3
330
4E8
100
AcDbEntity
  8
0
  6
ByBlock
 62
     7
370
    -2
380
     1
100
AcDbLine
 10
44.52001191000001
 20
86.91812448638042
 30
0.0
 11
88.40543555922477
 21
86.91812448638042
 31
0.0
  0
SOLID
  5
4E4
330
4E8
100
AcDbEntity
  8
0
  6
ByBlock
 62
     7
380
     1
100
AcDbTrace
 10
22.74001191
 20
86.91812448638042
 30
0.0
 11
27.74001191
 21
86.08479115304709
 31
0.0
 12
27.74001191
 22
87.75145781971375
 32
0.0
 13
27.74001191
 23
87.75145781971375
 33
0.0
  0
SOLID
  5
4E5
330
4E8
100
AcDbEntity
  8
0
  6
ByBlock
 62
     7
380
     1
100
AcDbTrace
 10
44.52001191000001
 20
86.91812448638042
 30
0.0
 11
39.52001191000001
 21
86.08479115304709
 31
0.0
 12
39.52001191000001
 22
87.75145781971375
 32
0.0
 13
39.52001191000001
 23
87.75145781971375
 33
0.0
  0
MTEXT
  5
4E6
330
4E8
100
AcDbEntity
  8
0
  6
ByBlock
 62
     0
370
    -2
380
     1
100
AcDbMText
 10
72.4887688925581
 20
93.50145781971375
 30
0.0
 40
7.0
 41
0.0
 71
     5
 72
     1
  1
\A1;21,78
 73
     1
 44
1.0
  0
ENDBLK
  5
794
330
4E8
100
AcDbEntity
  8
0
100
AcDbBlockEnd
  0
BLOCK
  5
795
330
636
100
AcDbEntity
  8
0
100
AcDbBlockBegin
  2
*D154
 70
     1
 10
0.0
 20
0.0
 30
0.0
  3
*D154
  1

  0
POINT
  5
62C
330
636
100
AcDbEntity
  8
DEFPOINTS
  6
ByBlock
 62
     7
380
     1
100
AcDbPoint
 10
15.81001191
 20
72.25415604
 30
0.0
  0
POINT
  5
62D
330
636
100
AcDbEntity
  8
DEFPOINTS
  6
ByBlock
 62
     7
380
     1
100
AcDbPoint
 10
51.45002030214616
 20
72.25416031466267
 30
0.0
  0
LINE
  5
62E
330
636
100
AcDbEntity
  8
0
  6
ByBlock
 62
     7
370
    -2
380
     1
100
AcDbLine
 10
15.81001191
 20
72.87915604
 30
0.0
 11
15.81001191
 21
106.7438125727091
 31
0.0
  0
LINE
  5
62F
330
636
100
AcDbEntity
  8
0
  6
ByBlock
 62
     7
370
    -2
380
     1
100
AcDbLine
 10
51.45002030214616
 20
72.87916031466267
 30
0.0
 11
51.45002030214616
 21
106.7438125727091
 31
0.0
  0
LINE
  5
630
330
636
100
AcDbEntity
  8
0
  6
ByBlock
 62
     7
370
    -2
380
     1
100
AcDbLine
 10
20.81001191
 20
105.4938125727091
 30
0.0
 11
46.45002030214616
 21
105.4938125727091
 31
0.0
  0
LINE
  5
631
330
636
100
AcDbEntity
  8
0
  6
ByBlock
 62
     7
370
    -2
380
     1
100
AcDbLine
 10
15.81001191
 20
105.4938125727091
 30
0.0
 11
-14.60665475666667
 21
105.4938125727091
 31
0.0
  0
SOLID
  5
632
330
636
100
AcDbEntity
  8
0
  6
ByBlock
 62
     7
380
     1
100
AcDbTrace
 10
15.81001191
 20
105.4938125727091
 30
0.0
 11
20.81001191
 21
104.6604792393758
 31
0.0
 12
20.81001191
 22
106.3271459060424
 32
0.0
 13
20.81001191
 23
106.3271459060424
 33
0.0
  0
SOLID
  5
633
330
636
100
AcDbEntity
  8
0
  6
ByBlock
 62
     7
380
     1
100
AcDbTrace
 10
51.45002030214616
 20
105.4938125727091
 30
0.0
 11
46.45002030214616
 21
104.6604792393758
 31
0.0
 12
46.45002030214616
 22
106.3271459060424
 32
0.0
 13
46.45002030214616
 23
106.3271459060424
 33
0.0
  0
MTEXT
  5
634
330
636
100
AcDbEntity
  8
0
  6
ByBlock
 62
     0
370
    -2
380
     1
100
AcDbMText
 10
-6.273321423333336
 20
111.4938125727091
 30
0.0
 40
7.0
 41
0.0
 71
     5
 72
     1
  1
36
 73
     1
 44
1.0
  0
ENDBLK
  5
796
330
636
100
AcDbEntity
  8
0
100
AcDbBlockEnd
  0
BLOCK
  5
797
330
642
100
AcDbEntity
  8
0
100
AcDbBlockBegin
  2
*D155
 70
     1
 10
0.0
 20
0.0
 30
0.0
  3
*D155
  1

  0
POINT
  5
638
330
642
100
AcDbEntity
  8
DEFPOINTS
  6
ByBlock
 62
     7
380
     1
100
AcDbPoint
 10
15.81001191
 20
72.25415604
 30
0.0
  0
POINT
  5
639
330
642
100
AcDbEntity
  8
DEFPOINTS
  6
ByBlock
 62
     7
380
     1
100
AcDbPoint
 10
51.45002030214616
 20
72.25416031466267
 30
0.0
  0
LINE
  5
63A
330
642
100
AcDbEntity
  8
0
  6
ByBlock
 62
     7
370
    -2
380
     1
100
AcDbLine
 10
15.81001191
 20
72.87915604
 30
0.0
 11
15.81001191
 21
106.7438125727091
 31
0.0
  0
LINE
  5
63B
330
642
100
AcDbEntity
  8
0
  6
ByBlock
 62
     7
370
    -2
380
     1
100
AcDbLine
 10
51.45002030214616
 20
72.87916031466267
 30
0.0
 11
51.45002030214616
 21
106.7438125727091
 31
0.0
  0
LINE
  5
63C
330
642
100
AcDbEntity
  8
0
  6
ByBlock
 62
     7
370
    -2
380
     1
100
AcDbLine
 10
20.81001191
 20
105.4938125727091
 30
0.0
 11
46.45002030214616
 21
105.4938125727091
 31
0.0
  0
LINE
  5
63D
330
642
100
AcDbEntity
  8
0
  6
ByBlock
 62
     7
370
    -2
380
     1
100
AcDbLine
 10
15.81001191
 20
105.4938125727091
 30
0.0
 11
-7.731654756666668
 21
105.4938125727091
 31
0.0
  0
SOLID
  5
63E
330
642
100
AcDbEntity
  8
0
  6
ByBlock
 62
     7
380
     1
100
AcDbTrace
 10
15.81001191
 20
105.4938125727091
 30
0.0
 11
20.81001191
 21
104.6604792393758
 31
0.0
 12
20.81001191
 22
106.3271459060424
 32
0.0
 13
20.81001191
 23
106.3271459060424
 33
0.0
  0
SOLID
  5
63F
330
642
100
AcDbEntity
  8
0
  6
ByBlock
 62
     7
380
     1
100
AcDbTrace
 10
51.45002030214616
 20
105.4938125727091
 30
0.0
 11
46.45002030214616
 21
104.6604792393758
 31
0.0
 12
46.45002030214616
 22
106.3271459060424
 32
0.0
 13
46.45002030214616
 23
106.3271459060424
 33
0.0
  0
MTEXT
  5
640
330
642
100
AcDbEntity
  8
0
  6
ByBlock
 62
     0
370
    -2
380
     1
100
AcDbMText
 10
0.6016785766666661
 20
111.4938125727091
 30
0.0
 40
7.0
 41
0.0
 71
     5
 72
     1
  1
36
 73
     1
 44
1.0
  0
ENDBLK
  5
798
330
642
100
AcDbEntity
  8
0
100
AcDbBlockEnd
  0
BLOCK
  5
799
330
64F
100
AcDbEntity
  8
0
100
AcDbBlockBegin
  2
*D156
 70
     1
 10
0.0
 20
0.0
 30
0.0
  3
*D156
  1

  0
POINT
  5
644
330
64F
100
AcDbEntity
  8
DEFPOINTS
  6
ByBlock
 62
     7
380
     1
100
AcDbPoint
 10
22.74001191
 20
74.64476547
 30
0.0
  0
POINT
  5
645
330
64F
100
AcDbEntity
  8
DEFPOINTS
  6
ByBlock
 62
     7
380
     1
100
AcDbPoint
 10
44.52001191000001
 20
74.64476547
 30
0.0
  0
LINE
  5
646
330
64F
100
AcDbEntity
  8
0
  6
ByBlock
 62
     7
370
    -2
380
     1
100
AcDbLine
 10
22.74001191
 20
75.26976547
 30
0.0
 11
22.74001191
 21
88.16812448638042
 31
0.0
  0
LINE
  5
647
330
64F
100
AcDbEntity
  8
0
  6
ByBlock
 62
     7
370
    -2
380
     1
100
AcDbLine
 10
44.52001191000001
 20
75.26976547
 30
0.0
 11
44.52001191000001
 21
88.16812448638042
 31
0.0
  0
LINE
  5
648
330
64F
100
AcDbEntity
  8
0
  6
ByBlock
 62
     7
370
    -2
380
     1
100
AcDbLine
 10
17.74001191
 20
86.91812448638042
 30
0.0
 11
12.74001191
 21
86.91812448638042
 31
0.0
  0
LINE
  5
649
330
64F
100
AcDbEntity
  8
0
  6
ByBlock
 62
     7
370
    -2
380
     1
100
AcDbLine
 10
49.52001191000001
 20
86.91812448638042
 30
0.0
 11
80.82210222589143
 21
86.91812448638042
 31
0.0
  0
SOLID
  5
64A
330
64F
100
AcDbEntity
  8
0
  6
ByBlock
 62
     7
380
     1
100
AcDbTrace
 10
22.74001191
 20
86.91812448638042
 30
0.0
 11
17.74001191
 21
86.08479115304709
 31
0.0
 12
17.74001191
 22
87.75145781971375
 32
0.0
 13
17.74001191
 23
87.75145781971375
 33
0.0
  0
SOLID
  5
64B
330
64F
100
AcDbEntity
  8
0
  6
ByBlock
 62
     7
380
     1
100
AcDbTrace
 10
44.52001191000001
 20
86.91812448638042
 30
0.0
 11
49.52001191000001
 21
86.08479115304709
 31
0.0
 12
49.52001191000001
 22
87.75145781971375
 32
0.0
 13
49.52001191000001
 23
87.75145781971375
 33
0.0
  0
LINE
  5
64C
330
64F
100
AcDbEntity
  8
0
  6
ByBlock
 62
     7
370
    -2
380
     1
100
AcDbLine
 10
22.74001191
 20
86.91812448638042
 30
0.0
 11
44.52001191000001
 21
86.91812448638042
 31
0.0
  0
MTEXT
  5
64D
330
64F
100
AcDbEntity
  8
0
  6
ByBlock
 62
     0
370
    -2
380
     1
100
AcDbMText
 10
72.4887688925581
 20
92.91812448638042
 30
0.0
 40
7.0
 41
0.0
 71
     5
 72
     1
  1
22
 73
     1
 44
1.0
  0
ENDBLK
  5
79A
330
64F
100
AcDbEntity
  8
0
100
AcDbBlockEnd
  0
BLOCK
  5
79B
330
65C
100
AcDbEntity
  8
0
100
AcDbBlockBegin
  2
*D157
 70
     1
 10
0.0
 20
0.0
 30
0.0
  3
*D157
  1

  0
POINT
  5
651
330
65C
100
AcDbEntity
  8
DEFPOINTS
  6
ByBlock
 62
     7
380
     1
100
AcDbPoint
 10
22.74001191
 20
74.64476547
 30
0.0
  0
POINT
  5
652
330
65C
100
AcDbEntity
  8
DEFPOINTS
  6
ByBlock
 62
     7
380
     1
100
AcDbPoint
 10
44.52001191000001
 20
74.64476547
 30
0.0
  0
LINE
  5
653
330
65C
100
AcDbEntity
  8
0
  6
ByBlock
 62
     7
370
    -2
380
     1
100
AcDbLine
 10
22.74001191
 20
75.26976547
 30
0.0
 11
22.74001191
 21
88.16812448638042
 31
0.0
  0
LINE
  5
654
330
65C
100
AcDbEntity
  8
0
  6
ByBlock
 62
     7
370
    -2
380
     1
100
AcDbLine
 10
44.52001191000001
 20
75.26976547
 30
0.0
 11
44.52001191000001
 21
88.16812448638042
 31
0.0
  0
LINE
  5
655
330
65C
100
AcDbEntity
  8
0
  6
ByBlock
 62
     7
370
    -2
380
     1
100
AcDbLine
 10
17.74001191
 20
86.91812448638042
 30
0.0
 11
12.74001191
 21
86.91812448638042
 31
0.0
  0
LINE
  5
656
330
65C
100
AcDbEntity
  8
0
  6
ByBlock
 62
     7
370
    -2
380
     1
100
AcDbLine
 10
49.52001191000001
 20
86.91812448638042
 30
0.0
 11
73.50439040127907
 21
86.91812448638042
 31
0.0
  0
SOLID
  5
657
330
65C
100
AcDbEntity
  8
0
  6
ByBlock
 62
     7
380
     1
100
AcDbTrace
 10
22.74001191
 20
86.91812448638042
 30
0.0
 11
17.74001191
 21
86.08479115304709
 31
0.0
 12
17.74001191
 22
87.75145781971375
 32
0.0
 13
17.74001191
 23
87.75145781971375
 33
0.0
  0
SOLID
  5
658
330
65C
100
AcDbEntity
  8
0
  6
ByBlock
 62
     7
380
     1
100
AcDbTrace
 10
44.52001191000001
 20
86.91812448638042
 30
0.0
 11
49.52001191000001
 21
86.08479115304709
 31
0.0
 12
49.52001191000001
 22
87.75145781971375
 32
0.0
 13
49.52001191000001
 23
87.75145781971375
 33
0.0
  0
LINE
  5
659
330
65C
100
AcDbEntity
  8
0
  6
ByBlock
 62
     7
370
    -2
380
     1
100
AcDbLine
 10
22.74001191
 20
86.91812448638042
 30
0.0
 11
44.52001191000001
 21
86.91812448638042
 31
0.0
  0
MTEXT
  5
65A
330
65C
100
AcDbEntity
  8
0
  6
ByBlock
 62
     0
370
    -2
380
     1
100
AcDbMText
 10
65.17105706794572
 20
92.91812448638042
 30
0.0
 40
7.0
 41
0.0
 71
     5
 72
     1
  1
22
 73
     1
 44
1.0
  0
ENDBLK
  5
79C
330
65C
100
AcDbEntity
  8
0
100
AcDbBlockEnd
  0
ENDSEC
  0
SECTION
  2
ENTITIES
  0
POINT
  5
3AA
330
1F
100
AcDbEntity
  8
0
370
    60
100
AcDbPoint
 10
44.52001191000001
 20
74.64476547
 30
0.0
  0
POINT
  5
3AB
330
1F
100
AcDbEntity
  8
0
370
    60
100
AcDbPoint
 10
22.74001191
 20
74.64476547
 30
0.0
  0
POINT
  5
3AC
330
1F
100
AcDbEntity
  8
0
370
    60
100
AcDbPoint
 10
44.15623377
 20
70.48676448
 30
0.0
  0
POINT
  5
3AD
330
1F
100
AcDbEntity
  8
0
370
    60
100
AcDbPoint
 10
33.63001191
 20
70.48676448
 30
0.0
  0
POINT
  5
3AE
330
1F
100
AcDbEntity
  8
0
370
    60
100
AcDbPoint
 10
41.73171585
 20
70.48676448
 30
0.0
  0
POINT
  5
3AF
330
1F
100
AcDbEntity
  8
0
370
    60
100
AcDbPoint
 10
33.63001191
 20
67.62208893
 30
0.0
  0
POINT
  5
3B0
330
1F
100
AcDbEntity
  8
0
370
    60
100
AcDbPoint
 10
51.45001191000001
 20
72.25415604
 30
0.0
  0
POINT
  5
3B1
330
1F
100
AcDbEntity
  8
0
370
    60
100
AcDbPoint
 10
15.81001191
 20
72.25415604
 30
0.0
  0
POINT
  5
3B2
330
1F
100
AcDbEntity
  8
0
370
    60
100
AcDbPoint
 10
46.50001191
 20
75.78791946
 30
0.0
  0
POINT
  5
3B3
330
1F
100
AcDbEntity
  8
0
370
    60
100
AcDbPoint
 10
23.10379005
 20
70.48676448
 30
0.0
  0
ARC
  5
3B4
330
1F
100
AcDbEntity
  8
0
370
    60
100
AcDbCircle
 10
33.63001191
 20
129.86086113
 30
0.0
 40
60.29995587000001
100
AcDbArc
 50
280.0533260000001
 51
287.188886
  0
ARC
  5
3B5
330
1F
100
AcDbEntity
  8
0
370
    60
100
AcDbCircle
 10
33.63001191
 20
129.86086113
 30
0.0
 40
60.29995587
100
AcDbArc
 50
252.811143
 51
259.946697
  0
LINE
  5
3B6
330
1F
100
AcDbEntity
  8
0
 48
0.03
370
    60
100
AcDbLine
 10
15.81001191
 20
71.85815835
 30
0.0
 11
15.81001191
 21
72.25415604
 31
0.0
  0
ARC
  5
3B7
330
1F
100
AcDbEntity
  8
0
370
    60
100
AcDbCircle
 10
33.63001191
 20
107.22208893
 30
0.0
 40
39.59999999999999
100
AcDbArc
 50
243.256317
 51
296.743692
  0
LINE
  5
3B8
330
1F
100
AcDbEntity
  8
0
370
    60
100
AcDbLine
 10
33.63001191
 20
70.48676448
 30
0.0
 11
41.73171585
 21
70.48676448
 31
0.0
  0
LINE
  5
3B9
330
1F
100
AcDbEntity
  8
0
370
    60
100
AcDbLine
 10
25.52830797
 20
70.48676448
 30
0.0
 11
33.63001191
 21
70.48676448
 31
0.0
  0
LINE
  5
3BA
330
1F
100
AcDbEntity
  8
0
370
    60
100
AcDbLine
 10
24.71699835
 20
79.76008392
 30
0.0
 11
25.52830797
 21
70.48676448
 31
0.0
  0
ARC
  5
3BB
330
1F
100
AcDbEntity
  8
0
370
    60
100
AcDbCircle
 10
23.92801191
 20
79.69105617
 30
0.0
 40
0.7920000000000001
100
AcDbArc
 50
4.99999900000012
 51
149.9999970000001
  0
LINE
  5
3BC
330
1F
100
AcDbEntity
  8
0
 48
0.376077
370
    60
100
AcDbLine
 10
20.76001191
 20
75.78791946
 30
0.0
 11
23.24211945
 21
80.08705386
 31
0.0
  0
LINE
  5
3BD
330
1F
100
AcDbEntity
  8
0
 48
0.173205
370
    60
100
AcDbLine
 10
20.76001191
 20
75.78791946
 30
0.0
 11
22.74001191
 21
74.64476547
 31
0.0
  0
LINE
  5
3BE
330
1F
100
AcDbEntity
  8
0
 48
0.316203
370
    60
100
AcDbLine
 10
22.74001191
 20
74.64476547
 30
0.0
 11
23.10379005
 21
70.48676448
 31
0.0
  0
ARC
  5
3BF
330
1F
100
AcDbEntity
  8
0
370
    60
100
AcDbCircle
 10
33.63001191
 20
129.86086113
 30
0.0
 40
60.29995587
100
AcDbArc
 50
252.811143
 51
259.946697
  0
LINE
  5
3C0
330
1F
100
AcDbEntity
  8
0
 48
0.03
370
    60
100
AcDbLine
 10
15.81001191
 20
71.85815835
 30
0.0
 11
15.81001191
 21
72.25415604
 31
0.0
  0
ARC
  5
3C1
330
1F
100
AcDbEntity
  8
0
370
    60
100
AcDbCircle
 10
33.63001191
 20
107.22208893
 30
0.0
 40
39.59999999999999
100
AcDbArc
 50
243.256317
 51
296.743692
  0
LINE
  5
3C2
330
1F
100
AcDbEntity
  8
0
 48
0.03
370
    60
100
AcDbLine
 10
51.45001191000001
 20
71.85815835
 30
0.0
 11
51.45001191000001
 21
72.25415604
 31
0.0
  0
ARC
  5
3C3
330
1F
100
AcDbEntity
  8
0
370
    60
100
AcDbCircle
 10
33.63001191
 20
129.86086113
 30
0.0
 40
60.29995587000001
100
AcDbArc
 50
280.0533260000001
 51
287.188886
  0
LINE
  5
3C4
330
1F
100
AcDbEntity
  8
0
 48
0.316203
370
    60
100
AcDbLine
 10
44.15623377
 20
70.48676448
 30
0.0
 11
44.52001191000001
 21
74.64476547
 31
0.0
  0
LINE
  5
3C5
330
1F
100
AcDbEntity
  8
0
 48
0.173205
370
    60
100
AcDbLine
 10
44.52001191000001
 20
74.64476547
 30
0.0
 11
46.50001191
 21
75.78791946
 31
0.0
  0
LINE
  5
3C6
330
1F
100
AcDbEntity
  8
0
 48
0.376077
370
    60
100
AcDbLine
 10
44.01790437
 20
80.08705386
 30
0.0
 11
46.50001191
 21
75.78791946
 31
0.0
  0
ARC
  5
3C7
330
1F
100
AcDbEntity
  8
0
370
    60
100
AcDbCircle
 10
43.33201224
 20
79.69105617
 30
0.0
 40
0.792000000000002
100
AcDbArc
 50
30.00000099999974
 51
175.0000059999998
  0
LINE
  5
3C8
330
1F
100
AcDbEntity
  8
0
370
    60
100
AcDbLine
 10
41.73171585
 20
70.48676448
 30
0.0
 11
42.5430258
 21
79.76008392
 31
0.0
  0
ARC
  5
3CF
330
1F
100
AcDbEntity
  8
0
370
    60
100
AcDbCircle
 10
33.63001191
 20
107.2220886
 30
0.0
 40
39.59999999999999
100
AcDbArc
 50
243.735222
 51
263.322887
  0
DIMENSION
  5
3E3
330
1F
100
AcDbEntity
  8
0
370
    25
100
AcDbDimension
  2
*D155
 10
51.45002030214616
 20
105.4938125727091
 30
0.0
 11
0.6016785766666661
 21
111.4938125727091
 31
0.0
 70
   160
  1
36
 71
     5
 41
2.5
 42
35.64000839214616
  3
ISO-25
100
AcDbAlignedDimension
 13
15.81001191
 23
72.25415604
 33
0.0
 14
51.45002030214616
 24
72.25416031466267
 34
0.0
100
AcDbRotatedDimension
1001
ACAD
1000
DSTYLE
1002
{
1070
    41
1040
5.0
1070
   140
1040
7.0
1070
   147
1040
2.5
1070
   176
1070
     7
1070
   177
1070
     7
1002
}
  0
DIMENSION
  5
468
330
1F
100
AcDbEntity
  8
0
370
    25
100
AcDbDimension
  2
*D157
 10
44.52001191000001
 20
86.91812448638042
 30
0.0
 11
65.17105706794572
 21
92.91812448638042
 31
0.0
 70
   160
  1
22
 71
     5
 41
2.5
 42
21.78000000000001
  3
ISO-25
100
AcDbAlignedDimension
 13
22.74001191
 23
74.64476547
 33
0.0
 14
44.52001191000001
 24
74.64476547
 34
0.0
100
AcDbRotatedDimension
1001
ACAD
1000
DSTYLE
1002
{
1070
    41
1040
5.0
1070
   140
1040
7.0
1070
   147
1040
2.5
1070
   176
1070
     7
1070
   177
1070
     7
1002
}
  0
VIEWPORT
  5
BB
330
73
100
AcDbEntity
 67
     1
  8
0
100
AcDbViewport
 10
7.8
 20
4.5
 30
0.0
 40
15.64
 41
9.0
 68
     1
 69
     1
 12
6.0
 22
4.5
 13
0.0
 23
0.0
 14
0.5
 24
0.5
 15
0.5
 25
0.5
 16
0.0
 26
0.0
 36
1.0
 17
0.0
 27
0.0
 37
0.0
 42
50.0
 43
0.0
 44
0.0
 45
12.0
 50
0.0
 51
0.0
 72
   100
 90
   557152
  1

281
     0
 71
     1
 74
     0
110
0.0
120
0.0
130
0.0
111
1.0
121
0.0
131
0.0
112
0.0
122
1.0
132
0.0
 79
     0
146
0.0
  0
ENDSEC
  0
SECTION
  2
OBJECTS
  0
DICTIONARY
  5
C
330
0
100
AcDbDictionary
281
     1
  3
ACAD_COLOR
350
6C
  3
ACAD_GROUP
350
D
  3
ACAD_LAYOUT
350
1A
  3
ACAD_MATERIAL
350
6B
  3
ACAD_MLEADERSTYLE
350
624
  3
ACAD_MLINESTYLE
350
17
  3
ACAD_PLOTSETTINGS
350
19
  3
ACAD_PLOTSTYLENAME
350
E
  3
ACAD_SCALELIST
350
99
  3
ACAD_TABLESTYLE
350
92
  3
ACDBHEADERROUNDTRIPXREC
350
79D
  3
AcDbVariableDictionary
350
59
  3
DWGPROPS
350
7A0
  0
DICTIONARY
  5
6C
102
{ACAD_REACTORS
330
C
102
}
330
C
100
AcDbDictionary
281
     1
  0
DICTIONARY
  5
D
102
{ACAD_REACTORS
330
C
102
}
330
C
100
AcDbDictionary
281
     1
  0
DICTIONARY
  5
1A
102
{ACAD_REACTORS
330
C
102
}
330
C
100
AcDbDictionary
281
     1
  3
Layout1
350
74
  3
Layout2
350
4EE
  3
Model
350
22
  0
DICTIONARY
  5
6B
102
{ACAD_REACTORS
330
C
102
}
330
C
100
AcDbDictionary
281
     1
  0
DICTIONARY
  5
624
102
{ACAD_REACTORS
330
C
102
}
330
C
100
AcDbDictionary
281
     1
  0
DICTIONARY
  5
17
102
{ACAD_REACTORS
330
C
102
}
330
C
100
AcDbDictionary
281
     1
  3
Standard
350
18
  0
DICTIONARY
  5
19
102
{ACAD_REACTORS
330
C
102
}
330
C
100
AcDbDictionary
281
     1
  0
ACDBDICTIONARYWDFLT
  5
E
102
{ACAD_REACTORS
330
C
102
}
330
C
100
AcDbDictionary
281
     1
  3
Normal
350
F
100
AcDbDictionaryWithDefault
340
F
  0
DICTIONARY
  5
99
102
{ACAD_REACTORS
330
C
102
}
330
C
100
AcDbDictionary
281
     1
  3
A0
350
D5
  3
A1
350
D6
  3
A2
350
D7
  3
A3
350
D8
  3
A4
350
D9
  3
A5
350
DA
  3
A6
350
DB
  3
A7
350
DC
  3
A8
350
DD
  3
A9
350
DE
  3
B0
350
DF
  3
B1
350
E0
  3
B2
350
E1
  3
B3
350
E2
  3
B4
350
E3
  3
B5
350
E4
  3
B6
350
E5
  3
B7
350
E6
  3
B8
350
E7
  3
B9
350
E8
  3
C0
350
E9
  3
C1
350
EA
  3
C2
350
EB
  3
C3
350
EC
  3
C4
350
ED
  3
C5
350
EE
  3
C6
350
EF
  3
C7
350
F0
  3
C8
350
F1
  3
C9
350
F2
  3
D0
350
F3
  3
D1
350
F4
  3
D2
350
F5
  0
DICTIONARY
  5
92
102
{ACAD_REACTORS
330
C
102
}
330
C
100
AcDbDictionary
281
     1
  0
DICTIONARY
  5
79D
102
{ACAD_REACTORS
330
C
102
}
330
C
100
AcDbDictionary
281
     1
  3
COLORDICT
350
79E
  3
MATERIALDICT
350
79F
  0
DICTIONARY
  5
59
102
{ACAD_REACTORS
330
C
102
}
330
C
100
AcDbDictionary
281
     1
  3
CTABLESTYLE
350
98
  3
DIMASSOC
350
5A
  3
HIDETEXT
350
5E
  0
XRECORD
  5
7A0
102
{ACAD_REACTORS
330
C
102
}
330
C
100
AcDbXrecord
280
     1
  1
DWGPROPS COOKIE
  2

  3

  4

  6

  7

  8
BelottiMc
  9

300
=
301
=
302
=
303
=
304
=
305
=
306
=
307
=
308
=
309
=
 40
0.0
 41
2455090.593852755
 42
2455090.635519398
  1

 90
        0
  0
LAYOUT
  5
74
102
{ACAD_REACTORS
330
1A
102
}
330
1A
100
AcDbPlotSettings
  1

  2
ProgeSOFT PDF Wizard
  4
A4
  6

 40
5.926666666666667
 41
6.011333333333317
 42
6.095999999999985
 43
5.926666666666667
 44
210.0
 45
297.0
 46
88.56200000000001
 47
136.531
 48
0.0
 49
0.0
140
0.0
141
0.0
142
1.0
143
1.0
 70
   692
 72
     1
 73
     0
 74
     0
  7

 75
    16
147
1.0
148
4.426666666666668
149
1.5
100
AcDbLayout
  1
Layout1
 70
     1
 71
     1
 10
0.0
 20
0.0
 11
0.0
 21
0.0
 12
0.0
 22
0.0
 32
0.0
 14
0.0
 24
0.0
 34
0.0
 15
0.0
 25
0.0
 35
0.0
146
0.0
 13
0.0
 23
0.0
 33
0.0
 16
1.0
 26
0.0
 36
0.0
 17
0.0
 27
1.0
 37
0.0
 76
     0
330
D1
331
623
1001
PROGE_PRINT_SETTINGS
1070
    73
1070
     1
  0
LAYOUT
  5
4EE
102
{ACAD_REACTORS
330
1A
102
}
330
1A
100
AcDbPlotSettings
  1

  2
ProgeSOFT PDF Wizard
  4
A4
  6

 40
5.926666666666667
 41
6.011333333333317
 42
6.095999999999985
 43
5.926666666666667
 44
210.0
 45
297.0
 46
88.562
 47
136.531
 48
0.0
 49
0.0
140
0.0
141
0.0
142
1.0
143
1.0
 70
   692
 72
     1
 73
     0
 74
     0
  7

 75
    16
147
1.0
148
0.0
149
0.0
100
AcDbLayout
  1
Layout2
 70
     1
 71
     2
 10
0.0
 20
0.0
 11
12.0
 21
9.0
 12
0.0
 22
0.0
 32
0.0
 14
0.0
 24
0.0
 34
0.0
 15
12.0
 25
9.0
 35
0.0
146
0.0
 13
0.0
 23
0.0
 33
0.0
 16
1.0
 26
0.0
 36
0.0
 17
0.0
 27
1.0
 37
0.0
 76
     0
330
73
331
BB
1001
PROGE_PRINT_SETTINGS
1070
    73
1070
     1
  0
LAYOUT
  5
22
102
{ACAD_REACTORS
330
1A
102
}
330
1A
100
AcDbPlotSettings
  1

  2
ProgeSOFT PDF Wizard
  4
A4
  6

 40
5.926666666666667
 41
6.011333333333317
 42
6.095999999999985
 43
5.926666666666667
 44
210.0
 45
297.0
 46
0.00000000000001
 47
83.0721902789285
 48
0.0
 49
0.0
140
0.0
141
0.0
142
1.0
143
1.997981296800165
 70
 11956
 72
     1
 73
     0
 74
     0
  7

 75
     0
147
0.5005051857099634
148
182.9886604631338
149
77.87752926953084
100
AcDbLayout
  1
Model
 70
     1
 71
     0
 10
0.0
 20
0.0
 11
0.0
 21
0.0
 12
0.0
 22
0.0
 32
0.0
 14
-23.35665475666667
 24
67.62208893
 34
0.0
 15
88.40543555922477
 25
116.1604792393757
 35
0.0
146
0.0
 13
0.0
 23
0.0
 33
0.0
 16
1.0
 26
0.0
 36
0.0
 17
0.0
 27
1.0
 37
0.0
 76
     0
330
1F
331
97
1001
PROGE_PRINT_SETTINGS
1070
    73
1070
     1
  0
MLINESTYLE
  5
18
102
{ACAD_REACTORS
330
17
102
}
330
17
100
AcDbMlineStyle
  2
STANDARD
 70
     0
  3

 62
   256
 51
90.0
 52
90.0
 71
     2
 49
0.5
 62
   256
  6
BYLAYER
 49
-0.5
 62
   256
  6
BYLAYER
  0
ACDBPLACEHOLDER
  5
F
102
{ACAD_REACTORS
330
E
102
}
330
E
  0
SCALE
  5
D5
102
{ACAD_REACTORS
330
99
102
}
330
99
100
AcDbScale
 70
     0
300
1:1
140
1.0
141
1.0
290
     1
  0
SCALE
  5
D6
102
{ACAD_REACTORS
330
99
102
}
330
99
100
AcDbScale
 70
     0
300
1:2
140
1.0
141
2.0
290
     0
  0
SCALE
  5
D7
102
{ACAD_REACTORS
330
99
102
}
330
99
100
AcDbScale
 70
     0
300
1:4
140
1.0
141
4.0
290
     0
  0
SCALE
  5
D8
102
{ACAD_REACTORS
330
99
102
}
330
99
100
AcDbScale
 70
     0
300
1:5
140
1.0
141
5.0
290
     0
  0
SCALE
  5
D9
102
{ACAD_REACTORS
330
99
102
}
330
99
100
AcDbScale
 70
     0
300
1:8
140
1.0
141
8.0
290
     0
  0
SCALE
  5
DA
102
{ACAD_REACTORS
330
99
102
}
330
99
100
AcDbScale
 70
     0
300
1:10
140
1.0
141
10.0
290
     0
  0
SCALE
  5
DB
102
{ACAD_REACTORS
330
99
102
}
330
99
100
AcDbScale
 70
     0
300
1:16
140
1.0
141
16.0
290
     0
  0
SCALE
  5
DC
102
{ACAD_REACTORS
330
99
102
}
330
99
100
AcDbScale
 70
     0
300
1:20
140
1.0
141
20.0
290
     0
  0
SCALE
  5
DD
102
{ACAD_REACTORS
330
99
102
}
330
99
100
AcDbScale
 70
     0
300
1:30
140
1.0
141
30.0
290
     0
  0
SCALE
  5
DE
102
{ACAD_REACTORS
330
99
102
}
330
99
100
AcDbScale
 70
     0
300
1:40
140
1.0
141
40.0
290
     0
  0
SCALE
  5
DF
102
{ACAD_REACTORS
330
99
102
}
330
99
100
AcDbScale
 70
     0
300
1:50
140
1.0
141
50.0
290
     0
  0
SCALE
  5
E0
102
{ACAD_REACTORS
330
99
102
}
330
99
100
AcDbScale
 70
     0
300
1:100
140
1.0
141
100.0
290
     0
  0
SCALE
  5
E1
102
{ACAD_REACTORS
330
99
102
}
330
99
100
AcDbScale
 70
     0
300
2:1
140
2.0
141
1.0
290
     0
  0
SCALE
  5
E2
102
{ACAD_REACTORS
330
99
102
}
330
99
100
AcDbScale
 70
     0
300
4:1
140
4.0
141
1.0
290
     0
  0
SCALE
  5
E3
102
{ACAD_REACTORS
330
99
102
}
330
99
100
AcDbScale
 70
     0
300
8:1
140
8.0
141
1.0
290
     0
  0
SCALE
  5
E4
102
{ACAD_REACTORS
330
99
102
}
330
99
100
AcDbScale
 70
     0
300
10:1
140
10.0
141
1.0
290
     0
  0
SCALE
  5
E5
102
{ACAD_REACTORS
330
99
102
}
330
99
100
AcDbScale
 70
     0
300
100:1
140
100.0
141
1.0
290
     0
  0
SCALE
  5
E6
102
{ACAD_REACTORS
330
99
102
}
330
99
100
AcDbScale
 70
     0
300
1/128" = 1'-0"
140
0.0078125
141
12.0
290
     0
  0
SCALE
  5
E7
102
{ACAD_REACTORS
330
99
102
}
330
99
100
AcDbScale
 70
     0
300
1/64" = 1'-0"
140
0.015625
141
12.0
290
     0
  0
SCALE
  5
E8
102
{ACAD_REACTORS
330
99
102
}
330
99
100
AcDbScale
 70
     0
300
1/32" = 1'-0"
140
0.03125
141
12.0
290
     0
  0
SCALE
  5
E9
102
{ACAD_REACTORS
330
99
102
}
330
99
100
AcDbScale
 70
     0
300
1/16" = 1'-0"
140
0.0625
141
12.0
290
     0
  0
SCALE
  5
EA
102
{ACAD_REACTORS
330
99
102
}
330
99
100
AcDbScale
 70
     0
300
3/32" = 1'-0"
140
0.09375
141
12.0
290
     0
  0
SCALE
  5
EB
102
{ACAD_REACTORS
330
99
102
}
330
99
100
AcDbScale
 70
     0
300
1/8" = 1'-0"
140
0.125
141
12.0
290
     0
  0
SCALE
  5
EC
102
{ACAD_REACTORS
330
99
102
}
330
99
100
AcDbScale
 70
     0
300
3/16" = 1'-0"
140
0.1875
141
12.0
290
     0
  0
SCALE
  5
ED
102
{ACAD_REACTORS
330
99
102
}
330
99
100
AcDbScale
 70
     0
300
1/4" = 1'-0"
140
0.25
141
12.0
290
     0
  0
SCALE
  5
EE
102
{ACAD_REACTORS
330
99
102
}
330
99
100
AcDbScale
 70
     0
300
3/8" = 1'-0"
140
0.375
141
12.0
290
     0
  0
SCALE
  5
EF
102
{ACAD_REACTORS
330
99
102
}
330
99
100
AcDbScale
 70
     0
300
1/2" = 1'-0"
140
0.5
141
12.0
290
     0
  0
SCALE
  5
F0
102
{ACAD_REACTORS
330
99
102
}
330
99
100
AcDbScale
 70
     0
300
3/4" = 1'-0"
140
0.75
141
12.0
290
     0
  0
SCALE
  5
F1
102
{ACAD_REACTORS
330
99
102
}
330
99
100
AcDbScale
 70
     0
300
1" = 1'-0"
140
1.0
141
12.0
290
     0
  0
SCALE
  5
F2
102
{ACAD_REACTORS
330
99
102
}
330
99
100
AcDbScale
 70
     0
300
1-1/2" = 1'-0"
140
1.5
141
12.0
290
     0
  0
SCALE
  5
F3
102
{ACAD_REACTORS
330
99
102
}
330
99
100
AcDbScale
 70
     0
300
3" = 1'-0"
140
3.0
141
12.0
290
     0
  0
SCALE
  5
F4
102
{ACAD_REACTORS
330
99
102
}
330
99
100
AcDbScale
 70
     0
300
6" = 1'-0"
140
6.0
141
12.0
290
     0
  0
SCALE
  5
F5
102
{ACAD_REACTORS
330
99
102
}
330
99
100
AcDbScale
 70
     0
300
1'-0" = 1'-0"
140
12.0
141
12.0
290
     0
  0
XRECORD
  5
79E
102
{ACAD_REACTORS
330
79D
102
}
330
79D
100
AcDbXrecord
280
     1
340
6C
  0
XRECORD
  5
79F
102
{ACAD_REACTORS
330
79D
102
}
330
79D
100
AcDbXrecord
280
     1
340
6B
  0
DICTIONARYVAR
  5
98
102
{ACAD_REACTORS
330
59
102
}
330
59
100
DictionaryVariables
280
     0
  1
Standard
  0
DICTIONARYVAR
  5
5A
102
{ACAD_REACTORS
330
59
102
}
330
59
100
DictionaryVariables
280
     0
  1
2
  0
DICTIONARYVAR
  5
5E
102
{ACAD_REACTORS
330
59
102
}
330
59
100
DictionaryVariables
280
     0
  1
1
  0
ENDSEC
  0
EOF
