  0
SECTION
  2
HEADER
  9
$ACADVER
  1
AC1015
  9
$ACADMAINTVER
 70
     6
  9
$DWGCODEPAGE
  3
ANSI_1252
  9
$INSBASE
 10
0.0
 20
0.0
 30
0.0
  9
$EXTMIN
 10
-17.68789565588108
 20
18.36558992651021
 30
0.0
  9
$EXTMAX
 10
468.0168853500001
 20
572.3184516776348
 30
0.0
  9
$LIMMIN
 10
0.0
 20
0.0
  9
$LIMMAX
 10
0.0
 20
0.0
  9
$ORTHOMODE
 70
     0
  9
$REGENMODE
 70
     1
  9
$FILLMODE
 70
     1
  9
$QTEXTMODE
 70
     0
  9
$MIRRTEXT
 70
     0
  9
$LTSCALE
 40
1.0
  9
$ATTMODE
 70
     1
  9
$TEXTSIZE
 40
2.5
  9
$TRACEWID
 40
1.0
  9
$TEXTSTYLE
  7
Standard
  9
$CLAYER
  8
0
  9
$CELTYPE
  6
ByLayer
  9
$CECOLOR
 62
   256
  9
$CELTSCALE
 40
1.0
  9
$DISPSILH
 70
     0
  9
$DIMSCALE
 40
1.0
  9
$DIMASZ
 40
2.5
  9
$DIMEXO
 40
0.625
  9
$DIMDLI
 40
3.75
  9
$DIMRND
 40
0.0
  9
$DIMDLE
 40
0.0
  9
$DIMEXE
 40
1.25
  9
$DIMTP
 40
0.0
  9
$DIMTM
 40
0.0
  9
$DIMTXT
 40
2.5
  9
$DIMCEN
 40
2.5
  9
$DIMTSZ
 40
0.0
  9
$DIMTOL
 70
     0
  9
$DIMLIM
 70
     0
  9
$DIMTIH
 70
     0
  9
$DIMTOH
 70
     0
  9
$DIMSE1
 70
     0
  9
$DIMSE2
 70
     0
  9
$DIMTAD
 70
     1
  9
$DIMZIN
 70
     8
  9
$DIMBLK
  1

  9
$DIMASO
 70
     1
  9
$DIMSHO
 70
     1
  9
$DIMPOST
  1

  9
$DIMAPOST
  1

  9
$DIMALT
 70
     0
  9
$DIMALTD
 70
     3
  9
$DIMALTF
 40
0.03937007874016
  9
$DIMLFAC
 40
1.0
  9
$DIMTOFL
 70
     1
  9
$DIMTVP
 40
0.0
  9
$DIMTIX
 70
     0
  9
$DIMSOXD
 70
     0
  9
$DIMSAH
 70
     0
  9
$DIMBLK1
  1

  9
$DIMBLK2
  1

  9
$DIMSTYLE
  2
ISO-25
  9
$DIMCLRD
 70
     0
  9
$DIMCLRE
 70
     0
  9
$DIMCLRT
 70
     0
  9
$DIMTFAC
 40
1.0
  9
$DIMGAP
 40
0.625
  9
$DIMJUST
 70
     0
  9
$DIMSD1
 70
     0
  9
$DIMSD2
 70
     0
  9
$DIMTOLJ
 70
     0
  9
$DIMTZIN
 70
     8
  9
$DIMALTZ
 70
     0
  9
$DIMALTTZ
 70
     0
  9
$DIMUPT
 70
     0
  9
$DIMDEC
 70
     2
  9
$DIMTDEC
 70
     2
  9
$DIMALTU
 70
     2
  9
$DIMALTTD
 70
     3
  9
$DIMTXSTY
  7
Standard
  9
$DIMAUNIT
 70
     0
  9
$DIMADEC
 70
     0
  9
$DIMALTRND
 40
0.0
  9
$DIMAZIN
 70
     0
  9
$DIMDSEP
 70
    44
  9
$DIMATFIT
 70
     3
  9
$DIMFRAC
 70
     0
  9
$DIMLDRBLK
  1

  9
$DIMLUNIT
 70
     2
  9
$DIMLWD
 70
    -2
  9
$DIMLWE
 70
    -2
  9
$DIMTMOVE
 70
     0
  9
$LUNITS
 70
     2
  9
$LUPREC
 70
     4
  9
$SKETCHINC
 40
1.0
  9
$FILLETRAD
 40
0.0
  9
$AUNITS
 70
     0
  9
$AUPREC
 70
     0
  9
$MENU
  1
.
  9
$ELEVATION
 40
0.0
  9
$PELEVATION
 40
0.0
  9
$THICKNESS
 40
0.0
  9
$LIMCHECK
 70
     0
  9
$CHAMFERA
 40
0.0
  9
$CHAMFERB
 40
0.0
  9
$CHAMFERC
 40
0.0
  9
$CHAMFERD
 40
0.0
  9
$SKPOLY
 70
     0
  9
$TDCREATE
 40
2455090.503882315
  9
$TDUCREATE
 40
2455090.420548982
  9
$TDUPDATE
 40
2455090.545548958
  9
$TDUUPDATE
 40
2455090.462215625
  9
$TDINDWG
 40
0.1182802778
  9
$TDUSRTIMER
 40
0.1182779167
  9
$USRTIMER
 70
     1
  9
$ANGBASE
 50
0.0
  9
$ANGDIR
 70
     0
  9
$PDMODE
 70
     0
  9
$PDSIZE
 40
0.0
  9
$PLINEWID
 40
0.0
  9
$SPLFRAME
 70
     0
  9
$SPLINETYPE
 70
     6
  9
$SPLINESEGS
 70
     8
  9
$HANDSEED
  5
AC1
  9
$SURFTAB1
 70
     6
  9
$SURFTAB2
 70
     6
  9
$SURFTYPE
 70
     6
  9
$SURFU
 70
     6
  9
$SURFV
 70
     6
  9
$UCSBASE
  2

  9
$UCSNAME
  2

  9
$UCSORG
 10
0.0
 20
0.0
 30
0.0
  9
$UCSXDIR
 10
1.0
 20
0.0
 30
0.0
  9
$UCSYDIR
 10
0.0
 20
1.0
 30
0.0
  9
$UCSORTHOREF
  2

  9
$UCSORTHOVIEW
 70
     0
  9
$UCSORGTOP
 10
0.0
 20
0.0
 30
0.0
  9
$UCSORGBOTTOM
 10
0.0
 20
0.0
 30
0.0
  9
$UCSORGLEFT
 10
0.0
 20
0.0
 30
0.0
  9
$UCSORGRIGHT
 10
0.0
 20
0.0
 30
0.0
  9
$UCSORGFRONT
 10
0.0
 20
0.0
 30
0.0
  9
$UCSORGBACK
 10
0.0
 20
0.0
 30
0.0
  9
$PUCSBASE
  2

  9
$PUCSNAME
  2

  9
$PUCSORG
 10
0.0
 20
0.0
 30
0.0
  9
$PUCSXDIR
 10
1.0
 20
0.0
 30
0.0
  9
$PUCSYDIR
 10
0.0
 20
1.0
 30
0.0
  9
$PUCSORTHOREF
  2

  9
$PUCSORTHOVIEW
 70
     0
  9
$PUCSORGTOP
 10
0.0
 20
0.0
 30
0.0
  9
$PUCSORGBOTTOM
 10
0.0
 20
0.0
 30
0.0
  9
$PUCSORGLEFT
 10
0.0
 20
0.0
 30
0.0
  9
$PUCSORGRIGHT
 10
0.0
 20
0.0
 30
0.0
  9
$PUCSORGFRONT
 10
0.0
 20
0.0
 30
0.0
  9
$PUCSORGBACK
 10
0.0
 20
0.0
 30
0.0
  9
$USERI1
 70
     0
  9
$USERI2
 70
     0
  9
$USERI3
 70
     0
  9
$USERI4
 70
     0
  9
$USERI5
 70
     0
  9
$USERR1
 40
0.0
  9
$USERR2
 40
0.0
  9
$USERR3
 40
0.0
  9
$USERR4
 40
0.0
  9
$USERR5
 40
0.0
  9
$WORLDVIEW
 70
     1
  9
$SHADEDGE
 70
     3
  9
$SHADEDIF
 70
    70
  9
$TILEMODE
 70
     1
  9
$MAXACTVP
 70
    64
  9
$PINSBASE
 10
0.0
 20
0.0
 30
0.0
  9
$PLIMCHECK
 70
     0
  9
$PEXTMIN
 10
0.0
 20
0.0
 30
0.0
  9
$PEXTMAX
 10
12.0
 20
9.0
 30
0.0
  9
$PLIMMIN
 10
0.0
 20
0.0
  9
$PLIMMAX
 10
12.0
 20
9.0
  9
$UNITMODE
 70
     0
  9
$VISRETAIN
 70
     1
  9
$PLINEGEN
 70
     0
  9
$PSLTSCALE
 70
     1
  9
$TREEDEPTH
 70
  3020
  9
$CMLSTYLE
  2
Standard
  9
$CMLJUST
 70
     0
  9
$CMLSCALE
 40
20.0
  9
$PROXYGRAPHICS
 70
     1
  9
$MEASUREMENT
 70
     1
  9
$CELWEIGHT
370
    -1
  9
$ENDCAPS
280
     0
  9
$JOINSTYLE
280
     0
  9
$LWDISPLAY
290
     0
  9
$INSUNITS
 70
     4
  9
$HYPERLINKBASE
  1

  9
$STYLESHEET
  1

  9
$XEDIT
290
     1
  9
$CEPSNTYPE
380
     0
  9
$PSTYLEMODE
290
     1
  9
$FINGERPRINTGUID
  2
{5559452E-1E62-4159-8551-BF76FFF3E7E8}
  9
$VERSIONGUID
  2
{3CEB9EF8-4431-4551-B596-6734A9F966A9}
  9
$EXTNAMES
290
     1
  9
$PSVPSCALE
 40
0.0
  9
$OLESTARTUP
290
     0
  0
ENDSEC
  0
SECTION
  2
CLASSES
  0
CLASS
  1
ACDBDICTIONARYWDFLT
  2
AcDbDictionaryWithDefault
  3
ObjectDBX Classes
 90
        0
280
     0
281
     0
  0
CLASS
  1
ACDBPLACEHOLDER
  2
AcDbPlaceHolder
  3
ObjectDBX Classes
 90
        0
280
     0
281
     0
  0
CLASS
  1
LAYOUT
  2
AcDbLayout
  3
ObjectDBX Classes
 90
        0
280
     0
281
     0
  0
CLASS
  1
DICTIONARYVAR
  2
AcDbDictionaryVar
  3
ObjectDBX Classes
 90
        0
280
     0
281
     0
  0
CLASS
  1
TABLESTYLE
  2
AcDbTableStyle
  3
ObjectDBX Classes
 90
     4095
280
     0
281
     0
  0
CLASS
  1
SCALE
  2
AcDbScale
  3
ObjectDBX Classes
 90
     1153
280
     0
281
     0
  0
ENDSEC
  0
SECTION
  2
TABLES
  0
TABLE
  2
VPORT
  5
8
330
0
100
AcDbSymbolTable
 70
     2
  0
VPORT
  5
97
330
8
100
AcDbSymbolTableRecord
100
AcDbViewportTableRecord
  2
*Active
 70
     0
 10
0.0
 20
0.0
 11
1.0
 21
1.0
 12
110.0627260664183
 22
464.3634264535779
 13
0.0
 23
0.0
 14
10.0
 24
10.0
 15
10.0
 25
10.0
 16
0.0
 26
0.0
 36
1.0
 17
0.0
 27
0.0
 37
0.0
 40
318.8667365104686
 41
1.664827586206897
 42
50.0
 43
0.0
 44
0.0
 50
0.0
 51
0.0
 71
     0
 72
  1000
 73
     1
 74
     3
 75
     0
 76
     0
 77
     0
 78
     0
281
     0
 65
     1
110
0.0
120
0.0
130
0.0
111
1.0
121
0.0
131
0.0
112
0.0
122
1.0
132
0.0
 79
     0
146
0.0
  0
ENDTAB
  0
TABLE
  2
LTYPE
  5
5
330
0
100
AcDbSymbolTable
 70
     3
  0
LTYPE
  5
14
330
5
100
AcDbSymbolTableRecord
100
AcDbLinetypeTableRecord
  2
ByBlock
 70
     0
  3

 72
    65
 73
     0
 40
0.0
  0
LTYPE
  5
15
330
5
100
AcDbSymbolTableRecord
100
AcDbLinetypeTableRecord
  2
ByLayer
 70
     0
  3

 72
    65
 73
     0
 40
0.0
  0
LTYPE
  5
16
330
5
100
AcDbSymbolTableRecord
100
AcDbLinetypeTableRecord
  2
Continuous
 70
     0
  3
Solid line
 72
    65
 73
     0
 40
0.0
  0
LTYPE
  5
919
330
5
100
AcDbSymbolTableRecord
100
AcDbLinetypeTableRecord
  2
DASHSPACE
 70
     0
  3
__    __    __    __    __   
 72
    65
 73
     2
 40
30.0
 49
12.0
 74
     0
 49
-18.0
 74
     0
  0
LTYPE
  5
91A
330
5
100
AcDbSymbolTableRecord
100
AcDbLinetypeTableRecord
  2
DASHDOT
 70
     0
  3
 __ . __ . __ . __ . __ . __ . __ . 
 72
    65
 73
     4
 40
18.5
 49
12.0
 74
     0
 49
-3.0
 74
     0
 49
0.5
 74
     0
 49
-3.0
 74
     0
  0
ENDTAB
  0
TABLE
  2
LAYER
  5
2
330
0
100
AcDbSymbolTable
 70
     3
  0
LAYER
  5
10
330
2
100
AcDbSymbolTableRecord
100
AcDbLayerTableRecord
  2
0
 70
     0
 62
     7
  6
Continuous
370
    -3
390
F
  0
LAYER
  5
FC
330
2
100
AcDbSymbolTableRecord
100
AcDbLayerTableRecord
  2
100
 70
     0
 62
     7
  6
Continuous
370
    13
390
F
  0
LAYER
  5
FD
330
2
100
AcDbSymbolTableRecord
100
AcDbLayerTableRecord
  2
DEFPOINTS
 70
     0
 62
     7
  6
Continuous
290
     0
370
    -3
390
F
  0
ENDTAB
  0
TABLE
  2
STYLE
  5
3
330
0
100
AcDbSymbolTable
 70
     2
  0
STYLE
  5
11
330
3
100
AcDbSymbolTableRecord
100
AcDbTextStyleTableRecord
  2
Standard
 70
     0
 40
0.0
 41
1.0
 50
0.0
 71
     0
 42
2.5
  3
txt
  4

  0
STYLE
  5
F9
330
3
100
AcDbSymbolTableRecord
100
AcDbTextStyleTableRecord
  2
GDT
 70
     0
 40
0.0
 41
1.0
 50
0.0
 71
     0
 42
0.2
  3
gdt.shx
  4

  0
ENDTAB
  0
TABLE
  2
VIEW
  5
6
330
0
100
AcDbSymbolTable
 70
     0
  0
ENDTAB
  0
TABLE
  2
UCS
  5
7
330
0
100
AcDbSymbolTable
 70
     0
  0
ENDTAB
  0
TABLE
  2
APPID
  5
9
330
0
100
AcDbSymbolTable
 70
     3
  0
APPID
  5
12
330
9
100
AcDbSymbolTableRecord
100
AcDbRegAppTableRecord
  2
ACAD
 70
     0
  0
APPID
  5
917
330
9
100
AcDbSymbolTableRecord
100
AcDbRegAppTableRecord
  2
PROGE_PRINT_SETTINGS
 70
     0
  0
APPID
  5
918
330
9
100
AcDbSymbolTableRecord
100
AcDbRegAppTableRecord
  2
Conv5506CA
 70
     0
  0
ENDTAB
  0
TABLE
  2
DIMSTYLE
  5
A
330
0
100
AcDbSymbolTable
 70
     2
100
AcDbDimStyleTable
  0
DIMSTYLE
105
27
330
A
100
AcDbSymbolTableRecord
100
AcDbDimStyleTableRecord
  2
Standard
 70
     0
278
     0
340
11
  0
DIMSTYLE
105
29
102
{ACAD_REACTORS
330
657
330
6B1
330
8A3
330
8DE
102
}
330
A
100
AcDbSymbolTableRecord
100
AcDbDimStyleTableRecord
  2
ISO-25
 70
     0
 41
2.5
 42
0.625
 43
3.75
 44
1.25
 73
     0
 74
     0
 77
     1
 78
     8
140
2.5
141
2.5
143
0.03937007874016
147
0.625
171
     3
172
     1
271
     2
272
     2
274
     3
278
    44
283
     0
284
     8
340
11
  0
ENDTAB
  0
TABLE
  2
BLOCK_RECORD
  5
1
330
0
100
AcDbSymbolTable
 70
   209
  0
BLOCK_RECORD
  5
1F
330
1
100
AcDbSymbolTableRecord
100
AcDbBlockTableRecord
  2
*Model_Space
340
22
  0
BLOCK_RECORD
  5
73
330
1
100
AcDbSymbolTableRecord
100
AcDbBlockTableRecord
  2
*Paper_Space
340
70C
  0
BLOCK_RECORD
  5
D1
330
1
100
AcDbSymbolTableRecord
100
AcDbBlockTableRecord
  2
*Paper_Space0
340
74
  0
BLOCK_RECORD
  5
103
330
1
100
AcDbSymbolTableRecord
100
AcDbBlockTableRecord
  2
BLOCK530
340
0
  0
BLOCK_RECORD
  5
10C
330
1
100
AcDbSymbolTableRecord
100
AcDbBlockTableRecord
  2
BLOCK531
340
0
  0
BLOCK_RECORD
  5
115
330
1
100
AcDbSymbolTableRecord
100
AcDbBlockTableRecord
  2
BLOCK532
340
0
  0
BLOCK_RECORD
  5
11F
330
1
100
AcDbSymbolTableRecord
100
AcDbBlockTableRecord
  2
BLOCK533
340
0
  0
BLOCK_RECORD
  5
128
330
1
100
AcDbSymbolTableRecord
100
AcDbBlockTableRecord
  2
BLOCK534
340
0
  0
BLOCK_RECORD
  5
12C
330
1
100
AcDbSymbolTableRecord
100
AcDbBlockTableRecord
  2
BLOCK535
340
0
  0
BLOCK_RECORD
  5
130
330
1
100
AcDbSymbolTableRecord
100
AcDbBlockTableRecord
  2
BLOCK536
340
0
  0
BLOCK_RECORD
  5
134
330
1
100
AcDbSymbolTableRecord
100
AcDbBlockTableRecord
  2
BLOCK537
340
0
  0
BLOCK_RECORD
  5
138
330
1
100
AcDbSymbolTableRecord
100
AcDbBlockTableRecord
  2
BLOCK538
340
0
  0
BLOCK_RECORD
  5
13C
330
1
100
AcDbSymbolTableRecord
100
AcDbBlockTableRecord
  2
BLOCK539
340
0
  0
BLOCK_RECORD
  5
144
330
1
100
AcDbSymbolTableRecord
100
AcDbBlockTableRecord
  2
BLOCK540
340
0
  0
BLOCK_RECORD
  5
14C
330
1
100
AcDbSymbolTableRecord
100
AcDbBlockTableRecord
  2
BLOCK541
340
0
  0
BLOCK_RECORD
  5
155
330
1
100
AcDbSymbolTableRecord
100
AcDbBlockTableRecord
  2
BLOCK542
340
0
  0
BLOCK_RECORD
  5
15E
330
1
100
AcDbSymbolTableRecord
100
AcDbBlockTableRecord
  2
BLOCK543
340
0
  0
BLOCK_RECORD
  5
167
330
1
100
AcDbSymbolTableRecord
100
AcDbBlockTableRecord
  2
BLOCK544
340
0
  0
BLOCK_RECORD
  5
170
330
1
100
AcDbSymbolTableRecord
100
AcDbBlockTableRecord
  2
BLOCK545
340
0
  0
BLOCK_RECORD
  5
175
330
1
100
AcDbSymbolTableRecord
100
AcDbBlockTableRecord
  2
BLOCK546
340
0
  0
BLOCK_RECORD
  5
17A
330
1
100
AcDbSymbolTableRecord
100
AcDbBlockTableRecord
  2
BLOCK547
340
0
  0
BLOCK_RECORD
  5
17E
330
1
100
AcDbSymbolTableRecord
100
AcDbBlockTableRecord
  2
BLOCK548
340
0
  0
BLOCK_RECORD
  5
182
330
1
100
AcDbSymbolTableRecord
100
AcDbBlockTableRecord
  2
BLOCK549
340
0
  0
BLOCK_RECORD
  5
186
330
1
100
AcDbSymbolTableRecord
100
AcDbBlockTableRecord
  2
BLOCK550
340
0
  0
BLOCK_RECORD
  5
18A
330
1
100
AcDbSymbolTableRecord
100
AcDbBlockTableRecord
  2
BLOCK551
340
0
  0
BLOCK_RECORD
  5
18E
330
1
100
AcDbSymbolTableRecord
100
AcDbBlockTableRecord
  2
BLOCK552
340
0
  0
BLOCK_RECORD
  5
192
330
1
100
AcDbSymbolTableRecord
100
AcDbBlockTableRecord
  2
BLOCK553
340
0
  0
BLOCK_RECORD
  5
196
330
1
100
AcDbSymbolTableRecord
100
AcDbBlockTableRecord
  2
BLOCK554
340
0
  0
BLOCK_RECORD
  5
19A
330
1
100
AcDbSymbolTableRecord
100
AcDbBlockTableRecord
  2
BLOCK555
340
0
  0
BLOCK_RECORD
  5
19E
330
1
100
AcDbSymbolTableRecord
100
AcDbBlockTableRecord
  2
BLOCK556
340
0
  0
BLOCK_RECORD
  5
1A2
330
1
100
AcDbSymbolTableRecord
100
AcDbBlockTableRecord
  2
BLOCK557
340
0
  0
BLOCK_RECORD
  5
1A6
330
1
100
AcDbSymbolTableRecord
100
AcDbBlockTableRecord
  2
BLOCK558
340
0
  0
BLOCK_RECORD
  5
1AA
330
1
100
AcDbSymbolTableRecord
100
AcDbBlockTableRecord
  2
BLOCK559
340
0
  0
BLOCK_RECORD
  5
1AE
330
1
100
AcDbSymbolTableRecord
100
AcDbBlockTableRecord
  2
BLOCK560
340
0
  0
BLOCK_RECORD
  5
1B2
330
1
100
AcDbSymbolTableRecord
100
AcDbBlockTableRecord
  2
BLOCK561
340
0
  0
BLOCK_RECORD
  5
1B6
330
1
100
AcDbSymbolTableRecord
100
AcDbBlockTableRecord
  2
BLOCK562
340
0
  0
BLOCK_RECORD
  5
1BA
330
1
100
AcDbSymbolTableRecord
100
AcDbBlockTableRecord
  2
BLOCK563
340
0
  0
BLOCK_RECORD
  5
1BE
330
1
100
AcDbSymbolTableRecord
100
AcDbBlockTableRecord
  2
BLOCK564
340
0
  0
BLOCK_RECORD
  5
1C2
330
1
100
AcDbSymbolTableRecord
100
AcDbBlockTableRecord
  2
BLOCK565
340
0
  0
BLOCK_RECORD
  5
1C6
330
1
100
AcDbSymbolTableRecord
100
AcDbBlockTableRecord
  2
BLOCK566
340
0
  0
BLOCK_RECORD
  5
1CA
330
1
100
AcDbSymbolTableRecord
100
AcDbBlockTableRecord
  2
BLOCK567
340
0
  0
BLOCK_RECORD
  5
1CE
330
1
100
AcDbSymbolTableRecord
100
AcDbBlockTableRecord
  2
BLOCK568
340
0
  0
BLOCK_RECORD
  5
1D2
330
1
100
AcDbSymbolTableRecord
100
AcDbBlockTableRecord
  2
BLOCK569
340
0
  0
BLOCK_RECORD
  5
1D6
330
1
100
AcDbSymbolTableRecord
100
AcDbBlockTableRecord
  2
BLOCK570
340
0
  0
BLOCK_RECORD
  5
1DA
330
1
100
AcDbSymbolTableRecord
100
AcDbBlockTableRecord
  2
BLOCK571
340
0
  0
BLOCK_RECORD
  5
1DE
330
1
100
AcDbSymbolTableRecord
100
AcDbBlockTableRecord
  2
BLOCK572
340
0
  0
BLOCK_RECORD
  5
1E2
330
1
100
AcDbSymbolTableRecord
100
AcDbBlockTableRecord
  2
BLOCK573
340
0
  0
BLOCK_RECORD
  5
1E6
330
1
100
AcDbSymbolTableRecord
100
AcDbBlockTableRecord
  2
BLOCK574
340
0
  0
BLOCK_RECORD
  5
1EA
330
1
100
AcDbSymbolTableRecord
100
AcDbBlockTableRecord
  2
BLOCK575
340
0
  0
BLOCK_RECORD
  5
1EE
330
1
100
AcDbSymbolTableRecord
100
AcDbBlockTableRecord
  2
BLOCK576
340
0
  0
BLOCK_RECORD
  5
1F2
330
1
100
AcDbSymbolTableRecord
100
AcDbBlockTableRecord
  2
BLOCK577
340
0
  0
BLOCK_RECORD
  5
1F6
330
1
100
AcDbSymbolTableRecord
100
AcDbBlockTableRecord
  2
BLOCK578
340
0
  0
BLOCK_RECORD
  5
1FA
330
1
100
AcDbSymbolTableRecord
100
AcDbBlockTableRecord
  2
BLOCK579
340
0
  0
BLOCK_RECORD
  5
1FE
330
1
100
AcDbSymbolTableRecord
100
AcDbBlockTableRecord
  2
BLOCK580
340
0
  0
BLOCK_RECORD
  5
202
330
1
100
AcDbSymbolTableRecord
100
AcDbBlockTableRecord
  2
BLOCK581
340
0
  0
BLOCK_RECORD
  5
206
330
1
100
AcDbSymbolTableRecord
100
AcDbBlockTableRecord
  2
BLOCK582
340
0
  0
BLOCK_RECORD
  5
20A
330
1
100
AcDbSymbolTableRecord
100
AcDbBlockTableRecord
  2
BLOCK583
340
0
  0
BLOCK_RECORD
  5
20E
330
1
100
AcDbSymbolTableRecord
100
AcDbBlockTableRecord
  2
BLOCK584
340
0
  0
BLOCK_RECORD
  5
212
330
1
100
AcDbSymbolTableRecord
100
AcDbBlockTableRecord
  2
BLOCK585
340
0
  0
BLOCK_RECORD
  5
216
330
1
100
AcDbSymbolTableRecord
100
AcDbBlockTableRecord
  2
BLOCK586
340
0
  0
BLOCK_RECORD
  5
21A
330
1
100
AcDbSymbolTableRecord
100
AcDbBlockTableRecord
  2
BLOCK587
340
0
  0
BLOCK_RECORD
  5
21E
330
1
100
AcDbSymbolTableRecord
100
AcDbBlockTableRecord
  2
BLOCK588
340
0
  0
BLOCK_RECORD
  5
222
330
1
100
AcDbSymbolTableRecord
100
AcDbBlockTableRecord
  2
BLOCK589
340
0
  0
BLOCK_RECORD
  5
226
330
1
100
AcDbSymbolTableRecord
100
AcDbBlockTableRecord
  2
BLOCK590
340
0
  0
BLOCK_RECORD
  5
22A
330
1
100
AcDbSymbolTableRecord
100
AcDbBlockTableRecord
  2
BLOCK591
340
0
  0
BLOCK_RECORD
  5
22E
330
1
100
AcDbSymbolTableRecord
100
AcDbBlockTableRecord
  2
BLOCK592
340
0
  0
BLOCK_RECORD
  5
232
330
1
100
AcDbSymbolTableRecord
100
AcDbBlockTableRecord
  2
BLOCK593
340
0
  0
BLOCK_RECORD
  5
236
330
1
100
AcDbSymbolTableRecord
100
AcDbBlockTableRecord
  2
BLOCK594
340
0
  0
BLOCK_RECORD
  5
23A
330
1
100
AcDbSymbolTableRecord
100
AcDbBlockTableRecord
  2
BLOCK595
340
0
  0
BLOCK_RECORD
  5
23E
330
1
100
AcDbSymbolTableRecord
100
AcDbBlockTableRecord
  2
BLOCK596
340
0
  0
BLOCK_RECORD
  5
242
330
1
100
AcDbSymbolTableRecord
100
AcDbBlockTableRecord
  2
BLOCK597
340
0
  0
BLOCK_RECORD
  5
246
330
1
100
AcDbSymbolTableRecord
100
AcDbBlockTableRecord
  2
BLOCK598
340
0
  0
BLOCK_RECORD
  5
24A
330
1
100
AcDbSymbolTableRecord
100
AcDbBlockTableRecord
  2
BLOCK599
340
0
  0
BLOCK_RECORD
  5
24E
330
1
100
AcDbSymbolTableRecord
100
AcDbBlockTableRecord
  2
BLOCK600
340
0
  0
BLOCK_RECORD
  5
252
330
1
100
AcDbSymbolTableRecord
100
AcDbBlockTableRecord
  2
BLOCK601
340
0
  0
BLOCK_RECORD
  5
256
330
1
100
AcDbSymbolTableRecord
100
AcDbBlockTableRecord
  2
BLOCK602
340
0
  0
BLOCK_RECORD
  5
25A
330
1
100
AcDbSymbolTableRecord
100
AcDbBlockTableRecord
  2
BLOCK603
340
0
  0
BLOCK_RECORD
  5
25E
330
1
100
AcDbSymbolTableRecord
100
AcDbBlockTableRecord
  2
BLOCK604
340
0
  0
BLOCK_RECORD
  5
262
330
1
100
AcDbSymbolTableRecord
100
AcDbBlockTableRecord
  2
BLOCK605
340
0
  0
BLOCK_RECORD
  5
266
330
1
100
AcDbSymbolTableRecord
100
AcDbBlockTableRecord
  2
BLOCK606
340
0
  0
BLOCK_RECORD
  5
26A
330
1
100
AcDbSymbolTableRecord
100
AcDbBlockTableRecord
  2
BLOCK607
340
0
  0
BLOCK_RECORD
  5
26E
330
1
100
AcDbSymbolTableRecord
100
AcDbBlockTableRecord
  2
BLOCK608
340
0
  0
BLOCK_RECORD
  5
272
330
1
100
AcDbSymbolTableRecord
100
AcDbBlockTableRecord
  2
BLOCK609
340
0
  0
BLOCK_RECORD
  5
276
330
1
100
AcDbSymbolTableRecord
100
AcDbBlockTableRecord
  2
BLOCK610
340
0
  0
BLOCK_RECORD
  5
27A
330
1
100
AcDbSymbolTableRecord
100
AcDbBlockTableRecord
  2
BLOCK611
340
0
  0
BLOCK_RECORD
  5
27E
330
1
100
AcDbSymbolTableRecord
100
AcDbBlockTableRecord
  2
BLOCK612
340
0
  0
BLOCK_RECORD
  5
282
330
1
100
AcDbSymbolTableRecord
100
AcDbBlockTableRecord
  2
BLOCK613
340
0
  0
BLOCK_RECORD
  5
286
330
1
100
AcDbSymbolTableRecord
100
AcDbBlockTableRecord
  2
BLOCK614
340
0
  0
BLOCK_RECORD
  5
28A
330
1
100
AcDbSymbolTableRecord
100
AcDbBlockTableRecord
  2
BLOCK615
340
0
  0
BLOCK_RECORD
  5
28E
330
1
100
AcDbSymbolTableRecord
100
AcDbBlockTableRecord
  2
BLOCK616
340
0
  0
BLOCK_RECORD
  5
292
330
1
100
AcDbSymbolTableRecord
100
AcDbBlockTableRecord
  2
BLOCK617
340
0
  0
BLOCK_RECORD
  5
296
330
1
100
AcDbSymbolTableRecord
100
AcDbBlockTableRecord
  2
BLOCK618
340
0
  0
BLOCK_RECORD
  5
29A
330
1
100
AcDbSymbolTableRecord
100
AcDbBlockTableRecord
  2
BLOCK619
340
0
  0
BLOCK_RECORD
  5
29E
330
1
100
AcDbSymbolTableRecord
100
AcDbBlockTableRecord
  2
BLOCK620
340
0
  0
BLOCK_RECORD
  5
2A2
330
1
100
AcDbSymbolTableRecord
100
AcDbBlockTableRecord
  2
BLOCK621
340
0
  0
BLOCK_RECORD
  5
2A6
330
1
100
AcDbSymbolTableRecord
100
AcDbBlockTableRecord
  2
BLOCK622
340
0
  0
BLOCK_RECORD
  5
2AA
330
1
100
AcDbSymbolTableRecord
100
AcDbBlockTableRecord
  2
BLOCK623
340
0
  0
BLOCK_RECORD
  5
2AE
330
1
100
AcDbSymbolTableRecord
100
AcDbBlockTableRecord
  2
BLOCK624
340
0
  0
BLOCK_RECORD
  5
2B2
330
1
100
AcDbSymbolTableRecord
100
AcDbBlockTableRecord
  2
BLOCK625
340
0
  0
BLOCK_RECORD
  5
2B6
330
1
100
AcDbSymbolTableRecord
100
AcDbBlockTableRecord
  2
BLOCK626
340
0
  0
BLOCK_RECORD
  5
2BA
330
1
100
AcDbSymbolTableRecord
100
AcDbBlockTableRecord
  2
BLOCK627
340
0
  0
BLOCK_RECORD
  5
2BE
330
1
100
AcDbSymbolTableRecord
100
AcDbBlockTableRecord
  2
BLOCK628
340
0
  0
BLOCK_RECORD
  5
2C2
330
1
100
AcDbSymbolTableRecord
100
AcDbBlockTableRecord
  2
BLOCK629
340
0
  0
BLOCK_RECORD
  5
2C6
330
1
100
AcDbSymbolTableRecord
100
AcDbBlockTableRecord
  2
BLOCK630
340
0
  0
BLOCK_RECORD
  5
2CA
330
1
100
AcDbSymbolTableRecord
100
AcDbBlockTableRecord
  2
BLOCK631
340
0
  0
BLOCK_RECORD
  5
2CE
330
1
100
AcDbSymbolTableRecord
100
AcDbBlockTableRecord
  2
BLOCK632
340
0
  0
BLOCK_RECORD
  5
2D2
330
1
100
AcDbSymbolTableRecord
100
AcDbBlockTableRecord
  2
BLOCK633
340
0
  0
BLOCK_RECORD
  5
2D6
330
1
100
AcDbSymbolTableRecord
100
AcDbBlockTableRecord
  2
BLOCK634
340
0
  0
BLOCK_RECORD
  5
2DA
330
1
100
AcDbSymbolTableRecord
100
AcDbBlockTableRecord
  2
BLOCK635
340
0
  0
BLOCK_RECORD
  5
2DE
330
1
100
AcDbSymbolTableRecord
100
AcDbBlockTableRecord
  2
BLOCK636
340
0
  0
BLOCK_RECORD
  5
2E2
330
1
100
AcDbSymbolTableRecord
100
AcDbBlockTableRecord
  2
BLOCK637
340
0
  0
BLOCK_RECORD
  5
2E6
330
1
100
AcDbSymbolTableRecord
100
AcDbBlockTableRecord
  2
BLOCK638
340
0
  0
BLOCK_RECORD
  5
2EA
330
1
100
AcDbSymbolTableRecord
100
AcDbBlockTableRecord
  2
BLOCK639
340
0
  0
BLOCK_RECORD
  5
2EE
330
1
100
AcDbSymbolTableRecord
100
AcDbBlockTableRecord
  2
BLOCK640
340
0
  0
BLOCK_RECORD
  5
2F2
330
1
100
AcDbSymbolTableRecord
100
AcDbBlockTableRecord
  2
BLOCK641
340
0
  0
BLOCK_RECORD
  5
2F6
330
1
100
AcDbSymbolTableRecord
100
AcDbBlockTableRecord
  2
BLOCK642
340
0
  0
BLOCK_RECORD
  5
2FA
330
1
100
AcDbSymbolTableRecord
100
AcDbBlockTableRecord
  2
BLOCK643
340
0
  0
BLOCK_RECORD
  5
2FE
330
1
100
AcDbSymbolTableRecord
100
AcDbBlockTableRecord
  2
BLOCK644
340
0
  0
BLOCK_RECORD
  5
302
330
1
100
AcDbSymbolTableRecord
100
AcDbBlockTableRecord
  2
BLOCK645
340
0
  0
BLOCK_RECORD
  5
306
330
1
100
AcDbSymbolTableRecord
100
AcDbBlockTableRecord
  2
BLOCK646
340
0
  0
BLOCK_RECORD
  5
30A
330
1
100
AcDbSymbolTableRecord
100
AcDbBlockTableRecord
  2
BLOCK647
340
0
  0
BLOCK_RECORD
  5
30E
330
1
100
AcDbSymbolTableRecord
100
AcDbBlockTableRecord
  2
BLOCK648
340
0
  0
BLOCK_RECORD
  5
312
330
1
100
AcDbSymbolTableRecord
100
AcDbBlockTableRecord
  2
BLOCK649
340
0
  0
BLOCK_RECORD
  5
316
330
1
100
AcDbSymbolTableRecord
100
AcDbBlockTableRecord
  2
BLOCK650
340
0
  0
BLOCK_RECORD
  5
31A
330
1
100
AcDbSymbolTableRecord
100
AcDbBlockTableRecord
  2
BLOCK651
340
0
  0
BLOCK_RECORD
  5
31E
330
1
100
AcDbSymbolTableRecord
100
AcDbBlockTableRecord
  2
BLOCK652
340
0
  0
BLOCK_RECORD
  5
322
330
1
100
AcDbSymbolTableRecord
100
AcDbBlockTableRecord
  2
BLOCK653
340
0
  0
BLOCK_RECORD
  5
326
330
1
100
AcDbSymbolTableRecord
100
AcDbBlockTableRecord
  2
BLOCK654
340
0
  0
BLOCK_RECORD
  5
32A
330
1
100
AcDbSymbolTableRecord
100
AcDbBlockTableRecord
  2
BLOCK655
340
0
  0
BLOCK_RECORD
  5
32E
330
1
100
AcDbSymbolTableRecord
100
AcDbBlockTableRecord
  2
BLOCK656
340
0
  0
BLOCK_RECORD
  5
332
330
1
100
AcDbSymbolTableRecord
100
AcDbBlockTableRecord
  2
BLOCK657
340
0
  0
BLOCK_RECORD
  5
336
330
1
100
AcDbSymbolTableRecord
100
AcDbBlockTableRecord
  2
BLOCK658
340
0
  0
BLOCK_RECORD
  5
33A
330
1
100
AcDbSymbolTableRecord
100
AcDbBlockTableRecord
  2
BLOCK659
340
0
  0
BLOCK_RECORD
  5
33E
330
1
100
AcDbSymbolTableRecord
100
AcDbBlockTableRecord
  2
BLOCK660
340
0
  0
BLOCK_RECORD
  5
342
330
1
100
AcDbSymbolTableRecord
100
AcDbBlockTableRecord
  2
BLOCK661
340
0
  0
BLOCK_RECORD
  5
346
330
1
100
AcDbSymbolTableRecord
100
AcDbBlockTableRecord
  2
BLOCK662
340
0
  0
BLOCK_RECORD
  5
34A
330
1
100
AcDbSymbolTableRecord
100
AcDbBlockTableRecord
  2
BLOCK663
340
0
  0
BLOCK_RECORD
  5
34E
330
1
100
AcDbSymbolTableRecord
100
AcDbBlockTableRecord
  2
BLOCK664
340
0
  0
BLOCK_RECORD
  5
352
330
1
100
AcDbSymbolTableRecord
100
AcDbBlockTableRecord
  2
BLOCK665
340
0
  0
BLOCK_RECORD
  5
356
330
1
100
AcDbSymbolTableRecord
100
AcDbBlockTableRecord
  2
BLOCK666
340
0
  0
BLOCK_RECORD
  5
35A
330
1
100
AcDbSymbolTableRecord
100
AcDbBlockTableRecord
  2
BLOCK667
340
0
  0
BLOCK_RECORD
  5
35E
330
1
100
AcDbSymbolTableRecord
100
AcDbBlockTableRecord
  2
BLOCK668
340
0
  0
BLOCK_RECORD
  5
362
330
1
100
AcDbSymbolTableRecord
100
AcDbBlockTableRecord
  2
BLOCK669
340
0
  0
BLOCK_RECORD
  5
366
330
1
100
AcDbSymbolTableRecord
100
AcDbBlockTableRecord
  2
BLOCK670
340
0
  0
BLOCK_RECORD
  5
36A
330
1
100
AcDbSymbolTableRecord
100
AcDbBlockTableRecord
  2
BLOCK671
340
0
  0
BLOCK_RECORD
  5
36E
330
1
100
AcDbSymbolTableRecord
100
AcDbBlockTableRecord
  2
BLOCK672
340
0
  0
BLOCK_RECORD
  5
372
330
1
100
AcDbSymbolTableRecord
100
AcDbBlockTableRecord
  2
BLOCK673
340
0
  0
BLOCK_RECORD
  5
376
330
1
100
AcDbSymbolTableRecord
100
AcDbBlockTableRecord
  2
BLOCK674
340
0
  0
BLOCK_RECORD
  5
37A
330
1
100
AcDbSymbolTableRecord
100
AcDbBlockTableRecord
  2
BLOCK675
340
0
  0
BLOCK_RECORD
  5
37E
330
1
100
AcDbSymbolTableRecord
100
AcDbBlockTableRecord
  2
BLOCK676
340
0
  0
BLOCK_RECORD
  5
382
330
1
100
AcDbSymbolTableRecord
100
AcDbBlockTableRecord
  2
BLOCK677
340
0
  0
BLOCK_RECORD
  5
386
330
1
100
AcDbSymbolTableRecord
100
AcDbBlockTableRecord
  2
BLOCK678
340
0
  0
BLOCK_RECORD
  5
3A2
330
1
100
AcDbSymbolTableRecord
100
AcDbBlockTableRecord
  2
BLOCK679
340
0
  0
BLOCK_RECORD
  5
3A6
330
1
100
AcDbSymbolTableRecord
100
AcDbBlockTableRecord
  2
BLOCK680
340
0
  0
BLOCK_RECORD
  5
3AA
330
1
100
AcDbSymbolTableRecord
100
AcDbBlockTableRecord
  2
BLOCK681
340
0
  0
BLOCK_RECORD
  5
3AE
330
1
100
AcDbSymbolTableRecord
100
AcDbBlockTableRecord
  2
BLOCK682
340
0
  0
BLOCK_RECORD
  5
3B2
330
1
100
AcDbSymbolTableRecord
100
AcDbBlockTableRecord
  2
BLOCK683
340
0
  0
BLOCK_RECORD
  5
3B6
330
1
100
AcDbSymbolTableRecord
100
AcDbBlockTableRecord
  2
BLOCK684
340
0
  0
BLOCK_RECORD
  5
3BA
330
1
100
AcDbSymbolTableRecord
100
AcDbBlockTableRecord
  2
BLOCK685
340
0
  0
BLOCK_RECORD
  5
3BE
330
1
100
AcDbSymbolTableRecord
100
AcDbBlockTableRecord
  2
BLOCK686
340
0
  0
BLOCK_RECORD
  5
3C2
330
1
100
AcDbSymbolTableRecord
100
AcDbBlockTableRecord
  2
BLOCK687
340
0
  0
BLOCK_RECORD
  5
3CB
330
1
100
AcDbSymbolTableRecord
100
AcDbBlockTableRecord
  2
BLOCK688
340
0
  0
BLOCK_RECORD
  5
3DF
330
1
100
AcDbSymbolTableRecord
100
AcDbBlockTableRecord
  2
BLOCK689
340
0
  0
BLOCK_RECORD
  5
423
330
1
100
AcDbSymbolTableRecord
100
AcDbBlockTableRecord
  2
BLOCK690
340
0
  0
BLOCK_RECORD
  5
42E
330
1
100
AcDbSymbolTableRecord
100
AcDbBlockTableRecord
  2
*D162
340
0
  0
BLOCK_RECORD
  5
439
330
1
100
AcDbSymbolTableRecord
100
AcDbBlockTableRecord
  2
*D163
340
0
  0
BLOCK_RECORD
  5
444
330
1
100
AcDbSymbolTableRecord
100
AcDbBlockTableRecord
  2
*D164
340
0
  0
BLOCK_RECORD
  5
44F
330
1
100
AcDbSymbolTableRecord
100
AcDbBlockTableRecord
  2
*D165
340
0
  0
BLOCK_RECORD
  5
45A
330
1
100
AcDbSymbolTableRecord
100
AcDbBlockTableRecord
  2
*D166
340
0
  0
BLOCK_RECORD
  5
5A8
330
1
100
AcDbSymbolTableRecord
100
AcDbBlockTableRecord
  2
*D167
340
0
  0
BLOCK_RECORD
  5
5B5
330
1
100
AcDbSymbolTableRecord
100
AcDbBlockTableRecord
  2
*D168
340
0
  0
BLOCK_RECORD
  5
5C2
330
1
100
AcDbSymbolTableRecord
100
AcDbBlockTableRecord
  2
*D169
340
0
  0
BLOCK_RECORD
  5
5CF
330
1
100
AcDbSymbolTableRecord
100
AcDbBlockTableRecord
  2
*D170
340
0
  0
BLOCK_RECORD
  5
5DB
330
1
100
AcDbSymbolTableRecord
100
AcDbBlockTableRecord
  2
*D171
340
0
  0
BLOCK_RECORD
  5
5E7
330
1
100
AcDbSymbolTableRecord
100
AcDbBlockTableRecord
  2
*D172
340
0
  0
BLOCK_RECORD
  5
5F3
330
1
100
AcDbSymbolTableRecord
100
AcDbBlockTableRecord
  2
*D173
340
0
  0
BLOCK_RECORD
  5
5FE
330
1
100
AcDbSymbolTableRecord
100
AcDbBlockTableRecord
  2
*D174
340
0
  0
BLOCK_RECORD
  5
609
330
1
100
AcDbSymbolTableRecord
100
AcDbBlockTableRecord
  2
*D175
340
0
  0
BLOCK_RECORD
  5
614
330
1
100
AcDbSymbolTableRecord
100
AcDbBlockTableRecord
  2
*D176
340
0
  0
BLOCK_RECORD
  5
61F
330
1
100
AcDbSymbolTableRecord
100
AcDbBlockTableRecord
  2
*D177
340
0
  0
BLOCK_RECORD
  5
62A
330
1
100
AcDbSymbolTableRecord
100
AcDbBlockTableRecord
  2
*D178
340
0
  0
BLOCK_RECORD
  5
635
330
1
100
AcDbSymbolTableRecord
100
AcDbBlockTableRecord
  2
*D179
340
0
  0
BLOCK_RECORD
  5
640
330
1
100
AcDbSymbolTableRecord
100
AcDbBlockTableRecord
  2
*D180
340
0
  0
BLOCK_RECORD
  5
64B
330
1
100
AcDbSymbolTableRecord
100
AcDbBlockTableRecord
  2
*D181
340
0
  0
BLOCK_RECORD
  5
656
330
1
100
AcDbSymbolTableRecord
100
AcDbBlockTableRecord
  2
*D182
340
0
  0
BLOCK_RECORD
  5
662
330
1
100
AcDbSymbolTableRecord
100
AcDbBlockTableRecord
  2
*D183
340
0
  0
BLOCK_RECORD
  5
66D
330
1
100
AcDbSymbolTableRecord
100
AcDbBlockTableRecord
  2
*D184
340
0
  0
BLOCK_RECORD
  5
678
330
1
100
AcDbSymbolTableRecord
100
AcDbBlockTableRecord
  2
*D185
340
0
  0
BLOCK_RECORD
  5
683
330
1
100
AcDbSymbolTableRecord
100
AcDbBlockTableRecord
  2
*D186
340
0
  0
BLOCK_RECORD
  5
68E
330
1
100
AcDbSymbolTableRecord
100
AcDbBlockTableRecord
  2
*D187
340
0
  0
BLOCK_RECORD
  5
699
330
1
100
AcDbSymbolTableRecord
100
AcDbBlockTableRecord
  2
*D188
340
0
  0
BLOCK_RECORD
  5
6A4
330
1
100
AcDbSymbolTableRecord
100
AcDbBlockTableRecord
  2
*D189
340
0
  0
BLOCK_RECORD
  5
6B0
330
1
100
AcDbSymbolTableRecord
100
AcDbBlockTableRecord
  2
*D190
340
0
  0
BLOCK_RECORD
  5
6BC
330
1
100
AcDbSymbolTableRecord
100
AcDbBlockTableRecord
  2
*D191
340
0
  0
BLOCK_RECORD
  5
6C7
330
1
100
AcDbSymbolTableRecord
100
AcDbBlockTableRecord
  2
*D192
340
0
  0
BLOCK_RECORD
  5
6D2
330
1
100
AcDbSymbolTableRecord
100
AcDbBlockTableRecord
  2
*D193
340
0
  0
BLOCK_RECORD
  5
6DD
330
1
100
AcDbSymbolTableRecord
100
AcDbBlockTableRecord
  2
*D194
340
0
  0
BLOCK_RECORD
  5
6E8
330
1
100
AcDbSymbolTableRecord
100
AcDbBlockTableRecord
  2
*D195
340
0
  0
BLOCK_RECORD
  5
6F2
330
1
100
AcDbSymbolTableRecord
100
AcDbBlockTableRecord
  2
*D196
340
0
  0
BLOCK_RECORD
  5
6FB
330
1
100
AcDbSymbolTableRecord
100
AcDbBlockTableRecord
  2
*D197
340
0
  0
BLOCK_RECORD
  5
705
330
1
100
AcDbSymbolTableRecord
100
AcDbBlockTableRecord
  2
*D198
340
0
  0
BLOCK_RECORD
  5
8AE
330
1
100
AcDbSymbolTableRecord
100
AcDbBlockTableRecord
  2
*D199
340
0
  0
BLOCK_RECORD
  5
8BA
330
1
100
AcDbSymbolTableRecord
100
AcDbBlockTableRecord
  2
*D200
340
0
  0
BLOCK_RECORD
  5
8C6
330
1
100
AcDbSymbolTableRecord
100
AcDbBlockTableRecord
  2
*D201
340
0
  0
BLOCK_RECORD
  5
8D2
330
1
100
AcDbSymbolTableRecord
100
AcDbBlockTableRecord
  2
*D202
340
0
  0
BLOCK_RECORD
  5
8DD
330
1
100
AcDbSymbolTableRecord
100
AcDbBlockTableRecord
  2
*D203
340
0
  0
BLOCK_RECORD
  5
8E9
330
1
100
AcDbSymbolTableRecord
100
AcDbBlockTableRecord
  2
*D204
340
0
  0
BLOCK_RECORD
  5
8F4
330
1
100
AcDbSymbolTableRecord
100
AcDbBlockTableRecord
  2
*D205
340
0
  0
BLOCK_RECORD
  5
8FF
330
1
100
AcDbSymbolTableRecord
100
AcDbBlockTableRecord
  2
*D206
340
0
  0
BLOCK_RECORD
  5
90A
330
1
100
AcDbSymbolTableRecord
100
AcDbBlockTableRecord
  2
*D207
340
0
  0
BLOCK_RECORD
  5
915
330
1
100
AcDbSymbolTableRecord
100
AcDbBlockTableRecord
  2
*D208
340
0
  0
ENDTAB
  0
ENDSEC
  0
SECTION
  2
BLOCKS
  0
BLOCK
  5
20
330
1F
100
AcDbEntity
  8
0
100
AcDbBlockBegin
  2
*Model_Space
 70
     0
 10
0.0
 20
0.0
 30
0.0
  3
*Model_Space
  1

  0
ENDBLK
  5
21
330
1F
100
AcDbEntity
  8
0
100
AcDbBlockEnd
  0
BLOCK
  5
75
330
73
100
AcDbEntity
 67
     1
  8
0
100
AcDbBlockBegin
  2
*Paper_Space
 70
     0
 10
0.0
 20
0.0
 30
0.0
  3
*Paper_Space
  1

  0
ENDBLK
  5
76
330
73
100
AcDbEntity
 67
     1
  8
0
100
AcDbBlockEnd
  0
BLOCK
  5
91B
330
D1
100
AcDbEntity
  8
0
100
AcDbBlockBegin
  2
*Paper_Space0
 70
     0
 10
0.0
 20
0.0
 30
0.0
  3
*Paper_Space0
  1

  0
VIEWPORT
  5
89B
330
D1
100
AcDbEntity
  8
0
100
AcDbViewport
 10
7.8
 20
4.5
 30
0.0
 40
15.64
 41
9.0
 68
     1
 69
     1
 12
6.0
 22
4.5
 13
0.0
 23
0.0
 14
0.5
 24
0.5
 15
0.5
 25
0.5
 16
0.0
 26
0.0
 36
1.0
 17
0.0
 27
0.0
 37
0.0
 42
50.0
 43
0.0
 44
0.0
 45
12.0
 50
0.0
 51
0.0
 72
   100
 90
   557152
  1

281
     0
 71
     1
 74
     0
110
0.0
120
0.0
130
0.0
111
1.0
121
0.0
131
0.0
112
0.0
122
1.0
132
0.0
 79
     0
146
0.0
  0
ENDBLK
  5
91C
330
D1
100
AcDbEntity
  8
0
100
AcDbBlockEnd
  0
BLOCK
  5
91D
330
103
100
AcDbEntity
  8
0
100
AcDbBlockBegin
  2
BLOCK530
 70
     0
 10
0.0
 20
0.0
 30
0.0
  3
BLOCK530
  1

  0
TEXT
  5
FF
330
103
100
AcDbEntity
  8
0
 62
     7
370
    70
390
F
100
AcDbText
 10
-222.198181
 20
-115.246094
 30
0.0
 40
4.266667
  1
SUPERFICIE IN VISTA DA VERNICIARE
 41
0.9765955337433675
 72
     5
 11
-91.638199
 21
-115.246094
 31
0.0
100
AcDbText
  0
LWPOLYLINE
  5
100
330
103
100
AcDbEntity
  8
0
 62
     7
370
    13
390
F
100
AcDbPolyline
 90
        4
 70
     0
 43
0.0
 10
-134.041443
 20
-167.491531
 10
-156.918198
 20
-117.094978
 10
-222.198181
 20
-117.094986
 10
-91.638199
 20
-117.094986
  0
LWPOLYLINE
  5
101
330
103
100
AcDbEntity
  8
0
 62
     7
370
    13
390
F
100
AcDbPolyline
 90
        3
 70
     0
 43
0.0
 10
-135.734604
 20
-165.431351
 10
-134.041443
 20
-167.491531
 10
-134.477661
 20
-164.860794
  0
ENDBLK
  5
91E
330
103
100
AcDbEntity
  8
0
100
AcDbBlockEnd
  0
BLOCK
  5
91F
330
10C
100
AcDbEntity
  8
0
100
AcDbBlockBegin
  2
BLOCK531
 70
     0
 10
0.0
 20
0.0
 30
0.0
  3
BLOCK531
  1

  0
TEXT
  5
105
330
10C
100
AcDbEntity
  8
0
 62
   172
370
    13
390
F
100
AcDbText
 10
-201.16655
 20
-195.499924
 30
0.0
 40
4.0
  1
120
 50
90.0
 41
1.199999307692307
 72
     5
 11
-201.16655
 21
-185.09993
 31
0.0
100
AcDbText
  0
LINE
  5
106
330
10C
100
AcDbEntity
  8
0
 62
   172
370
    13
390
F
100
AcDbLine
 10
-171.152512
 20
-250.0
 30
0.0
 11
-201.16655
 21
-250.0
 31
0.0
  0
LINE
  5
107
330
10C
100
AcDbEntity
  8
0
 62
   172
370
    13
390
F
100
AcDbLine
 10
-1.777155
 20
-130.0
 30
0.0
 11
-201.16655
 21
-130.0
 31
0.0
  0
LWPOLYLINE
  5
108
330
10C
100
AcDbEntity
  8
0
 62
   172
370
    35
390
F
100
AcDbPolyline
 90
        3
 70
     0
 43
0.0
 10
-199.190063
 20
-247.424194
 10
-198.499878
 20
-250.0
 10
-197.809692
 20
-247.424194
  0
LWPOLYLINE
  5
109
330
10C
100
AcDbEntity
  8
0
 62
   172
370
    35
390
F
100
AcDbPolyline
 90
        3
 70
     0
 43
0.0
 10
-197.809692
 20
-132.575806
 10
-198.499878
 20
-130.0
 10
-199.190063
 20
-132.575806
  0
LINE
  5
10A
330
10C
100
AcDbEntity
  8
0
 62
   172
370
    13
390
F
100
AcDbLine
 10
-198.499878
 20
-250.0
 30
0.0
 11
-198.499878
 21
-130.0
 31
0.0
  0
ENDBLK
  5
920
330
10C
100
AcDbEntity
  8
0
100
AcDbBlockEnd
  0
BLOCK
  5
921
330
115
100
AcDbEntity
  8
0
100
AcDbBlockBegin
  2
BLOCK532
 70
     0
 10
0.0
 20
0.0
 30
0.0
  3
BLOCK532
  1

  0
TEXT
  5
10E
330
115
100
AcDbEntity
  8
0
 62
   172
370
    13
390
F
100
AcDbText
 10
-189.814072
 20
-238.824814
 30
0.0
 40
4.0
  1
30
 50
90.0
 41
1.111109500000002
 72
     5
 11
-189.814072
 21
-232.158157
 31
0.0
100
AcDbText
  0
LINE
  5
10F
330
115
100
AcDbEntity
  8
0
 62
   172
 48
0.466539
370
    13
390
F
100
AcDbLine
 10
-171.152512
 20
-250.0
 30
0.0
 11
-189.814072
 21
-250.0
 31
0.0
  0
LINE
  5
110
330
115
100
AcDbEntity
  8
0
 62
   172
 48
0.466298
370
    13
390
F
100
AcDbLine
 10
-171.16214
 20
-220.0
 30
0.0
 11
-189.814072
 21
-220.0
 31
0.0
  0
LWPOLYLINE
  5
111
330
115
100
AcDbEntity
  8
0
 62
   172
370
    35
390
F
100
AcDbPolyline
 90
        3
 70
     0
 43
0.0
 10
-187.837601
 20
-247.424194
 10
-187.147415
 20
-250.0
 10
-186.45723
 20
-247.424194
  0
LWPOLYLINE
  5
112
330
115
100
AcDbEntity
  8
0
 62
   172
370
    35
390
F
100
AcDbPolyline
 90
        3
 70
     0
 43
0.0
 10
-186.45723
 20
-222.575806
 10
-187.147415
 20
-220.0
 10
-187.837601
 20
-222.575806
  0
LINE
  5
113
330
115
100
AcDbEntity
  8
0
 62
   172
370
    13
390
F
100
AcDbLine
 10
-187.147415
 20
-250.0
 30
0.0
 11
-187.147415
 21
-220.0
 31
0.0
  0
ENDBLK
  5
922
330
115
100
AcDbEntity
  8
0
100
AcDbBlockEnd
  0
BLOCK
  5
923
330
11F
100
AcDbEntity
  8
0
100
AcDbBlockBegin
  2
BLOCK533
 70
     0
 10
0.0
 20
0.0
 30
0.0
  3
BLOCK533
  1

  0
TEXT
  5
117
330
11F
100
AcDbEntity
  8
0
 62
   172
370
    13
390
F
100
AcDbText
 10
-3.066667
 20
-266.227264
 30
0.0
 40
4.0
  1
340
 41
1.0400001
 72
     5
 11
7.333334
 21
-266.227264
 31
0.0
100
AcDbText
  0
TEXT
  5
118
330
11F
100
AcDbEntity
  8
0
 62
   172
370
    13
390
F
100
AcDbText
 10
-7.333333
 20
-266.227264
 30
0.0
 40
4.0
  1
%%c
 41
1.099999875
 72
     5
 11
-4.4
 21
-266.227264
 31
0.0
100
AcDbText
  0
LINE
  5
119
330
11F
100
AcDbEntity
  8
0
 62
   172
370
    13
390
F
100
AcDbLine
 10
-170.0
 20
-251.333328
 30
0.0
 11
-170.0
 21
-271.560608
 31
0.0
  0
LINE
  5
11A
330
11F
100
AcDbEntity
  8
0
 62
   172
370
    13
390
F
100
AcDbLine
 10
170.0
 20
-251.333328
 30
0.0
 11
170.0
 21
-271.560608
 31
0.0
  0
LWPOLYLINE
  5
11B
330
11F
100
AcDbEntity
  8
0
 62
   172
370
    35
390
F
100
AcDbPolyline
 90
        3
 70
     0
 43
0.0
 10
-167.424194
 20
-268.203735
 10
-170.0
 20
-268.893921
 10
-167.424194
 20
-269.584106
  0
LWPOLYLINE
  5
11C
330
11F
100
AcDbEntity
  8
0
 62
   172
370
    35
390
F
100
AcDbPolyline
 90
        3
 70
     0
 43
0.0
 10
167.424194
 20
-269.584106
 10
170.0
 20
-268.893921
 10
167.424194
 20
-268.203735
  0
LINE
  5
11D
330
11F
100
AcDbEntity
  8
0
 62
   172
370
    13
390
F
100
AcDbLine
 10
-170.0
 20
-268.893921
 30
0.0
 11
170.0
 21
-268.893921
 31
0.0
  0
ENDBLK
  5
924
330
11F
100
AcDbEntity
  8
0
100
AcDbBlockEnd
  0
BLOCK
  5
925
330
128
100
AcDbEntity
  8
0
100
AcDbBlockBegin
  2
BLOCK534
 70
     0
 10
0.0
 20
0.0
 30
0.0
  3
BLOCK534
  1

  0
TEXT
  5
121
330
128
100
AcDbEntity
  8
0
 62
   172
370
    13
390
F
100
AcDbText
 10
-96.311256
 20
-184.281631
 30
0.0
 40
4.0
  1
45
 50
292.4999545052169
 41
1.000001963053385
 72
     5
 11
-93.760033
 21
-190.440842
 31
0.0
100
AcDbText
  0
TEXT
  5
122
330
128
100
AcDbEntity
  8
0
 62
   172
370
    13
390
F
100
AcDbText
 10
-93.020935
 20
-190.134689
 30
0.0
 40
4.0
  1
%%d
 50
292.5000413726357
 41
2.200005830204224
 72
     5
 11
-91.898392
 21
-192.844742
 31
0.0
100
AcDbText
  0
LINE
  5
123
330
128
100
AcDbEntity
  8
0
 62
   172
370
    13
390
F
100
AcDbLine
 10
-81.593239
 20
-131.593246
 30
0.0
 11
-115.966431
 21
-165.966431
 31
0.0
  0
LWPOLYLINE
  5
124
330
128
100
AcDbEntity
  8
0
 62
   172
370
    35
390
F
100
AcDbPolyline
 90
        3
 70
     0
 43
0.0
 10
-91.608505
 20
-217.424194
 10
-90.91832
 20
-220.0
 10
-90.228142
 20
-217.424194
  0
LWPOLYLINE
  5
125
330
128
100
AcDbEntity
  8
0
 62
   172
370
    35
390
F
100
AcDbPolyline
 90
        3
 70
     0
 43
0.0
 10
-111.771408
 20
-165.414139
 10
-114.080811
 20
-164.080811
 10
-112.747475
 20
-166.390213
  0
ARC
  5
126
330
128
100
AcDbEntity
  8
0
 62
   172
370
    13
390
F
100
AcDbCircle
 10
-170.0
 20
-220.0
 30
0.0
 40
79.08168
100
AcDbArc
 50
0.0
 51
45.000001
  0
ENDBLK
  5
926
330
128
100
AcDbEntity
  8
0
100
AcDbBlockEnd
  0
BLOCK
  5
927
330
12C
100
AcDbEntity
  8
0
100
AcDbBlockBegin
  2
BLOCK535
 70
     0
 10
0.0
 20
0.0
 30
0.0
  3
BLOCK535
  1

  0
TEXT
  5
12A
330
12C
100
AcDbEntity
  8
0
 62
     7
370
    70
390
F
100
AcDbText
 10
270.721008
 20
-22.983374
 30
0.0
 40
4.266667
  1
Il pezzo deve essere esente da bave.
 41
0.9775605996951512
 72
     5
 11
413.227631
 21
-22.983374
 31
0.0
100
AcDbText
  0
ENDBLK
  5
928
330
12C
100
AcDbEntity
  8
0
100
AcDbBlockEnd
  0
BLOCK
  5
929
330
130
100
AcDbEntity
  8
0
100
AcDbBlockBegin
  2
BLOCK536
 70
     0
 10
0.0
 20
0.0
 30
0.0
  3
BLOCK536
  1

  0
TEXT
  5
12E
330
130
100
AcDbEntity
  8
0
 62
     7
370
    70
390
F
100
AcDbText
 10
271.560364
 20
-31.796659
 30
0.0
 40
4.266667
  1
Dove non diversamente specif.R1
 41
1.01411752187501
 72
     5
 11
394.155914
 21
-31.796659
 31
0.0
100
AcDbText
  0
ENDBLK
  5
92A
330
130
100
AcDbEntity
  8
0
100
AcDbBlockEnd
  0
BLOCK
  5
92B
330
134
100
AcDbEntity
  8
0
100
AcDbBlockBegin
  2
BLOCK537
 70
     0
 10
0.0
 20
0.0
 30
0.0
  3
BLOCK537
  1

  0
TEXT
  5
132
330
134
100
AcDbEntity
  8
0
 62
     7
370
    70
390
F
100
AcDbText
 10
269.934082
 20
-12.596285
 30
0.0
 40
4.266667
  1
Verniciatura a base poliestere per esterno Sp min 100 micron
 41
1.005404883445987
 72
     5
 11
508.013977
 21
-12.596285
 31
0.0
100
AcDbText
  0
ENDBLK
  5
92C
330
134
100
AcDbEntity
  8
0
100
AcDbBlockEnd
  0
BLOCK
  5
92D
330
138
100
AcDbEntity
  8
0
100
AcDbBlockBegin
  2
BLOCK538
 70
     0
 10
0.0
 20
0.0
 30
0.0
  3
BLOCK538
  1

  0
TEXT
  5
136
330
138
100
AcDbEntity
  8
0
 62
     7
370
    70
390
F
100
AcDbText
 10
31.999998
 20
-12.554671
 30
0.0
 40
4.266667
  1
A
 41
1.099999953125003
 72
     5
 11
35.128887
 21
-12.554671
 31
0.0
100
AcDbText
  0
ENDBLK
  5
92E
330
138
100
AcDbEntity
  8
0
100
AcDbBlockEnd
  0
BLOCK
  5
92F
330
13C
100
AcDbEntity
  8
0
100
AcDbBlockBegin
  2
BLOCK539
 70
     0
 10
0.0
 20
0.0
 30
0.0
  3
BLOCK539
  1

  0
TEXT
  5
13A
330
13C
100
AcDbEntity
  8
0
 62
     7
370
    70
390
F
100
AcDbText
 10
31.999998
 20
177.634674
 30
0.0
 40
4.266667
  1
A
 41
1.099999953125003
 72
     5
 11
35.128887
 21
177.634674
 31
0.0
100
AcDbText
  0
ENDBLK
  5
930
330
13C
100
AcDbEntity
  8
0
100
AcDbBlockEnd
  0
BLOCK
  5
931
330
144
100
AcDbEntity
  8
0
100
AcDbBlockBegin
  2
BLOCK540
 70
     0
 10
0.0
 20
0.0
 30
0.0
  3
BLOCK540
  1

  0
TEXT
  5
13E
330
144
100
AcDbEntity
  8
0
 62
   172
370
    13
390
F
100
AcDbText
 10
15.384768
 20
26.358017
 30
0.0
 40
4.0
  1
19.7
 50
288.1664481263306
 41
1.325000162619091
 72
     5
 11
19.791239
 21
12.929161
 31
0.0
100
AcDbText
  0
TEXT
  5
13F
330
144
100
AcDbEntity
  8
0
 62
   172
370
    13
390
F
100
AcDbText
 10
14.054515
 20
30.412012
 30
0.0
 40
4.0
  1
R
 50
288.1664561747922
 41
1.100000163367729
 72
     5
 11
14.969066
 21
27.624891
 31
0.0
100
AcDbText
  0
ARC
  5
140
330
144
100
AcDbEntity
  8
0
 62
   172
370
    13
390
F
100
AcDbCircle
 10
0.0
 20
64.690521
 30
0.0
 40
19.689667
100
AcDbArc
 50
273.882823
 51
295.926282
  0
LWPOLYLINE
  5
141
330
144
100
AcDbEntity
  8
0
 62
   172
370
    35
390
F
100
AcDbPolyline
 90
        3
 70
     0
 43
0.0
 10
7.597674
 20
43.750065
 10
6.138813
 20
45.982292
 10
6.28611
 20
43.319695
  0
LINE
  5
142
330
144
100
AcDbEntity
  8
0
 62
   172
370
    13
390
F
100
AcDbLine
 10
1.981767
 20
58.65102
 30
0.0
 11
17.257492
 21
12.097752
 31
0.0
  0
ENDBLK
  5
932
330
144
100
AcDbEntity
  8
0
100
AcDbBlockEnd
  0
BLOCK
  5
933
330
14C
100
AcDbEntity
  8
0
100
AcDbBlockBegin
  2
BLOCK541
 70
     0
 10
0.0
 20
0.0
 30
0.0
  3
BLOCK541
  1

  0
TEXT
  5
146
330
14C
100
AcDbEntity
  8
0
 62
   172
370
    13
390
F
100
AcDbText
 10
-3.419646
 20
2.19581
 30
0.0
 40
4.0
  1
128
 50
8.303899319348105
 41
1.11428582150642
 72
     5
 11
6.871321
 21
3.697815
 31
0.0
100
AcDbText
  0
TEXT
  5
147
330
14C
100
AcDbEntity
  8
0
 62
   172
370
    13
390
F
100
AcDbText
 10
-7.641581
 20
1.579603
 30
0.0
 40
4.0
  1
%%c
 50
8.30388930306219
 41
1.100000291559088
 72
     5
 11
-4.739
 21
2.003245
 31
0.0
100
AcDbText
  0
LWPOLYLINE
  5
148
330
14C
100
AcDbEntity
  8
0
 62
   172
370
    35
390
F
100
AcDbPolyline
 90
        3
 70
     0
 43
0.0
 10
60.879902
 20
8.188156
 10
63.329021
 20
9.243112
 10
60.680546
 20
9.554052
  0
LWPOLYLINE
  5
149
330
14C
100
AcDbEntity
  8
0
 62
   172
370
    35
390
F
100
AcDbPolyline
 90
        3
 70
     0
 43
0.0
 10
-60.879902
 20
-8.188156
 10
-63.329021
 20
-9.243112
 10
-60.680546
 20
-9.554052
  0
LINE
  5
14A
330
14C
100
AcDbEntity
  8
0
 62
   172
370
    13
390
F
100
AcDbLine
 10
-63.329021
 20
-9.243112
 30
0.0
 11
63.329021
 21
9.243112
 31
0.0
  0
ENDBLK
  5
934
330
14C
100
AcDbEntity
  8
0
100
AcDbBlockEnd
  0
BLOCK
  5
935
330
155
100
AcDbEntity
  8
0
100
AcDbBlockBegin
  2
BLOCK542
 70
     0
 10
0.0
 20
0.0
 30
0.0
  3
BLOCK542
  1

  0
TEXT
  5
14E
330
155
100
AcDbEntity
  8
0
 62
   172
370
    13
390
F
100
AcDbText
 10
-98.557709
 20
-7.71195
 30
0.0
 40
4.0
  1
122
 50
90.0
 41
1.114285714285714
 72
     5
 11
-98.557709
 21
2.68805
 31
0.0
100
AcDbText
  0
LINE
  5
14F
330
155
100
AcDbEntity
  8
0
 62
   172
370
    13
390
F
100
AcDbLine
 10
-20.69825
 20
-61.0
 30
0.0
 11
-98.557709
 21
-61.0
 31
0.0
  0
LINE
  5
150
330
155
100
AcDbEntity
  8
0
 62
   172
370
    13
390
F
100
AcDbLine
 10
-11.933333
 20
61.0
 30
0.0
 11
-98.557709
 21
61.0
 31
0.0
  0
LWPOLYLINE
  5
151
330
155
100
AcDbEntity
  8
0
 62
   172
370
    35
390
F
100
AcDbPolyline
 90
        3
 70
     0
 43
0.0
 10
-96.581223
 20
-58.424198
 10
-95.891037
 20
-61.0
 10
-95.200851
 20
-58.424198
  0
LWPOLYLINE
  5
152
330
155
100
AcDbEntity
  8
0
 62
   172
370
    35
390
F
100
AcDbPolyline
 90
        3
 70
     0
 43
0.0
 10
-95.200851
 20
58.424198
 10
-95.891037
 20
61.0
 10
-96.581223
 20
58.424198
  0
LINE
  5
153
330
155
100
AcDbEntity
  8
0
 62
   172
370
    13
390
F
100
AcDbLine
 10
-95.891037
 20
-61.0
 30
0.0
 11
-95.891037
 21
61.0
 31
0.0
  0
ENDBLK
  5
936
330
155
100
AcDbEntity
  8
0
100
AcDbBlockEnd
  0
BLOCK
  5
937
330
15E
100
AcDbEntity
  8
0
100
AcDbBlockBegin
  2
BLOCK543
 70
     0
 10
0.0
 20
0.0
 30
0.0
  3
BLOCK543
  1

  0
TEXT
  5
157
330
15E
100
AcDbEntity
  8
0
 62
   172
370
    13
390
F
100
AcDbText
 10
-6.898366
 20
93.812576
 30
0.0
 40
4.0
  1
21.2
 41
1.3250000625
 72
     5
 11
7.234968
 21
93.812576
 31
0.0
100
AcDbText
  0
LINE
  5
158
330
15E
100
AcDbEntity
  8
0
 62
   172
370
    13
390
F
100
AcDbLine
 10
-10.6
 20
62.333332
 30
0.0
 11
-10.6
 21
93.812576
 31
0.0
  0
LINE
  5
159
330
15E
100
AcDbEntity
  8
0
 62
   172
370
    13
390
F
100
AcDbLine
 10
10.6
 20
62.333332
 30
0.0
 11
10.6
 21
93.812576
 31
0.0
  0
LWPOLYLINE
  5
15A
330
15E
100
AcDbEntity
  8
0
 62
   172
370
    35
390
F
100
AcDbPolyline
 90
        3
 70
     0
 43
0.0
 10
-13.175802
 20
90.455719
 10
-10.6
 20
91.145905
 10
-13.175802
 20
91.83609
  0
LWPOLYLINE
  5
15B
330
15E
100
AcDbEntity
  8
0
 62
   172
370
    35
390
F
100
AcDbPolyline
 90
        3
 70
     0
 43
0.0
 10
13.175802
 20
91.83609
 10
10.6
 20
91.145905
 10
13.175802
 20
90.455719
  0
LINE
  5
15C
330
15E
100
AcDbEntity
  8
0
 62
   172
370
    13
390
F
100
AcDbLine
 10
-17.266666
 20
91.145905
 30
0.0
 11
17.266666
 21
91.145905
 31
0.0
  0
ENDBLK
  5
938
330
15E
100
AcDbEntity
  8
0
100
AcDbBlockEnd
  0
BLOCK
  5
939
330
167
100
AcDbEntity
  8
0
100
AcDbBlockBegin
  2
BLOCK544
 70
     0
 10
0.0
 20
0.0
 30
0.0
  3
BLOCK544
  1

  0
TEXT
  5
160
330
167
100
AcDbEntity
  8
0
 62
   172
370
    13
390
F
100
AcDbText
 10
24.630611
 20
48.553333
 30
0.0
 40
4.0
  1
16
 50
90.0
 41
1.249999499999999
 72
     5
 11
24.630611
 21
55.219997
 31
0.0
100
AcDbText
  0
LINE
  5
161
330
167
100
AcDbEntity
  8
0
 62
   172
370
    13
390
F
100
AcDbLine
 10
1.333333
 20
45.000854
 30
0.0
 11
29.963945
 21
45.000854
 31
0.0
  0
LINE
  5
162
330
167
100
AcDbEntity
  8
0
 62
   172
 48
0.231642
370
    13
390
F
100
AcDbLine
 10
20.69825
 20
61.0
 30
0.0
 11
29.963945
 21
61.0
 31
0.0
  0
LWPOLYLINE
  5
163
330
167
100
AcDbEntity
  8
0
 62
   172
370
    35
390
F
100
AcDbPolyline
 90
        3
 70
     0
 43
0.0
 10
26.607094
 20
47.57666
 10
27.297277
 20
45.000854
 10
27.987463
 20
47.57666
  0
LWPOLYLINE
  5
164
330
167
100
AcDbEntity
  8
0
 62
   172
370
    35
390
F
100
AcDbPolyline
 90
        3
 70
     0
 43
0.0
 10
27.987463
 20
58.424198
 10
27.297277
 20
61.0
 10
26.607094
 20
58.424198
  0
LINE
  5
165
330
167
100
AcDbEntity
  8
0
 62
   172
 48
0.399979
370
    13
390
F
100
AcDbLine
 10
27.297277
 20
45.000854
 30
0.0
 11
27.297277
 21
61.0
 31
0.0
  0
ENDBLK
  5
93A
330
167
100
AcDbEntity
  8
0
100
AcDbBlockEnd
  0
BLOCK
  5
93B
330
170
100
AcDbEntity
  8
0
100
AcDbBlockBegin
  2
BLOCK545
 70
     0
 10
0.0
 20
0.0
 30
0.0
  3
BLOCK545
  1

  0
TEXT
  5
169
330
170
100
AcDbEntity
  8
0
 62
     7
370
    13
390
F
100
AcDbText
 10
-98.598915
 20
161.178329
 30
0.0
 40
4.0
  1
60
 50
30.00009955328106
 41
1.111111322784787
 72
     5
 11
-92.825417
 21
164.511673
 31
0.0
100
AcDbText
  0
TEXT
  5
16A
330
170
100
AcDbEntity
  8
0
 62
     7
370
    13
390
F
100
AcDbText
 10
-93.225418
 20
165.204483
 30
0.0
 40
4.0
  1
%%d
 50
30.0001134667864
 41
2.200004953767841
 72
     5
 11
-90.685074
 21
166.671158
 31
0.0
100
AcDbText
  0
LINE
  5
16B
330
170
100
AcDbEntity
  8
0
 62
     7
 48
0.261233
370
    13
390
F
100
AcDbLine
 10
0.0
 20
178.434677
 30
0.0
 11
0.0
 21
188.883987
 31
0.0
  0
LWPOLYLINE
  5
16C
330
170
100
AcDbEntity
  8
0
 62
     7
370
    35
390
F
100
AcDbPolyline
 90
        3
 70
     0
 43
0.0
 10
-2.575802
 20
185.52713
 10
0.0
 20
186.217316
 10
-2.575802
 20
186.907501
  0
LWPOLYLINE
  5
16D
330
170
100
AcDbEntity
  8
0
 62
     7
370
    35
390
F
100
AcDbPolyline
 90
        3
 70
     0
 43
0.0
 10
-160.578751
 20
95.684464
 10
-161.268936
 20
93.108658
 10
-159.383316
 20
94.994278
  0
ARC
  5
16E
330
170
100
AcDbEntity
  8
0
 62
     7
370
    13
390
F
100
AcDbCircle
 10
0.0
 20
0.0
 30
0.0
 40
186.217316
100
AcDbArc
 50
90.000003
 51
149.999997
  0
ENDBLK
  5
93C
330
170
100
AcDbEntity
  8
0
100
AcDbBlockEnd
  0
BLOCK
  5
93D
330
175
100
AcDbEntity
  8
0
100
AcDbBlockBegin
  2
BLOCK546
 70
     0
 10
0.0
 20
0.0
 30
0.0
  3
BLOCK546
  1

  0
LINE
  5
172
330
175
100
AcDbEntity
  8
0
 62
     7
370
    13
390
F
100
AcDbLine
 10
0.0
 20
-10.421338
 30
0.0
 11
26.666664
 21
-10.421338
 31
0.0
  0
LWPOLYLINE
  5
173
330
175
100
AcDbEntity
  8
0
 62
     7
370
    13
390
F
100
AcDbPolyline
 90
        3
 70
     0
 43
0.0
 10
24.090862
 20
-11.111522
 10
26.666664
 20
-10.421338
 10
24.090862
 20
-9.731153
  0
ENDBLK
  5
93E
330
175
100
AcDbEntity
  8
0
100
AcDbBlockEnd
  0
BLOCK
  5
93F
330
17A
100
AcDbEntity
  8
0
100
AcDbBlockBegin
  2
BLOCK547
 70
     0
 10
0.0
 20
0.0
 30
0.0
  3
BLOCK547
  1

  0
LINE
  5
177
330
17A
100
AcDbEntity
  8
0
 62
     7
370
    13
390
F
100
AcDbLine
 10
0.0
 20
179.768005
 30
0.0
 11
26.666664
 21
179.768005
 31
0.0
  0
LWPOLYLINE
  5
178
330
17A
100
AcDbEntity
  8
0
 62
     7
370
    13
390
F
100
AcDbPolyline
 90
        3
 70
     0
 43
0.0
 10
24.090862
 20
179.07782
 10
26.666664
 20
179.768005
 10
24.090862
 20
180.458191
  0
ENDBLK
  5
940
330
17A
100
AcDbEntity
  8
0
100
AcDbBlockEnd
  0
BLOCK
  5
941
330
17E
100
AcDbEntity
  8
0
100
AcDbBlockBegin
  2
BLOCK548
 70
     0
 10
0.0
 20
0.0
 30
0.0
  3
BLOCK548
  1

  0
TEXT
  5
17C
330
17E
100
AcDbEntity
  8
0
 62
     7
370
    70
390
F
100
AcDbText
 10
-49.063847
 20
43.581848
 30
0.0
 40
2.0
  1
30.09.2003
 41
1.1913045
 72
     5
 11
-30.797178
 21
43.581848
 31
0.0
100
AcDbText
  0
ENDBLK
  5
942
330
17E
100
AcDbEntity
  8
0
100
AcDbBlockEnd
  0
BLOCK
  5
943
330
182
100
AcDbEntity
  8
0
100
AcDbBlockBegin
  2
BLOCK549
 70
     0
 10
0.0
 20
0.0
 30
0.0
  3
BLOCK549
  1

  0
TEXT
  5
180
330
182
100
AcDbEntity
  8
0
 62
     7
370
    70
390
F
100
AcDbText
 10
-49.391319
 20
34.740025
 30
0.0
 40
2.0
  1
30.09.2003
 41
1.191304434782609
 72
     5
 11
-31.124651
 21
34.740025
 31
0.0
100
AcDbText
  0
ENDBLK
  5
944
330
182
100
AcDbEntity
  8
0
100
AcDbBlockEnd
  0
BLOCK
  5
945
330
186
100
AcDbEntity
  8
0
100
AcDbBlockBegin
  2
BLOCK550
 70
     0
 10
0.0
 20
0.0
 30
0.0
  3
BLOCK550
  1

  0
TEXT
  5
184
330
186
100
AcDbEntity
  8
100
 62
     7
370
    13
390
F
100
AcDbText
 10
-36.20575
 20
47.416668
 30
0.0
 40
1.5
  1
/Approved
 41
0.7501385384615384
 72
     5
 11
-26.453949
 21
47.416668
 31
0.0
100
AcDbText
  0
ENDBLK
  5
946
330
186
100
AcDbEntity
  8
0
100
AcDbBlockEnd
  0
BLOCK
  5
947
330
18A
100
AcDbEntity
  8
0
100
AcDbBlockBegin
  2
BLOCK551
 70
     0
 10
0.0
 20
0.0
 30
0.0
  3
BLOCK551
  1

  0
TEXT
  5
188
330
18A
100
AcDbEntity
  8
100
 62
     7
370
    13
390
F
100
AcDbText
 10
-49.0
 20
47.416668
 30
0.0
 40
1.5
  1
APPROVATO
 41
0.911111037037037
 72
     5
 11
-36.700001
 21
47.416668
 31
0.0
100
AcDbText
  0
ENDBLK
  5
948
330
18A
100
AcDbEntity
  8
0
100
AcDbBlockEnd
  0
BLOCK
  5
949
330
18E
100
AcDbEntity
  8
0
100
AcDbBlockBegin
  2
BLOCK552
 70
     0
 10
0.0
 20
0.0
 30
0.0
  3
BLOCK552
  1

  0
TEXT
  5
18C
330
18E
100
AcDbEntity
  8
0
 62
     7
370
    70
390
F
100
AcDbText
 10
-134.746613
 20
20.575142
 30
0.0
 40
2.8
  1
BASE PALO ESTRUSO PLACE
 41
0.9382354569327732
 72
     5
 11
-75.199936
 21
20.575142
 31
0.0
100
AcDbText
  0
ENDBLK
  5
94A
330
18E
100
AcDbEntity
  8
0
100
AcDbBlockEnd
  0
BLOCK
  5
94B
330
192
100
AcDbEntity
  8
0
100
AcDbBlockBegin
  2
BLOCK553
 70
     0
 10
0.0
 20
0.0
 30
0.0
  3
BLOCK553
  1

  0
TEXT
  5
190
330
192
100
AcDbEntity
  8
100
 62
     7
370
    13
390
F
100
AcDbText
 10
-167.393768
 20
104.191086
 30
0.0
 40
2.0
  1
/Tol.
 41
1.000189571428572
 72
     5
 11
-160.392441
 21
104.191086
 31
0.0
100
AcDbText
  0
ENDBLK
  5
94C
330
192
100
AcDbEntity
  8
0
100
AcDbBlockEnd
  0
BLOCK
  5
94D
330
196
100
AcDbEntity
  8
0
100
AcDbBlockBegin
  2
BLOCK554
 70
     0
 10
0.0
 20
0.0
 30
0.0
  3
BLOCK554
  1

  0
TEXT
  5
194
330
196
100
AcDbEntity
  8
100
 62
     7
370
    13
390
F
100
AcDbText
 10
-173.570404
 20
104.144264
 30
0.0
 40
2.0
  1
TOL.
 41
0.9168446666666673
 72
     5
 11
-168.069336
 21
104.144264
 31
0.0
100
AcDbText
  0
ENDBLK
  5
94E
330
196
100
AcDbEntity
  8
0
100
AcDbBlockEnd
  0
BLOCK
  5
94F
330
19A
100
AcDbEntity
  8
0
100
AcDbBlockBegin
  2
BLOCK555
 70
     0
 10
0.0
 20
0.0
 30
0.0
  3
BLOCK555
  1

  0
TEXT
  5
198
330
19A
100
AcDbEntity
  8
100
 62
     7
370
    13
390
F
100
AcDbText
 10
-182.393768
 20
104.191086
 30
0.0
 40
2.0
  1
/Dim.
 41
1.05019905
 72
     5
 11
-175.392441
 21
104.191086
 31
0.0
100
AcDbText
  0
ENDBLK
  5
950
330
19A
100
AcDbEntity
  8
0
100
AcDbBlockEnd
  0
BLOCK
  5
951
330
19E
100
AcDbEntity
  8
0
100
AcDbBlockBegin
  2
BLOCK556
 70
     0
 10
0.0
 20
0.0
 30
0.0
  3
BLOCK556
  1

  0
TEXT
  5
19C
330
19E
100
AcDbEntity
  8
100
 62
     7
370
    13
390
F
100
AcDbText
 10
-188.570404
 20
104.144264
 30
0.0
 40
2.0
  1
DIM.
 41
1.031450250000001
 72
     5
 11
-183.069336
 21
104.144264
 31
0.0
100
AcDbText
  0
ENDBLK
  5
952
330
19E
100
AcDbEntity
  8
0
100
AcDbBlockEnd
  0
BLOCK
  5
953
330
1A2
100
AcDbEntity
  8
0
100
AcDbBlockBegin
  2
BLOCK557
 70
     0
 10
0.0
 20
0.0
 30
0.0
  3
BLOCK557
  1

  0
TEXT
  5
1A0
330
1A2
100
AcDbEntity
  8
0
 62
     7
370
    70
390
F
100
AcDbText
 10
-183.327637
 20
58.912903
 30
0.0
 40
2.0
  1
:
 41
4.88886666666673
 72
     5
 11
-181.860977
 21
58.912903
 31
0.0
100
AcDbText
  0
ENDBLK
  5
954
330
1A2
100
AcDbEntity
  8
0
100
AcDbBlockEnd
  0
BLOCK
  5
955
330
1A6
100
AcDbEntity
  8
0
100
AcDbBlockBegin
  2
BLOCK558
 70
     0
 10
0.0
 20
0.0
 30
0.0
  3
BLOCK558
  1

  0
TEXT
  5
1A4
330
1A6
100
AcDbEntity
  8
0
 62
     7
370
    70
390
F
100
AcDbText
 10
-183.327637
 20
62.912903
 30
0.0
 40
2.0
  1
:
 41
4.88886666666673
 72
     5
 11
-181.860977
 21
62.912903
 31
0.0
100
AcDbText
  0
ENDBLK
  5
956
330
1A6
100
AcDbEntity
  8
0
100
AcDbBlockEnd
  0
BLOCK
  5
957
330
1AA
100
AcDbEntity
  8
0
100
AcDbBlockBegin
  2
BLOCK559
 70
     0
 10
0.0
 20
0.0
 30
0.0
  3
BLOCK559
  1

  0
TEXT
  5
1A8
330
1AA
100
AcDbEntity
  8
0
 62
     7
370
    70
390
F
100
AcDbText
 10
-183.327637
 20
66.912903
 30
0.0
 40
2.0
  1
:
 41
4.88886666666673
 72
     5
 11
-181.860977
 21
66.912903
 31
0.0
100
AcDbText
  0
ENDBLK
  5
958
330
1AA
100
AcDbEntity
  8
0
100
AcDbBlockEnd
  0
BLOCK
  5
959
330
1AE
100
AcDbEntity
  8
0
100
AcDbBlockBegin
  2
BLOCK560
 70
     0
 10
0.0
 20
0.0
 30
0.0
  3
BLOCK560
  1

  0
TEXT
  5
1AC
330
1AE
100
AcDbEntity
  8
0
 62
     7
370
    70
390
F
100
AcDbText
 10
-183.327637
 20
70.912903
 30
0.0
 40
2.0
  1
:
 41
4.88886666666673
 72
     5
 11
-181.860977
 21
70.912903
 31
0.0
100
AcDbText
  0
ENDBLK
  5
95A
330
1AE
100
AcDbEntity
  8
0
100
AcDbBlockEnd
  0
BLOCK
  5
95B
330
1B2
100
AcDbEntity
  8
0
100
AcDbBlockBegin
  2
BLOCK561
 70
     0
 10
0.0
 20
0.0
 30
0.0
  3
BLOCK561
  1

  0
TEXT
  5
1B0
330
1B2
100
AcDbEntity
  8
0
 62
     7
370
    70
390
F
100
AcDbText
 10
-183.327637
 20
74.912903
 30
0.0
 40
2.0
  1
:
 41
4.88886666666673
 72
     5
 11
-181.860977
 21
74.912903
 31
0.0
100
AcDbText
  0
ENDBLK
  5
95C
330
1B2
100
AcDbEntity
  8
0
100
AcDbBlockEnd
  0
BLOCK
  5
95D
330
1B6
100
AcDbEntity
  8
0
100
AcDbBlockBegin
  2
BLOCK562
 70
     0
 10
0.0
 20
0.0
 30
0.0
  3
BLOCK562
  1

  0
TEXT
  5
1B4
330
1B6
100
AcDbEntity
  8
0
 62
     7
370
    70
390
F
100
AcDbText
 10
-183.327637
 20
78.912903
 30
0.0
 40
2.0
  1
:
 41
4.88886666666673
 72
     5
 11
-181.860977
 21
78.912903
 31
0.0
100
AcDbText
  0
ENDBLK
  5
95E
330
1B6
100
AcDbEntity
  8
0
100
AcDbBlockEnd
  0
BLOCK
  5
95F
330
1BA
100
AcDbEntity
  8
0
100
AcDbBlockBegin
  2
BLOCK563
 70
     0
 10
0.0
 20
0.0
 30
0.0
  3
BLOCK563
  1

  0
TEXT
  5
1B8
330
1BA
100
AcDbEntity
  8
0
 62
     7
370
    70
390
F
100
AcDbText
 10
-183.327637
 20
82.912903
 30
0.0
 40
2.0
  1
:
 41
4.88886666666673
 72
     5
 11
-181.860977
 21
82.912903
 31
0.0
100
AcDbText
  0
ENDBLK
  5
960
330
1BA
100
AcDbEntity
  8
0
100
AcDbBlockEnd
  0
BLOCK
  5
961
330
1BE
100
AcDbEntity
  8
0
100
AcDbBlockBegin
  2
BLOCK564
 70
     0
 10
0.0
 20
0.0
 30
0.0
  3
BLOCK564
  1

  0
TEXT
  5
1BC
330
1BE
100
AcDbEntity
  8
0
 62
     7
370
    70
390
F
100
AcDbText
 10
-183.327637
 20
86.912903
 30
0.0
 40
2.0
  1
:
 41
4.88886666666673
 72
     5
 11
-181.860977
 21
86.912903
 31
0.0
100
AcDbText
  0
ENDBLK
  5
962
330
1BE
100
AcDbEntity
  8
0
100
AcDbBlockEnd
  0
BLOCK
  5
963
330
1C2
100
AcDbEntity
  8
0
100
AcDbBlockBegin
  2
BLOCK565
 70
     0
 10
0.0
 20
0.0
 30
0.0
  3
BLOCK565
  1

  0
TEXT
  5
1C0
330
1C2
100
AcDbEntity
  8
0
 62
     7
370
    70
390
F
100
AcDbText
 10
-183.327637
 20
90.912903
 30
0.0
 40
2.0
  1
:
 41
4.88886666666673
 72
     5
 11
-181.860977
 21
90.912903
 31
0.0
100
AcDbText
  0
ENDBLK
  5
964
330
1C2
100
AcDbEntity
  8
0
100
AcDbBlockEnd
  0
BLOCK
  5
965
330
1C6
100
AcDbEntity
  8
0
100
AcDbBlockBegin
  2
BLOCK566
 70
     0
 10
0.0
 20
0.0
 30
0.0
  3
BLOCK566
  1

  0
TEXT
  5
1C4
330
1C6
100
AcDbEntity
  8
0
 62
     7
370
    70
390
F
100
AcDbText
 10
-183.327637
 20
94.912903
 30
0.0
 40
2.0
  1
:
 41
4.88886666666673
 72
     5
 11
-181.860977
 21
94.912903
 31
0.0
100
AcDbText
  0
ENDBLK
  5
966
330
1C6
100
AcDbEntity
  8
0
100
AcDbBlockEnd
  0
BLOCK
  5
967
330
1CA
100
AcDbEntity
  8
0
100
AcDbBlockBegin
  2
BLOCK567
 70
     0
 10
0.0
 20
0.0
 30
0.0
  3
BLOCK567
  1

  0
TEXT
  5
1C8
330
1CA
100
AcDbEntity
  8
0
 62
     7
370
    70
390
F
100
AcDbText
 10
-183.327637
 20
98.912903
 30
0.0
 40
2.0
  1
:
 41
4.88886666666673
 72
     5
 11
-181.860977
 21
98.912903
 31
0.0
100
AcDbText
  0
ENDBLK
  5
968
330
1CA
100
AcDbEntity
  8
0
100
AcDbBlockEnd
  0
BLOCK
  5
969
330
1CE
100
AcDbEntity
  8
0
100
AcDbBlockBegin
  2
BLOCK568
 70
     0
 10
0.0
 20
0.0
 30
0.0
  3
BLOCK568
  1

  0
TEXT
  5
1CC
330
1CE
100
AcDbEntity
  8
0
 62
     7
370
    70
390
F
100
AcDbText
 10
-186.495407
 20
94.87088
 30
0.0
 40
2.0
  1
10-18
 41
1.043305043478261
 72
     5
 11
-178.496735
 21
94.87088
 31
0.0
100
AcDbText
  0
ENDBLK
  5
96A
330
1CE
100
AcDbEntity
  8
0
100
AcDbBlockEnd
  0
BLOCK
  5
96B
330
1D2
100
AcDbEntity
  8
0
100
AcDbBlockBegin
  2
BLOCK569
 70
     0
 10
0.0
 20
0.0
 30
0.0
  3
BLOCK569
  1

  0
TEXT
  5
1D0
330
1D2
100
AcDbEntity
  8
0
 62
     7
370
    70
390
F
100
AcDbText
 10
-184.945496
 20
98.87088
 30
0.0
 40
2.0
  1
0-10
 41
1.0498225
 72
     5
 11
-178.646561
 21
98.87088
 31
0.0
100
AcDbText
  0
ENDBLK
  5
96C
330
1D2
100
AcDbEntity
  8
0
100
AcDbBlockEnd
  0
BLOCK
  5
96D
330
1D6
100
AcDbEntity
  8
0
100
AcDbBlockBegin
  2
BLOCK570
 70
     0
 10
0.0
 20
0.0
 30
0.0
  3
BLOCK570
  1

  0
TEXT
  5
1D4
330
1D6
100
AcDbEntity
  8
0
 62
     7
370
    70
390
F
100
AcDbText
 10
-186.495407
 20
90.87088
 30
0.0
 40
2.0
  1
18-30
 41
0.9598406399999998
 72
     5
 11
-178.496735
 21
90.87088
 31
0.0
100
AcDbText
  0
ENDBLK
  5
96E
330
1D6
100
AcDbEntity
  8
0
100
AcDbBlockEnd
  0
BLOCK
  5
96F
330
1DA
100
AcDbEntity
  8
0
100
AcDbBlockBegin
  2
BLOCK571
 70
     0
 10
0.0
 20
0.0
 30
0.0
  3
BLOCK571
  1

  0
TEXT
  5
1D8
330
1DA
100
AcDbEntity
  8
0
 62
     7
370
    70
390
F
100
AcDbText
 10
-186.495407
 20
86.87088
 30
0.0
 40
2.0
  1
30-50
 41
0.9229236923076922
 72
     5
 11
-178.496735
 21
86.87088
 31
0.0
100
AcDbText
  0
ENDBLK
  5
970
330
1DA
100
AcDbEntity
  8
0
100
AcDbBlockEnd
  0
BLOCK
  5
971
330
1DE
100
AcDbEntity
  8
0
100
AcDbBlockBegin
  2
BLOCK572
 70
     0
 10
0.0
 20
0.0
 30
0.0
  3
BLOCK572
  1

  0
TEXT
  5
1DC
330
1DE
100
AcDbEntity
  8
0
 62
     7
370
    70
390
F
100
AcDbText
 10
-186.495407
 20
82.87088
 30
0.0
 40
2.0
  1
50-80
 41
0.9229236923076922
 72
     5
 11
-178.496735
 21
82.87088
 31
0.0
100
AcDbText
  0
ENDBLK
  5
972
330
1DE
100
AcDbEntity
  8
0
100
AcDbBlockEnd
  0
BLOCK
  5
973
330
1E2
100
AcDbEntity
  8
0
100
AcDbBlockBegin
  2
BLOCK573
 70
     0
 10
0.0
 20
0.0
 30
0.0
  3
BLOCK573
  1

  0
TEXT
  5
1E0
330
1E2
100
AcDbEntity
  8
0
 62
     7
370
    70
390
F
100
AcDbText
 10
-186.645233
 20
78.87088
 30
0.0
 40
2.0
  1
80-120
 41
0.9698394999999976
 72
     5
 11
-176.946838
 21
78.87088
 31
0.0
100
AcDbText
  0
ENDBLK
  5
974
330
1E2
100
AcDbEntity
  8
0
100
AcDbBlockEnd
  0
BLOCK
  5
975
330
1E6
100
AcDbEntity
  8
0
100
AcDbBlockBegin
  2
BLOCK574
 70
     0
 10
0.0
 20
0.0
 30
0.0
  3
BLOCK574
  1

  0
TEXT
  5
1E4
330
1E6
100
AcDbEntity
  8
0
 62
     7
370
    70
390
F
100
AcDbText
 10
-188.195145
 20
74.87085
 30
0.0
 40
2.0
  1
120-180
 41
1.005717617647059
 72
     5
 11
-176.797012
 21
74.87085
 31
0.0
100
AcDbText
  0
ENDBLK
  5
976
330
1E6
100
AcDbEntity
  8
0
100
AcDbBlockEnd
  0
BLOCK
  5
977
330
1EA
100
AcDbEntity
  8
0
100
AcDbBlockBegin
  2
BLOCK575
 70
     0
 10
0.0
 20
0.0
 30
0.0
  3
BLOCK575
  1

  0
TEXT
  5
1E8
330
1EA
100
AcDbEntity
  8
0
 62
     7
370
    70
390
F
100
AcDbText
 10
-188.195145
 20
70.87085
 30
0.0
 40
2.0
  1
180-250
 41
0.9498444166666667
 72
     5
 11
-176.797012
 21
70.87085
 31
0.0
100
AcDbText
  0
ENDBLK
  5
978
330
1EA
100
AcDbEntity
  8
0
100
AcDbBlockEnd
  0
BLOCK
  5
979
330
1EE
100
AcDbEntity
  8
0
100
AcDbBlockBegin
  2
BLOCK576
 70
     0
 10
0.0
 20
0.0
 30
0.0
  3
BLOCK576
  1

  0
TEXT
  5
1EC
330
1EE
100
AcDbEntity
  8
0
 62
     7
370
    70
390
F
100
AcDbText
 10
-188.195145
 20
66.87085
 30
0.0
 40
2.0
  1
250-320
 41
0.899852605263158
 72
     5
 11
-176.797012
 21
66.87085
 31
0.0
100
AcDbText
  0
ENDBLK
  5
97A
330
1EE
100
AcDbEntity
  8
0
100
AcDbBlockEnd
  0
BLOCK
  5
97B
330
1F2
100
AcDbEntity
  8
0
100
AcDbBlockBegin
  2
BLOCK577
 70
     0
 10
0.0
 20
0.0
 30
0.0
  3
BLOCK577
  1

  0
TEXT
  5
1F0
330
1F2
100
AcDbEntity
  8
0
 62
     7
370
    70
390
F
100
AcDbText
 10
-188.195145
 20
62.87085
 30
0.0
 40
2.0
  1
320-400
 41
0.9241729459459461
 72
     5
 11
-176.797012
 21
62.87085
 31
0.0
100
AcDbText
  0
ENDBLK
  5
97C
330
1F2
100
AcDbEntity
  8
0
100
AcDbBlockEnd
  0
BLOCK
  5
97D
330
1F6
100
AcDbEntity
  8
0
100
AcDbBlockBegin
  2
BLOCK578
 70
     0
 10
0.0
 20
0.0
 30
0.0
  3
BLOCK578
  1

  0
TEXT
  5
1F4
330
1F6
100
AcDbEntity
  8
0
 62
     7
370
    70
390
F
100
AcDbText
 10
-188.195145
 20
58.87085
 30
0.0
 40
2.0
  1
400-500
 41
0.9498444166666667
 72
     5
 11
-176.797012
 21
58.87085
 31
0.0
100
AcDbText
  0
ENDBLK
  5
97E
330
1F6
100
AcDbEntity
  8
0
100
AcDbBlockEnd
  0
BLOCK
  5
97F
330
1FA
100
AcDbEntity
  8
0
100
AcDbBlockBegin
  2
BLOCK579
 70
     0
 10
0.0
 20
0.0
 30
0.0
  3
BLOCK579
  1

  0
TEXT
  5
1F8
330
1FA
100
AcDbEntity
  8
100
 62
     7
370
    13
390
F
100
AcDbText
 10
-39.805885
 20
30.75
 30
0.0
 40
1.5
  1
/Code
 41
0.7501427142857143
 72
     5
 11
-34.554886
 21
30.75
 31
0.0
100
AcDbText
  0
ENDBLK
  5
980
330
1FA
100
AcDbEntity
  8
0
100
AcDbBlockEnd
  0
BLOCK
  5
981
330
1FE
100
AcDbEntity
  8
0
100
AcDbBlockBegin
  2
BLOCK580
 70
     0
 10
0.0
 20
0.0
 30
0.0
  3
BLOCK580
  1

  0
TEXT
  5
1FC
330
1FE
100
AcDbEntity
  8
100
 62
     7
370
    13
390
F
100
AcDbText
 10
-159.0
 20
30.75
 30
0.0
 40
1.5
  1
DESCRIZIONE
 41
1.006667066666667
 72
     5
 11
-143.899994
 21
30.75
 31
0.0
100
AcDbText
  0
ENDBLK
  5
982
330
1FE
100
AcDbEntity
  8
0
100
AcDbBlockEnd
  0
BLOCK
  5
983
330
202
100
AcDbEntity
  8
0
100
AcDbBlockBegin
  2
BLOCK581
 70
     0
 10
0.0
 20
0.0
 30
0.0
  3
BLOCK581
  1

  0
TEXT
  5
200
330
202
100
AcDbEntity
  8
100
 62
     7
370
    13
390
F
100
AcDbText
 10
-142.805893
 20
30.75
 30
0.0
 40
1.5
  1
/Description
 41
0.8469287741935487
 72
     5
 11
-129.678497
 21
30.75
 31
0.0
100
AcDbText
  0
ENDBLK
  5
984
330
202
100
AcDbEntity
  8
0
100
AcDbBlockEnd
  0
BLOCK
  5
985
330
206
100
AcDbEntity
  8
0
100
AcDbBlockBegin
  2
BLOCK582
 70
     0
 10
0.0
 20
0.0
 30
0.0
  3
BLOCK582
  1

  0
TEXT
  5
204
330
206
100
AcDbEntity
  8
0
 62
     7
370
    70
390
F
100
AcDbText
 10
-106.273468
 20
11.075141
 30
0.0
 40
2.8
  1
.
 41
3.334226190476183
 72
     5
 11
-104.873093
 21
11.075141
 31
0.0
100
AcDbText
  0
ENDBLK
  5
986
330
206
100
AcDbEntity
  8
0
100
AcDbBlockEnd
  0
BLOCK
  5
987
330
20A
100
AcDbEntity
  8
0
100
AcDbBlockBegin
  2
BLOCK583
 70
     0
 10
0.0
 20
0.0
 30
0.0
  3
BLOCK583
  1

  0
TEXT
  5
208
330
20A
100
AcDbEntity
  8
100
 62
     7
370
    13
390
F
100
AcDbText
 10
-189.0
 20
55.75
 30
0.0
 40
1.5
  1
SCALA
 41
0.9571424285714281
 72
     5
 11
-182.300003
 21
55.75
 31
0.0
100
AcDbText
  0
ENDBLK
  5
988
330
20A
100
AcDbEntity
  8
0
100
AcDbBlockEnd
  0
BLOCK
  5
989
330
20E
100
AcDbEntity
  8
0
100
AcDbBlockBegin
  2
BLOCK584
 70
     0
 10
0.0
 20
0.0
 30
0.0
  3
BLOCK584
  1

  0
TEXT
  5
20C
330
20E
100
AcDbEntity
  8
100
 62
     7
370
    13
390
F
100
AcDbText
 10
-181.605896
 20
55.75
 30
0.0
 40
1.5
  1
/Scale
 41
0.8227361290322579
 72
     5
 11
-175.229691
 21
55.75
 31
0.0
100
AcDbText
  0
ENDBLK
  5
98A
330
20E
100
AcDbEntity
  8
0
100
AcDbBlockEnd
  0
BLOCK
  5
98B
330
212
100
AcDbEntity
  8
0
100
AcDbBlockBegin
  2
BLOCK585
 70
     0
 10
0.0
 20
0.0
 30
0.0
  3
BLOCK585
  1

  0
TEXT
  5
210
330
212
100
AcDbEntity
  8
0
 62
     7
370
    70
390
F
100
AcDbText
 10
-187.938095
 20
49.290386
 30
0.0
 40
4.0
  1
1:1
 41
1.949998874999999
 72
     5
 11
-177.538101
 21
49.290386
 31
0.0
100
AcDbText
  0
ENDBLK
  5
98C
330
212
100
AcDbEntity
  8
0
100
AcDbBlockEnd
  0
BLOCK
  5
98D
330
216
100
AcDbEntity
  8
0
100
AcDbBlockBegin
  2
BLOCK586
 70
     0
 10
0.0
 20
0.0
 30
0.0
  3
BLOCK586
  1

  0
TEXT
  5
214
330
216
100
AcDbEntity
  8
100
 62
     7
370
    13
390
F
100
AcDbText
 10
-159.0
 20
43.25
 30
0.0
 40
1.5
  1
MATERIALE
 41
0.9840002400000003
 72
     5
 11
-146.699997
 21
43.25
 31
0.0
100
AcDbText
  0
ENDBLK
  5
98E
330
216
100
AcDbEntity
  8
0
100
AcDbBlockEnd
  0
BLOCK
  5
98F
330
21A
100
AcDbEntity
  8
0
100
AcDbBlockBegin
  2
BLOCK587
 70
     0
 10
0.0
 20
0.0
 30
0.0
  3
BLOCK587
  1

  0
TEXT
  5
218
330
21A
100
AcDbEntity
  8
100
 62
     7
370
    13
390
F
100
AcDbText
 10
-145.805893
 20
43.25
 30
0.0
 40
1.5
  1
/Material
 41
0.8668267555555557
 72
     5
 11
-136.054092
 21
43.25
 31
0.0
100
AcDbText
  0
ENDBLK
  5
990
330
21A
100
AcDbEntity
  8
0
100
AcDbBlockEnd
  0
BLOCK
  5
991
330
21E
100
AcDbEntity
  8
0
100
AcDbBlockBegin
  2
BLOCK588
 70
     0
 10
0.0
 20
0.0
 30
0.0
  3
BLOCK588
  1

  0
TEXT
  5
21C
330
21E
100
AcDbEntity
  8
0
 62
     7
370
    70
390
F
100
AcDbText
 10
-125.836868
 20
38.485401
 30
0.0
 40
2.5
  1
Alluminio sp.15/10
 41
1.2
 72
     5
 11
-84.336868
 21
38.485401
 31
0.0
100
AcDbText
  0
ENDBLK
  5
992
330
21E
100
AcDbEntity
  8
0
100
AcDbBlockEnd
  0
BLOCK
  5
993
330
222
100
AcDbEntity
  8
0
100
AcDbBlockBegin
  2
BLOCK589
 70
     0
 10
0.0
 20
0.0
 30
0.0
  3
BLOCK589
  1

  0
TEXT
  5
220
330
222
100
AcDbEntity
  8
100
 62
     7
370
    13
390
F
100
AcDbText
 10
-159.0
 20
55.75
 30
0.0
 40
1.5
  1
FINITURA
 41
1.038094666666666
 72
     5
 11
-148.100006
 21
55.75
 31
0.0
100
AcDbText
  0
ENDBLK
  5
994
330
222
100
AcDbEntity
  8
0
100
AcDbBlockEnd
  0
BLOCK
  5
995
330
226
100
AcDbEntity
  8
0
100
AcDbBlockBegin
  2
BLOCK590
 70
     0
 10
0.0
 20
0.0
 30
0.0
  3
BLOCK590
  1

  0
TEXT
  5
224
330
226
100
AcDbEntity
  8
100
 62
     7
370
    13
390
F
100
AcDbText
 10
-147.205887
 20
55.75
 30
0.0
 40
1.5
  1
/Finishing
 41
0.9458259999999986
 72
     5
 11
-136.328888
 21
55.75
 31
0.0
100
AcDbText
  0
ENDBLK
  5
996
330
226
100
AcDbEntity
  8
0
100
AcDbBlockEnd
  0
BLOCK
  5
997
330
22A
100
AcDbEntity
  8
0
100
AcDbBlockBegin
  2
BLOCK591
 70
     0
 10
0.0
 20
0.0
 30
0.0
  3
BLOCK591
  1

  0
TEXT
  5
228
330
22A
100
AcDbEntity
  8
0
 62
     7
370
    70
390
F
100
AcDbText
 10
-46.644741
 20
17.81024
 30
0.0
 40
5.0
  1
66371659
 41
0.9271232181818183
 72
     5
 11
-12.650223
 21
17.81024
 31
0.0
100
AcDbText
  0
ENDBLK
  5
998
330
22A
100
AcDbEntity
  8
0
100
AcDbBlockEnd
  0
BLOCK
  5
999
330
22E
100
AcDbEntity
  8
0
100
AcDbBlockBegin
  2
BLOCK592
 70
     0
 10
0.0
 20
0.0
 30
0.0
  3
BLOCK592
  1

  0
TEXT
  5
22C
330
22E
100
AcDbEntity
  8
100
 62
     7
370
    13
390
F
100
AcDbText
 10
-49.0
 20
30.75
 30
0.0
 40
1.5
  1
CODICE
 41
1.01249975
 72
     5
 11
-40.900002
 21
30.75
 31
0.0
100
AcDbText
  0
ENDBLK
  5
99A
330
22E
100
AcDbEntity
  8
0
100
AcDbBlockEnd
  0
BLOCK
  5
99B
330
232
100
AcDbEntity
  8
0
100
AcDbBlockBegin
  2
BLOCK593
 70
     0
 10
0.0
 20
0.0
 30
0.0
  3
BLOCK593
  1

  0
TEXT
  5
230
330
232
100
AcDbEntity
  8
100
 62
     7
370
    13
390
F
100
AcDbText
 10
-49.0
 20
39.416668
 30
0.0
 40
1.5
  1
VISTO
 41
0.9571430000000001
 72
     5
 11
-42.299999
 21
39.416668
 31
0.0
100
AcDbText
  0
ENDBLK
  5
99C
330
232
100
AcDbEntity
  8
0
100
AcDbBlockEnd
  0
BLOCK
  5
99D
330
236
100
AcDbEntity
  8
0
100
AcDbBlockBegin
  2
BLOCK594
 70
     0
 10
0.0
 20
0.0
 30
0.0
  3
BLOCK594
  1

  0
TEXT
  5
234
330
236
100
AcDbEntity
  8
100
 62
     7
370
    13
390
F
100
AcDbText
 10
-41.20575
 20
39.416668
 30
0.0
 40
1.5
  1
/Checked
 41
0.7501393913043481
 72
     5
 11
-32.579147
 21
39.416668
 31
0.0
100
AcDbText
  0
ENDBLK
  5
99E
330
236
100
AcDbEntity
  8
0
100
AcDbBlockEnd
  0
BLOCK
  5
99F
330
23A
100
AcDbEntity
  8
0
100
AcDbBlockBegin
  2
BLOCK595
 70
     0
 10
0.0
 20
0.0
 30
0.0
  3
BLOCK595
  1

  0
TEXT
  5
238
330
23A
100
AcDbEntity
  8
100
 62
     7
370
    13
390
F
100
AcDbText
 10
-49.0
 20
112.550003
 30
0.0
 40
1.5
  1
DATA
 41
0.9636361818181818
 72
     5
 11
-43.700001
 21
112.550003
 31
0.0
100
AcDbText
  0
ENDBLK
  5
9A0
330
23A
100
AcDbEntity
  8
0
100
AcDbBlockEnd
  0
BLOCK
  5
9A1
330
23E
100
AcDbEntity
  8
0
100
AcDbBlockBegin
  2
BLOCK596
 70
     0
 10
0.0
 20
0.0
 30
0.0
  3
BLOCK596
  1

  0
TEXT
  5
23C
330
23E
100
AcDbEntity
  8
100
 62
     7
370
    13
390
F
100
AcDbText
 10
-48.855663
 20
109.571449
 30
0.0
 40
1.5
  1
Date
 41
0.7501456363636368
 72
     5
 11
-44.729862
 21
109.571449
 31
0.0
100
AcDbText
  0
ENDBLK
  5
9A2
330
23E
100
AcDbEntity
  8
0
100
AcDbBlockEnd
  0
BLOCK
  5
9A3
330
242
100
AcDbEntity
  8
0
100
AcDbBlockBegin
  2
BLOCK597
 70
     0
 10
0.0
 20
0.0
 30
0.0
  3
BLOCK597
  1

  0
TEXT
  5
240
330
242
100
AcDbEntity
  8
100
 62
     7
370
    13
390
F
100
AcDbText
 10
-29.0
 20
112.550003
 30
0.0
 40
1.5
  1
DISEGNATO
 41
0.9839999199999999
 72
     5
 11
-16.700001
 21
112.550003
 31
0.0
100
AcDbText
  0
ENDBLK
  5
9A4
330
242
100
AcDbEntity
  8
0
100
AcDbBlockEnd
  0
BLOCK
  5
9A5
330
246
100
AcDbEntity
  8
0
100
AcDbBlockBegin
  2
BLOCK598
 70
     0
 10
0.0
 20
0.0
 30
0.0
  3
BLOCK598
  1

  0
TEXT
  5
244
330
246
100
AcDbEntity
  8
100
 62
     7
370
    13
390
F
100
AcDbText
 10
-28.855663
 20
109.571449
 30
0.0
 40
1.5
  1
Drawn
 41
0.7501427142857143
 72
     5
 11
-23.604664
 21
109.571449
 31
0.0
100
AcDbText
  0
ENDBLK
  5
9A6
330
246
100
AcDbEntity
  8
0
100
AcDbBlockEnd
  0
BLOCK
  5
9A7
330
24A
100
AcDbEntity
  8
0
100
AcDbBlockBegin
  2
BLOCK599
 70
     0
 10
0.0
 20
0.0
 30
0.0
  3
BLOCK599
  1

  0
TEXT
  5
248
330
24A
100
AcDbEntity
  8
100
 62
     7
370
    13
390
F
100
AcDbText
 10
-126.0
 20
112.550003
 30
0.0
 40
1.5
  1
DESCRIZIONE
 41
1.006666533333333
 72
     5
 11
-110.900002
 21
112.550003
 31
0.0
100
AcDbText
  0
ENDBLK
  5
9A8
330
24A
100
AcDbEntity
  8
0
100
AcDbBlockEnd
  0
BLOCK
  5
9A9
330
24E
100
AcDbEntity
  8
0
100
AcDbBlockBegin
  2
BLOCK600
 70
     0
 10
0.0
 20
0.0
 30
0.0
  3
BLOCK600
  1

  0
TEXT
  5
24C
330
24E
100
AcDbEntity
  8
100
 62
     7
370
    13
390
F
100
AcDbText
 10
-126.055664
 20
109.571449
 30
0.0
 40
1.5
  1
Description
 41
0.8573003571428564
 72
     5
 11
-114.053459
 21
109.571449
 31
0.0
100
AcDbText
  0
ENDBLK
  5
9AA
330
24E
100
AcDbEntity
  8
0
100
AcDbBlockEnd
  0
BLOCK
  5
9AB
330
252
100
AcDbEntity
  8
0
100
AcDbBlockBegin
  2
BLOCK601
 70
     0
 10
0.0
 20
0.0
 30
0.0
  3
BLOCK601
  1

  0
TEXT
  5
250
330
252
100
AcDbEntity
  8
100
 62
     7
370
    13
390
F
100
AcDbText
 10
-141.0
 20
112.550003
 30
0.0
 40
1.5
  1
RIF.TO
 41
1.157143714285715
 72
     5
 11
-132.899994
 21
112.550003
 31
0.0
100
AcDbText
  0
ENDBLK
  5
9AC
330
252
100
AcDbEntity
  8
0
100
AcDbBlockEnd
  0
BLOCK
  5
9AD
330
256
100
AcDbEntity
  8
0
100
AcDbBlockBegin
  2
BLOCK602
 70
     0
 10
0.0
 20
0.0
 30
0.0
  3
BLOCK602
  1

  0
TEXT
  5
254
330
256
100
AcDbEntity
  8
100
 62
     7
370
    13
390
F
100
AcDbText
 10
-140.855667
 20
109.571449
 30
0.0
 40
1.5
  1
Ref.ce
 41
0.8501606666666665
 72
     5
 11
-134.479462
 21
109.571449
 31
0.0
100
AcDbText
  0
ENDBLK
  5
9AE
330
256
100
AcDbEntity
  8
0
100
AcDbBlockEnd
  0
BLOCK
  5
9AF
330
25A
100
AcDbEntity
  8
0
100
AcDbBlockBegin
  2
BLOCK603
 70
     0
 10
0.0
 20
0.0
 30
0.0
  3
BLOCK603
  1

  0
TEXT
  5
258
330
25A
100
AcDbEntity
  8
100
 62
     7
370
    13
390
F
100
AcDbText
 10
-151.899994
 20
112.550003
 30
0.0
 40
1.5
  1
IND.
 41
1.325000750000001
 72
     5
 11
-146.599991
 21
112.550003
 31
0.0
100
AcDbText
  0
ENDBLK
  5
9B0
330
25A
100
AcDbEntity
  8
0
100
AcDbBlockEnd
  0
BLOCK
  5
9B1
330
25E
100
AcDbEntity
  8
0
100
AcDbBlockBegin
  2
BLOCK604
 70
     0
 10
0.0
 20
0.0
 30
0.0
  3
BLOCK604
  1

  0
TEXT
  5
25C
330
25E
100
AcDbEntity
  8
100
 62
     7
370
    13
390
F
100
AcDbText
 10
-151.355667
 20
109.571449
 30
0.0
 40
1.5
  1
Ind.
 41
1.031448250000004
 72
     5
 11
-147.229874
 21
109.571449
 31
0.0
100
AcDbText
  0
ENDBLK
  5
9B2
330
25E
100
AcDbEntity
  8
0
100
AcDbBlockEnd
  0
BLOCK
  5
9B3
330
262
100
AcDbEntity
  8
0
100
AcDbBlockBegin
  2
BLOCK605
 70
     0
 10
0.0
 20
0.0
 30
0.0
  3
BLOCK605
  1

  0
TEXT
  5
260
330
262
100
AcDbEntity
  8
100
 62
     7
370
    13
390
F
100
AcDbText
 10
-188.26506
 20
112.142639
 30
0.0
 40
1.5
  1
TOLL. GENERALI
 41
1.015789631578947
 72
     5
 11
-168.965057
 21
112.142639
 31
0.0
100
AcDbText
  0
ENDBLK
  5
9B4
330
262
100
AcDbEntity
  8
0
100
AcDbBlockEnd
  0
BLOCK
  5
9B5
330
266
100
AcDbEntity
  8
0
100
AcDbBlockBegin
  2
BLOCK606
 70
     0
 10
0.0
 20
0.0
 30
0.0
  3
BLOCK606
  1

  0
TEXT
  5
264
330
266
100
AcDbEntity
  8
100
 62
     7
370
    13
390
F
100
AcDbText
 10
-188.120728
 20
109.164085
 30
0.0
 40
1.5
  1
General Toll.
 41
0.9049276190476193
 72
     5
 11
-173.868118
 21
109.164085
 31
0.0
100
AcDbText
  0
ENDBLK
  5
9B6
330
266
100
AcDbEntity
  8
0
100
AcDbBlockEnd
  0
BLOCK
  5
9B7
330
26A
100
AcDbEntity
  8
0
100
AcDbBlockBegin
  2
BLOCK607
 70
     0
 10
0.0
 20
0.0
 30
0.0
  3
BLOCK607
  1

  0
TEXT
  5
268
330
26A
100
AcDbEntity
  8
0
 62
     7
370
    70
390
F
100
AcDbText
 10
-155.315781
 20
66.616768
 30
0.0
 40
2.0
  1
MODIFICHE
 50
90.0
 41
1.0250000625
 72
     5
 11
-155.315781
 21
83.016769
 31
0.0
100
AcDbText
  0
ENDBLK
  5
9B8
330
26A
100
AcDbEntity
  8
0
100
AcDbBlockEnd
  0
BLOCK
  5
9B9
330
26E
100
AcDbEntity
  8
0
100
AcDbBlockBegin
  2
BLOCK608
 70
     0
 10
0.0
 20
0.0
 30
0.0
  3
BLOCK608
  1

  0
TEXT
  5
26C
330
26E
100
AcDbEntity
  8
0
 62
     7
370
    70
390
F
100
AcDbText
 10
-155.315781
 20
84.875587
 30
0.0
 40
2.0
  1
/Modifications
 50
90.0
 41
0.8787316714285719
 72
     5
 11
-155.315781
 21
105.379326
 31
0.0
100
AcDbText
  0
ENDBLK
  5
9BA
330
26E
100
AcDbEntity
  8
0
100
AcDbBlockEnd
  0
BLOCK
  5
9BB
330
272
100
AcDbEntity
  8
0
100
AcDbBlockBegin
  2
BLOCK609
 70
     0
 10
0.0
 20
0.0
 30
0.0
  3
BLOCK609
  1

  0
TEXT
  5
270
330
272
100
AcDbEntity
  8
100
 62
     7
370
    13
390
F
100
AcDbText
 10
-49.0
 20
55.75
 30
0.0
 40
1.5
  1
DISEGNATO
 41
0.9839999199999999
 72
     5
 11
-36.700001
 21
55.75
 31
0.0
100
AcDbText
  0
ENDBLK
  5
9BC
330
272
100
AcDbEntity
  8
0
100
AcDbBlockEnd
  0
BLOCK
  5
9BD
330
276
100
AcDbEntity
  8
0
100
AcDbBlockBegin
  2
BLOCK610
 70
     0
 10
0.0
 20
0.0
 30
0.0
  3
BLOCK610
  1

  0
TEXT
  5
274
330
276
100
AcDbEntity
  8
100
 62
     7
370
    13
390
F
100
AcDbText
 10
-36.20575
 20
55.75
 30
0.0
 40
1.5
  1
/Drawn
 41
0.7501414117647062
 72
     5
 11
-29.829548
 21
55.75
 31
0.0
100
AcDbText
  0
ENDBLK
  5
9BE
330
276
100
AcDbEntity
  8
0
100
AcDbBlockEnd
  0
BLOCK
  5
9BF
330
27A
100
AcDbEntity
  8
0
100
AcDbBlockBegin
  2
BLOCK611
 70
     0
 10
0.0
 20
0.0
 30
0.0
  3
BLOCK611
  1

  0
TEXT
  5
278
330
27A
100
AcDbEntity
  8
0
 62
     7
370
    70
390
F
100
AcDbText
 10
-47.474407
 20
51.241112
 30
0.0
 40
2.0
  1
03.06.2003
 41
0.9458260434782608
 72
     5
 11
-32.971741
 21
51.241112
 31
0.0
100
AcDbText
  0
ENDBLK
  5
9C0
330
27A
100
AcDbEntity
  8
0
100
AcDbBlockEnd
  0
BLOCK
  5
9C1
330
27E
100
AcDbEntity
  8
0
100
AcDbBlockBegin
  2
BLOCK612
 70
     0
 10
0.0
 20
0.0
 30
0.0
  3
BLOCK612
  1

  0
TEXT
  5
27C
330
27E
100
AcDbEntity
  8
0
 62
     7
370
    70
390
F
100
AcDbText
 10
-105.89994
 20
24.575142
 30
0.0
 40
2.8
  1
.
 41
4.888897619047618
 72
     5
 11
-103.846603
 21
24.575142
 31
0.0
100
AcDbText
  0
ENDBLK
  5
9C2
330
27E
100
AcDbEntity
  8
0
100
AcDbBlockEnd
  0
BLOCK
  5
9C3
330
282
100
AcDbEntity
  8
0
100
AcDbBlockBegin
  2
BLOCK613
 70
     0
 10
0.0
 20
0.0
 30
0.0
  3
BLOCK613
  1

  0
TEXT
  5
280
330
282
100
AcDbEntity
  8
0
 62
     7
370
    70
390
F
100
AcDbText
 10
-106.003532
 20
50.985401
 30
0.0
 40
2.5
  1
/
 41
1.100001000000003
 72
     5
 11
-104.170197
 21
50.985401
 31
0.0
100
AcDbText
  0
ENDBLK
  5
9C4
330
282
100
AcDbEntity
  8
0
100
AcDbBlockEnd
  0
BLOCK
  5
9C5
330
286
100
AcDbEntity
  8
0
100
AcDbBlockBegin
  2
BLOCK614
 70
     0
 10
0.0
 20
0.0
 30
0.0
  3
BLOCK614
  1

  0
TEXT
  5
284
330
286
100
AcDbEntity
  8
0
 62
     7
370
    70
390
F
100
AcDbText
 10
-8.233334
 20
42.333332
 30
0.0
 40
2.0
  1
F
 41
1.100000249999999
 72
     5
 11
-6.766667
 21
42.333332
 31
0.0
100
AcDbText
  0
ENDBLK
  5
9C6
330
286
100
AcDbEntity
  8
0
100
AcDbBlockEnd
  0
BLOCK
  5
9C7
330
28A
100
AcDbEntity
  8
0
100
AcDbBlockBegin
  2
BLOCK615
 70
     0
 10
0.0
 20
0.0
 30
0.0
  3
BLOCK615
  1

  0
TEXT
  5
288
330
28A
100
AcDbEntity
  8
0
 62
     7
370
    70
390
F
100
AcDbText
 10
-546.464111
 20
411.5
 30
0.0
 40
2.0
  1
1
 41
2.200011000000018
 72
     5
 11
-544.997437
 21
411.5
 31
0.0
100
AcDbText
  0
ENDBLK
  5
9C8
330
28A
100
AcDbEntity
  8
0
100
AcDbBlockEnd
  0
BLOCK
  5
9C9
330
28E
100
AcDbEntity
  8
0
100
AcDbBlockBegin
  2
BLOCK616
 70
     0
 10
0.0
 20
0.0
 30
0.0
  3
BLOCK616
  1

  0
TEXT
  5
28C
330
28E
100
AcDbEntity
  8
0
 62
     7
370
    70
390
F
100
AcDbText
 10
-490.064117
 20
411.5
 30
0.0
 40
2.0
  1
2
 41
1.100005500000009
 72
     5
 11
-488.597443
 21
411.5
 31
0.0
100
AcDbText
  0
ENDBLK
  5
9CA
330
28E
100
AcDbEntity
  8
0
100
AcDbBlockEnd
  0
BLOCK
  5
9CB
330
292
100
AcDbEntity
  8
0
100
AcDbBlockBegin
  2
BLOCK617
 70
     0
 10
0.0
 20
0.0
 30
0.0
  3
BLOCK617
  1

  0
TEXT
  5
290
330
292
100
AcDbEntity
  8
0
 62
     7
370
    70
390
F
100
AcDbText
 10
-433.664093
 20
411.5
 30
0.0
 40
2.0
  1
3
 41
1.100006249999964
 72
     5
 11
-432.197418
 21
411.5
 31
0.0
100
AcDbText
  0
ENDBLK
  5
9CC
330
292
100
AcDbEntity
  8
0
100
AcDbBlockEnd
  0
BLOCK
  5
9CD
330
296
100
AcDbEntity
  8
0
100
AcDbBlockBegin
  2
BLOCK618
 70
     0
 10
0.0
 20
0.0
 30
0.0
  3
BLOCK618
  1

  0
TEXT
  5
294
330
296
100
AcDbEntity
  8
0
 62
     7
370
    70
390
F
100
AcDbText
 10
-377.264099
 20
411.5
 30
0.0
 40
2.0
  1
4
 41
1.100006250000007
 72
     5
 11
-375.797424
 21
411.5
 31
0.0
100
AcDbText
  0
ENDBLK
  5
9CE
330
296
100
AcDbEntity
  8
0
100
AcDbBlockEnd
  0
BLOCK
  5
9CF
330
29A
100
AcDbEntity
  8
0
100
AcDbBlockBegin
  2
BLOCK619
 70
     0
 10
0.0
 20
0.0
 30
0.0
  3
BLOCK619
  1

  0
TEXT
  5
298
330
29A
100
AcDbEntity
  8
0
 62
     7
370
    70
390
F
100
AcDbText
 10
-320.864105
 20
411.5
 30
0.0
 40
2.0
  1
5
 41
1.100006250000007
 72
     5
 11
-319.39743
 21
411.5
 31
0.0
100
AcDbText
  0
ENDBLK
  5
9D0
330
29A
100
AcDbEntity
  8
0
100
AcDbBlockEnd
  0
BLOCK
  5
9D1
330
29E
100
AcDbEntity
  8
0
100
AcDbBlockBegin
  2
BLOCK620
 70
     0
 10
0.0
 20
0.0
 30
0.0
  3
BLOCK620
  1

  0
TEXT
  5
29C
330
29E
100
AcDbEntity
  8
0
 62
     7
370
    70
390
F
100
AcDbText
 10
-264.464111
 20
411.5
 30
0.0
 40
2.0
  1
6
 41
1.100005500000009
 72
     5
 11
-262.997437
 21
411.5
 31
0.0
100
AcDbText
  0
ENDBLK
  5
9D2
330
29E
100
AcDbEntity
  8
0
100
AcDbBlockEnd
  0
BLOCK
  5
9D3
330
2A2
100
AcDbEntity
  8
0
100
AcDbBlockBegin
  2
BLOCK621
 70
     0
 10
0.0
 20
0.0
 30
0.0
  3
BLOCK621
  1

  0
TEXT
  5
2A0
330
2A2
100
AcDbEntity
  8
0
 62
     7
370
    70
390
F
100
AcDbText
 10
-208.064102
 20
411.5
 30
0.0
 40
2.0
  1
7
 41
1.099994249999995
 72
     5
 11
-206.597443
 21
411.5
 31
0.0
100
AcDbText
  0
ENDBLK
  5
9D4
330
2A2
100
AcDbEntity
  8
0
100
AcDbBlockEnd
  0
BLOCK
  5
9D5
330
2A6
100
AcDbEntity
  8
0
100
AcDbBlockBegin
  2
BLOCK622
 70
     0
 10
0.0
 20
0.0
 30
0.0
  3
BLOCK622
  1

  0
TEXT
  5
2A4
330
2A6
100
AcDbEntity
  8
0
 62
     7
370
    70
390
F
100
AcDbText
 10
-151.664108
 20
411.5
 30
0.0
 40
2.0
  1
8
 41
1.099994249999995
 72
     5
 11
-150.197449
 21
411.5
 31
0.0
100
AcDbText
  0
ENDBLK
  5
9D6
330
2A6
100
AcDbEntity
  8
0
100
AcDbBlockEnd
  0
BLOCK
  5
9D7
330
2AA
100
AcDbEntity
  8
0
100
AcDbBlockBegin
  2
BLOCK623
 70
     0
 10
0.0
 20
0.0
 30
0.0
  3
BLOCK623
  1

  0
TEXT
  5
2A8
330
2AA
100
AcDbEntity
  8
0
 62
     7
370
    70
390
F
100
AcDbText
 10
-95.264099
 20
411.5
 30
0.0
 40
2.0
  1
9
 41
1.100000250000001
 72
     5
 11
-93.797432
 21
411.5
 31
0.0
100
AcDbText
  0
ENDBLK
  5
9D8
330
2AA
100
AcDbEntity
  8
0
100
AcDbBlockEnd
  0
BLOCK
  5
9D9
330
2AE
100
AcDbEntity
  8
0
100
AcDbBlockBegin
  2
BLOCK624
 70
     0
 10
0.0
 20
0.0
 30
0.0
  3
BLOCK624
  1

  0
TEXT
  5
2AC
330
2AE
100
AcDbEntity
  8
0
 62
     7
370
    70
390
F
100
AcDbText
 10
-39.797436
 20
411.5
 30
0.0
 40
2.0
  1
10
 41
1.428570857142857
 72
     5
 11
-36.464104
 21
411.5
 31
0.0
100
AcDbText
  0
ENDBLK
  5
9DA
330
2AE
100
AcDbEntity
  8
0
100
AcDbBlockEnd
  0
BLOCK
  5
9DB
330
2B2
100
AcDbEntity
  8
0
100
AcDbBlockBegin
  2
BLOCK625
 70
     0
 10
0.0
 20
0.0
 30
0.0
  3
BLOCK625
  1

  0
TEXT
  5
2B0
330
2B2
100
AcDbEntity
  8
0
 62
     7
370
    70
390
F
100
AcDbText
 10
-8.233334
 20
109.0
 30
0.0
 40
2.0
  1
E
 41
1.100000249999999
 72
     5
 11
-6.766667
 21
109.0
 31
0.0
100
AcDbText
  0
ENDBLK
  5
9DC
330
2B2
100
AcDbEntity
  8
0
100
AcDbBlockEnd
  0
BLOCK
  5
9DD
330
2B6
100
AcDbEntity
  8
0
100
AcDbBlockBegin
  2
BLOCK626
 70
     0
 10
0.0
 20
0.0
 30
0.0
  3
BLOCK626
  1

  0
TEXT
  5
2B4
330
2B6
100
AcDbEntity
  8
0
 62
     7
370
    70
390
F
100
AcDbText
 10
-8.233334
 20
175.666672
 30
0.0
 40
2.0
  1
D
 41
1.100000249999999
 72
     5
 11
-6.766667
 21
175.666672
 31
0.0
100
AcDbText
  0
ENDBLK
  5
9DE
330
2B6
100
AcDbEntity
  8
0
100
AcDbBlockEnd
  0
BLOCK
  5
9DF
330
2BA
100
AcDbEntity
  8
0
100
AcDbBlockBegin
  2
BLOCK627
 70
     0
 10
0.0
 20
0.0
 30
0.0
  3
BLOCK627
  1

  0
TEXT
  5
2B8
330
2BA
100
AcDbEntity
  8
0
 62
     7
370
    70
390
F
100
AcDbText
 10
-8.233334
 20
242.333328
 30
0.0
 40
2.0
  1
C
 41
1.100000249999999
 72
     5
 11
-6.766667
 21
242.333328
 31
0.0
100
AcDbText
  0
ENDBLK
  5
9E0
330
2BA
100
AcDbEntity
  8
0
100
AcDbBlockEnd
  0
BLOCK
  5
9E1
330
2BE
100
AcDbEntity
  8
0
100
AcDbBlockBegin
  2
BLOCK628
 70
     0
 10
0.0
 20
0.0
 30
0.0
  3
BLOCK628
  1

  0
TEXT
  5
2BC
330
2BE
100
AcDbEntity
  8
0
 62
     7
370
    70
390
F
100
AcDbText
 10
-8.233334
 20
309.0
 30
0.0
 40
2.0
  1
B
 41
1.100000249999999
 72
     5
 11
-6.766667
 21
309.0
 31
0.0
100
AcDbText
  0
ENDBLK
  5
9E2
330
2BE
100
AcDbEntity
  8
0
100
AcDbBlockEnd
  0
BLOCK
  5
9E3
330
2C2
100
AcDbEntity
  8
0
100
AcDbBlockBegin
  2
BLOCK629
 70
     0
 10
0.0
 20
0.0
 30
0.0
  3
BLOCK629
  1

  0
TEXT
  5
2C0
330
2C2
100
AcDbEntity
  8
0
 62
     7
370
    70
390
F
100
AcDbText
 10
-8.233334
 20
375.666656
 30
0.0
 40
2.0
  1
A
 41
1.100000249999999
 72
     5
 11
-6.766667
 21
375.666656
 31
0.0
100
AcDbText
  0
ENDBLK
  5
9E4
330
2C2
100
AcDbEntity
  8
0
100
AcDbBlockEnd
  0
BLOCK
  5
9E5
330
2C6
100
AcDbEntity
  8
0
100
AcDbBlockBegin
  2
BLOCK630
 70
     0
 10
0.0
 20
0.0
 30
0.0
  3
BLOCK630
  1

  0
TEXT
  5
2C4
330
2C6
100
AcDbEntity
  8
0
 62
     7
370
    70
390
F
100
AcDbText
 10
-577.233337
 20
375.666656
 30
0.0
 40
2.0
  1
A
 41
1.100005500000009
 72
     5
 11
-575.766663
 21
375.666656
 31
0.0
100
AcDbText
  0
ENDBLK
  5
9E6
330
2C6
100
AcDbEntity
  8
0
100
AcDbBlockEnd
  0
BLOCK
  5
9E7
330
2CA
100
AcDbEntity
  8
0
100
AcDbBlockBegin
  2
BLOCK631
 70
     0
 10
0.0
 20
0.0
 30
0.0
  3
BLOCK631
  1

  0
TEXT
  5
2C8
330
2CA
100
AcDbEntity
  8
0
 62
     7
370
    70
390
F
100
AcDbText
 10
-577.233337
 20
309.0
 30
0.0
 40
2.0
  1
B
 41
1.100005500000009
 72
     5
 11
-575.766663
 21
309.0
 31
0.0
100
AcDbText
  0
ENDBLK
  5
9E8
330
2CA
100
AcDbEntity
  8
0
100
AcDbBlockEnd
  0
BLOCK
  5
9E9
330
2CE
100
AcDbEntity
  8
0
100
AcDbBlockBegin
  2
BLOCK632
 70
     0
 10
0.0
 20
0.0
 30
0.0
  3
BLOCK632
  1

  0
TEXT
  5
2CC
330
2CE
100
AcDbEntity
  8
0
 62
     7
370
    70
390
F
100
AcDbText
 10
-577.233337
 20
242.333328
 30
0.0
 40
2.0
  1
C
 41
1.100005500000009
 72
     5
 11
-575.766663
 21
242.333328
 31
0.0
100
AcDbText
  0
ENDBLK
  5
9EA
330
2CE
100
AcDbEntity
  8
0
100
AcDbBlockEnd
  0
BLOCK
  5
9EB
330
2D2
100
AcDbEntity
  8
0
100
AcDbBlockBegin
  2
BLOCK633
 70
     0
 10
0.0
 20
0.0
 30
0.0
  3
BLOCK633
  1

  0
TEXT
  5
2D0
330
2D2
100
AcDbEntity
  8
0
 62
     7
370
    70
390
F
100
AcDbText
 10
-577.233337
 20
175.666672
 30
0.0
 40
2.0
  1
D
 41
1.100005500000009
 72
     5
 11
-575.766663
 21
175.666672
 31
0.0
100
AcDbText
  0
ENDBLK
  5
9EC
330
2D2
100
AcDbEntity
  8
0
100
AcDbBlockEnd
  0
BLOCK
  5
9ED
330
2D6
100
AcDbEntity
  8
0
100
AcDbBlockBegin
  2
BLOCK634
 70
     0
 10
0.0
 20
0.0
 30
0.0
  3
BLOCK634
  1

  0
TEXT
  5
2D4
330
2D6
100
AcDbEntity
  8
0
 62
     7
370
    70
390
F
100
AcDbText
 10
-577.233337
 20
109.0
 30
0.0
 40
2.0
  1
E
 41
1.100005500000009
 72
     5
 11
-575.766663
 21
109.0
 31
0.0
100
AcDbText
  0
ENDBLK
  5
9EE
330
2D6
100
AcDbEntity
  8
0
100
AcDbBlockEnd
  0
BLOCK
  5
9EF
330
2DA
100
AcDbEntity
  8
0
100
AcDbBlockBegin
  2
BLOCK635
 70
     0
 10
0.0
 20
0.0
 30
0.0
  3
BLOCK635
  1

  0
TEXT
  5
2D8
330
2DA
100
AcDbEntity
  8
0
 62
     7
370
    70
390
F
100
AcDbText
 10
-577.233337
 20
42.333332
 30
0.0
 40
2.0
  1
F
 41
1.100005500000009
 72
     5
 11
-575.766663
 21
42.333332
 31
0.0
100
AcDbText
  0
ENDBLK
  5
9F0
330
2DA
100
AcDbEntity
  8
0
100
AcDbBlockEnd
  0
BLOCK
  5
9F1
330
2DE
100
AcDbEntity
  8
0
100
AcDbBlockBegin
  2
BLOCK636
 70
     0
 10
0.0
 20
0.0
 30
0.0
  3
BLOCK636
  1

  0
TEXT
  5
2DC
330
2DE
100
AcDbEntity
  8
0
 62
     7
370
    70
390
F
100
AcDbText
 10
-39.797436
 20
6.5
 30
0.0
 40
2.0
  1
10
 41
1.428570857142857
 72
     5
 11
-36.464104
 21
6.5
 31
0.0
100
AcDbText
  0
ENDBLK
  5
9F2
330
2DE
100
AcDbEntity
  8
0
100
AcDbBlockEnd
  0
BLOCK
  5
9F3
330
2E2
100
AcDbEntity
  8
0
100
AcDbBlockBegin
  2
BLOCK637
 70
     0
 10
0.0
 20
0.0
 30
0.0
  3
BLOCK637
  1

  0
TEXT
  5
2E0
330
2E2
100
AcDbEntity
  8
0
 62
     7
370
    70
390
F
100
AcDbText
 10
-95.264099
 20
6.5
 30
0.0
 40
2.0
  1
9
 41
1.100000250000001
 72
     5
 11
-93.797432
 21
6.5
 31
0.0
100
AcDbText
  0
ENDBLK
  5
9F4
330
2E2
100
AcDbEntity
  8
0
100
AcDbBlockEnd
  0
BLOCK
  5
9F5
330
2E6
100
AcDbEntity
  8
0
100
AcDbBlockBegin
  2
BLOCK638
 70
     0
 10
0.0
 20
0.0
 30
0.0
  3
BLOCK638
  1

  0
TEXT
  5
2E4
330
2E6
100
AcDbEntity
  8
0
 62
     7
370
    70
390
F
100
AcDbText
 10
-151.664108
 20
6.5
 30
0.0
 40
2.0
  1
8
 41
1.099994249999995
 72
     5
 11
-150.197449
 21
6.5
 31
0.0
100
AcDbText
  0
ENDBLK
  5
9F6
330
2E6
100
AcDbEntity
  8
0
100
AcDbBlockEnd
  0
BLOCK
  5
9F7
330
2EA
100
AcDbEntity
  8
0
100
AcDbBlockBegin
  2
BLOCK639
 70
     0
 10
0.0
 20
0.0
 30
0.0
  3
BLOCK639
  1

  0
TEXT
  5
2E8
330
2EA
100
AcDbEntity
  8
0
 62
     7
370
    70
390
F
100
AcDbText
 10
-208.064102
 20
6.5
 30
0.0
 40
2.0
  1
7
 41
1.099994249999995
 72
     5
 11
-206.597443
 21
6.5
 31
0.0
100
AcDbText
  0
ENDBLK
  5
9F8
330
2EA
100
AcDbEntity
  8
0
100
AcDbBlockEnd
  0
BLOCK
  5
9F9
330
2EE
100
AcDbEntity
  8
0
100
AcDbBlockBegin
  2
BLOCK640
 70
     0
 10
0.0
 20
0.0
 30
0.0
  3
BLOCK640
  1

  0
TEXT
  5
2EC
330
2EE
100
AcDbEntity
  8
0
 62
     7
370
    70
390
F
100
AcDbText
 10
-264.464111
 20
6.5
 30
0.0
 40
2.0
  1
6
 41
1.100005500000009
 72
     5
 11
-262.997437
 21
6.5
 31
0.0
100
AcDbText
  0
ENDBLK
  5
9FA
330
2EE
100
AcDbEntity
  8
0
100
AcDbBlockEnd
  0
BLOCK
  5
9FB
330
2F2
100
AcDbEntity
  8
0
100
AcDbBlockBegin
  2
BLOCK641
 70
     0
 10
0.0
 20
0.0
 30
0.0
  3
BLOCK641
  1

  0
TEXT
  5
2F0
330
2F2
100
AcDbEntity
  8
0
 62
     7
370
    70
390
F
100
AcDbText
 10
-320.864105
 20
6.5
 30
0.0
 40
2.0
  1
5
 41
1.100006250000007
 72
     5
 11
-319.39743
 21
6.5
 31
0.0
100
AcDbText
  0
ENDBLK
  5
9FC
330
2F2
100
AcDbEntity
  8
0
100
AcDbBlockEnd
  0
BLOCK
  5
9FD
330
2F6
100
AcDbEntity
  8
0
100
AcDbBlockBegin
  2
BLOCK642
 70
     0
 10
0.0
 20
0.0
 30
0.0
  3
BLOCK642
  1

  0
TEXT
  5
2F4
330
2F6
100
AcDbEntity
  8
0
 62
     7
370
    70
390
F
100
AcDbText
 10
-377.264099
 20
6.5
 30
0.0
 40
2.0
  1
4
 41
1.100006250000007
 72
     5
 11
-375.797424
 21
6.5
 31
0.0
100
AcDbText
  0
ENDBLK
  5
9FE
330
2F6
100
AcDbEntity
  8
0
100
AcDbBlockEnd
  0
BLOCK
  5
9FF
330
2FA
100
AcDbEntity
  8
0
100
AcDbBlockBegin
  2
BLOCK643
 70
     0
 10
0.0
 20
0.0
 30
0.0
  3
BLOCK643
  1

  0
TEXT
  5
2F8
330
2FA
100
AcDbEntity
  8
0
 62
     7
370
    70
390
F
100
AcDbText
 10
-433.664093
 20
6.5
 30
0.0
 40
2.0
  1
3
 41
1.100006249999964
 72
     5
 11
-432.197418
 21
6.5
 31
0.0
100
AcDbText
  0
ENDBLK
  5
A00
330
2FA
100
AcDbEntity
  8
0
100
AcDbBlockEnd
  0
BLOCK
  5
A01
330
2FE
100
AcDbEntity
  8
0
100
AcDbBlockBegin
  2
BLOCK644
 70
     0
 10
0.0
 20
0.0
 30
0.0
  3
BLOCK644
  1

  0
TEXT
  5
2FC
330
2FE
100
AcDbEntity
  8
0
 62
     7
370
    70
390
F
100
AcDbText
 10
-490.064117
 20
6.5
 30
0.0
 40
2.0
  1
2
 41
1.100005500000009
 72
     5
 11
-488.597443
 21
6.5
 31
0.0
100
AcDbText
  0
ENDBLK
  5
A02
330
2FE
100
AcDbEntity
  8
0
100
AcDbBlockEnd
  0
BLOCK
  5
A03
330
302
100
AcDbEntity
  8
0
100
AcDbBlockBegin
  2
BLOCK645
 70
     0
 10
0.0
 20
0.0
 30
0.0
  3
BLOCK645
  1

  0
TEXT
  5
300
330
302
100
AcDbEntity
  8
0
 62
     7
370
    70
390
F
100
AcDbText
 10
-546.464111
 20
6.5
 30
0.0
 40
2.0
  1
1
 41
2.200011000000018
 72
     5
 11
-544.997437
 21
6.5
 31
0.0
100
AcDbText
  0
ENDBLK
  5
A04
330
302
100
AcDbEntity
  8
0
100
AcDbBlockEnd
  0
BLOCK
  5
A05
330
306
100
AcDbEntity
  8
0
100
AcDbBlockBegin
  2
BLOCK646
 70
     0
 10
0.0
 20
0.0
 30
0.0
  3
BLOCK646
  1

  0
TEXT
  5
304
330
306
100
AcDbEntity
  8
100
 62
     7
370
    70
390
F
100
AcDbText
 10
-172.267624
 20
58.485474
 30
0.0
 40
2.0
  1
-
 41
1.099995000000014
 72
     5
 11
-170.800964
 21
58.485474
 31
0.0
100
AcDbText
  0
ENDBLK
  5
A06
330
306
100
AcDbEntity
  8
0
100
AcDbBlockEnd
  0
BLOCK
  5
A07
330
30A
100
AcDbEntity
  8
0
100
AcDbBlockBegin
  2
BLOCK647
 70
     0
 10
0.0
 20
0.0
 30
0.0
  3
BLOCK647
  1

  0
TEXT
  5
308
330
30A
100
AcDbEntity
  8
100
 62
     7
370
    70
390
F
100
AcDbText
 10
-172.267624
 20
62.485474
 30
0.0
 40
2.0
  1
-
 41
1.099995000000014
 72
     5
 11
-170.800964
 21
62.485474
 31
0.0
100
AcDbText
  0
ENDBLK
  5
A08
330
30A
100
AcDbEntity
  8
0
100
AcDbBlockEnd
  0
BLOCK
  5
A09
330
30E
100
AcDbEntity
  8
0
100
AcDbBlockBegin
  2
BLOCK648
 70
     0
 10
0.0
 20
0.0
 30
0.0
  3
BLOCK648
  1

  0
TEXT
  5
30C
330
30E
100
AcDbEntity
  8
100
 62
     7
370
    70
390
F
100
AcDbText
 10
-172.267624
 20
66.485474
 30
0.0
 40
2.0
  1
-
 41
1.099995000000014
 72
     5
 11
-170.800964
 21
66.485474
 31
0.0
100
AcDbText
  0
ENDBLK
  5
A0A
330
30E
100
AcDbEntity
  8
0
100
AcDbBlockEnd
  0
BLOCK
  5
A0B
330
312
100
AcDbEntity
  8
0
100
AcDbBlockBegin
  2
BLOCK649
 70
     0
 10
0.0
 20
0.0
 30
0.0
  3
BLOCK649
  1

  0
TEXT
  5
310
330
312
100
AcDbEntity
  8
100
 62
     7
370
    70
390
F
100
AcDbText
 10
-172.267624
 20
70.485474
 30
0.0
 40
2.0
  1
-
 41
1.099995000000014
 72
     5
 11
-170.800964
 21
70.485474
 31
0.0
100
AcDbText
  0
ENDBLK
  5
A0C
330
312
100
AcDbEntity
  8
0
100
AcDbBlockEnd
  0
BLOCK
  5
A0D
330
316
100
AcDbEntity
  8
0
100
AcDbBlockBegin
  2
BLOCK650
 70
     0
 10
0.0
 20
0.0
 30
0.0
  3
BLOCK650
  1

  0
TEXT
  5
314
330
316
100
AcDbEntity
  8
100
 62
     7
370
    70
390
F
100
AcDbText
 10
-172.267624
 20
74.485474
 30
0.0
 40
2.0
  1
-
 41
1.099995000000014
 72
     5
 11
-170.800964
 21
74.485474
 31
0.0
100
AcDbText
  0
ENDBLK
  5
A0E
330
316
100
AcDbEntity
  8
0
100
AcDbBlockEnd
  0
BLOCK
  5
A0F
330
31A
100
AcDbEntity
  8
0
100
AcDbBlockBegin
  2
BLOCK651
 70
     0
 10
0.0
 20
0.0
 30
0.0
  3
BLOCK651
  1

  0
TEXT
  5
318
330
31A
100
AcDbEntity
  8
100
 62
     7
370
    70
390
F
100
AcDbText
 10
-172.267624
 20
78.485474
 30
0.0
 40
2.0
  1
-
 41
1.099995000000014
 72
     5
 11
-170.800964
 21
78.485474
 31
0.0
100
AcDbText
  0
ENDBLK
  5
A10
330
31A
100
AcDbEntity
  8
0
100
AcDbBlockEnd
  0
BLOCK
  5
A11
330
31E
100
AcDbEntity
  8
0
100
AcDbBlockBegin
  2
BLOCK652
 70
     0
 10
0.0
 20
0.0
 30
0.0
  3
BLOCK652
  1

  0
TEXT
  5
31C
330
31E
100
AcDbEntity
  8
100
 62
     7
370
    70
390
F
100
AcDbText
 10
-172.267624
 20
82.485474
 30
0.0
 40
2.0
  1
-
 41
1.099995000000014
 72
     5
 11
-170.800964
 21
82.485474
 31
0.0
100
AcDbText
  0
ENDBLK
  5
A12
330
31E
100
AcDbEntity
  8
0
100
AcDbBlockEnd
  0
BLOCK
  5
A13
330
322
100
AcDbEntity
  8
0
100
AcDbBlockBegin
  2
BLOCK653
 70
     0
 10
0.0
 20
0.0
 30
0.0
  3
BLOCK653
  1

  0
TEXT
  5
320
330
322
100
AcDbEntity
  8
100
 62
     7
370
    70
390
F
100
AcDbText
 10
-172.267624
 20
86.485474
 30
0.0
 40
2.0
  1
-
 41
1.099995000000014
 72
     5
 11
-170.800964
 21
86.485474
 31
0.0
100
AcDbText
  0
ENDBLK
  5
A14
330
322
100
AcDbEntity
  8
0
100
AcDbBlockEnd
  0
BLOCK
  5
A15
330
326
100
AcDbEntity
  8
0
100
AcDbBlockBegin
  2
BLOCK654
 70
     0
 10
0.0
 20
0.0
 30
0.0
  3
BLOCK654
  1

  0
TEXT
  5
324
330
326
100
AcDbEntity
  8
100
 62
     7
370
    70
390
F
100
AcDbText
 10
-172.267624
 20
90.485474
 30
0.0
 40
2.0
  1
-
 41
1.099995000000014
 72
     5
 11
-170.800964
 21
90.485474
 31
0.0
100
AcDbText
  0
ENDBLK
  5
A16
330
326
100
AcDbEntity
  8
0
100
AcDbBlockEnd
  0
BLOCK
  5
A17
330
32A
100
AcDbEntity
  8
0
100
AcDbBlockBegin
  2
BLOCK655
 70
     0
 10
0.0
 20
0.0
 30
0.0
  3
BLOCK655
  1

  0
TEXT
  5
328
330
32A
100
AcDbEntity
  8
100
 62
     7
370
    70
390
F
100
AcDbText
 10
-172.267624
 20
94.485474
 30
0.0
 40
2.0
  1
-
 41
1.099995000000014
 72
     5
 11
-170.800964
 21
94.485474
 31
0.0
100
AcDbText
  0
ENDBLK
  5
A18
330
32A
100
AcDbEntity
  8
0
100
AcDbBlockEnd
  0
BLOCK
  5
A19
330
32E
100
AcDbEntity
  8
0
100
AcDbBlockBegin
  2
BLOCK656
 70
     0
 10
0.0
 20
0.0
 30
0.0
  3
BLOCK656
  1

  0
TEXT
  5
32C
330
32E
100
AcDbEntity
  8
100
 62
     7
370
    70
390
F
100
AcDbText
 10
-172.267624
 20
59.497437
 30
0.0
 40
2.0
  1
+
 41
1.099995000000014
 72
     5
 11
-170.800964
 21
59.497437
 31
0.0
100
AcDbText
  0
ENDBLK
  5
A1A
330
32E
100
AcDbEntity
  8
0
100
AcDbBlockEnd
  0
BLOCK
  5
A1B
330
332
100
AcDbEntity
  8
0
100
AcDbBlockBegin
  2
BLOCK657
 70
     0
 10
0.0
 20
0.0
 30
0.0
  3
BLOCK657
  1

  0
TEXT
  5
330
330
332
100
AcDbEntity
  8
100
 62
     7
370
    70
390
F
100
AcDbText
 10
-172.267624
 20
63.497437
 30
0.0
 40
2.0
  1
+
 41
1.099995000000014
 72
     5
 11
-170.800964
 21
63.497437
 31
0.0
100
AcDbText
  0
ENDBLK
  5
A1C
330
332
100
AcDbEntity
  8
0
100
AcDbBlockEnd
  0
BLOCK
  5
A1D
330
336
100
AcDbEntity
  8
0
100
AcDbBlockBegin
  2
BLOCK658
 70
     0
 10
0.0
 20
0.0
 30
0.0
  3
BLOCK658
  1

  0
TEXT
  5
334
330
336
100
AcDbEntity
  8
100
 62
     7
370
    70
390
F
100
AcDbText
 10
-172.267624
 20
67.497437
 30
0.0
 40
2.0
  1
+
 41
1.099995000000014
 72
     5
 11
-170.800964
 21
67.497437
 31
0.0
100
AcDbText
  0
ENDBLK
  5
A1E
330
336
100
AcDbEntity
  8
0
100
AcDbBlockEnd
  0
BLOCK
  5
A1F
330
33A
100
AcDbEntity
  8
0
100
AcDbBlockBegin
  2
BLOCK659
 70
     0
 10
0.0
 20
0.0
 30
0.0
  3
BLOCK659
  1

  0
TEXT
  5
338
330
33A
100
AcDbEntity
  8
100
 62
     7
370
    70
390
F
100
AcDbText
 10
-172.267624
 20
71.497437
 30
0.0
 40
2.0
  1
+
 41
1.099995000000014
 72
     5
 11
-170.800964
 21
71.497437
 31
0.0
100
AcDbText
  0
ENDBLK
  5
A20
330
33A
100
AcDbEntity
  8
0
100
AcDbBlockEnd
  0
BLOCK
  5
A21
330
33E
100
AcDbEntity
  8
0
100
AcDbBlockBegin
  2
BLOCK660
 70
     0
 10
0.0
 20
0.0
 30
0.0
  3
BLOCK660
  1

  0
TEXT
  5
33C
330
33E
100
AcDbEntity
  8
100
 62
     7
370
    70
390
F
100
AcDbText
 10
-172.267624
 20
75.497437
 30
0.0
 40
2.0
  1
+
 41
1.099995000000014
 72
     5
 11
-170.800964
 21
75.497437
 31
0.0
100
AcDbText
  0
ENDBLK
  5
A22
330
33E
100
AcDbEntity
  8
0
100
AcDbBlockEnd
  0
BLOCK
  5
A23
330
342
100
AcDbEntity
  8
0
100
AcDbBlockBegin
  2
BLOCK661
 70
     0
 10
0.0
 20
0.0
 30
0.0
  3
BLOCK661
  1

  0
TEXT
  5
340
330
342
100
AcDbEntity
  8
100
 62
     7
370
    70
390
F
100
AcDbText
 10
-172.267624
 20
79.497437
 30
0.0
 40
2.0
  1
+
 41
1.099995000000014
 72
     5
 11
-170.800964
 21
79.497437
 31
0.0
100
AcDbText
  0
ENDBLK
  5
A24
330
342
100
AcDbEntity
  8
0
100
AcDbBlockEnd
  0
BLOCK
  5
A25
330
346
100
AcDbEntity
  8
0
100
AcDbBlockBegin
  2
BLOCK662
 70
     0
 10
0.0
 20
0.0
 30
0.0
  3
BLOCK662
  1

  0
TEXT
  5
344
330
346
100
AcDbEntity
  8
100
 62
     7
370
    70
390
F
100
AcDbText
 10
-172.267624
 20
83.497437
 30
0.0
 40
2.0
  1
+
 41
1.099995000000014
 72
     5
 11
-170.800964
 21
83.497437
 31
0.0
100
AcDbText
  0
ENDBLK
  5
A26
330
346
100
AcDbEntity
  8
0
100
AcDbBlockEnd
  0
BLOCK
  5
A27
330
34A
100
AcDbEntity
  8
0
100
AcDbBlockBegin
  2
BLOCK663
 70
     0
 10
0.0
 20
0.0
 30
0.0
  3
BLOCK663
  1

  0
TEXT
  5
348
330
34A
100
AcDbEntity
  8
100
 62
     7
370
    70
390
F
100
AcDbText
 10
-172.267624
 20
87.497437
 30
0.0
 40
2.0
  1
+
 41
1.099995000000014
 72
     5
 11
-170.800964
 21
87.497437
 31
0.0
100
AcDbText
  0
ENDBLK
  5
A28
330
34A
100
AcDbEntity
  8
0
100
AcDbBlockEnd
  0
BLOCK
  5
A29
330
34E
100
AcDbEntity
  8
0
100
AcDbBlockBegin
  2
BLOCK664
 70
     0
 10
0.0
 20
0.0
 30
0.0
  3
BLOCK664
  1

  0
TEXT
  5
34C
330
34E
100
AcDbEntity
  8
100
 62
     7
370
    70
390
F
100
AcDbText
 10
-172.267624
 20
91.497437
 30
0.0
 40
2.0
  1
+
 41
1.099995000000014
 72
     5
 11
-170.800964
 21
91.497437
 31
0.0
100
AcDbText
  0
ENDBLK
  5
A2A
330
34E
100
AcDbEntity
  8
0
100
AcDbBlockEnd
  0
BLOCK
  5
A2B
330
352
100
AcDbEntity
  8
0
100
AcDbBlockBegin
  2
BLOCK665
 70
     0
 10
0.0
 20
0.0
 30
0.0
  3
BLOCK665
  1

  0
TEXT
  5
350
330
352
100
AcDbEntity
  8
100
 62
     7
370
    70
390
F
100
AcDbText
 10
-172.267624
 20
95.497437
 30
0.0
 40
2.0
  1
+
 41
1.099995000000014
 72
     5
 11
-170.800964
 21
95.497437
 31
0.0
100
AcDbText
  0
ENDBLK
  5
A2C
330
352
100
AcDbEntity
  8
0
100
AcDbBlockEnd
  0
BLOCK
  5
A2D
330
356
100
AcDbEntity
  8
0
100
AcDbBlockBegin
  2
BLOCK666
 70
     0
 10
0.0
 20
0.0
 30
0.0
  3
BLOCK666
  1

  0
TEXT
  5
354
330
356
100
AcDbEntity
  8
100
 62
     7
370
    70
390
F
100
AcDbText
 10
-172.267624
 20
98.485474
 30
0.0
 40
2.0
  1
-
 41
1.099995000000014
 72
     5
 11
-170.800964
 21
98.485474
 31
0.0
100
AcDbText
  0
ENDBLK
  5
A2E
330
356
100
AcDbEntity
  8
0
100
AcDbBlockEnd
  0
BLOCK
  5
A2F
330
35A
100
AcDbEntity
  8
0
100
AcDbBlockBegin
  2
BLOCK667
 70
     0
 10
0.0
 20
0.0
 30
0.0
  3
BLOCK667
  1

  0
TEXT
  5
358
330
35A
100
AcDbEntity
  8
100
 62
     7
370
    70
390
F
100
AcDbText
 10
-172.267624
 20
99.497437
 30
0.0
 40
2.0
  1
+
 41
1.099995000000014
 72
     5
 11
-170.800964
 21
99.497437
 31
0.0
100
AcDbText
  0
ENDBLK
  5
A30
330
35A
100
AcDbEntity
  8
0
100
AcDbBlockEnd
  0
BLOCK
  5
A31
330
35E
100
AcDbEntity
  8
0
100
AcDbBlockBegin
  2
BLOCK668
 70
     0
 10
0.0
 20
0.0
 30
0.0
  3
BLOCK668
  1

  0
TEXT
  5
35C
330
35E
100
AcDbEntity
  8
100
 62
     7
370
    70
390
F
100
AcDbText
 10
-169.476929
 20
98.949829
 30
0.0
 40
2.0
  1
0.05
 41
1.1810503125
 72
     5
 11
-163.177994
 21
98.949829
 31
0.0
100
AcDbText
  0
ENDBLK
  5
A32
330
35E
100
AcDbEntity
  8
0
100
AcDbBlockEnd
  0
BLOCK
  5
A33
330
362
100
AcDbEntity
  8
0
100
AcDbBlockBegin
  2
BLOCK669
 70
     0
 10
0.0
 20
0.0
 30
0.0
  3
BLOCK669
  1

  0
TEXT
  5
360
330
362
100
AcDbEntity
  8
100
 62
     7
370
    70
390
F
100
AcDbText
 10
-169.510254
 20
94.949829
 30
0.0
 40
2.0
  1
0.1
 41
1.733332333333332
 72
     5
 11
-164.310257
 21
94.949829
 31
0.0
100
AcDbText
  0
ENDBLK
  5
A34
330
362
100
AcDbEntity
  8
0
100
AcDbBlockEnd
  0
BLOCK
  5
A35
330
366
100
AcDbEntity
  8
0
100
AcDbBlockBegin
  2
BLOCK670
 70
     0
 10
0.0
 20
0.0
 30
0.0
  3
BLOCK670
  1

  0
TEXT
  5
364
330
366
100
AcDbEntity
  8
100
 62
     7
370
    70
390
F
100
AcDbText
 10
-169.510254
 20
90.949829
 30
0.0
 40
2.0
  1
0.1
 41
1.733332333333332
 72
     5
 11
-164.310257
 21
90.949829
 31
0.0
100
AcDbText
  0
ENDBLK
  5
A36
330
366
100
AcDbEntity
  8
0
100
AcDbBlockEnd
  0
BLOCK
  5
A37
330
36A
100
AcDbEntity
  8
0
100
AcDbBlockBegin
  2
BLOCK671
 70
     0
 10
0.0
 20
0.0
 30
0.0
  3
BLOCK671
  1

  0
TEXT
  5
368
330
36A
100
AcDbEntity
  8
100
 62
     7
370
    70
390
F
100
AcDbText
 10
-169.510254
 20
86.949829
 30
0.0
 40
2.0
  1
0.25
 41
1.247058705882353
 72
     5
 11
-162.443588
 21
86.949829
 31
0.0
100
AcDbText
  0
ENDBLK
  5
A38
330
36A
100
AcDbEntity
  8
0
100
AcDbBlockEnd
  0
BLOCK
  5
A39
330
36E
100
AcDbEntity
  8
0
100
AcDbBlockBegin
  2
BLOCK672
 70
     0
 10
0.0
 20
0.0
 30
0.0
  3
BLOCK672
  1

  0
TEXT
  5
36C
330
36E
100
AcDbEntity
  8
100
 62
     7
370
    70
390
F
100
AcDbText
 10
-169.510254
 20
82.949829
 30
0.0
 40
2.0
  1
0.25
 41
1.247058705882353
 72
     5
 11
-162.443588
 21
82.949829
 31
0.0
100
AcDbText
  0
ENDBLK
  5
A3A
330
36E
100
AcDbEntity
  8
0
100
AcDbBlockEnd
  0
BLOCK
  5
A3B
330
372
100
AcDbEntity
  8
0
100
AcDbBlockBegin
  2
BLOCK673
 70
     0
 10
0.0
 20
0.0
 30
0.0
  3
BLOCK673
  1

  0
TEXT
  5
370
330
372
100
AcDbEntity
  8
100
 62
     7
370
    70
390
F
100
AcDbText
 10
-169.510254
 20
78.949829
 30
0.0
 40
2.0
  1
0.5
 41
1.418180999999999
 72
     5
 11
-164.310257
 21
78.949829
 31
0.0
100
AcDbText
  0
ENDBLK
  5
A3C
330
372
100
AcDbEntity
  8
0
100
AcDbBlockEnd
  0
BLOCK
  5
A3D
330
376
100
AcDbEntity
  8
0
100
AcDbBlockBegin
  2
BLOCK674
 70
     0
 10
0.0
 20
0.0
 30
0.0
  3
BLOCK674
  1

  0
TEXT
  5
374
330
376
100
AcDbEntity
  8
100
 62
     7
370
    70
390
F
100
AcDbText
 10
-169.510254
 20
74.949829
 30
0.0
 40
2.0
  1
0.75
 41
1.247058705882353
 72
     5
 11
-162.443588
 21
74.949829
 31
0.0
100
AcDbText
  0
ENDBLK
  5
A3E
330
376
100
AcDbEntity
  8
0
100
AcDbBlockEnd
  0
BLOCK
  5
A3F
330
37A
100
AcDbEntity
  8
0
100
AcDbBlockBegin
  2
BLOCK675
 70
     0
 10
0.0
 20
0.0
 30
0.0
  3
BLOCK675
  1

  0
TEXT
  5
378
330
37A
100
AcDbEntity
  8
100
 62
     7
370
    70
390
F
100
AcDbText
 10
-169.510254
 20
70.949829
 30
0.0
 40
2.0
  1
0.75
 41
1.247058705882353
 72
     5
 11
-162.443588
 21
70.949829
 31
0.0
100
AcDbText
  0
ENDBLK
  5
A40
330
37A
100
AcDbEntity
  8
0
100
AcDbBlockEnd
  0
BLOCK
  5
A41
330
37E
100
AcDbEntity
  8
0
100
AcDbBlockBegin
  2
BLOCK676
 70
     0
 10
0.0
 20
0.0
 30
0.0
  3
BLOCK676
  1

  0
TEXT
  5
37C
330
37E
100
AcDbEntity
  8
100
 62
     7
370
    70
390
F
100
AcDbText
 10
-169.510254
 20
66.949829
 30
0.0
 40
2.0
  1
1.5
 41
1.559999099999999
 72
     5
 11
-164.310257
 21
66.949829
 31
0.0
100
AcDbText
  0
ENDBLK
  5
A42
330
37E
100
AcDbEntity
  8
0
100
AcDbBlockEnd
  0
BLOCK
  5
A43
330
382
100
AcDbEntity
  8
0
100
AcDbBlockBegin
  2
BLOCK677
 70
     0
 10
0.0
 20
0.0
 30
0.0
  3
BLOCK677
  1

  0
TEXT
  5
380
330
382
100
AcDbEntity
  8
100
 62
     7
370
    70
390
F
100
AcDbText
 10
-169.510254
 20
62.949829
 30
0.0
 40
2.0
  1
1.5
 41
1.559999099999999
 72
     5
 11
-164.310257
 21
62.949829
 31
0.0
100
AcDbText
  0
ENDBLK
  5
A44
330
382
100
AcDbEntity
  8
0
100
AcDbBlockEnd
  0
BLOCK
  5
A45
330
386
100
AcDbEntity
  8
0
100
AcDbBlockBegin
  2
BLOCK678
 70
     0
 10
0.0
 20
0.0
 30
0.0
  3
BLOCK678
  1

  0
TEXT
  5
384
330
386
100
AcDbEntity
  8
100
 62
     7
370
    70
390
F
100
AcDbText
 10
-169.510254
 20
58.949829
 30
0.0
 40
2.0
  1
1.5
 41
1.559999099999999
 72
     5
 11
-164.310257
 21
58.949829
 31
0.0
100
AcDbText
  0
ENDBLK
  5
A46
330
386
100
AcDbEntity
  8
0
100
AcDbBlockEnd
  0
BLOCK
  5
A47
330
3A2
100
AcDbEntity
  8
0
100
AcDbBlockBegin
  2
BLOCK679
 70
     0
 10
0.0
 20
0.0
 30
0.0
  3
BLOCK679
  1

  0
LINE
  5
388
330
3A2
100
AcDbEntity
  8
0
 62
     7
 48
0.031752
370
     5
390
F
100
AcDbLine
 10
-183.510757
 20
19.088909
 30
0.0
 11
-184.780838
 21
19.088909
 31
0.0
  0
LINE
  5
389
330
3A2
100
AcDbEntity
  8
0
 62
     7
 48
0.012496
370
     5
390
F
100
AcDbLine
 10
-184.780838
 20
19.088909
 30
0.0
 11
-185.278259
 21
19.137899
 31
0.0
  0
LINE
  5
38A
330
3A2
100
AcDbEntity
  8
0
 62
     7
 48
0.012372
370
     5
390
F
100
AcDbLine
 10
-185.278259
 20
19.137899
 30
0.0
 11
-185.751846
 21
19.281559
 31
0.0
  0
LINE
  5
38B
330
3A2
100
AcDbEntity
  8
0
 62
     7
 48
0.012372
370
     5
390
F
100
AcDbLine
 10
-185.751846
 20
19.281559
 30
0.0
 11
-186.188293
 21
19.514851
 31
0.0
  0
LINE
  5
38C
330
3A2
100
AcDbEntity
  8
0
 62
     7
 48
0.012372
370
     5
390
F
100
AcDbLine
 10
-186.188293
 20
19.514851
 30
0.0
 11
-186.570847
 21
19.828806
 31
0.0
  0
LINE
  5
38D
330
3A2
100
AcDbEntity
  8
0
 62
     7
 48
0.012372
370
     5
390
F
100
AcDbLine
 10
-186.570847
 20
19.828806
 30
0.0
 11
-186.884811
 21
20.211363
 31
0.0
  0
LINE
  5
38E
330
3A2
100
AcDbEntity
  8
0
 62
     7
 48
0.012372
370
     5
390
F
100
AcDbLine
 10
-186.884811
 20
20.211363
 30
0.0
 11
-187.118103
 21
20.647818
 31
0.0
  0
LINE
  5
38F
330
3A2
100
AcDbEntity
  8
0
 62
     7
 48
0.012372
370
     5
390
F
100
AcDbLine
 10
-187.118103
 20
20.647818
 30
0.0
 11
-187.261765
 21
21.121399
 31
0.0
  0
LINE
  5
390
330
3A2
100
AcDbEntity
  8
0
 62
     7
 48
0.012372
370
     5
390
F
100
AcDbLine
 10
-187.261765
 20
21.121399
 30
0.0
 11
-187.310272
 21
21.613909
 31
0.0
  0
LINE
  5
391
330
3A2
100
AcDbEntity
  8
0
 62
     7
 48
0.012372
370
     5
390
F
100
AcDbLine
 10
-187.310272
 20
21.613909
 30
0.0
 11
-187.261765
 21
22.106417
 31
0.0
  0
LINE
  5
392
330
3A2
100
AcDbEntity
  8
0
 62
     7
 48
0.012372
370
     5
390
F
100
AcDbLine
 10
-187.261765
 20
22.106417
 30
0.0
 11
-187.118103
 21
22.58
 31
0.0
  0
LINE
  5
393
330
3A2
100
AcDbEntity
  8
0
 62
     7
 48
0.012372
370
     5
390
F
100
AcDbLine
 10
-187.118103
 20
22.58
 30
0.0
 11
-186.884811
 21
23.016455
 31
0.0
  0
LINE
  5
394
330
3A2
100
AcDbEntity
  8
0
 62
     7
 48
0.012372
370
     5
390
F
100
AcDbLine
 10
-186.884811
 20
23.016455
 30
0.0
 11
-186.570847
 21
23.399012
 31
0.0
  0
LINE
  5
395
330
3A2
100
AcDbEntity
  8
0
 62
     7
 48
0.012372
370
     5
390
F
100
AcDbLine
 10
-186.570847
 20
23.399012
 30
0.0
 11
-186.188293
 21
23.712967
 31
0.0
  0
LINE
  5
396
330
3A2
100
AcDbEntity
  8
0
 62
     7
 48
0.012372
370
     5
390
F
100
AcDbLine
 10
-186.188293
 20
23.712967
 30
0.0
 11
-185.751846
 21
23.946257
 31
0.0
  0
LINE
  5
397
330
3A2
100
AcDbEntity
  8
0
 62
     7
 48
0.012372
370
     5
390
F
100
AcDbLine
 10
-185.751846
 20
23.946257
 30
0.0
 11
-185.278259
 21
24.089916
 31
0.0
  0
LINE
  5
398
330
3A2
100
AcDbEntity
  8
0
 62
     7
 48
0.012496
370
     5
390
F
100
AcDbLine
 10
-185.278259
 20
24.089916
 30
0.0
 11
-184.780838
 21
24.138908
 31
0.0
  0
LINE
  5
399
330
3A2
100
AcDbEntity
  8
0
 62
     7
 48
0.031752
370
     5
390
F
100
AcDbLine
 10
-184.780838
 20
24.138908
 30
0.0
 11
-183.510757
 21
24.138908
 31
0.0
  0
LINE
  5
39A
330
3A2
100
AcDbEntity
  8
0
 62
     7
 48
0.0325
370
     5
390
F
100
AcDbLine
 10
-183.510757
 20
24.138908
 30
0.0
 11
-183.510757
 21
22.838909
 31
0.0
  0
LINE
  5
39B
330
3A2
100
AcDbEntity
  8
0
 62
     7
 48
0.05
370
     5
390
F
100
AcDbLine
 10
-183.510757
 20
22.838909
 30
0.0
 11
-185.510757
 21
22.838909
 31
0.0
  0
LINE
  5
39C
330
3A2
100
AcDbEntity
  8
0
 62
     7
 48
0.06125
370
     5
390
F
100
AcDbLine
 10
-185.510757
 20
22.838909
 30
0.0
 11
-185.510757
 21
20.388908
 31
0.0
  0
LINE
  5
39D
330
3A2
100
AcDbEntity
  8
0
 62
     7
 48
0.014375
370
     5
390
F
100
AcDbLine
 10
-185.510757
 20
20.388908
 30
0.0
 11
-184.935745
 21
20.388908
 31
0.0
  0
LINE
  5
39E
330
3A2
100
AcDbEntity
  8
0
 62
     7
 48
0.046875
370
     5
390
F
100
AcDbLine
 10
-184.935745
 20
20.388908
 30
0.0
 11
-184.935745
 21
22.263908
 31
0.0
  0
LINE
  5
39F
330
3A2
100
AcDbEntity
  8
0
 62
     7
 48
0.035625
370
     5
390
F
100
AcDbLine
 10
-184.935745
 20
22.263908
 30
0.0
 11
-183.510757
 21
22.263908
 31
0.0
  0
LINE
  5
3A0
330
3A2
100
AcDbEntity
  8
0
 62
     7
 48
0.079375
370
     5
390
F
100
AcDbLine
 10
-183.510757
 20
22.263908
 30
0.0
 11
-183.510757
 21
19.088909
 31
0.0
  0
ENDBLK
  5
A48
330
3A2
100
AcDbEntity
  8
0
100
AcDbBlockEnd
  0
BLOCK
  5
A49
330
3A6
100
AcDbEntity
  8
0
100
AcDbBlockBegin
  2
BLOCK680
 70
     0
 10
0.0
 20
0.0
 30
0.0
  3
BLOCK680
  1

  0
TEXT
  5
3A4
330
3A6
100
AcDbEntity
  8
0
 62
     7
370
    70
390
F
100
AcDbText
 10
-115.2854
 20
124.183456
 30
0.0
 40
4.266667
  1
SECTION A/A
 41
0.9741936285282193
 72
     5
 11
-72.334282
 21
124.183456
 31
0.0
100
AcDbText
  0
ENDBLK
  5
A4A
330
3A6
100
AcDbEntity
  8
0
100
AcDbBlockEnd
  0
BLOCK
  5
A4B
330
3AA
100
AcDbEntity
  8
0
100
AcDbBlockBegin
  2
BLOCK681
 70
     0
 10
0.0
 20
0.0
 30
0.0
  3
BLOCK681
  1

  0
TEXT
  5
3A8
330
3AA
100
AcDbEntity
  8
0
 62
     7
370
    70
390
F
100
AcDbText
 10
-249.592392
 20
-55.127861
 30
0.0
 40
4.266667
  1
CODICE
 41
1.012500316406225
 72
     5
 11
-226.552383
 21
-55.127861
 31
0.0
100
AcDbText
  0
ENDBLK
  5
A4C
330
3AA
100
AcDbEntity
  8
0
100
AcDbBlockEnd
  0
BLOCK
  5
A4D
330
3AE
100
AcDbEntity
  8
0
100
AcDbBlockBegin
  2
BLOCK682
 70
     0
 10
0.0
 20
0.0
 30
0.0
  3
BLOCK682
  1

  0
TEXT
  5
3AC
330
3AE
100
AcDbEntity
  8
0
 62
     7
370
    70
390
F
100
AcDbText
 10
-199.592392
 20
-55.127861
 30
0.0
 40
4.266667
  1
FINITURA
 41
1.038095543898785
 72
     5
 11
-168.587936
 21
-55.127861
 31
0.0
100
AcDbText
  0
ENDBLK
  5
A4E
330
3AE
100
AcDbEntity
  8
0
100
AcDbBlockEnd
  0
BLOCK
  5
A4F
330
3B2
100
AcDbEntity
  8
0
100
AcDbBlockBegin
  2
BLOCK683
 70
     0
 10
0.0
 20
0.0
 30
0.0
  3
BLOCK683
  1

  0
TEXT
  5
3B0
330
3B2
100
AcDbEntity
  8
0
 62
     7
370
    70
390
F
100
AcDbText
 10
-199.592392
 20
-61.127861
 30
0.0
 40
4.266667
  1
Grezzo
 41
0.9529414742646826
 72
     5
 11
-176.552383
 21
-61.127861
 31
0.0
100
AcDbText
  0
ENDBLK
  5
A50
330
3B2
100
AcDbEntity
  8
0
100
AcDbBlockEnd
  0
BLOCK
  5
A51
330
3B6
100
AcDbEntity
  8
0
100
AcDbBlockBegin
  2
BLOCK684
 70
     0
 10
0.0
 20
0.0
 30
0.0
  3
BLOCK684
  1

  0
TEXT
  5
3B4
330
3B6
100
AcDbEntity
  8
0
 62
     7
370
    70
390
F
100
AcDbText
 10
-199.592392
 20
-67.127853
 30
0.0
 40
4.266667
  1
Verniciat.col.Grigio grafite
 41
1.135766325501832
 72
     5
 11
-88.943504
 21
-67.127853
 31
0.0
100
AcDbText
  0
ENDBLK
  5
A52
330
3B6
100
AcDbEntity
  8
0
100
AcDbBlockEnd
  0
BLOCK
  5
A53
330
3BA
100
AcDbEntity
  8
0
100
AcDbBlockBegin
  2
BLOCK685
 70
     0
 10
0.0
 20
0.0
 30
0.0
  3
BLOCK685
  1

  0
TEXT
  5
3B8
330
3BA
100
AcDbEntity
  8
0
 62
     7
370
    70
390
F
100
AcDbText
 10
-243.725647
 20
-61.030861
 30
0.0
 40
4.0
  1
56327729
 41
0.9478260652173913
 72
     5
 11
-214.658981
 21
-61.030861
 31
0.0
100
AcDbText
  0
ENDBLK
  5
A54
330
3BA
100
AcDbEntity
  8
0
100
AcDbBlockEnd
  0
BLOCK
  5
A55
330
3BE
100
AcDbEntity
  8
0
100
AcDbBlockBegin
  2
BLOCK686
 70
     0
 10
0.0
 20
0.0
 30
0.0
  3
BLOCK686
  1

  0
TEXT
  5
3BC
330
3BE
100
AcDbEntity
  8
0
 62
     7
370
    70
390
F
100
AcDbText
 10
-243.096115
 20
-67.535904
 30
0.0
 40
4.0
  1
66371667
 41
0.990909068181818
 72
     5
 11
-214.029449
 21
-67.535904
 31
0.0
100
AcDbText
  0
ENDBLK
  5
A56
330
3BE
100
AcDbEntity
  8
0
100
AcDbBlockEnd
  0
BLOCK
  5
A57
330
3C2
100
AcDbEntity
  8
0
100
AcDbBlockBegin
  2
BLOCK687
 70
     0
 10
0.0
 20
0.0
 30
0.0
  3
BLOCK687
  1

  0
TEXT
  5
3C0
330
3C2
100
AcDbEntity
  8
0
 62
     7
370
    70
390
F
100
AcDbText
 10
-254.584869
 20
-87.680565
 30
0.0
 40
4.0
  1
NOTE:
 41
1.11666675
 72
     5
 11
-236.718201
 21
-87.680565
 31
0.0
100
AcDbText
  0
ENDBLK
  5
A58
330
3C2
100
AcDbEntity
  8
0
100
AcDbBlockEnd
  0
BLOCK
  5
A59
330
3CB
100
AcDbEntity
  8
0
100
AcDbBlockBegin
  2
BLOCK688
 70
     0
 10
0.0
 20
0.0
 30
0.0
  3
BLOCK688
  1

  0
TEXT
  5
3C4
330
3CB
100
AcDbEntity
  8
0
 62
     7
370
    13
390
F
100
AcDbText
 10
-282.860504
 20
185.211899
 30
0.0
 40
4.0
  1
1.5
 50
90.0
 41
1.559999100000003
 72
     5
 11
-282.860504
 21
195.611893
 31
0.0
100
AcDbText
  0
LINE
  5
3C5
330
3CB
100
AcDbEntity
  8
0
 62
     7
370
    13
390
F
100
AcDbLine
 10
-251.333328
 20
168.5
 30
0.0
 11
-282.860504
 21
168.5
 31
0.0
  0
LINE
  5
3C6
330
3CB
100
AcDbEntity
  8
0
 62
     7
370
    13
390
F
100
AcDbLine
 10
-251.333328
 20
170.0
 30
0.0
 11
-282.860504
 21
170.0
 31
0.0
  0
LWPOLYLINE
  5
3C7
330
3CB
100
AcDbEntity
  8
0
 62
     7
370
    35
390
F
100
AcDbPolyline
 90
        3
 70
     0
 43
0.0
 10
-280.884033
 20
172.575806
 10
-280.193848
 20
170.0
 10
-279.503662
 20
172.575806
  0
LWPOLYLINE
  5
3C8
330
3CB
100
AcDbEntity
  8
0
 62
     7
370
    35
390
F
100
AcDbPolyline
 90
        3
 70
     0
 43
0.0
 10
-279.503662
 20
165.924194
 10
-280.193848
 20
168.5
 10
-280.884033
 20
165.924194
  0
LINE
  5
3C9
330
3CB
100
AcDbEntity
  8
0
 62
     7
370
    13
390
F
100
AcDbLine
 10
-280.193848
 20
161.833328
 30
0.0
 11
-280.193848
 21
195.611893
 31
0.0
  0
ENDBLK
  5
A5A
330
3CB
100
AcDbEntity
  8
0
100
AcDbBlockEnd
  0
BLOCK
  5
A5B
330
3DF
100
AcDbEntity
  8
0
100
AcDbBlockBegin
  2
BLOCK689
 70
     0
 10
0.0
 20
0.0
 30
0.0
  3
BLOCK689
  1

  0
LINE
  5
3CD
330
3DF
100
AcDbEntity
  8
0
 62
     7
 48
0.053033
370
    13
390
F
100
AcDbLine
 10
-131.5
 20
48.532707
 30
0.0
 11
-130.0
 21
47.032711
 31
0.0
  0
LINE
  5
3CE
330
3DF
100
AcDbEntity
  8
0
 62
     7
 48
0.053033
370
    13
390
F
100
AcDbLine
 10
-249.196182
 20
170.0
 30
0.0
 11
-247.696182
 21
168.5
 31
0.0
  0
LINE
  5
3CF
330
3DF
100
AcDbEntity
  8
0
 62
     7
 48
0.053033
370
    13
390
F
100
AcDbLine
 10
-131.5
 20
52.303944
 30
0.0
 11
-130.0
 21
50.803944
 31
0.0
  0
LINE
  5
3D0
330
3DF
100
AcDbEntity
  8
0
 62
     7
 48
0.053033
370
    13
390
F
100
AcDbLine
 10
-245.424942
 20
170.0
 30
0.0
 11
-243.924942
 21
168.5
 31
0.0
  0
LINE
  5
3D1
330
3DF
100
AcDbEntity
  8
0
 62
     7
 48
0.053033
370
    13
390
F
100
AcDbLine
 10
-131.5
 20
56.075176
 30
0.0
 11
-130.0
 21
54.57518
 31
0.0
  0
LINE
  5
3D2
330
3DF
100
AcDbEntity
  8
0
 62
     7
 48
0.053033
370
    13
390
F
100
AcDbLine
 10
-241.653702
 20
170.0
 30
0.0
 11
-240.153702
 21
168.5
 31
0.0
  0
LINE
  5
3D3
330
3DF
100
AcDbEntity
  8
0
 62
     7
 48
0.053033
370
    13
390
F
100
AcDbLine
 10
-131.5
 20
59.846413
 30
0.0
 11
-130.0
 21
58.346413
 31
0.0
  0
LINE
  5
3D4
330
3DF
100
AcDbEntity
  8
0
 62
     7
 48
0.053033
370
    13
390
F
100
AcDbLine
 10
-237.882462
 20
170.0
 30
0.0
 11
-236.382462
 21
168.5
 31
0.0
  0
LINE
  5
3D5
330
3DF
100
AcDbEntity
  8
0
 62
     7
 48
0.053033
370
    13
390
F
100
AcDbLine
 10
-131.5
 20
63.617645
 30
0.0
 11
-130.0
 21
62.117645
 31
0.0
  0
LINE
  5
3D6
330
3DF
100
AcDbEntity
  8
0
 62
     7
 48
0.053033
370
    13
390
F
100
AcDbLine
 10
-234.111237
 20
170.0
 30
0.0
 11
-232.611221
 21
168.5
 31
0.0
  0
LINE
  5
3D7
330
3DF
100
AcDbEntity
  8
0
 62
     7
 48
0.053033
370
    13
390
F
100
AcDbLine
 10
-131.5
 20
67.388878
 30
0.0
 11
-130.0
 21
65.888878
 31
0.0
  0
LINE
  5
3D8
330
3DF
100
AcDbEntity
  8
0
 62
     7
 48
0.053033
370
    13
390
F
100
AcDbLine
 10
-230.339996
 20
170.0
 30
0.0
 11
-228.839996
 21
168.5
 31
0.0
  0
LINE
  5
3D9
330
3DF
100
AcDbEntity
  8
0
 62
     7
 48
0.053033
370
    13
390
F
100
AcDbLine
 10
-131.5
 20
71.16011
 30
0.0
 11
-130.0
 21
69.660118
 31
0.0
  0
LINE
  5
3DA
330
3DF
100
AcDbEntity
  8
0
 62
     7
 48
0.053033
370
    13
390
F
100
AcDbLine
 10
-226.568756
 20
170.0
 30
0.0
 11
-225.068756
 21
168.5
 31
0.0
  0
LINE
  5
3DB
330
3DF
100
AcDbEntity
  8
0
 62
     7
 48
0.053033
370
    13
390
F
100
AcDbLine
 10
-131.5
 20
74.931351
 30
0.0
 11
-130.0
 21
73.431351
 31
0.0
  0
LINE
  5
3DC
330
3DF
100
AcDbEntity
  8
0
 62
     7
 48
0.053033
370
    13
390
F
100
AcDbLine
 10
-222.797516
 20
170.0
 30
0.0
 11
-221.297516
 21
168.5
 31
0.0
  0
LINE
  5
3DD
330
3DF
100
AcDbEntity
  8
0
 62
     7
 48
0.053033
370
    13
390
F
100
AcDbLine
 10
-131.5
 20
78.702583
 30
0.0
 11
-130.0
 21
77.202583
 31
0.0
  0
ENDBLK
  5
A5C
330
3DF
100
AcDbEntity
  8
0
100
AcDbBlockEnd
  0
BLOCK
  5
A5D
330
423
100
AcDbEntity
  8
0
100
AcDbBlockBegin
  2
BLOCK690
 70
     0
 10
0.0
 20
0.0
 30
0.0
  3
BLOCK690
  1

  0
LINE
  5
3E1
330
423
100
AcDbEntity
  8
0
 62
     7
 48
0.053033
370
    13
390
F
100
AcDbLine
 10
-131.5
 20
45.7481
 30
0.0
 11
-130.0
 21
47.2481
 31
0.0
  0
LINE
  5
3E2
330
423
100
AcDbEntity
  8
0
 62
     7
 48
0.053033
370
    13
390
F
100
AcDbLine
 10
-131.5
 20
49.519337
 30
0.0
 11
-130.0
 21
51.019337
 31
0.0
  0
LINE
  5
3E3
330
423
100
AcDbEntity
  8
0
 62
     7
 48
0.053033
370
    13
390
F
100
AcDbLine
 10
-131.5
 20
53.290573
 30
0.0
 11
-130.0
 21
54.790573
 31
0.0
  0
LINE
  5
3E4
330
423
100
AcDbEntity
  8
0
 62
     7
 48
0.053033
370
    13
390
F
100
AcDbLine
 10
-131.5
 20
57.06181
 30
0.0
 11
-130.0
 21
58.56181
 31
0.0
  0
LINE
  5
3E5
330
423
100
AcDbEntity
  8
0
 62
     7
 48
0.053033
370
    13
390
F
100
AcDbLine
 10
-131.5
 20
60.833046
 30
0.0
 11
-130.0
 21
62.333046
 31
0.0
  0
LINE
  5
3E6
330
423
100
AcDbEntity
  8
0
 62
     7
 48
0.053033
370
    13
390
F
100
AcDbLine
 10
-131.5
 20
64.604279
 30
0.0
 11
-130.0
 21
66.104279
 31
0.0
  0
LINE
  5
3E7
330
423
100
AcDbEntity
  8
0
 62
     7
 48
0.053033
370
    13
390
F
100
AcDbLine
 10
-131.5
 20
68.375519
 30
0.0
 11
-130.0
 21
69.875519
 31
0.0
  0
LINE
  5
3E8
330
423
100
AcDbEntity
  8
0
 62
     7
 48
0.053033
370
    13
390
F
100
AcDbLine
 10
-131.5
 20
72.146751
 30
0.0
 11
-130.0
 21
73.646751
 31
0.0
  0
LINE
  5
3E9
330
423
100
AcDbEntity
  8
0
 62
     7
 48
0.053033
370
    13
390
F
100
AcDbLine
 10
-131.5
 20
75.917992
 30
0.0
 11
-130.0
 21
77.417992
 31
0.0
  0
LINE
  5
3EA
330
423
100
AcDbEntity
  8
0
 62
     7
 48
0.0375
370
    13
390
F
100
AcDbLine
 10
-131.655273
 20
79.533951
 30
0.0
 11
-130.59462
 21
80.594612
 31
0.0
  0
LINE
  5
3EB
330
423
100
AcDbEntity
  8
0
 62
     7
 48
0.0375
370
    13
390
F
100
AcDbLine
 10
-133.540894
 20
81.419571
 30
0.0
 11
-132.480225
 21
82.480232
 31
0.0
  0
LINE
  5
3EC
330
423
100
AcDbEntity
  8
0
 62
     7
 48
0.0375
370
    13
390
F
100
AcDbLine
 10
-135.426514
 20
83.305191
 30
0.0
 11
-134.365845
 21
84.365852
 31
0.0
  0
LINE
  5
3ED
330
423
100
AcDbEntity
  8
0
 62
     7
 48
0.0375
370
    13
390
F
100
AcDbLine
 10
-137.312134
 20
85.190804
 30
0.0
 11
-136.251465
 21
86.251465
 31
0.0
  0
LINE
  5
3EE
330
423
100
AcDbEntity
  8
0
 62
     7
 48
0.0375
370
    13
390
F
100
AcDbLine
 10
-139.197739
 20
87.076424
 30
0.0
 11
-138.137085
 21
88.137085
 31
0.0
  0
LINE
  5
3EF
330
423
100
AcDbEntity
  8
0
 62
     7
 48
0.0375
370
    13
390
F
100
AcDbLine
 10
-141.083359
 20
88.962044
 30
0.0
 11
-140.022705
 21
90.022705
 31
0.0
  0
LINE
  5
3F0
330
423
100
AcDbEntity
  8
0
 62
     7
 48
0.0375
370
    13
390
F
100
AcDbLine
 10
-142.968979
 20
90.847664
 30
0.0
 11
-141.908325
 21
91.908318
 31
0.0
  0
LINE
  5
3F1
330
423
100
AcDbEntity
  8
0
 62
     7
 48
0.0375
370
    13
390
F
100
AcDbLine
 10
-144.854599
 20
92.733276
 30
0.0
 11
-143.793945
 21
93.793938
 31
0.0
  0
LINE
  5
3F2
330
423
100
AcDbEntity
  8
0
 62
     7
 48
0.0375
370
    13
390
F
100
AcDbLine
 10
-146.740219
 20
94.618896
 30
0.0
 11
-145.67955
 21
95.679558
 31
0.0
  0
LINE
  5
3F3
330
423
100
AcDbEntity
  8
0
 62
     7
 48
0.0375
370
    13
390
F
100
AcDbLine
 10
-148.625839
 20
96.504517
 30
0.0
 11
-147.56517
 21
97.565178
 31
0.0
  0
LINE
  5
3F4
330
423
100
AcDbEntity
  8
0
 62
     7
 48
0.0375
370
    13
390
F
100
AcDbLine
 10
-150.511459
 20
98.390137
 30
0.0
 11
-149.45079
 21
99.45079
 31
0.0
  0
LINE
  5
3F5
330
423
100
AcDbEntity
  8
0
 62
     7
 48
0.0375
370
    13
390
F
100
AcDbLine
 10
-152.397064
 20
100.275749
 30
0.0
 11
-151.336411
 21
101.336411
 31
0.0
  0
LINE
  5
3F6
330
423
100
AcDbEntity
  8
0
 62
     7
 48
0.0375
370
    13
390
F
100
AcDbLine
 10
-154.282684
 20
102.161369
 30
0.0
 11
-153.222031
 21
103.222031
 31
0.0
  0
LINE
  5
3F7
330
423
100
AcDbEntity
  8
0
 62
     7
 48
0.0375
370
    13
390
F
100
AcDbLine
 10
-156.168304
 20
104.046989
 30
0.0
 11
-155.107651
 21
105.107651
 31
0.0
  0
LINE
  5
3F8
330
423
100
AcDbEntity
  8
0
 62
     7
 48
0.0375
370
    13
390
F
100
AcDbLine
 10
-158.053925
 20
105.932602
 30
0.0
 11
-156.993271
 21
106.993263
 31
0.0
  0
LINE
  5
3F9
330
423
100
AcDbEntity
  8
0
 62
     7
 48
0.0375
370
    13
390
F
100
AcDbLine
 10
-159.939545
 20
107.818222
 30
0.0
 11
-158.878891
 21
108.878883
 31
0.0
  0
LINE
  5
3FA
330
423
100
AcDbEntity
  8
0
 62
     7
 48
0.0375
370
    13
390
F
100
AcDbLine
 10
-161.825165
 20
109.703842
 30
0.0
 11
-160.764496
 21
110.764503
 31
0.0
  0
LINE
  5
3FB
330
423
100
AcDbEntity
  8
0
 62
     7
 48
0.0375
370
    13
390
F
100
AcDbLine
 10
-163.710785
 20
111.589462
 30
0.0
 11
-162.650116
 21
112.650124
 31
0.0
  0
LINE
  5
3FC
330
423
100
AcDbEntity
  8
0
 62
     7
 48
0.0375
370
    13
390
F
100
AcDbLine
 10
-165.596405
 20
113.475075
 30
0.0
 11
-164.535736
 21
114.535736
 31
0.0
  0
LINE
  5
3FD
330
423
100
AcDbEntity
  8
0
 62
     7
 48
0.0375
370
    13
390
F
100
AcDbLine
 10
-167.48201
 20
115.360695
 30
0.0
 11
-166.421356
 21
116.421356
 31
0.0
  0
LINE
  5
3FE
330
423
100
AcDbEntity
  8
0
 62
     7
 48
0.0375
370
    13
390
F
100
AcDbLine
 10
-169.36763
 20
117.246315
 30
0.0
 11
-168.306976
 21
118.306976
 31
0.0
  0
LINE
  5
3FF
330
423
100
AcDbEntity
  8
0
 62
     7
 48
0.0375
370
    13
390
F
100
AcDbLine
 10
-171.25325
 20
119.131935
 30
0.0
 11
-170.192596
 21
120.192589
 31
0.0
  0
LINE
  5
400
330
423
100
AcDbEntity
  8
0
 62
     7
 48
0.0375
370
    13
390
F
100
AcDbLine
 10
-173.13887
 20
121.017548
 30
0.0
 11
-172.078217
 21
122.078209
 31
0.0
  0
LINE
  5
401
330
423
100
AcDbEntity
  8
0
 62
     7
 48
0.0375
370
    13
390
F
100
AcDbLine
 10
-175.02449
 20
122.903168
 30
0.0
 11
-173.963821
 21
123.963829
 31
0.0
  0
LINE
  5
402
330
423
100
AcDbEntity
  8
0
 62
     7
 48
0.0375
370
    13
390
F
100
AcDbLine
 10
-176.91011
 20
124.788788
 30
0.0
 11
-175.849442
 21
125.849449
 31
0.0
  0
LINE
  5
403
330
423
100
AcDbEntity
  8
0
 62
     7
 48
0.0375
370
    13
390
F
100
AcDbLine
 10
-178.795731
 20
126.674408
 30
0.0
 11
-177.735062
 21
127.735062
 31
0.0
  0
LINE
  5
404
330
423
100
AcDbEntity
  8
0
 62
     7
 48
0.0375
370
    13
390
F
100
AcDbLine
 10
-180.681335
 20
128.560028
 30
0.0
 11
-179.620682
 21
129.620682
 31
0.0
  0
LINE
  5
405
330
423
100
AcDbEntity
  8
0
 62
     7
 48
0.0375
370
    13
390
F
100
AcDbLine
 10
-182.566956
 20
130.445648
 30
0.0
 11
-181.506302
 21
131.506302
 31
0.0
  0
LINE
  5
406
330
423
100
AcDbEntity
  8
0
 62
     7
 48
0.0375
370
    13
390
F
100
AcDbLine
 10
-184.452576
 20
132.331253
 30
0.0
 11
-183.391922
 21
133.391922
 31
0.0
  0
LINE
  5
407
330
423
100
AcDbEntity
  8
0
 62
     7
 48
0.0375
370
    13
390
F
100
AcDbLine
 10
-186.338196
 20
134.216873
 30
0.0
 11
-185.277542
 21
135.277542
 31
0.0
  0
LINE
  5
408
330
423
100
AcDbEntity
  8
0
 62
     7
 48
0.0375
370
    13
390
F
100
AcDbLine
 10
-188.223816
 20
136.102493
 30
0.0
 11
-187.163162
 21
137.163162
 31
0.0
  0
LINE
  5
409
330
423
100
AcDbEntity
  8
0
 62
     7
 48
0.0375
370
    13
390
F
100
AcDbLine
 10
-190.109436
 20
137.988113
 30
0.0
 11
-189.048767
 21
139.048767
 31
0.0
  0
LINE
  5
40A
330
423
100
AcDbEntity
  8
0
 62
     7
 48
0.0375
370
    13
390
F
100
AcDbLine
 10
-191.995056
 20
139.873734
 30
0.0
 11
-190.934387
 21
140.934387
 31
0.0
  0
LINE
  5
40B
330
423
100
AcDbEntity
  8
0
 62
     7
 48
0.0375
370
    13
390
F
100
AcDbLine
 10
-193.880676
 20
141.759354
 30
0.0
 11
-192.820007
 21
142.820007
 31
0.0
  0
LINE
  5
40C
330
423
100
AcDbEntity
  8
0
 62
     7
 48
0.0375
370
    13
390
F
100
AcDbLine
 10
-195.766281
 20
143.644974
 30
0.0
 11
-194.705627
 21
144.705627
 31
0.0
  0
LINE
  5
40D
330
423
100
AcDbEntity
  8
0
 62
     7
 48
0.0375
370
    13
390
F
100
AcDbLine
 10
-197.651901
 20
145.530579
 30
0.0
 11
-196.591248
 21
146.591248
 31
0.0
  0
LINE
  5
40E
330
423
100
AcDbEntity
  8
0
 62
     7
 48
0.0375
370
    13
390
F
100
AcDbLine
 10
-199.537521
 20
147.416199
 30
0.0
 11
-198.476868
 21
148.476868
 31
0.0
  0
LINE
  5
40F
330
423
100
AcDbEntity
  8
0
 62
     7
 48
0.0375
370
    13
390
F
100
AcDbLine
 10
-201.423141
 20
149.301819
 30
0.0
 11
-200.362488
 21
150.362488
 31
0.0
  0
LINE
  5
410
330
423
100
AcDbEntity
  8
0
 62
     7
 48
0.0375
370
    13
390
F
100
AcDbLine
 10
-203.308762
 20
151.187439
 30
0.0
 11
-202.248093
 21
152.248093
 31
0.0
  0
LINE
  5
411
330
423
100
AcDbEntity
  8
0
 62
     7
 48
0.0375
370
    13
390
F
100
AcDbLine
 10
-205.194382
 20
153.073059
 30
0.0
 11
-204.133713
 21
154.133713
 31
0.0
  0
LINE
  5
412
330
423
100
AcDbEntity
  8
0
 62
     7
 48
0.0375
370
    13
390
F
100
AcDbLine
 10
-207.080002
 20
154.958679
 30
0.0
 11
-206.019333
 21
156.019333
 31
0.0
  0
LINE
  5
413
330
423
100
AcDbEntity
  8
0
 62
     7
 48
0.0375
370
    13
390
F
100
AcDbLine
 10
-208.965607
 20
156.844299
 30
0.0
 11
-207.904953
 21
157.904953
 31
0.0
  0
LINE
  5
414
330
423
100
AcDbEntity
  8
0
 62
     7
 48
0.0375
370
    13
390
F
100
AcDbLine
 10
-210.851227
 20
158.729919
 30
0.0
 11
-209.790573
 21
159.790573
 31
0.0
  0
LINE
  5
415
330
423
100
AcDbEntity
  8
0
 62
     7
 48
0.0375
370
    13
390
F
100
AcDbLine
 10
-212.736847
 20
160.615524
 30
0.0
 11
-211.676193
 21
161.676193
 31
0.0
  0
LINE
  5
416
330
423
100
AcDbEntity
  8
0
 62
     7
 48
0.0375
370
    13
390
F
100
AcDbLine
 10
-214.622467
 20
162.501144
 30
0.0
 11
-213.561813
 21
163.561813
 31
0.0
  0
LINE
  5
417
330
423
100
AcDbEntity
  8
0
 62
     7
 48
0.0375
370
    13
390
F
100
AcDbLine
 10
-216.508087
 20
164.386765
 30
0.0
 11
-215.447433
 21
165.447433
 31
0.0
  0
LINE
  5
418
330
423
100
AcDbEntity
  8
0
 62
     7
 48
0.0375
370
    13
390
F
100
AcDbLine
 10
-218.393707
 20
166.272385
 30
0.0
 11
-217.333038
 21
167.333038
 31
0.0
  0
LINE
  5
419
330
423
100
AcDbEntity
  8
0
 62
     7
 48
0.0375
370
    13
390
F
100
AcDbLine
 10
-220.279327
 20
168.158005
 30
0.0
 11
-219.218658
 21
169.218658
 31
0.0
  0
LINE
  5
41A
330
423
100
AcDbEntity
  8
0
 62
     7
 48
0.053033
370
    13
390
F
100
AcDbLine
 10
-223.708557
 20
168.5
 30
0.0
 11
-222.208557
 21
170.0
 31
0.0
  0
LINE
  5
41B
330
423
100
AcDbEntity
  8
0
 62
     7
 48
0.053033
370
    13
390
F
100
AcDbLine
 10
-227.479797
 20
168.5
 30
0.0
 11
-225.979797
 21
170.0
 31
0.0
  0
LINE
  5
41C
330
423
100
AcDbEntity
  8
0
 62
     7
 48
0.053033
370
    13
390
F
100
AcDbLine
 10
-231.251038
 20
168.5
 30
0.0
 11
-229.751038
 21
170.0
 31
0.0
  0
LINE
  5
41D
330
423
100
AcDbEntity
  8
0
 62
     7
 48
0.053033
370
    13
390
F
100
AcDbLine
 10
-235.022263
 20
168.5
 30
0.0
 11
-233.522263
 21
170.0
 31
0.0
  0
LINE
  5
41E
330
423
100
AcDbEntity
  8
0
 62
     7
 48
0.053033
370
    13
390
F
100
AcDbLine
 10
-238.793503
 20
168.5
 30
0.0
 11
-237.293503
 21
170.0
 31
0.0
  0
LINE
  5
41F
330
423
100
AcDbEntity
  8
0
 62
     7
 48
0.053033
370
    13
390
F
100
AcDbLine
 10
-242.564743
 20
168.5
 30
0.0
 11
-241.064743
 21
170.0
 31
0.0
  0
LINE
  5
420
330
423
100
AcDbEntity
  8
0
 62
     7
 48
0.053033
370
    13
390
F
100
AcDbLine
 10
-246.335983
 20
168.5
 30
0.0
 11
-244.835983
 21
170.0
 31
0.0
  0
LINE
  5
421
330
423
100
AcDbEntity
  8
0
 62
     7
 48
0.049243
370
    13
390
F
100
AcDbLine
 10
-250.0
 20
168.607208
 30
0.0
 11
-248.607208
 21
170.0
 31
0.0
  0
ENDBLK
  5
A5E
330
423
100
AcDbEntity
  8
0
100
AcDbBlockEnd
  0
BLOCK
  5
A5F
330
42E
100
AcDbEntity
  8
0
100
AcDbBlockBegin
  2
*D162
 70
     1
 10
0.0
 20
0.0
 30
0.0
  3
*D162
  1

  0
POINT
  5
425
330
42E
100
AcDbEntity
  8
DEFPOINTS
  6
ByBlock
 62
     0
380
     1
100
AcDbPoint
 10
78.37746001967352
 20
401.340347
 30
0.0
  0
POINT
  5
426
330
42E
100
AcDbEntity
  8
DEFPOINTS
  6
ByBlock
 62
     0
380
     1
100
AcDbPoint
 10
78.37746001967352
 20
311.340347
 30
0.0
  0
LINE
  5
427
330
42E
100
AcDbEntity
  8
0
  6
ByBlock
 62
     0
370
    -2
380
     1
100
AcDbLine
 10
77.75246001967352
 20
401.340347
 30
0.0
 11
20.56172746902827
 21
401.340347
 31
0.0
  0
LINE
  5
428
330
42E
100
AcDbEntity
  8
0
  6
ByBlock
 62
     0
370
    -2
380
     1
100
AcDbLine
 10
77.75246001967352
 20
311.340347
 30
0.0
 11
20.56172746902827
 21
311.340347
 31
0.0
  0
LINE
  5
429
330
42E
100
AcDbEntity
  8
0
  6
ByBlock
 62
     0
370
    -2
380
     1
100
AcDbLine
 10
21.81172746902827
 20
398.840347
 30
0.0
 11
21.81172746902827
 21
313.840347
 31
0.0
  0
SOLID
  5
42A
330
42E
100
AcDbEntity
  8
0
  6
ByBlock
 62
     0
380
     1
100
AcDbTrace
 10
21.81172746902827
 20
401.340347
 30
0.0
 11
21.39506080236161
 21
398.840347
 31
0.0
 12
22.22839413569493
 22
398.840347
 32
0.0
 13
22.22839413569493
 23
398.840347
 33
0.0
  0
SOLID
  5
42B
330
42E
100
AcDbEntity
  8
0
  6
ByBlock
 62
     0
380
     1
100
AcDbTrace
 10
21.81172746902827
 20
311.340347
 30
0.0
 11
21.39506080236161
 21
313.840347
 31
0.0
 12
22.22839413569493
 22
313.840347
 32
0.0
 13
22.22839413569493
 23
313.840347
 33
0.0
  0
MTEXT
  5
42C
330
42E
100
AcDbEntity
  8
0
  6
ByBlock
 62
     0
370
    -2
380
     1
100
AcDbMText
 10
20.06063114426941
 20
356.340347
 30
0.0
 40
2.5
 41
0.0
 71
     5
 72
     1
  1
\A1;90
 11
6.123031769111886E-17
 21
1.0
 31
0.0
 73
     1
 44
1.0
  0
ENDBLK
  5
A60
330
42E
100
AcDbEntity
  8
0
100
AcDbBlockEnd
  0
BLOCK
  5
A61
330
439
100
AcDbEntity
  8
0
100
AcDbBlockBegin
  2
*D163
 70
     1
 10
0.0
 20
0.0
 30
0.0
  3
*D163
  1

  0
POINT
  5
430
330
439
100
AcDbEntity
  8
DEFPOINTS
  6
ByBlock
 62
     0
380
     1
100
AcDbPoint
 10
63.5263155
 20
333.840347
 30
0.0
  0
POINT
  5
431
330
439
100
AcDbEntity
  8
DEFPOINTS
  6
ByBlock
 62
     0
380
     1
100
AcDbPoint
 10
63.52992599999999
 20
311.340347
 30
0.0
  0
LINE
  5
432
330
439
100
AcDbEntity
  8
0
  6
ByBlock
 62
     0
370
    -2
380
     1
100
AcDbLine
 10
62.9013155
 20
333.840347
 30
0.0
 11
39.2015992513423
 21
333.840347
 31
0.0
  0
LINE
  5
433
330
439
100
AcDbEntity
  8
0
  6
ByBlock
 62
     0
370
    -2
380
     1
100
AcDbLine
 10
62.90492599999999
 20
311.340347
 30
0.0
 11
39.2015992513423
 21
311.340347
 31
0.0
  0
LINE
  5
434
330
439
100
AcDbEntity
  8
0
  6
ByBlock
 62
     0
370
    -2
380
     1
100
AcDbLine
 10
40.4515992513423
 20
331.340347
 30
0.0
 11
40.4515992513423
 21
313.840347
 31
0.0
  0
SOLID
  5
435
330
439
100
AcDbEntity
  8
0
  6
ByBlock
 62
     0
380
     1
100
AcDbTrace
 10
40.4515992513423
 20
333.840347
 30
0.0
 11
40.03493258467563
 21
331.340347
 31
0.0
 12
40.86826591800897
 22
331.340347
 32
0.0
 13
40.86826591800897
 23
331.340347
 33
0.0
  0
SOLID
  5
436
330
439
100
AcDbEntity
  8
0
  6
ByBlock
 62
     0
380
     1
100
AcDbTrace
 10
40.4515992513423
 20
311.340347
 30
0.0
 11
40.03493258467563
 21
313.840347
 31
0.0
 12
40.86826591800897
 22
313.840347
 32
0.0
 13
40.86826591800897
 23
313.840347
 33
0.0
  0
MTEXT
  5
437
330
439
100
AcDbEntity
  8
0
  6
ByBlock
 62
     0
370
    -2
380
     1
100
AcDbMText
 10
38.4515992513423
 20
322.590347
 30
0.0
 40
2.5
 41
0.0
 71
     5
 72
     1
  1
\A1;22,5
 11
6.123031769111886E-17
 21
1.0
 31
0.0
 73
     1
 44
1.0
  0
ENDBLK
  5
A62
330
439
100
AcDbEntity
  8
0
100
AcDbBlockEnd
  0
BLOCK
  5
A63
330
444
100
AcDbEntity
  8
0
100
AcDbBlockBegin
  2
*D164
 70
     1
 10
0.0
 20
0.0
 30
0.0
  3
*D164
  1

  0
POINT
  5
43B
330
444
100
AcDbEntity
  8
DEFPOINTS
  6
ByBlock
 62
     0
380
     1
100
AcDbPoint
 10
190.942395
 20
206.9217794673188
 30
0.0
  0
POINT
  5
43C
330
444
100
AcDbEntity
  8
DEFPOINTS
  6
ByBlock
 62
     0
380
     1
100
AcDbPoint
 10
206.842395
 20
206.9217794673188
 30
0.0
  0
LINE
  5
43D
330
444
100
AcDbEntity
  8
0
  6
ByBlock
 62
     0
370
    -2
380
     1
100
AcDbLine
 10
190.942395
 20
207.5467794673188
 30
0.0
 11
190.942395
 21
231.1044723846199
 31
0.0
  0
LINE
  5
43E
330
444
100
AcDbEntity
  8
0
  6
ByBlock
 62
     0
370
    -2
380
     1
100
AcDbLine
 10
206.842395
 20
207.5467794673188
 30
0.0
 11
206.842395
 21
231.1044723846199
 31
0.0
  0
LINE
  5
43F
330
444
100
AcDbEntity
  8
0
  6
ByBlock
 62
     0
370
    -2
380
     1
100
AcDbLine
 10
193.442395
 20
229.8544723846199
 30
0.0
 11
204.342395
 21
229.8544723846199
 31
0.0
  0
SOLID
  5
440
330
444
100
AcDbEntity
  8
0
  6
ByBlock
 62
     0
380
     1
100
AcDbTrace
 10
190.942395
 20
229.8544723846199
 30
0.0
 11
193.442395
 21
229.4378057179533
 31
0.0
 12
193.442395
 22
230.2711390512866
 32
0.0
 13
193.442395
 23
230.2711390512866
 33
0.0
  0
SOLID
  5
441
330
444
100
AcDbEntity
  8
0
  6
ByBlock
 62
     0
380
     1
100
AcDbTrace
 10
206.842395
 20
229.8544723846199
 30
0.0
 11
204.342395
 21
229.4378057179533
 31
0.0
 12
204.342395
 22
230.2711390512866
 32
0.0
 13
204.342395
 23
230.2711390512866
 33
0.0
  0
MTEXT
  5
442
330
444
100
AcDbEntity
  8
0
  6
ByBlock
 62
     0
370
    -2
380
     1
100
AcDbMText
 10
198.892395
 20
231.8550765833945
 30
0.0
 40
2.5
 41
0.0
 71
     5
 72
     1
  1
\A1;15,9
 73
     1
 44
1.0
  0
ENDBLK
  5
A64
330
444
100
AcDbEntity
  8
0
100
AcDbBlockEnd
  0
BLOCK
  5
A65
330
44F
100
AcDbEntity
  8
0
100
AcDbBlockBegin
  2
*D165
 70
     1
 10
0.0
 20
0.0
 30
0.0
  3
*D165
  1

  0
POINT
  5
446
330
44F
100
AcDbEntity
  8
DEFPOINTS
  6
ByBlock
 62
     0
380
     1
100
AcDbPoint
 10
212.0626990605994
 20
198.75
 30
0.0
  0
POINT
  5
447
330
44F
100
AcDbEntity
  8
DEFPOINTS
  6
ByBlock
 62
     0
380
     1
100
AcDbPoint
 10
210.62887425
 20
186.7506405
 30
0.0
  0
LINE
  5
448
330
44F
100
AcDbEntity
  8
0
  6
ByBlock
 62
     0
370
    -2
380
     1
100
AcDbLine
 10
212.6876990605994
 20
198.75
 30
0.0
 11
228.9627124703792
 21
198.75
 31
0.0
  0
LINE
  5
449
330
44F
100
AcDbEntity
  8
0
  6
ByBlock
 62
     0
370
    -2
380
     1
100
AcDbLine
 10
211.25387425
 20
186.7506405
 30
0.0
 11
228.9627124703792
 21
186.7506405
 31
0.0
  0
LINE
  5
44A
330
44F
100
AcDbEntity
  8
0
  6
ByBlock
 62
     0
370
    -2
380
     1
100
AcDbLine
 10
227.7127124703792
 20
196.25
 30
0.0
 11
227.7127124703792
 21
189.2506405
 31
0.0
  0
SOLID
  5
44B
330
44F
100
AcDbEntity
  8
0
  6
ByBlock
 62
     0
380
     1
100
AcDbTrace
 10
227.7127124703792
 20
198.75
 30
0.0
 11
227.2960458037126
 21
196.25
 31
0.0
 12
228.1293791370459
 22
196.25
 32
0.0
 13
228.1293791370459
 23
196.25
 33
0.0
  0
SOLID
  5
44C
330
44F
100
AcDbEntity
  8
0
  6
ByBlock
 62
     0
380
     1
100
AcDbTrace
 10
227.7127124703792
 20
186.7506405
 30
0.0
 11
227.2960458037126
 21
189.2506405
 31
0.0
 12
228.1293791370459
 22
189.2506405
 32
0.0
 13
228.1293791370459
 23
189.2506405
 33
0.0
  0
MTEXT
  5
44D
330
44F
100
AcDbEntity
  8
0
  6
ByBlock
 62
     0
370
    -2
380
     1
100
AcDbMText
 10
225.9627124703792
 20
192.75032025
 30
0.0
 40
2.5
 41
0.0
 71
     5
 72
     1
  1
\A1;12
 11
6.123031769111886E-17
 21
1.0
 31
0.0
 73
     1
 44
1.0
  0
ENDBLK
  5
A66
330
44F
100
AcDbEntity
  8
0
100
AcDbBlockEnd
  0
BLOCK
  5
A67
330
45A
100
AcDbEntity
  8
0
100
AcDbBlockBegin
  2
*D166
 70
     1
 10
0.0
 20
0.0
 30
0.0
  3
*D166
  1

  0
POINT
  5
451
330
45A
100
AcDbEntity
  8
DEFPOINTS
  6
ByBlock
 62
     0
380
     1
100
AcDbPoint
 10
71.52440250000001
 20
322.590347
 30
0.0
  0
POINT
  5
452
330
45A
100
AcDbEntity
  8
DEFPOINTS
  6
ByBlock
 62
     0
380
     1
100
AcDbPoint
 10
326.2603611753777
 20
322.5084578804847
 30
0.0
  0
LINE
  5
453
330
45A
100
AcDbEntity
  8
0
  6
ByBlock
 62
     0
370
    -2
380
     1
100
AcDbLine
 10
71.52440250000001
 20
321.965347
 30
0.0
 11
71.52440250000001
 21
277.8775035095508
 31
0.0
  0
LINE
  5
454
330
45A
100
AcDbEntity
  8
0
  6
ByBlock
 62
     0
370
    -2
380
     1
100
AcDbLine
 10
326.2603611753777
 20
321.8834578804847
 30
0.0
 11
326.2603611753777
 21
277.8775035095508
 31
0.0
  0
LINE
  5
455
330
45A
100
AcDbEntity
  8
0
  6
ByBlock
 62
     0
370
    -2
380
     1
100
AcDbLine
 10
74.02440250000001
 20
279.1275035095508
 30
0.0
 11
323.7603611753777
 21
279.1275035095508
 31
0.0
  0
SOLID
  5
456
330
45A
100
AcDbEntity
  8
0
  6
ByBlock
 62
     0
380
     1
100
AcDbTrace
 10
71.52440250000001
 20
279.1275035095508
 30
0.0
 11
74.02440250000001
 21
278.7108368428841
 31
0.0
 12
74.02440250000001
 22
279.5441701762174
 32
0.0
 13
74.02440250000001
 23
279.5441701762174
 33
0.0
  0
SOLID
  5
457
330
45A
100
AcDbEntity
  8
0
  6
ByBlock
 62
     0
380
     1
100
AcDbTrace
 10
326.2603611753777
 20
279.1275035095508
 30
0.0
 11
323.7603611753777
 21
278.7108368428841
 31
0.0
 12
323.7603611753777
 22
279.5441701762174
 32
0.0
 13
323.7603611753777
 23
279.5441701762174
 33
0.0
  0
MTEXT
  5
458
330
45A
100
AcDbEntity
  8
0
  6
ByBlock
 62
     0
370
    -2
380
     1
100
AcDbMText
 10
198.8923818376889
 20
281.1275035095508
 30
0.0
 40
2.5
 41
0.0
 71
     5
 72
     1
  1
\A1;254,74
 73
     1
 44
1.0
  0
ENDBLK
  5
A68
330
45A
100
AcDbEntity
  8
0
100
AcDbBlockEnd
  0
BLOCK
  5
A69
330
5A8
100
AcDbEntity
  8
0
100
AcDbBlockBegin
  2
*D167
 70
     1
 10
0.0
 20
0.0
 30
0.0
  3
*D167
  1

  0
POINT
  5
59E
330
5A8
100
AcDbEntity
  8
DEFPOINTS
  6
ByBlock
 62
     0
380
     1
100
AcDbPoint
 10
104.2420218261658
 20
533.78266151
 30
0.0
  0
POINT
  5
59F
330
5A8
100
AcDbEntity
  8
DEFPOINTS
  6
ByBlock
 62
     0
380
     1
100
AcDbPoint
 10
104.2420218261658
 20
414.08266151
 30
0.0
  0
LINE
  5
5A0
330
5A8
100
AcDbEntity
  8
0
  6
ByBlock
 62
     0
370
    -2
380
     1
100
AcDbLine
 10
104.1795218261658
 20
533.78266151
 30
0.0
 11
28.82959753380759
 21
533.78266151
 31
0.0
  0
LINE
  5
5A1
330
5A8
100
AcDbEntity
  8
0
  6
ByBlock
 62
     0
370
    -2
380
     1
100
AcDbLine
 10
104.1795218261658
 20
414.08266151
 30
0.0
 11
28.82959753380759
 21
414.08266151
 31
0.0
  0
LINE
  5
5A2
330
5A8
100
AcDbEntity
  8
0
  6
ByBlock
 62
     0
370
    -2
380
     1
100
AcDbLine
 10
29.00959753380759
 20
533.6026615100001
 30
0.0
 11
29.00959753380759
 21
474.54766151
 31
0.0
  0
LINE
  5
5A3
330
5A8
100
AcDbEntity
  8
0
  6
ByBlock
 62
     0
370
    -2
380
     1
100
AcDbLine
 10
29.00959753380759
 20
414.26266151
 30
0.0
 11
29.00959753380759
 21
473.3176615100001
 31
0.0
  0
SOLID
  5
5A4
330
5A8
100
AcDbEntity
  8
0
  6
ByBlock
 62
     0
380
     1
100
AcDbTrace
 10
29.00959753380759
 20
533.78266151
 30
0.0
 11
28.97959753380759
 21
533.6026615100001
 31
0.0
 12
29.03959753380759
 22
533.6026615100001
 32
0.0
 13
29.03959753380759
 23
533.6026615100001
 33
0.0
  0
SOLID
  5
5A5
330
5A8
100
AcDbEntity
  8
0
  6
ByBlock
 62
     0
380
     1
100
AcDbTrace
 10
29.00959753380759
 20
414.08266151
 30
0.0
 11
28.97959753380759
 21
414.26266151
 31
0.0
 12
29.03959753380759
 22
414.26266151
 32
0.0
 13
29.03959753380759
 23
414.26266151
 33
0.0
  0
MTEXT
  5
5A6
330
5A8
100
AcDbEntity
  8
0
  6
ByBlock
 62
     0
370
    -2
380
     1
100
AcDbMText
 10
29.00959753380759
 20
473.93266151
 30
0.0
 40
0.18
 41
0.0
 71
     5
 72
     1
  1
\A1;119.7000
 73
     1
 44
1.0
  0
ENDBLK
  5
A6A
330
5A8
100
AcDbEntity
  8
0
100
AcDbBlockEnd
  0
BLOCK
  5
A6B
330
5B5
100
AcDbEntity
  8
0
100
AcDbBlockBegin
  2
*D168
 70
     1
 10
0.0
 20
0.0
 30
0.0
  3
*D168
  1

  0
POINT
  5
5AB
330
5B5
100
AcDbEntity
  8
DEFPOINTS
  6
ByBlock
 62
     0
380
     1
100
AcDbPoint
 10
84.489999615
 20
444.00766151
 30
0.0
  0
POINT
  5
5AC
330
5B5
100
AcDbEntity
  8
DEFPOINTS
  6
ByBlock
 62
     0
380
     1
100
AcDbPoint
 10
84.49480157999999
 20
414.08266151
 30
0.0
  0
LINE
  5
5AD
330
5B5
100
AcDbEntity
  8
0
  6
ByBlock
 62
     0
370
    -2
380
     1
100
AcDbLine
 10
84.427499615
 20
444.00766151
 30
0.0
 11
53.62062700428526
 21
444.00766151
 31
0.0
  0
LINE
  5
5AE
330
5B5
100
AcDbEntity
  8
0
  6
ByBlock
 62
     0
370
    -2
380
     1
100
AcDbLine
 10
84.43230157999999
 20
414.08266151
 30
0.0
 11
53.62062700428526
 21
414.08266151
 31
0.0
  0
LINE
  5
5AF
330
5B5
100
AcDbEntity
  8
0
  6
ByBlock
 62
     0
370
    -2
380
     1
100
AcDbLine
 10
53.80062700428526
 20
443.82766151
 30
0.0
 11
53.80062700428526
 21
429.66016151
 31
0.0
  0
LINE
  5
5B0
330
5B5
100
AcDbEntity
  8
0
  6
ByBlock
 62
     0
370
    -2
380
     1
100
AcDbLine
 10
53.80062700428526
 20
414.26266151
 30
0.0
 11
53.80062700428526
 21
428.4301615100001
 31
0.0
  0
SOLID
  5
5B1
330
5B5
100
AcDbEntity
  8
0
  6
ByBlock
 62
     0
380
     1
100
AcDbTrace
 10
53.80062700428526
 20
444.00766151
 30
0.0
 11
53.77062700428526
 21
443.82766151
 31
0.0
 12
53.83062700428526
 22
443.82766151
 32
0.0
 13
53.83062700428526
 23
443.82766151
 33
0.0
  0
SOLID
  5
5B2
330
5B5
100
AcDbEntity
  8
0
  6
ByBlock
 62
     0
380
     1
100
AcDbTrace
 10
53.80062700428526
 20
414.08266151
 30
0.0
 11
53.77062700428526
 21
414.26266151
 31
0.0
 12
53.83062700428526
 22
414.26266151
 32
0.0
 13
53.83062700428526
 23
414.26266151
 33
0.0
  0
MTEXT
  5
5B3
330
5B5
100
AcDbEntity
  8
0
  6
ByBlock
 62
     0
370
    -2
380
     1
100
AcDbMText
 10
53.80062700428526
 20
429.0451615100001
 30
0.0
 40
0.18
 41
0.0
 71
     5
 72
     1
  1
\A1;29.9250
 73
     1
 44
1.0
  0
ENDBLK
  5
A6C
330
5B5
100
AcDbEntity
  8
0
100
AcDbBlockEnd
  0
BLOCK
  5
A6D
330
5C2
100
AcDbEntity
  8
0
100
AcDbBlockBegin
  2
*D169
 70
     1
 10
0.0
 20
0.0
 30
0.0
  3
*D169
  1

  0
POINT
  5
5B8
330
5C2
100
AcDbEntity
  8
DEFPOINTS
  6
ByBlock
 62
     0
380
     1
100
AcDbPoint
 10
253.95338535
 20
275.205966691534
 30
0.0
  0
POINT
  5
5B9
330
5C2
100
AcDbEntity
  8
DEFPOINTS
  6
ByBlock
 62
     0
380
     1
100
AcDbPoint
 10
275.10038535
 20
275.205966691534
 30
0.0
  0
LINE
  5
5BA
330
5C2
100
AcDbEntity
  8
0
  6
ByBlock
 62
     0
370
    -2
380
     1
100
AcDbLine
 10
253.95338535
 20
275.268466691534
 30
0.0
 11
253.95338535
 21
305.8864482715445
 31
0.0
  0
LINE
  5
5BB
330
5C2
100
AcDbEntity
  8
0
  6
ByBlock
 62
     0
370
    -2
380
     1
100
AcDbLine
 10
275.10038535
 20
275.268466691534
 30
0.0
 11
275.10038535
 21
305.8864482715445
 31
0.0
  0
LINE
  5
5BC
330
5C2
100
AcDbEntity
  8
0
  6
ByBlock
 62
     0
370
    -2
380
     1
100
AcDbLine
 10
254.13338535
 20
305.7064482715445
 30
0.0
 11
263.97188535
 21
305.7064482715445
 31
0.0
  0
LINE
  5
5BD
330
5C2
100
AcDbEntity
  8
0
  6
ByBlock
 62
     0
370
    -2
380
     1
100
AcDbLine
 10
274.92038535
 20
305.7064482715445
 30
0.0
 11
265.08188535
 21
305.7064482715445
 31
0.0
  0
SOLID
  5
5BE
330
5C2
100
AcDbEntity
  8
0
  6
ByBlock
 62
     0
380
     1
100
AcDbTrace
 10
253.95338535
 20
305.7064482715445
 30
0.0
 11
254.13338535
 21
305.6764482715445
 31
0.0
 12
254.13338535
 22
305.7364482715445
 32
0.0
 13
254.13338535
 23
305.7364482715445
 33
0.0
  0
SOLID
  5
5BF
330
5C2
100
AcDbEntity
  8
0
  6
ByBlock
 62
     0
380
     1
100
AcDbTrace
 10
275.10038535
 20
305.7064482715445
 30
0.0
 11
274.92038535
 21
305.6764482715445
 31
0.0
 12
274.92038535
 22
305.7364482715445
 32
0.0
 13
274.92038535
 23
305.7364482715445
 33
0.0
  0
MTEXT
  5
5C0
330
5C2
100
AcDbEntity
  8
0
  6
ByBlock
 62
     0
370
    -2
380
     1
100
AcDbMText
 10
264.52688535
 20
305.7064482715445
 30
0.0
 40
0.18
 41
0.0
 71
     5
 72
     1
  1
\A1;21.1470
 73
     1
 44
1.0
  0
ENDBLK
  5
A6E
330
5C2
100
AcDbEntity
  8
0
100
AcDbBlockEnd
  0
BLOCK
  5
A6F
330
5CF
100
AcDbEntity
  8
0
100
AcDbBlockBegin
  2
*D170
 70
     1
 10
0.0
 20
0.0
 30
0.0
  3
*D170
  1

  0
POINT
  5
5C5
330
5CF
100
AcDbEntity
  8
DEFPOINTS
  6
ByBlock
 62
     0
380
     1
100
AcDbPoint
 10
282.0433897505972
 20
264.3375
 30
0.0
  0
POINT
  5
5C6
330
5CF
100
AcDbEntity
  8
DEFPOINTS
  6
ByBlock
 62
     0
380
     1
100
AcDbPoint
 10
280.1364027525
 20
248.378351865
 30
0.0
  0
LINE
  5
5C7
330
5CF
100
AcDbEntity
  8
0
  6
ByBlock
 62
     0
370
    -2
380
     1
100
AcDbLine
 10
282.1058897505972
 20
264.3375
 30
0.0
 11
303.0379075856043
 21
264.3375
 31
0.0
  0
LINE
  5
5C8
330
5CF
100
AcDbEntity
  8
0
  6
ByBlock
 62
     0
370
    -2
380
     1
100
AcDbLine
 10
280.1989027525
 20
248.378351865
 30
0.0
 11
303.0379075856043
 21
248.378351865
 31
0.0
  0
LINE
  5
5C9
330
5CF
100
AcDbEntity
  8
0
  6
ByBlock
 62
     0
370
    -2
380
     1
100
AcDbLine
 10
302.8579075856043
 20
264.1575
 30
0.0
 11
302.8579075856043
 21
256.9279259325
 31
0.0
  0
LINE
  5
5CA
330
5CF
100
AcDbEntity
  8
0
  6
ByBlock
 62
     0
370
    -2
380
     1
100
AcDbLine
 10
302.8579075856043
 20
248.558351865
 30
0.0
 11
302.8579075856043
 21
255.7879259325
 31
0.0
  0
SOLID
  5
5CB
330
5CF
100
AcDbEntity
  8
0
  6
ByBlock
 62
     0
380
     1
100
AcDbTrace
 10
302.8579075856043
 20
264.3375
 30
0.0
 11
302.8279075856043
 21
264.1575
 31
0.0
 12
302.8879075856044
 22
264.1575
 32
0.0
 13
302.8879075856044
 23
264.1575
 33
0.0
  0
SOLID
  5
5CC
330
5CF
100
AcDbEntity
  8
0
  6
ByBlock
 62
     0
380
     1
100
AcDbTrace
 10
302.8579075856043
 20
248.378351865
 30
0.0
 11
302.8279075856043
 21
248.558351865
 31
0.0
 12
302.8879075856044
 22
248.558351865
 32
0.0
 13
302.8879075856044
 23
248.558351865
 33
0.0
  0
MTEXT
  5
5CD
330
5CF
100
AcDbEntity
  8
0
  6
ByBlock
 62
     0
370
    -2
380
     1
100
AcDbMText
 10
302.8579075856043
 20
256.3579259325001
 30
0.0
 40
0.18
 41
0.0
 71
     5
 72
     1
  1
\A1;15.9591
 73
     1
 44
1.0
  0
ENDBLK
  5
A70
330
5CF
100
AcDbEntity
  8
0
100
AcDbBlockEnd
  0
BLOCK
  5
A71
330
5DB
100
AcDbEntity
  8
0
100
AcDbBlockBegin
  2
*D171
 70
     1
 10
0.0
 20
0.0
 30
0.0
  3
*D171
  1

  0
POINT
  5
5D2
330
5DB
100
AcDbEntity
  8
DEFPOINTS
  6
ByBlock
 62
     0
380
     1
100
AcDbPoint
 10
198.1430865514615
 20
533.78266151
 30
0.0
  0
POINT
  5
5D3
330
5DB
100
AcDbEntity
  8
DEFPOINTS
  6
ByBlock
 62
     0
380
     1
100
AcDbPoint
 10
191.0295727077335
 20
414.08266151
 30
0.0
  0
LINE
  5
5D4
330
5DB
100
AcDbEntity
  8
0
  6
ByBlock
 62
     0
370
    -2
380
     1
100
AcDbLine
 10
197.5180865514615
 20
533.78266151
 30
0.0
 11
14.18809940729076
 21
533.78266151
 31
0.0
  0
LINE
  5
5D5
330
5DB
100
AcDbEntity
  8
0
  6
ByBlock
 62
     0
370
    -2
380
     1
100
AcDbLine
 10
190.4045727077335
 20
414.08266151
 30
0.0
 11
14.18809940729076
 21
414.08266151
 31
0.0
  0
LINE
  5
5D6
330
5DB
100
AcDbEntity
  8
0
  6
ByBlock
 62
     0
370
    -2
380
     1
100
AcDbLine
 10
15.43809940729076
 20
531.28266151
 30
0.0
 11
15.43809940729076
 21
416.58266151
 31
0.0
  0
SOLID
  5
5D7
330
5DB
100
AcDbEntity
  8
0
  6
ByBlock
 62
     0
380
     1
100
AcDbTrace
 10
15.43809940729076
 20
533.78266151
 30
0.0
 11
15.02143274062411
 21
531.28266151
 31
0.0
 12
15.85476607395742
 22
531.28266151
 32
0.0
 13
15.85476607395742
 23
531.28266151
 33
0.0
  0
SOLID
  5
5D8
330
5DB
100
AcDbEntity
  8
0
  6
ByBlock
 62
     0
380
     1
100
AcDbTrace
 10
15.43809940729076
 20
414.08266151
 30
0.0
 11
15.02143274062411
 21
416.58266151
 31
0.0
 12
15.85476607395742
 22
416.58266151
 32
0.0
 13
15.85476607395742
 23
416.58266151
 33
0.0
  0
MTEXT
  5
5D9
330
5DB
100
AcDbEntity
  8
0
  6
ByBlock
 62
     0
370
    -2
380
     1
100
AcDbMText
 10
13.35476607395742
 20
473.93266151
 30
0.0
 40
2.5
 41
0.0
 71
     5
 72
     1
  1
\A1;119,7
 11
6.123031769111886E-17
 21
1.0
 31
0.0
 73
     1
 44
1.0
  0
ENDBLK
  5
A72
330
5DB
100
AcDbEntity
  8
0
100
AcDbBlockEnd
  0
BLOCK
  5
A73
330
5E7
100
AcDbEntity
  8
0
100
AcDbBlockBegin
  2
*D172
 70
     1
 10
0.0
 20
0.0
 30
0.0
  3
*D172
  1

  0
POINT
  5
5DE
330
5E7
100
AcDbEntity
  8
DEFPOINTS
  6
ByBlock
 62
     0
380
     1
100
AcDbPoint
 10
168.8991270445593
 20
444.00766151
 30
0.0
  0
POINT
  5
5DF
330
5E7
100
AcDbEntity
  8
DEFPOINTS
  6
ByBlock
 62
     0
380
     1
100
AcDbPoint
 10
168.8991270445593
 20
414.08266151
 30
0.0
  0
LINE
  5
5E0
330
5E7
100
AcDbEntity
  8
0
  6
ByBlock
 62
     0
370
    -2
380
     1
100
AcDbLine
 10
168.2741270445593
 20
444.00766151
 30
0.0
 11
-36.28440029843119
 21
444.00766151
 31
0.0
  0
LINE
  5
5E1
330
5E7
100
AcDbEntity
  8
0
  6
ByBlock
 62
     0
370
    -2
380
     1
100
AcDbLine
 10
168.2741270445593
 20
414.08266151
 30
0.0
 11
-36.28440029843119
 21
414.08266151
 31
0.0
  0
LINE
  5
5E2
330
5E7
100
AcDbEntity
  8
0
  6
ByBlock
 62
     0
370
    -2
380
     1
100
AcDbLine
 10
-35.03440029843119
 20
441.50766151
 30
0.0
 11
-35.03440029843119
 21
416.58266151
 31
0.0
  0
SOLID
  5
5E3
330
5E7
100
AcDbEntity
  8
0
  6
ByBlock
 62
     0
380
     1
100
AcDbTrace
 10
-35.03440029843119
 20
444.00766151
 30
0.0
 11
-35.45106696509785
 21
441.50766151
 31
0.0
 12
-34.61773363176454
 22
441.50766151
 32
0.0
 13
-34.61773363176454
 23
441.50766151
 33
0.0
  0
SOLID
  5
5E4
330
5E7
100
AcDbEntity
  8
0
  6
ByBlock
 62
     0
380
     1
100
AcDbTrace
 10
-35.03440029843119
 20
414.08266151
 30
0.0
 11
-35.45106696509785
 21
416.58266151
 31
0.0
 12
-34.61773363176454
 22
416.58266151
 32
0.0
 13
-34.61773363176454
 23
416.58266151
 33
0.0
  0
MTEXT
  5
5E5
330
5E7
100
AcDbEntity
  8
0
  6
ByBlock
 62
     0
370
    -2
380
     1
100
AcDbMText
 10
-37.11773363176454
 20
429.0451615100001
 30
0.0
 40
2.5
 41
0.0
 71
     5
 72
     1
  1
\A1;29,93
 11
6.123031769111886E-17
 21
1.0
 31
0.0
 73
     1
 44
1.0
  0
ENDBLK
  5
A74
330
5E7
100
AcDbEntity
  8
0
100
AcDbBlockEnd
  0
BLOCK
  5
A75
330
5F3
100
AcDbEntity
  8
0
100
AcDbBlockBegin
  2
*D173
 70
     1
 10
0.0
 20
0.0
 30
0.0
  3
*D173
  1

  0
POINT
  5
5EA
330
5F3
100
AcDbEntity
  8
DEFPOINTS
  6
ByBlock
 62
     0
380
     1
100
AcDbPoint
 10
123.6345988153437
 20
444.00766151
 30
0.0
  0
POINT
  5
5EB
330
5F3
100
AcDbEntity
  8
DEFPOINTS
  6
ByBlock
 62
     0
380
     1
100
AcDbPoint
 10
123.6345988153437
 20
414.08266151
 30
0.0
  0
LINE
  5
5EC
330
5F3
100
AcDbEntity
  8
0
  6
ByBlock
 62
     0
370
    -2
380
     1
100
AcDbLine
 10
123.0095988153437
 20
444.00766151
 30
0.0
 11
62.613251725
 21
444.00766151
 31
0.0
  0
LINE
  5
5ED
330
5F3
100
AcDbEntity
  8
0
  6
ByBlock
 62
     0
370
    -2
380
     1
100
AcDbLine
 10
123.0095988153437
 20
414.08266151
 30
0.0
 11
62.613251725
 21
414.08266151
 31
0.0
  0
LINE
  5
5EE
330
5F3
100
AcDbEntity
  8
0
  6
ByBlock
 62
     0
370
    -2
380
     1
100
AcDbLine
 10
63.863251725
 20
441.50766151
 30
0.0
 11
63.863251725
 21
416.58266151
 31
0.0
  0
SOLID
  5
5EF
330
5F3
100
AcDbEntity
  8
0
  6
ByBlock
 62
     0
380
     1
100
AcDbTrace
 10
63.863251725
 20
444.00766151
 30
0.0
 11
63.44658505833334
 21
441.50766151
 31
0.0
 12
64.27991839166667
 22
441.50766151
 32
0.0
 13
64.27991839166667
 23
441.50766151
 33
0.0
  0
SOLID
  5
5F0
330
5F3
100
AcDbEntity
  8
0
  6
ByBlock
 62
     0
380
     1
100
AcDbTrace
 10
63.863251725
 20
414.08266151
 30
0.0
 11
63.44658505833334
 21
416.58266151
 31
0.0
 12
64.27991839166667
 22
416.58266151
 32
0.0
 13
64.27991839166667
 23
416.58266151
 33
0.0
  0
MTEXT
  5
5F1
330
5F3
100
AcDbEntity
  8
0
  6
ByBlock
 62
     0
370
    -2
380
     1
100
AcDbMText
 10
61.77991839166666
 20
429.0451615100001
 30
0.0
 40
2.5
 41
0.0
 71
     5
 72
     1
  1
\A1;29,93
 11
6.123031769111886E-17
 21
1.0
 31
0.0
 73
     1
 44
1.0
  0
ENDBLK
  5
A76
330
5F3
100
AcDbEntity
  8
0
100
AcDbBlockEnd
  0
BLOCK
  5
A77
330
5FE
100
AcDbEntity
  8
0
100
AcDbBlockBegin
  2
*D174
 70
     1
 10
0.0
 20
0.0
 30
0.0
  3
*D174
  1

  0
POINT
  5
5F5
330
5FE
100
AcDbEntity
  8
DEFPOINTS
  6
ByBlock
 62
     0
380
     1
100
AcDbPoint
 10
123.6345988153437
 20
444.00766151
 30
0.0
  0
POINT
  5
5F6
330
5FE
100
AcDbEntity
  8
DEFPOINTS
  6
ByBlock
 62
     0
380
     1
100
AcDbPoint
 10
123.6345988153437
 20
414.08266151
 30
0.0
  0
LINE
  5
5F7
330
5FE
100
AcDbEntity
  8
0
  6
ByBlock
 62
     0
370
    -2
380
     1
100
AcDbLine
 10
123.0095988153437
 20
444.00766151
 30
0.0
 11
78.92431338161903
 21
444.00766151
 31
0.0
  0
LINE
  5
5F8
330
5FE
100
AcDbEntity
  8
0
  6
ByBlock
 62
     0
370
    -2
380
     1
100
AcDbLine
 10
123.0095988153437
 20
414.08266151
 30
0.0
 11
78.92431338161903
 21
414.08266151
 31
0.0
  0
LINE
  5
5F9
330
5FE
100
AcDbEntity
  8
0
  6
ByBlock
 62
     0
370
    -2
380
     1
100
AcDbLine
 10
80.17431338161903
 20
441.50766151
 30
0.0
 11
80.17431338161903
 21
416.58266151
 31
0.0
  0
SOLID
  5
5FA
330
5FE
100
AcDbEntity
  8
0
  6
ByBlock
 62
     0
380
     1
100
AcDbTrace
 10
80.17431338161903
 20
444.00766151
 30
0.0
 11
79.75764671495236
 21
441.50766151
 31
0.0
 12
80.5909800482857
 22
441.50766151
 32
0.0
 13
80.5909800482857
 23
441.50766151
 33
0.0
  0
SOLID
  5
5FB
330
5FE
100
AcDbEntity
  8
0
  6
ByBlock
 62
     0
380
     1
100
AcDbTrace
 10
80.17431338161903
 20
414.08266151
 30
0.0
 11
79.75764671495236
 21
416.58266151
 31
0.0
 12
80.5909800482857
 22
416.58266151
 32
0.0
 13
80.5909800482857
 23
416.58266151
 33
0.0
  0
MTEXT
  5
5FC
330
5FE
100
AcDbEntity
  8
0
  6
ByBlock
 62
     0
370
    -2
380
     1
100
AcDbMText
 10
78.09098004828569
 20
427.1199391785737
 30
0.0
 40
2.5
 41
0.0
 71
     5
 72
     1
  1
\A1;29,93
 11
6.123031769111886E-17
 21
1.0
 31
0.0
 73
     1
 44
1.0
  0
ENDBLK
  5
A78
330
5FE
100
AcDbEntity
  8
0
100
AcDbBlockEnd
  0
BLOCK
  5
A79
330
609
100
AcDbEntity
  8
0
100
AcDbBlockBegin
  2
*D175
 70
     1
 10
0.0
 20
0.0
 30
0.0
  3
*D175
  1

  0
POINT
  5
600
330
609
100
AcDbEntity
  8
DEFPOINTS
  6
ByBlock
 62
     0
380
     1
100
AcDbPoint
 10
123.6345988153437
 20
444.00766151
 30
0.0
  0
POINT
  5
601
330
609
100
AcDbEntity
  8
DEFPOINTS
  6
ByBlock
 62
     0
380
     1
100
AcDbPoint
 10
123.6345988153437
 20
414.08266151
 30
0.0
  0
LINE
  5
602
330
609
100
AcDbEntity
  8
0
  6
ByBlock
 62
     0
370
    -2
380
     1
100
AcDbLine
 10
123.0095988153437
 20
444.00766151
 30
0.0
 11
78.92431338161903
 21
444.00766151
 31
0.0
  0
LINE
  5
603
330
609
100
AcDbEntity
  8
0
  6
ByBlock
 62
     0
370
    -2
380
     1
100
AcDbLine
 10
123.0095988153437
 20
414.08266151
 30
0.0
 11
78.92431338161903
 21
414.08266151
 31
0.0
  0
LINE
  5
604
330
609
100
AcDbEntity
  8
0
  6
ByBlock
 62
     0
370
    -2
380
     1
100
AcDbLine
 10
80.17431338161903
 20
441.50766151
 30
0.0
 11
80.17431338161903
 21
416.58266151
 31
0.0
  0
SOLID
  5
605
330
609
100
AcDbEntity
  8
0
  6
ByBlock
 62
     0
380
     1
100
AcDbTrace
 10
80.17431338161903
 20
444.00766151
 30
0.0
 11
79.75764671495236
 21
441.50766151
 31
0.0
 12
80.5909800482857
 22
441.50766151
 32
0.0
 13
80.5909800482857
 23
441.50766151
 33
0.0
  0
SOLID
  5
606
330
609
100
AcDbEntity
  8
0
  6
ByBlock
 62
     0
380
     1
100
AcDbTrace
 10
80.17431338161903
 20
414.08266151
 30
0.0
 11
79.75764671495236
 21
416.58266151
 31
0.0
 12
80.5909800482857
 22
416.58266151
 32
0.0
 13
80.5909800482857
 23
416.58266151
 33
0.0
  0
MTEXT
  5
607
330
609
100
AcDbEntity
  8
0
  6
ByBlock
 62
     0
370
    -2
380
     1
100
AcDbMText
 10
78.29931338161903
 20
427.1199391785737
 30
0.0
 40
2.5
 41
0.0
 71
     5
 72
     1
  1
30
 11
6.123031769111886E-17
 21
1.0
 31
0.0
 73
     1
 44
1.0
  0
ENDBLK
  5
A7A
330
609
100
AcDbEntity
  8
0
100
AcDbBlockEnd
  0
BLOCK
  5
A7B
330
614
100
AcDbEntity
  8
0
100
AcDbBlockBegin
  2
*D176
 70
     1
 10
0.0
 20
0.0
 30
0.0
  3
*D176
  1

  0
POINT
  5
60B
330
614
100
AcDbEntity
  8
DEFPOINTS
  6
ByBlock
 62
     7
380
     1
100
AcDbPoint
 10
123.6345988153437
 20
444.00766151
 30
0.0
  0
POINT
  5
60C
330
614
100
AcDbEntity
  8
DEFPOINTS
  6
ByBlock
 62
     7
380
     1
100
AcDbPoint
 10
123.6345988153437
 20
414.08266151
 30
0.0
  0
LINE
  5
60D
330
614
100
AcDbEntity
  8
0
  6
ByBlock
 62
     7
370
    -2
380
     1
100
AcDbLine
 10
123.0095988153437
 20
444.00766151
 30
0.0
 11
78.92431338161903
 21
444.00766151
 31
0.0
  0
LINE
  5
60E
330
614
100
AcDbEntity
  8
0
  6
ByBlock
 62
     7
370
    -2
380
     1
100
AcDbLine
 10
123.0095988153437
 20
414.08266151
 30
0.0
 11
78.92431338161903
 21
414.08266151
 31
0.0
  0
LINE
  5
60F
330
614
100
AcDbEntity
  8
0
  6
ByBlock
 62
     7
370
    -2
380
     1
100
AcDbLine
 10
80.17431338161903
 20
444.00766151
 30
0.0
 11
80.17431338161903
 21
414.08266151
 31
0.0
  0
SOLID
  5
610
330
614
100
AcDbEntity
  8
0
  6
ByBlock
 62
     7
380
     1
100
AcDbTrace
 10
80.17431338161903
 20
444.00766151
 30
0.0
 11
78.50764671495236
 21
434.00766151
 31
0.0
 12
81.8409800482857
 22
434.00766151
 32
0.0
 13
81.8409800482857
 23
434.00766151
 33
0.0
  0
SOLID
  5
611
330
614
100
AcDbEntity
  8
0
  6
ByBlock
 62
     7
380
     1
100
AcDbTrace
 10
80.17431338161903
 20
414.08266151
 30
0.0
 11
78.50764671495236
 21
424.08266151
 31
0.0
 12
81.8409800482857
 22
424.08266151
 32
0.0
 13
81.8409800482857
 23
424.08266151
 33
0.0
  0
MTEXT
  5
612
330
614
100
AcDbEntity
  8
0
  6
ByBlock
 62
     0
370
    -2
380
     1
100
AcDbMText
 10
68.17431338161903
 20
427.1199391785737
 30
0.0
 40
14.0
 41
0.0
 71
     5
 72
     1
  1
30
 11
6.123031769111886E-17
 21
1.0
 31
0.0
 73
     1
 44
1.0
  0
ENDBLK
  5
A7C
330
614
100
AcDbEntity
  8
0
100
AcDbBlockEnd
  0
BLOCK
  5
A7D
330
61F
100
AcDbEntity
  8
0
100
AcDbBlockBegin
  2
*D177
 70
     1
 10
0.0
 20
0.0
 30
0.0
  3
*D177
  1

  0
POINT
  5
616
330
61F
100
AcDbEntity
  8
DEFPOINTS
  6
ByBlock
 62
     7
380
     1
100
AcDbPoint
 10
123.6345988153437
 20
444.00766151
 30
0.0
  0
POINT
  5
617
330
61F
100
AcDbEntity
  8
DEFPOINTS
  6
ByBlock
 62
     7
380
     1
100
AcDbPoint
 10
123.6345988153437
 20
414.08266151
 30
0.0
  0
LINE
  5
618
330
61F
100
AcDbEntity
  8
0
  6
ByBlock
 62
     7
370
    -2
380
     1
100
AcDbLine
 10
123.0095988153437
 20
444.00766151
 30
0.0
 11
78.92431338161903
 21
444.00766151
 31
0.0
  0
LINE
  5
619
330
61F
100
AcDbEntity
  8
0
  6
ByBlock
 62
     7
370
    -2
380
     1
100
AcDbLine
 10
123.0095988153437
 20
414.08266151
 30
0.0
 11
78.92431338161903
 21
414.08266151
 31
0.0
  0
LINE
  5
61A
330
61F
100
AcDbEntity
  8
0
  6
ByBlock
 62
     7
370
    -2
380
     1
100
AcDbLine
 10
80.17431338161903
 20
444.00766151
 30
0.0
 11
80.17431338161903
 21
414.08266151
 31
0.0
  0
SOLID
  5
61B
330
61F
100
AcDbEntity
  8
0
  6
ByBlock
 62
     7
380
     1
100
AcDbTrace
 10
80.17431338161903
 20
444.00766151
 30
0.0
 11
78.50764671495236
 21
434.00766151
 31
0.0
 12
81.8409800482857
 22
434.00766151
 32
0.0
 13
81.8409800482857
 23
434.00766151
 33
0.0
  0
SOLID
  5
61C
330
61F
100
AcDbEntity
  8
0
  6
ByBlock
 62
     7
380
     1
100
AcDbTrace
 10
80.17431338161903
 20
414.08266151
 30
0.0
 11
78.50764671495236
 21
424.08266151
 31
0.0
 12
81.8409800482857
 22
424.08266151
 32
0.0
 13
81.8409800482857
 23
424.08266151
 33
0.0
  0
MTEXT
  5
61D
330
61F
100
AcDbEntity
  8
0
  6
ByBlock
 62
     0
370
    -2
380
     1
100
AcDbMText
 10
68.17431338161903
 20
427.1199391785737
 30
0.0
 40
14.0
 41
0.0
 71
     5
 72
     1
  1
30
 11
6.123031769111886E-17
 21
1.0
 31
0.0
 73
     1
 44
1.0
  0
ENDBLK
  5
A7E
330
61F
100
AcDbEntity
  8
0
100
AcDbBlockEnd
  0
BLOCK
  5
A7F
330
62A
100
AcDbEntity
  8
0
100
AcDbBlockBegin
  2
*D178
 70
     1
 10
0.0
 20
0.0
 30
0.0
  3
*D178
  1

  0
POINT
  5
621
330
62A
100
AcDbEntity
  8
DEFPOINTS
  6
ByBlock
 62
     0
380
     1
100
AcDbPoint
 10
198.1430865514615
 20
533.78266151
 30
0.0
  0
POINT
  5
622
330
62A
100
AcDbEntity
  8
DEFPOINTS
  6
ByBlock
 62
     0
380
     1
100
AcDbPoint
 10
191.0295727077335
 20
414.08266151
 30
0.0
  0
LINE
  5
623
330
62A
100
AcDbEntity
  8
0
  6
ByBlock
 62
     0
370
    -2
380
     1
100
AcDbLine
 10
197.5180865514615
 20
533.78266151
 30
0.0
 11
46.77268462981903
 21
533.78266151
 31
0.0
  0
LINE
  5
624
330
62A
100
AcDbEntity
  8
0
  6
ByBlock
 62
     0
370
    -2
380
     1
100
AcDbLine
 10
190.4045727077335
 20
414.08266151
 30
0.0
 11
46.77268462981903
 21
414.08266151
 31
0.0
  0
LINE
  5
625
330
62A
100
AcDbEntity
  8
0
  6
ByBlock
 62
     0
370
    -2
380
     1
100
AcDbLine
 10
48.02268462981903
 20
531.28266151
 30
0.0
 11
48.02268462981903
 21
416.58266151
 31
0.0
  0
SOLID
  5
626
330
62A
100
AcDbEntity
  8
0
  6
ByBlock
 62
     0
380
     1
100
AcDbTrace
 10
48.02268462981903
 20
533.78266151
 30
0.0
 11
47.60601796315237
 21
531.28266151
 31
0.0
 12
48.43935129648568
 22
531.28266151
 32
0.0
 13
48.43935129648568
 23
531.28266151
 33
0.0
  0
SOLID
  5
627
330
62A
100
AcDbEntity
  8
0
  6
ByBlock
 62
     0
380
     1
100
AcDbTrace
 10
48.02268462981903
 20
414.08266151
 30
0.0
 11
47.60601796315237
 21
416.58266151
 31
0.0
 12
48.43935129648568
 22
416.58266151
 32
0.0
 13
48.43935129648568
 23
416.58266151
 33
0.0
  0
MTEXT
  5
628
330
62A
100
AcDbEntity
  8
0
  6
ByBlock
 62
     0
370
    -2
380
     1
100
AcDbMText
 10
45.93935129648568
 20
473.93266151
 30
0.0
 40
2.5
 41
0.0
 71
     5
 72
     1
  1
\A1;119,7
 11
6.123031769111886E-17
 21
1.0
 31
0.0
 73
     1
 44
1.0
  0
ENDBLK
  5
A80
330
62A
100
AcDbEntity
  8
0
100
AcDbBlockEnd
  0
BLOCK
  5
A81
330
635
100
AcDbEntity
  8
0
100
AcDbBlockBegin
  2
*D179
 70
     1
 10
0.0
 20
0.0
 30
0.0
  3
*D179
  1

  0
POINT
  5
62C
330
635
100
AcDbEntity
  8
DEFPOINTS
  6
ByBlock
 62
     7
380
     1
100
AcDbPoint
 10
123.6345988153437
 20
444.00766151
 30
0.0
  0
POINT
  5
62D
330
635
100
AcDbEntity
  8
DEFPOINTS
  6
ByBlock
 62
     7
380
     1
100
AcDbPoint
 10
123.6345988153437
 20
414.08266151
 30
0.0
  0
LINE
  5
62E
330
635
100
AcDbEntity
  8
0
  6
ByBlock
 62
     7
370
    -2
380
     1
100
AcDbLine
 10
123.0095988153437
 20
444.00766151
 30
0.0
 11
78.92431338161903
 21
444.00766151
 31
0.0
  0
LINE
  5
62F
330
635
100
AcDbEntity
  8
0
  6
ByBlock
 62
     7
370
    -2
380
     1
100
AcDbLine
 10
123.0095988153437
 20
414.08266151
 30
0.0
 11
78.92431338161903
 21
414.08266151
 31
0.0
  0
LINE
  5
630
330
635
100
AcDbEntity
  8
0
  6
ByBlock
 62
     7
370
    -2
380
     1
100
AcDbLine
 10
80.17431338161903
 20
444.00766151
 30
0.0
 11
80.17431338161903
 21
414.08266151
 31
0.0
  0
SOLID
  5
631
330
635
100
AcDbEntity
  8
0
  6
ByBlock
 62
     7
380
     1
100
AcDbTrace
 10
80.17431338161903
 20
444.00766151
 30
0.0
 11
78.50764671495236
 21
434.00766151
 31
0.0
 12
81.8409800482857
 22
434.00766151
 32
0.0
 13
81.8409800482857
 23
434.00766151
 33
0.0
  0
SOLID
  5
632
330
635
100
AcDbEntity
  8
0
  6
ByBlock
 62
     7
380
     1
100
AcDbTrace
 10
80.17431338161903
 20
414.08266151
 30
0.0
 11
78.50764671495236
 21
424.08266151
 31
0.0
 12
81.8409800482857
 22
424.08266151
 32
0.0
 13
81.8409800482857
 23
424.08266151
 33
0.0
  0
MTEXT
  5
633
330
635
100
AcDbEntity
  8
0
  6
ByBlock
 62
     0
370
    -2
380
     1
100
AcDbMText
 10
68.17431338161903
 20
427.1199391785737
 30
0.0
 40
14.0
 41
0.0
 71
     5
 72
     1
  1
30
 11
6.123031769111886E-17
 21
1.0
 31
0.0
 73
     1
 44
1.0
  0
ENDBLK
  5
A82
330
635
100
AcDbEntity
  8
0
100
AcDbBlockEnd
  0
BLOCK
  5
A83
330
640
100
AcDbEntity
  8
0
100
AcDbBlockBegin
  2
*D180
 70
     1
 10
0.0
 20
0.0
 30
0.0
  3
*D180
  1

  0
POINT
  5
637
330
640
100
AcDbEntity
  8
DEFPOINTS
  6
ByBlock
 62
     0
380
     1
100
AcDbPoint
 10
198.1430865514615
 20
533.78266151
 30
0.0
  0
POINT
  5
638
330
640
100
AcDbEntity
  8
DEFPOINTS
  6
ByBlock
 62
     0
380
     1
100
AcDbPoint
 10
191.0295727077335
 20
414.08266151
 30
0.0
  0
LINE
  5
639
330
640
100
AcDbEntity
  8
0
  6
ByBlock
 62
     0
370
    -2
380
     1
100
AcDbLine
 10
197.5180865514615
 20
533.78266151
 30
0.0
 11
46.77268462981903
 21
533.78266151
 31
0.0
  0
LINE
  5
63A
330
640
100
AcDbEntity
  8
0
  6
ByBlock
 62
     0
370
    -2
380
     1
100
AcDbLine
 10
190.4045727077335
 20
414.08266151
 30
0.0
 11
46.77268462981903
 21
414.08266151
 31
0.0
  0
LINE
  5
63B
330
640
100
AcDbEntity
  8
0
  6
ByBlock
 62
     0
370
    -2
380
     1
100
AcDbLine
 10
48.02268462981903
 20
531.28266151
 30
0.0
 11
48.02268462981903
 21
416.58266151
 31
0.0
  0
SOLID
  5
63C
330
640
100
AcDbEntity
  8
0
  6
ByBlock
 62
     0
380
     1
100
AcDbTrace
 10
48.02268462981903
 20
533.78266151
 30
0.0
 11
47.60601796315237
 21
531.28266151
 31
0.0
 12
48.43935129648568
 22
531.28266151
 32
0.0
 13
48.43935129648568
 23
531.28266151
 33
0.0
  0
SOLID
  5
63D
330
640
100
AcDbEntity
  8
0
  6
ByBlock
 62
     0
380
     1
100
AcDbTrace
 10
48.02268462981903
 20
414.08266151
 30
0.0
 11
47.60601796315237
 21
416.58266151
 31
0.0
 12
48.43935129648568
 22
416.58266151
 32
0.0
 13
48.43935129648568
 23
416.58266151
 33
0.0
  0
MTEXT
  5
63E
330
640
100
AcDbEntity
  8
0
  6
ByBlock
 62
     0
370
    -2
380
     1
100
AcDbMText
 10
45.93935129648568
 20
473.93266151
 30
0.0
 40
2.5
 41
0.0
 71
     5
 72
     1
  1
\A1;119,7
 11
6.123031769111886E-17
 21
1.0
 31
0.0
 73
     1
 44
1.0
  0
ENDBLK
  5
A84
330
640
100
AcDbEntity
  8
0
100
AcDbBlockEnd
  0
BLOCK
  5
A85
330
64B
100
AcDbEntity
  8
0
100
AcDbBlockBegin
  2
*D181
 70
     1
 10
0.0
 20
0.0
 30
0.0
  3
*D181
  1

  0
POINT
  5
642
330
64B
100
AcDbEntity
  8
DEFPOINTS
  6
ByBlock
 62
     7
380
     1
100
AcDbPoint
 10
198.1430865514615
 20
533.78266151
 30
0.0
  0
POINT
  5
643
330
64B
100
AcDbEntity
  8
DEFPOINTS
  6
ByBlock
 62
     7
380
     1
100
AcDbPoint
 10
191.0295727077335
 20
414.08266151
 30
0.0
  0
LINE
  5
644
330
64B
100
AcDbEntity
  8
0
  6
ByBlock
 62
     7
370
    -2
380
     1
100
AcDbLine
 10
197.5180865514615
 20
533.78266151
 30
0.0
 11
46.77268462981903
 21
533.78266151
 31
0.0
  0
LINE
  5
645
330
64B
100
AcDbEntity
  8
0
  6
ByBlock
 62
     7
370
    -2
380
     1
100
AcDbLine
 10
190.4045727077335
 20
414.08266151
 30
0.0
 11
46.77268462981903
 21
414.08266151
 31
0.0
  0
LINE
  5
646
330
64B
100
AcDbEntity
  8
0
  6
ByBlock
 62
     7
370
    -2
380
     1
100
AcDbLine
 10
48.02268462981903
 20
523.78266151
 30
0.0
 11
48.02268462981903
 21
424.08266151
 31
0.0
  0
SOLID
  5
647
330
64B
100
AcDbEntity
  8
0
  6
ByBlock
 62
     7
380
     1
100
AcDbTrace
 10
48.02268462981903
 20
533.78266151
 30
0.0
 11
46.35601796315237
 21
523.78266151
 31
0.0
 12
49.68935129648568
 22
523.78266151
 32
0.0
 13
49.68935129648568
 23
523.78266151
 33
0.0
  0
SOLID
  5
648
330
64B
100
AcDbEntity
  8
0
  6
ByBlock
 62
     7
380
     1
100
AcDbTrace
 10
48.02268462981903
 20
414.08266151
 30
0.0
 11
46.35601796315237
 21
424.08266151
 31
0.0
 12
49.68935129648568
 22
424.08266151
 32
0.0
 13
49.68935129648568
 23
424.08266151
 33
0.0
  0
MTEXT
  5
649
330
64B
100
AcDbEntity
  8
0
  6
ByBlock
 62
     0
370
    -2
380
     1
100
AcDbMText
 10
34.85601796315237
 20
473.93266151
 30
0.0
 40
14.0
 41
0.0
 71
     5
 72
     1
  1
\A1;119,7
 11
6.123031769111886E-17
 21
1.0
 31
0.0
 73
     1
 44
1.0
  0
ENDBLK
  5
A86
330
64B
100
AcDbEntity
  8
0
100
AcDbBlockEnd
  0
BLOCK
  5
A87
330
656
100
AcDbEntity
  8
0
100
AcDbBlockBegin
  2
*D182
 70
     1
 10
0.0
 20
0.0
 30
0.0
  3
*D182
  1

  0
POINT
  5
64D
330
656
100
AcDbEntity
  8
DEFPOINTS
  6
ByBlock
 62
     7
380
     1
100
AcDbPoint
 10
198.1430865514615
 20
533.78266151
 30
0.0
  0
POINT
  5
64E
330
656
100
AcDbEntity
  8
DEFPOINTS
  6
ByBlock
 62
     7
380
     1
100
AcDbPoint
 10
191.0295727077335
 20
414.08266151
 30
0.0
  0
LINE
  5
64F
330
656
100
AcDbEntity
  8
0
  6
ByBlock
 62
     7
370
    -2
380
     1
100
AcDbLine
 10
197.5180865514615
 20
533.78266151
 30
0.0
 11
46.77268462981903
 21
533.78266151
 31
0.0
  0
LINE
  5
650
330
656
100
AcDbEntity
  8
0
  6
ByBlock
 62
     7
370
    -2
380
     1
100
AcDbLine
 10
190.4045727077335
 20
414.08266151
 30
0.0
 11
46.77268462981903
 21
414.08266151
 31
0.0
  0
LINE
  5
651
330
656
100
AcDbEntity
  8
0
  6
ByBlock
 62
     7
370
    -2
380
     1
100
AcDbLine
 10
48.02268462981903
 20
523.78266151
 30
0.0
 11
48.02268462981903
 21
424.08266151
 31
0.0
  0
SOLID
  5
652
330
656
100
AcDbEntity
  8
0
  6
ByBlock
 62
     7
380
     1
100
AcDbTrace
 10
48.02268462981903
 20
533.78266151
 30
0.0
 11
46.35601796315237
 21
523.78266151
 31
0.0
 12
49.68935129648568
 22
523.78266151
 32
0.0
 13
49.68935129648568
 23
523.78266151
 33
0.0
  0
SOLID
  5
653
330
656
100
AcDbEntity
  8
0
  6
ByBlock
 62
     7
380
     1
100
AcDbTrace
 10
48.02268462981903
 20
414.08266151
 30
0.0
 11
46.35601796315237
 21
424.08266151
 31
0.0
 12
49.68935129648568
 22
424.08266151
 32
0.0
 13
49.68935129648568
 23
424.08266151
 33
0.0
  0
MTEXT
  5
654
330
656
100
AcDbEntity
  8
0
  6
ByBlock
 62
     0
370
    -2
380
     1
100
AcDbMText
 10
36.02268462981903
 20
473.93266151
 30
0.0
 40
14.0
 41
0.0
 71
     5
 72
     1
  1
120
 11
6.123031769111886E-17
 21
1.0
 31
0.0
 73
     1
 44
1.0
  0
ENDBLK
  5
A88
330
656
100
AcDbEntity
  8
0
100
AcDbBlockEnd
  0
BLOCK
  5
A89
330
662
100
AcDbEntity
  8
0
100
AcDbBlockBegin
  2
*D183
 70
     1
 10
0.0
 20
0.0
 30
0.0
  3
*D183
  1

  0
POINT
  5
659
330
662
100
AcDbEntity
  8
DEFPOINTS
  6
ByBlock
 62
     0
380
     1
100
AcDbPoint
 10
95.137554015
 20
429.0451615100001
 30
0.0
  0
POINT
  5
65A
330
662
100
AcDbEntity
  8
DEFPOINTS
  6
ByBlock
 62
     0
380
     1
100
AcDbPoint
 10
433.9263153750001
 20
429.0451615100001
 30
0.0
  0
LINE
  5
65B
330
662
100
AcDbEntity
  8
0
  6
ByBlock
 62
     0
370
    -2
380
     1
100
AcDbLine
 10
95.137554015
 20
429.6701615100001
 30
0.0
 11
95.137554015
 21
554.5684516776348
 31
0.0
  0
LINE
  5
65C
330
662
100
AcDbEntity
  8
0
  6
ByBlock
 62
     0
370
    -2
380
     1
100
AcDbLine
 10
433.9263153750001
 20
429.6701615100001
 30
0.0
 11
433.9263153750001
 21
554.5684516776348
 31
0.0
  0
LINE
  5
65D
330
662
100
AcDbEntity
  8
0
  6
ByBlock
 62
     0
370
    -2
380
     1
100
AcDbLine
 10
97.637554015
 20
553.3184516776348
 30
0.0
 11
431.4263153750001
 21
553.3184516776348
 31
0.0
  0
SOLID
  5
65E
330
662
100
AcDbEntity
  8
0
  6
ByBlock
 62
     0
380
     1
100
AcDbTrace
 10
95.137554015
 20
553.3184516776348
 30
0.0
 11
97.637554015
 21
552.9017850109682
 31
0.0
 12
97.637554015
 22
553.7351183443014
 32
0.0
 13
97.637554015
 23
553.7351183443014
 33
0.0
  0
SOLID
  5
65F
330
662
100
AcDbEntity
  8
0
  6
ByBlock
 62
     0
380
     1
100
AcDbTrace
 10
433.9263153750001
 20
553.3184516776348
 30
0.0
 11
431.4263153750001
 21
552.9017850109682
 31
0.0
 12
431.4263153750001
 22
553.7351183443014
 32
0.0
 13
431.4263153750001
 23
553.7351183443014
 33
0.0
  0
MTEXT
  5
660
330
662
100
AcDbEntity
  8
0
  6
ByBlock
 62
     0
370
    -2
380
     1
100
AcDbMText
 10
264.531934695
 20
555.4017850109681
 30
0.0
 40
2.5
 41
0.0
 71
     5
 72
     1
  1
\A1;338,79
 73
     1
 44
1.0
  0
ENDBLK
  5
A8A
330
662
100
AcDbEntity
  8
0
100
AcDbBlockEnd
  0
BLOCK
  5
A8B
330
66D
100
AcDbEntity
  8
0
100
AcDbBlockBegin
  2
*D184
 70
     1
 10
0.0
 20
0.0
 30
0.0
  3
*D184
  1

  0
POINT
  5
664
330
66D
100
AcDbEntity
  8
DEFPOINTS
  6
ByBlock
 62
     0
380
     1
100
AcDbPoint
 10
95.137554015
 20
429.0451615100001
 30
0.0
  0
POINT
  5
665
330
66D
100
AcDbEntity
  8
DEFPOINTS
  6
ByBlock
 62
     0
380
     1
100
AcDbPoint
 10
433.9263153750001
 20
429.0451615100001
 30
0.0
  0
LINE
  5
666
330
66D
100
AcDbEntity
  8
0
  6
ByBlock
 62
     0
370
    -2
380
     1
100
AcDbLine
 10
95.137554015
 20
429.6701615100001
 30
0.0
 11
95.137554015
 21
554.5684516776348
 31
0.0
  0
LINE
  5
667
330
66D
100
AcDbEntity
  8
0
  6
ByBlock
 62
     0
370
    -2
380
     1
100
AcDbLine
 10
433.9263153750001
 20
429.6701615100001
 30
0.0
 11
433.9263153750001
 21
554.5684516776348
 31
0.0
  0
LINE
  5
668
330
66D
100
AcDbEntity
  8
0
  6
ByBlock
 62
     0
370
    -2
380
     1
100
AcDbLine
 10
97.637554015
 20
553.3184516776348
 30
0.0
 11
431.4263153750001
 21
553.3184516776348
 31
0.0
  0
SOLID
  5
669
330
66D
100
AcDbEntity
  8
0
  6
ByBlock
 62
     0
380
     1
100
AcDbTrace
 10
95.137554015
 20
553.3184516776348
 30
0.0
 11
97.637554015
 21
552.9017850109682
 31
0.0
 12
97.637554015
 22
553.7351183443014
 32
0.0
 13
97.637554015
 23
553.7351183443014
 33
0.0
  0
SOLID
  5
66A
330
66D
100
AcDbEntity
  8
0
  6
ByBlock
 62
     0
380
     1
100
AcDbTrace
 10
433.9263153750001
 20
553.3184516776348
 30
0.0
 11
431.4263153750001
 21
552.9017850109682
 31
0.0
 12
431.4263153750001
 22
553.7351183443014
 32
0.0
 13
431.4263153750001
 23
553.7351183443014
 33
0.0
  0
MTEXT
  5
66B
330
66D
100
AcDbEntity
  8
0
  6
ByBlock
 62
     0
370
    -2
380
     1
100
AcDbMText
 10
264.531934695
 20
555.4017850109681
 30
0.0
 40
2.5
 41
0.0
 71
     5
 72
     1
  1
\A1;338,79
 73
     1
 44
1.0
  0
ENDBLK
  5
A8C
330
66D
100
AcDbEntity
  8
0
100
AcDbBlockEnd
  0
BLOCK
  5
A8D
330
678
100
AcDbEntity
  8
0
100
AcDbBlockBegin
  2
*D185
 70
     1
 10
0.0
 20
0.0
 30
0.0
  3
*D185
  1

  0
POINT
  5
66F
330
678
100
AcDbEntity
  8
DEFPOINTS
  6
ByBlock
 62
     7
380
     1
100
AcDbPoint
 10
95.137554015
 20
429.0451615100001
 30
0.0
  0
POINT
  5
670
330
678
100
AcDbEntity
  8
DEFPOINTS
  6
ByBlock
 62
     7
380
     1
100
AcDbPoint
 10
433.9263153750001
 20
429.0451615100001
 30
0.0
  0
LINE
  5
671
330
678
100
AcDbEntity
  8
0
  6
ByBlock
 62
     7
370
    -2
380
     1
100
AcDbLine
 10
95.137554015
 20
429.6701615100001
 30
0.0
 11
95.137554015
 21
554.5684516776348
 31
0.0
  0
LINE
  5
672
330
678
100
AcDbEntity
  8
0
  6
ByBlock
 62
     7
370
    -2
380
     1
100
AcDbLine
 10
433.9263153750001
 20
429.6701615100001
 30
0.0
 11
433.9263153750001
 21
554.5684516776348
 31
0.0
  0
LINE
  5
673
330
678
100
AcDbEntity
  8
0
  6
ByBlock
 62
     7
370
    -2
380
     1
100
AcDbLine
 10
105.137554015
 20
553.3184516776348
 30
0.0
 11
423.9263153750001
 21
553.3184516776348
 31
0.0
  0
SOLID
  5
674
330
678
100
AcDbEntity
  8
0
  6
ByBlock
 62
     7
380
     1
100
AcDbTrace
 10
95.137554015
 20
553.3184516776348
 30
0.0
 11
105.137554015
 21
551.6517850109682
 31
0.0
 12
105.137554015
 22
554.9851183443014
 32
0.0
 13
105.137554015
 23
554.9851183443014
 33
0.0
  0
SOLID
  5
675
330
678
100
AcDbEntity
  8
0
  6
ByBlock
 62
     7
380
     1
100
AcDbTrace
 10
433.9263153750001
 20
553.3184516776348
 30
0.0
 11
423.9263153750001
 21
551.6517850109682
 31
0.0
 12
423.9263153750001
 22
554.9851183443014
 32
0.0
 13
423.9263153750001
 23
554.9851183443014
 33
0.0
  0
MTEXT
  5
676
330
678
100
AcDbEntity
  8
0
  6
ByBlock
 62
     0
370
    -2
380
     1
100
AcDbMText
 10
264.531934695
 20
566.4851183443016
 30
0.0
 40
14.0
 41
0.0
 71
     5
 72
     1
  1
\A1;338,79
 73
     1
 44
1.0
  0
ENDBLK
  5
A8E
330
678
100
AcDbEntity
  8
0
100
AcDbBlockEnd
  0
BLOCK
  5
A8F
330
683
100
AcDbEntity
  8
0
100
AcDbBlockBegin
  2
*D186
 70
     1
 10
0.0
 20
0.0
 30
0.0
  3
*D186
  1

  0
POINT
  5
67A
330
683
100
AcDbEntity
  8
DEFPOINTS
  6
ByBlock
 62
     7
380
     1
100
AcDbPoint
 10
95.137554015
 20
429.0451615100001
 30
0.0
  0
POINT
  5
67B
330
683
100
AcDbEntity
  8
DEFPOINTS
  6
ByBlock
 62
     7
380
     1
100
AcDbPoint
 10
433.9263153750001
 20
429.0451615100001
 30
0.0
  0
LINE
  5
67C
330
683
100
AcDbEntity
  8
0
  6
ByBlock
 62
     7
370
    -2
380
     1
100
AcDbLine
 10
95.137554015
 20
429.6701615100001
 30
0.0
 11
95.137554015
 21
554.5684516776348
 31
0.0
  0
LINE
  5
67D
330
683
100
AcDbEntity
  8
0
  6
ByBlock
 62
     7
370
    -2
380
     1
100
AcDbLine
 10
433.9263153750001
 20
429.6701615100001
 30
0.0
 11
433.9263153750001
 21
554.5684516776348
 31
0.0
  0
LINE
  5
67E
330
683
100
AcDbEntity
  8
0
  6
ByBlock
 62
     7
370
    -2
380
     1
100
AcDbLine
 10
105.137554015
 20
553.3184516776348
 30
0.0
 11
423.9263153750001
 21
553.3184516776348
 31
0.0
  0
SOLID
  5
67F
330
683
100
AcDbEntity
  8
0
  6
ByBlock
 62
     7
380
     1
100
AcDbTrace
 10
95.137554015
 20
553.3184516776348
 30
0.0
 11
105.137554015
 21
551.6517850109682
 31
0.0
 12
105.137554015
 22
554.9851183443014
 32
0.0
 13
105.137554015
 23
554.9851183443014
 33
0.0
  0
SOLID
  5
680
330
683
100
AcDbEntity
  8
0
  6
ByBlock
 62
     7
380
     1
100
AcDbTrace
 10
433.9263153750001
 20
553.3184516776348
 30
0.0
 11
423.9263153750001
 21
551.6517850109682
 31
0.0
 12
423.9263153750001
 22
554.9851183443014
 32
0.0
 13
423.9263153750001
 23
554.9851183443014
 33
0.0
  0
MTEXT
  5
681
330
683
100
AcDbEntity
  8
0
  6
ByBlock
 62
     0
370
    -2
380
     1
100
AcDbMText
 10
264.531934695
 20
565.3184516776348
 30
0.0
 40
14.0
 41
0.0
 71
     5
 72
     1
  1
Ø340
 73
     1
 44
1.0
  0
ENDBLK
  5
A90
330
683
100
AcDbEntity
  8
0
100
AcDbBlockEnd
  0
BLOCK
  5
A91
330
68E
100
AcDbEntity
  8
0
100
AcDbBlockBegin
  2
*D187
 70
     1
 10
0.0
 20
0.0
 30
0.0
  3
*D187
  1

  0
POINT
  5
685
330
68E
100
AcDbEntity
  8
DEFPOINTS
  6
ByBlock
 62
     7
380
     1
100
AcDbPoint
 10
193.5528896431446
 20
533.78266151
 30
0.0
  0
POINT
  5
686
330
68E
100
AcDbEntity
  8
DEFPOINTS
  6
ByBlock
 62
     7
380
     1
100
AcDbPoint
 10
186.4393757994167
 20
414.08266151
 30
0.0
  0
LINE
  5
687
330
68E
100
AcDbEntity
  8
0
  6
ByBlock
 62
     7
370
    -2
380
     1
100
AcDbLine
 10
192.9278896431446
 20
533.78266151
 30
0.0
 11
42.18248772150218
 21
533.78266151
 31
0.0
  0
LINE
  5
688
330
68E
100
AcDbEntity
  8
0
  6
ByBlock
 62
     7
370
    -2
380
     1
100
AcDbLine
 10
185.8143757994167
 20
414.08266151
 30
0.0
 11
42.18248772150218
 21
414.08266151
 31
0.0
  0
LINE
  5
689
330
68E
100
AcDbEntity
  8
0
  6
ByBlock
 62
     7
370
    -2
380
     1
100
AcDbLine
 10
43.43248772150218
 20
523.78266151
 30
0.0
 11
43.43248772150218
 21
424.08266151
 31
0.0
  0
SOLID
  5
68A
330
68E
100
AcDbEntity
  8
0
  6
ByBlock
 62
     7
380
     1
100
AcDbTrace
 10
43.43248772150218
 20
533.78266151
 30
0.0
 11
41.76582105483553
 21
523.78266151
 31
0.0
 12
45.09915438816884
 22
523.78266151
 32
0.0
 13
45.09915438816884
 23
523.78266151
 33
0.0
  0
SOLID
  5
68B
330
68E
100
AcDbEntity
  8
0
  6
ByBlock
 62
     7
380
     1
100
AcDbTrace
 10
43.43248772150218
 20
414.08266151
 30
0.0
 11
41.76582105483553
 21
424.08266151
 31
0.0
 12
45.09915438816884
 22
424.08266151
 32
0.0
 13
45.09915438816884
 23
424.08266151
 33
0.0
  0
MTEXT
  5
68C
330
68E
100
AcDbEntity
  8
0
  6
ByBlock
 62
     0
370
    -2
380
     1
100
AcDbMText
 10
31.43248772150218
 20
473.93266151
 30
0.0
 40
14.0
 41
0.0
 71
     5
 72
     1
  1
120
 11
6.123031769111886E-17
 21
1.0
 31
0.0
 73
     1
 44
1.0
  0
ENDBLK
  5
A92
330
68E
100
AcDbEntity
  8
0
100
AcDbBlockEnd
  0
BLOCK
  5
A93
330
699
100
AcDbEntity
  8
0
100
AcDbBlockBegin
  2
*D188
 70
     1
 10
0.0
 20
0.0
 30
0.0
  3
*D188
  1

  0
POINT
  5
690
330
699
100
AcDbEntity
  8
DEFPOINTS
  6
ByBlock
 62
     7
380
     1
100
AcDbPoint
 10
193.5528896431446
 20
533.78266151
 30
0.0
  0
POINT
  5
691
330
699
100
AcDbEntity
  8
DEFPOINTS
  6
ByBlock
 62
     7
380
     1
100
AcDbPoint
 10
186.4393757994167
 20
414.08266151
 30
0.0
  0
LINE
  5
692
330
699
100
AcDbEntity
  8
0
  6
ByBlock
 62
     7
370
    -2
380
     1
100
AcDbLine
 10
192.9278896431446
 20
533.78266151
 30
0.0
 11
0.0621043441189215
 21
533.78266151
 31
0.0
  0
LINE
  5
693
330
699
100
AcDbEntity
  8
0
  6
ByBlock
 62
     7
370
    -2
380
     1
100
AcDbLine
 10
185.8143757994167
 20
414.08266151
 30
0.0
 11
0.0621043441189215
 21
414.08266151
 31
0.0
  0
LINE
  5
694
330
699
100
AcDbEntity
  8
0
  6
ByBlock
 62
     7
370
    -2
380
     1
100
AcDbLine
 10
1.312104344118922
 20
523.78266151
 30
0.0
 11
1.312104344118922
 21
424.08266151
 31
0.0
  0
SOLID
  5
695
330
699
100
AcDbEntity
  8
0
  6
ByBlock
 62
     7
380
     1
100
AcDbTrace
 10
1.312104344118922
 20
533.78266151
 30
0.0
 11
-0.3545623225477357
 21
523.78266151
 31
0.0
 12
2.978771010785579
 22
523.78266151
 32
0.0
 13
2.978771010785579
 23
523.78266151
 33
0.0
  0
SOLID
  5
696
330
699
100
AcDbEntity
  8
0
  6
ByBlock
 62
     7
380
     1
100
AcDbTrace
 10
1.312104344118922
 20
414.08266151
 30
0.0
 11
-0.3545623225477357
 21
424.08266151
 31
0.0
 12
2.978771010785579
 22
424.08266151
 32
0.0
 13
2.978771010785579
 23
424.08266151
 33
0.0
  0
MTEXT
  5
697
330
699
100
AcDbEntity
  8
0
  6
ByBlock
 62
     0
370
    -2
380
     1
100
AcDbMText
 10
-10.68789565588108
 20
473.93266151
 30
0.0
 40
14.0
 41
0.0
 71
     5
 72
     1
  1
120
 11
6.123031769111886E-17
 21
1.0
 31
0.0
 73
     1
 44
1.0
  0
ENDBLK
  5
A94
330
699
100
AcDbEntity
  8
0
100
AcDbBlockEnd
  0
BLOCK
  5
A95
330
6A4
100
AcDbEntity
  8
0
100
AcDbBlockBegin
  2
*D189
 70
     1
 10
0.0
 20
0.0
 30
0.0
  3
*D189
  1

  0
POINT
  5
69B
330
6A4
100
AcDbEntity
  8
DEFPOINTS
  6
ByBlock
 62
     7
380
     1
100
AcDbPoint
 10
123.6345988153437
 20
444.00766151
 30
0.0
  0
POINT
  5
69C
330
6A4
100
AcDbEntity
  8
DEFPOINTS
  6
ByBlock
 62
     7
380
     1
100
AcDbPoint
 10
123.6345988153437
 20
414.08266151
 30
0.0
  0
LINE
  5
69D
330
6A4
100
AcDbEntity
  8
0
  6
ByBlock
 62
     7
370
    -2
380
     1
100
AcDbLine
 10
123.0095988153437
 20
444.00766151
 30
0.0
 11
50.55427033560429
 21
444.00766151
 31
0.0
  0
LINE
  5
69E
330
6A4
100
AcDbEntity
  8
0
  6
ByBlock
 62
     7
370
    -2
380
     1
100
AcDbLine
 10
123.0095988153437
 20
414.08266151
 30
0.0
 11
50.55427033560429
 21
414.08266151
 31
0.0
  0
LINE
  5
69F
330
6A4
100
AcDbEntity
  8
0
  6
ByBlock
 62
     7
370
    -2
380
     1
100
AcDbLine
 10
51.80427033560429
 20
444.00766151
 30
0.0
 11
51.80427033560429
 21
414.08266151
 31
0.0
  0
SOLID
  5
6A0
330
6A4
100
AcDbEntity
  8
0
  6
ByBlock
 62
     7
380
     1
100
AcDbTrace
 10
51.80427033560429
 20
444.00766151
 30
0.0
 11
50.13760366893761
 21
434.00766151
 31
0.0
 12
53.47093700227096
 22
434.00766151
 32
0.0
 13
53.47093700227096
 23
434.00766151
 33
0.0
  0
SOLID
  5
6A1
330
6A4
100
AcDbEntity
  8
0
  6
ByBlock
 62
     7
380
     1
100
AcDbTrace
 10
51.80427033560429
 20
414.08266151
 30
0.0
 11
50.13760366893761
 21
424.08266151
 31
0.0
 12
53.47093700227096
 22
424.08266151
 32
0.0
 13
53.47093700227096
 23
424.08266151
 33
0.0
  0
MTEXT
  5
6A2
330
6A4
100
AcDbEntity
  8
0
  6
ByBlock
 62
     0
370
    -2
380
     1
100
AcDbMText
 10
39.80427033560429
 20
427.1199391785737
 30
0.0
 40
14.0
 41
0.0
 71
     5
 72
     1
  1
30
 11
6.123031769111886E-17
 21
1.0
 31
0.0
 73
     1
 44
1.0
  0
ENDBLK
  5
A96
330
6A4
100
AcDbEntity
  8
0
100
AcDbBlockEnd
  0
BLOCK
  5
A97
330
6B0
100
AcDbEntity
  8
0
100
AcDbBlockBegin
  2
*D190
 70
     1
 10
0.0
 20
0.0
 30
0.0
  3
*D190
  1

  0
POINT
  5
6A7
330
6B0
100
AcDbEntity
  8
DEFPOINTS
  6
ByBlock
 62
     0
380
     1
100
AcDbPoint
 10
279.47188787
 20
264.3375
 30
0.0
  0
POINT
  5
6A8
330
6B0
100
AcDbEntity
  8
DEFPOINTS
  6
ByBlock
 62
     0
380
     1
100
AcDbPoint
 10
279.47188787
 20
142.6425
 30
0.0
  0
LINE
  5
6A9
330
6B0
100
AcDbEntity
  8
0
  6
ByBlock
 62
     0
370
    -2
380
     1
100
AcDbLine
 10
280.09688787
 20
264.3375
 30
0.0
 11
366.9102257697967
 21
264.3375
 31
0.0
  0
LINE
  5
6AA
330
6B0
100
AcDbEntity
  8
0
  6
ByBlock
 62
     0
370
    -2
380
     1
100
AcDbLine
 10
280.09688787
 20
142.6425
 30
0.0
 11
366.9102257697967
 21
142.6425
 31
0.0
  0
LINE
  5
6AB
330
6B0
100
AcDbEntity
  8
0
  6
ByBlock
 62
     0
370
    -2
380
     1
100
AcDbLine
 10
365.6602257697967
 20
261.8375
 30
0.0
 11
365.6602257697967
 21
145.1425
 31
0.0
  0
SOLID
  5
6AC
330
6B0
100
AcDbEntity
  8
0
  6
ByBlock
 62
     0
380
     1
100
AcDbTrace
 10
365.6602257697967
 20
264.3375
 30
0.0
 11
365.2435591031301
 21
261.8375
 31
0.0
 12
366.0768924364634
 22
261.8375
 32
0.0
 13
366.0768924364634
 23
261.8375
 33
0.0
  0
SOLID
  5
6AD
330
6B0
100
AcDbEntity
  8
0
  6
ByBlock
 62
     0
380
     1
100
AcDbTrace
 10
365.6602257697967
 20
142.6425
 30
0.0
 11
365.2435591031301
 21
145.1425
 31
0.0
 12
366.0768924364634
 22
145.1425
 32
0.0
 13
366.0768924364634
 23
145.1425
 33
0.0
  0
MTEXT
  5
6AE
330
6B0
100
AcDbEntity
  8
0
  6
ByBlock
 62
     0
370
    -2
380
     1
100
AcDbMText
 10
363.5768924364634
 20
203.49
 30
0.0
 40
2.5
 41
0.0
 71
     5
 72
     1
  1
\A1;121,7
 11
6.123031769111886E-17
 21
1.0
 31
0.0
 73
     1
 44
1.0
  0
ENDBLK
  5
A98
330
6B0
100
AcDbEntity
  8
0
100
AcDbBlockEnd
  0
BLOCK
  5
A99
330
6BC
100
AcDbEntity
  8
0
100
AcDbBlockBegin
  2
*D191
 70
     1
 10
0.0
 20
0.0
 30
0.0
  3
*D191
  1

  0
POINT
  5
6B3
330
6BC
100
AcDbEntity
  8
DEFPOINTS
  6
ByBlock
 62
     0
380
     1
100
AcDbPoint
 10
253.95338535
 20
264.3375
 30
0.0
  0
POINT
  5
6B4
330
6BC
100
AcDbEntity
  8
DEFPOINTS
  6
ByBlock
 62
     0
380
     1
100
AcDbPoint
 10
249.581883495
 20
142.6425
 30
0.0
  0
LINE
  5
6B5
330
6BC
100
AcDbEntity
  8
0
  6
ByBlock
 62
     0
370
    -2
380
     1
100
AcDbLine
 10
253.32838535
 20
264.3375
 30
0.0
 11
172.7760375627664
 21
264.3375
 31
0.0
  0
LINE
  5
6B6
330
6BC
100
AcDbEntity
  8
0
  6
ByBlock
 62
     0
370
    -2
380
     1
100
AcDbLine
 10
248.956883495
 20
142.6425
 30
0.0
 11
172.7760375627664
 21
142.6425
 31
0.0
  0
LINE
  5
6B7
330
6BC
100
AcDbEntity
  8
0
  6
ByBlock
 62
     0
370
    -2
380
     1
100
AcDbLine
 10
174.0260375627664
 20
261.8375
 30
0.0
 11
174.0260375627664
 21
145.1425
 31
0.0
  0
SOLID
  5
6B8
330
6BC
100
AcDbEntity
  8
0
  6
ByBlock
 62
     0
380
     1
100
AcDbTrace
 10
174.0260375627664
 20
264.3375
 30
0.0
 11
173.6093708960997
 21
261.8375
 31
0.0
 12
174.4427042294331
 22
261.8375
 32
0.0
 13
174.4427042294331
 23
261.8375
 33
0.0
  0
SOLID
  5
6B9
330
6BC
100
AcDbEntity
  8
0
  6
ByBlock
 62
     0
380
     1
100
AcDbTrace
 10
174.0260375627664
 20
142.6425
 30
0.0
 11
173.6093708960997
 21
145.1425
 31
0.0
 12
174.4427042294331
 22
145.1425
 32
0.0
 13
174.4427042294331
 23
145.1425
 33
0.0
  0
MTEXT
  5
6BA
330
6BC
100
AcDbEntity
  8
0
  6
ByBlock
 62
     0
370
    -2
380
     1
100
AcDbMText
 10
171.9427042294331
 20
203.49
 30
0.0
 40
2.5
 41
0.0
 71
     5
 72
     1
  1
\A1;121,7
 11
6.123031769111886E-17
 21
1.0
 31
0.0
 73
     1
 44
1.0
  0
ENDBLK
  5
A9A
330
6BC
100
AcDbEntity
  8
0
100
AcDbBlockEnd
  0
BLOCK
  5
A9B
330
6C7
100
AcDbEntity
  8
0
100
AcDbBlockBegin
  2
*D192
 70
     1
 10
0.0
 20
0.0
 30
0.0
  3
*D192
  1

  0
POINT
  5
6BE
330
6C7
100
AcDbEntity
  8
DEFPOINTS
  6
ByBlock
 62
     0
380
     1
100
AcDbPoint
 10
253.95338535
 20
264.3375
 30
0.0
  0
POINT
  5
6BF
330
6C7
100
AcDbEntity
  8
DEFPOINTS
  6
ByBlock
 62
     0
380
     1
100
AcDbPoint
 10
249.581883495
 20
142.6425
 30
0.0
  0
LINE
  5
6C0
330
6C7
100
AcDbEntity
  8
0
  6
ByBlock
 62
     0
370
    -2
380
     1
100
AcDbLine
 10
253.32838535
 20
264.3375
 30
0.0
 11
159.635952726946
 21
264.3375
 31
0.0
  0
LINE
  5
6C1
330
6C7
100
AcDbEntity
  8
0
  6
ByBlock
 62
     0
370
    -2
380
     1
100
AcDbLine
 10
248.956883495
 20
142.6425
 30
0.0
 11
159.635952726946
 21
142.6425
 31
0.0
  0
LINE
  5
6C2
330
6C7
100
AcDbEntity
  8
0
  6
ByBlock
 62
     0
370
    -2
380
     1
100
AcDbLine
 10
160.885952726946
 20
261.8375
 30
0.0
 11
160.885952726946
 21
145.1425
 31
0.0
  0
SOLID
  5
6C3
330
6C7
100
AcDbEntity
  8
0
  6
ByBlock
 62
     0
380
     1
100
AcDbTrace
 10
160.885952726946
 20
264.3375
 30
0.0
 11
160.4692860602793
 21
261.8375
 31
0.0
 12
161.3026193936127
 22
261.8375
 32
0.0
 13
161.3026193936127
 23
261.8375
 33
0.0
  0
SOLID
  5
6C4
330
6C7
100
AcDbEntity
  8
0
  6
ByBlock
 62
     0
380
     1
100
AcDbTrace
 10
160.885952726946
 20
142.6425
 30
0.0
 11
160.4692860602793
 21
145.1425
 31
0.0
 12
161.3026193936127
 22
145.1425
 32
0.0
 13
161.3026193936127
 23
145.1425
 33
0.0
  0
MTEXT
  5
6C5
330
6C7
100
AcDbEntity
  8
0
  6
ByBlock
 62
     0
370
    -2
380
     1
100
AcDbMText
 10
158.8026193936127
 20
203.49
 30
0.0
 40
2.5
 41
0.0
 71
     5
 72
     1
  1
\A1;121,7
 11
6.123031769111886E-17
 21
1.0
 31
0.0
 73
     1
 44
1.0
  0
ENDBLK
  5
A9C
330
6C7
100
AcDbEntity
  8
0
100
AcDbBlockEnd
  0
BLOCK
  5
A9D
330
6D2
100
AcDbEntity
  8
0
100
AcDbBlockBegin
  2
*D193
 70
     1
 10
0.0
 20
0.0
 30
0.0
  3
*D193
  1

  0
POINT
  5
6C9
330
6D2
100
AcDbEntity
  8
DEFPOINTS
  6
ByBlock
 62
     0
380
     1
100
AcDbPoint
 10
253.95338535
 20
264.3375
 30
0.0
  0
POINT
  5
6CA
330
6D2
100
AcDbEntity
  8
DEFPOINTS
  6
ByBlock
 62
     0
380
     1
100
AcDbPoint
 10
249.581883495
 20
142.6425
 30
0.0
  0
LINE
  5
6CB
330
6D2
100
AcDbEntity
  8
0
  6
ByBlock
 62
     0
370
    -2
380
     1
100
AcDbLine
 10
253.32838535
 20
264.3375
 30
0.0
 11
159.635952726946
 21
264.3375
 31
0.0
  0
LINE
  5
6CC
330
6D2
100
AcDbEntity
  8
0
  6
ByBlock
 62
     0
370
    -2
380
     1
100
AcDbLine
 10
248.956883495
 20
142.6425
 30
0.0
 11
159.635952726946
 21
142.6425
 31
0.0
  0
LINE
  5
6CD
330
6D2
100
AcDbEntity
  8
0
  6
ByBlock
 62
     0
370
    -2
380
     1
100
AcDbLine
 10
160.885952726946
 20
261.8375
 30
0.0
 11
160.885952726946
 21
145.1425
 31
0.0
  0
SOLID
  5
6CE
330
6D2
100
AcDbEntity
  8
0
  6
ByBlock
 62
     0
380
     1
100
AcDbTrace
 10
160.885952726946
 20
264.3375
 30
0.0
 11
160.4692860602793
 21
261.8375
 31
0.0
 12
161.3026193936127
 22
261.8375
 32
0.0
 13
161.3026193936127
 23
261.8375
 33
0.0
  0
SOLID
  5
6CF
330
6D2
100
AcDbEntity
  8
0
  6
ByBlock
 62
     0
380
     1
100
AcDbTrace
 10
160.885952726946
 20
142.6425
 30
0.0
 11
160.4692860602793
 21
145.1425
 31
0.0
 12
161.3026193936127
 22
145.1425
 32
0.0
 13
161.3026193936127
 23
145.1425
 33
0.0
  0
MTEXT
  5
6D0
330
6D2
100
AcDbEntity
  8
0
  6
ByBlock
 62
     0
370
    -2
380
     1
100
AcDbMText
 10
158.8026193936127
 20
203.49
 30
0.0
 40
2.5
 41
0.0
 71
     5
 72
     1
  1
\A1;121,7
 11
6.123031769111886E-17
 21
1.0
 31
0.0
 73
     1
 44
1.0
  0
ENDBLK
  5
A9E
330
6D2
100
AcDbEntity
  8
0
100
AcDbBlockEnd
  0
BLOCK
  5
A9F
330
6DD
100
AcDbEntity
  8
0
100
AcDbBlockBegin
  2
*D194
 70
     1
 10
0.0
 20
0.0
 30
0.0
  3
*D194
  1

  0
POINT
  5
6D4
330
6DD
100
AcDbEntity
  8
DEFPOINTS
  6
ByBlock
 62
     7
380
     1
100
AcDbPoint
 10
253.95338535
 20
264.3375
 30
0.0
  0
POINT
  5
6D5
330
6DD
100
AcDbEntity
  8
DEFPOINTS
  6
ByBlock
 62
     7
380
     1
100
AcDbPoint
 10
249.581883495
 20
142.6425
 30
0.0
  0
LINE
  5
6D6
330
6DD
100
AcDbEntity
  8
0
  6
ByBlock
 62
     7
370
    -2
380
     1
100
AcDbLine
 10
253.32838535
 20
264.3375
 30
0.0
 11
159.635952726946
 21
264.3375
 31
0.0
  0
LINE
  5
6D7
330
6DD
100
AcDbEntity
  8
0
  6
ByBlock
 62
     7
370
    -2
380
     1
100
AcDbLine
 10
248.956883495
 20
142.6425
 30
0.0
 11
159.635952726946
 21
142.6425
 31
0.0
  0
LINE
  5
6D8
330
6DD
100
AcDbEntity
  8
0
  6
ByBlock
 62
     7
370
    -2
380
     1
100
AcDbLine
 10
160.885952726946
 20
254.3375
 30
0.0
 11
160.885952726946
 21
152.6425
 31
0.0
  0
SOLID
  5
6D9
330
6DD
100
AcDbEntity
  8
0
  6
ByBlock
 62
     7
380
     1
100
AcDbTrace
 10
160.885952726946
 20
264.3375
 30
0.0
 11
159.2192860602793
 21
254.3375
 31
0.0
 12
162.5526193936127
 22
254.3375
 32
0.0
 13
162.5526193936127
 23
254.3375
 33
0.0
  0
SOLID
  5
6DA
330
6DD
100
AcDbEntity
  8
0
  6
ByBlock
 62
     7
380
     1
100
AcDbTrace
 10
160.885952726946
 20
142.6425
 30
0.0
 11
159.2192860602793
 21
152.6425
 31
0.0
 12
162.5526193936127
 22
152.6425
 32
0.0
 13
162.5526193936127
 23
152.6425
 33
0.0
  0
MTEXT
  5
6DB
330
6DD
100
AcDbEntity
  8
0
  6
ByBlock
 62
     0
370
    -2
380
     1
100
AcDbMText
 10
147.7192860602793
 20
203.49
 30
0.0
 40
14.0
 41
0.0
 71
     5
 72
     1
  1
\A1;121,7
 11
6.123031769111886E-17
 21
1.0
 31
0.0
 73
     1
 44
1.0
  0
ENDBLK
  5
AA0
330
6DD
100
AcDbEntity
  8
0
100
AcDbBlockEnd
  0
BLOCK
  5
AA1
330
6E8
100
AcDbEntity
  8
0
100
AcDbBlockBegin
  2
*D195
 70
     1
 10
0.0
 20
0.0
 30
0.0
  3
*D195
  1

  0
POINT
  5
6DF
330
6E8
100
AcDbEntity
  8
DEFPOINTS
  6
ByBlock
 62
     7
380
     1
100
AcDbPoint
 10
253.95338535
 20
264.3375
 30
0.0
  0
POINT
  5
6E0
330
6E8
100
AcDbEntity
  8
DEFPOINTS
  6
ByBlock
 62
     7
380
     1
100
AcDbPoint
 10
249.581883495
 20
142.6425
 30
0.0
  0
LINE
  5
6E1
330
6E8
100
AcDbEntity
  8
0
  6
ByBlock
 62
     7
370
    -2
380
     1
100
AcDbLine
 10
253.32838535
 20
264.3375
 30
0.0
 11
159.635952726946
 21
264.3375
 31
0.0
  0
LINE
  5
6E2
330
6E8
100
AcDbEntity
  8
0
  6
ByBlock
 62
     7
370
    -2
380
     1
100
AcDbLine
 10
248.956883495
 20
142.6425
 30
0.0
 11
159.635952726946
 21
142.6425
 31
0.0
  0
LINE
  5
6E3
330
6E8
100
AcDbEntity
  8
0
  6
ByBlock
 62
     7
370
    -2
380
     1
100
AcDbLine
 10
160.885952726946
 20
254.3375
 30
0.0
 11
160.885952726946
 21
152.6425
 31
0.0
  0
SOLID
  5
6E4
330
6E8
100
AcDbEntity
  8
0
  6
ByBlock
 62
     7
380
     1
100
AcDbTrace
 10
160.885952726946
 20
264.3375
 30
0.0
 11
159.2192860602793
 21
254.3375
 31
0.0
 12
162.5526193936127
 22
254.3375
 32
0.0
 13
162.5526193936127
 23
254.3375
 33
0.0
  0
SOLID
  5
6E5
330
6E8
100
AcDbEntity
  8
0
  6
ByBlock
 62
     7
380
     1
100
AcDbTrace
 10
160.885952726946
 20
142.6425
 30
0.0
 11
159.2192860602793
 21
152.6425
 31
0.0
 12
162.5526193936127
 22
152.6425
 32
0.0
 13
162.5526193936127
 23
152.6425
 33
0.0
  0
MTEXT
  5
6E6
330
6E8
100
AcDbEntity
  8
0
  6
ByBlock
 62
     0
370
    -2
380
     1
100
AcDbMText
 10
148.885952726946
 20
203.49
 30
0.0
 40
14.0
 41
0.0
 71
     5
 72
     1
  1
122
 11
6.123031769111886E-17
 21
1.0
 31
0.0
 73
     1
 44
1.0
  0
ENDBLK
  5
AA2
330
6E8
100
AcDbEntity
  8
0
100
AcDbBlockEnd
  0
BLOCK
  5
AA3
330
6F2
100
AcDbEntity
  8
0
100
AcDbBlockBegin
  2
*D196
 70
     1
 10
0.0
 20
0.0
 30
0.0
  3
*D196
  1

  0
LINE
  5
6EB
330
6F2
100
AcDbEntity
  8
0
  6
ByBlock
 62
     0
370
    -2
380
     1
100
AcDbLine
 10
204.2473447678616
 20
214.8466098465303
 30
0.0
 11
342.9472853900172
 21
188.7156689639206
 31
0.0
  0
LINE
  5
6EC
330
6F2
100
AcDbEntity
  8
0
  6
ByBlock
 62
     0
370
    -2
380
     1
100
AcDbLine
 10
342.9472853900172
 20
188.7156689639206
 30
0.0
 11
358.5068885725603
 21
185.7842540758096
 31
0.0
  0
SOLID
  5
6ED
330
6F2
100
AcDbEntity
  8
0
  6
ByBlock
 62
     0
380
     1
100
AcDbTrace
 10
201.7905653179864
 20
215.3094648288636
 30
0.0
 11
204.1702022708061
 21
214.4371466048844
 31
0.0
 12
204.3244872649172
 22
215.2560730881762
 32
0.0
 13
204.3244872649172
 23
215.2560730881762
 33
0.0
  0
MTEXT
  5
6EE
330
6F2
100
AcDbEntity
  8
0
  6
ByBlock
 62
     0
370
    -2
380
     1
100
AcDbMText
 10
351.0742282180387
 20
189.0925461072715
 30
0.0
 40
2.5
 41
0.0
 71
     5
 72
     1
  1
\A1;%%c127,68
 11
0.9827117799500911
 21
-0.1851419929333264
 31
0.0
 73
     1
 44
1.0
  0
POINT
  5
6EF
330
6F2
100
AcDbEntity
  8
DEFPOINTS
  6
ByBlock
 62
     0
380
     1
100
AcDbPoint
 10
327.2632053820136
 20
191.6705351711365
 30
0.0
  0
POINT
  5
6F0
330
6F2
100
AcDbEntity
  8
DEFPOINTS
  6
ByBlock
 62
     0
380
     1
100
AcDbPoint
 10
201.7905653179864
 20
215.3094648288636
 30
0.0
  0
ENDBLK
  5
AA4
330
6F2
100
AcDbEntity
  8
0
100
AcDbBlockEnd
  0
BLOCK
  5
AA5
330
6FB
100
AcDbEntity
  8
0
100
AcDbBlockBegin
  2
*D197
 70
     1
 10
0.0
 20
0.0
 30
0.0
  3
*D197
  1

  0
LINE
  5
6F5
330
6FB
100
AcDbEntity
  8
0
  6
ByBlock
 62
     0
370
    -2
380
     1
100
AcDbLine
 10
203.8977589146652
 20
194.1784680267882
 30
0.0
 11
331.2138139420164
 21
213.7319002926283
 31
0.0
  0
SOLID
  5
6F6
330
6FB
100
AcDbEntity
  8
0
  6
ByBlock
 62
     0
380
     1
100
AcDbTrace
 10
201.4267315901081
 20
193.7989631371072
 30
0.0
 11
203.8345080997184
 21
194.5903059142144
 31
0.0
 12
203.9610097296121
 22
193.766630139362
 32
0.0
 13
203.9610097296121
 23
193.766630139362
 33
0.0
  0
MTEXT
  5
6F7
330
6FB
100
AcDbEntity
  8
0
  6
ByBlock
 62
     0
370
    -2
380
     1
100
AcDbMText
 10
323.1042654136579
 20
214.3834053020565
 30
0.0
 40
2.5
 41
0.0
 71
     5
 72
     1
  1
\A1;%%c127,68
 11
0.9884109298228747
 21
0.1518019558723811
 31
0.0
 73
     1
 44
1.0
  0
POINT
  5
6F8
330
6FB
100
AcDbEntity
  8
DEFPOINTS
  6
ByBlock
 62
     0
380
     1
100
AcDbPoint
 10
327.6270391098919
 20
213.1810368628928
 30
0.0
  0
POINT
  5
6F9
330
6FB
100
AcDbEntity
  8
DEFPOINTS
  6
ByBlock
 62
     0
380
     1
100
AcDbPoint
 10
201.4267315901081
 20
193.7989631371072
 30
0.0
  0
ENDBLK
  5
AA6
330
6FB
100
AcDbEntity
  8
0
100
AcDbBlockEnd
  0
BLOCK
  5
AA7
330
705
100
AcDbEntity
  8
0
100
AcDbBlockBegin
  2
*D198
 70
     1
 10
0.0
 20
0.0
 30
0.0
  3
*D198
  1

  0
LINE
  5
6FE
330
705
100
AcDbEntity
  8
0
  6
ByBlock
 62
     0
370
    -2
380
     1
100
AcDbLine
 10
204.6149495771371
 20
190.3311416928246
 30
0.0
 11
326.8806183095628
 21
217.1851665198905
 31
0.0
  0
LINE
  5
6FF
330
705
100
AcDbEntity
  8
0
  6
ByBlock
 62
     0
370
    -2
380
     1
100
AcDbLine
 10
326.8806183095628
 20
217.1851665198905
 30
0.0
 11
342.3453338253274
 21
220.5817852004189
 31
0.0
  0
SOLID
  5
700
330
705
100
AcDbEntity
  8
0
  6
ByBlock
 62
     0
380
     1
100
AcDbTrace
 10
202.1731523904374
 20
189.7948334801096
 30
0.0
 11
204.7043342792562
 21
189.9241754950413
 31
0.0
 12
204.5255648750179
 22
190.7381078906079
 32
0.0
 13
204.5255648750179
 23
190.7381078906079
 33
0.0
  0
MTEXT
  5
701
330
705
100
AcDbEntity
  8
0
  6
ByBlock
 62
     0
370
    -2
380
     1
100
AcDbMText
 10
334.2107449079089
 20
220.7148237501794
 30
0.0
 40
2.5
 41
0.0
 71
     5
 72
     1
  1
\A1;%%c127,68
 11
0.9767188746798687
 21
0.2145232850860037
 31
0.0
 73
     1
 44
1.0
  0
POINT
  5
702
330
705
100
AcDbEntity
  8
DEFPOINTS
  6
ByBlock
 62
     0
380
     1
100
AcDbPoint
 10
326.8806183095626
 20
217.1851665198904
 30
0.0
  0
POINT
  5
703
330
705
100
AcDbEntity
  8
DEFPOINTS
  6
ByBlock
 62
     0
380
     1
100
AcDbPoint
 10
202.1731523904374
 20
189.7948334801096
 30
0.0
  0
ENDBLK
  5
AA8
330
705
100
AcDbEntity
  8
0
100
AcDbBlockEnd
  0
BLOCK
  5
AA9
330
8AE
100
AcDbEntity
  8
0
100
AcDbBlockBegin
  2
*D199
 70
     1
 10
0.0
 20
0.0
 30
0.0
  3
*D199
  1

  0
POINT
  5
8A5
330
8AE
100
AcDbEntity
  8
DEFPOINTS
  6
ByBlock
 62
     0
380
     1
100
AcDbPoint
 10
110.9750772438445
 20
444.00766151
 30
0.0
  0
POINT
  5
8A6
330
8AE
100
AcDbEntity
  8
DEFPOINTS
  6
ByBlock
 62
     0
380
     1
100
AcDbPoint
 10
110.9750772438445
 20
414.08266151
 30
0.0
  0
LINE
  5
8A7
330
8AE
100
AcDbEntity
  8
0
  6
ByBlock
 62
     0
370
    -2
380
     1
100
AcDbLine
 10
110.3500772438445
 20
444.00766151
 30
0.0
 11
66.84457190481154
 21
444.00766151
 31
0.0
  0
LINE
  5
8A8
330
8AE
100
AcDbEntity
  8
0
  6
ByBlock
 62
     0
370
    -2
380
     1
100
AcDbLine
 10
110.3500772438445
 20
414.08266151
 30
0.0
 11
66.84457190481154
 21
414.08266151
 31
0.0
  0
LINE
  5
8A9
330
8AE
100
AcDbEntity
  8
0
  6
ByBlock
 62
     0
370
    -2
380
     1
100
AcDbLine
 10
68.09457190481154
 20
441.50766151
 30
0.0
 11
68.09457190481154
 21
416.58266151
 31
0.0
  0
SOLID
  5
8AA
330
8AE
100
AcDbEntity
  8
0
  6
ByBlock
 62
     0
380
     1
100
AcDbTrace
 10
68.09457190481154
 20
444.00766151
 30
0.0
 11
67.67790523814489
 21
441.50766151
 31
0.0
 12
68.5112385714782
 22
441.50766151
 32
0.0
 13
68.5112385714782
 23
441.50766151
 33
0.0
  0
SOLID
  5
8AB
330
8AE
100
AcDbEntity
  8
0
  6
ByBlock
 62
     0
380
     1
100
AcDbTrace
 10
68.09457190481154
 20
414.08266151
 30
0.0
 11
67.67790523814489
 21
416.58266151
 31
0.0
 12
68.5112385714782
 22
416.58266151
 32
0.0
 13
68.5112385714782
 23
416.58266151
 33
0.0
  0
MTEXT
  5
8AC
330
8AE
100
AcDbEntity
  8
0
  6
ByBlock
 62
     0
370
    -2
380
     1
100
AcDbMText
 10
66.0112385714782
 20
429.04516151
 30
0.0
 40
2.5
 41
0.0
 71
     5
 72
     1
  1
\A1;29,93
 11
6.123031769111886E-17
 21
1.0
 31
0.0
 73
     1
 44
1.0
  0
ENDBLK
  5
AAA
330
8AE
100
AcDbEntity
  8
0
100
AcDbBlockEnd
  0
BLOCK
  5
AAB
330
8BA
100
AcDbEntity
  8
0
100
AcDbBlockBegin
  2
*D200
 70
     1
 10
0.0
 20
0.0
 30
0.0
  3
*D200
  1

  0
POINT
  5
8B0
330
8BA
100
AcDbEntity
  8
DEFPOINTS
  6
ByBlock
 62
     7
380
     1
100
AcDbPoint
 10
110.9750772438445
 20
444.00766151
 30
0.0
  0
POINT
  5
8B1
330
8BA
100
AcDbEntity
  8
DEFPOINTS
  6
ByBlock
 62
     7
380
     1
100
AcDbPoint
 10
110.9750772438445
 20
414.08266151
 30
0.0
  0
LINE
  5
8B2
330
8BA
100
AcDbEntity
  8
0
  6
ByBlock
 62
     7
370
    -2
380
     1
100
AcDbLine
 10
110.3500772438445
 20
444.00766151
 30
0.0
 11
66.84457190481154
 21
444.00766151
 31
0.0
  0
LINE
  5
8B3
330
8BA
100
AcDbEntity
  8
0
  6
ByBlock
 62
     7
370
    -2
380
     1
100
AcDbLine
 10
110.3500772438445
 20
414.08266151
 30
0.0
 11
66.84457190481154
 21
414.08266151
 31
0.0
  0
LINE
  5
8B4
330
8BA
100
AcDbEntity
  8
0
  6
ByBlock
 62
     7
370
    -2
380
     1
100
AcDbLine
 10
68.09457190481154
 20
454.00766151
 30
0.0
 11
68.09457190481154
 21
464.00766151
 31
0.0
  0
LINE
  5
8B5
330
8BA
100
AcDbEntity
  8
0
  6
ByBlock
 62
     7
370
    -2
380
     1
100
AcDbLine
 10
68.09457190481154
 20
404.08266151
 30
0.0
 11
68.09457190481154
 21
394.08266151
 31
0.0
  0
SOLID
  5
8B6
330
8BA
100
AcDbEntity
  8
0
  6
ByBlock
 62
     7
380
     1
100
AcDbTrace
 10
68.09457190481154
 20
444.00766151
 30
0.0
 11
66.42790523814487
 21
454.00766151
 31
0.0
 12
69.76123857147822
 22
454.00766151
 32
0.0
 13
69.76123857147822
 23
454.00766151
 33
0.0
  0
SOLID
  5
8B7
330
8BA
100
AcDbEntity
  8
0
  6
ByBlock
 62
     7
380
     1
100
AcDbTrace
 10
68.09457190481154
 20
414.08266151
 30
0.0
 11
66.42790523814487
 21
404.08266151
 31
0.0
 12
69.76123857147822
 22
404.08266151
 32
0.0
 13
69.76123857147822
 23
404.08266151
 33
0.0
  0
MTEXT
  5
8B8
330
8BA
100
AcDbEntity
  8
0
  6
ByBlock
 62
     0
370
    -2
380
     1
100
AcDbMText
 10
61.6362385714782
 20
429.04516151
 30
0.0
 40
2.5
 41
0.0
 71
     5
 72
     1
  1
\A1;29,93
 11
6.123031769111886E-17
 21
1.0
 31
0.0
 73
     1
 44
1.0
  0
ENDBLK
  5
AAC
330
8BA
100
AcDbEntity
  8
0
100
AcDbBlockEnd
  0
BLOCK
  5
AAD
330
8C6
100
AcDbEntity
  8
0
100
AcDbBlockBegin
  2
*D201
 70
     1
 10
0.0
 20
0.0
 30
0.0
  3
*D201
  1

  0
POINT
  5
8BC
330
8C6
100
AcDbEntity
  8
DEFPOINTS
  6
ByBlock
 62
     7
380
     1
100
AcDbPoint
 10
110.9750772438445
 20
444.00766151
 30
0.0
  0
POINT
  5
8BD
330
8C6
100
AcDbEntity
  8
DEFPOINTS
  6
ByBlock
 62
     7
380
     1
100
AcDbPoint
 10
110.9750772438445
 20
414.08266151
 30
0.0
  0
LINE
  5
8BE
330
8C6
100
AcDbEntity
  8
0
  6
ByBlock
 62
     7
370
    -2
380
     1
100
AcDbLine
 10
110.3500772438445
 20
444.00766151
 30
0.0
 11
66.84457190481154
 21
444.00766151
 31
0.0
  0
LINE
  5
8BF
330
8C6
100
AcDbEntity
  8
0
  6
ByBlock
 62
     7
370
    -2
380
     1
100
AcDbLine
 10
110.3500772438445
 20
414.08266151
 30
0.0
 11
66.84457190481154
 21
414.08266151
 31
0.0
  0
LINE
  5
8C0
330
8C6
100
AcDbEntity
  8
0
  6
ByBlock
 62
     7
370
    -2
380
     1
100
AcDbLine
 10
68.09457190481154
 20
434.00766151
 30
0.0
 11
68.09457190481154
 21
424.08266151
 31
0.0
  0
LINE
  5
8C1
330
8C6
100
AcDbEntity
  8
0
  6
ByBlock
 62
     7
370
    -2
380
     1
100
AcDbLine
 10
68.09457190481154
 20
414.08266151
 30
0.0
 11
68.09457190481154
 21
377.7493281766666
 31
0.0
  0
SOLID
  5
8C2
330
8C6
100
AcDbEntity
  8
0
  6
ByBlock
 62
     7
380
     1
100
AcDbTrace
 10
68.09457190481154
 20
444.00766151
 30
0.0
 11
66.42790523814487
 21
434.00766151
 31
0.0
 12
69.76123857147822
 22
434.00766151
 32
0.0
 13
69.76123857147822
 23
434.00766151
 33
0.0
  0
SOLID
  5
8C3
330
8C6
100
AcDbEntity
  8
0
  6
ByBlock
 62
     7
380
     1
100
AcDbTrace
 10
68.09457190481154
 20
414.08266151
 30
0.0
 11
66.42790523814487
 21
424.08266151
 31
0.0
 12
69.76123857147822
 22
424.08266151
 32
0.0
 13
69.76123857147822
 23
424.08266151
 33
0.0
  0
MTEXT
  5
8C4
330
8C6
100
AcDbEntity
  8
0
  6
ByBlock
 62
     0
370
    -2
380
     1
100
AcDbMText
 10
54.92790523814489
 20
390.9159948433333
 30
0.0
 40
14.0
 41
0.0
 71
     5
 72
     1
  1
\A1;29,93
 11
6.123031769111886E-17
 21
1.0
 31
0.0
 73
     1
 44
1.0
  0
ENDBLK
  5
AAE
330
8C6
100
AcDbEntity
  8
0
100
AcDbBlockEnd
  0
BLOCK
  5
AAF
330
8D2
100
AcDbEntity
  8
0
100
AcDbBlockBegin
  2
*D202
 70
     1
 10
0.0
 20
0.0
 30
0.0
  3
*D202
  1

  0
POINT
  5
8C8
330
8D2
100
AcDbEntity
  8
DEFPOINTS
  6
ByBlock
 62
     7
380
     1
100
AcDbPoint
 10
110.9750772438445
 20
444.00766151
 30
0.0
  0
POINT
  5
8C9
330
8D2
100
AcDbEntity
  8
DEFPOINTS
  6
ByBlock
 62
     7
380
     1
100
AcDbPoint
 10
110.9750772438445
 20
414.08266151
 30
0.0
  0
LINE
  5
8CA
330
8D2
100
AcDbEntity
  8
0
  6
ByBlock
 62
     7
370
    -2
380
     1
100
AcDbLine
 10
110.3500772438445
 20
444.00766151
 30
0.0
 11
66.84457190481154
 21
444.00766151
 31
0.0
  0
LINE
  5
8CB
330
8D2
100
AcDbEntity
  8
0
  6
ByBlock
 62
     7
370
    -2
380
     1
100
AcDbLine
 10
110.3500772438445
 20
414.08266151
 30
0.0
 11
66.84457190481154
 21
414.08266151
 31
0.0
  0
LINE
  5
8CC
330
8D2
100
AcDbEntity
  8
0
  6
ByBlock
 62
     7
370
    -2
380
     1
100
AcDbLine
 10
68.09457190481154
 20
434.00766151
 30
0.0
 11
68.09457190481154
 21
424.08266151
 31
0.0
  0
LINE
  5
8CD
330
8D2
100
AcDbEntity
  8
0
  6
ByBlock
 62
     7
370
    -2
380
     1
100
AcDbLine
 10
68.09457190481154
 20
414.08266151
 30
0.0
 11
68.09457190481154
 21
380.08266151
 31
0.0
  0
SOLID
  5
8CE
330
8D2
100
AcDbEntity
  8
0
  6
ByBlock
 62
     7
380
     1
100
AcDbTrace
 10
68.09457190481154
 20
444.00766151
 30
0.0
 11
66.42790523814487
 21
434.00766151
 31
0.0
 12
69.76123857147822
 22
434.00766151
 32
0.0
 13
69.76123857147822
 23
434.00766151
 33
0.0
  0
SOLID
  5
8CF
330
8D2
100
AcDbEntity
  8
0
  6
ByBlock
 62
     7
380
     1
100
AcDbTrace
 10
68.09457190481154
 20
414.08266151
 30
0.0
 11
66.42790523814487
 21
424.08266151
 31
0.0
 12
69.76123857147822
 22
424.08266151
 32
0.0
 13
69.76123857147822
 23
424.08266151
 33
0.0
  0
MTEXT
  5
8D0
330
8D2
100
AcDbEntity
  8
0
  6
ByBlock
 62
     0
370
    -2
380
     1
100
AcDbMText
 10
56.09457190481154
 20
392.08266151
 30
0.0
 40
14.0
 41
0.0
 71
     5
 72
     1
  1
30
 11
6.123031769111886E-17
 21
1.0
 31
0.0
 73
     1
 44
1.0
  0
ENDBLK
  5
AB0
330
8D2
100
AcDbEntity
  8
0
100
AcDbBlockEnd
  0
BLOCK
  5
AB1
330
8DD
100
AcDbEntity
  8
0
100
AcDbBlockBegin
  2
*D203
 70
     1
 10
0.0
 20
0.0
 30
0.0
  3
*D203
  1

  0
POINT
  5
8D4
330
8DD
100
AcDbEntity
  8
DEFPOINTS
  6
ByBlock
 62
     7
380
     1
100
AcDbPoint
 10
110.9750772438445
 20
444.00766151
 30
0.0
  0
POINT
  5
8D5
330
8DD
100
AcDbEntity
  8
DEFPOINTS
  6
ByBlock
 62
     7
380
     1
100
AcDbPoint
 10
110.9750772438445
 20
414.08266151
 30
0.0
  0
LINE
  5
8D6
330
8DD
100
AcDbEntity
  8
0
  6
ByBlock
 62
     7
370
    -2
380
     1
100
AcDbLine
 10
110.3500772438445
 20
444.00766151
 30
0.0
 11
66.84457190481154
 21
444.00766151
 31
0.0
  0
LINE
  5
8D7
330
8DD
100
AcDbEntity
  8
0
  6
ByBlock
 62
     7
370
    -2
380
     1
100
AcDbLine
 10
110.3500772438445
 20
414.08266151
 30
0.0
 11
66.84457190481154
 21
414.08266151
 31
0.0
  0
LINE
  5
8D8
330
8DD
100
AcDbEntity
  8
0
  6
ByBlock
 62
     7
370
    -2
380
     1
100
AcDbLine
 10
68.09457190481154
 20
444.00766151
 30
0.0
 11
68.09457190481154
 21
414.08266151
 31
0.0
  0
SOLID
  5
8D9
330
8DD
100
AcDbEntity
  8
0
  6
ByBlock
 62
     7
380
     1
100
AcDbTrace
 10
68.09457190481154
 20
444.00766151
 30
0.0
 11
66.42790523814487
 21
434.00766151
 31
0.0
 12
69.76123857147822
 22
434.00766151
 32
0.0
 13
69.76123857147822
 23
434.00766151
 33
0.0
  0
SOLID
  5
8DA
330
8DD
100
AcDbEntity
  8
0
  6
ByBlock
 62
     7
380
     1
100
AcDbTrace
 10
68.09457190481154
 20
414.08266151
 30
0.0
 11
66.42790523814487
 21
424.08266151
 31
0.0
 12
69.76123857147822
 22
424.08266151
 32
0.0
 13
69.76123857147822
 23
424.08266151
 33
0.0
  0
MTEXT
  5
8DB
330
8DD
100
AcDbEntity
  8
0
  6
ByBlock
 62
     0
370
    -2
380
     1
100
AcDbMText
 10
56.09457190481154
 20
429.04516151
 30
0.0
 40
14.0
 41
0.0
 71
     5
 72
     1
  1
30
 11
6.123031769111886E-17
 21
1.0
 31
0.0
 73
     1
 44
1.0
  0
ENDBLK
  5
AB2
330
8DD
100
AcDbEntity
  8
0
100
AcDbBlockEnd
  0
BLOCK
  5
AB3
330
8E9
100
AcDbEntity
  8
0
100
AcDbBlockBegin
  2
*D204
 70
     1
 10
0.0
 20
0.0
 30
0.0
  3
*D204
  1

  0
POINT
  5
8E0
330
8E9
100
AcDbEntity
  8
DEFPOINTS
  6
ByBlock
 62
     0
380
     1
100
AcDbPoint
 10
211.7898823494433
 20
533.78266151
 30
0.0
  0
POINT
  5
8E1
330
8E9
100
AcDbEntity
  8
DEFPOINTS
  6
ByBlock
 62
     0
380
     1
100
AcDbPoint
 10
217.2639894140007
 20
414.08266151
 30
0.0
  0
LINE
  5
8E2
330
8E9
100
AcDbEntity
  8
0
  6
ByBlock
 62
     0
370
    -2
380
     1
100
AcDbLine
 10
211.1648823494433
 20
533.78266151
 30
0.0
 11
14.84055479151624
 21
533.78266151
 31
0.0
  0
LINE
  5
8E3
330
8E9
100
AcDbEntity
  8
0
  6
ByBlock
 62
     0
370
    -2
380
     1
100
AcDbLine
 10
216.6389894140007
 20
414.08266151
 30
0.0
 11
14.84055479151624
 21
414.08266151
 31
0.0
  0
LINE
  5
8E4
330
8E9
100
AcDbEntity
  8
0
  6
ByBlock
 62
     0
370
    -2
380
     1
100
AcDbLine
 10
16.09055479151624
 20
531.28266151
 30
0.0
 11
16.09055479151624
 21
416.58266151
 31
0.0
  0
SOLID
  5
8E5
330
8E9
100
AcDbEntity
  8
0
  6
ByBlock
 62
     0
380
     1
100
AcDbTrace
 10
16.09055479151624
 20
533.78266151
 30
0.0
 11
15.67388812484958
 21
531.28266151
 31
0.0
 12
16.5072214581829
 22
531.28266151
 32
0.0
 13
16.5072214581829
 23
531.28266151
 33
0.0
  0
SOLID
  5
8E6
330
8E9
100
AcDbEntity
  8
0
  6
ByBlock
 62
     0
380
     1
100
AcDbTrace
 10
16.09055479151624
 20
414.08266151
 30
0.0
 11
15.67388812484958
 21
416.58266151
 31
0.0
 12
16.5072214581829
 22
416.58266151
 32
0.0
 13
16.5072214581829
 23
416.58266151
 33
0.0
  0
MTEXT
  5
8E7
330
8E9
100
AcDbEntity
  8
0
  6
ByBlock
 62
     0
370
    -2
380
     1
100
AcDbMText
 10
14.0072214581829
 20
473.93266151
 30
0.0
 40
2.5
 41
0.0
 71
     5
 72
     1
  1
\A1;119,7
 11
6.123031769111886E-17
 21
1.0
 31
0.0
 73
     1
 44
1.0
  0
ENDBLK
  5
AB4
330
8E9
100
AcDbEntity
  8
0
100
AcDbBlockEnd
  0
BLOCK
  5
AB5
330
8F4
100
AcDbEntity
  8
0
100
AcDbBlockBegin
  2
*D205
 70
     1
 10
0.0
 20
0.0
 30
0.0
  3
*D205
  1

  0
POINT
  5
8EB
330
8F4
100
AcDbEntity
  8
DEFPOINTS
  6
ByBlock
 62
     7
380
     1
100
AcDbPoint
 10
110.9750772438445
 20
444.00766151
 30
0.0
  0
POINT
  5
8EC
330
8F4
100
AcDbEntity
  8
DEFPOINTS
  6
ByBlock
 62
     7
380
     1
100
AcDbPoint
 10
110.9750772438445
 20
414.08266151
 30
0.0
  0
LINE
  5
8ED
330
8F4
100
AcDbEntity
  8
0
  6
ByBlock
 62
     7
370
    -2
380
     1
100
AcDbLine
 10
110.3500772438445
 20
444.00766151
 30
0.0
 11
66.84457190481154
 21
444.00766151
 31
0.0
  0
LINE
  5
8EE
330
8F4
100
AcDbEntity
  8
0
  6
ByBlock
 62
     7
370
    -2
380
     1
100
AcDbLine
 10
110.3500772438445
 20
414.08266151
 30
0.0
 11
66.84457190481154
 21
414.08266151
 31
0.0
  0
LINE
  5
8EF
330
8F4
100
AcDbEntity
  8
0
  6
ByBlock
 62
     7
370
    -2
380
     1
100
AcDbLine
 10
68.09457190481154
 20
444.00766151
 30
0.0
 11
68.09457190481154
 21
414.08266151
 31
0.0
  0
SOLID
  5
8F0
330
8F4
100
AcDbEntity
  8
0
  6
ByBlock
 62
     7
380
     1
100
AcDbTrace
 10
68.09457190481154
 20
444.00766151
 30
0.0
 11
66.42790523814487
 21
434.00766151
 31
0.0
 12
69.76123857147822
 22
434.00766151
 32
0.0
 13
69.76123857147822
 23
434.00766151
 33
0.0
  0
SOLID
  5
8F1
330
8F4
100
AcDbEntity
  8
0
  6
ByBlock
 62
     7
380
     1
100
AcDbTrace
 10
68.09457190481154
 20
414.08266151
 30
0.0
 11
66.42790523814487
 21
424.08266151
 31
0.0
 12
69.76123857147822
 22
424.08266151
 32
0.0
 13
69.76123857147822
 23
424.08266151
 33
0.0
  0
MTEXT
  5
8F2
330
8F4
100
AcDbEntity
  8
0
  6
ByBlock
 62
     0
370
    -2
380
     1
100
AcDbMText
 10
56.09457190481154
 20
429.04516151
 30
0.0
 40
14.0
 41
0.0
 71
     5
 72
     1
  1
30
 11
6.123031769111886E-17
 21
1.0
 31
0.0
 73
     1
 44
1.0
  0
ENDBLK
  5
AB6
330
8F4
100
AcDbEntity
  8
0
100
AcDbBlockEnd
  0
BLOCK
  5
AB7
330
8FF
100
AcDbEntity
  8
0
100
AcDbBlockBegin
  2
*D206
 70
     1
 10
0.0
 20
0.0
 30
0.0
  3
*D206
  1

  0
POINT
  5
8F6
330
8FF
100
AcDbEntity
  8
DEFPOINTS
  6
ByBlock
 62
     0
380
     1
100
AcDbPoint
 10
211.7898823494433
 20
533.78266151
 30
0.0
  0
POINT
  5
8F7
330
8FF
100
AcDbEntity
  8
DEFPOINTS
  6
ByBlock
 62
     0
380
     1
100
AcDbPoint
 10
217.2639894140007
 20
414.08266151
 30
0.0
  0
LINE
  5
8F8
330
8FF
100
AcDbEntity
  8
0
  6
ByBlock
 62
     0
370
    -2
380
     1
100
AcDbLine
 10
211.1648823494433
 20
533.78266151
 30
0.0
 11
14.84055479151624
 21
533.78266151
 31
0.0
  0
LINE
  5
8F9
330
8FF
100
AcDbEntity
  8
0
  6
ByBlock
 62
     0
370
    -2
380
     1
100
AcDbLine
 10
216.6389894140007
 20
414.08266151
 30
0.0
 11
14.84055479151624
 21
414.08266151
 31
0.0
  0
LINE
  5
8FA
330
8FF
100
AcDbEntity
  8
0
  6
ByBlock
 62
     0
370
    -2
380
     1
100
AcDbLine
 10
16.09055479151624
 20
531.28266151
 30
0.0
 11
16.09055479151624
 21
416.58266151
 31
0.0
  0
SOLID
  5
8FB
330
8FF
100
AcDbEntity
  8
0
  6
ByBlock
 62
     0
380
     1
100
AcDbTrace
 10
16.09055479151624
 20
533.78266151
 30
0.0
 11
15.67388812484958
 21
531.28266151
 31
0.0
 12
16.5072214581829
 22
531.28266151
 32
0.0
 13
16.5072214581829
 23
531.28266151
 33
0.0
  0
SOLID
  5
8FC
330
8FF
100
AcDbEntity
  8
0
  6
ByBlock
 62
     0
380
     1
100
AcDbTrace
 10
16.09055479151624
 20
414.08266151
 30
0.0
 11
15.67388812484958
 21
416.58266151
 31
0.0
 12
16.5072214581829
 22
416.58266151
 32
0.0
 13
16.5072214581829
 23
416.58266151
 33
0.0
  0
MTEXT
  5
8FD
330
8FF
100
AcDbEntity
  8
0
  6
ByBlock
 62
     0
370
    -2
380
     1
100
AcDbMText
 10
14.0072214581829
 20
473.93266151
 30
0.0
 40
2.5
 41
0.0
 71
     5
 72
     1
  1
\A1;119,7
 11
6.123031769111886E-17
 21
1.0
 31
0.0
 73
     1
 44
1.0
  0
ENDBLK
  5
AB8
330
8FF
100
AcDbEntity
  8
0
100
AcDbBlockEnd
  0
BLOCK
  5
AB9
330
90A
100
AcDbEntity
  8
0
100
AcDbBlockBegin
  2
*D207
 70
     1
 10
0.0
 20
0.0
 30
0.0
  3
*D207
  1

  0
POINT
  5
901
330
90A
100
AcDbEntity
  8
DEFPOINTS
  6
ByBlock
 62
     7
380
     1
100
AcDbPoint
 10
211.7898823494433
 20
533.78266151
 30
0.0
  0
POINT
  5
902
330
90A
100
AcDbEntity
  8
DEFPOINTS
  6
ByBlock
 62
     7
380
     1
100
AcDbPoint
 10
217.2639894140007
 20
414.08266151
 30
0.0
  0
LINE
  5
903
330
90A
100
AcDbEntity
  8
0
  6
ByBlock
 62
     7
370
    -2
380
     1
100
AcDbLine
 10
211.1648823494433
 20
533.78266151
 30
0.0
 11
14.84055479151624
 21
533.78266151
 31
0.0
  0
LINE
  5
904
330
90A
100
AcDbEntity
  8
0
  6
ByBlock
 62
     7
370
    -2
380
     1
100
AcDbLine
 10
216.6389894140007
 20
414.08266151
 30
0.0
 11
14.84055479151624
 21
414.08266151
 31
0.0
  0
LINE
  5
905
330
90A
100
AcDbEntity
  8
0
  6
ByBlock
 62
     7
370
    -2
380
     1
100
AcDbLine
 10
16.09055479151624
 20
523.78266151
 30
0.0
 11
16.09055479151624
 21
424.08266151
 31
0.0
  0
SOLID
  5
906
330
90A
100
AcDbEntity
  8
0
  6
ByBlock
 62
     7
380
     1
100
AcDbTrace
 10
16.09055479151624
 20
533.78266151
 30
0.0
 11
14.42388812484958
 21
523.78266151
 31
0.0
 12
17.7572214581829
 22
523.78266151
 32
0.0
 13
17.7572214581829
 23
523.78266151
 33
0.0
  0
SOLID
  5
907
330
90A
100
AcDbEntity
  8
0
  6
ByBlock
 62
     7
380
     1
100
AcDbTrace
 10
16.09055479151624
 20
414.08266151
 30
0.0
 11
14.42388812484958
 21
424.08266151
 31
0.0
 12
17.7572214581829
 22
424.08266151
 32
0.0
 13
17.7572214581829
 23
424.08266151
 33
0.0
  0
MTEXT
  5
908
330
90A
100
AcDbEntity
  8
0
  6
ByBlock
 62
     0
370
    -2
380
     1
100
AcDbMText
 10
2.923888124849583
 20
473.93266151
 30
0.0
 40
14.0
 41
0.0
 71
     5
 72
     1
  1
\A1;119,7
 11
6.123031769111886E-17
 21
1.0
 31
0.0
 73
     1
 44
1.0
  0
ENDBLK
  5
ABA
330
90A
100
AcDbEntity
  8
0
100
AcDbBlockEnd
  0
BLOCK
  5
ABB
330
915
100
AcDbEntity
  8
0
100
AcDbBlockBegin
  2
*D208
 70
     1
 10
0.0
 20
0.0
 30
0.0
  3
*D208
  1

  0
POINT
  5
90C
330
915
100
AcDbEntity
  8
DEFPOINTS
  6
ByBlock
 62
     7
380
     1
100
AcDbPoint
 10
211.7898823494433
 20
533.78266151
 30
0.0
  0
POINT
  5
90D
330
915
100
AcDbEntity
  8
DEFPOINTS
  6
ByBlock
 62
     7
380
     1
100
AcDbPoint
 10
217.2639894140007
 20
414.08266151
 30
0.0
  0
LINE
  5
90E
330
915
100
AcDbEntity
  8
0
  6
ByBlock
 62
     7
370
    -2
380
     1
100
AcDbLine
 10
211.1648823494433
 20
533.78266151
 30
0.0
 11
14.84055479151624
 21
533.78266151
 31
0.0
  0
LINE
  5
90F
330
915
100
AcDbEntity
  8
0
  6
ByBlock
 62
     7
370
    -2
380
     1
100
AcDbLine
 10
216.6389894140007
 20
414.08266151
 30
0.0
 11
14.84055479151624
 21
414.08266151
 31
0.0
  0
LINE
  5
910
330
915
100
AcDbEntity
  8
0
  6
ByBlock
 62
     7
370
    -2
380
     1
100
AcDbLine
 10
16.09055479151624
 20
523.78266151
 30
0.0
 11
16.09055479151624
 21
424.08266151
 31
0.0
  0
SOLID
  5
911
330
915
100
AcDbEntity
  8
0
  6
ByBlock
 62
     7
380
     1
100
AcDbTrace
 10
16.09055479151624
 20
533.78266151
 30
0.0
 11
14.42388812484958
 21
523.78266151
 31
0.0
 12
17.7572214581829
 22
523.78266151
 32
0.0
 13
17.7572214581829
 23
523.78266151
 33
0.0
  0
SOLID
  5
912
330
915
100
AcDbEntity
  8
0
  6
ByBlock
 62
     7
380
     1
100
AcDbTrace
 10
16.09055479151624
 20
414.08266151
 30
0.0
 11
14.42388812484958
 21
424.08266151
 31
0.0
 12
17.7572214581829
 22
424.08266151
 32
0.0
 13
17.7572214581829
 23
424.08266151
 33
0.0
  0
MTEXT
  5
913
330
915
100
AcDbEntity
  8
0
  6
ByBlock
 62
     0
370
    -2
380
     1
100
AcDbMText
 10
4.09055479151624
 20
473.93266151
 30
0.0
 40
14.0
 41
0.0
 71
     5
 72
     1
  1
120
 11
6.123031769111886E-17
 21
1.0
 31
0.0
 73
     1
 44
1.0
  0
ENDBLK
  5
ABC
330
915
100
AcDbEntity
  8
0
100
AcDbBlockEnd
  0
ENDSEC
  0
SECTION
  2
ENTITIES
  0
LINE
  5
4FF
330
1F
100
AcDbEntity
  8
0
370
    60
100
AcDbLine
 10
433.92150543
 20
414.08266151
 30
0.0
 11
433.93112532
 21
444.00766151
 31
0.0
  0
LINE
  5
500
330
1F
100
AcDbEntity
  8
0
370
    60
100
AcDbLine
 10
95.12264538000001
 20
444.00766151
 30
0.0
 11
184.83995131
 21
533.78266151
 31
0.0
  0
LINE
  5
501
330
1F
100
AcDbEntity
  8
0
370
    60
100
AcDbLine
 10
344.21381939
 20
533.78266151
 30
0.0
 11
433.93112532
 21
444.00766151
 31
0.0
  0
LINE
  5
502
330
1F
100
AcDbEntity
  8
0
370
    60
100
AcDbLine
 10
95.12264538000001
 20
444.00766151
 30
0.0
 11
95.15246265
 21
414.08266151
 31
0.0
  0
LINE
  5
503
330
1F
100
AcDbEntity
  8
0
370
    60
100
AcDbLine
 10
95.12264538000001
 20
444.00766151
 30
0.0
 11
95.13226527
 21
414.08266151
 31
0.0
  0
LINE
  5
504
330
1F
100
AcDbEntity
  8
0
370
    60
100
AcDbLine
 10
95.12264538000001
 20
444.00766151
 30
0.0
 11
264.52688535
 21
444.00766151
 31
0.0
  0
LINE
  5
505
330
1F
100
AcDbEntity
  8
0
370
    60
100
AcDbLine
 10
264.52688535
 20
444.00766151
 30
0.0
 11
433.93112532
 21
444.00766151
 31
0.0
  0
LINE
  5
506
330
1F
100
AcDbEntity
  8
0
370
    60
100
AcDbLine
 10
264.52688535
 20
533.78266151
 30
0.0
 11
344.21381939
 21
533.78266151
 31
0.0
  0
LINE
  5
507
330
1F
100
AcDbEntity
  8
0
370
    60
100
AcDbLine
 10
184.83995131
 20
533.78266151
 30
0.0
 11
264.52688535
 21
533.78266151
 31
0.0
  0
LINE
  5
508
330
1F
100
AcDbEntity
  8
0
370
    60
100
AcDbLine
 10
95.13226527
 20
414.08266151
 30
0.0
 11
264.52688535
 21
414.08266151
 31
0.0
  0
LINE
  5
509
330
1F
100
AcDbEntity
  8
0
370
    60
100
AcDbLine
 10
264.52688535
 20
414.08266151
 30
0.0
 11
433.92150543
 21
414.08266151
 31
0.0
  0
LINE
  5
50A
330
1F
100
AcDbEntity
  8
0
  6
DASHDOT
370
    60
100
AcDbLine
 10
264.52688535
 20
402.11266151
 30
0.0
 11
264.52688535
 21
545.75266151
 31
0.0
  0
POINT
  5
50B
330
1F
100
AcDbEntity
  8
0
370
    60
100
AcDbPoint
 10
264.52688535
 20
287.65923753
 30
0.0
  0
POINT
  5
50C
330
1F
100
AcDbEntity
  8
0
370
    60
100
AcDbPoint
 10
264.52688535
 20
248.37835253
 30
0.0
  0
POINT
  5
50D
330
1F
100
AcDbEntity
  8
0
370
    60
100
AcDbPoint
 10
264.52688535
 20
203.49
 30
0.0
  0
LINE
  5
50E
330
1F
100
AcDbEntity
  8
0
  6
DASHDOT
370
    60
100
AcDbLine
 10
264.52688535
 20
195.75471468
 30
0.0
 11
264.52688535
 21
380.14859596
 31
0.0
  0
CIRCLE
  5
510
330
1F
100
AcDbEntity
  8
0
370
    60
100
AcDbCircle
 10
264.52688535
 20
203.49
 30
0.0
 40
169.575
  0
LINE
  5
511
330
1F
100
AcDbEntity
  8
0
 48
0.164342
370
    60
100
AcDbLine
 10
307.56411462
 20
156.33766428
 30
0.0
 11
311.93561581
 21
163.90932901
 31
0.0
  0
LINE
  5
512
330
1F
100
AcDbEntity
  8
0
 48
0.110625
370
    60
100
AcDbLine
 10
306.83883902
 20
166.85195534
 30
0.0
 11
311.93561581
 21
163.90932901
 31
0.0
  0
LINE
  5
513
330
1F
100
AcDbEntity
  8
0
 48
0.075
370
    60
100
AcDbLine
 10
304.84383902
 20
163.39651559
 30
0.0
 11
306.83883902
 21
166.85195534
 31
0.0
  0
LINE
  5
514
330
1F
100
AcDbEntity
  8
0
 48
0.067879
370
    60
100
AcDbLine
 10
301.71649963
 20
165.20208236
 30
0.0
 11
304.84383902
 21
163.39651559
 31
0.0
  0
ARC
  5
515
330
1F
100
AcDbEntity
  8
0
370
    60
100
AcDbCircle
 10
320.41046226
 20
171.22560315
 30
0.0
 40
19.6404425
100
AcDbArc
 50
149.999997
 51
197.859847
  0
ARC
  5
516
330
1F
100
AcDbEntity
  8
0
370
    60
100
AcDbCircle
 10
320.41046226
 20
171.22560315
 30
0.0
 40
19.6404425
100
AcDbArc
 50
102.140165
 51
149.999997
  0
LINE
  5
517
330
1F
100
AcDbEntity
  8
0
 48
0.067879
370
    60
100
AcDbLine
 10
316.2799983
 20
190.4268065
 30
0.0
 11
319.4073416800001
 21
188.62123574
 31
0.0
  0
LINE
  5
518
330
1F
100
AcDbEntity
  8
0
 48
0.075
370
    60
100
AcDbLine
 10
317.4123416800001
 20
185.16579466
 30
0.0
 11
319.4073416800001
 21
188.62123574
 31
0.0
  0
LINE
  5
519
330
1F
100
AcDbEntity
  8
0
 48
0.110625
370
    60
100
AcDbLine
 10
317.4123416800001
 20
185.16579466
 30
0.0
 11
322.50911448
 21
182.22316966
 31
0.0
  0
LINE
  5
51A
330
1F
100
AcDbEntity
  8
0
 48
0.164342
370
    60
100
AcDbLine
 10
322.50911448
 20
182.22316966
 30
0.0
 11
326.88061966
 21
189.79483306
 31
0.0
  0
ARC
  5
51B
330
1F
100
AcDbEntity
  8
0
370
    60
100
AcDbCircle
 10
264.52688535
 20
203.49
 30
0.0
 40
63.84
100
AcDbArc
 50
347.612451
 51
0.0000099999999887
  0
ARC
  5
51C
330
1F
100
AcDbEntity
  8
0
370
    60
100
AcDbCircle
 10
264.52688535
 20
203.49
 30
0.0
 40
63.84
100
AcDbArc
 50
0.0
 51
12.387561
  0
LINE
  5
51D
330
1F
100
AcDbEntity
  8
0
 48
0.164342
370
    60
100
AcDbLine
 10
322.50911448
 20
224.75683034
 30
0.0
 11
326.88061966
 21
217.18516694
 31
0.0
  0
LINE
  5
51E
330
1F
100
AcDbEntity
  8
0
 48
0.110625
370
    60
100
AcDbLine
 10
317.4123416800001
 20
221.81420534
 30
0.0
 11
322.50911448
 21
224.75683034
 31
0.0
  0
LINE
  5
51F
330
1F
100
AcDbEntity
  8
0
 48
0.075
370
    60
100
AcDbLine
 10
317.4123416800001
 20
221.81420534
 30
0.0
 11
319.4073416800001
 21
218.35876426
 31
0.0
  0
LINE
  5
520
330
1F
100
AcDbEntity
  8
0
 48
0.067879
370
    60
100
AcDbLine
 10
316.2799983
 20
216.5531935
 30
0.0
 11
319.4073416800001
 21
218.35876426
 31
0.0
  0
ARC
  5
521
330
1F
100
AcDbEntity
  8
0
370
    60
100
AcDbCircle
 10
320.41046226
 20
235.75439685
 30
0.0
 40
19.6404425
100
AcDbArc
 50
210.000016
 51
257.859862
  0
ARC
  5
522
330
1F
100
AcDbEntity
  8
0
370
    60
100
AcDbCircle
 10
320.41046226
 20
235.75439685
 30
0.0
 40
19.64044250000001
100
AcDbArc
 50
162.140167
 51
210.000016
  0
LINE
  5
523
330
1F
100
AcDbEntity
  8
0
 48
0.067879
370
    60
100
AcDbLine
 10
301.71649963
 20
241.77791764
 30
0.0
 11
304.84383902
 21
243.58348441
 31
0.0
  0
LINE
  5
524
330
1F
100
AcDbEntity
  8
0
 48
0.075
370
    60
100
AcDbLine
 10
304.84383902
 20
243.58348441
 30
0.0
 11
306.83883902
 21
240.12804466
 31
0.0
  0
LINE
  5
525
330
1F
100
AcDbEntity
  8
0
 48
0.110625
370
    60
100
AcDbLine
 10
306.83883902
 20
240.12804466
 30
0.0
 11
311.93561581
 21
243.07067099
 31
0.0
  0
LINE
  5
526
330
1F
100
AcDbEntity
  8
0
 48
0.164342
370
    60
100
AcDbLine
 10
307.56411462
 20
250.64233572
 30
0.0
 11
311.93561581
 21
243.07067099
 31
0.0
  0
ARC
  5
527
330
1F
100
AcDbEntity
  8
0
370
    60
100
AcDbCircle
 10
264.52688535
 20
203.49
 30
0.0
 40
63.84
100
AcDbArc
 50
47.61243900000001
 51
72.387561
  0
LINE
  5
528
330
1F
100
AcDbEntity
  8
0
 48
0.164342
370
    60
100
AcDbLine
 10
275.10038535
 20
264.3375
 30
0.0
 11
283.84339039
 21
264.3375
 31
0.0
  0
LINE
  5
529
330
1F
100
AcDbEntity
  8
0
 48
0.110625
370
    60
100
AcDbLine
 10
275.10038535
 20
258.45224867
 30
0.0
 11
275.10038535
 21
264.3375
 31
0.0
  0
LINE
  5
52A
330
1F
100
AcDbEntity
  8
0
 48
0.075
370
    60
100
AcDbLine
 10
275.10038535
 20
258.45224867
 30
0.0
 11
279.09038535
 21
258.45224867
 31
0.0
  0
LINE
  5
52B
330
1F
100
AcDbEntity
  8
0
 48
0.067879
370
    60
100
AcDbLine
 10
279.09038535
 20
254.84110981
 30
0.0
 11
279.09038535
 21
258.45224867
 31
0.0
  0
ARC
  5
52C
330
1F
100
AcDbEntity
  8
0
370
    60
100
AcDbCircle
 10
264.52688535
 20
268.01879503
 30
0.0
 40
19.64044250000001
100
AcDbArc
 50
269.999997
 51
317.8598469999999
  0
ARC
  5
52D
330
1F
100
AcDbEntity
  8
0
370
    60
100
AcDbCircle
 10
264.52688535
 20
268.01879503
 30
0.0
 40
19.64044250000002
100
AcDbArc
 50
222.140172
 51
269.9999970000001
  0
LINE
  5
52E
330
1F
100
AcDbEntity
  8
0
 48
0.067879
370
    60
100
AcDbLine
 10
249.96338535
 20
254.84110981
 30
0.0
 11
249.96338535
 21
258.45224867
 31
0.0
  0
LINE
  5
52F
330
1F
100
AcDbEntity
  8
0
 48
0.075
370
    60
100
AcDbLine
 10
249.96338535
 20
258.45224867
 30
0.0
 11
253.95338535
 21
258.45224867
 31
0.0
  0
LINE
  5
530
330
1F
100
AcDbEntity
  8
0
 48
0.110625
370
    60
100
AcDbLine
 10
253.95338535
 20
258.45224867
 30
0.0
 11
253.95338535
 21
264.3375
 31
0.0
  0
LINE
  5
531
330
1F
100
AcDbEntity
  8
0
 48
0.167145
370
    60
100
AcDbLine
 10
245.06138706
 20
264.29000038
 30
0.0
 11
253.95338535
 21
264.3375
 31
0.0
  0
ARC
  5
532
330
1F
100
AcDbEntity
  8
0
370
    60
100
AcDbCircle
 10
264.52688535
 20
203.49
 30
0.0
 40
63.84
100
AcDbArc
 50
107.752791
 51
132.387562
  0
LINE
  5
533
330
1F
100
AcDbEntity
  8
0
 48
0.164342
370
    60
100
AcDbLine
 10
217.11815489
 20
243.07067099
 30
0.0
 11
221.48965608
 21
250.64233572
 31
0.0
  0
LINE
  5
534
330
1F
100
AcDbEntity
  8
0
 48
0.110625
370
    60
100
AcDbLine
 10
217.11815489
 20
243.07067099
 30
0.0
 11
222.21493168
 21
240.12804466
 31
0.0
  0
LINE
  5
535
330
1F
100
AcDbEntity
  8
0
 48
0.075
370
    60
100
AcDbLine
 10
222.21493168
 20
240.12804466
 30
0.0
 11
224.20993168
 21
243.58348441
 31
0.0
  0
LINE
  5
536
330
1F
100
AcDbEntity
  8
0
 48
0.067879
370
    60
100
AcDbLine
 10
224.20993168
 20
243.58348441
 30
0.0
 11
227.33727107
 21
241.77791764
 31
0.0
  0
ARC
  5
537
330
1F
100
AcDbEntity
  8
0
370
    60
100
AcDbCircle
 10
208.64330844
 20
235.75439685
 30
0.0
 40
19.6404425
100
AcDbArc
 50
330.0000160000001
 51
17.85983600000002
  0
ARC
  5
538
330
1F
100
AcDbEntity
  8
0
370
    60
100
AcDbCircle
 10
208.64330844
 20
235.75439685
 30
0.0
 40
19.6404425
100
AcDbArc
 50
282.140167
 51
330.0000160000001
  0
LINE
  5
539
330
1F
100
AcDbEntity
  8
0
 48
0.067879
370
    60
100
AcDbLine
 10
209.64642902
 20
218.35876426
 30
0.0
 11
212.7737724
 21
216.5531935
 31
0.0
  0
LINE
  5
53A
330
1F
100
AcDbEntity
  8
0
 48
0.075
370
    60
100
AcDbLine
 10
209.64642902
 20
218.35876426
 30
0.0
 11
211.64142902
 21
221.81420534
 31
0.0
  0
LINE
  5
53B
330
1F
100
AcDbEntity
  8
0
 48
0.110625
370
    60
100
AcDbLine
 10
206.54465622
 20
224.75683034
 30
0.0
 11
211.64142902
 21
221.81420534
 31
0.0
  0
LINE
  5
53C
330
1F
100
AcDbEntity
  8
0
 48
0.167145
370
    60
100
AcDbLine
 10
202.13979065
 20
217.03238452
 30
0.0
 11
206.54465622
 21
224.75683034
 31
0.0
  0
ARC
  5
53D
330
1F
100
AcDbEntity
  8
0
370
    60
100
AcDbCircle
 10
264.52688535
 20
203.49
 30
0.0
 40
63.83999999999998
100
AcDbArc
 50
167.752793
 51
188.731367
  0
ARC
  5
53E
330
1F
100
AcDbEntity
  8
0
370
    60
100
AcDbCircle
 10
264.52688535
 20
203.49
 30
0.0
 40
63.84000000000002
100
AcDbArc
 50
188.731367
 51
192.387581
  0
LINE
  5
53F
330
1F
100
AcDbEntity
  8
0
 48
0.164342
370
    60
100
AcDbLine
 10
202.17315104
 20
189.79483306
 30
0.0
 11
206.54465622
 21
182.22316966
 31
0.0
  0
LINE
  5
540
330
1F
100
AcDbEntity
  8
0
 48
0.110625
370
    60
100
AcDbLine
 10
206.54465622
 20
182.22316966
 30
0.0
 11
211.64142902
 21
185.16579466
 31
0.0
  0
LINE
  5
541
330
1F
100
AcDbEntity
  8
0
 48
0.075
370
    60
100
AcDbLine
 10
209.64642902
 20
188.62123574
 30
0.0
 11
211.64142902
 21
185.16579466
 31
0.0
  0
LINE
  5
542
330
1F
100
AcDbEntity
  8
0
 48
0.067879
370
    60
100
AcDbLine
 10
209.64642902
 20
188.62123574
 30
0.0
 11
212.7737724
 21
190.4268065
 31
0.0
  0
ARC
  5
543
330
1F
100
AcDbEntity
  8
0
370
    60
100
AcDbCircle
 10
208.64330844
 20
171.22560315
 30
0.0
 40
19.64044250000001
100
AcDbArc
 50
30.00000099999999
 51
77.85983299999998
  0
ARC
  5
544
330
1F
100
AcDbEntity
  8
0
370
    60
100
AcDbCircle
 10
208.64330844
 20
171.22560315
 30
0.0
 40
19.6404425
100
AcDbArc
 50
342.140186
 51
30.00000099999994
  0
LINE
  5
545
330
1F
100
AcDbEntity
  8
0
 48
0.067879
370
    60
100
AcDbLine
 10
224.20993168
 20
163.39651559
 30
0.0
 11
227.33727107
 21
165.20208236
 31
0.0
  0
LINE
  5
546
330
1F
100
AcDbEntity
  8
0
 48
0.075
370
    60
100
AcDbLine
 10
222.21493168
 20
166.85195534
 30
0.0
 11
224.20993168
 21
163.39651559
 31
0.0
  0
LINE
  5
547
330
1F
100
AcDbEntity
  8
0
 48
0.110625
370
    60
100
AcDbLine
 10
217.11815489
 20
163.90932901
 30
0.0
 11
222.21493168
 21
166.85195534
 31
0.0
  0
LINE
  5
548
330
1F
100
AcDbEntity
  8
0
 48
0.164342
370
    60
100
AcDbLine
 10
217.11815489
 20
163.90932901
 30
0.0
 11
221.48965608
 21
156.33766428
 31
0.0
  0
ARC
  5
549
330
1F
100
AcDbEntity
  8
0
370
    60
100
AcDbCircle
 10
264.52688535
 20
203.49
 30
0.0
 40
63.84
100
AcDbArc
 50
227.612451
 51
239.9273919999999
  0
ARC
  5
54A
330
1F
100
AcDbEntity
  8
0
370
    60
100
AcDbCircle
 10
264.52688535
 20
203.49
 30
0.0
 40
63.84
100
AcDbArc
 50
239.9273919999999
 51
252.3875619999999
  0
LINE
  5
54B
330
1F
100
AcDbEntity
  8
0
 48
0.164342
370
    60
100
AcDbLine
 10
245.21038164
 20
142.6425
 30
0.0
 11
253.95338535
 21
142.6425
 31
0.0
  0
LINE
  5
54C
330
1F
100
AcDbEntity
  8
0
 48
0.110625
370
    60
100
AcDbLine
 10
253.95338535
 20
142.6425
 30
0.0
 11
253.95338535
 21
148.52775133
 31
0.0
  0
LINE
  5
54D
330
1F
100
AcDbEntity
  8
0
 48
0.075
370
    60
100
AcDbLine
 10
249.96338535
 20
148.52775133
 30
0.0
 11
253.95338535
 21
148.52775133
 31
0.0
  0
LINE
  5
54E
330
1F
100
AcDbEntity
  8
0
 48
0.067879
370
    60
100
AcDbLine
 10
249.96338535
 20
148.52775133
 30
0.0
 11
249.96338535
 21
152.13889019
 31
0.0
  0
ARC
  5
54F
330
1F
100
AcDbEntity
  8
0
370
    60
100
AcDbCircle
 10
264.52688535
 20
138.96120497
 30
0.0
 40
19.6404425
100
AcDbArc
 50
90.00000300000004
 51
137.859842
  0
ARC
  5
550
330
1F
100
AcDbEntity
  8
0
370
    60
100
AcDbCircle
 10
264.52688535
 20
138.96120497
 30
0.0
 40
19.6404425
100
AcDbArc
 50
42.14016300000002
 51
90.00000300000004
  0
LINE
  5
551
330
1F
100
AcDbEntity
  8
0
 48
0.067879
370
    60
100
AcDbLine
 10
279.09038535
 20
148.52775133
 30
0.0
 11
279.09038535
 21
152.13889019
 31
0.0
  0
LINE
  5
552
330
1F
100
AcDbEntity
  8
0
 48
0.075
370
    60
100
AcDbLine
 10
275.10038535
 20
148.52775133
 30
0.0
 11
279.09038535
 21
148.52775133
 31
0.0
  0
LINE
  5
553
330
1F
100
AcDbEntity
  8
0
 48
0.110625
370
    60
100
AcDbLine
 10
275.10038535
 20
142.6425
 30
0.0
 11
275.10038535
 21
148.52775133
 31
0.0
  0
LINE
  5
554
330
1F
100
AcDbEntity
  8
0
 48
0.164342
370
    60
100
AcDbLine
 10
275.10038535
 20
142.6425
 30
0.0
 11
283.84338906
 21
142.6425
 31
0.0
  0
ARC
  5
555
330
1F
100
AcDbEntity
  8
0
370
    60
100
AcDbCircle
 10
264.52688535
 20
203.49
 30
0.0
 40
63.84
100
AcDbArc
 50
287.6124390000001
 51
312.387581
  0
CIRCLE
  5
556
330
1F
100
AcDbEntity
  8
0
370
    60
100
AcDbCircle
 10
264.52688535
 20
203.49
 30
0.0
 40
79.79999999999997
  0
LINE
  5
557
330
1F
100
AcDbEntity
  8
0
  6
DASHDOT
370
    60
100
AcDbLine
 10
61.03688535000001
 20
203.49
 30
0.0
 11
468.0168853500001
 21
203.49
 31
0.0
  0
LINE
  5
559
330
1F
100
AcDbEntity
  8
0
 48
0.1
370
    60
100
AcDbLine
 10
264.52688535
 20
190.43471468
 30
0.0
 11
264.52688535
 21
195.75471468
 31
0.0
  0
LINE
  5
55A
330
1F
100
AcDbEntity
  8
0
  6
DASHDOT
370
    60
100
AcDbLine
 10
264.52688535
 20
18.36558992651021
 30
0.0
 11
264.52688535
 21
380.14859596
 31
0.0
  0
LINE
  5
55B
330
1F
100
AcDbEntity
  8
0
 48
0.1
370
    60
100
AcDbLine
 10
264.52688535
 20
380.14859596
 30
0.0
 11
264.52688535
 21
385.46859064
 31
0.0
  0
ARC
  5
578
330
1F
100
AcDbEntity
  8
0
370
    60
100
AcDbCircle
 10
264.52688535
 20
268.0187946975
 30
0.0
 40
19.6404428325
100
AcDbArc
 50
273.882823
 51
295.9262820000001
  0
LINE
  5
594
330
1F
100
AcDbEntity
  8
0
 48
0.261233
370
    60
100
AcDbLine
 10
264.52688535
 20
381.4785903075
 30
0.0
 11
264.52688535
 21
391.9017770325
 31
0.0
  0
DIMENSION
  5
657
330
1F
100
AcDbEntity
  8
0
370
    25
100
AcDbDimension
  2
*D186
 10
433.9263153750001
 20
553.3184516776348
 30
0.0
 11
264.531934695
 21
565.3184516776348
 31
0.0
 70
    32
  1
Ø340
 71
     5
 41
2.5
 42
338.7887613600001
  3
ISO-25
100
AcDbAlignedDimension
 13
95.137554015
 23
429.0451615100001
 33
0.0
 14
433.9263153750001
 24
429.0451615100001
 34
0.0
100
AcDbRotatedDimension
1001
ACAD
1000
DSTYLE
1002
{
1070
    41
1040
10.0
1070
   140
1040
14.0
1070
   147
1040
5.0
1070
   176
1070
     7
1070
   177
1070
     7
1002
}
  0
DIMENSION
  5
6B1
330
1F
100
AcDbEntity
  8
0
370
    25
100
AcDbDimension
  2
*D195
 10
160.885952726946
 20
142.6425
 30
0.0
 11
148.885952726946
 21
203.49
 31
0.0
 70
   160
  1
122
 71
     5
 41
2.5
 42
121.695
  3
ISO-25
100
AcDbAlignedDimension
 13
253.95338535
 23
264.3375
 33
0.0
 14
249.581883495
 24
142.6425
 34
0.0
 50
90.0
100
AcDbRotatedDimension
1001
ACAD
1000
DSTYLE
1002
{
1070
    41
1040
10.0
1070
   140
1040
14.0
1070
   147
1040
5.0
1070
   176
1070
     7
1070
   177
1070
     7
1002
}
  0
DIMENSION
  5
8A3
330
1F
100
AcDbEntity
  8
0
370
    25
100
AcDbDimension
  2
*D205
 10
68.09457190481154
 20
414.08266151
 30
0.0
 11
56.09457190481154
 21
429.04516151
 31
0.0
 70
   160
  1
30
 71
     5
 41
2.5
 42
29.92500000000001
  3
ISO-25
100
AcDbAlignedDimension
 13
110.9750772438445
 23
444.00766151
 33
0.0
 14
110.9750772438445
 24
414.08266151
 34
0.0
 50
90.0
100
AcDbRotatedDimension
1001
ACAD
1000
DSTYLE
1002
{
1070
    41
1040
10.0
1070
   140
1040
14.0
1070
   147
1040
5.0
1070
   176
1070
     7
1070
   177
1070
     7
1002
}
  0
DIMENSION
  5
8DE
330
1F
100
AcDbEntity
  8
0
370
    25
100
AcDbDimension
  2
*D208
 10
16.09055479151624
 20
414.08266151
 30
0.0
 11
4.09055479151624
 21
473.93266151
 31
0.0
 70
    32
  1
120
 71
     5
 41
2.5
 42
119.7
  3
ISO-25
100
AcDbAlignedDimension
 13
211.7898823494433
 23
533.78266151
 33
0.0
 14
217.2639894140007
 24
414.08266151
 34
0.0
 50
90.0
100
AcDbRotatedDimension
1001
ACAD
1000
DSTYLE
1002
{
1070
    41
1040
10.0
1070
   140
1040
14.0
1070
   147
1040
5.0
1070
   176
1070
     7
1070
   177
1070
     7
1002
}
  0
VIEWPORT
  5
BB
330
73
100
AcDbEntity
 67
     1
  8
0
100
AcDbViewport
 10
7.8
 20
4.5
 30
0.0
 40
15.64
 41
9.0
 68
     1
 69
     1
 12
6.0
 22
4.5
 13
0.0
 23
0.0
 14
0.5
 24
0.5
 15
0.5
 25
0.5
 16
0.0
 26
0.0
 36
1.0
 17
0.0
 27
0.0
 37
0.0
 42
50.0
 43
0.0
 44
0.0
 45
12.0
 50
0.0
 51
0.0
 72
   100
 90
   557152
  1

281
     0
 71
     1
 74
     0
110
0.0
120
0.0
130
0.0
111
1.0
121
0.0
131
0.0
112
0.0
122
1.0
132
0.0
 79
     0
146
0.0
  0
ENDSEC
  0
SECTION
  2
OBJECTS
  0
DICTIONARY
  5
C
330
0
100
AcDbDictionary
281
     1
  3
ACAD_COLOR
350
6C
  3
ACAD_GROUP
350
D
  3
ACAD_LAYOUT
350
1A
  3
ACAD_MATERIAL
350
6B
  3
ACAD_MLEADERSTYLE
350
89C
  3
ACAD_MLINESTYLE
350
17
  3
ACAD_PLOTSETTINGS
350
19
  3
ACAD_PLOTSTYLENAME
350
E
  3
ACAD_SCALELIST
350
99
  3
ACAD_TABLESTYLE
350
92
  3
ACDBHEADERROUNDTRIPXREC
350
ABD
  3
AcDbVariableDictionary
350
59
  3
DWGPROPS
350
AC0
  0
DICTIONARY
  5
6C
102
{ACAD_REACTORS
330
C
102
}
330
C
100
AcDbDictionary
281
     1
  0
DICTIONARY
  5
D
102
{ACAD_REACTORS
330
C
102
}
330
C
100
AcDbDictionary
281
     1
  0
DICTIONARY
  5
1A
102
{ACAD_REACTORS
330
C
102
}
330
C
100
AcDbDictionary
281
     1
  3
Layout1
350
74
  3
Layout2
350
70C
  3
Model
350
22
  0
DICTIONARY
  5
6B
102
{ACAD_REACTORS
330
C
102
}
330
C
100
AcDbDictionary
281
     1
  0
DICTIONARY
  5
89C
102
{ACAD_REACTORS
330
C
102
}
330
C
100
AcDbDictionary
281
     1
  0
DICTIONARY
  5
17
102
{ACAD_REACTORS
330
C
102
}
330
C
100
AcDbDictionary
281
     1
  3
Standard
350
18
  0
DICTIONARY
  5
19
102
{ACAD_REACTORS
330
C
102
}
330
C
100
AcDbDictionary
281
     1
  0
ACDBDICTIONARYWDFLT
  5
E
102
{ACAD_REACTORS
330
C
102
}
330
C
100
AcDbDictionary
281
     1
  3
Normal
350
F
100
AcDbDictionaryWithDefault
340
F
  0
DICTIONARY
  5
99
102
{ACAD_REACTORS
330
C
102
}
330
C
100
AcDbDictionary
281
     1
  3
A0
350
D5
  3
A1
350
D6
  3
A2
350
D7
  3
A3
350
D8
  3
A4
350
D9
  3
A5
350
DA
  3
A6
350
DB
  3
A7
350
DC
  3
A8
350
DD
  3
A9
350
DE
  3
B0
350
DF
  3
B1
350
E0
  3
B2
350
E1
  3
B3
350
E2
  3
B4
350
E3
  3
B5
350
E4
  3
B6
350
E5
  3
B7
350
E6
  3
B8
350
E7
  3
B9
350
E8
  3
C0
350
E9
  3
C1
350
EA
  3
C2
350
EB
  3
C3
350
EC
  3
C4
350
ED
  3
C5
350
EE
  3
C6
350
EF
  3
C7
350
F0
  3
C8
350
F1
  3
C9
350
F2
  3
D0
350
F3
  3
D1
350
F4
  3
D2
350
F5
  0
DICTIONARY
  5
92
102
{ACAD_REACTORS
330
C
102
}
330
C
100
AcDbDictionary
281
     1
  0
DICTIONARY
  5
ABD
102
{ACAD_REACTORS
330
C
102
}
330
C
100
AcDbDictionary
281
     1
  3
COLORDICT
350
ABE
  3
MATERIALDICT
350
ABF
  0
DICTIONARY
  5
59
102
{ACAD_REACTORS
330
C
102
}
330
C
100
AcDbDictionary
281
     1
  3
CTABLESTYLE
350
98
  3
DIMASSOC
350
5A
  3
HIDETEXT
350
5E
  0
XRECORD
  5
AC0
102
{ACAD_REACTORS
330
C
102
}
330
C
100
AcDbXrecord
280
     1
  1
DWGPROPS COOKIE
  2

  3

  4

  6

  7

  8
BelottiMc
  9

300
=
301
=
302
=
303
=
304
=
305
=
306
=
307
=
308
=
309
=
 40
0.0
 41
2455090.420548982
 42
2455090.462215625
  1

 90
        0
  0
LAYOUT
  5
74
102
{ACAD_REACTORS
330
1A
102
}
330
1A
100
AcDbPlotSettings
  1

  2
ProgeSOFT PDF Wizard
  4
A4
  6

 40
5.926666666666667
 41
6.011333333333317
 42
6.095999999999985
 43
5.926666666666667
 44
210.0
 45
297.0
 46
88.56200000000001
 47
136.531
 48
0.0
 49
0.0
140
0.0
141
0.0
142
1.0
143
1.0
 70
   692
 72
     1
 73
     0
 74
     0
  7

 75
    16
147
1.0
148
4.426666666666668
149
1.5
100
AcDbLayout
  1
Layout1
 70
     1
 71
     1
 10
0.0
 20
0.0
 11
0.0
 21
0.0
 12
0.0
 22
0.0
 32
0.0
 14
0.0
 24
0.0
 34
0.0
 15
0.0
 25
0.0
 35
0.0
146
0.0
 13
0.0
 23
0.0
 33
0.0
 16
1.0
 26
0.0
 36
0.0
 17
0.0
 27
1.0
 37
0.0
 76
     0
330
D1
331
89B
1001
PROGE_PRINT_SETTINGS
1070
    73
1070
     1
  0
LAYOUT
  5
70C
102
{ACAD_REACTORS
330
1A
102
}
330
1A
100
AcDbPlotSettings
  1

  2
ProgeSOFT PDF Wizard
  4
A4
  6

 40
5.926666666666667
 41
6.011333333333317
 42
6.095999999999985
 43
5.926666666666667
 44
210.0
 45
297.0
 46
88.562
 47
136.531
 48
0.0
 49
0.0
140
0.0
141
0.0
142
1.0
143
1.0
 70
   692
 72
     1
 73
     0
 74
     0
  7

 75
    16
147
1.0
148
0.0
149
0.0
100
AcDbLayout
  1
Layout2
 70
     1
 71
     2
 10
0.0
 20
0.0
 11
12.0
 21
9.0
 12
0.0
 22
0.0
 32
0.0
 14
0.0
 24
0.0
 34
0.0
 15
12.0
 25
9.0
 35
0.0
146
0.0
 13
0.0
 23
0.0
 33
0.0
 16
1.0
 26
0.0
 36
0.0
 17
0.0
 27
1.0
 37
0.0
 76
     0
330
73
331
BB
1001
PROGE_PRINT_SETTINGS
1070
    73
1070
     1
  0
LAYOUT
  5
22
102
{ACAD_REACTORS
330
1A
102
}
330
1A
100
AcDbPlotSettings
  1

  2
ProgeSOFT PDF Wizard
  4
A4
  6

 40
5.926666666666667
 41
6.011333333333317
 42
6.095999999999985
 43
5.926666666666667
 44
210.0
 45
297.0
 46
13.37559707263191
 47
0.0000000000000167
 48
0.0
 49
0.0
140
0.0
141
0.0
142
1.0
143
1.86225501563307
 70
 11956
 72
     1
 73
     1
 74
     0
  7

 75
     0
147
0.5369833839110655
148
155.3663435667788
149
-304.9300581983436
100
AcDbLayout
  1
Model
 70
     1
 71
     0
 10
0.0
 20
0.0
 11
0.0
 21
0.0
 12
0.0
 22
0.0
 32
0.0
 14
-17.68789565588108
 24
18.36558992651021
 34
0.0
 15
468.0168853500001
 25
572.3184516776348
 35
0.0
146
0.0
 13
0.0
 23
0.0
 33
0.0
 16
1.0
 26
0.0
 36
0.0
 17
0.0
 27
1.0
 37
0.0
 76
     0
330
1F
331
97
  0
MLINESTYLE
  5
18
102
{ACAD_REACTORS
330
17
102
}
330
17
100
AcDbMlineStyle
  2
STANDARD
 70
     0
  3

 62
   256
 51
90.0
 52
90.0
 71
     2
 49
0.5
 62
   256
  6
BYLAYER
 49
-0.5
 62
   256
  6
BYLAYER
  0
ACDBPLACEHOLDER
  5
F
102
{ACAD_REACTORS
330
E
102
}
330
E
  0
SCALE
  5
D5
102
{ACAD_REACTORS
330
99
102
}
330
99
100
AcDbScale
 70
     0
300
1:1
140
1.0
141
1.0
290
     1
  0
SCALE
  5
D6
102
{ACAD_REACTORS
330
99
102
}
330
99
100
AcDbScale
 70
     0
300
1:2
140
1.0
141
2.0
290
     0
  0
SCALE
  5
D7
102
{ACAD_REACTORS
330
99
102
}
330
99
100
AcDbScale
 70
     0
300
1:4
140
1.0
141
4.0
290
     0
  0
SCALE
  5
D8
102
{ACAD_REACTORS
330
99
102
}
330
99
100
AcDbScale
 70
     0
300
1:5
140
1.0
141
5.0
290
     0
  0
SCALE
  5
D9
102
{ACAD_REACTORS
330
99
102
}
330
99
100
AcDbScale
 70
     0
300
1:8
140
1.0
141
8.0
290
     0
  0
SCALE
  5
DA
102
{ACAD_REACTORS
330
99
102
}
330
99
100
AcDbScale
 70
     0
300
1:10
140
1.0
141
10.0
290
     0
  0
SCALE
  5
DB
102
{ACAD_REACTORS
330
99
102
}
330
99
100
AcDbScale
 70
     0
300
1:16
140
1.0
141
16.0
290
     0
  0
SCALE
  5
DC
102
{ACAD_REACTORS
330
99
102
}
330
99
100
AcDbScale
 70
     0
300
1:20
140
1.0
141
20.0
290
     0
  0
SCALE
  5
DD
102
{ACAD_REACTORS
330
99
102
}
330
99
100
AcDbScale
 70
     0
300
1:30
140
1.0
141
30.0
290
     0
  0
SCALE
  5
DE
102
{ACAD_REACTORS
330
99
102
}
330
99
100
AcDbScale
 70
     0
300
1:40
140
1.0
141
40.0
290
     0
  0
SCALE
  5
DF
102
{ACAD_REACTORS
330
99
102
}
330
99
100
AcDbScale
 70
     0
300
1:50
140
1.0
141
50.0
290
     0
  0
SCALE
  5
E0
102
{ACAD_REACTORS
330
99
102
}
330
99
100
AcDbScale
 70
     0
300
1:100
140
1.0
141
100.0
290
     0
  0
SCALE
  5
E1
102
{ACAD_REACTORS
330
99
102
}
330
99
100
AcDbScale
 70
     0
300
2:1
140
2.0
141
1.0
290
     0
  0
SCALE
  5
E2
102
{ACAD_REACTORS
330
99
102
}
330
99
100
AcDbScale
 70
     0
300
4:1
140
4.0
141
1.0
290
     0
  0
SCALE
  5
E3
102
{ACAD_REACTORS
330
99
102
}
330
99
100
AcDbScale
 70
     0
300
8:1
140
8.0
141
1.0
290
     0
  0
SCALE
  5
E4
102
{ACAD_REACTORS
330
99
102
}
330
99
100
AcDbScale
 70
     0
300
10:1
140
10.0
141
1.0
290
     0
  0
SCALE
  5
E5
102
{ACAD_REACTORS
330
99
102
}
330
99
100
AcDbScale
 70
     0
300
100:1
140
100.0
141
1.0
290
     0
  0
SCALE
  5
E6
102
{ACAD_REACTORS
330
99
102
}
330
99
100
AcDbScale
 70
     0
300
1/128" = 1'-0"
140
0.0078125
141
12.0
290
     0
  0
SCALE
  5
E7
102
{ACAD_REACTORS
330
99
102
}
330
99
100
AcDbScale
 70
     0
300
1/64" = 1'-0"
140
0.015625
141
12.0
290
     0
  0
SCALE
  5
E8
102
{ACAD_REACTORS
330
99
102
}
330
99
100
AcDbScale
 70
     0
300
1/32" = 1'-0"
140
0.03125
141
12.0
290
     0
  0
SCALE
  5
E9
102
{ACAD_REACTORS
330
99
102
}
330
99
100
AcDbScale
 70
     0
300
1/16" = 1'-0"
140
0.0625
141
12.0
290
     0
  0
SCALE
  5
EA
102
{ACAD_REACTORS
330
99
102
}
330
99
100
AcDbScale
 70
     0
300
3/32" = 1'-0"
140
0.09375
141
12.0
290
     0
  0
SCALE
  5
EB
102
{ACAD_REACTORS
330
99
102
}
330
99
100
AcDbScale
 70
     0
300
1/8" = 1'-0"
140
0.125
141
12.0
290
     0
  0
SCALE
  5
EC
102
{ACAD_REACTORS
330
99
102
}
330
99
100
AcDbScale
 70
     0
300
3/16" = 1'-0"
140
0.1875
141
12.0
290
     0
  0
SCALE
  5
ED
102
{ACAD_REACTORS
330
99
102
}
330
99
100
AcDbScale
 70
     0
300
1/4" = 1'-0"
140
0.25
141
12.0
290
     0
  0
SCALE
  5
EE
102
{ACAD_REACTORS
330
99
102
}
330
99
100
AcDbScale
 70
     0
300
3/8" = 1'-0"
140
0.375
141
12.0
290
     0
  0
SCALE
  5
EF
102
{ACAD_REACTORS
330
99
102
}
330
99
100
AcDbScale
 70
     0
300
1/2" = 1'-0"
140
0.5
141
12.0
290
     0
  0
SCALE
  5
F0
102
{ACAD_REACTORS
330
99
102
}
330
99
100
AcDbScale
 70
     0
300
3/4" = 1'-0"
140
0.75
141
12.0
290
     0
  0
SCALE
  5
F1
102
{ACAD_REACTORS
330
99
102
}
330
99
100
AcDbScale
 70
     0
300
1" = 1'-0"
140
1.0
141
12.0
290
     0
  0
SCALE
  5
F2
102
{ACAD_REACTORS
330
99
102
}
330
99
100
AcDbScale
 70
     0
300
1-1/2" = 1'-0"
140
1.5
141
12.0
290
     0
  0
SCALE
  5
F3
102
{ACAD_REACTORS
330
99
102
}
330
99
100
AcDbScale
 70
     0
300
3" = 1'-0"
140
3.0
141
12.0
290
     0
  0
SCALE
  5
F4
102
{ACAD_REACTORS
330
99
102
}
330
99
100
AcDbScale
 70
     0
300
6" = 1'-0"
140
6.0
141
12.0
290
     0
  0
SCALE
  5
F5
102
{ACAD_REACTORS
330
99
102
}
330
99
100
AcDbScale
 70
     0
300
1'-0" = 1'-0"
140
12.0
141
12.0
290
     0
  0
XRECORD
  5
ABE
102
{ACAD_REACTORS
330
ABD
102
}
330
ABD
100
AcDbXrecord
280
     1
340
6C
  0
XRECORD
  5
ABF
102
{ACAD_REACTORS
330
ABD
102
}
330
ABD
100
AcDbXrecord
280
     1
340
6B
  0
DICTIONARYVAR
  5
98
102
{ACAD_REACTORS
330
59
102
}
330
59
100
DictionaryVariables
280
     0
  1
Standard
  0
DICTIONARYVAR
  5
5A
102
{ACAD_REACTORS
330
59
102
}
330
59
100
DictionaryVariables
280
     0
  1
2
  0
DICTIONARYVAR
  5
5E
102
{ACAD_REACTORS
330
59
102
}
330
59
100
DictionaryVariables
280
     0
  1
1
  0
ENDSEC
  0
EOF
