  0
SECTION
  2
HEADER
  9
$ACADVER
  1
AC1015
  9
$ACADMAINTVER
 70
     6
  9
$DWGCODEPAGE
  3
ANSI_1252
  9
$INSBASE
 10
0.0
 20
0.0
 30
0.0
  9
$EXTMIN
 10
182.6432055645997
 20
69.8948497854077
 30
0.0
  9
$EXTMAX
 10
403.6305405645987
 20
859.7001509188481
 30
0.0
  9
$LIMMIN
 10
0.0
 20
0.0
  9
$LIMMAX
 10
0.0
 20
0.0
  9
$ORTHOMODE
 70
     0
  9
$REGENMODE
 70
     1
  9
$FILLMODE
 70
     1
  9
$QTEXTMODE
 70
     0
  9
$MIRRTEXT
 70
     0
  9
$LTSCALE
 40
1.0
  9
$ATTMODE
 70
     1
  9
$TEXTSIZE
 40
2.5
  9
$TRACEWID
 40
1.0
  9
$TEXTSTYLE
  7
Standard
  9
$CLAYER
  8
0
  9
$CELTYPE
  6
ByLayer
  9
$CECOLOR
 62
   256
  9
$CELTSCALE
 40
1.0
  9
$DISPSILH
 70
     0
  9
$DIMSCALE
 40
1.0
  9
$DIMASZ
 40
2.5
  9
$DIMEXO
 40
0.625
  9
$DIMDLI
 40
3.75
  9
$DIMRND
 40
0.0
  9
$DIMDLE
 40
0.0
  9
$DIMEXE
 40
1.25
  9
$DIMTP
 40
0.0
  9
$DIMTM
 40
0.0
  9
$DIMTXT
 40
2.5
  9
$DIMCEN
 40
2.5
  9
$DIMTSZ
 40
0.0
  9
$DIMTOL
 70
     0
  9
$DIMLIM
 70
     0
  9
$DIMTIH
 70
     0
  9
$DIMTOH
 70
     0
  9
$DIMSE1
 70
     0
  9
$DIMSE2
 70
     0
  9
$DIMTAD
 70
     1
  9
$DIMZIN
 70
     8
  9
$DIMBLK
  1

  9
$DIMASO
 70
     1
  9
$DIMSHO
 70
     1
  9
$DIMPOST
  1

  9
$DIMAPOST
  1

  9
$DIMALT
 70
     0
  9
$DIMALTD
 70
     3
  9
$DIMALTF
 40
0.03937007874016
  9
$DIMLFAC
 40
1.0
  9
$DIMTOFL
 70
     1
  9
$DIMTVP
 40
0.0
  9
$DIMTIX
 70
     0
  9
$DIMSOXD
 70
     0
  9
$DIMSAH
 70
     0
  9
$DIMBLK1
  1

  9
$DIMBLK2
  1

  9
$DIMSTYLE
  2
ISO-25
  9
$DIMCLRD
 70
     0
  9
$DIMCLRE
 70
     0
  9
$DIMCLRT
 70
     0
  9
$DIMTFAC
 40
1.0
  9
$DIMGAP
 40
0.625
  9
$DIMJUST
 70
     0
  9
$DIMSD1
 70
     0
  9
$DIMSD2
 70
     0
  9
$DIMTOLJ
 70
     0
  9
$DIMTZIN
 70
     8
  9
$DIMALTZ
 70
     0
  9
$DIMALTTZ
 70
     0
  9
$DIMUPT
 70
     0
  9
$DIMDEC
 70
     2
  9
$DIMTDEC
 70
     2
  9
$DIMALTU
 70
     2
  9
$DIMALTTD
 70
     3
  9
$DIMTXSTY
  7
Standard
  9
$DIMAUNIT
 70
     0
  9
$DIMADEC
 70
     0
  9
$DIMALTRND
 40
0.0
  9
$DIMAZIN
 70
     0
  9
$DIMDSEP
 70
    44
  9
$DIMATFIT
 70
     3
  9
$DIMFRAC
 70
     0
  9
$DIMLDRBLK
  1

  9
$DIMLUNIT
 70
     2
  9
$DIMLWD
 70
    -2
  9
$DIMLWE
 70
    -2
  9
$DIMTMOVE
 70
     0
  9
$LUNITS
 70
     2
  9
$LUPREC
 70
     4
  9
$SKETCHINC
 40
1.0
  9
$FILLETRAD
 40
0.0
  9
$AUNITS
 70
     0
  9
$AUPREC
 70
     0
  9
$MENU
  1
.
  9
$ELEVATION
 40
0.0
  9
$PELEVATION
 40
0.0
  9
$THICKNESS
 40
0.0
  9
$LIMCHECK
 70
     0
  9
$CHAMFERA
 40
0.0
  9
$CHAMFERB
 40
0.0
  9
$CHAMFERC
 40
0.0
  9
$CHAMFERD
 40
0.0
  9
$SKPOLY
 70
     0
  9
$TDCREATE
 40
2455090.618439248
  9
$TDUCREATE
 40
2455090.535105914
  9
$TDUPDATE
 40
2455090.660105891
  9
$TDUUPDATE
 40
2455090.576772558
  9
$TDINDWG
 40
0.0748080671
  9
$TDUSRTIMER
 40
0.0747940856
  9
$USRTIMER
 70
     1
  9
$ANGBASE
 50
0.0
  9
$ANGDIR
 70
     0
  9
$PDMODE
 70
     0
  9
$PDSIZE
 40
0.0
  9
$PLINEWID
 40
0.0
  9
$SPLFRAME
 70
     0
  9
$SPLINETYPE
 70
     6
  9
$SPLINESEGS
 70
     8
  9
$HANDSEED
  5
88E
  9
$SURFTAB1
 70
     6
  9
$SURFTAB2
 70
     6
  9
$SURFTYPE
 70
     6
  9
$SURFU
 70
     6
  9
$SURFV
 70
     6
  9
$UCSBASE
  2

  9
$UCSNAME
  2

  9
$UCSORG
 10
0.0
 20
0.0
 30
0.0
  9
$UCSXDIR
 10
1.0
 20
0.0
 30
0.0
  9
$UCSYDIR
 10
0.0
 20
1.0
 30
0.0
  9
$UCSORTHOREF
  2

  9
$UCSORTHOVIEW
 70
     0
  9
$UCSORGTOP
 10
0.0
 20
0.0
 30
0.0
  9
$UCSORGBOTTOM
 10
0.0
 20
0.0
 30
0.0
  9
$UCSORGLEFT
 10
0.0
 20
0.0
 30
0.0
  9
$UCSORGRIGHT
 10
0.0
 20
0.0
 30
0.0
  9
$UCSORGFRONT
 10
0.0
 20
0.0
 30
0.0
  9
$UCSORGBACK
 10
0.0
 20
0.0
 30
0.0
  9
$PUCSBASE
  2

  9
$PUCSNAME
  2

  9
$PUCSORG
 10
0.0
 20
0.0
 30
0.0
  9
$PUCSXDIR
 10
1.0
 20
0.0
 30
0.0
  9
$PUCSYDIR
 10
0.0
 20
1.0
 30
0.0
  9
$PUCSORTHOREF
  2

  9
$PUCSORTHOVIEW
 70
     0
  9
$PUCSORGTOP
 10
0.0
 20
0.0
 30
0.0
  9
$PUCSORGBOTTOM
 10
0.0
 20
0.0
 30
0.0
  9
$PUCSORGLEFT
 10
0.0
 20
0.0
 30
0.0
  9
$PUCSORGRIGHT
 10
0.0
 20
0.0
 30
0.0
  9
$PUCSORGFRONT
 10
0.0
 20
0.0
 30
0.0
  9
$PUCSORGBACK
 10
0.0
 20
0.0
 30
0.0
  9
$USERI1
 70
     0
  9
$USERI2
 70
     0
  9
$USERI3
 70
     0
  9
$USERI4
 70
     0
  9
$USERI5
 70
     0
  9
$USERR1
 40
0.0
  9
$USERR2
 40
0.0
  9
$USERR3
 40
0.0
  9
$USERR4
 40
0.0
  9
$USERR5
 40
0.0
  9
$WORLDVIEW
 70
     1
  9
$SHADEDGE
 70
     3
  9
$SHADEDIF
 70
    70
  9
$TILEMODE
 70
     1
  9
$MAXACTVP
 70
    64
  9
$PINSBASE
 10
0.0
 20
0.0
 30
0.0
  9
$PLIMCHECK
 70
     0
  9
$PEXTMIN
 10
0.0
 20
0.0
 30
0.0
  9
$PEXTMAX
 10
12.0
 20
9.0
 30
0.0
  9
$PLIMMIN
 10
0.0
 20
0.0
  9
$PLIMMAX
 10
12.0
 20
9.0
  9
$UNITMODE
 70
     0
  9
$VISRETAIN
 70
     1
  9
$PLINEGEN
 70
     0
  9
$PSLTSCALE
 70
     1
  9
$TREEDEPTH
 70
  3020
  9
$CMLSTYLE
  2
Standard
  9
$CMLJUST
 70
     0
  9
$CMLSCALE
 40
20.0
  9
$PROXYGRAPHICS
 70
     1
  9
$MEASUREMENT
 70
     1
  9
$CELWEIGHT
370
    -1
  9
$ENDCAPS
280
     0
  9
$JOINSTYLE
280
     0
  9
$LWDISPLAY
290
     0
  9
$INSUNITS
 70
     4
  9
$HYPERLINKBASE
  1

  9
$STYLESHEET
  1

  9
$XEDIT
290
     1
  9
$CEPSNTYPE
380
     0
  9
$PSTYLEMODE
290
     1
  9
$FINGERPRINTGUID
  2
{5559452E-1E62-4159-8551-BF76FFF3E7E8}
  9
$VERSIONGUID
  2
{3CEB9EF8-4431-4551-B596-6734A9F966A9}
  9
$EXTNAMES
290
     1
  9
$PSVPSCALE
 40
0.0
  9
$OLESTARTUP
290
     0
  0
ENDSEC
  0
SECTION
  2
CLASSES
  0
CLASS
  1
ACDBDICTIONARYWDFLT
  2
AcDbDictionaryWithDefault
  3
ObjectDBX Classes
 90
        0
280
     0
281
     0
  0
CLASS
  1
ACDBPLACEHOLDER
  2
AcDbPlaceHolder
  3
ObjectDBX Classes
 90
        0
280
     0
281
     0
  0
CLASS
  1
LAYOUT
  2
AcDbLayout
  3
ObjectDBX Classes
 90
        0
280
     0
281
     0
  0
CLASS
  1
DICTIONARYVAR
  2
AcDbDictionaryVar
  3
ObjectDBX Classes
 90
        0
280
     0
281
     0
  0
CLASS
  1
TABLESTYLE
  2
AcDbTableStyle
  3
ObjectDBX Classes
 90
     4095
280
     0
281
     0
  0
CLASS
  1
SCALE
  2
AcDbScale
  3
ObjectDBX Classes
 90
     1153
280
     0
281
     0
  0
ENDSEC
  0
SECTION
  2
TABLES
  0
TABLE
  2
VPORT
  5
8
330
0
100
AcDbSymbolTable
 70
     2
  0
VPORT
  5
97
330
8
100
AcDbSymbolTableRecord
100
AcDbViewportTableRecord
  2
*Active
 70
     0
 10
0.0
 20
0.0
 11
1.0
 21
1.0
 12
310.1142119344545
 22
239.5297027706413
 13
0.0
 23
0.0
 14
10.0
 24
10.0
 15
10.0
 25
10.0
 16
0.0
 26
0.0
 36
1.0
 17
0.0
 27
0.0
 37
0.0
 40
1680.121096300609
 41
1.664827586206897
 42
50.0
 43
0.0
 44
0.0
 50
0.0
 51
0.0
 71
     0
 72
  1000
 73
     1
 74
     3
 75
     0
 76
     0
 77
     0
 78
     0
281
     0
 65
     1
110
0.0
120
0.0
130
0.0
111
1.0
121
0.0
131
0.0
112
0.0
122
1.0
132
0.0
 79
     0
146
0.0
  0
ENDTAB
  0
TABLE
  2
LTYPE
  5
5
330
0
100
AcDbSymbolTable
 70
     2
  0
LTYPE
  5
14
330
5
100
AcDbSymbolTableRecord
100
AcDbLinetypeTableRecord
  2
ByBlock
 70
     0
  3

 72
    65
 73
     0
 40
0.0
  0
LTYPE
  5
15
330
5
100
AcDbSymbolTableRecord
100
AcDbLinetypeTableRecord
  2
ByLayer
 70
     0
  3

 72
    65
 73
     0
 40
0.0
  0
LTYPE
  5
16
330
5
100
AcDbSymbolTableRecord
100
AcDbLinetypeTableRecord
  2
Continuous
 70
     0
  3
Solid line
 72
    65
 73
     0
 40
0.0
  0
LTYPE
  5
83B
330
5
100
AcDbSymbolTableRecord
100
AcDbLinetypeTableRecord
  2
DASHDOT
 70
     0
  3
DASHDOT
 72
    65
 73
     4
 40
1.0
 49
0.5
 74
     0
 49
-0.25
 74
     0
 49
0.0
 74
     0
 49
-0.25
 74
     0
  0
ENDTAB
  0
TABLE
  2
LAYER
  5
2
330
0
100
AcDbSymbolTable
 70
     2
  0
LAYER
  5
10
330
2
100
AcDbSymbolTableRecord
100
AcDbLayerTableRecord
  2
0
 70
     0
 62
     7
  6
Continuous
370
    -3
390
F
  0
LAYER
  5
5E2
330
2
100
AcDbSymbolTableRecord
100
AcDbLayerTableRecord
  2
DEFPOINTS
 70
     0
 62
     7
  6
Continuous
290
     0
370
    -3
390
F
  0
ENDTAB
  0
TABLE
  2
STYLE
  5
3
330
0
100
AcDbSymbolTable
 70
     1
  0
STYLE
  5
11
330
3
100
AcDbSymbolTableRecord
100
AcDbTextStyleTableRecord
  2
Standard
 70
     0
 40
0.0
 41
1.0
 50
0.0
 71
     0
 42
2.5
  3
txt
  4

  0
ENDTAB
  0
TABLE
  2
VIEW
  5
6
330
0
100
AcDbSymbolTable
 70
     0
  0
ENDTAB
  0
TABLE
  2
UCS
  5
7
330
0
100
AcDbSymbolTable
 70
     0
  0
ENDTAB
  0
TABLE
  2
APPID
  5
9
330
0
100
AcDbSymbolTable
 70
     3
  0
APPID
  5
12
330
9
100
AcDbSymbolTableRecord
100
AcDbRegAppTableRecord
  2
ACAD
 70
     0
  0
APPID
  5
839
330
9
100
AcDbSymbolTableRecord
100
AcDbRegAppTableRecord
  2
PROGE_PRINT_SETTINGS
 70
     0
  0
APPID
  5
83A
330
9
100
AcDbSymbolTableRecord
100
AcDbRegAppTableRecord
  2
Conv5506CA
 70
     0
  0
ENDTAB
  0
TABLE
  2
DIMSTYLE
  5
A
330
0
100
AcDbSymbolTable
 70
     2
100
AcDbDimStyleTable
  0
DIMSTYLE
105
27
330
A
100
AcDbSymbolTableRecord
100
AcDbDimStyleTableRecord
  2
Standard
 70
     0
278
     0
340
11
  0
DIMSTYLE
105
29
102
{ACAD_REACTORS
330
5EF
330
632
330
680
330
731
102
}
330
A
100
AcDbSymbolTableRecord
100
AcDbDimStyleTableRecord
  2
ISO-25
 70
     0
 41
2.5
 42
0.625
 43
3.75
 44
1.25
 73
     0
 74
     0
 77
     1
 78
     8
140
2.5
141
2.5
143
0.03937007874016
147
0.625
171
     3
172
     1
271
     2
272
     2
274
     3
278
    44
283
     0
284
     8
340
11
  0
ENDTAB
  0
TABLE
  2
BLOCK_RECORD
  5
1
330
0
100
AcDbSymbolTable
 70
    39
  0
BLOCK_RECORD
  5
1F
330
1
100
AcDbSymbolTableRecord
100
AcDbBlockTableRecord
  2
*Model_Space
340
22
  0
BLOCK_RECORD
  5
73
330
1
100
AcDbSymbolTableRecord
100
AcDbBlockTableRecord
  2
*Paper_Space
340
76D
  0
BLOCK_RECORD
  5
D1
330
1
100
AcDbSymbolTableRecord
100
AcDbBlockTableRecord
  2
*Paper_Space0
340
74
  0
BLOCK_RECORD
  5
5EE
330
1
100
AcDbSymbolTableRecord
100
AcDbBlockTableRecord
  2
*D1
340
0
  0
BLOCK_RECORD
  5
5FA
330
1
100
AcDbSymbolTableRecord
100
AcDbBlockTableRecord
  2
*D2
340
0
  0
BLOCK_RECORD
  5
605
330
1
100
AcDbSymbolTableRecord
100
AcDbBlockTableRecord
  2
*D3
340
0
  0
BLOCK_RECORD
  5
610
330
1
100
AcDbSymbolTableRecord
100
AcDbBlockTableRecord
  2
*D4
340
0
  0
BLOCK_RECORD
  5
61B
330
1
100
AcDbSymbolTableRecord
100
AcDbBlockTableRecord
  2
*D5
340
0
  0
BLOCK_RECORD
  5
626
330
1
100
AcDbSymbolTableRecord
100
AcDbBlockTableRecord
  2
*D6
340
0
  0
BLOCK_RECORD
  5
631
330
1
100
AcDbSymbolTableRecord
100
AcDbBlockTableRecord
  2
*D7
340
0
  0
BLOCK_RECORD
  5
63D
330
1
100
AcDbSymbolTableRecord
100
AcDbBlockTableRecord
  2
*D8
340
0
  0
BLOCK_RECORD
  5
648
330
1
100
AcDbSymbolTableRecord
100
AcDbBlockTableRecord
  2
*D9
340
0
  0
BLOCK_RECORD
  5
653
330
1
100
AcDbSymbolTableRecord
100
AcDbBlockTableRecord
  2
*D10
340
0
  0
BLOCK_RECORD
  5
65E
330
1
100
AcDbSymbolTableRecord
100
AcDbBlockTableRecord
  2
*D11
340
0
  0
BLOCK_RECORD
  5
669
330
1
100
AcDbSymbolTableRecord
100
AcDbBlockTableRecord
  2
*D12
340
0
  0
BLOCK_RECORD
  5
674
330
1
100
AcDbSymbolTableRecord
100
AcDbBlockTableRecord
  2
*D13
340
0
  0
BLOCK_RECORD
  5
67F
330
1
100
AcDbSymbolTableRecord
100
AcDbBlockTableRecord
  2
*D14
340
0
  0
BLOCK_RECORD
  5
68B
330
1
100
AcDbSymbolTableRecord
100
AcDbBlockTableRecord
  2
*D15
340
0
  0
BLOCK_RECORD
  5
696
330
1
100
AcDbSymbolTableRecord
100
AcDbBlockTableRecord
  2
*D16
340
0
  0
BLOCK_RECORD
  5
6A1
330
1
100
AcDbSymbolTableRecord
100
AcDbBlockTableRecord
  2
*D17
340
0
  0
BLOCK_RECORD
  5
6AC
330
1
100
AcDbSymbolTableRecord
100
AcDbBlockTableRecord
  2
*D18
340
0
  0
BLOCK_RECORD
  5
6B7
330
1
100
AcDbSymbolTableRecord
100
AcDbBlockTableRecord
  2
*D19
340
0
  0
BLOCK_RECORD
  5
6C2
330
1
100
AcDbSymbolTableRecord
100
AcDbBlockTableRecord
  2
*D20
340
0
  0
BLOCK_RECORD
  5
6CD
330
1
100
AcDbSymbolTableRecord
100
AcDbBlockTableRecord
  2
*D21
340
0
  0
BLOCK_RECORD
  5
6D8
330
1
100
AcDbSymbolTableRecord
100
AcDbBlockTableRecord
  2
*D22
340
0
  0
BLOCK_RECORD
  5
6E3
330
1
100
AcDbSymbolTableRecord
100
AcDbBlockTableRecord
  2
*D23
340
0
  0
BLOCK_RECORD
  5
6EE
330
1
100
AcDbSymbolTableRecord
100
AcDbBlockTableRecord
  2
*D24
340
0
  0
BLOCK_RECORD
  5
6F9
330
1
100
AcDbSymbolTableRecord
100
AcDbBlockTableRecord
  2
*D25
340
0
  0
BLOCK_RECORD
  5
704
330
1
100
AcDbSymbolTableRecord
100
AcDbBlockTableRecord
  2
*D26
340
0
  0
BLOCK_RECORD
  5
70F
330
1
100
AcDbSymbolTableRecord
100
AcDbBlockTableRecord
  2
*D27
340
0
  0
BLOCK_RECORD
  5
71A
330
1
100
AcDbSymbolTableRecord
100
AcDbBlockTableRecord
  2
*D28
340
0
  0
BLOCK_RECORD
  5
725
330
1
100
AcDbSymbolTableRecord
100
AcDbBlockTableRecord
  2
*D29
340
0
  0
BLOCK_RECORD
  5
730
330
1
100
AcDbSymbolTableRecord
100
AcDbBlockTableRecord
  2
*D30
340
0
  0
BLOCK_RECORD
  5
73C
330
1
100
AcDbSymbolTableRecord
100
AcDbBlockTableRecord
  2
*D31
340
0
  0
BLOCK_RECORD
  5
747
330
1
100
AcDbSymbolTableRecord
100
AcDbBlockTableRecord
  2
*D32
340
0
  0
BLOCK_RECORD
  5
752
330
1
100
AcDbSymbolTableRecord
100
AcDbBlockTableRecord
  2
*D33
340
0
  0
BLOCK_RECORD
  5
75D
330
1
100
AcDbSymbolTableRecord
100
AcDbBlockTableRecord
  2
*D34
340
0
  0
BLOCK_RECORD
  5
768
330
1
100
AcDbSymbolTableRecord
100
AcDbBlockTableRecord
  2
*D35
340
0
  0
BLOCK_RECORD
  5
7C9
330
1
100
AcDbSymbolTableRecord
100
AcDbBlockTableRecord
  2
*D36
340
0
  0
BLOCK_RECORD
  5
7D4
330
1
100
AcDbSymbolTableRecord
100
AcDbBlockTableRecord
  2
*D37
340
0
  0
BLOCK_RECORD
  5
7DF
330
1
100
AcDbSymbolTableRecord
100
AcDbBlockTableRecord
  2
*D38
340
0
  0
ENDTAB
  0
ENDSEC
  0
SECTION
  2
BLOCKS
  0
BLOCK
  5
20
330
1F
100
AcDbEntity
  8
0
100
AcDbBlockBegin
  2
*Model_Space
 70
     0
 10
0.0
 20
0.0
 30
0.0
  3
*Model_Space
  1

  0
ENDBLK
  5
21
330
1F
100
AcDbEntity
  8
0
100
AcDbBlockEnd
  0
BLOCK
  5
75
330
73
100
AcDbEntity
 67
     1
  8
0
100
AcDbBlockBegin
  2
*Paper_Space
 70
     0
 10
0.0
 20
0.0
 30
0.0
  3
*Paper_Space
  1

  0
ENDBLK
  5
76
330
73
100
AcDbEntity
 67
     1
  8
0
100
AcDbBlockEnd
  0
BLOCK
  5
83C
330
D1
100
AcDbEntity
  8
0
100
AcDbBlockBegin
  2
*Paper_Space0
 70
     0
 10
0.0
 20
0.0
 30
0.0
  3
*Paper_Space0
  1

  0
VIEWPORT
  5
7B6
330
D1
100
AcDbEntity
  8
0
100
AcDbViewport
 10
7.8
 20
4.5
 30
0.0
 40
15.64
 41
9.0
 68
     1
 69
     1
 12
6.0
 22
4.5
 13
0.0
 23
0.0
 14
0.5
 24
0.5
 15
0.5
 25
0.5
 16
0.0
 26
0.0
 36
1.0
 17
0.0
 27
0.0
 37
0.0
 42
50.0
 43
0.0
 44
0.0
 45
12.0
 50
0.0
 51
0.0
 72
   100
 90
   557152
  1

281
     0
 71
     1
 74
     0
110
0.0
120
0.0
130
0.0
111
1.0
121
0.0
131
0.0
112
0.0
122
1.0
132
0.0
 79
     0
146
0.0
  0
ENDBLK
  5
83D
330
D1
100
AcDbEntity
  8
0
100
AcDbBlockEnd
  0
BLOCK
  5
83E
330
5EE
100
AcDbEntity
  8
0
100
AcDbBlockBegin
  2
*D1
 70
     1
 10
0.0
 20
0.0
 30
0.0
  3
*D1
  1

  0
POINT
  5
5E5
330
5EE
100
AcDbEntity
  8
DEFPOINTS
  6
ByBlock
 62
     0
380
     1
100
AcDbPoint
 10
284.7503825645997
 20
859.7001509188481
 30
0.0
  0
POINT
  5
5E6
330
5EE
100
AcDbEntity
  8
DEFPOINTS
  6
ByBlock
 62
     0
380
     1
100
AcDbPoint
 10
284.7503825645997
 20
139.7000969188484
 30
0.0
  0
LINE
  5
5E7
330
5EE
100
AcDbEntity
  8
0
  6
ByBlock
 62
     0
370
    -2
380
     1
100
AcDbLine
 10
284.1253825645997
 20
859.7001509188481
 30
0.0
 11
37.52534423606855
 21
859.7001509188481
 31
0.0
  0
LINE
  5
5E8
330
5EE
100
AcDbEntity
  8
0
  6
ByBlock
 62
     0
370
    -2
380
     1
100
AcDbLine
 10
284.1253825645997
 20
139.7000969188484
 30
0.0
 11
37.52534423606855
 21
139.7000969188484
 31
0.0
  0
LINE
  5
5E9
330
5EE
100
AcDbEntity
  8
0
  6
ByBlock
 62
     0
370
    -2
380
     1
100
AcDbLine
 10
38.77534423606855
 20
857.2001509188481
 30
0.0
 11
38.77534423606855
 21
142.2000969188484
 31
0.0
  0
SOLID
  5
5EA
330
5EE
100
AcDbEntity
  8
0
  6
ByBlock
 62
     0
380
     1
100
AcDbTrace
 10
38.77534423606855
 20
859.7001509188481
 30
0.0
 11
38.35867756940189
 21
857.2001509188481
 31
0.0
 12
39.19201090273521
 22
857.2001509188481
 32
0.0
 13
39.19201090273521
 23
857.2001509188481
 33
0.0
  0
SOLID
  5
5EB
330
5EE
100
AcDbEntity
  8
0
  6
ByBlock
 62
     0
380
     1
100
AcDbTrace
 10
38.77534423606855
 20
139.7000969188484
 30
0.0
 11
38.35867756940189
 21
142.2000969188484
 31
0.0
 12
39.19201090273521
 22
142.2000969188484
 32
0.0
 13
39.19201090273521
 23
142.2000969188484
 33
0.0
  0
MTEXT
  5
5EC
330
5EE
100
AcDbEntity
  8
0
  6
ByBlock
 62
     0
370
    -2
380
     1
100
AcDbMText
 10
36.90034423606855
 20
499.7001239188482
 30
0.0
 40
2.5
 41
0.0
 71
     5
 72
     1
  1
\A1;720
 11
6.123031769111886E-17
 21
1.0
 31
0.0
 73
     1
 44
1.0
  0
ENDBLK
  5
83F
330
5EE
100
AcDbEntity
  8
0
100
AcDbBlockEnd
  0
BLOCK
  5
840
330
5FA
100
AcDbEntity
  8
0
100
AcDbBlockBegin
  2
*D2
 70
     1
 10
0.0
 20
0.0
 30
0.0
  3
*D2
  1

  0
POINT
  5
5F1
330
5FA
100
AcDbEntity
  8
DEFPOINTS
  6
ByBlock
 62
     0
380
     1
100
AcDbPoint
 10
257.0789770645997
 20
859.7001509188481
 30
0.0
  0
POINT
  5
5F2
330
5FA
100
AcDbEntity
  8
DEFPOINTS
  6
ByBlock
 62
     0
380
     1
100
AcDbPoint
 10
257.0789770645997
 20
139.7000969188484
 30
0.0
  0
LINE
  5
5F3
330
5FA
100
AcDbEntity
  8
0
  6
ByBlock
 62
     0
370
    -2
380
     1
100
AcDbLine
 10
256.4539770645997
 20
859.7001509188481
 30
0.0
 11
243.8965638151194
 21
859.7001509188481
 31
0.0
  0
LINE
  5
5F4
330
5FA
100
AcDbEntity
  8
0
  6
ByBlock
 62
     0
370
    -2
380
     1
100
AcDbLine
 10
256.4539770645997
 20
139.7000969188484
 30
0.0
 11
243.8965638151194
 21
139.7000969188484
 31
0.0
  0
LINE
  5
5F5
330
5FA
100
AcDbEntity
  8
0
  6
ByBlock
 62
     0
370
    -2
380
     1
100
AcDbLine
 10
245.1465638151194
 20
857.2001509188481
 30
0.0
 11
245.1465638151194
 21
142.2000969188484
 31
0.0
  0
SOLID
  5
5F6
330
5FA
100
AcDbEntity
  8
0
  6
ByBlock
 62
     0
380
     1
100
AcDbTrace
 10
245.1465638151194
 20
859.7001509188481
 30
0.0
 11
244.7298971484527
 21
857.2001509188481
 31
0.0
 12
245.5632304817861
 22
857.2001509188481
 32
0.0
 13
245.5632304817861
 23
857.2001509188481
 33
0.0
  0
SOLID
  5
5F7
330
5FA
100
AcDbEntity
  8
0
  6
ByBlock
 62
     0
380
     1
100
AcDbTrace
 10
245.1465638151194
 20
139.7000969188484
 30
0.0
 11
244.7298971484527
 21
142.2000969188484
 31
0.0
 12
245.5632304817861
 22
142.2000969188484
 32
0.0
 13
245.5632304817861
 23
142.2000969188484
 33
0.0
  0
MTEXT
  5
5F8
330
5FA
100
AcDbEntity
  8
0
  6
ByBlock
 62
     0
370
    -2
380
     1
100
AcDbMText
 10
243.2715638151194
 20
499.7001239188482
 30
0.0
 40
2.5
 41
0.0
 71
     5
 72
     1
  1
\A1;720
 11
6.123031769111886E-17
 21
1.0
 31
0.0
 73
     1
 44
1.0
  0
ENDBLK
  5
841
330
5FA
100
AcDbEntity
  8
0
100
AcDbBlockEnd
  0
BLOCK
  5
842
330
605
100
AcDbEntity
  8
0
100
AcDbBlockBegin
  2
*D3
 70
     1
 10
0.0
 20
0.0
 30
0.0
  3
*D3
  1

  0
POINT
  5
5FC
330
605
100
AcDbEntity
  8
DEFPOINTS
  6
ByBlock
 62
     0
380
     1
100
AcDbPoint
 10
257.0789770645997
 20
859.7001509188481
 30
0.0
  0
POINT
  5
5FD
330
605
100
AcDbEntity
  8
DEFPOINTS
  6
ByBlock
 62
     0
380
     1
100
AcDbPoint
 10
257.0789770645997
 20
139.7000969188484
 30
0.0
  0
LINE
  5
5FE
330
605
100
AcDbEntity
  8
0
  6
ByBlock
 62
     0
370
    -2
380
     1
100
AcDbLine
 10
256.4539770645997
 20
859.7001509188481
 30
0.0
 11
203.5461219168554
 21
859.7001509188481
 31
0.0
  0
LINE
  5
5FF
330
605
100
AcDbEntity
  8
0
  6
ByBlock
 62
     0
370
    -2
380
     1
100
AcDbLine
 10
256.4539770645997
 20
139.7000969188484
 30
0.0
 11
203.5461219168554
 21
139.7000969188484
 31
0.0
  0
LINE
  5
600
330
605
100
AcDbEntity
  8
0
  6
ByBlock
 62
     0
370
    -2
380
     1
100
AcDbLine
 10
204.7961219168554
 20
857.2001509188481
 30
0.0
 11
204.7961219168554
 21
142.2000969188484
 31
0.0
  0
SOLID
  5
601
330
605
100
AcDbEntity
  8
0
  6
ByBlock
 62
     0
380
     1
100
AcDbTrace
 10
204.7961219168554
 20
859.7001509188481
 30
0.0
 11
204.3794552501887
 21
857.2001509188481
 31
0.0
 12
205.212788583522
 22
857.2001509188481
 32
0.0
 13
205.212788583522
 23
857.2001509188481
 33
0.0
  0
SOLID
  5
602
330
605
100
AcDbEntity
  8
0
  6
ByBlock
 62
     0
380
     1
100
AcDbTrace
 10
204.7961219168554
 20
139.7000969188484
 30
0.0
 11
204.3794552501887
 21
142.2000969188484
 31
0.0
 12
205.212788583522
 22
142.2000969188484
 32
0.0
 13
205.212788583522
 23
142.2000969188484
 33
0.0
  0
MTEXT
  5
603
330
605
100
AcDbEntity
  8
0
  6
ByBlock
 62
     0
370
    -2
380
     1
100
AcDbMText
 10
202.9211219168554
 20
499.7001239188482
 30
0.0
 40
2.5
 41
0.0
 71
     5
 72
     1
  1
\A1;720
 11
6.123031769111886E-17
 21
1.0
 31
0.0
 73
     1
 44
1.0
  0
ENDBLK
  5
843
330
605
100
AcDbEntity
  8
0
100
AcDbBlockEnd
  0
BLOCK
  5
844
330
610
100
AcDbEntity
  8
0
100
AcDbBlockBegin
  2
*D4
 70
     1
 10
0.0
 20
0.0
 30
0.0
  3
*D4
  1

  0
POINT
  5
607
330
610
100
AcDbEntity
  8
DEFPOINTS
  6
ByBlock
 62
     0
380
     1
100
AcDbPoint
 10
257.0789770645997
 20
859.7001509188481
 30
0.0
  0
POINT
  5
608
330
610
100
AcDbEntity
  8
DEFPOINTS
  6
ByBlock
 62
     0
380
     1
100
AcDbPoint
 10
257.0789770645997
 20
139.7000969188484
 30
0.0
  0
LINE
  5
609
330
610
100
AcDbEntity
  8
0
  6
ByBlock
 62
     0
370
    -2
380
     1
100
AcDbLine
 10
256.4539770645997
 20
859.7001509188481
 30
0.0
 11
203.5461219168554
 21
859.7001509188481
 31
0.0
  0
LINE
  5
60A
330
610
100
AcDbEntity
  8
0
  6
ByBlock
 62
     0
370
    -2
380
     1
100
AcDbLine
 10
256.4539770645997
 20
139.7000969188484
 30
0.0
 11
203.5461219168554
 21
139.7000969188484
 31
0.0
  0
LINE
  5
60B
330
610
100
AcDbEntity
  8
0
  6
ByBlock
 62
     0
370
    -2
380
     1
100
AcDbLine
 10
204.7961219168554
 20
857.2001509188481
 30
0.0
 11
204.7961219168554
 21
142.2000969188484
 31
0.0
  0
SOLID
  5
60C
330
610
100
AcDbEntity
  8
0
  6
ByBlock
 62
     0
380
     1
100
AcDbTrace
 10
204.7961219168554
 20
859.7001509188481
 30
0.0
 11
204.3794552501887
 21
857.2001509188481
 31
0.0
 12
205.212788583522
 22
857.2001509188481
 32
0.0
 13
205.212788583522
 23
857.2001509188481
 33
0.0
  0
SOLID
  5
60D
330
610
100
AcDbEntity
  8
0
  6
ByBlock
 62
     0
380
     1
100
AcDbTrace
 10
204.7961219168554
 20
139.7000969188484
 30
0.0
 11
204.3794552501887
 21
142.2000969188484
 31
0.0
 12
205.212788583522
 22
142.2000969188484
 32
0.0
 13
205.212788583522
 23
142.2000969188484
 33
0.0
  0
MTEXT
  5
60E
330
610
100
AcDbEntity
  8
0
  6
ByBlock
 62
     0
370
    -2
380
     1
100
AcDbMText
 10
202.9211219168554
 20
499.7001239188482
 30
0.0
 40
2.5
 41
0.0
 71
     5
 72
     1
  1
\A1;720
 11
6.123031769111886E-17
 21
1.0
 31
0.0
 73
     1
 44
1.0
  0
ENDBLK
  5
845
330
610
100
AcDbEntity
  8
0
100
AcDbBlockEnd
  0
BLOCK
  5
846
330
61B
100
AcDbEntity
  8
0
100
AcDbBlockBegin
  2
*D5
 70
     1
 10
0.0
 20
0.0
 30
0.0
  3
*D5
  1

  0
POINT
  5
612
330
61B
100
AcDbEntity
  8
DEFPOINTS
  6
ByBlock
 62
     0
380
     1
100
AcDbPoint
 10
257.0789770645997
 20
859.7001509188481
 30
0.0
  0
POINT
  5
613
330
61B
100
AcDbEntity
  8
DEFPOINTS
  6
ByBlock
 62
     0
380
     1
100
AcDbPoint
 10
257.0789770645997
 20
139.7000969188484
 30
0.0
  0
LINE
  5
614
330
61B
100
AcDbEntity
  8
0
  6
ByBlock
 62
     0
370
    -2
380
     1
100
AcDbLine
 10
256.4539770645997
 20
859.7001509188481
 30
0.0
 11
203.5461219168554
 21
859.7001509188481
 31
0.0
  0
LINE
  5
615
330
61B
100
AcDbEntity
  8
0
  6
ByBlock
 62
     0
370
    -2
380
     1
100
AcDbLine
 10
256.4539770645997
 20
139.7000969188484
 30
0.0
 11
203.5461219168554
 21
139.7000969188484
 31
0.0
  0
LINE
  5
616
330
61B
100
AcDbEntity
  8
0
  6
ByBlock
 62
     0
370
    -2
380
     1
100
AcDbLine
 10
204.7961219168554
 20
857.2001509188481
 30
0.0
 11
204.7961219168554
 21
142.2000969188484
 31
0.0
  0
SOLID
  5
617
330
61B
100
AcDbEntity
  8
0
  6
ByBlock
 62
     0
380
     1
100
AcDbTrace
 10
204.7961219168554
 20
859.7001509188481
 30
0.0
 11
204.3794552501887
 21
857.2001509188481
 31
0.0
 12
205.212788583522
 22
857.2001509188481
 32
0.0
 13
205.212788583522
 23
857.2001509188481
 33
0.0
  0
SOLID
  5
618
330
61B
100
AcDbEntity
  8
0
  6
ByBlock
 62
     0
380
     1
100
AcDbTrace
 10
204.7961219168554
 20
139.7000969188484
 30
0.0
 11
204.3794552501887
 21
142.2000969188484
 31
0.0
 12
205.212788583522
 22
142.2000969188484
 32
0.0
 13
205.212788583522
 23
142.2000969188484
 33
0.0
  0
MTEXT
  5
619
330
61B
100
AcDbEntity
  8
0
  6
ByBlock
 62
     0
370
    -2
380
     1
100
AcDbMText
 10
202.9211219168554
 20
499.7001239188482
 30
0.0
 40
2.5
 41
0.0
 71
     5
 72
     1
  1
\A1;720
 11
6.123031769111886E-17
 21
1.0
 31
0.0
 73
     1
 44
1.0
  0
ENDBLK
  5
847
330
61B
100
AcDbEntity
  8
0
100
AcDbBlockEnd
  0
BLOCK
  5
848
330
626
100
AcDbEntity
  8
0
100
AcDbBlockBegin
  2
*D6
 70
     1
 10
0.0
 20
0.0
 30
0.0
  3
*D6
  1

  0
POINT
  5
61D
330
626
100
AcDbEntity
  8
DEFPOINTS
  6
ByBlock
 62
     7
380
     1
100
AcDbPoint
 10
257.0789770645997
 20
859.7001509188481
 30
0.0
  0
POINT
  5
61E
330
626
100
AcDbEntity
  8
DEFPOINTS
  6
ByBlock
 62
     7
380
     1
100
AcDbPoint
 10
257.0789770645997
 20
139.7000969188484
 30
0.0
  0
LINE
  5
61F
330
626
100
AcDbEntity
  8
0
  6
ByBlock
 62
     7
370
    -2
380
     1
100
AcDbLine
 10
256.4539770645997
 20
859.7001509188481
 30
0.0
 11
203.5461219168554
 21
859.7001509188481
 31
0.0
  0
LINE
  5
620
330
626
100
AcDbEntity
  8
0
  6
ByBlock
 62
     7
370
    -2
380
     1
100
AcDbLine
 10
256.4539770645997
 20
139.7000969188484
 30
0.0
 11
203.5461219168554
 21
139.7000969188484
 31
0.0
  0
LINE
  5
621
330
626
100
AcDbEntity
  8
0
  6
ByBlock
 62
     7
370
    -2
380
     1
100
AcDbLine
 10
204.7961219168554
 20
849.7001509188481
 30
0.0
 11
204.7961219168554
 21
149.7000969188484
 31
0.0
  0
SOLID
  5
622
330
626
100
AcDbEntity
  8
0
  6
ByBlock
 62
     7
380
     1
100
AcDbTrace
 10
204.7961219168554
 20
859.7001509188481
 30
0.0
 11
203.1294552501887
 21
849.7001509188481
 31
0.0
 12
206.462788583522
 22
849.7001509188481
 32
0.0
 13
206.462788583522
 23
849.7001509188481
 33
0.0
  0
SOLID
  5
623
330
626
100
AcDbEntity
  8
0
  6
ByBlock
 62
     7
380
     1
100
AcDbTrace
 10
204.7961219168554
 20
139.7000969188484
 30
0.0
 11
203.1294552501887
 21
149.7000969188484
 31
0.0
 12
206.462788583522
 22
149.7000969188484
 32
0.0
 13
206.462788583522
 23
149.7000969188484
 33
0.0
  0
MTEXT
  5
624
330
626
100
AcDbEntity
  8
0
  6
ByBlock
 62
     0
370
    -2
380
     1
100
AcDbMText
 10
192.7961219168554
 20
499.7001239188482
 30
0.0
 40
14.0
 41
0.0
 71
     5
 72
     1
  1
\A1;720
 11
6.123031769111886E-17
 21
1.0
 31
0.0
 73
     1
 44
1.0
  0
ENDBLK
  5
849
330
626
100
AcDbEntity
  8
0
100
AcDbBlockEnd
  0
BLOCK
  5
84A
330
631
100
AcDbEntity
  8
0
100
AcDbBlockBegin
  2
*D7
 70
     1
 10
0.0
 20
0.0
 30
0.0
  3
*D7
  1

  0
POINT
  5
628
330
631
100
AcDbEntity
  8
DEFPOINTS
  6
ByBlock
 62
     7
380
     1
100
AcDbPoint
 10
257.0789770645997
 20
859.7001509188481
 30
0.0
  0
POINT
  5
629
330
631
100
AcDbEntity
  8
DEFPOINTS
  6
ByBlock
 62
     7
380
     1
100
AcDbPoint
 10
257.0789770645997
 20
139.7000969188484
 30
0.0
  0
LINE
  5
62A
330
631
100
AcDbEntity
  8
0
  6
ByBlock
 62
     7
370
    -2
380
     1
100
AcDbLine
 10
256.4539770645997
 20
859.7001509188481
 30
0.0
 11
203.5461219168554
 21
859.7001509188481
 31
0.0
  0
LINE
  5
62B
330
631
100
AcDbEntity
  8
0
  6
ByBlock
 62
     7
370
    -2
380
     1
100
AcDbLine
 10
256.4539770645997
 20
139.7000969188484
 30
0.0
 11
203.5461219168554
 21
139.7000969188484
 31
0.0
  0
LINE
  5
62C
330
631
100
AcDbEntity
  8
0
  6
ByBlock
 62
     7
370
    -2
380
     1
100
AcDbLine
 10
204.7961219168554
 20
849.7001509188481
 30
0.0
 11
204.7961219168554
 21
149.7000969188484
 31
0.0
  0
SOLID
  5
62D
330
631
100
AcDbEntity
  8
0
  6
ByBlock
 62
     7
380
     1
100
AcDbTrace
 10
204.7961219168554
 20
859.7001509188481
 30
0.0
 11
203.1294552501887
 21
849.7001509188481
 31
0.0
 12
206.462788583522
 22
849.7001509188481
 32
0.0
 13
206.462788583522
 23
849.7001509188481
 33
0.0
  0
SOLID
  5
62E
330
631
100
AcDbEntity
  8
0
  6
ByBlock
 62
     7
380
     1
100
AcDbTrace
 10
204.7961219168554
 20
139.7000969188484
 30
0.0
 11
203.1294552501887
 21
149.7000969188484
 31
0.0
 12
206.462788583522
 22
149.7000969188484
 32
0.0
 13
206.462788583522
 23
149.7000969188484
 33
0.0
  0
MTEXT
  5
62F
330
631
100
AcDbEntity
  8
0
  6
ByBlock
 62
     0
370
    -2
380
     1
100
AcDbMText
 10
192.7961219168554
 20
499.7001239188482
 30
0.0
 40
14.0
 41
0.0
 71
     5
 72
     1
  1
3500
 11
6.123031769111886E-17
 21
1.0
 31
0.0
 73
     1
 44
1.0
  0
ENDBLK
  5
84B
330
631
100
AcDbEntity
  8
0
100
AcDbBlockEnd
  0
BLOCK
  5
84C
330
63D
100
AcDbEntity
  8
0
100
AcDbBlockBegin
  2
*D8
 70
     1
 10
0.0
 20
0.0
 30
0.0
  3
*D8
  1

  0
POINT
  5
634
330
63D
100
AcDbEntity
  8
DEFPOINTS
  6
ByBlock
 62
     0
380
     1
100
AcDbPoint
 10
259.2888195645987
 20
363.7001199188485
 30
0.0
  0
POINT
  5
635
330
63D
100
AcDbEntity
  8
DEFPOINTS
  6
ByBlock
 62
     0
380
     1
100
AcDbPoint
 10
249.2053415685289
 20
267.0922409188483
 30
0.0
  0
LINE
  5
636
330
63D
100
AcDbEntity
  8
0
  6
ByBlock
 62
     0
370
    -2
380
     1
100
AcDbLine
 10
258.6638195645987
 20
363.7001199188485
 30
0.0
 11
230.9594635062638
 21
363.7001199188485
 31
0.0
  0
LINE
  5
637
330
63D
100
AcDbEntity
  8
0
  6
ByBlock
 62
     0
370
    -2
380
     1
100
AcDbLine
 10
248.5803415685289
 20
267.0922409188483
 30
0.0
 11
230.9594635062638
 21
267.0922409188483
 31
0.0
  0
LINE
  5
638
330
63D
100
AcDbEntity
  8
0
  6
ByBlock
 62
     0
370
    -2
380
     1
100
AcDbLine
 10
232.2094635062638
 20
361.2001199188485
 30
0.0
 11
232.2094635062638
 21
269.5922409188483
 31
0.0
  0
SOLID
  5
639
330
63D
100
AcDbEntity
  8
0
  6
ByBlock
 62
     0
380
     1
100
AcDbTrace
 10
232.2094635062638
 20
363.7001199188485
 30
0.0
 11
231.7927968395971
 21
361.2001199188485
 31
0.0
 12
232.6261301729305
 22
361.2001199188485
 32
0.0
 13
232.6261301729305
 23
361.2001199188485
 33
0.0
  0
SOLID
  5
63A
330
63D
100
AcDbEntity
  8
0
  6
ByBlock
 62
     0
380
     1
100
AcDbTrace
 10
232.2094635062638
 20
267.0922409188483
 30
0.0
 11
231.7927968395971
 21
269.5922409188483
 31
0.0
 12
232.6261301729305
 22
269.5922409188483
 32
0.0
 13
232.6261301729305
 23
269.5922409188483
 33
0.0
  0
MTEXT
  5
63B
330
63D
100
AcDbEntity
  8
0
  6
ByBlock
 62
     0
370
    -2
380
     1
100
AcDbMText
 10
230.1261301729305
 20
315.3961804188484
 30
0.0
 40
2.5
 41
0.0
 71
     5
 72
     1
  1
\A1;96,61
 11
6.123031769111886E-17
 21
1.0
 31
0.0
 73
     1
 44
1.0
  0
ENDBLK
  5
84D
330
63D
100
AcDbEntity
  8
0
100
AcDbBlockEnd
  0
BLOCK
  5
84E
330
648
100
AcDbEntity
  8
0
100
AcDbBlockBegin
  2
*D9
 70
     1
 10
0.0
 20
0.0
 30
0.0
  3
*D9
  1

  0
POINT
  5
63F
330
648
100
AcDbEntity
  8
DEFPOINTS
  6
ByBlock
 62
     0
380
     1
100
AcDbPoint
 10
259.2888195645987
 20
363.7001199188485
 30
0.0
  0
POINT
  5
640
330
648
100
AcDbEntity
  8
DEFPOINTS
  6
ByBlock
 62
     0
380
     1
100
AcDbPoint
 10
249.2053415685289
 20
267.0922409188483
 30
0.0
  0
LINE
  5
641
330
648
100
AcDbEntity
  8
0
  6
ByBlock
 62
     0
370
    -2
380
     1
100
AcDbLine
 10
258.6638195645987
 20
363.7001199188485
 30
0.0
 11
230.9594635062638
 21
363.7001199188485
 31
0.0
  0
LINE
  5
642
330
648
100
AcDbEntity
  8
0
  6
ByBlock
 62
     0
370
    -2
380
     1
100
AcDbLine
 10
248.5803415685289
 20
267.0922409188483
 30
0.0
 11
230.9594635062638
 21
267.0922409188483
 31
0.0
  0
LINE
  5
643
330
648
100
AcDbEntity
  8
0
  6
ByBlock
 62
     0
370
    -2
380
     1
100
AcDbLine
 10
232.2094635062638
 20
361.2001199188485
 30
0.0
 11
232.2094635062638
 21
269.5922409188483
 31
0.0
  0
SOLID
  5
644
330
648
100
AcDbEntity
  8
0
  6
ByBlock
 62
     0
380
     1
100
AcDbTrace
 10
232.2094635062638
 20
363.7001199188485
 30
0.0
 11
231.7927968395971
 21
361.2001199188485
 31
0.0
 12
232.6261301729305
 22
361.2001199188485
 32
0.0
 13
232.6261301729305
 23
361.2001199188485
 33
0.0
  0
SOLID
  5
645
330
648
100
AcDbEntity
  8
0
  6
ByBlock
 62
     0
380
     1
100
AcDbTrace
 10
232.2094635062638
 20
267.0922409188483
 30
0.0
 11
231.7927968395971
 21
269.5922409188483
 31
0.0
 12
232.6261301729305
 22
269.5922409188483
 32
0.0
 13
232.6261301729305
 23
269.5922409188483
 33
0.0
  0
MTEXT
  5
646
330
648
100
AcDbEntity
  8
0
  6
ByBlock
 62
     0
370
    -2
380
     1
100
AcDbMText
 10
230.1261301729305
 20
315.3961804188484
 30
0.0
 40
2.5
 41
0.0
 71
     5
 72
     1
  1
\A1;96,61
 11
6.123031769111886E-17
 21
1.0
 31
0.0
 73
     1
 44
1.0
  0
ENDBLK
  5
84F
330
648
100
AcDbEntity
  8
0
100
AcDbBlockEnd
  0
BLOCK
  5
850
330
653
100
AcDbEntity
  8
0
100
AcDbBlockBegin
  2
*D10
 70
     1
 10
0.0
 20
0.0
 30
0.0
  3
*D10
  1

  0
POINT
  5
64A
330
653
100
AcDbEntity
  8
DEFPOINTS
  6
ByBlock
 62
     7
380
     1
100
AcDbPoint
 10
259.2888195645987
 20
363.7001199188485
 30
0.0
  0
POINT
  5
64B
330
653
100
AcDbEntity
  8
DEFPOINTS
  6
ByBlock
 62
     7
380
     1
100
AcDbPoint
 10
249.2053415685289
 20
267.0922409188483
 30
0.0
  0
LINE
  5
64C
330
653
100
AcDbEntity
  8
0
  6
ByBlock
 62
     7
370
    -2
380
     1
100
AcDbLine
 10
258.6638195645987
 20
363.7001199188485
 30
0.0
 11
230.9594635062638
 21
363.7001199188485
 31
0.0
  0
LINE
  5
64D
330
653
100
AcDbEntity
  8
0
  6
ByBlock
 62
     7
370
    -2
380
     1
100
AcDbLine
 10
248.5803415685289
 20
267.0922409188483
 30
0.0
 11
230.9594635062638
 21
267.0922409188483
 31
0.0
  0
LINE
  5
64E
330
653
100
AcDbEntity
  8
0
  6
ByBlock
 62
     7
370
    -2
380
     1
100
AcDbLine
 10
232.2094635062638
 20
353.7001199188485
 30
0.0
 11
232.2094635062638
 21
277.0922409188483
 31
0.0
  0
SOLID
  5
64F
330
653
100
AcDbEntity
  8
0
  6
ByBlock
 62
     7
380
     1
100
AcDbTrace
 10
232.2094635062638
 20
363.7001199188485
 30
0.0
 11
230.5427968395971
 21
353.7001199188485
 31
0.0
 12
233.8761301729305
 22
353.7001199188485
 32
0.0
 13
233.8761301729305
 23
353.7001199188485
 33
0.0
  0
SOLID
  5
650
330
653
100
AcDbEntity
  8
0
  6
ByBlock
 62
     7
380
     1
100
AcDbTrace
 10
232.2094635062638
 20
267.0922409188483
 30
0.0
 11
230.5427968395971
 21
277.0922409188483
 31
0.0
 12
233.8761301729305
 22
277.0922409188483
 32
0.0
 13
233.8761301729305
 23
277.0922409188483
 33
0.0
  0
MTEXT
  5
651
330
653
100
AcDbEntity
  8
0
  6
ByBlock
 62
     0
370
    -2
380
     1
100
AcDbMText
 10
219.0427968395971
 20
315.3961804188484
 30
0.0
 40
14.0
 41
0.0
 71
     5
 72
     1
  1
\A1;96,61
 11
6.123031769111886E-17
 21
1.0
 31
0.0
 73
     1
 44
1.0
  0
ENDBLK
  5
851
330
653
100
AcDbEntity
  8
0
100
AcDbBlockEnd
  0
BLOCK
  5
852
330
65E
100
AcDbEntity
  8
0
100
AcDbBlockBegin
  2
*D11
 70
     1
 10
0.0
 20
0.0
 30
0.0
  3
*D11
  1

  0
POINT
  5
655
330
65E
100
AcDbEntity
  8
DEFPOINTS
  6
ByBlock
 62
     7
380
     1
100
AcDbPoint
 10
259.2888195645987
 20
363.7001199188485
 30
0.0
  0
POINT
  5
656
330
65E
100
AcDbEntity
  8
DEFPOINTS
  6
ByBlock
 62
     7
380
     1
100
AcDbPoint
 10
249.2053415685289
 20
267.0922409188483
 30
0.0
  0
LINE
  5
657
330
65E
100
AcDbEntity
  8
0
  6
ByBlock
 62
     7
370
    -2
380
     1
100
AcDbLine
 10
258.6638195645987
 20
363.7001199188485
 30
0.0
 11
230.9594635062638
 21
363.7001199188485
 31
0.0
  0
LINE
  5
658
330
65E
100
AcDbEntity
  8
0
  6
ByBlock
 62
     7
370
    -2
380
     1
100
AcDbLine
 10
248.5803415685289
 20
267.0922409188483
 30
0.0
 11
230.9594635062638
 21
267.0922409188483
 31
0.0
  0
LINE
  5
659
330
65E
100
AcDbEntity
  8
0
  6
ByBlock
 62
     7
370
    -2
380
     1
100
AcDbLine
 10
232.2094635062638
 20
353.7001199188485
 30
0.0
 11
232.2094635062638
 21
277.0922409188483
 31
0.0
  0
SOLID
  5
65A
330
65E
100
AcDbEntity
  8
0
  6
ByBlock
 62
     7
380
     1
100
AcDbTrace
 10
232.2094635062638
 20
363.7001199188485
 30
0.0
 11
230.5427968395971
 21
353.7001199188485
 31
0.0
 12
233.8761301729305
 22
353.7001199188485
 32
0.0
 13
233.8761301729305
 23
353.7001199188485
 33
0.0
  0
SOLID
  5
65B
330
65E
100
AcDbEntity
  8
0
  6
ByBlock
 62
     7
380
     1
100
AcDbTrace
 10
232.2094635062638
 20
267.0922409188483
 30
0.0
 11
230.5427968395971
 21
277.0922409188483
 31
0.0
 12
233.8761301729305
 22
277.0922409188483
 32
0.0
 13
233.8761301729305
 23
277.0922409188483
 33
0.0
  0
MTEXT
  5
65C
330
65E
100
AcDbEntity
  8
0
  6
ByBlock
 62
     0
370
    -2
380
     1
100
AcDbMText
 10
219.0427968395971
 20
315.3961804188484
 30
0.0
 40
14.0
 41
0.0
 71
     5
 72
     1
  1
\A1;96,61
 11
6.123031769111886E-17
 21
1.0
 31
0.0
 73
     1
 44
1.0
  0
ENDBLK
  5
853
330
65E
100
AcDbEntity
  8
0
100
AcDbBlockEnd
  0
BLOCK
  5
854
330
669
100
AcDbEntity
  8
0
100
AcDbBlockBegin
  2
*D12
 70
     1
 10
0.0
 20
0.0
 30
0.0
  3
*D12
  1

  0
POINT
  5
660
330
669
100
AcDbEntity
  8
DEFPOINTS
  6
ByBlock
 62
     7
380
     1
100
AcDbPoint
 10
268.0700232301024
 20
363.7001199188485
 30
0.0
  0
POINT
  5
661
330
669
100
AcDbEntity
  8
DEFPOINTS
  6
ByBlock
 62
     7
380
     1
100
AcDbPoint
 10
257.9865452340325
 20
267.0922409188483
 30
0.0
  0
LINE
  5
662
330
669
100
AcDbEntity
  8
0
  6
ByBlock
 62
     7
370
    -2
380
     1
100
AcDbLine
 10
267.4450232301024
 20
363.7001199188485
 30
0.0
 11
239.7406671717674
 21
363.7001199188485
 31
0.0
  0
LINE
  5
663
330
669
100
AcDbEntity
  8
0
  6
ByBlock
 62
     7
370
    -2
380
     1
100
AcDbLine
 10
257.3615452340325
 20
267.0922409188483
 30
0.0
 11
239.7406671717674
 21
267.0922409188483
 31
0.0
  0
LINE
  5
664
330
669
100
AcDbEntity
  8
0
  6
ByBlock
 62
     7
370
    -2
380
     1
100
AcDbLine
 10
240.9906671717674
 20
353.7001199188485
 30
0.0
 11
240.9906671717674
 21
277.0922409188483
 31
0.0
  0
SOLID
  5
665
330
669
100
AcDbEntity
  8
0
  6
ByBlock
 62
     7
380
     1
100
AcDbTrace
 10
240.9906671717674
 20
363.7001199188485
 30
0.0
 11
239.3240005051007
 21
353.7001199188485
 31
0.0
 12
242.6573338384341
 22
353.7001199188485
 32
0.0
 13
242.6573338384341
 23
353.7001199188485
 33
0.0
  0
SOLID
  5
666
330
669
100
AcDbEntity
  8
0
  6
ByBlock
 62
     7
380
     1
100
AcDbTrace
 10
240.9906671717674
 20
267.0922409188483
 30
0.0
 11
239.3240005051007
 21
277.0922409188483
 31
0.0
 12
242.6573338384341
 22
277.0922409188483
 32
0.0
 13
242.6573338384341
 23
277.0922409188483
 33
0.0
  0
MTEXT
  5
667
330
669
100
AcDbEntity
  8
0
  6
ByBlock
 62
     0
370
    -2
380
     1
100
AcDbMText
 10
227.8240005051008
 20
315.3961804188484
 30
0.0
 40
14.0
 41
0.0
 71
     5
 72
     1
  1
\A1;96,61
 11
6.123031769111886E-17
 21
1.0
 31
0.0
 73
     1
 44
1.0
  0
ENDBLK
  5
855
330
669
100
AcDbEntity
  8
0
100
AcDbBlockEnd
  0
BLOCK
  5
856
330
674
100
AcDbEntity
  8
0
100
AcDbBlockBegin
  2
*D13
 70
     1
 10
0.0
 20
0.0
 30
0.0
  3
*D13
  1

  0
POINT
  5
66B
330
674
100
AcDbEntity
  8
DEFPOINTS
  6
ByBlock
 62
     7
380
     1
100
AcDbPoint
 10
261.8176585645997
 20
363.7001199188485
 30
0.0
  0
POINT
  5
66C
330
674
100
AcDbEntity
  8
DEFPOINTS
  6
ByBlock
 62
     7
380
     1
100
AcDbPoint
 10
257.9865452340325
 20
267.0922409188483
 30
0.0
  0
LINE
  5
66D
330
674
100
AcDbEntity
  8
0
  6
ByBlock
 62
     7
370
    -2
380
     1
100
AcDbLine
 10
261.1926585645997
 20
363.7001199188485
 30
0.0
 11
239.7406671717674
 21
363.7001199188485
 31
0.0
  0
LINE
  5
66E
330
674
100
AcDbEntity
  8
0
  6
ByBlock
 62
     7
370
    -2
380
     1
100
AcDbLine
 10
257.3615452340325
 20
267.0922409188483
 30
0.0
 11
239.7406671717674
 21
267.0922409188483
 31
0.0
  0
LINE
  5
66F
330
674
100
AcDbEntity
  8
0
  6
ByBlock
 62
     7
370
    -2
380
     1
100
AcDbLine
 10
240.9906671717674
 20
353.7001199188485
 30
0.0
 11
240.9906671717674
 21
277.0922409188483
 31
0.0
  0
SOLID
  5
670
330
674
100
AcDbEntity
  8
0
  6
ByBlock
 62
     7
380
     1
100
AcDbTrace
 10
240.9906671717674
 20
363.7001199188485
 30
0.0
 11
239.3240005051007
 21
353.7001199188485
 31
0.0
 12
242.6573338384341
 22
353.7001199188485
 32
0.0
 13
242.6573338384341
 23
353.7001199188485
 33
0.0
  0
SOLID
  5
671
330
674
100
AcDbEntity
  8
0
  6
ByBlock
 62
     7
380
     1
100
AcDbTrace
 10
240.9906671717674
 20
267.0922409188483
 30
0.0
 11
239.3240005051007
 21
277.0922409188483
 31
0.0
 12
242.6573338384341
 22
277.0922409188483
 32
0.0
 13
242.6573338384341
 23
277.0922409188483
 33
0.0
  0
MTEXT
  5
672
330
674
100
AcDbEntity
  8
0
  6
ByBlock
 62
     0
370
    -2
380
     1
100
AcDbMText
 10
227.8240005051008
 20
315.3961804188484
 30
0.0
 40
14.0
 41
0.0
 71
     5
 72
     1
  1
\A1;96,61
 11
6.123031769111886E-17
 21
1.0
 31
0.0
 73
     1
 44
1.0
  0
ENDBLK
  5
857
330
674
100
AcDbEntity
  8
0
100
AcDbBlockEnd
  0
BLOCK
  5
858
330
67F
100
AcDbEntity
  8
0
100
AcDbBlockBegin
  2
*D14
 70
     1
 10
0.0
 20
0.0
 30
0.0
  3
*D14
  1

  0
POINT
  5
676
330
67F
100
AcDbEntity
  8
DEFPOINTS
  6
ByBlock
 62
     7
380
     1
100
AcDbPoint
 10
261.8176585645997
 20
363.7001199188485
 30
0.0
  0
POINT
  5
677
330
67F
100
AcDbEntity
  8
DEFPOINTS
  6
ByBlock
 62
     7
380
     1
100
AcDbPoint
 10
257.9865452340325
 20
267.0922409188483
 30
0.0
  0
LINE
  5
678
330
67F
100
AcDbEntity
  8
0
  6
ByBlock
 62
     7
370
    -2
380
     1
100
AcDbLine
 10
261.1926585645997
 20
363.7001199188485
 30
0.0
 11
239.7406671717674
 21
363.7001199188485
 31
0.0
  0
LINE
  5
679
330
67F
100
AcDbEntity
  8
0
  6
ByBlock
 62
     7
370
    -2
380
     1
100
AcDbLine
 10
257.3615452340325
 20
267.0922409188483
 30
0.0
 11
239.7406671717674
 21
267.0922409188483
 31
0.0
  0
LINE
  5
67A
330
67F
100
AcDbEntity
  8
0
  6
ByBlock
 62
     7
370
    -2
380
     1
100
AcDbLine
 10
240.9906671717674
 20
353.7001199188485
 30
0.0
 11
240.9906671717674
 21
277.0922409188483
 31
0.0
  0
SOLID
  5
67B
330
67F
100
AcDbEntity
  8
0
  6
ByBlock
 62
     7
380
     1
100
AcDbTrace
 10
240.9906671717674
 20
363.7001199188485
 30
0.0
 11
239.3240005051007
 21
353.7001199188485
 31
0.0
 12
242.6573338384341
 22
353.7001199188485
 32
0.0
 13
242.6573338384341
 23
353.7001199188485
 33
0.0
  0
SOLID
  5
67C
330
67F
100
AcDbEntity
  8
0
  6
ByBlock
 62
     7
380
     1
100
AcDbTrace
 10
240.9906671717674
 20
267.0922409188483
 30
0.0
 11
239.3240005051007
 21
277.0922409188483
 31
0.0
 12
242.6573338384341
 22
277.0922409188483
 32
0.0
 13
242.6573338384341
 23
277.0922409188483
 33
0.0
  0
MTEXT
  5
67D
330
67F
100
AcDbEntity
  8
0
  6
ByBlock
 62
     0
370
    -2
380
     1
100
AcDbMText
 10
228.9906671717674
 20
315.3961804188484
 30
0.0
 40
14.0
 41
0.0
 71
     5
 72
     1
  1
800
 11
6.123031769111886E-17
 21
1.0
 31
0.0
 73
     1
 44
1.0
  0
ENDBLK
  5
859
330
67F
100
AcDbEntity
  8
0
100
AcDbBlockEnd
  0
BLOCK
  5
85A
330
68B
100
AcDbEntity
  8
0
100
AcDbBlockBegin
  2
*D15
 70
     1
 10
0.0
 20
0.0
 30
0.0
  3
*D15
  1

  0
POINT
  5
682
330
68B
100
AcDbEntity
  8
DEFPOINTS
  6
ByBlock
 62
     0
380
     1
100
AcDbPoint
 10
255.0062725645997
 20
267.0922409188483
 30
0.0
  0
POINT
  5
683
330
68B
100
AcDbEntity
  8
DEFPOINTS
  6
ByBlock
 62
     0
380
     1
100
AcDbPoint
 10
257.3521815645997
 20
139.7000969188484
 30
0.0
  0
LINE
  5
684
330
68B
100
AcDbEntity
  8
0
  6
ByBlock
 62
     0
370
    -2
380
     1
100
AcDbLine
 10
254.3812725645997
 20
267.0922409188483
 30
0.0
 11
239.8527792379192
 21
267.0922409188483
 31
0.0
  0
LINE
  5
685
330
68B
100
AcDbEntity
  8
0
  6
ByBlock
 62
     0
370
    -2
380
     1
100
AcDbLine
 10
256.7271815645997
 20
139.7000969188484
 30
0.0
 11
239.8527792379192
 21
139.7000969188484
 31
0.0
  0
LINE
  5
686
330
68B
100
AcDbEntity
  8
0
  6
ByBlock
 62
     0
370
    -2
380
     1
100
AcDbLine
 10
241.1027792379192
 20
264.5922409188483
 30
0.0
 11
241.1027792379192
 21
142.2000969188484
 31
0.0
  0
SOLID
  5
687
330
68B
100
AcDbEntity
  8
0
  6
ByBlock
 62
     0
380
     1
100
AcDbTrace
 10
241.1027792379192
 20
267.0922409188483
 30
0.0
 11
240.6861125712526
 21
264.5922409188483
 31
0.0
 12
241.5194459045859
 22
264.5922409188483
 32
0.0
 13
241.5194459045859
 23
264.5922409188483
 33
0.0
  0
SOLID
  5
688
330
68B
100
AcDbEntity
  8
0
  6
ByBlock
 62
     0
380
     1
100
AcDbTrace
 10
241.1027792379192
 20
139.7000969188484
 30
0.0
 11
240.6861125712526
 21
142.2000969188484
 31
0.0
 12
241.5194459045859
 22
142.2000969188484
 32
0.0
 13
241.5194459045859
 23
142.2000969188484
 33
0.0
  0
MTEXT
  5
689
330
68B
100
AcDbEntity
  8
0
  6
ByBlock
 62
     0
370
    -2
380
     1
100
AcDbMText
 10
239.0194459045859
 20
203.3961689188484
 30
0.0
 40
2.5
 41
0.0
 71
     5
 72
     1
  1
\A1;127,39
 11
6.123031769111886E-17
 21
1.0
 31
0.0
 73
     1
 44
1.0
  0
ENDBLK
  5
85B
330
68B
100
AcDbEntity
  8
0
100
AcDbBlockEnd
  0
BLOCK
  5
85C
330
696
100
AcDbEntity
  8
0
100
AcDbBlockBegin
  2
*D16
 70
     1
 10
0.0
 20
0.0
 30
0.0
  3
*D16
  1

  0
POINT
  5
68D
330
696
100
AcDbEntity
  8
DEFPOINTS
  6
ByBlock
 62
     0
380
     1
100
AcDbPoint
 10
255.0062725645997
 20
267.0922409188483
 30
0.0
  0
POINT
  5
68E
330
696
100
AcDbEntity
  8
DEFPOINTS
  6
ByBlock
 62
     0
380
     1
100
AcDbPoint
 10
257.3521815645997
 20
139.7000969188484
 30
0.0
  0
LINE
  5
68F
330
696
100
AcDbEntity
  8
0
  6
ByBlock
 62
     0
370
    -2
380
     1
100
AcDbLine
 10
254.3812725645997
 20
267.0922409188483
 30
0.0
 11
239.8527792379192
 21
267.0922409188483
 31
0.0
  0
LINE
  5
690
330
696
100
AcDbEntity
  8
0
  6
ByBlock
 62
     0
370
    -2
380
     1
100
AcDbLine
 10
256.7271815645997
 20
139.7000969188484
 30
0.0
 11
239.8527792379192
 21
139.7000969188484
 31
0.0
  0
LINE
  5
691
330
696
100
AcDbEntity
  8
0
  6
ByBlock
 62
     0
370
    -2
380
     1
100
AcDbLine
 10
241.1027792379192
 20
264.5922409188483
 30
0.0
 11
241.1027792379192
 21
142.2000969188484
 31
0.0
  0
SOLID
  5
692
330
696
100
AcDbEntity
  8
0
  6
ByBlock
 62
     0
380
     1
100
AcDbTrace
 10
241.1027792379192
 20
267.0922409188483
 30
0.0
 11
240.6861125712526
 21
264.5922409188483
 31
0.0
 12
241.5194459045859
 22
264.5922409188483
 32
0.0
 13
241.5194459045859
 23
264.5922409188483
 33
0.0
  0
SOLID
  5
693
330
696
100
AcDbEntity
  8
0
  6
ByBlock
 62
     0
380
     1
100
AcDbTrace
 10
241.1027792379192
 20
139.7000969188484
 30
0.0
 11
240.6861125712526
 21
142.2000969188484
 31
0.0
 12
241.5194459045859
 22
142.2000969188484
 32
0.0
 13
241.5194459045859
 23
142.2000969188484
 33
0.0
  0
MTEXT
  5
694
330
696
100
AcDbEntity
  8
0
  6
ByBlock
 62
     0
370
    -2
380
     1
100
AcDbMText
 10
239.0194459045859
 20
203.3961689188484
 30
0.0
 40
2.5
 41
0.0
 71
     5
 72
     1
  1
\A1;127,39
 11
6.123031769111886E-17
 21
1.0
 31
0.0
 73
     1
 44
1.0
  0
ENDBLK
  5
85D
330
696
100
AcDbEntity
  8
0
100
AcDbBlockEnd
  0
BLOCK
  5
85E
330
6A1
100
AcDbEntity
  8
0
100
AcDbBlockBegin
  2
*D17
 70
     1
 10
0.0
 20
0.0
 30
0.0
  3
*D17
  1

  0
POINT
  5
698
330
6A1
100
AcDbEntity
  8
DEFPOINTS
  6
ByBlock
 62
     7
380
     1
100
AcDbPoint
 10
261.8176585645997
 20
363.7001199188485
 30
0.0
  0
POINT
  5
699
330
6A1
100
AcDbEntity
  8
DEFPOINTS
  6
ByBlock
 62
     7
380
     1
100
AcDbPoint
 10
257.9865452340325
 20
267.0922409188483
 30
0.0
  0
LINE
  5
69A
330
6A1
100
AcDbEntity
  8
0
  6
ByBlock
 62
     7
370
    -2
380
     1
100
AcDbLine
 10
261.1926585645997
 20
363.7001199188485
 30
0.0
 11
239.7406671717674
 21
363.7001199188485
 31
0.0
  0
LINE
  5
69B
330
6A1
100
AcDbEntity
  8
0
  6
ByBlock
 62
     7
370
    -2
380
     1
100
AcDbLine
 10
257.3615452340325
 20
267.0922409188483
 30
0.0
 11
239.7406671717674
 21
267.0922409188483
 31
0.0
  0
LINE
  5
69C
330
6A1
100
AcDbEntity
  8
0
  6
ByBlock
 62
     7
370
    -2
380
     1
100
AcDbLine
 10
240.9906671717674
 20
353.7001199188485
 30
0.0
 11
240.9906671717674
 21
277.0922409188483
 31
0.0
  0
SOLID
  5
69D
330
6A1
100
AcDbEntity
  8
0
  6
ByBlock
 62
     7
380
     1
100
AcDbTrace
 10
240.9906671717674
 20
363.7001199188485
 30
0.0
 11
239.3240005051007
 21
353.7001199188485
 31
0.0
 12
242.6573338384341
 22
353.7001199188485
 32
0.0
 13
242.6573338384341
 23
353.7001199188485
 33
0.0
  0
SOLID
  5
69E
330
6A1
100
AcDbEntity
  8
0
  6
ByBlock
 62
     7
380
     1
100
AcDbTrace
 10
240.9906671717674
 20
267.0922409188483
 30
0.0
 11
239.3240005051007
 21
277.0922409188483
 31
0.0
 12
242.6573338384341
 22
277.0922409188483
 32
0.0
 13
242.6573338384341
 23
277.0922409188483
 33
0.0
  0
MTEXT
  5
69F
330
6A1
100
AcDbEntity
  8
0
  6
ByBlock
 62
     0
370
    -2
380
     1
100
AcDbMText
 10
228.9906671717674
 20
315.3961804188484
 30
0.0
 40
14.0
 41
0.0
 71
     5
 72
     1
  1
800
 11
6.123031769111886E-17
 21
1.0
 31
0.0
 73
     1
 44
1.0
  0
ENDBLK
  5
85F
330
6A1
100
AcDbEntity
  8
0
100
AcDbBlockEnd
  0
BLOCK
  5
860
330
6AC
100
AcDbEntity
  8
0
100
AcDbBlockBegin
  2
*D18
 70
     1
 10
0.0
 20
0.0
 30
0.0
  3
*D18
  1

  0
POINT
  5
6A3
330
6AC
100
AcDbEntity
  8
DEFPOINTS
  6
ByBlock
 62
     7
380
     1
100
AcDbPoint
 10
255.0062725645997
 20
267.0922409188483
 30
0.0
  0
POINT
  5
6A4
330
6AC
100
AcDbEntity
  8
DEFPOINTS
  6
ByBlock
 62
     7
380
     1
100
AcDbPoint
 10
257.3521815645997
 20
139.7000969188484
 30
0.0
  0
LINE
  5
6A5
330
6AC
100
AcDbEntity
  8
0
  6
ByBlock
 62
     7
370
    -2
380
     1
100
AcDbLine
 10
254.3812725645997
 20
267.0922409188483
 30
0.0
 11
239.8527792379192
 21
267.0922409188483
 31
0.0
  0
LINE
  5
6A6
330
6AC
100
AcDbEntity
  8
0
  6
ByBlock
 62
     7
370
    -2
380
     1
100
AcDbLine
 10
256.7271815645997
 20
139.7000969188484
 30
0.0
 11
239.8527792379192
 21
139.7000969188484
 31
0.0
  0
LINE
  5
6A7
330
6AC
100
AcDbEntity
  8
0
  6
ByBlock
 62
     7
370
    -2
380
     1
100
AcDbLine
 10
241.1027792379192
 20
257.0922409188483
 30
0.0
 11
241.1027792379192
 21
149.7000969188484
 31
0.0
  0
SOLID
  5
6A8
330
6AC
100
AcDbEntity
  8
0
  6
ByBlock
 62
     7
380
     1
100
AcDbTrace
 10
241.1027792379192
 20
267.0922409188483
 30
0.0
 11
239.4361125712526
 21
257.0922409188483
 31
0.0
 12
242.7694459045859
 22
257.0922409188483
 32
0.0
 13
242.7694459045859
 23
257.0922409188483
 33
0.0
  0
SOLID
  5
6A9
330
6AC
100
AcDbEntity
  8
0
  6
ByBlock
 62
     7
380
     1
100
AcDbTrace
 10
241.1027792379192
 20
139.7000969188484
 30
0.0
 11
239.4361125712526
 21
149.7000969188484
 31
0.0
 12
242.7694459045859
 22
149.7000969188484
 32
0.0
 13
242.7694459045859
 23
149.7000969188484
 33
0.0
  0
MTEXT
  5
6AA
330
6AC
100
AcDbEntity
  8
0
  6
ByBlock
 62
     0
370
    -2
380
     1
100
AcDbMText
 10
227.9361125712526
 20
203.3961689188484
 30
0.0
 40
14.0
 41
0.0
 71
     5
 72
     1
  1
\A1;127,39
 11
6.123031769111886E-17
 21
1.0
 31
0.0
 73
     1
 44
1.0
  0
ENDBLK
  5
861
330
6AC
100
AcDbEntity
  8
0
100
AcDbBlockEnd
  0
BLOCK
  5
862
330
6B7
100
AcDbEntity
  8
0
100
AcDbBlockBegin
  2
*D19
 70
     1
 10
0.0
 20
0.0
 30
0.0
  3
*D19
  1

  0
POINT
  5
6AE
330
6B7
100
AcDbEntity
  8
DEFPOINTS
  6
ByBlock
 62
     7
380
     1
100
AcDbPoint
 10
255.0062725645997
 20
267.0922409188483
 30
0.0
  0
POINT
  5
6AF
330
6B7
100
AcDbEntity
  8
DEFPOINTS
  6
ByBlock
 62
     7
380
     1
100
AcDbPoint
 10
257.3521815645997
 20
139.7000969188484
 30
0.0
  0
LINE
  5
6B0
330
6B7
100
AcDbEntity
  8
0
  6
ByBlock
 62
     7
370
    -2
380
     1
100
AcDbLine
 10
254.3812725645997
 20
267.0922409188483
 30
0.0
 11
239.8527792379192
 21
267.0922409188483
 31
0.0
  0
LINE
  5
6B1
330
6B7
100
AcDbEntity
  8
0
  6
ByBlock
 62
     7
370
    -2
380
     1
100
AcDbLine
 10
256.7271815645997
 20
139.7000969188484
 30
0.0
 11
239.8527792379192
 21
139.7000969188484
 31
0.0
  0
LINE
  5
6B2
330
6B7
100
AcDbEntity
  8
0
  6
ByBlock
 62
     7
370
    -2
380
     1
100
AcDbLine
 10
241.1027792379192
 20
257.0922409188483
 30
0.0
 11
241.1027792379192
 21
149.7000969188484
 31
0.0
  0
SOLID
  5
6B3
330
6B7
100
AcDbEntity
  8
0
  6
ByBlock
 62
     7
380
     1
100
AcDbTrace
 10
241.1027792379192
 20
267.0922409188483
 30
0.0
 11
239.4361125712526
 21
257.0922409188483
 31
0.0
 12
242.7694459045859
 22
257.0922409188483
 32
0.0
 13
242.7694459045859
 23
257.0922409188483
 33
0.0
  0
SOLID
  5
6B4
330
6B7
100
AcDbEntity
  8
0
  6
ByBlock
 62
     7
380
     1
100
AcDbTrace
 10
241.1027792379192
 20
139.7000969188484
 30
0.0
 11
239.4361125712526
 21
149.7000969188484
 31
0.0
 12
242.7694459045859
 22
149.7000969188484
 32
0.0
 13
242.7694459045859
 23
149.7000969188484
 33
0.0
  0
MTEXT
  5
6B5
330
6B7
100
AcDbEntity
  8
0
  6
ByBlock
 62
     0
370
    -2
380
     1
100
AcDbMText
 10
229.1027792379192
 20
203.3961689188484
 30
0.0
 40
14.0
 41
0.0
 71
     5
 72
     1
  1
500
 11
6.123031769111886E-17
 21
1.0
 31
0.0
 73
     1
 44
1.0
  0
ENDBLK
  5
863
330
6B7
100
AcDbEntity
  8
0
100
AcDbBlockEnd
  0
BLOCK
  5
864
330
6C2
100
AcDbEntity
  8
0
100
AcDbBlockBegin
  2
*D20
 70
     1
 10
0.0
 20
0.0
 30
0.0
  3
*D20
  1

  0
POINT
  5
6B9
330
6C2
100
AcDbEntity
  8
DEFPOINTS
  6
ByBlock
 62
     7
380
     1
100
AcDbPoint
 10
254.8997682047042
 20
267.0922409188483
 30
0.0
  0
POINT
  5
6BA
330
6C2
100
AcDbEntity
  8
DEFPOINTS
  6
ByBlock
 62
     7
380
     1
100
AcDbPoint
 10
257.2456772047042
 20
139.7000969188484
 30
0.0
  0
LINE
  5
6BB
330
6C2
100
AcDbEntity
  8
0
  6
ByBlock
 62
     7
370
    -2
380
     1
100
AcDbLine
 10
254.2747682047042
 20
267.0922409188483
 30
0.0
 11
239.7462748780237
 21
267.0922409188483
 31
0.0
  0
LINE
  5
6BC
330
6C2
100
AcDbEntity
  8
0
  6
ByBlock
 62
     7
370
    -2
380
     1
100
AcDbLine
 10
256.6206772047042
 20
139.7000969188484
 30
0.0
 11
239.7462748780237
 21
139.7000969188484
 31
0.0
  0
LINE
  5
6BD
330
6C2
100
AcDbEntity
  8
0
  6
ByBlock
 62
     7
370
    -2
380
     1
100
AcDbLine
 10
240.9962748780237
 20
257.0922409188483
 30
0.0
 11
240.9962748780237
 21
149.7000969188484
 31
0.0
  0
SOLID
  5
6BE
330
6C2
100
AcDbEntity
  8
0
  6
ByBlock
 62
     7
380
     1
100
AcDbTrace
 10
240.9962748780237
 20
267.0922409188483
 30
0.0
 11
239.3296082113571
 21
257.0922409188483
 31
0.0
 12
242.6629415446904
 22
257.0922409188483
 32
0.0
 13
242.6629415446904
 23
257.0922409188483
 33
0.0
  0
SOLID
  5
6BF
330
6C2
100
AcDbEntity
  8
0
  6
ByBlock
 62
     7
380
     1
100
AcDbTrace
 10
240.9962748780237
 20
139.7000969188484
 30
0.0
 11
239.3296082113571
 21
149.7000969188484
 31
0.0
 12
242.6629415446904
 22
149.7000969188484
 32
0.0
 13
242.6629415446904
 23
149.7000969188484
 33
0.0
  0
MTEXT
  5
6C0
330
6C2
100
AcDbEntity
  8
0
  6
ByBlock
 62
     0
370
    -2
380
     1
100
AcDbMText
 10
228.9962748780237
 20
203.3961689188484
 30
0.0
 40
14.0
 41
0.0
 71
     5
 72
     1
  1
500
 11
6.123031769111886E-17
 21
1.0
 31
0.0
 73
     1
 44
1.0
  0
ENDBLK
  5
865
330
6C2
100
AcDbEntity
  8
0
100
AcDbBlockEnd
  0
BLOCK
  5
866
330
6CD
100
AcDbEntity
  8
0
100
AcDbBlockBegin
  2
*D21
 70
     1
 10
0.0
 20
0.0
 30
0.0
  3
*D21
  1

  0
POINT
  5
6C4
330
6CD
100
AcDbEntity
  8
DEFPOINTS
  6
ByBlock
 62
     7
380
     1
100
AcDbPoint
 10
254.8941319267913
 20
267.0922409188483
 30
0.0
  0
POINT
  5
6C5
330
6CD
100
AcDbEntity
  8
DEFPOINTS
  6
ByBlock
 62
     7
380
     1
100
AcDbPoint
 10
257.2400409267913
 20
139.7000969188484
 30
0.0
  0
LINE
  5
6C6
330
6CD
100
AcDbEntity
  8
0
  6
ByBlock
 62
     7
370
    -2
380
     1
100
AcDbLine
 10
254.2691319267913
 20
267.0922409188483
 30
0.0
 11
239.7406386001108
 21
267.0922409188483
 31
0.0
  0
LINE
  5
6C7
330
6CD
100
AcDbEntity
  8
0
  6
ByBlock
 62
     7
370
    -2
380
     1
100
AcDbLine
 10
256.6150409267913
 20
139.7000969188484
 30
0.0
 11
239.7406386001108
 21
139.7000969188484
 31
0.0
  0
LINE
  5
6C8
330
6CD
100
AcDbEntity
  8
0
  6
ByBlock
 62
     7
370
    -2
380
     1
100
AcDbLine
 10
240.9906386001108
 20
257.0922409188483
 30
0.0
 11
240.9906386001108
 21
149.7000969188484
 31
0.0
  0
SOLID
  5
6C9
330
6CD
100
AcDbEntity
  8
0
  6
ByBlock
 62
     7
380
     1
100
AcDbTrace
 10
240.9906386001108
 20
267.0922409188483
 30
0.0
 11
239.3239719334441
 21
257.0922409188483
 31
0.0
 12
242.6573052667775
 22
257.0922409188483
 32
0.0
 13
242.6573052667775
 23
257.0922409188483
 33
0.0
  0
SOLID
  5
6CA
330
6CD
100
AcDbEntity
  8
0
  6
ByBlock
 62
     7
380
     1
100
AcDbTrace
 10
240.9906386001108
 20
139.7000969188484
 30
0.0
 11
239.3239719334441
 21
149.7000969188484
 31
0.0
 12
242.6573052667775
 22
149.7000969188484
 32
0.0
 13
242.6573052667775
 23
149.7000969188484
 33
0.0
  0
MTEXT
  5
6CB
330
6CD
100
AcDbEntity
  8
0
  6
ByBlock
 62
     0
370
    -2
380
     1
100
AcDbMText
 10
228.9906386001108
 20
203.3961689188484
 30
0.0
 40
14.0
 41
0.0
 71
     5
 72
     1
  1
500
 11
6.123031769111886E-17
 21
1.0
 31
0.0
 73
     1
 44
1.0
  0
ENDBLK
  5
867
330
6CD
100
AcDbEntity
  8
0
100
AcDbBlockEnd
  0
BLOCK
  5
868
330
6D8
100
AcDbEntity
  8
0
100
AcDbBlockBegin
  2
*D22
 70
     1
 10
0.0
 20
0.0
 30
0.0
  3
*D22
  1

  0
POINT
  5
6CF
330
6D8
100
AcDbEntity
  8
DEFPOINTS
  6
ByBlock
 62
     7
380
     1
100
AcDbPoint
 10
254.8941606046369
 20
267.0922409188483
 30
0.0
  0
POINT
  5
6D0
330
6D8
100
AcDbEntity
  8
DEFPOINTS
  6
ByBlock
 62
     7
380
     1
100
AcDbPoint
 10
257.2400696046369
 20
139.7000969188484
 30
0.0
  0
LINE
  5
6D1
330
6D8
100
AcDbEntity
  8
0
  6
ByBlock
 62
     7
370
    -2
380
     1
100
AcDbLine
 10
254.2691606046369
 20
267.0922409188483
 30
0.0
 11
239.7406672779564
 21
267.0922409188483
 31
0.0
  0
LINE
  5
6D2
330
6D8
100
AcDbEntity
  8
0
  6
ByBlock
 62
     7
370
    -2
380
     1
100
AcDbLine
 10
256.6150696046369
 20
139.7000969188484
 30
0.0
 11
239.7406672779564
 21
139.7000969188484
 31
0.0
  0
LINE
  5
6D3
330
6D8
100
AcDbEntity
  8
0
  6
ByBlock
 62
     7
370
    -2
380
     1
100
AcDbLine
 10
240.9906672779564
 20
257.0922409188483
 30
0.0
 11
240.9906672779564
 21
149.7000969188484
 31
0.0
  0
SOLID
  5
6D4
330
6D8
100
AcDbEntity
  8
0
  6
ByBlock
 62
     7
380
     1
100
AcDbTrace
 10
240.9906672779564
 20
267.0922409188483
 30
0.0
 11
239.3240006112897
 21
257.0922409188483
 31
0.0
 12
242.657333944623
 22
257.0922409188483
 32
0.0
 13
242.657333944623
 23
257.0922409188483
 33
0.0
  0
SOLID
  5
6D5
330
6D8
100
AcDbEntity
  8
0
  6
ByBlock
 62
     7
380
     1
100
AcDbTrace
 10
240.9906672779564
 20
139.7000969188484
 30
0.0
 11
239.3240006112897
 21
149.7000969188484
 31
0.0
 12
242.657333944623
 22
149.7000969188484
 32
0.0
 13
242.657333944623
 23
149.7000969188484
 33
0.0
  0
MTEXT
  5
6D6
330
6D8
100
AcDbEntity
  8
0
  6
ByBlock
 62
     0
370
    -2
380
     1
100
AcDbMText
 10
228.9906672779564
 20
203.3961689188484
 30
0.0
 40
14.0
 41
0.0
 71
     5
 72
     1
  1
500
 11
6.123031769111886E-17
 21
1.0
 31
0.0
 73
     1
 44
1.0
  0
ENDBLK
  5
869
330
6D8
100
AcDbEntity
  8
0
100
AcDbBlockEnd
  0
BLOCK
  5
86A
330
6E3
100
AcDbEntity
  8
0
100
AcDbBlockBegin
  2
*D23
 70
     1
 10
0.0
 20
0.0
 30
0.0
  3
*D23
  1

  0
POINT
  5
6DA
330
6E3
100
AcDbEntity
  8
DEFPOINTS
  6
ByBlock
 62
     7
380
     1
100
AcDbPoint
 10
254.8941605966694
 20
267.0922409182654
 30
0.0
  0
POINT
  5
6DB
330
6E3
100
AcDbEntity
  8
DEFPOINTS
  6
ByBlock
 62
     7
380
     1
100
AcDbPoint
 10
257.2400695966694
 20
139.7000969182654
 30
0.0
  0
LINE
  5
6DC
330
6E3
100
AcDbEntity
  8
0
  6
ByBlock
 62
     7
370
    -2
380
     1
100
AcDbLine
 10
254.2691605966694
 20
267.0922409182654
 30
0.0
 11
239.7406672699889
 21
267.0922409182654
 31
0.0
  0
LINE
  5
6DD
330
6E3
100
AcDbEntity
  8
0
  6
ByBlock
 62
     7
370
    -2
380
     1
100
AcDbLine
 10
256.6150695966694
 20
139.7000969182654
 30
0.0
 11
239.7406672699889
 21
139.7000969182654
 31
0.0
  0
LINE
  5
6DE
330
6E3
100
AcDbEntity
  8
0
  6
ByBlock
 62
     7
370
    -2
380
     1
100
AcDbLine
 10
240.9906672699889
 20
257.0922409182654
 30
0.0
 11
240.9906672699889
 21
149.7000969182654
 31
0.0
  0
SOLID
  5
6DF
330
6E3
100
AcDbEntity
  8
0
  6
ByBlock
 62
     7
380
     1
100
AcDbTrace
 10
240.9906672699889
 20
267.0922409182654
 30
0.0
 11
239.3240006033222
 21
257.0922409182654
 31
0.0
 12
242.6573339366556
 22
257.0922409182654
 32
0.0
 13
242.6573339366556
 23
257.0922409182654
 33
0.0
  0
SOLID
  5
6E0
330
6E3
100
AcDbEntity
  8
0
  6
ByBlock
 62
     7
380
     1
100
AcDbTrace
 10
240.9906672699889
 20
139.7000969182654
 30
0.0
 11
239.3240006033222
 21
149.7000969182654
 31
0.0
 12
242.6573339366556
 22
149.7000969182654
 32
0.0
 13
242.6573339366556
 23
149.7000969182654
 33
0.0
  0
MTEXT
  5
6E1
330
6E3
100
AcDbEntity
  8
0
  6
ByBlock
 62
     0
370
    -2
380
     1
100
AcDbMText
 10
228.9906672699889
 20
203.3961689182654
 30
0.0
 40
14.0
 41
0.0
 71
     5
 72
     1
  1
500
 11
6.123031769111886E-17
 21
1.0
 31
0.0
 73
     1
 44
1.0
  0
ENDBLK
  5
86B
330
6E3
100
AcDbEntity
  8
0
100
AcDbBlockEnd
  0
BLOCK
  5
86C
330
6EE
100
AcDbEntity
  8
0
100
AcDbBlockBegin
  2
*D24
 70
     1
 10
0.0
 20
0.0
 30
0.0
  3
*D24
  1

  0
POINT
  5
6E5
330
6EE
100
AcDbEntity
  8
DEFPOINTS
  6
ByBlock
 62
     7
380
     1
100
AcDbPoint
 10
254.8941605879246
 20
267.0922409099093
 30
0.0
  0
POINT
  5
6E6
330
6EE
100
AcDbEntity
  8
DEFPOINTS
  6
ByBlock
 62
     7
380
     1
100
AcDbPoint
 10
257.2400695879246
 20
139.7000969099093
 30
0.0
  0
LINE
  5
6E7
330
6EE
100
AcDbEntity
  8
0
  6
ByBlock
 62
     7
370
    -2
380
     1
100
AcDbLine
 10
254.2691605879246
 20
267.0922409099093
 30
0.0
 11
239.7406672612441
 21
267.0922409099093
 31
0.0
  0
LINE
  5
6E8
330
6EE
100
AcDbEntity
  8
0
  6
ByBlock
 62
     7
370
    -2
380
     1
100
AcDbLine
 10
256.6150695879246
 20
139.7000969099093
 30
0.0
 11
239.7406672612441
 21
139.7000969099093
 31
0.0
  0
LINE
  5
6E9
330
6EE
100
AcDbEntity
  8
0
  6
ByBlock
 62
     7
370
    -2
380
     1
100
AcDbLine
 10
240.9906672612441
 20
257.0922409099093
 30
0.0
 11
240.9906672612441
 21
149.7000969099093
 31
0.0
  0
SOLID
  5
6EA
330
6EE
100
AcDbEntity
  8
0
  6
ByBlock
 62
     7
380
     1
100
AcDbTrace
 10
240.9906672612441
 20
267.0922409099093
 30
0.0
 11
239.3240005945775
 21
257.0922409099093
 31
0.0
 12
242.6573339279108
 22
257.0922409099093
 32
0.0
 13
242.6573339279108
 23
257.0922409099093
 33
0.0
  0
SOLID
  5
6EB
330
6EE
100
AcDbEntity
  8
0
  6
ByBlock
 62
     7
380
     1
100
AcDbTrace
 10
240.9906672612441
 20
139.7000969099093
 30
0.0
 11
239.3240005945775
 21
149.7000969099093
 31
0.0
 12
242.6573339279108
 22
149.7000969099093
 32
0.0
 13
242.6573339279108
 23
149.7000969099093
 33
0.0
  0
MTEXT
  5
6EC
330
6EE
100
AcDbEntity
  8
0
  6
ByBlock
 62
     0
370
    -2
380
     1
100
AcDbMText
 10
228.9906672612441
 20
203.3961689099093
 30
0.0
 40
14.0
 41
0.0
 71
     5
 72
     1
  1
500
 11
6.123031769111886E-17
 21
1.0
 31
0.0
 73
     1
 44
1.0
  0
ENDBLK
  5
86D
330
6EE
100
AcDbEntity
  8
0
100
AcDbBlockEnd
  0
BLOCK
  5
86E
330
6F9
100
AcDbEntity
  8
0
100
AcDbBlockBegin
  2
*D25
 70
     1
 10
0.0
 20
0.0
 30
0.0
  3
*D25
  1

  0
POINT
  5
6F0
330
6F9
100
AcDbEntity
  8
DEFPOINTS
  6
ByBlock
 62
     7
380
     1
100
AcDbPoint
 10
254.8941604991164
 20
267.0922409246783
 30
0.0
  0
POINT
  5
6F1
330
6F9
100
AcDbEntity
  8
DEFPOINTS
  6
ByBlock
 62
     7
380
     1
100
AcDbPoint
 10
257.2400694991164
 20
139.7000969246783
 30
0.0
  0
LINE
  5
6F2
330
6F9
100
AcDbEntity
  8
0
  6
ByBlock
 62
     7
370
    -2
380
     1
100
AcDbLine
 10
254.2691604991164
 20
267.0922409246783
 30
0.0
 11
239.7406671724359
 21
267.0922409246783
 31
0.0
  0
LINE
  5
6F3
330
6F9
100
AcDbEntity
  8
0
  6
ByBlock
 62
     7
370
    -2
380
     1
100
AcDbLine
 10
256.6150694991164
 20
139.7000969246783
 30
0.0
 11
239.7406671724359
 21
139.7000969246783
 31
0.0
  0
LINE
  5
6F4
330
6F9
100
AcDbEntity
  8
0
  6
ByBlock
 62
     7
370
    -2
380
     1
100
AcDbLine
 10
240.9906671724359
 20
257.0922409246783
 30
0.0
 11
240.9906671724359
 21
149.7000969246783
 31
0.0
  0
SOLID
  5
6F5
330
6F9
100
AcDbEntity
  8
0
  6
ByBlock
 62
     7
380
     1
100
AcDbTrace
 10
240.9906671724359
 20
267.0922409246783
 30
0.0
 11
239.3240005057692
 21
257.0922409246783
 31
0.0
 12
242.6573338391026
 22
257.0922409246783
 32
0.0
 13
242.6573338391026
 23
257.0922409246783
 33
0.0
  0
SOLID
  5
6F6
330
6F9
100
AcDbEntity
  8
0
  6
ByBlock
 62
     7
380
     1
100
AcDbTrace
 10
240.9906671724359
 20
139.7000969246783
 30
0.0
 11
239.3240005057692
 21
149.7000969246783
 31
0.0
 12
242.6573338391026
 22
149.7000969246783
 32
0.0
 13
242.6573338391026
 23
149.7000969246783
 33
0.0
  0
MTEXT
  5
6F7
330
6F9
100
AcDbEntity
  8
0
  6
ByBlock
 62
     0
370
    -2
380
     1
100
AcDbMText
 10
228.9906671724359
 20
203.3961689246783
 30
0.0
 40
14.0
 41
0.0
 71
     5
 72
     1
  1
500
 11
6.123031769111886E-17
 21
1.0
 31
0.0
 73
     1
 44
1.0
  0
ENDBLK
  5
86F
330
6F9
100
AcDbEntity
  8
0
100
AcDbBlockEnd
  0
BLOCK
  5
870
330
704
100
AcDbEntity
  8
0
100
AcDbBlockBegin
  2
*D26
 70
     1
 10
0.0
 20
0.0
 30
0.0
  3
*D26
  1

  0
POINT
  5
6FB
330
704
100
AcDbEntity
  8
DEFPOINTS
  6
ByBlock
 62
     7
380
     1
100
AcDbPoint
 10
254.8941604979504
 20
267.0922409194314
 30
0.0
  0
POINT
  5
6FC
330
704
100
AcDbEntity
  8
DEFPOINTS
  6
ByBlock
 62
     7
380
     1
100
AcDbPoint
 10
257.2400694979505
 20
139.7000969194315
 30
0.0
  0
LINE
  5
6FD
330
704
100
AcDbEntity
  8
0
  6
ByBlock
 62
     7
370
    -2
380
     1
100
AcDbLine
 10
254.2691604979504
 20
267.0922409194314
 30
0.0
 11
239.7406671712699
 21
267.0922409194314
 31
0.0
  0
LINE
  5
6FE
330
704
100
AcDbEntity
  8
0
  6
ByBlock
 62
     7
370
    -2
380
     1
100
AcDbLine
 10
256.6150694979505
 20
139.7000969194315
 30
0.0
 11
239.7406671712699
 21
139.7000969194315
 31
0.0
  0
LINE
  5
6FF
330
704
100
AcDbEntity
  8
0
  6
ByBlock
 62
     7
370
    -2
380
     1
100
AcDbLine
 10
240.9906671712699
 20
257.0922409194314
 30
0.0
 11
240.9906671712699
 21
149.7000969194315
 31
0.0
  0
SOLID
  5
700
330
704
100
AcDbEntity
  8
0
  6
ByBlock
 62
     7
380
     1
100
AcDbTrace
 10
240.9906671712699
 20
267.0922409194314
 30
0.0
 11
239.3240005046033
 21
257.0922409194314
 31
0.0
 12
242.6573338379366
 22
257.0922409194314
 32
0.0
 13
242.6573338379366
 23
257.0922409194314
 33
0.0
  0
SOLID
  5
701
330
704
100
AcDbEntity
  8
0
  6
ByBlock
 62
     7
380
     1
100
AcDbTrace
 10
240.9906671712699
 20
139.7000969194315
 30
0.0
 11
239.3240005046033
 21
149.7000969194315
 31
0.0
 12
242.6573338379366
 22
149.7000969194315
 32
0.0
 13
242.6573338379366
 23
149.7000969194315
 33
0.0
  0
MTEXT
  5
702
330
704
100
AcDbEntity
  8
0
  6
ByBlock
 62
     0
370
    -2
380
     1
100
AcDbMText
 10
228.9906671712699
 20
203.3961689194314
 30
0.0
 40
14.0
 41
0.0
 71
     5
 72
     1
  1
500
 11
6.123031769111886E-17
 21
1.0
 31
0.0
 73
     1
 44
1.0
  0
ENDBLK
  5
871
330
704
100
AcDbEntity
  8
0
100
AcDbBlockEnd
  0
BLOCK
  5
872
330
70F
100
AcDbEntity
  8
0
100
AcDbBlockBegin
  2
*D27
 70
     1
 10
0.0
 20
0.0
 30
0.0
  3
*D27
  1

  0
POINT
  5
706
330
70F
100
AcDbEntity
  8
DEFPOINTS
  6
ByBlock
 62
     7
380
     1
100
AcDbPoint
 10
254.8941604989221
 20
267.0922409194314
 30
0.0
  0
POINT
  5
707
330
70F
100
AcDbEntity
  8
DEFPOINTS
  6
ByBlock
 62
     7
380
     1
100
AcDbPoint
 10
257.2400694989221
 20
139.7000969194315
 30
0.0
  0
LINE
  5
708
330
70F
100
AcDbEntity
  8
0
  6
ByBlock
 62
     7
370
    -2
380
     1
100
AcDbLine
 10
254.2691604989221
 20
267.0922409194314
 30
0.0
 11
239.7406671722416
 21
267.0922409194314
 31
0.0
  0
LINE
  5
709
330
70F
100
AcDbEntity
  8
0
  6
ByBlock
 62
     7
370
    -2
380
     1
100
AcDbLine
 10
256.6150694989221
 20
139.7000969194315
 30
0.0
 11
239.7406671722416
 21
139.7000969194315
 31
0.0
  0
LINE
  5
70A
330
70F
100
AcDbEntity
  8
0
  6
ByBlock
 62
     7
370
    -2
380
     1
100
AcDbLine
 10
240.9906671722416
 20
257.0922409194314
 30
0.0
 11
240.9906671722416
 21
149.7000969194315
 31
0.0
  0
SOLID
  5
70B
330
70F
100
AcDbEntity
  8
0
  6
ByBlock
 62
     7
380
     1
100
AcDbTrace
 10
240.9906671722416
 20
267.0922409194314
 30
0.0
 11
239.3240005055749
 21
257.0922409194314
 31
0.0
 12
242.6573338389082
 22
257.0922409194314
 32
0.0
 13
242.6573338389082
 23
257.0922409194314
 33
0.0
  0
SOLID
  5
70C
330
70F
100
AcDbEntity
  8
0
  6
ByBlock
 62
     7
380
     1
100
AcDbTrace
 10
240.9906671722416
 20
139.7000969194315
 30
0.0
 11
239.3240005055749
 21
149.7000969194315
 31
0.0
 12
242.6573338389082
 22
149.7000969194315
 32
0.0
 13
242.6573338389082
 23
149.7000969194315
 33
0.0
  0
MTEXT
  5
70D
330
70F
100
AcDbEntity
  8
0
  6
ByBlock
 62
     0
370
    -2
380
     1
100
AcDbMText
 10
228.9906671722416
 20
203.3961689194314
 30
0.0
 40
14.0
 41
0.0
 71
     5
 72
     1
  1
500
 11
6.123031769111886E-17
 21
1.0
 31
0.0
 73
     1
 44
1.0
  0
ENDBLK
  5
873
330
70F
100
AcDbEntity
  8
0
100
AcDbBlockEnd
  0
BLOCK
  5
874
330
71A
100
AcDbEntity
  8
0
100
AcDbBlockBegin
  2
*D28
 70
     1
 10
0.0
 20
0.0
 30
0.0
  3
*D28
  1

  0
POINT
  5
711
330
71A
100
AcDbEntity
  8
DEFPOINTS
  6
ByBlock
 62
     7
380
     1
100
AcDbPoint
 10
254.8941604983391
 20
267.0922409184597
 30
0.0
  0
POINT
  5
712
330
71A
100
AcDbEntity
  8
DEFPOINTS
  6
ByBlock
 62
     7
380
     1
100
AcDbPoint
 10
257.2400694983392
 20
139.7000969184598
 30
0.0
  0
LINE
  5
713
330
71A
100
AcDbEntity
  8
0
  6
ByBlock
 62
     7
370
    -2
380
     1
100
AcDbLine
 10
254.2691604983391
 20
267.0922409184597
 30
0.0
 11
239.7406671716586
 21
267.0922409184597
 31
0.0
  0
LINE
  5
714
330
71A
100
AcDbEntity
  8
0
  6
ByBlock
 62
     7
370
    -2
380
     1
100
AcDbLine
 10
256.6150694983392
 20
139.7000969184598
 30
0.0
 11
239.7406671716586
 21
139.7000969184598
 31
0.0
  0
LINE
  5
715
330
71A
100
AcDbEntity
  8
0
  6
ByBlock
 62
     7
370
    -2
380
     1
100
AcDbLine
 10
240.9906671716586
 20
257.0922409184597
 30
0.0
 11
240.9906671716586
 21
149.7000969184598
 31
0.0
  0
SOLID
  5
716
330
71A
100
AcDbEntity
  8
0
  6
ByBlock
 62
     7
380
     1
100
AcDbTrace
 10
240.9906671716586
 20
267.0922409184597
 30
0.0
 11
239.3240005049919
 21
257.0922409184597
 31
0.0
 12
242.6573338383253
 22
257.0922409184597
 32
0.0
 13
242.6573338383253
 23
257.0922409184597
 33
0.0
  0
SOLID
  5
717
330
71A
100
AcDbEntity
  8
0
  6
ByBlock
 62
     7
380
     1
100
AcDbTrace
 10
240.9906671716586
 20
139.7000969184598
 30
0.0
 11
239.3240005049919
 21
149.7000969184598
 31
0.0
 12
242.6573338383253
 22
149.7000969184598
 32
0.0
 13
242.6573338383253
 23
149.7000969184598
 33
0.0
  0
MTEXT
  5
718
330
71A
100
AcDbEntity
  8
0
  6
ByBlock
 62
     0
370
    -2
380
     1
100
AcDbMText
 10
228.9906671716586
 20
203.3961689184598
 30
0.0
 40
14.0
 41
0.0
 71
     5
 72
     1
  1
500
 11
6.123031769111886E-17
 21
1.0
 31
0.0
 73
     1
 44
1.0
  0
ENDBLK
  5
875
330
71A
100
AcDbEntity
  8
0
100
AcDbBlockEnd
  0
BLOCK
  5
876
330
725
100
AcDbEntity
  8
0
100
AcDbBlockBegin
  2
*D29
 70
     1
 10
0.0
 20
0.0
 30
0.0
  3
*D29
  1

  0
POINT
  5
71C
330
725
100
AcDbEntity
  8
DEFPOINTS
  6
ByBlock
 62
     7
380
     1
100
AcDbPoint
 10
254.8941604985334
 20
267.0922409178767
 30
0.0
  0
POINT
  5
71D
330
725
100
AcDbEntity
  8
DEFPOINTS
  6
ByBlock
 62
     7
380
     1
100
AcDbPoint
 10
257.2400694985335
 20
139.7000969178768
 30
0.0
  0
LINE
  5
71E
330
725
100
AcDbEntity
  8
0
  6
ByBlock
 62
     7
370
    -2
380
     1
100
AcDbLine
 10
254.2691604985334
 20
267.0922409178767
 30
0.0
 11
239.7406671718529
 21
267.0922409178767
 31
0.0
  0
LINE
  5
71F
330
725
100
AcDbEntity
  8
0
  6
ByBlock
 62
     7
370
    -2
380
     1
100
AcDbLine
 10
256.6150694985335
 20
139.7000969178768
 30
0.0
 11
239.7406671718529
 21
139.7000969178768
 31
0.0
  0
LINE
  5
720
330
725
100
AcDbEntity
  8
0
  6
ByBlock
 62
     7
370
    -2
380
     1
100
AcDbLine
 10
240.9906671718529
 20
257.0922409178767
 30
0.0
 11
240.9906671718529
 21
149.7000969178768
 31
0.0
  0
SOLID
  5
721
330
725
100
AcDbEntity
  8
0
  6
ByBlock
 62
     7
380
     1
100
AcDbTrace
 10
240.9906671718529
 20
267.0922409178767
 30
0.0
 11
239.3240005051863
 21
257.0922409178767
 31
0.0
 12
242.6573338385196
 22
257.0922409178767
 32
0.0
 13
242.6573338385196
 23
257.0922409178767
 33
0.0
  0
SOLID
  5
722
330
725
100
AcDbEntity
  8
0
  6
ByBlock
 62
     7
380
     1
100
AcDbTrace
 10
240.9906671718529
 20
139.7000969178768
 30
0.0
 11
239.3240005051863
 21
149.7000969178768
 31
0.0
 12
242.6573338385196
 22
149.7000969178768
 32
0.0
 13
242.6573338385196
 23
149.7000969178768
 33
0.0
  0
MTEXT
  5
723
330
725
100
AcDbEntity
  8
0
  6
ByBlock
 62
     0
370
    -2
380
     1
100
AcDbMText
 10
228.9906671718529
 20
203.3961689178768
 30
0.0
 40
14.0
 41
0.0
 71
     5
 72
     1
  1
500
 11
6.123031769111886E-17
 21
1.0
 31
0.0
 73
     1
 44
1.0
  0
ENDBLK
  5
877
330
725
100
AcDbEntity
  8
0
100
AcDbBlockEnd
  0
BLOCK
  5
878
330
730
100
AcDbEntity
  8
0
100
AcDbBlockBegin
  2
*D30
 70
     1
 10
0.0
 20
0.0
 30
0.0
  3
*D30
  1

  0
POINT
  5
727
330
730
100
AcDbEntity
  8
DEFPOINTS
  6
ByBlock
 62
     7
380
     1
100
AcDbPoint
 10
254.8941604985334
 20
267.0922409190427
 30
0.0
  0
POINT
  5
728
330
730
100
AcDbEntity
  8
DEFPOINTS
  6
ByBlock
 62
     7
380
     1
100
AcDbPoint
 10
257.2400694985335
 20
139.7000969190428
 30
0.0
  0
LINE
  5
729
330
730
100
AcDbEntity
  8
0
  6
ByBlock
 62
     7
370
    -2
380
     1
100
AcDbLine
 10
254.2691604985334
 20
267.0922409190427
 30
0.0
 11
239.7406671718529
 21
267.0922409190427
 31
0.0
  0
LINE
  5
72A
330
730
100
AcDbEntity
  8
0
  6
ByBlock
 62
     7
370
    -2
380
     1
100
AcDbLine
 10
256.6150694985335
 20
139.7000969190428
 30
0.0
 11
239.7406671718529
 21
139.7000969190428
 31
0.0
  0
LINE
  5
72B
330
730
100
AcDbEntity
  8
0
  6
ByBlock
 62
     7
370
    -2
380
     1
100
AcDbLine
 10
240.9906671718529
 20
257.0922409190427
 30
0.0
 11
240.9906671718529
 21
149.7000969190428
 31
0.0
  0
SOLID
  5
72C
330
730
100
AcDbEntity
  8
0
  6
ByBlock
 62
     7
380
     1
100
AcDbTrace
 10
240.9906671718529
 20
267.0922409190427
 30
0.0
 11
239.3240005051863
 21
257.0922409190427
 31
0.0
 12
242.6573338385196
 22
257.0922409190427
 32
0.0
 13
242.6573338385196
 23
257.0922409190427
 33
0.0
  0
SOLID
  5
72D
330
730
100
AcDbEntity
  8
0
  6
ByBlock
 62
     7
380
     1
100
AcDbTrace
 10
240.9906671718529
 20
139.7000969190428
 30
0.0
 11
239.3240005051863
 21
149.7000969190428
 31
0.0
 12
242.6573338385196
 22
149.7000969190428
 32
0.0
 13
242.6573338385196
 23
149.7000969190428
 33
0.0
  0
MTEXT
  5
72E
330
730
100
AcDbEntity
  8
0
  6
ByBlock
 62
     0
370
    -2
380
     1
100
AcDbMText
 10
228.9906671718529
 20
203.3961689190427
 30
0.0
 40
14.0
 41
0.0
 71
     5
 72
     1
  1
500
 11
6.123031769111886E-17
 21
1.0
 31
0.0
 73
     1
 44
1.0
  0
ENDBLK
  5
879
330
730
100
AcDbEntity
  8
0
100
AcDbBlockEnd
  0
BLOCK
  5
87A
330
73C
100
AcDbEntity
  8
0
100
AcDbBlockBegin
  2
*D31
 70
     1
 10
0.0
 20
0.0
 30
0.0
  3
*D31
  1

  0
POINT
  5
733
330
73C
100
AcDbEntity
  8
DEFPOINTS
  6
ByBlock
 62
     0
380
     1
100
AcDbPoint
 10
301.8639925645997
 20
211.7001049188484
 30
0.0
  0
POINT
  5
734
330
73C
100
AcDbEntity
  8
DEFPOINTS
  6
ByBlock
 62
     0
380
     1
100
AcDbPoint
 10
300.9319475645997
 20
139.7000969188484
 30
0.0
  0
LINE
  5
735
330
73C
100
AcDbEntity
  8
0
  6
ByBlock
 62
     0
370
    -2
380
     1
100
AcDbLine
 10
302.4889925645997
 20
211.7001049188484
 30
0.0
 11
320.1557349266644
 21
211.7001049188484
 31
0.0
  0
LINE
  5
736
330
73C
100
AcDbEntity
  8
0
  6
ByBlock
 62
     0
370
    -2
380
     1
100
AcDbLine
 10
301.5569475645997
 20
139.7000969188484
 30
0.0
 11
320.1557349266644
 21
139.7000969188484
 31
0.0
  0
LINE
  5
737
330
73C
100
AcDbEntity
  8
0
  6
ByBlock
 62
     0
370
    -2
380
     1
100
AcDbLine
 10
318.9057349266644
 20
209.2001049188484
 30
0.0
 11
318.9057349266644
 21
142.2000969188484
 31
0.0
  0
SOLID
  5
738
330
73C
100
AcDbEntity
  8
0
  6
ByBlock
 62
     0
380
     1
100
AcDbTrace
 10
318.9057349266644
 20
211.7001049188484
 30
0.0
 11
318.4890682599977
 21
209.2001049188484
 31
0.0
 12
319.3224015933311
 22
209.2001049188484
 32
0.0
 13
319.3224015933311
 23
209.2001049188484
 33
0.0
  0
SOLID
  5
739
330
73C
100
AcDbEntity
  8
0
  6
ByBlock
 62
     0
380
     1
100
AcDbTrace
 10
318.9057349266644
 20
139.7000969188484
 30
0.0
 11
318.4890682599977
 21
142.2000969188484
 31
0.0
 12
319.3224015933311
 22
142.2000969188484
 32
0.0
 13
319.3224015933311
 23
142.2000969188484
 33
0.0
  0
MTEXT
  5
73A
330
73C
100
AcDbEntity
  8
0
  6
ByBlock
 62
     0
370
    -2
380
     1
100
AcDbMText
 10
317.0307349266644
 20
175.7001009188484
 30
0.0
 40
2.5
 41
0.0
 71
     5
 72
     1
  1
\A1;72
 11
6.123031769111886E-17
 21
1.0
 31
0.0
 73
     1
 44
1.0
  0
ENDBLK
  5
87B
330
73C
100
AcDbEntity
  8
0
100
AcDbBlockEnd
  0
BLOCK
  5
87C
330
747
100
AcDbEntity
  8
0
100
AcDbBlockBegin
  2
*D32
 70
     1
 10
0.0
 20
0.0
 30
0.0
  3
*D32
  1

  0
POINT
  5
73E
330
747
100
AcDbEntity
  8
DEFPOINTS
  6
ByBlock
 62
     0
380
     1
100
AcDbPoint
 10
301.8639925645997
 20
211.7001049188484
 30
0.0
  0
POINT
  5
73F
330
747
100
AcDbEntity
  8
DEFPOINTS
  6
ByBlock
 62
     0
380
     1
100
AcDbPoint
 10
300.9319475645997
 20
139.7000969188484
 30
0.0
  0
LINE
  5
740
330
747
100
AcDbEntity
  8
0
  6
ByBlock
 62
     0
370
    -2
380
     1
100
AcDbLine
 10
302.4889925645997
 20
211.7001049188484
 30
0.0
 11
320.1557349266644
 21
211.7001049188484
 31
0.0
  0
LINE
  5
741
330
747
100
AcDbEntity
  8
0
  6
ByBlock
 62
     0
370
    -2
380
     1
100
AcDbLine
 10
301.5569475645997
 20
139.7000969188484
 30
0.0
 11
320.1557349266644
 21
139.7000969188484
 31
0.0
  0
LINE
  5
742
330
747
100
AcDbEntity
  8
0
  6
ByBlock
 62
     0
370
    -2
380
     1
100
AcDbLine
 10
318.9057349266644
 20
209.2001049188484
 30
0.0
 11
318.9057349266644
 21
142.2000969188484
 31
0.0
  0
SOLID
  5
743
330
747
100
AcDbEntity
  8
0
  6
ByBlock
 62
     0
380
     1
100
AcDbTrace
 10
318.9057349266644
 20
211.7001049188484
 30
0.0
 11
318.4890682599977
 21
209.2001049188484
 31
0.0
 12
319.3224015933311
 22
209.2001049188484
 32
0.0
 13
319.3224015933311
 23
209.2001049188484
 33
0.0
  0
SOLID
  5
744
330
747
100
AcDbEntity
  8
0
  6
ByBlock
 62
     0
380
     1
100
AcDbTrace
 10
318.9057349266644
 20
139.7000969188484
 30
0.0
 11
318.4890682599977
 21
142.2000969188484
 31
0.0
 12
319.3224015933311
 22
142.2000969188484
 32
0.0
 13
319.3224015933311
 23
142.2000969188484
 33
0.0
  0
MTEXT
  5
745
330
747
100
AcDbEntity
  8
0
  6
ByBlock
 62
     0
370
    -2
380
     1
100
AcDbMText
 10
317.0307349266644
 20
175.7001009188484
 30
0.0
 40
2.5
 41
0.0
 71
     5
 72
     1
  1
\A1;72
 11
6.123031769111886E-17
 21
1.0
 31
0.0
 73
     1
 44
1.0
  0
ENDBLK
  5
87D
330
747
100
AcDbEntity
  8
0
100
AcDbBlockEnd
  0
BLOCK
  5
87E
330
752
100
AcDbEntity
  8
0
100
AcDbBlockBegin
  2
*D33
 70
     1
 10
0.0
 20
0.0
 30
0.0
  3
*D33
  1

  0
POINT
  5
749
330
752
100
AcDbEntity
  8
DEFPOINTS
  6
ByBlock
 62
     7
380
     1
100
AcDbPoint
 10
301.8639925645997
 20
211.7001049188484
 30
0.0
  0
POINT
  5
74A
330
752
100
AcDbEntity
  8
DEFPOINTS
  6
ByBlock
 62
     7
380
     1
100
AcDbPoint
 10
300.9319475645997
 20
139.7000969188484
 30
0.0
  0
LINE
  5
74B
330
752
100
AcDbEntity
  8
0
  6
ByBlock
 62
     7
370
    -2
380
     1
100
AcDbLine
 10
302.4889925645997
 20
211.7001049188484
 30
0.0
 11
320.1557349266644
 21
211.7001049188484
 31
0.0
  0
LINE
  5
74C
330
752
100
AcDbEntity
  8
0
  6
ByBlock
 62
     7
370
    -2
380
     1
100
AcDbLine
 10
301.5569475645997
 20
139.7000969188484
 30
0.0
 11
320.1557349266644
 21
139.7000969188484
 31
0.0
  0
LINE
  5
74D
330
752
100
AcDbEntity
  8
0
  6
ByBlock
 62
     7
370
    -2
380
     1
100
AcDbLine
 10
318.9057349266644
 20
201.7001049188484
 30
0.0
 11
318.9057349266644
 21
149.7000969188484
 31
0.0
  0
SOLID
  5
74E
330
752
100
AcDbEntity
  8
0
  6
ByBlock
 62
     7
380
     1
100
AcDbTrace
 10
318.9057349266644
 20
211.7001049188484
 30
0.0
 11
317.2390682599977
 21
201.7001049188484
 31
0.0
 12
320.5724015933311
 22
201.7001049188484
 32
0.0
 13
320.5724015933311
 23
201.7001049188484
 33
0.0
  0
SOLID
  5
74F
330
752
100
AcDbEntity
  8
0
  6
ByBlock
 62
     7
380
     1
100
AcDbTrace
 10
318.9057349266644
 20
139.7000969188484
 30
0.0
 11
317.2390682599977
 21
149.7000969188484
 31
0.0
 12
320.5724015933311
 22
149.7000969188484
 32
0.0
 13
320.5724015933311
 23
149.7000969188484
 33
0.0
  0
MTEXT
  5
750
330
752
100
AcDbEntity
  8
0
  6
ByBlock
 62
     0
370
    -2
380
     1
100
AcDbMText
 10
306.9057349266644
 20
175.7001009188484
 30
0.0
 40
14.0
 41
0.0
 71
     5
 72
     1
  1
\A1;72
 11
6.123031769111886E-17
 21
1.0
 31
0.0
 73
     1
 44
1.0
  0
ENDBLK
  5
87F
330
752
100
AcDbEntity
  8
0
100
AcDbBlockEnd
  0
BLOCK
  5
880
330
75D
100
AcDbEntity
  8
0
100
AcDbBlockBegin
  2
*D34
 70
     1
 10
0.0
 20
0.0
 30
0.0
  3
*D34
  1

  0
POINT
  5
754
330
75D
100
AcDbEntity
  8
DEFPOINTS
  6
ByBlock
 62
     7
380
     1
100
AcDbPoint
 10
301.8639925645997
 20
211.7001049188484
 30
0.0
  0
POINT
  5
755
330
75D
100
AcDbEntity
  8
DEFPOINTS
  6
ByBlock
 62
     7
380
     1
100
AcDbPoint
 10
300.9319475645997
 20
139.7000969188484
 30
0.0
  0
LINE
  5
756
330
75D
100
AcDbEntity
  8
0
  6
ByBlock
 62
     7
370
    -2
380
     1
100
AcDbLine
 10
302.4889925645997
 20
211.7001049188484
 30
0.0
 11
320.1557349266644
 21
211.7001049188484
 31
0.0
  0
LINE
  5
757
330
75D
100
AcDbEntity
  8
0
  6
ByBlock
 62
     7
370
    -2
380
     1
100
AcDbLine
 10
301.5569475645997
 20
139.7000969188484
 30
0.0
 11
320.1557349266644
 21
139.7000969188484
 31
0.0
  0
LINE
  5
758
330
75D
100
AcDbEntity
  8
0
  6
ByBlock
 62
     7
370
    -2
380
     1
100
AcDbLine
 10
318.9057349266644
 20
201.7001049188484
 30
0.0
 11
318.9057349266644
 21
149.7000969188484
 31
0.0
  0
SOLID
  5
759
330
75D
100
AcDbEntity
  8
0
  6
ByBlock
 62
     7
380
     1
100
AcDbTrace
 10
318.9057349266644
 20
211.7001049188484
 30
0.0
 11
317.2390682599977
 21
201.7001049188484
 31
0.0
 12
320.5724015933311
 22
201.7001049188484
 32
0.0
 13
320.5724015933311
 23
201.7001049188484
 33
0.0
  0
SOLID
  5
75A
330
75D
100
AcDbEntity
  8
0
  6
ByBlock
 62
     7
380
     1
100
AcDbTrace
 10
318.9057349266644
 20
139.7000969188484
 30
0.0
 11
317.2390682599977
 21
149.7000969188484
 31
0.0
 12
320.5724015933311
 22
149.7000969188484
 32
0.0
 13
320.5724015933311
 23
149.7000969188484
 33
0.0
  0
MTEXT
  5
75B
330
75D
100
AcDbEntity
  8
0
  6
ByBlock
 62
     0
370
    -2
380
     1
100
AcDbMText
 10
306.9057349266644
 20
175.7001009188484
 30
0.0
 40
14.0
 41
0.0
 71
     5
 72
     1
  1
\A1;72
 11
6.123031769111886E-17
 21
1.0
 31
0.0
 73
     1
 44
1.0
  0
ENDBLK
  5
881
330
75D
100
AcDbEntity
  8
0
100
AcDbBlockEnd
  0
BLOCK
  5
882
330
768
100
AcDbEntity
  8
0
100
AcDbBlockBegin
  2
*D35
 70
     1
 10
0.0
 20
0.0
 30
0.0
  3
*D35
  1

  0
POINT
  5
75F
330
768
100
AcDbEntity
  8
DEFPOINTS
  6
ByBlock
 62
     7
380
     1
100
AcDbPoint
 10
301.8639925645997
 20
211.7001049188484
 30
0.0
  0
POINT
  5
760
330
768
100
AcDbEntity
  8
DEFPOINTS
  6
ByBlock
 62
     7
380
     1
100
AcDbPoint
 10
300.9319475645997
 20
139.7000969188484
 30
0.0
  0
LINE
  5
761
330
768
100
AcDbEntity
  8
0
  6
ByBlock
 62
     7
370
    -2
380
     1
100
AcDbLine
 10
302.4889925645997
 20
211.7001049188484
 30
0.0
 11
333.7689760466357
 21
211.7001049188484
 31
0.0
  0
LINE
  5
762
330
768
100
AcDbEntity
  8
0
  6
ByBlock
 62
     7
370
    -2
380
     1
100
AcDbLine
 10
301.5569475645997
 20
139.7000969188484
 30
0.0
 11
333.7689760466357
 21
139.7000969188484
 31
0.0
  0
LINE
  5
763
330
768
100
AcDbEntity
  8
0
  6
ByBlock
 62
     7
370
    -2
380
     1
100
AcDbLine
 10
332.5189760466357
 20
201.7001049188484
 30
0.0
 11
332.5189760466357
 21
149.7000969188484
 31
0.0
  0
SOLID
  5
764
330
768
100
AcDbEntity
  8
0
  6
ByBlock
 62
     7
380
     1
100
AcDbTrace
 10
332.5189760466357
 20
211.7001049188484
 30
0.0
 11
330.852309379969
 21
201.7001049188484
 31
0.0
 12
334.1856427133024
 22
201.7001049188484
 32
0.0
 13
334.1856427133024
 23
201.7001049188484
 33
0.0
  0
SOLID
  5
765
330
768
100
AcDbEntity
  8
0
  6
ByBlock
 62
     7
380
     1
100
AcDbTrace
 10
332.5189760466357
 20
139.7000969188484
 30
0.0
 11
330.852309379969
 21
149.7000969188484
 31
0.0
 12
334.1856427133024
 22
149.7000969188484
 32
0.0
 13
334.1856427133024
 23
149.7000969188484
 33
0.0
  0
MTEXT
  5
766
330
768
100
AcDbEntity
  8
0
  6
ByBlock
 62
     0
370
    -2
380
     1
100
AcDbMText
 10
320.5189760466357
 20
175.7001009188484
 30
0.0
 40
14.0
 41
0.0
 71
     5
 72
     1
  1
\A1;72
 11
6.123031769111886E-17
 21
1.0
 31
0.0
 73
     1
 44
1.0
  0
ENDBLK
  5
883
330
768
100
AcDbEntity
  8
0
100
AcDbBlockEnd
  0
BLOCK
  5
884
330
7C9
100
AcDbEntity
  8
0
100
AcDbBlockBegin
  2
*D36
 70
     1
 10
0.0
 20
0.0
 30
0.0
  3
*D36
  1

  0
POINT
  5
7C0
330
7C9
100
AcDbEntity
  8
DEFPOINTS
  6
ByBlock
 62
     7
380
     1
100
AcDbPoint
 10
257.0789770645997
 20
859.7001509188481
 30
0.0
  0
POINT
  5
7C1
330
7C9
100
AcDbEntity
  8
DEFPOINTS
  6
ByBlock
 62
     7
380
     1
100
AcDbPoint
 10
257.0789770645997
 20
139.7000969188484
 30
0.0
  0
LINE
  5
7C2
330
7C9
100
AcDbEntity
  8
0
  6
ByBlock
 62
     7
370
    -2
380
     1
100
AcDbLine
 10
256.4539770645997
 20
859.7001509188481
 30
0.0
 11
203.5461219168554
 21
859.7001509188481
 31
0.0
  0
LINE
  5
7C3
330
7C9
100
AcDbEntity
  8
0
  6
ByBlock
 62
     7
370
    -2
380
     1
100
AcDbLine
 10
256.4539770645997
 20
139.7000969188484
 30
0.0
 11
203.5461219168554
 21
139.7000969188484
 31
0.0
  0
LINE
  5
7C4
330
7C9
100
AcDbEntity
  8
0
  6
ByBlock
 62
     7
370
    -2
380
     1
100
AcDbLine
 10
204.7961219168554
 20
849.7001509188481
 30
0.0
 11
204.7961219168554
 21
149.7000969188484
 31
0.0
  0
SOLID
  5
7C5
330
7C9
100
AcDbEntity
  8
0
  6
ByBlock
 62
     7
380
     1
100
AcDbTrace
 10
204.7961219168554
 20
859.7001509188481
 30
0.0
 11
203.1294552501888
 21
849.7001509188481
 31
0.0
 12
206.4627885835221
 22
849.7001509188481
 32
0.0
 13
206.4627885835221
 23
849.7001509188481
 33
0.0
  0
SOLID
  5
7C6
330
7C9
100
AcDbEntity
  8
0
  6
ByBlock
 62
     7
380
     1
100
AcDbTrace
 10
204.7961219168554
 20
139.7000969188484
 30
0.0
 11
203.1294552501888
 21
149.7000969188484
 31
0.0
 12
206.4627885835221
 22
149.7000969188484
 32
0.0
 13
206.4627885835221
 23
149.7000969188484
 33
0.0
  0
MTEXT
  5
7C7
330
7C9
100
AcDbEntity
  8
0
  6
ByBlock
 62
     0
370
    -2
380
     1
100
AcDbMText
 10
192.7961219168554
 20
499.7001239188482
 30
0.0
 40
14.0
 41
0.0
 71
     5
 72
     1
  1
4600
 11
6.123031769111886E-17
 21
1.0
 31
0.0
 73
     1
 44
1.0
  0
ENDBLK
  5
885
330
7C9
100
AcDbEntity
  8
0
100
AcDbBlockEnd
  0
BLOCK
  5
886
330
7D4
100
AcDbEntity
  8
0
100
AcDbBlockBegin
  2
*D37
 70
     1
 10
0.0
 20
0.0
 30
0.0
  3
*D37
  1

  0
POINT
  5
7CB
330
7D4
100
AcDbEntity
  8
DEFPOINTS
  6
ByBlock
 62
     7
380
     1
100
AcDbPoint
 10
254.8941604985334
 20
267.0922409190427
 30
0.0
  0
POINT
  5
7CC
330
7D4
100
AcDbEntity
  8
DEFPOINTS
  6
ByBlock
 62
     7
380
     1
100
AcDbPoint
 10
257.2400694985335
 20
139.7000969190428
 30
0.0
  0
LINE
  5
7CD
330
7D4
100
AcDbEntity
  8
0
  6
ByBlock
 62
     7
370
    -2
380
     1
100
AcDbLine
 10
254.2691604985334
 20
267.0922409190427
 30
0.0
 11
239.7406671718529
 21
267.0922409190427
 31
0.0
  0
LINE
  5
7CE
330
7D4
100
AcDbEntity
  8
0
  6
ByBlock
 62
     7
370
    -2
380
     1
100
AcDbLine
 10
256.6150694985335
 20
139.7000969190428
 30
0.0
 11
239.7406671718529
 21
139.7000969190428
 31
0.0
  0
LINE
  5
7CF
330
7D4
100
AcDbEntity
  8
0
  6
ByBlock
 62
     7
370
    -2
380
     1
100
AcDbLine
 10
240.9906671718529
 20
257.0922409190427
 30
0.0
 11
240.9906671718529
 21
149.7000969190428
 31
0.0
  0
SOLID
  5
7D0
330
7D4
100
AcDbEntity
  8
0
  6
ByBlock
 62
     7
380
     1
100
AcDbTrace
 10
240.9906671718529
 20
267.0922409190427
 30
0.0
 11
239.3240005051862
 21
257.0922409190427
 31
0.0
 12
242.6573338385195
 22
257.0922409190427
 32
0.0
 13
242.6573338385195
 23
257.0922409190427
 33
0.0
  0
SOLID
  5
7D1
330
7D4
100
AcDbEntity
  8
0
  6
ByBlock
 62
     7
380
     1
100
AcDbTrace
 10
240.9906671718529
 20
139.7000969190428
 30
0.0
 11
239.3240005051862
 21
149.7000969190428
 31
0.0
 12
242.6573338385195
 22
149.7000969190428
 32
0.0
 13
242.6573338385195
 23
149.7000969190428
 33
0.0
  0
MTEXT
  5
7D2
330
7D4
100
AcDbEntity
  8
0
  6
ByBlock
 62
     0
370
    -2
380
     1
100
AcDbMText
 10
228.9906671718529
 20
203.3961689190427
 30
0.0
 40
14.0
 41
0.0
 71
     5
 72
     1
  1
600
 11
6.123031769111886E-17
 21
1.0
 31
0.0
 73
     1
 44
1.0
  0
ENDBLK
  5
887
330
7D4
100
AcDbEntity
  8
0
100
AcDbBlockEnd
  0
BLOCK
  5
888
330
7DF
100
AcDbEntity
  8
0
100
AcDbBlockBegin
  2
*D38
 70
     1
 10
0.0
 20
0.0
 30
0.0
  3
*D38
  1

  0
POINT
  5
7D6
330
7DF
100
AcDbEntity
  8
DEFPOINTS
  6
ByBlock
 62
     7
380
     1
100
AcDbPoint
 10
301.8639925645997
 20
211.7001049188484
 30
0.0
  0
POINT
  5
7D7
330
7DF
100
AcDbEntity
  8
DEFPOINTS
  6
ByBlock
 62
     7
380
     1
100
AcDbPoint
 10
300.9319475645997
 20
139.7000969188484
 30
0.0
  0
LINE
  5
7D8
330
7DF
100
AcDbEntity
  8
0
  6
ByBlock
 62
     7
370
    -2
380
     1
100
AcDbLine
 10
302.4889925645997
 20
211.7001049188484
 30
0.0
 11
333.7689760466357
 21
211.7001049188484
 31
0.0
  0
LINE
  5
7D9
330
7DF
100
AcDbEntity
  8
0
  6
ByBlock
 62
     7
370
    -2
380
     1
100
AcDbLine
 10
301.5569475645997
 20
139.7000969188484
 30
0.0
 11
333.7689760466357
 21
139.7000969188484
 31
0.0
  0
LINE
  5
7DA
330
7DF
100
AcDbEntity
  8
0
  6
ByBlock
 62
     7
370
    -2
380
     1
100
AcDbLine
 10
332.5189760466357
 20
201.7001049188484
 30
0.0
 11
332.5189760466357
 21
149.7000969188484
 31
0.0
  0
SOLID
  5
7DB
330
7DF
100
AcDbEntity
  8
0
  6
ByBlock
 62
     7
380
     1
100
AcDbTrace
 10
332.5189760466357
 20
211.7001049188484
 30
0.0
 11
330.852309379969
 21
201.7001049188484
 31
0.0
 12
334.1856427133024
 22
201.7001049188484
 32
0.0
 13
334.1856427133024
 23
201.7001049188484
 33
0.0
  0
SOLID
  5
7DC
330
7DF
100
AcDbEntity
  8
0
  6
ByBlock
 62
     7
380
     1
100
AcDbTrace
 10
332.5189760466357
 20
139.7000969188484
 30
0.0
 11
330.852309379969
 21
149.7000969188484
 31
0.0
 12
334.1856427133024
 22
149.7000969188484
 32
0.0
 13
334.1856427133024
 23
149.7000969188484
 33
0.0
  0
MTEXT
  5
7DD
330
7DF
100
AcDbEntity
  8
0
  6
ByBlock
 62
     0
370
    -2
380
     1
100
AcDbMText
 10
320.5189760466357
 20
175.7001009188484
 30
0.0
 40
14.0
 41
0.0
 71
     5
 72
     1
  1
410
 11
6.123031769111886E-17
 21
1.0
 31
0.0
 73
     1
 44
1.0
  0
ENDBLK
  5
889
330
7DF
100
AcDbEntity
  8
0
100
AcDbBlockEnd
  0
ENDSEC
  0
SECTION
  2
ENTITIES
  0
LINE
  5
FE
330
1F
100
AcDbEntity
  8
0
 62
     7
370
    60
100
AcDbLine
 10
305.3103885645987
 20
267.0922409188483
 30
0.0
 11
403.6305405645987
 21
267.0922409188483
 31
0.0
  0
LINE
  5
FF
330
1F
100
AcDbEntity
  8
0
 62
     7
370
    60
100
AcDbLine
 10
375.6143665645997
 20
247.0922409188483
 30
0.0
 11
395.6143665645997
 21
267.0922409188483
 31
0.0
  0
LINE
  5
100
330
1F
100
AcDbEntity
  8
0
 62
     7
370
    60
100
AcDbLine
 10
389.7565015645997
 20
247.0922409188483
 30
0.0
 11
403.6305405645987
 21
260.9662639188482
 31
0.0
  0
LINE
  5
101
330
1F
100
AcDbEntity
  8
0
 62
     7
370
    60
100
AcDbLine
 10
261.8176585645997
 20
363.7001199188485
 30
0.0
 11
261.8176585645997
 21
483.7001199188485
 31
0.0
  0
LINE
  5
102
330
1F
100
AcDbEntity
  8
0
 62
     7
370
    60
100
AcDbLine
 10
298.4033375645997
 20
235.7001049188484
 30
0.0
 11
298.4033375645997
 21
575.5639199188481
 31
0.0
  0
LINE
  5
103
330
1F
100
AcDbEntity
  8
0
 62
     7
370
    60
100
AcDbLine
 10
297.0531175645997
 20
139.7000969188484
 30
0.0
 11
297.0531175645997
 21
574.8243269188483
 31
0.0
  0
LINE
  5
104
330
1F
100
AcDbEntity
  8
0
 62
     7
370
    60
100
AcDbLine
 10
296.6430755645997
 20
139.7000969188484
 30
0.0
 11
296.6430755645997
 21
574.5997179188485
 31
0.0
  0
LINE
  5
106
330
1F
100
AcDbEntity
  8
0
 62
     7
370
    60
100
AcDbLine
 10
295.9692625645997
 20
139.7000969188484
 30
0.0
 11
295.9692625645997
 21
574.2306379188485
 31
0.0
  0
LINE
  5
107
330
1F
100
AcDbEntity
  8
0
 62
     7
370
    60
100
AcDbLine
 10
295.2761245645997
 20
139.7000969188484
 30
0.0
 11
295.2761245645997
 21
573.8509689188481
 31
0.0
  0
LINE
  5
109
330
1F
100
AcDbEntity
  8
0
 62
     7
370
    60
100
AcDbLine
 10
294.5645085645997
 20
139.7000969188484
 30
0.0
 11
294.5645085645997
 21
573.4611679188483
 31
0.0
  0
LINE
  5
10A
330
1F
100
AcDbEntity
  8
0
 62
     7
370
    60
100
AcDbLine
 10
293.8352905645997
 20
139.7000969188484
 30
0.0
 11
293.8352905645997
 21
573.0617539188484
 31
0.0
  0
LINE
  5
10C
330
1F
100
AcDbEntity
  8
0
 62
     7
370
    60
100
AcDbLine
 10
293.0893415645987
 20
139.7000969188484
 30
0.0
 11
293.0893415645987
 21
572.6531539188481
 31
0.0
  0
LINE
  5
10D
330
1F
100
AcDbEntity
  8
0
 62
     7
370
    60
100
AcDbLine
 10
284.7503825645997
 20
139.7000969188484
 30
0.0
 11
284.7503825645997
 21
568.0854349188485
 31
0.0
  0
LINE
  5
10E
330
1F
100
AcDbEntity
  8
0
 62
     7
370
    60
100
AcDbLine
 10
287.7941295645987
 20
139.7000969188484
 30
0.0
 11
287.7941295645987
 21
569.7526719188481
 31
0.0
  0
LINE
  5
10F
330
1F
100
AcDbEntity
  8
0
 62
     7
370
    60
100
AcDbLine
 10
288.3146985645997
 20
139.7000969188484
 30
0.0
 11
288.3146985645997
 21
570.0378279188485
 31
0.0
  0
LINE
  5
111
330
1F
100
AcDbEntity
  8
0
 62
     7
370
    60
100
AcDbLine
 10
289.1412595645987
 20
139.7000969188484
 30
0.0
 11
289.1412595645987
 21
570.4905559188483
 31
0.0
  0
LINE
  5
112
330
1F
100
AcDbEntity
  8
0
 62
     7
370
    60
100
AcDbLine
 10
289.9568115645988
 20
139.7000969188484
 30
0.0
 11
289.9568115645988
 21
570.9373029188482
 31
0.0
  0
LINE
  5
114
330
1F
100
AcDbEntity
  8
0
 62
     7
370
    60
100
AcDbLine
 10
290.7603625645987
 20
139.7000969188484
 30
0.0
 11
290.7603625645987
 21
571.3774269188484
 31
0.0
  0
LINE
  5
115
330
1F
100
AcDbEntity
  8
0
 62
     7
370
    60
100
AcDbLine
 10
291.5509425645997
 20
139.7000969188484
 30
0.0
 11
291.5509425645997
 21
571.8104719188482
 31
0.0
  0
LINE
  5
117
330
1F
100
AcDbEntity
  8
0
 62
     7
370
    60
100
AcDbLine
 10
292.3275845645987
 20
139.7000969188484
 30
0.0
 11
292.3275845645987
 21
572.2358869188483
 31
0.0
  0
LINE
  5
118
330
1F
100
AcDbEntity
  8
0
 62
     7
370
    60
100
AcDbLine
 10
272.4266375645997
 20
139.7000969188484
 30
0.0
 11
272.4266375645997
 21
561.3350389188481
 31
0.0
  0
LINE
  5
119
330
1F
100
AcDbEntity
  8
0
 62
     7
370
    60
100
AcDbLine
 10
271.9060685645987
 20
139.7000969188484
 30
0.0
 11
271.9060685645987
 21
561.0499129188483
 31
0.0
  0
LINE
  5
11B
330
1F
100
AcDbEntity
  8
0
 62
     7
370
    60
100
AcDbLine
 10
271.0795075645997
 20
139.7000969188484
 30
0.0
 11
271.0795075645997
 21
560.5971539188481
 31
0.0
  0
LINE
  5
11C
330
1F
100
AcDbEntity
  8
0
 62
     7
370
    60
100
AcDbLine
 10
270.2639555645987
 20
139.7000969188484
 30
0.0
 11
270.2639555645987
 21
560.1504379188482
 31
0.0
  0
LINE
  5
11E
330
1F
100
AcDbEntity
  8
0
 62
     7
370
    60
100
AcDbLine
 10
269.4604045645997
 20
139.7000969188484
 30
0.0
 11
269.4604045645997
 21
559.7102829188484
 31
0.0
  0
LINE
  5
11F
330
1F
100
AcDbEntity
  8
0
 62
     7
370
    60
100
AcDbLine
 10
268.6698245645997
 20
139.7000969188484
 30
0.0
 11
268.6698245645997
 21
559.2772379188482
 31
0.0
  0
LINE
  5
121
330
1F
100
AcDbEntity
  8
0
 62
     7
370
    60
100
AcDbLine
 10
267.8931825645997
 20
139.7000969188484
 30
0.0
 11
267.8931825645997
 21
558.8518229188485
 31
0.0
  0
LINE
  5
122
330
1F
100
AcDbEntity
  8
0
 62
     7
370
    60
100
AcDbLine
 10
263.1676495645997
 20
139.7000969188484
 30
0.0
 11
263.1676495645997
 21
556.2633829188485
 31
0.0
  0
LINE
  5
123
330
1F
100
AcDbEntity
  8
0
 62
     7
370
    60
100
AcDbLine
 10
263.5776915645997
 20
139.7000969188484
 30
0.0
 11
263.5776915645997
 21
556.4879929188482
 31
0.0
  0
LINE
  5
125
330
1F
100
AcDbEntity
  8
0
 62
     7
370
    60
100
AcDbLine
 10
264.2515045645997
 20
139.7000969188484
 30
0.0
 11
264.2515045645997
 21
556.8570719188483
 31
0.0
  0
LINE
  5
126
330
1F
100
AcDbEntity
  8
0
 62
     7
370
    60
100
AcDbLine
 10
264.9446425645997
 20
139.7000969188484
 30
0.0
 11
264.9446425645997
 21
557.2367409188482
 31
0.0
  0
LINE
  5
128
330
1F
100
AcDbEntity
  8
0
 62
     7
370
    60
100
AcDbLine
 10
265.6562595645997
 20
139.7000969188484
 30
0.0
 11
265.6562595645997
 21
557.6265419188485
 31
0.0
  0
LINE
  5
129
330
1F
100
AcDbEntity
  8
0
 62
     7
370
    60
100
AcDbLine
 10
266.3854765645997
 20
139.7000969188484
 30
0.0
 11
266.3854765645997
 21
558.0259869188485
 31
0.0
  0
LINE
  5
12B
330
1F
100
AcDbEntity
  8
0
 62
     7
370
    60
100
AcDbLine
 10
267.1314255645997
 20
139.7000969188484
 30
0.0
 11
267.1314255645997
 21
558.4345559188482
 31
0.0
  0
LINE
  5
12C
330
1F
100
AcDbEntity
  8
0
 62
     7
370
    60
100
AcDbLine
 10
305.3103885645987
 20
235.7001049188484
 30
0.0
 11
305.3103885645987
 21
579.3472759188485
 31
0.0
  0
LINE
  5
12E
330
1F
100
AcDbEntity
  8
0
 62
     7
370
    60
100
AcDbLine
 10
275.4703845645997
 20
139.7000969188484
 30
0.0
 11
275.4703845645997
 21
563.0022749188483
 31
0.0
  0
LINE
  5
12F
330
1F
100
AcDbEntity
  8
0
 62
     7
370
    60
100
AcDbLine
 10
300.9319475645997
 20
235.7001049188484
 30
0.0
 11
300.9319475645997
 21
576.9489609188481
 31
0.0
  0
LINE
  5
130
330
1F
100
AcDbEntity
  8
0
 62
     7
370
    60
100
AcDbLine
 10
301.8639925645997
 20
235.7001049188484
 30
0.0
 11
301.8639925645997
 21
577.4595199188484
 31
0.0
  0
LINE
  5
131
330
1F
100
AcDbEntity
  8
0
 62
     7
370
    60
100
AcDbLine
 10
304.7368715645997
 20
235.7001049188484
 30
0.0
 11
304.7368715645997
 21
579.0331279188481
 31
0.0
  0
LINE
  5
132
330
1F
100
AcDbEntity
  8
0
 62
     7
370
    60
100
AcDbLine
 10
304.8473905645997
 20
235.7001049188484
 30
0.0
 11
304.8473905645997
 21
579.0936749188481
 31
0.0
  0
LINE
  5
133
330
1F
100
AcDbEntity
  8
0
 62
     7
370
    60
100
AcDbLine
 10
305.0001315645987
 20
235.7001049188484
 30
0.0
 11
305.0001315645987
 21
579.1773539188484
 31
0.0
  0
LINE
  5
134
330
1F
100
AcDbEntity
  8
0
 62
     7
370
    60
100
AcDbLine
 10
305.1225445645997
 20
235.7001049188484
 30
0.0
 11
305.1225445645997
 21
579.2444009188484
 31
0.0
  0
LINE
  5
135
330
1F
100
AcDbEntity
  8
0
 62
     7
370
    60
100
AcDbLine
 10
305.2144945645997
 20
235.7001049188484
 30
0.0
 11
305.2144945645997
 21
579.2947549188484
 31
0.0
  0
LINE
  5
136
330
1F
100
AcDbEntity
  8
0
 62
     7
370
    60
100
AcDbLine
 10
305.2758495645987
 20
235.7001049188484
 30
0.0
 11
305.2758495645987
 21
579.3283549188482
 31
0.0
  0
LINE
  5
137
330
1F
100
AcDbEntity
  8
0
 62
     7
370
    60
100
AcDbLine
 10
298.4033375645997
 20
331.7001199188485
 30
0.0
 11
298.4033375645997
 21
575.5639199188481
 31
0.0
  0
ARC
  5
13B
330
1F
100
AcDbEntity
  8
0
 62
     7
370
    60
100
AcDbCircle
 10
257.7009295645997
 20
80.95674691884824
 30
0.0
 40
8.275867000000027
100
AcDbArc
 50
30.00000100000059
 51
78.93803300000339
  0
ARC
  5
13C
330
1F
100
AcDbEntity
  8
0
 62
     7
370
    60
100
AcDbCircle
 10
257.7009295645997
 20
106.8329599188482
 30
0.0
 40
8.275866999999845
100
AcDbArc
 50
281.0619560000014
 51
329.9999890000003
  0
ARC
  5
13D
330
1F
100
AcDbEntity
  8
0
 62
     7
370
    60
100
AcDbCircle
 10
257.7009295645997
 20
80.95674691884824
 30
0.0
 40
9.235867000000004
100
AcDbArc
 50
30.0000010000001
 51
77.170591999998
  0
ARC
  5
13E
330
1F
100
AcDbEntity
  8
0
 62
     7
370
    60
100
AcDbCircle
 10
257.7009295645997
 20
106.8329599188482
 30
0.0
 40
9.23586699999996
100
AcDbArc
 50
282.829418000001
 51
329.999989
  0
LINE
  5
140
330
1F
100
AcDbEntity
  8
0
 62
     7
370
    60
100
AcDbLine
 10
254.9103795645997
 20
363.7001199188485
 30
0.0
 11
261.8176585645997
 21
363.7001199188485
 31
0.0
  0
LINE
  5
141
330
1F
100
AcDbEntity
  8
0
 62
     7
370
    60
100
AcDbLine
 10
259.2888195645987
 20
139.7000969188484
 30
0.0
 11
261.8176585645997
 21
139.7000969188484
 31
0.0
  0
LINE
  5
142
330
1F
100
AcDbEntity
  8
0
 62
     7
370
    60
100
AcDbLine
 10
254.9449175645997
 20
139.7000969188484
 30
0.0
 11
305.3065505645988
 21
139.7000969188484
 31
0.0
  0
LINE
  5
143
330
1F
100
AcDbEntity
  8
0
 62
     7
370
    60
100
AcDbLine
 10
259.2888195645987
 20
139.7000969188484
 30
0.0
 11
259.2888195645987
 21
363.7001199188485
 31
0.0
  0
LINE
  5
144
330
1F
100
AcDbEntity
  8
0
 62
     7
370
    60
100
AcDbLine
 10
255.4838955645997
 20
139.7000969188484
 30
0.0
 11
255.4838955645997
 21
363.7001199188485
 31
0.0
  0
LINE
  5
145
330
1F
100
AcDbEntity
  8
0
 62
     7
370
    60
100
AcDbLine
 10
255.3733765645987
 20
139.7000969188484
 30
0.0
 11
255.3733765645987
 21
363.7001199188485
 31
0.0
  0
LINE
  5
146
330
1F
100
AcDbEntity
  8
0
 62
     7
370
    60
100
AcDbLine
 10
255.2206355645988
 20
139.7000969188484
 30
0.0
 11
255.2206355645988
 21
363.7001199188485
 31
0.0
  0
LINE
  5
147
330
1F
100
AcDbEntity
  8
0
 62
     7
370
    60
100
AcDbLine
 10
255.0982225645997
 20
139.7000969188484
 30
0.0
 11
255.0982225645997
 21
363.7001199188485
 31
0.0
  0
LINE
  5
148
330
1F
100
AcDbEntity
  8
0
 62
     7
370
    60
100
AcDbLine
 10
255.0062725645997
 20
139.7000969188484
 30
0.0
 11
255.0062725645997
 21
363.7001199188485
 31
0.0
  0
LINE
  5
14B
330
1F
100
AcDbEntity
  8
0
 62
     7
370
    60
100
AcDbLine
 10
254.9103795645997
 20
139.7000969188484
 30
0.0
 11
254.9103795645997
 21
363.7001199188485
 31
0.0
  0
LINE
  5
14C
330
1F
100
AcDbEntity
  8
0
 62
     7
370
    60
100
AcDbLine
 10
258.3567745645997
 20
139.7000969188484
 30
0.0
 11
258.3567745645997
 21
363.7001199188485
 31
0.0
  0
ARC
  5
150
330
1F
100
AcDbEntity
  8
0
 62
     7
370
    60
100
AcDbCircle
 10
280.1103835645997
 20
93.8948529188483
 30
0.0
 40
25.000002
100
AcDbArc
 50
176.9999950000012
 51
178.9999970000002
  0
ARC
  5
151
330
1F
100
AcDbEntity
  8
0
 62
     7
370
    60
100
AcDbCircle
 10
260.1004655645997
 20
94.86793291884828
 30
0.0
 40
0.4799999999999892
100
AcDbArc
 50
217.4575959999904
 51
37.45760399999038
  0
ARC
  5
152
330
1F
100
AcDbEntity
  8
0
 62
     7
370
    60
100
AcDbCircle
 10
258.8303845645987
 20
93.8948529188483
 30
0.0
 40
2.079999999999971
100
AcDbArc
 50
37.45760399999727
 51
162.6477449999958
  0
ARC
  5
153
330
1F
100
AcDbEntity
  8
0
 62
     7
370
    60
100
AcDbCircle
 10
258.8303845645987
 20
93.8948529188483
 30
0.0
 40
1.120000000000037
100
AcDbArc
 50
37.45760400000082
 51
180.0000050000013
  0
ARC
  5
154
330
1F
100
AcDbEntity
  8
0
 62
     7
370
    60
100
AcDbCircle
 10
256.3201005645997
 20
94.57485291884836
 30
0.0
 40
0.1999999999999679
100
AcDbArc
 50
178.3627540000267
 51
270.0000010000268
  0
ARC
  5
155
330
1F
100
AcDbEntity
  8
0
 62
     7
370
    60
100
AcDbCircle
 10
257.1521855645997
 20
86.45962091884826
 30
0.0
 40
0.3999999999999334
100
AcDbArc
 50
209.9999989999972
 51
299.9999949999972
  0
ARC
  5
156
330
1F
100
AcDbEntity
  8
0
 62
     7
370
    60
100
AcDbCircle
 10
258.8303845645987
 20
93.8948529188483
 30
0.0
 40
2.080000000000028
100
AcDbArc
 50
197.352251000004
 51
322.542406000006
  0
ARC
  5
157
330
1F
100
AcDbEntity
  8
0
 62
     7
370
    60
100
AcDbCircle
 10
257.6031815645997
 20
87.62718491884834
 30
0.0
 40
0.4143589999999673
100
AcDbArc
 50
120.0000029999984
 51
270.0000009999975
  0
LINE
  5
158
330
1F
100
AcDbEntity
  8
0
 62
     7
370
    60
100
AcDbLine
 10
256.9205875645997
 20
88.82006391884829
 30
0.0
 11
258.5964595645987
 21
89.78762891884821
 31
0.0
  0
LINE
  5
159
330
1F
100
AcDbEntity
  8
0
 62
     7
370
    60
100
AcDbLine
 10
255.4838955645997
 20
88.5491749188484
 30
0.0
 11
256.8057725645997
 21
86.25961991884833
 31
0.0
  0
ARC
  5
15A
330
1F
100
AcDbEntity
  8
0
 62
     7
370
    60
100
AcDbCircle
 10
280.1103835645997
 20
93.8948529188483
 30
0.0
 40
25.20000200000006
100
AcDbArc
 50
190.9999970000031
 51
192.2472040000031
  0
LINE
  5
15B
330
1F
100
AcDbEntity
  8
0
 62
     7
370
    60
100
AcDbLine
 10
255.3733765645987
 20
89.08646491884838
 30
0.0
 11
255.5697035645987
 21
89.12462691884821
 31
0.0
  0
ARC
  5
15C
330
1F
100
AcDbEntity
  8
0
 62
     7
370
    60
100
AcDbCircle
 10
280.1103835645997
 20
93.8948529188483
 30
0.0
 40
25.00000200000001
100
AcDbArc
 50
188.9999950000008
 51
190.9999970000028
  0
LINE
  5
15D
330
1F
100
AcDbEntity
  8
0
 62
     7
370
    60
100
AcDbLine
 10
255.2206355645988
 20
89.95270491884821
 30
0.0
 11
255.4181765645988
 21
89.98399091884835
 31
0.0
  0
ARC
  5
15E
330
1F
100
AcDbEntity
  8
0
 62
     7
370
    60
100
AcDbCircle
 10
280.1103835645997
 20
93.8948529188483
 30
0.0
 40
25.20000200000003
100
AcDbArc
 50
186.999993000001
 51
188.999995000001
  0
LINE
  5
15F
330
1F
100
AcDbEntity
  8
0
 62
     7
370
    60
100
AcDbLine
 10
255.0982225645997
 20
90.8237449188482
 30
0.0
 11
255.2967315645997
 21
90.84811891884829
 31
0.0
  0
ARC
  5
160
330
1F
100
AcDbEntity
  8
0
 62
     7
370
    60
100
AcDbCircle
 10
280.1103835645997
 20
93.8948529188483
 30
0.0
 40
25.00000199999999
100
AcDbArc
 50
184.9999900000001
 51
187.0000060000011
  0
LINE
  5
161
330
1F
100
AcDbEntity
  8
0
 62
     7
370
    60
100
AcDbLine
 10
255.0062725645997
 20
91.69852791884819
 30
0.0
 11
255.2055145645987
 21
91.7159589188484
 31
0.0
  0
ARC
  5
162
330
1F
100
AcDbEntity
  8
0
 62
     7
370
    60
100
AcDbCircle
 10
280.1103835645997
 20
93.8948529188483
 30
0.0
 40
25.20000200000002
100
AcDbArc
 50
183.0000020000009
 51
185.0000039999969
  0
LINE
  5
163
330
1F
100
AcDbEntity
  8
0
 62
     7
370
    60
100
AcDbLine
 10
254.9449175645997
 20
92.57598591884835
 30
0.0
 11
255.1446475645997
 21
92.58645391884829
 31
0.0
  0
ARC
  5
164
330
1F
100
AcDbEntity
  8
0
 62
     7
370
    60
100
AcDbCircle
 10
280.1103835645997
 20
93.8948529188483
 30
0.0
 40
25.00000200000005
100
AcDbArc
 50
180.999998999998
 51
183.0000020000009
  0
LINE
  5
165
330
1F
100
AcDbEntity
  8
0
 62
     7
370
    60
100
AcDbLine
 10
254.9142165645987
 20
93.4550529188482
 30
0.0
 11
255.1141905645987
 21
93.45854291884825
 31
0.0
  0
ARC
  5
166
330
1F
100
AcDbEntity
  8
0
 62
     7
370
    60
100
AcDbCircle
 10
280.1103835645997
 20
93.8948529188483
 30
0.0
 40
25.20000200000002
100
AcDbArc
 50
180.0000050000009
 51
180.999998999998
  0
LINE
  5
167
330
1F
100
AcDbEntity
  8
0
 62
     7
370
    60
100
AcDbLine
 10
254.9142165645987
 20
94.3346529188484
 30
0.0
 11
255.1141905645987
 21
94.33116291884835
 31
0.0
  0
ARC
  5
168
330
1F
100
AcDbEntity
  8
0
 62
     7
370
    60
100
AcDbCircle
 10
280.1103835645997
 20
93.8948529188483
 30
0.0
 40
25.200002
100
AcDbArc
 50
178.9999970000001
 51
180.0000050000012
  0
ARC
  5
169
330
1F
100
AcDbEntity
  8
0
 62
     7
370
    60
100
AcDbCircle
 10
280.1103835645997
 20
93.8948529188483
 30
0.0
 40
24.00000199999997
100
AcDbArc
 50
181.6372420000023
 51
191.8850529999992
  0
ARC
  5
16A
330
1F
100
AcDbEntity
  8
0
 62
     7
370
    60
100
AcDbCircle
 10
256.6541455645997
 20
93.21485291884824
 30
0.0
 40
0.1999999999999501
100
AcDbArc
 50
17.35226099998869
 51
89.99999599999241
  0
LINE
  5
16B
330
1F
100
AcDbEntity
  8
0
 62
     7
370
    60
100
AcDbLine
 10
256.3201005645997
 20
93.41485291884828
 30
0.0
 11
256.6541455645997
 21
93.41485291884828
 31
0.0
  0
ARC
  5
16C
330
1F
100
AcDbEntity
  8
0
 62
     7
370
    60
100
AcDbCircle
 10
256.3201005645997
 20
93.21485291884824
 30
0.0
 40
0.200000000000046
100
AcDbArc
 50
89.99999599998787
 51
181.637241999989
  0
ARC
  5
16D
330
1F
100
AcDbEntity
  8
0
 62
     7
370
    60
100
AcDbCircle
 10
256.8205885645997
 20
88.99326791884823
 30
0.0
 40
0.1999999999999947
100
AcDbArc
 50
191.8850530000322
 51
299.9999950000312
  0
ARC
  5
16E
330
1F
100
AcDbEntity
  8
0
 62
     7
370
    60
100
AcDbCircle
 10
256.6541455645997
 20
94.57485291884836
 30
0.0
 40
0.2000000000000455
100
AcDbArc
 50
270.0000009999949
 51
342.6477509999949
  0
LINE
  5
16F
330
1F
100
AcDbEntity
  8
0
 62
     7
370
    60
100
AcDbLine
 10
256.3201005645997
 20
94.37485291884832
 30
0.0
 11
256.6541455645997
 21
94.37485291884832
 31
0.0
  0
ARC
  5
170
330
1F
100
AcDbEntity
  8
0
 62
     7
370
    60
100
AcDbCircle
 10
258.8303845645987
 20
93.8948529188483
 30
0.0
 40
1.120000000000009
100
AcDbArc
 50
180.0000049999977
 51
322.5424059999997
  0
ARC
  5
171
330
1F
100
AcDbEntity
  8
0
 62
     7
370
    60
100
AcDbCircle
 10
260.1004655645997
 20
92.92177291884832
 30
0.0
 40
0.4799999999999804
100
AcDbArc
 50
322.542405999996
 51
142.542400999994
  0
LINE
  5
172
330
1F
100
AcDbEntity
  8
0
 62
     7
370
    60
100
AcDbLine
 10
257.3960055645997
 20
87.98602991884832
 30
0.0
 11
259.2888195645987
 21
89.07885091884827
 31
0.0
  0
LINE
  5
173
330
1F
100
AcDbEntity
  8
0
 62
     7
370
    60
100
AcDbLine
 10
258.0567715645997
 20
87.21282491884836
 30
0.0
 11
258.3567745645997
 21
86.6932099188482
 31
0.0
  0
LINE
  5
174
330
1F
100
AcDbEntity
  8
0
 62
     7
370
    60
100
AcDbLine
 10
257.3521815645997
 20
86.11320991884827
 30
0.0
 11
258.3567745645997
 21
86.6932099188482
 31
0.0
  0
ARC
  5
175
330
1F
100
AcDbEntity
  8
0
 62
     7
370
    60
100
AcDbCircle
 10
259.3964625645997
 20
88.40198791884836
 30
0.0
 40
1.600000000000056
100
AcDbArc
 50
77.17059199999959
 51
120.0000030000039
  0
LINE
  5
176
330
1F
100
AcDbEntity
  8
0
 62
     7
370
    60
100
AcDbLine
 10
257.6031815645997
 20
87.21282491884836
 30
0.0
 11
258.0567715645997
 21
87.21282491884836
 31
0.0
  0
ARC
  5
17E
330
1F
100
AcDbEntity
  8
0
 62
     7
370
    60
100
AcDbCircle
 10
257.1521855645997
 20
101.3300849188481
 30
0.0
 40
0.3999999999998287
100
AcDbArc
 50
60.00000199999107
 51
149.9999969999878
  0
ARC
  5
17F
330
1F
100
AcDbEntity
  8
0
 62
     7
370
    60
100
AcDbCircle
 10
257.6031815645997
 20
100.1625209188483
 30
0.0
 40
0.4143589999998772
100
AcDbArc
 50
90.00000299999756
 51
240.0000069999988
  0
LINE
  5
180
330
1F
100
AcDbEntity
  8
0
 62
     7
370
    60
100
AcDbLine
 10
256.9205875645997
 20
98.96964191884808
 30
0.0
 11
258.5964595645987
 21
98.00207691884816
 31
0.0
  0
LINE
  5
181
330
1F
100
AcDbEntity
  8
0
 62
     7
370
    60
100
AcDbLine
 10
255.4838955645997
 20
99.24053091884844
 30
0.0
 11
256.8057725645997
 21
101.5300859188483
 31
0.0
  0
ARC
  5
182
330
1F
100
AcDbEntity
  8
0
 62
     7
370
    60
100
AcDbCircle
 10
280.1103835645997
 20
93.8948529188483
 30
0.0
 40
25.20000199999995
100
AcDbArc
 50
167.7527930000013
 51
168.9999990000033
  0
LINE
  5
183
330
1F
100
AcDbEntity
  8
0
 62
     7
370
    60
100
AcDbLine
 10
255.3733765645987
 20
98.70324091884822
 30
0.0
 11
255.5697035645987
 21
98.6650789188484
 31
0.0
  0
ARC
  5
184
330
1F
100
AcDbEntity
  8
0
 62
     7
370
    60
100
AcDbCircle
 10
280.1103835645997
 20
93.8948529188483
 30
0.0
 40
25.00000200000007
100
AcDbArc
 50
168.9999990000026
 51
171.0000009999966
  0
LINE
  5
185
330
1F
100
AcDbEntity
  8
0
 62
     7
370
    60
100
AcDbLine
 10
255.2206355645988
 20
97.83700091884839
 30
0.0
 11
255.4181765645988
 21
97.80571491884848
 31
0.0
  0
ARC
  5
186
330
1F
100
AcDbEntity
  8
0
 62
     7
370
    60
100
AcDbCircle
 10
280.1103835645997
 20
93.8948529188483
 30
0.0
 40
25.20000199999999
100
AcDbArc
 50
171.0000009999968
 51
173.0000040000017
  0
LINE
  5
187
330
1F
100
AcDbEntity
  8
0
 62
     7
370
    60
100
AcDbLine
 10
255.0982225645997
 20
96.9659609188484
 30
0.0
 11
255.2967315645997
 21
96.94158691884832
 31
0.0
  0
ARC
  5
188
330
1F
100
AcDbEntity
  8
0
 62
     7
370
    60
100
AcDbCircle
 10
280.1103835645997
 20
93.8948529188483
 30
0.0
 40
25.00000200000006
100
AcDbArc
 50
173.0000040000015
 51
175.0000060000025
  0
LINE
  5
189
330
1F
100
AcDbEntity
  8
0
 62
     7
370
    60
100
AcDbLine
 10
255.0062725645997
 20
96.09117791884819
 30
0.0
 11
255.2055145645987
 21
96.07374691884843
 31
0.0
  0
ARC
  5
18A
330
1F
100
AcDbEntity
  8
0
 62
     7
370
    60
100
AcDbCircle
 10
280.1103835645997
 20
93.8948529188483
 30
0.0
 40
25.20000200000003
100
AcDbArc
 50
175.0000060000031
 51
176.9999950000011
  0
LINE
  5
18B
330
1F
100
AcDbEntity
  8
0
 62
     7
370
    60
100
AcDbLine
 10
254.9449175645997
 20
95.21371991884826
 30
0.0
 11
255.1446475645997
 21
95.20325191884831
 31
0.0
  0
ARC
  5
18C
330
1F
100
AcDbEntity
  8
0
 62
     7
370
    60
100
AcDbCircle
 10
280.1103835645997
 20
93.8948529188483
 30
0.0
 40
24.00000200000004
100
AcDbArc
 50
168.1149429999997
 51
178.3627540000007
  0
ARC
  5
18D
330
1F
100
AcDbEntity
  8
0
 62
     7
370
    60
100
AcDbCircle
 10
256.8205885645997
 20
98.79643791884837
 30
0.0
 40
0.1999999999999428
100
AcDbArc
 50
60.00000199997699
 51
168.1149429999757
  0
ARC
  5
18E
330
1F
100
AcDbEntity
  8
0
 62
     7
370
    60
100
AcDbCircle
 10
259.3964625645997
 20
99.38771791884847
 30
0.0
 40
1.599999999999872
100
AcDbArc
 50
240.0000069999968
 51
282.8294179999988
  0
LINE
  5
18F
330
1F
100
AcDbEntity
  8
0
 62
     7
370
    60
100
AcDbLine
 10
257.3960055645997
 20
99.80367591884851
 30
0.0
 11
259.2888195645987
 21
98.71085491884833
 31
0.0
  0
LINE
  5
190
330
1F
100
AcDbEntity
  8
0
 62
     7
370
    60
100
AcDbLine
 10
257.6031815645997
 20
100.5768809188485
 30
0.0
 11
258.0567715645997
 21
100.5768809188485
 31
0.0
  0
LINE
  5
191
330
1F
100
AcDbEntity
  8
0
 62
     7
370
    60
100
AcDbLine
 10
258.0567715645997
 20
100.5768809188485
 30
0.0
 11
258.3567745645997
 21
101.0964959188482
 31
0.0
  0
LINE
  5
192
330
1F
100
AcDbEntity
  8
0
 62
     7
370
    60
100
AcDbLine
 10
257.3521815645997
 20
101.6764959188481
 30
0.0
 11
258.3567745645997
 21
101.0964959188482
 31
0.0
  0
LINE
  5
193
330
1F
100
AcDbEntity
  8
0
 62
     7
370
    60
100
AcDbLine
 10
256.8057725645997
 20
139.7000969188484
 30
0.0
 11
257.3521815645997
 21
139.7000969188484
 31
0.0
  0
LINE
  5
194
330
1F
100
AcDbEntity
  8
0
 62
     7
370
    60
100
AcDbLine
 10
255.4838955645997
 20
139.7000969188484
 30
0.0
 11
256.8057725645997
 21
139.7000969188484
 31
0.0
  0
LINE
  5
195
330
1F
100
AcDbEntity
  8
0
 62
     7
370
    60
100
AcDbLine
 10
255.3733765645987
 20
139.7000969188484
 30
0.0
 11
255.4838955645997
 21
139.7000969188484
 31
0.0
  0
LINE
  5
196
330
1F
100
AcDbEntity
  8
0
 62
     7
370
    60
100
AcDbLine
 10
255.2206355645988
 20
139.7000969188484
 30
0.0
 11
255.3733765645987
 21
139.7000969188484
 31
0.0
  0
LINE
  5
197
330
1F
100
AcDbEntity
  8
0
 62
     7
370
    60
100
AcDbLine
 10
255.0982225645997
 20
139.7000969188484
 30
0.0
 11
255.2206355645988
 21
139.7000969188484
 31
0.0
  0
LINE
  5
198
330
1F
100
AcDbEntity
  8
0
 62
     7
370
    60
100
AcDbLine
 10
255.0062725645997
 20
139.7000969188484
 30
0.0
 11
255.0982225645997
 21
139.7000969188484
 31
0.0
  0
LINE
  5
199
330
1F
100
AcDbEntity
  8
0
 62
     7
370
    60
100
AcDbLine
 10
254.9449175645997
 20
139.7000969188484
 30
0.0
 11
255.0062725645997
 21
139.7000969188484
 31
0.0
  0
LINE
  5
19A
330
1F
100
AcDbEntity
  8
0
 62
     7
370
    60
100
AcDbLine
 10
254.9142165645987
 20
139.7000969188484
 30
0.0
 11
254.9449175645997
 21
139.7000969188484
 31
0.0
  0
LINE
  5
19B
330
1F
100
AcDbEntity
  8
0
 62
     7
370
    60
100
AcDbLine
 10
254.9103795645997
 20
139.7000969188484
 30
0.0
 11
254.9142165645987
 21
139.7000969188484
 31
0.0
  0
LINE
  5
19C
330
1F
100
AcDbEntity
  8
0
 62
     7
370
    60
100
AcDbLine
 10
258.3567745645997
 20
139.7000969188484
 30
0.0
 11
259.2888195645987
 21
139.7000969188484
 31
0.0
  0
LINE
  5
19D
330
1F
100
AcDbEntity
  8
0
 62
     7
370
    60
100
AcDbLine
 10
257.3521815645997
 20
139.7000969188484
 30
0.0
 11
258.3567745645997
 21
139.7000969188484
 31
0.0
  0
LINE
  5
1A2
330
1F
100
AcDbEntity
  8
0
 62
     7
370
    60
100
AcDbLine
 10
182.6432055645997
 20
267.0922409188483
 30
0.0
 11
255.0062725645997
 21
267.0922409188483
 31
0.0
  0
LINE
  5
1A3
330
1F
100
AcDbEntity
  8
0
 62
     7
370
    60
100
AcDbLine
 10
182.6432055645997
 20
252.1109939188482
 30
0.0
 11
197.6244515645997
 21
267.0922409188483
 31
0.0
  0
LINE
  5
1A4
330
1F
100
AcDbEntity
  8
0
 62
     7
370
    60
100
AcDbLine
 10
191.7665885645997
 20
247.0922409188483
 30
0.0
 11
211.7665915645997
 21
267.0922409188483
 31
0.0
  0
LINE
  5
1A5
330
1F
100
AcDbEntity
  8
0
 62
     7
370
    60
100
AcDbLine
 10
182.6432055645997
 20
266.2531289188482
 30
0.0
 11
183.4823175645997
 21
267.0922409188483
 31
0.0
  0
LINE
  5
1A7
330
1F
100
AcDbEntity
  8
0
 62
     7
370
    60
100
AcDbLine
 10
224.7115075645997
 20
251.7528849188484
 30
0.0
 11
236.1064315645997
 21
263.1478129188481
 31
0.0
  0
LINE
  5
1A8
330
1F
100
AcDbEntity
  8
0
 62
     7
370
    60
100
AcDbLine
 10
219.8247395645997
 20
267.0922409188483
 30
0.0
 11
238.5064295645997
 21
267.0922409188483
 31
0.0
  0
LINE
  5
1A9
330
1F
100
AcDbEntity
  8
0
 62
     7
370
    60
100
AcDbLine
 10
205.9087235645987
 20
247.0922409188483
 30
0.0
 11
223.9115085645997
 21
265.0950329188481
 31
0.0
  0
LINE
  5
1AA
330
1F
100
AcDbEntity
  8
0
 62
     7
370
    60
100
AcDbLine
 10
220.0508625645997
 20
247.0922409188483
 30
0.0
 11
223.9115085645997
 21
250.9528819188481
 31
0.0
  0
LINE
  5
1AB
330
1F
100
AcDbEntity
  8
0
 62
     7
370
    60
100
AcDbLine
 10
224.7115075645997
 20
265.8950359188484
 30
0.0
 11
225.9087235645987
 21
267.0922409188483
 31
0.0
  0
LINE
  5
1AC
330
1F
100
AcDbEntity
  8
0
 62
     7
370
    60
100
AcDbLine
 10
236.9064305645987
 20
249.8056649188484
 30
0.0
 11
254.1930025645997
 21
267.0922409188483
 31
0.0
  0
LINE
  5
1AD
330
1F
100
AcDbEntity
  8
0
 62
     7
370
    60
100
AcDbLine
 10
234.1929985645997
 20
247.0922409188483
 30
0.0
 11
236.1064315645997
 21
249.0056779188485
 31
0.0
  0
LINE
  5
1B2
330
1F
100
AcDbEntity
  8
0
 62
     7
370
    60
100
AcDbLine
 10
236.9064305645987
 20
263.9478159188484
 30
0.0
 11
237.0758105645997
 21
264.1171889188481
 31
0.0
  0
LINE
  5
1B3
330
1F
100
AcDbEntity
  8
0
 62
     7
370
    60
100
AcDbLine
 10
237.3162135645997
 20
264.3576219188485
 30
0.0
 11
240.0508625645997
 21
267.0922409188483
 31
0.0
  0
LINE
  5
1B4
330
1F
100
AcDbEntity
  8
0
 62
     7
370
    60
100
AcDbLine
 10
248.3351375645997
 20
247.0922409188483
 30
0.0
 11
254.9103795645997
 21
253.6674819188484
 31
0.0
  0
LINE
  5
1D7
330
1F
100
AcDbEntity
  8
0
 62
     7
370
    60
100
AcDbLine
 10
298.4033375645997
 20
211.7001049188484
 30
0.0
 11
298.4033375645997
 21
235.7001049188484
 31
0.0
  0
LINE
  5
1D8
330
1F
100
AcDbEntity
  8
0
 62
     7
370
    60
100
AcDbLine
 10
261.8176585645997
 20
139.7000969188484
 30
0.0
 11
261.8176585645997
 21
363.7001199188485
 31
0.0
  0
ARC
  5
1DB
330
1F
100
AcDbEntity
  8
0
 62
     7
370
    60
100
AcDbCircle
 10
300.1203015645997
 20
94.86793291884828
 30
0.0
 40
0.4799999999999823
100
AcDbArc
 50
142.542401000011
 51
322.5424060000129
  0
ARC
  5
1DC
330
1F
100
AcDbEntity
  8
0
 62
     7
370
    60
100
AcDbCircle
 10
301.3903825645997
 20
93.8948529188483
 30
0.0
 40
2.079999999999999
100
AcDbArc
 50
17.35226099999866
 51
142.5424010000025
  0
ARC
  5
1DD
330
1F
100
AcDbEntity
  8
0
 62
     7
370
    60
100
AcDbCircle
 10
301.3903825645997
 20
93.8948529188483
 30
0.0
 40
1.120000000000005
100
AcDbArc
 50
0.0
 51
142.542401000001
  0
ARC
  5
1DE
330
1F
100
AcDbEntity
  8
0
 62
     7
370
    60
100
AcDbCircle
 10
280.1103835645997
 20
93.8948529188483
 30
0.0
 40
25.00000200000004
100
AcDbArc
 50
1.000000000001779
 51
2.999999999998939
  0
ARC
  5
1DF
330
1F
100
AcDbEntity
  8
0
 62
     7
370
    60
100
AcDbCircle
 10
303.9006665645987
 20
94.57485291884836
 30
0.0
 40
0.2000000000000455
100
AcDbArc
 50
270.0000009999949
 51
1.637244999993865
  0
ARC
  5
1F7
330
1F
100
AcDbEntity
  8
0
 62
     7
370
    60
100
AcDbCircle
 10
302.5198375645997
 20
80.95674691884824
 30
0.0
 40
8.275866999999954
100
AcDbArc
 50
149.9999969999982
 51
198.9380299999972
  0
ARC
  5
1F8
330
1F
100
AcDbEntity
  8
0
 62
     7
370
    60
100
AcDbCircle
 10
302.5198375645997
 20
80.95674691884824
 30
0.0
 40
9.235866999999953
100
AcDbArc
 50
149.9999969999985
 51
197.1705950000005
  0
ARC
  5
1F9
330
1F
100
AcDbEntity
  8
0
 62
     7
370
    60
100
AcDbCircle
 10
280.1103835645997
 20
93.8948529188483
 30
0.0
 40
25.20000200000004
100
AcDbArc
 50
303.0000050000018
 51
304.9999939999999
  0
ARC
  5
1FA
330
1F
100
AcDbEntity
  8
0
 62
     7
370
    60
100
AcDbCircle
 10
280.1103835645997
 20
93.8948529188483
 30
0.0
 40
24.00000199999997
100
AcDbArc
 50
301.6372460000002
 51
311.8850429999982
  0
ARC
  5
1FB
330
1F
100
AcDbEntity
  8
0
 62
     7
370
    60
100
AcDbCircle
 10
295.2243055645997
 20
78.70250391884838
 30
0.0
 40
1.599999999999944
100
AcDbArc
 50
197.1705949999966
 51
240.0000069999956
  0
ARC
  5
1FC
330
1F
100
AcDbEntity
  8
0
 62
     7
370
    60
100
AcDbCircle
 10
302.5198375645997
 20
80.95674691884824
 30
0.0
 40
9.235866999999908
100
AcDbArc
 50
102.8294059999984
 51
149.9999969999984
  0
ARC
  5
1FD
330
1F
100
AcDbEntity
  8
0
 62
     7
370
    60
100
AcDbCircle
 10
280.1103835645997
 20
68.01864191884829
 30
0.0
 40
9.23586700000011
100
AcDbArc
 50
90.00000299999745
 51
137.1705930000017
  0
ARC
  5
1FE
330
1F
100
AcDbEntity
  8
0
 62
     7
370
    60
100
AcDbCircle
 10
280.1103835645997
 20
68.01864191884829
 30
0.0
 40
8.275867000000073
100
AcDbArc
 50
90.0000029999978
 51
138.9380279999981
  0
ARC
  5
201
330
1F
100
AcDbEntity
  8
0
 62
     7
370
    60
100
AcDbCircle
 10
280.1103835645997
 20
93.8948529188483
 30
0.0
 40
25.00000200000007
100
AcDbArc
 50
245.0000059999971
 51
246.9999939999971
  0
ARC
  5
202
330
1F
100
AcDbEntity
  8
0
 62
     7
370
    60
100
AcDbCircle
 10
269.4703845645997
 20
75.46583091884827
 30
0.0
 40
1.119999999999961
100
AcDbArc
 50
240.0000069999969
 51
22.542396999994
  0
ARC
  5
203
330
1F
100
AcDbEntity
  8
0
 62
     7
370
    60
100
AcDbCircle
 10
269.2627125645997
 20
77.05229591884836
 30
0.0
 40
0.4799999999998906
100
AcDbArc
 50
277.4576110000035
 51
97.45760600000345
  0
ARC
  5
204
330
1F
100
AcDbEntity
  8
0
 62
     7
370
    60
100
AcDbCircle
 10
269.4703845645997
 20
75.46583091884827
 30
0.0
 40
2.079999999999943
100
AcDbArc
 50
257.3522659999987
 51
22.5423969999967
  0
ARC
  5
205
330
1F
100
AcDbEntity
  8
0
 62
     7
370
    60
100
AcDbCircle
 10
280.1103835645997
 20
93.8948529188483
 30
0.0
 40
24.00000199999997
100
AcDbArc
 50
241.6372580000009
 51
251.8850549999979
  0
ARC
  5
207
330
1F
100
AcDbEntity
  8
0
 62
     7
370
    60
100
AcDbCircle
 10
257.7009295645997
 20
80.95674691884824
 30
0.0
 40
8.27586700000001
100
AcDbArc
 50
341.0619720000007
 51
30.00000100000066
  0
ARC
  5
208
330
1F
100
AcDbEntity
  8
0
 62
     7
370
    60
100
AcDbCircle
 10
257.7009295645997
 20
80.95674691884824
 30
0.0
 40
9.235867000000038
100
AcDbArc
 50
342.8294060000043
 51
30.00000100000025
  0
ARC
  5
209
330
1F
100
AcDbEntity
  8
0
 62
     7
370
    60
100
AcDbCircle
 10
280.1103835645997
 20
93.8948529188483
 30
0.0
 40
25.000002
100
AcDbArc
 50
232.9999920000012
 51
235.0000080000022
  0
LINE
  5
20A
330
1F
100
AcDbEntity
  8
0
 62
     7
370
    60
100
AcDbLine
 10
263.6360035645997
 20
77.1780329188482
 30
0.0
 11
265.5288255645987
 21
78.2708519188484
 31
0.0
  0
ARC
  5
20B
330
1F
100
AcDbEntity
  8
0
 62
     7
370
    60
100
AcDbCircle
 10
280.1103835645997
 20
93.8948529188483
 30
0.0
 40
24.00000200000002
100
AcDbArc
 50
228.1149450000002
 51
238.3627559999992
  0
LINE
  5
20C
330
1F
100
AcDbEntity
  8
0
 62
     7
370
    60
100
AcDbLine
 10
264.1205915645987
 20
76.34929591884838
 30
0.0
 11
265.7964645645988
 21
77.31686191884819
 31
0.0
  0
LINE
  5
20D
330
1F
100
AcDbEntity
  8
0
 62
     7
370
    60
100
AcDbLine
 10
262.9967745645997
 20
78.65649491884824
 30
0.0
 11
263.2967695645997
 21
78.1368789188482
 31
0.0
  0
LINE
  5
20E
330
1F
100
AcDbEntity
  8
0
 62
     7
370
    60
100
AcDbLine
 10
261.9921815645997
 20
78.0764939188482
 30
0.0
 11
262.9967745645997
 21
78.65649491884824
 31
0.0
  0
LINE
  5
20F
330
1F
100
AcDbEntity
  8
0
 62
     7
370
    60
100
AcDbLine
 10
261.8457735645987
 20
77.53008391884828
 30
0.0
 11
263.1676495645997
 21
75.24052991884832
 31
0.0
  0
ARC
  5
210
330
1F
100
AcDbEntity
  8
0
 62
     7
370
    60
100
AcDbCircle
 10
280.1103835645997
 20
93.8948529188483
 30
0.0
 40
25.20000200000004
100
AcDbArc
 50
227.752780999999
 51
229.000001000003
  0
LINE
  5
211
330
1F
100
AcDbEntity
  8
0
 62
     7
370
    60
100
AcDbLine
 10
263.5776915645997
 20
74.87616991884829
 30
0.0
 11
263.7089095645997
 21
75.0271109188484
 31
0.0
  0
ARC
  5
212
330
1F
100
AcDbEntity
  8
0
 62
     7
370
    60
100
AcDbCircle
 10
280.1103835645997
 20
93.8948529188483
 30
0.0
 40
25.00000199999991
100
AcDbArc
 50
229.0000010000029
 51
231.0000029999969
  0
LINE
  5
213
330
1F
100
AcDbEntity
  8
0
 62
     7
370
    60
100
AcDbLine
 10
264.2515045645997
 20
74.31077191884833
 30
0.0
 11
264.3773745645997
 21
74.46620291884824
 31
0.0
  0
ARC
  5
214
330
1F
100
AcDbEntity
  8
0
 62
     7
370
    60
100
AcDbCircle
 10
280.1103835645997
 20
93.8948529188483
 30
0.0
 40
25.20000200000009
100
AcDbArc
 50
231.0000029999971
 51
232.9999920000011
  0
LINE
  5
215
330
1F
100
AcDbEntity
  8
0
 62
     7
370
    60
100
AcDbLine
 10
264.9446425645997
 20
73.76923591884838
 30
0.0
 11
265.0650035645997
 21
73.92896391884824
 31
0.0
  0
LINE
  5
216
330
1F
100
AcDbEntity
  8
0
 62
     7
370
    60
100
AcDbLine
 10
263.0699785645987
 20
77.74405791884828
 30
0.0
 11
263.2967695645997
 21
78.1368789188482
 31
0.0
  0
ARC
  5
217
330
1F
100
AcDbEntity
  8
0
 62
     7
370
    60
100
AcDbCircle
 10
262.1921855645987
 20
77.73008391884832
 30
0.0
 40
0.3999999999999177
100
AcDbArc
 50
120.0000030000054
 51
209.9999990000014
  0
ARC
  5
218
330
1F
100
AcDbEntity
  8
0
 62
     7
370
    60
100
AcDbCircle
 10
263.4288195645997
 20
77.53687891884829
 30
0.0
 40
0.4143590000000241
100
AcDbArc
 50
149.999996999988
 51
299.9999949999881
  0
ARC
  5
219
330
1F
100
AcDbEntity
  8
0
 62
     7
370
    60
100
AcDbCircle
 10
264.2205905645988
 20
76.17609091884833
 30
0.0
 40
0.1999999999999873
100
AcDbArc
 50
120.0000030000195
 51
228.1149450000175
  0
LINE
  5
21A
330
1F
100
AcDbEntity
  8
0
 62
     7
370
    60
100
AcDbLine
 10
269.4604045645997
 20
71.05589491884825
 30
0.0
 11
269.5449235645997
 21
71.2371559188482
 31
0.0
  0
ARC
  5
21B
330
1F
100
AcDbEntity
  8
0
 62
     7
370
    60
100
AcDbCircle
 10
280.1103835645997
 20
93.8948529188483
 30
0.0
 40
25.20000199999996
100
AcDbArc
 50
242.9999899999988
 51
245.0000059999968
  0
LINE
  5
21C
330
1F
100
AcDbEntity
  8
0
 62
     7
370
    60
100
AcDbLine
 10
268.6698245645997
 20
71.44148591884823
 30
0.0
 11
268.7606215645988
 21
71.61968791884829
 31
0.0
  0
ARC
  5
21D
330
1F
100
AcDbEntity
  8
0
 62
     7
370
    60
100
AcDbCircle
 10
280.1103835645997
 20
93.8948529188483
 30
0.0
 40
25.00000199999993
100
AcDbArc
 50
241.0000009999999
 51
242.9999899999989
  0
LINE
  5
21E
330
1F
100
AcDbEntity
  8
0
 62
     7
370
    60
100
AcDbLine
 10
267.8931825645997
 20
71.85443491884826
 30
0.0
 11
267.9901445645987
 21
72.0293589188484
 31
0.0
  0
ARC
  5
21F
330
1F
100
AcDbEntity
  8
0
 62
     7
370
    60
100
AcDbCircle
 10
280.1103835645997
 20
93.8948529188483
 30
0.0
 40
25.20000199999993
100
AcDbArc
 50
240.0000069999989
 51
241.0000009999999
  0
LINE
  5
220
330
1F
100
AcDbEntity
  8
0
 62
     7
370
    60
100
AcDbLine
 10
265.6562595645997
 20
73.25221991884837
 30
0.0
 11
265.7709745645997
 21
73.41604991884833
 31
0.0
  0
ARC
  5
221
330
1F
100
AcDbEntity
  8
0
 62
     7
370
    60
100
AcDbCircle
 10
280.1103835645997
 20
93.8948529188483
 30
0.0
 40
25.20000199999993
100
AcDbArc
 50
235.0000080000019
 51
236.999996
  0
LINE
  5
222
330
1F
100
AcDbEntity
  8
0
 62
     7
370
    60
100
AcDbLine
 10
266.3854765645997
 20
72.7603519188483
 30
0.0
 11
266.4944095645997
 21
72.92808591884818
 31
0.0
  0
ARC
  5
223
330
1F
100
AcDbEntity
  8
0
 62
     7
370
    60
100
AcDbCircle
 10
280.1103835645997
 20
93.8948529188483
 30
0.0
 40
25.00000200000007
100
AcDbArc
 50
236.999996
 51
239.000011999998
  0
LINE
  5
224
330
1F
100
AcDbEntity
  8
0
 62
     7
370
    60
100
AcDbLine
 10
267.1314255645997
 20
72.29423491884836
 30
0.0
 11
267.2344295645987
 21
72.46566891884822
 31
0.0
  0
ARC
  5
225
330
1F
100
AcDbEntity
  8
0
 62
     7
370
    60
100
AcDbCircle
 10
280.1103835645997
 20
93.8948529188483
 30
0.0
 40
25.20000199999989
100
AcDbArc
 50
239.0000119999979
 51
240.0000069999989
  0
ARC
  5
226
330
1F
100
AcDbEntity
  8
0
 62
     7
370
    60
100
AcDbCircle
 10
269.4703845645997
 20
75.46583091884827
 30
0.0
 40
1.120000000000099
100
AcDbArc
 50
97.45760600000027
 51
240.0000069999984
  0
ARC
  5
227
330
1F
100
AcDbEntity
  8
0
 62
     7
370
    60
100
AcDbCircle
 10
269.4703845645997
 20
75.46583091884827
 30
0.0
 40
2.080000000000081
100
AcDbArc
 50
97.45760599999929
 51
222.6477339999975
  0
ARC
  5
228
330
1F
100
AcDbEntity
  8
0
 62
     7
370
    60
100
AcDbCircle
 10
268.9711625645997
 20
73.24115591884834
 30
0.0
 40
0.1999999999999764
100
AcDbArc
 50
77.3522610000089
 51
149.9999970000093
  0
LINE
  5
229
330
1F
100
AcDbEntity
  8
0
 62
     7
370
    60
100
AcDbLine
 10
268.6309295645997
 20
73.0518609188482
 30
0.0
 11
268.7979595645998
 21
73.34115491884836
 31
0.0
  0
ARC
  5
22A
330
1F
100
AcDbEntity
  8
0
 62
     7
370
    60
100
AcDbCircle
 10
268.8041395645997
 20
72.9518609188483
 30
0.0
 40
0.1999999999999304
100
AcDbArc
 50
149.9999970000088
 51
241.6372580000117
  0
ARC
  5
22B
330
1F
100
AcDbEntity
  8
0
 62
     7
370
    60
100
AcDbCircle
 10
267.7933665645987
 20
73.9211559188484
 30
0.0
 40
0.200000000000073
100
AcDbArc
 50
329.9999889999806
 51
42.64773899997856
  0
LINE
  5
22C
330
1F
100
AcDbEntity
  8
0
 62
     7
370
    60
100
AcDbLine
 10
267.7995465645997
 20
73.53186091884822
 30
0.0
 11
267.9665695645997
 21
73.82115591884826
 31
0.0
  0
ARC
  5
22D
330
1F
100
AcDbEntity
  8
0
 62
     7
370
    60
100
AcDbCircle
 10
267.6263445645997
 20
73.63186091884836
 30
0.0
 40
0.1999999999999894
100
AcDbArc
 50
238.3627560000135
 51
329.9999890000145
  0
ARC
  5
22E
330
1F
100
AcDbEntity
  8
0
 62
     7
370
    60
100
AcDbCircle
 10
264.9964615645997
 20
78.70250391884838
 30
0.0
 40
1.599999999999974
100
AcDbArc
 50
299.9999949999997
 51
342.8294060000057
  0
LINE
  5
22F
330
1F
100
AcDbEntity
  8
0
 62
     7
370
    60
100
AcDbLine
 10
266.8785565645987
 20
81.89485191884819
 30
0.0
 11
266.8890315645997
 21
81.89485191884819
 31
0.0
  0
LINE
  5
231
330
1F
100
AcDbEntity
  8
0
 62
     7
370
    60
100
AcDbLine
 10
272.4266375645997
 20
69.8948509188483
 30
0.0
 11
275.0703825645987
 21
69.8948509188483
 31
0.0
  0
ARC
  5
232
330
1F
100
AcDbEntity
  8
0
 62
     7
370
    60
100
AcDbCircle
 10
280.1103835645997
 20
93.8948529188483
 30
0.0
 40
25.20000200000001
100
AcDbArc
 50
250.9999990000041
 51
252.2472190000021
  0
LINE
  5
233
330
1F
100
AcDbEntity
  8
0
 62
     7
370
    60
100
AcDbLine
 10
271.9060685645987
 20
70.06778291884825
 30
0.0
 11
271.9711775645987
 21
70.2568869188483
 31
0.0
  0
ARC
  5
234
330
1F
100
AcDbEntity
  8
0
 62
     7
370
    60
100
AcDbCircle
 10
280.1103835645997
 20
93.8948529188483
 30
0.0
 40
25.00000200000006
100
AcDbArc
 50
249.000010000002
 51
250.999999000004
  0
LINE
  5
235
330
1F
100
AcDbEntity
  8
0
 62
     7
370
    60
100
AcDbLine
 10
271.0795075645997
 20
70.36862391884824
 30
0.0
 11
271.1511855645997
 21
70.5553399188484
 31
0.0
  0
ARC
  5
236
330
1F
100
AcDbEntity
  8
0
 62
     7
370
    60
100
AcDbCircle
 10
280.1103835645997
 20
93.8948529188483
 30
0.0
 40
25.20000199999999
100
AcDbArc
 50
246.9999939999971
 51
249.000010000002
  0
LINE
  5
237
330
1F
100
AcDbEntity
  8
0
 62
     7
370
    60
100
AcDbLine
 10
270.2639555645987
 20
70.6981289188484
 30
0.0
 11
270.3421035645997
 21
70.88222891884834
 31
0.0
  0
ARC
  5
238
330
1F
100
AcDbEntity
  8
0
 62
     7
370
    60
100
AcDbCircle
 10
270.9481365645997
 20
76.07921691884826
 30
0.0
 40
0.479999999999999
100
AcDbArc
 50
22.54239699999892
 51
202.5424019999988
  0
ARC
  5
239
330
1F
100
AcDbEntity
  8
0
 62
     7
370
    60
100
AcDbCircle
 10
272.7103825645997
 20
71.27450591884826
 30
0.0
 40
0.2000000000000776
100
AcDbArc
 50
251.8850549999916
 51
359.9999999999936
  0
LINE
  5
23A
330
1F
100
AcDbEntity
  8
0
 62
     7
370
    60
100
AcDbLine
 10
272.9103865645988
 20
71.27450591884826
 30
0.0
 11
272.9103865645988
 21
73.20963991884832
 31
0.0
  0
ARC
  5
23B
330
1F
100
AcDbEntity
  8
0
 62
     7
370
    60
100
AcDbCircle
 10
274.5103855645997
 20
73.20963991884832
 30
0.0
 40
1.599999999999988
100
AcDbArc
 50
137.1705929999995
 51
180.0000049999985
  0
LINE
  5
23C
330
1F
100
AcDbEntity
  8
0
 62
     7
370
    60
100
AcDbLine
 10
275.4703845645997
 20
70.2948509188484
 30
0.0
 11
275.4703845645997
 21
71.45485191884836
 31
0.0
  0
ARC
  5
23D
330
1F
100
AcDbEntity
  8
0
 62
     7
370
    60
100
AcDbCircle
 10
275.0703825645987
 20
70.2948509188484
 30
0.0
 40
0.400000000000091
100
AcDbArc
 50
270.0000009999949
 51
359.9999999999939
  0
LINE
  5
23E
330
1F
100
AcDbEntity
  8
0
 62
     7
370
    60
100
AcDbLine
 10
273.8703855645997
 20
71.26920991884822
 30
0.0
 11
273.8703855645997
 21
73.45485191884836
 31
0.0
  0
ARC
  5
23F
330
1F
100
AcDbEntity
  8
0
 62
     7
370
    60
100
AcDbCircle
 10
274.2847455645997
 20
71.26920991884822
 30
0.0
 40
0.4143589999999919
100
AcDbArc
 50
180.0000050000064
 51
329.9999890000054
  0
LINE
  5
240
330
1F
100
AcDbEntity
  8
0
 62
     7
370
    60
100
AcDbLine
 10
274.6435865645997
 20
71.06203091884822
 30
0.0
 11
274.8703855645997
 21
71.45485191884836
 31
0.0
  0
LINE
  5
241
330
1F
100
AcDbEntity
  8
0
 62
     7
370
    60
100
AcDbLine
 10
274.8703855645997
 20
71.45485191884836
 30
0.0
 11
275.4703845645997
 21
71.45485191884836
 31
0.0
  0
ARC
  5
243
330
1F
100
AcDbEntity
  8
0
 62
     7
370
    60
100
AcDbCircle
 10
280.1103835645997
 20
68.01864191884829
 30
0.0
 40
9.235867000000086
100
AcDbArc
 50
42.82940500000205
 51
90.00000299999795
  0
ARC
  5
244
330
1F
100
AcDbEntity
  8
0
 62
     7
370
    60
100
AcDbCircle
 10
280.1103835645997
 20
68.01864191884829
 30
0.0
 40
8.27586700000004
100
AcDbArc
 50
41.06196700000084
 51
90.00000299999785
  0
ARC
  5
245
330
1F
100
AcDbEntity
  8
0
 62
     7
370
    60
100
AcDbCircle
 10
285.9360215645997
 20
71.26920991884822
 30
0.0
 40
0.4143590000000177
100
AcDbArc
 50
209.9999989999929
 51
359.9999999999949
  0
LINE
  5
246
330
1F
100
AcDbEntity
  8
0
 62
     7
370
    60
100
AcDbLine
 10
285.1503845645997
 20
69.8948509188483
 30
0.0
 11
287.7941295645987
 21
69.8948509188483
 31
0.0
  0
LINE
  5
247
330
1F
100
AcDbEntity
  8
0
 62
     7
370
    60
100
AcDbLine
 10
285.3503815645997
 20
71.45485191884836
 30
0.0
 11
285.5771805645987
 21
71.06203091884822
 31
0.0
  0
LINE
  5
248
330
1F
100
AcDbEntity
  8
0
 62
     7
370
    60
100
AcDbLine
 10
284.7503825645997
 20
71.45485191884836
 30
0.0
 11
285.3503815645997
 21
71.45485191884836
 31
0.0
  0
LINE
  5
249
330
1F
100
AcDbEntity
  8
0
 62
     7
370
    60
100
AcDbLine
 10
284.7503825645997
 20
70.2948509188484
 30
0.0
 11
284.7503825645997
 21
71.45485191884836
 31
0.0
  0
ARC
  5
24A
330
1F
100
AcDbEntity
  8
0
 62
     7
370
    60
100
AcDbCircle
 10
285.1503845645997
 20
70.2948509188484
 30
0.0
 40
0.3999999999999788
100
AcDbArc
 50
180.000005000007
 51
270.000001000007
  0
ARC
  5
24D
330
1F
100
AcDbEntity
  8
0
 62
     7
370
    60
100
AcDbCircle
 10
290.7503825645997
 20
75.46583091884827
 30
0.0
 40
2.080000000000012
100
AcDbArc
 50
157.4576080000041
 51
282.6477349999981
  0
ARC
  5
24E
330
1F
100
AcDbEntity
  8
0
 62
     7
370
    60
100
AcDbCircle
 10
280.1103835645997
 20
93.8948529188483
 30
0.0
 40
25.00000200000008
100
AcDbArc
 50
293.000006999998
 51
294.999996000001
  0
ARC
  5
24F
330
1F
100
AcDbEntity
  8
0
 62
     7
370
    60
100
AcDbCircle
 10
290.7503825645997
 20
75.46583091884827
 30
0.0
 40
1.120000000000024
100
AcDbArc
 50
157.4576080000055
 51
299.9999949999994
  0
ARC
  5
250
330
1F
100
AcDbEntity
  8
0
 62
     7
370
    60
100
AcDbCircle
 10
280.1103835645997
 20
93.8948529188483
 30
0.0
 40
24.00000200000002
100
AcDbArc
 50
288.114945999999
 51
298.362744000002
  0
ARC
  5
251
330
1F
100
AcDbEntity
  8
0
 62
     7
370
    60
100
AcDbCircle
 10
289.2726305645997
 20
76.07921691884826
 30
0.0
 40
0.4800000000000615
100
AcDbArc
 50
337.4575989999909
 51
157.457607999994
  0
ARC
  5
252
330
1F
100
AcDbEntity
  8
0
 62
     7
370
    60
100
AcDbCircle
 10
285.7103825645997
 20
73.20963991884832
 30
0.0
 40
1.600000000000023
100
AcDbArc
 50
0.0
 51
42.8294050000018
  0
LINE
  5
253
330
1F
100
AcDbEntity
  8
0
 62
     7
370
    60
100
AcDbLine
 10
286.3503815645997
 20
71.26920991884822
 30
0.0
 11
286.3503815645997
 21
73.45485191884836
 31
0.0
  0
ARC
  5
254
330
1F
100
AcDbEntity
  8
0
 62
     7
370
    60
100
AcDbCircle
 10
280.1103835645997
 20
93.8948529188483
 30
0.0
 40
25.20000199999993
100
AcDbArc
 50
287.7527819999959
 51
289.0000019999989
  0
LINE
  5
255
330
1F
100
AcDbEntity
  8
0
 62
     7
370
    60
100
AcDbLine
 10
288.2495895645988
 20
70.2568869188483
 30
0.0
 11
288.3146985645997
 21
70.06778291884825
 31
0.0
  0
ARC
  5
256
330
1F
100
AcDbEntity
  8
0
 62
     7
370
    60
100
AcDbCircle
 10
280.1103835645997
 20
93.8948529188483
 30
0.0
 40
25.00000200000002
100
AcDbArc
 50
289.0000019999989
 51
290.9999909999979
  0
LINE
  5
257
330
1F
100
AcDbEntity
  8
0
 62
     7
370
    60
100
AcDbLine
 10
289.0695815645997
 20
70.5553399188484
 30
0.0
 11
289.1412595645987
 21
70.36862391884824
 31
0.0
  0
ARC
  5
258
330
1F
100
AcDbEntity
  8
0
 62
     7
370
    60
100
AcDbCircle
 10
280.1103835645997
 20
93.8948529188483
 30
0.0
 40
25.200002
100
AcDbArc
 50
290.9999909999978
 51
293.0000069999979
  0
LINE
  5
259
330
1F
100
AcDbEntity
  8
0
 62
     7
370
    60
100
AcDbLine
 10
289.8786635645997
 20
70.88222891884834
 30
0.0
 11
289.9568115645988
 21
70.6981289188484
 31
0.0
  0
ARC
  5
25A
330
1F
100
AcDbEntity
  8
0
 62
     7
370
    60
100
AcDbCircle
 10
287.5103855645997
 20
71.27450591884826
 30
0.0
 40
0.2000000000000462
100
AcDbArc
 50
180.0000049999744
 51
288.1149459999724
  0
LINE
  5
25B
330
1F
100
AcDbEntity
  8
0
 62
     7
370
    60
100
AcDbLine
 10
287.3103805645987
 20
71.27450591884826
 30
0.0
 11
287.3103805645987
 21
73.20963991884832
 31
0.0
  0
LINE
  5
25C
330
1F
100
AcDbEntity
  8
0
 62
     7
370
    60
100
AcDbLine
 10
293.7263585645987
 20
72.92808591884818
 30
0.0
 11
293.8352905645997
 21
72.7603519188483
 31
0.0
  0
ARC
  5
25D
330
1F
100
AcDbEntity
  8
0
 62
     7
370
    60
100
AcDbCircle
 10
280.1103835645997
 20
93.8948529188483
 30
0.0
 40
25.00000200000003
100
AcDbArc
 50
300.9999890000018
 51
303.0000050000017
  0
LINE
  5
25E
330
1F
100
AcDbEntity
  8
0
 62
     7
370
    60
100
AcDbLine
 10
292.9863375645997
 20
72.46566891884822
 30
0.0
 11
293.0893415645987
 21
72.29423491884836
 31
0.0
  0
ARC
  5
25F
330
1F
100
AcDbEntity
  8
0
 62
     7
370
    60
100
AcDbCircle
 10
280.1103835645997
 20
93.8948529188483
 30
0.0
 40
25.20000200000008
100
AcDbArc
 50
299.9999949999979
 51
300.9999890000018
  0
ARC
  5
260
330
1F
100
AcDbEntity
  8
0
 62
     7
370
    60
100
AcDbCircle
 10
290.7503825645997
 20
75.46583091884827
 30
0.0
 40
1.120000000000055
100
AcDbArc
 50
299.9999949999969
 51
82.54239899999985
  0
ARC
  5
261
330
1F
100
AcDbEntity
  8
0
 62
     7
370
    60
100
AcDbCircle
 10
290.9580555645997
 20
77.05229591884836
 30
0.0
 40
0.480000000000095
100
AcDbArc
 50
82.54239900000721
 51
262.5423900000047
  0
ARC
  5
262
330
1F
100
AcDbEntity
  8
0
 62
     7
370
    60
100
AcDbCircle
 10
290.7503825645997
 20
75.46583091884827
 30
0.0
 40
2.079999999999962
100
AcDbArc
 50
317.3522539999994
 51
82.5423990000004
  0
ARC
  5
263
330
1F
100
AcDbEntity
  8
0
 62
     7
370
    60
100
AcDbCircle
 10
292.4274005645997
 20
73.9211559188484
 30
0.0
 40
0.1999999999999731
100
AcDbArc
 50
137.3522629999861
 51
209.9999989999841
  0
LINE
  5
264
330
1F
100
AcDbEntity
  8
0
 62
     7
370
    60
100
AcDbLine
 10
292.2541975645997
 20
73.82115591884826
 30
0.0
 11
292.4212205645997
 21
73.53186091884822
 31
0.0
  0
ARC
  5
265
330
1F
100
AcDbEntity
  8
0
 62
     7
370
    60
100
AcDbCircle
 10
292.5944225645987
 20
73.63186091884836
 30
0.0
 40
0.2000000000000159
100
AcDbArc
 50
209.9999989999891
 51
301.6372459999911
  0
LINE
  5
266
330
1F
100
AcDbEntity
  8
0
 62
     7
370
    60
100
AcDbLine
 10
290.6758435645997
 20
71.2371559188482
 30
0.0
 11
290.7603625645987
 21
71.05589491884825
 31
0.0
  0
ARC
  5
267
330
1F
100
AcDbEntity
  8
0
 62
     7
370
    60
100
AcDbCircle
 10
280.1103835645997
 20
93.8948529188483
 30
0.0
 40
25.20000199999995
100
AcDbArc
 50
294.9999960000009
 51
297.0000120000009
  0
LINE
  5
268
330
1F
100
AcDbEntity
  8
0
 62
     7
370
    60
100
AcDbLine
 10
291.4601455645987
 20
71.61968791884829
 30
0.0
 11
291.5509425645997
 21
71.44148591884823
 31
0.0
  0
ARC
  5
269
330
1F
100
AcDbEntity
  8
0
 62
     7
370
    60
100
AcDbCircle
 10
280.1103835645997
 20
93.8948529188483
 30
0.0
 40
25.00000200000009
100
AcDbArc
 50
297.0000120000009
 51
299.000000000001
  0
LINE
  5
26A
330
1F
100
AcDbEntity
  8
0
 62
     7
370
    60
100
AcDbLine
 10
292.2306225645997
 20
72.0293589188484
 30
0.0
 11
292.3275845645987
 21
71.85443491884826
 31
0.0
  0
ARC
  5
26B
330
1F
100
AcDbEntity
  8
0
 62
     7
370
    60
100
AcDbCircle
 10
280.1103835645997
 20
93.8948529188483
 30
0.0
 40
25.20000199999993
100
AcDbArc
 50
299.0000000000011
 51
299.9999949999981
  0
ARC
  5
26C
330
1F
100
AcDbEntity
  8
0
 62
     7
370
    60
100
AcDbCircle
 10
291.2496045645997
 20
73.24115591884834
 30
0.0
 40
0.2000000000000791
100
AcDbArc
 50
30.00000100001024
 51
102.6477370000085
  0
LINE
  5
26D
330
1F
100
AcDbEntity
  8
0
 62
     7
370
    60
100
AcDbLine
 10
291.4228075645997
 20
73.34115491884836
 30
0.0
 11
291.5898375645987
 21
73.0518609188482
 31
0.0
  0
ARC
  5
26E
330
1F
100
AcDbEntity
  8
0
 62
     7
370
    60
100
AcDbCircle
 10
291.4166275645997
 20
72.9518609188483
 30
0.0
 40
0.1999999999999565
100
AcDbArc
 50
298.3627440000029
 51
30.00000100000091
  0
ARC
  5
270
330
1F
100
AcDbEntity
  8
0
 62
     7
370
    60
100
AcDbCircle
 10
301.3903825645997
 20
93.8948529188483
 30
0.0
 40
2.080000000000063
100
AcDbArc
 50
217.4575960000012
 51
342.6477510000022
  0
ARC
  5
271
330
1F
100
AcDbEntity
  8
0
 62
     7
370
    60
100
AcDbCircle
 10
301.3903825645997
 20
93.8948529188483
 30
0.0
 40
1.120000000000037
100
AcDbArc
 50
217.4575959999977
 51
0.0000099999987673
  0
LINE
  5
272
330
1F
100
AcDbEntity
  8
0
 62
     7
370
    60
100
AcDbLine
 10
300.9319475645997
 20
89.07885091884827
 30
0.0
 11
302.8247615645997
 21
87.98602991884832
 31
0.0
  0
LINE
  5
273
330
1F
100
AcDbEntity
  8
0
 62
     7
370
    60
100
AcDbLine
 10
301.8639925645997
 20
86.6932099188482
 30
0.0
 11
302.8685855645997
 21
86.11320991884827
 31
0.0
  0
LINE
  5
274
330
1F
100
AcDbEntity
  8
0
 62
     7
370
    60
100
AcDbLine
 10
302.1639955645987
 20
87.21282491884836
 30
0.0
 11
302.6175855645997
 21
87.21282491884836
 31
0.0
  0
LINE
  5
275
330
1F
100
AcDbEntity
  8
0
 62
     7
370
    60
100
AcDbLine
 10
301.6243075645997
 20
89.78762891884821
 30
0.0
 11
303.3001805645997
 21
88.82006391884829
 31
0.0
  0
ARC
  5
276
330
1F
100
AcDbEntity
  8
0
 62
     7
370
    60
100
AcDbCircle
 10
298.0285815645997
 20
77.73008391884832
 30
0.0
 40
0.3999999999999339
100
AcDbArc
 50
329.9999890000007
 51
60.00000200000162
  0
LINE
  5
277
330
1F
100
AcDbEntity
  8
0
 62
     7
370
    60
100
AcDbLine
 10
297.0531175645997
 20
75.24052991884832
 30
0.0
 11
298.3749935645997
 21
77.53008391884828
 31
0.0
  0
LINE
  5
278
330
1F
100
AcDbEntity
  8
0
 62
     7
370
    60
100
AcDbLine
 10
294.6919415645997
 20
78.2708519188484
 30
0.0
 11
296.5847645645997
 21
77.1780329188482
 31
0.0
  0
LINE
  5
279
330
1F
100
AcDbEntity
  8
0
 62
     7
370
    60
100
AcDbLine
 10
296.9239975645987
 20
78.1368789188482
 30
0.0
 11
297.2239925645997
 21
78.65649491884824
 31
0.0
  0
LINE
  5
27A
330
1F
100
AcDbEntity
  8
0
 62
     7
370
    60
100
AcDbLine
 10
297.2239925645997
 20
78.65649491884824
 30
0.0
 11
298.2285855645997
 21
78.0764939188482
 31
0.0
  0
ARC
  5
27B
330
1F
100
AcDbEntity
  8
0
 62
     7
370
    60
100
AcDbCircle
 10
296.7919475645997
 20
77.53687891884829
 30
0.0
 40
0.4143590000000271
100
AcDbArc
 50
240.0000070000006
 51
30.00000100000167
  0
LINE
  5
27C
330
1F
100
AcDbEntity
  8
0
 62
     7
370
    60
100
AcDbLine
 10
296.9239975645987
 20
78.1368789188482
 30
0.0
 11
297.1507885645997
 21
77.74405791884828
 31
0.0
  0
ARC
  5
27D
330
1F
100
AcDbEntity
  8
0
 62
     7
370
    60
100
AcDbCircle
 10
280.1103835645997
 20
93.8948529188483
 30
0.0
 40
25.20000199999998
100
AcDbArc
 50
311.0000139999991
 51
312.2472070000001
  0
LINE
  5
27E
330
1F
100
AcDbEntity
  8
0
 62
     7
370
    60
100
AcDbLine
 10
296.5118575645997
 20
75.0271109188484
 30
0.0
 11
296.6430755645997
 21
74.87616991884829
 31
0.0
  0
ARC
  5
27F
330
1F
100
AcDbEntity
  8
0
 62
     7
370
    60
100
AcDbCircle
 10
280.1103835645997
 20
93.8948529188483
 30
0.0
 40
25.00000200000008
100
AcDbArc
 50
308.9999980000028
 51
310.9999869999998
  0
LINE
  5
280
330
1F
100
AcDbEntity
  8
0
 62
     7
370
    60
100
AcDbLine
 10
295.8433925645987
 20
74.46620291884824
 30
0.0
 11
295.9692625645997
 21
74.31077191884833
 31
0.0
  0
ARC
  5
281
330
1F
100
AcDbEntity
  8
0
 62
     7
370
    60
100
AcDbCircle
 10
280.1103835645997
 20
93.8948529188483
 30
0.0
 40
25.20000199999997
100
AcDbArc
 50
307.0000100000012
 51
308.9999980000032
  0
LINE
  5
282
330
1F
100
AcDbEntity
  8
0
 62
     7
370
    60
100
AcDbLine
 10
295.1557635645997
 20
73.92896391884824
 30
0.0
 11
295.2761245645997
 21
73.76923591884838
 31
0.0
  0
ARC
  5
283
330
1F
100
AcDbEntity
  8
0
 62
     7
370
    60
100
AcDbCircle
 10
280.1103835645997
 20
93.8948529188483
 30
0.0
 40
25.00000199999998
100
AcDbArc
 50
304.9999940000001
 51
307.0000100000011
  0
LINE
  5
284
330
1F
100
AcDbEntity
  8
0
 62
     7
370
    60
100
AcDbLine
 10
294.4497925645987
 20
73.41604991884833
 30
0.0
 11
294.5645085645997
 21
73.25221991884837
 31
0.0
  0
ARC
  5
285
330
1F
100
AcDbEntity
  8
0
 62
     7
370
    60
100
AcDbCircle
 10
296.0001765645987
 20
76.17609091884833
 30
0.0
 40
0.2000000000000182
100
AcDbArc
 50
311.885042999994
 51
60.00000199999704
  0
LINE
  5
286
330
1F
100
AcDbEntity
  8
0
 62
     7
370
    60
100
AcDbLine
 10
294.4243025645987
 20
77.31686191884819
 30
0.0
 11
296.1001755645997
 21
76.34929591884838
 31
0.0
  0
ARC
  5
287
330
1F
100
AcDbEntity
  8
0
 62
     7
370
    60
100
AcDbCircle
 10
302.5198375645997
 20
80.95674691884824
 30
0.0
 40
8.275866999999991
100
AcDbArc
 50
101.0619650000031
 51
149.9999969999981
  0
LINE
  5
288
330
1F
100
AcDbEntity
  8
0
 62
     7
370
    60
100
AcDbLine
 10
294.7149445645997
 20
85.89485191884819
 30
0.0
 11
294.7218415645997
 21
85.89485191884819
 31
0.0
  0
ARC
  5
289
330
1F
100
AcDbEntity
  8
0
 62
     7
370
    60
100
AcDbCircle
 10
300.1203015645997
 20
92.92177291884832
 30
0.0
 40
0.4800000000000358
100
AcDbArc
 50
37.4576040000039
 51
217.4576090000054
  0
ARC
  5
28A
330
1F
100
AcDbEntity
  8
0
 62
     7
370
    60
100
AcDbCircle
 10
300.8243045645997
 20
88.40198791884836
 30
0.0
 40
1.599999999999962
100
AcDbArc
 50
60.00000199999977
 51
102.8294059999965
  0
LINE
  5
28B
330
1F
100
AcDbEntity
  8
0
 62
     7
370
    60
100
AcDbLine
 10
301.8639925645997
 20
86.6932099188482
 30
0.0
 11
302.1639955645987
 21
87.21282491884836
 31
0.0
  0
ARC
  5
28C
330
1F
100
AcDbEntity
  8
0
 62
     7
370
    60
100
AcDbCircle
 10
303.0685825645987
 20
86.45962091884826
 30
0.0
 40
0.3999999999999965
100
AcDbArc
 50
240.0000069999897
 51
329.9999889999908
  0
ARC
  5
28D
330
1F
100
AcDbEntity
  8
0
 62
     7
370
    60
100
AcDbCircle
 10
280.1103835645997
 20
93.8948529188483
 30
0.0
 40
24.00000200000007
100
AcDbArc
 50
348.1149339999967
 51
358.3627589999968
  0
ARC
  5
28E
330
1F
100
AcDbEntity
  8
0
 62
     7
370
    60
100
AcDbCircle
 10
303.4001785645997
 20
88.99326791884823
 30
0.0
 40
0.2000000000000967
100
AcDbArc
 50
240.000007000006
 51
348.114934000004
  0
ARC
  5
28F
330
1F
100
AcDbEntity
  8
0
 62
     7
370
    60
100
AcDbCircle
 10
280.1103835645997
 20
93.8948529188483
 30
0.0
 40
25.20000199999996
100
AcDbArc
 50
358.9999879999969
 51
0.0000100000009047
  0
ARC
  5
290
330
1F
100
AcDbEntity
  8
0
 62
     7
370
    60
100
AcDbCircle
 10
280.1103835645997
 20
93.8948529188483
 30
0.0
 40
25.20000200000004
100
AcDbArc
 50
0.0
 51
1.00000000000176
  0
LINE
  5
291
330
1F
100
AcDbEntity
  8
0
 62
     7
370
    60
100
AcDbLine
 10
303.4149945645997
 20
86.25961991884833
 30
0.0
 11
304.7368715645997
 21
88.5491749188484
 31
0.0
  0
ARC
  5
292
330
1F
100
AcDbEntity
  8
0
 62
     7
370
    60
100
AcDbCircle
 10
280.1103835645997
 20
93.8948529188483
 30
0.0
 40
25.20000200000007
100
AcDbArc
 50
347.7527979999987
 51
348.9999899999988
  0
LINE
  5
293
330
1F
100
AcDbEntity
  8
0
 62
     7
370
    60
100
AcDbLine
 10
304.6510635645997
 20
89.12462691884821
 30
0.0
 11
304.8473905645997
 21
89.08646491884838
 31
0.0
  0
LINE
  5
294
330
1F
100
AcDbEntity
  8
0
 62
     7
370
    60
100
AcDbLine
 10
304.8025905645987
 20
89.98399091884835
 30
0.0
 11
305.0001315645987
 21
89.95270491884821
 31
0.0
  0
ARC
  5
295
330
1F
100
AcDbEntity
  8
0
 62
     7
370
    60
100
AcDbCircle
 10
280.1103835645997
 20
93.8948529188483
 30
0.0
 40
25.20000199999997
100
AcDbArc
 50
351.0000060000008
 51
352.9999950000018
  0
LINE
  5
296
330
1F
100
AcDbEntity
  8
0
 62
     7
370
    60
100
AcDbLine
 10
304.9240355645987
 20
90.84811891884829
 30
0.0
 11
305.1225445645997
 21
90.8237449188482
 31
0.0
  0
ARC
  5
297
330
1F
100
AcDbEntity
  8
0
 62
     7
370
    60
100
AcDbCircle
 10
280.1103835645997
 20
93.8948529188483
 30
0.0
 40
25.00000200000004
100
AcDbArc
 50
352.9999950000018
 51
355.0000109999968
  0
LINE
  5
298
330
1F
100
AcDbEntity
  8
0
 62
     7
370
    60
100
AcDbLine
 10
305.0152525645997
 20
91.7159589188484
 30
0.0
 11
305.2144945645997
 21
91.69852791884819
 31
0.0
  0
ARC
  5
299
330
1F
100
AcDbEntity
  8
0
 62
     7
370
    60
100
AcDbCircle
 10
280.1103835645997
 20
93.8948529188483
 30
0.0
 40
25.20000199999997
100
AcDbArc
 50
355.0000109999968
 51
357.0000000000008
  0
LINE
  5
29A
330
1F
100
AcDbEntity
  8
0
 62
     7
370
    60
100
AcDbLine
 10
305.0761195645997
 20
92.58645391884829
 30
0.0
 11
305.2758495645987
 21
92.57598591884835
 31
0.0
  0
LINE
  5
29B
330
1F
100
AcDbEntity
  8
0
 62
     7
370
    60
100
AcDbLine
 10
305.1065765645997
 20
93.45854291884825
 30
0.0
 11
305.3065505645988
 21
93.4550529188482
 31
0.0
  0
LINE
  5
29C
330
1F
100
AcDbEntity
  8
0
 62
     7
370
    60
100
AcDbLine
 10
305.1065765645997
 20
94.33116291884835
 30
0.0
 11
305.3065505645988
 21
94.3346529188484
 31
0.0
  0
ARC
  5
29D
330
1F
100
AcDbEntity
  8
0
 62
     7
370
    60
100
AcDbCircle
 10
280.1103835645997
 20
93.8948529188483
 30
0.0
 40
25.00000199999998
100
AcDbArc
 50
348.9999899999992
 51
351.0000060000012
  0
ARC
  5
29E
330
1F
100
AcDbEntity
  8
0
 62
     7
370
    60
100
AcDbCircle
 10
280.1103835645997
 20
93.8948529188483
 30
0.0
 40
25.000002
100
AcDbArc
 50
357.0000000000011
 51
358.9999879999971
  0
ARC
  5
29F
330
1F
100
AcDbEntity
  8
0
 62
     7
370
    60
100
AcDbCircle
 10
303.5666215645997
 20
94.57485291884836
 30
0.0
 40
0.1999999999999696
100
AcDbArc
 50
197.352250999982
 51
270.0000009999821
  0
LINE
  5
2A0
330
1F
100
AcDbEntity
  8
0
 62
     7
370
    60
100
AcDbLine
 10
303.5666215645997
 20
94.37485291884832
 30
0.0
 11
303.9006665645987
 21
94.37485291884832
 31
0.0
  0
ARC
  5
2A1
330
1F
100
AcDbEntity
  8
0
 62
     7
370
    60
100
AcDbCircle
 10
302.6175855645997
 20
87.62718491884834
 30
0.0
 40
0.4143590000001041
100
AcDbArc
 50
270.0000010000044
 51
60.00000200000436
  0
ARC
  5
2A2
330
1F
100
AcDbEntity
  8
0
 62
     7
370
    60
100
AcDbCircle
 10
303.5666215645997
 20
93.21485291884824
 30
0.0
 40
0.2000000000000458
100
AcDbArc
 50
90.00000299998467
 51
162.647744999986
  0
LINE
  5
2A3
330
1F
100
AcDbEntity
  8
0
 62
     7
370
    60
100
AcDbLine
 10
303.5666215645997
 20
93.41485291884828
 30
0.0
 11
303.9006665645987
 21
93.41485291884828
 31
0.0
  0
ARC
  5
2A4
330
1F
100
AcDbEntity
  8
0
 62
     7
370
    60
100
AcDbCircle
 10
303.9006665645987
 20
93.21485291884824
 30
0.0
 40
0.2000000000000474
100
AcDbArc
 50
358.3627590000237
 51
90.00000300002472
  0
ARC
  5
2A6
330
1F
100
AcDbEntity
  8
0
 62
     7
370
    60
100
AcDbCircle
 10
302.5198375645997
 20
106.8329599188482
 30
0.0
 40
9.235866999999953
100
AcDbArc
 50
209.9999989999975
 51
257.1705829999975
  0
ARC
  5
2A7
330
1F
100
AcDbEntity
  8
0
 62
     7
370
    60
100
AcDbCircle
 10
295.2243055645997
 20
109.0872009188483
 30
0.0
 40
1.600000000000121
100
AcDbArc
 50
120.0000030000007
 51
162.8294009999998
  0
ARC
  5
2A8
330
1F
100
AcDbEntity
  8
0
 62
     7
370
    60
100
AcDbCircle
 10
302.5198375645997
 20
106.8329599188482
 30
0.0
 40
9.235867000000068
100
AcDbArc
 50
162.8294010000008
 51
209.9999989999978
  0
ARC
  5
2A9
330
1F
100
AcDbEntity
  8
0
 62
     7
370
    60
100
AcDbCircle
 10
302.5198375645997
 20
106.8329599188482
 30
0.0
 40
8.275866999999966
100
AcDbArc
 50
161.0619669999984
 51
209.9999989999984
  0
ARC
  5
2AA
330
1F
100
AcDbEntity
  8
0
 62
     7
370
    60
100
AcDbCircle
 10
280.1103835645997
 20
93.8948529188483
 30
0.0
 40
25.20000200000013
100
AcDbArc
 50
54.99999900000174
 51
57.00000200000114
  0
ARC
  5
2AB
330
1F
100
AcDbEntity
  8
0
 62
     7
370
    60
100
AcDbCircle
 10
280.1103835645997
 20
93.8948529188483
 30
0.0
 40
24.00000199999986
100
AcDbArc
 50
48.11494699999653
 51
58.36275800000092
  0
LINE
  5
2AC
330
1F
100
AcDbEntity
  8
0
 62
     7
370
    60
100
AcDbLine
 10
293.8352905645997
 20
139.7000969188484
 30
0.0
 11
294.5645085645997
 21
139.7000969188484
 31
0.0
  0
ARC
  5
2AD
330
1F
100
AcDbEntity
  8
0
 62
     7
370
    60
100
AcDbCircle
 10
280.1103835645997
 20
119.7710619188483
 30
0.0
 40
8.275866999999899
100
AcDbArc
 50
221.061968000002
 51
270.0000010000001
  0
ARC
  5
2AE
330
1F
100
AcDbEntity
  8
0
 62
     7
370
    60
100
AcDbCircle
 10
280.1103835645997
 20
119.7710619188483
 30
0.0
 40
9.235866999999823
100
AcDbArc
 50
222.8294030000001
 51
270.0000010000002
  0
LINE
  5
2B1
330
1F
100
AcDbEntity
  8
0
 62
     7
370
    60
100
AcDbLine
 10
275.4703845645997
 20
139.7000969188484
 30
0.0
 11
280.1103835645997
 21
139.7000969188484
 31
0.0
  0
ARC
  5
2B4
330
1F
100
AcDbEntity
  8
0
 62
     7
370
    60
100
AcDbCircle
 10
280.1103835645997
 20
93.8948529188483
 30
0.0
 40
25.00000200000015
100
AcDbArc
 50
113.0000019999988
 51
115.0000039999978
  0
ARC
  5
2B5
330
1F
100
AcDbEntity
  8
0
 62
     7
370
    60
100
AcDbCircle
 10
269.2627125645997
 20
110.7374089188484
 30
0.0
 40
0.4799999999998384
100
AcDbArc
 50
262.5423900000005
 51
82.54239900000356
  0
ARC
  5
2B6
330
1F
100
AcDbEntity
  8
0
 62
     7
370
    60
100
AcDbCircle
 10
269.4703845645997
 20
112.3238769188483
 30
0.0
 40
1.119999999999899
100
AcDbArc
 50
337.4575990000109
 51
120.000003000012
  0
ARC
  5
2B7
330
1F
100
AcDbEntity
  8
0
 62
     7
370
    60
100
AcDbCircle
 10
269.4703845645997
 20
112.3238769188483
 30
0.0
 40
2.080000000000022
100
AcDbArc
 50
337.4575990000017
 51
102.6477369999987
  0
ARC
  5
2B8
330
1F
100
AcDbEntity
  8
0
 62
     7
370
    60
100
AcDbCircle
 10
280.1103835645997
 20
93.8948529188483
 30
0.0
 40
24.00000200000018
100
AcDbArc
 50
108.114947999999
 51
118.362752000001
  0
ARC
  5
2BA
330
1F
100
AcDbEntity
  8
0
 62
     7
370
    60
100
AcDbCircle
 10
262.1921855645987
 20
110.0596209188484
 30
0.0
 40
0.3999999999999593
100
AcDbArc
 50
149.9999970000169
 51
240.0000070000179
  0
LINE
  5
2BB
330
1F
100
AcDbEntity
  8
0
 62
     7
370
    60
100
AcDbLine
 10
263.6360035645997
 20
110.6116729188484
 30
0.0
 11
265.5288255645987
 21
109.5188539188484
 31
0.0
  0
LINE
  5
2BC
330
1F
100
AcDbEntity
  8
0
 62
     7
370
    60
100
AcDbLine
 10
263.0699785645987
 20
110.0456479188483
 30
0.0
 11
263.2967695645997
 21
109.6528259188481
 31
0.0
  0
ARC
  5
2BD
330
1F
100
AcDbEntity
  8
0
 62
     7
370
    60
100
AcDbCircle
 10
269.4703845645997
 20
112.3238769188483
 30
0.0
 40
2.079999999999841
100
AcDbArc
 50
137.3522630000028
 51
262.5423900000008
  0
ARC
  5
2BE
330
1F
100
AcDbEntity
  8
0
 62
     7
370
    60
100
AcDbCircle
 10
264.9964615645997
 20
109.0872009188483
 30
0.0
 40
1.6
100
AcDbArc
 50
17.17059399999335
 51
60.00000199999844
  0
ARC
  5
2BF
330
1F
100
AcDbEntity
  8
0
 62
     7
370
    60
100
AcDbCircle
 10
257.7009295645997
 20
106.8329599188482
 30
0.0
 40
8.275867000000012
100
AcDbArc
 50
329.9999889999997
 51
18.93803099999976
  0
LINE
  5
2C0
330
1F
100
AcDbEntity
  8
0
 62
     7
370
    60
100
AcDbLine
 10
262.9967745645997
 20
109.1332109188484
 30
0.0
 11
263.2967695645997
 21
109.6528259188481
 31
0.0
  0
LINE
  5
2C1
330
1F
100
AcDbEntity
  8
0
 62
     7
370
    60
100
AcDbLine
 10
261.9921815645997
 20
109.7132119188482
 30
0.0
 11
262.9967745645997
 21
109.1332109188484
 31
0.0
  0
ARC
  5
2C2
330
1F
100
AcDbEntity
  8
0
 62
     7
370
    60
100
AcDbCircle
 10
257.7009295645997
 20
106.8329599188482
 30
0.0
 40
9.235867000000107
100
AcDbArc
 50
329.9999889999988
 51
17.17059399999487
  0
LINE
  5
2C3
330
1F
100
AcDbEntity
  8
0
 62
     7
370
    60
100
AcDbLine
 10
266.8786175645997
 20
105.8948529188483
 30
0.0
 11
266.8890315645997
 21
105.8948529188483
 31
0.0
  0
ARC
  5
2C4
330
1F
100
AcDbEntity
  8
0
 62
     7
370
    60
100
AcDbCircle
 10
280.1103835645997
 20
93.8948529188483
 30
0.0
 40
25.0000019999999
100
AcDbArc
 50
125.0000020000001
 51
127.0000049999981
  0
ARC
  5
2C5
330
1F
100
AcDbEntity
  8
0
 62
     7
370
    60
100
AcDbCircle
 10
280.1103835645997
 20
93.8948529188483
 30
0.0
 40
24.00000200000013
100
AcDbArc
 50
121.6372410000037
 51
131.8850519999997
  0
LINE
  5
2C6
330
1F
100
AcDbEntity
  8
0
 62
     7
370
    60
100
AcDbLine
 10
264.1205915645987
 20
111.4404079188485
 30
0.0
 11
265.7964645645988
 21
110.4728439188484
 31
0.0
  0
LINE
  5
2C7
330
1F
100
AcDbEntity
  8
0
 62
     7
370
    60
100
AcDbLine
 10
261.8457735645987
 20
110.2596219188481
 30
0.0
 11
263.1676495645997
 21
112.5491769188484
 31
0.0
  0
ARC
  5
2C8
330
1F
100
AcDbEntity
  8
0
 62
     7
370
    60
100
AcDbCircle
 10
280.1103835645997
 20
93.8948529188483
 30
0.0
 40
25.20000199999981
100
AcDbArc
 50
130.9999960000023
 51
132.2472160000012
  0
LINE
  5
2C9
330
1F
100
AcDbEntity
  8
0
 62
     7
370
    60
100
AcDbLine
 10
263.5776915645997
 20
112.9135369188484
 30
0.0
 11
263.7089095645997
 21
112.7625939188483
 31
0.0
  0
ARC
  5
2CA
330
1F
100
AcDbEntity
  8
0
 62
     7
370
    60
100
AcDbCircle
 10
280.1103835645997
 20
93.8948529188483
 30
0.0
 40
25.00000200000014
100
AcDbArc
 50
128.9999929999988
 51
130.9999960000018
  0
LINE
  5
2CB
330
1F
100
AcDbEntity
  8
0
 62
     7
370
    60
100
AcDbLine
 10
264.2515045645997
 20
113.4789329188484
 30
0.0
 11
264.3773745645997
 21
113.3235029188481
 31
0.0
  0
ARC
  5
2CC
330
1F
100
AcDbEntity
  8
0
 62
     7
370
    60
100
AcDbCircle
 10
280.1103835645997
 20
93.8948529188483
 30
0.0
 40
25.20000199999992
100
AcDbArc
 50
127.0000049999982
 51
128.9999929999992
  0
LINE
  5
2CD
330
1F
100
AcDbEntity
  8
0
 62
     7
370
    60
100
AcDbLine
 10
264.9446425645997
 20
114.0204709188483
 30
0.0
 11
265.0650035645997
 21
113.8607419188484
 31
0.0
  0
ARC
  5
2CE
330
1F
100
AcDbEntity
  8
0
 62
     7
370
    60
100
AcDbCircle
 10
263.4288195645997
 20
110.2528279188482
 30
0.0
 40
0.4143589999999956
100
AcDbArc
 50
60.00000200000111
 51
209.9999989999978
  0
ARC
  5
2CF
330
1F
100
AcDbEntity
  8
0
 62
     7
370
    60
100
AcDbCircle
 10
264.2205905645988
 20
111.6136139188484
 30
0.0
 40
0.2000000000001186
100
AcDbArc
 50
131.885051999956
 51
240.0000069999549
  0
LINE
  5
2D0
330
1F
100
AcDbEntity
  8
0
 62
     7
370
    60
100
AcDbLine
 10
265.6562595645997
 20
114.5374849188483
 30
0.0
 11
265.7709745645997
 21
114.3736549188484
 31
0.0
  0
ARC
  5
2D1
330
1F
100
AcDbEntity
  8
0
 62
     7
370
    60
100
AcDbCircle
 10
280.1103835645997
 20
93.8948529188483
 30
0.0
 40
25.20000199999989
100
AcDbArc
 50
123.000000000001
 51
125.000002
  0
LINE
  5
2D2
330
1F
100
AcDbEntity
  8
0
 62
     7
370
    60
100
AcDbLine
 10
266.3854765645997
 20
115.0293519188481
 30
0.0
 11
266.4944095645997
 21
114.8616189188483
 31
0.0
  0
ARC
  5
2D3
330
1F
100
AcDbEntity
  8
0
 62
     7
370
    60
100
AcDbCircle
 10
280.1103835645997
 20
93.8948529188483
 30
0.0
 40
25.0000019999999
100
AcDbArc
 50
120.9999980000012
 51
123.0000000000012
  0
LINE
  5
2D4
330
1F
100
AcDbEntity
  8
0
 62
     7
370
    60
100
AcDbLine
 10
267.1314255645997
 20
115.4954729188485
 30
0.0
 11
267.2344295645987
 21
115.3240369188484
 31
0.0
  0
ARC
  5
2D5
330
1F
100
AcDbEntity
  8
0
 62
     7
370
    60
100
AcDbCircle
 10
280.1103835645997
 20
93.8948529188483
 30
0.0
 40
25.20000199999982
100
AcDbArc
 50
120.0000030000021
 51
120.9999980000011
  0
LINE
  5
2D6
330
1F
100
AcDbEntity
  8
0
 62
     7
370
    60
100
AcDbLine
 10
269.4604045645997
 20
116.7338119188485
 30
0.0
 11
269.5449235645997
 21
116.5525489188485
 31
0.0
  0
ARC
  5
2D7
330
1F
100
AcDbEntity
  8
0
 62
     7
370
    60
100
AcDbCircle
 10
280.1103835645997
 20
93.8948529188483
 30
0.0
 40
25.20000200000004
100
AcDbArc
 50
115.000003999998
 51
117.000007000001
  0
LINE
  5
2D8
330
1F
100
AcDbEntity
  8
0
 62
     7
370
    60
100
AcDbLine
 10
268.6698245645997
 20
116.3482179188481
 30
0.0
 11
268.7606215645988
 21
116.1700189188482
 31
0.0
  0
ARC
  5
2D9
330
1F
100
AcDbEntity
  8
0
 62
     7
370
    60
100
AcDbCircle
 10
280.1103835645997
 20
93.8948529188483
 30
0.0
 40
25.00000200000009
100
AcDbArc
 50
117.0000070000008
 51
118.9999950000028
  0
LINE
  5
2DA
330
1F
100
AcDbEntity
  8
0
 62
     7
370
    60
100
AcDbLine
 10
267.8931825645997
 20
115.9352699188485
 30
0.0
 11
267.9901445645987
 21
115.7603469188484
 31
0.0
  0
ARC
  5
2DB
330
1F
100
AcDbEntity
  8
0
 62
     7
370
    60
100
AcDbCircle
 10
280.1103835645997
 20
93.8948529188483
 30
0.0
 40
25.20000200000007
100
AcDbArc
 50
118.999995000003
 51
120.000003000002
  0
ARC
  5
2DC
330
1F
100
AcDbEntity
  8
0
 62
     7
370
    60
100
AcDbCircle
 10
269.4703845645997
 20
112.3238769188483
 30
0.0
 40
1.12000000000022
100
AcDbArc
 50
120.0000029999988
 51
262.5423899999948
  0
ARC
  5
2DD
330
1F
100
AcDbEntity
  8
0
 62
     7
370
    60
100
AcDbCircle
 10
267.7933665645987
 20
113.8685509188481
 30
0.0
 40
0.1999999999999262
100
AcDbArc
 50
317.3522540000286
 51
29.99999700002756
  0
LINE
  5
2DE
330
1F
100
AcDbEntity
  8
0
 62
     7
370
    60
100
AcDbLine
 10
267.7995465645997
 20
114.2578439188483
 30
0.0
 11
267.9665695645997
 21
113.9685489188482
 31
0.0
  0
ARC
  5
2DF
330
1F
100
AcDbEntity
  8
0
 62
     7
370
    60
100
AcDbCircle
 10
267.6263445645997
 20
114.1578459188481
 30
0.0
 40
0.1999999999999529
100
AcDbArc
 50
29.99999699996796
 51
121.6372409999725
  0
ARC
  5
2E0
330
1F
100
AcDbEntity
  8
0
 62
     7
370
    60
100
AcDbCircle
 10
268.9711625645997
 20
114.5485509188484
 30
0.0
 40
0.2000000000001296
100
AcDbArc
 50
209.9999990000455
 51
282.6477350000455
  0
LINE
  5
2E1
330
1F
100
AcDbEntity
  8
0
 62
     7
370
    60
100
AcDbLine
 10
268.6309295645997
 20
114.7378439188483
 30
0.0
 11
268.7979595645998
 21
114.4485489188482
 31
0.0
  0
ARC
  5
2E2
330
1F
100
AcDbEntity
  8
0
 62
     7
370
    60
100
AcDbCircle
 10
268.8041395645997
 20
114.8378459188484
 30
0.0
 40
0.1999999999998257
100
AcDbArc
 50
118.3627520000285
 51
209.9999990000255
  0
LINE
  5
2E4
330
1F
100
AcDbEntity
  8
0
 62
     7
370
    60
100
AcDbLine
 10
272.4266375645997
 20
117.8948569188483
 30
0.0
 11
275.0703825645987
 21
117.8948569188483
 31
0.0
  0
ARC
  5
2E5
330
1F
100
AcDbEntity
  8
0
 62
     7
370
    60
100
AcDbCircle
 10
280.1103835645997
 20
93.8948529188483
 30
0.0
 40
25.20000200000004
100
AcDbArc
 50
107.7527909999989
 51
108.9999969999959
  0
LINE
  5
2E6
330
1F
100
AcDbEntity
  8
0
 62
     7
370
    60
100
AcDbLine
 10
271.9060685645987
 20
117.7219209188484
 30
0.0
 11
271.9711775645987
 21
117.5328189188481
 31
0.0
  0
ARC
  5
2E7
330
1F
100
AcDbEntity
  8
0
 62
     7
370
    60
100
AcDbCircle
 10
280.1103835645997
 20
93.8948529188483
 30
0.0
 40
25.00000199999995
100
AcDbArc
 50
108.9999969999961
 51
110.9999999999981
  0
LINE
  5
2E8
330
1F
100
AcDbEntity
  8
0
 62
     7
370
    60
100
AcDbLine
 10
271.0795075645997
 20
117.4210829188482
 30
0.0
 11
271.1511855645997
 21
117.2343649188483
 31
0.0
  0
ARC
  5
2E9
330
1F
100
AcDbEntity
  8
0
 62
     7
370
    60
100
AcDbCircle
 10
280.1103835645997
 20
93.8948529188483
 30
0.0
 40
25.2000019999998
100
AcDbArc
 50
110.9999999999981
 51
113.0000019999991
  0
LINE
  5
2EA
330
1F
100
AcDbEntity
  8
0
 62
     7
370
    60
100
AcDbLine
 10
270.2639555645987
 20
117.0915769188482
 30
0.0
 11
270.3421035645997
 21
116.9074759188484
 31
0.0
  0
ARC
  5
2EB
330
1F
100
AcDbEntity
  8
0
 62
     7
370
    60
100
AcDbCircle
 10
270.9481365645997
 20
111.7104889188481
 30
0.0
 40
0.4800000000000029
100
AcDbArc
 50
157.4576080000177
 51
337.4575990000147
  0
ARC
  5
2EC
330
1F
100
AcDbEntity
  8
0
 62
     7
370
    60
100
AcDbCircle
 10
272.7103825645997
 20
116.5151989188485
 30
0.0
 40
0.2000000000000455
100
AcDbArc
 50
0.0
 51
108.114947999999
  0
LINE
  5
2ED
330
1F
100
AcDbEntity
  8
0
 62
     7
370
    60
100
AcDbLine
 10
272.9103865645988
 20
114.5800639188483
 30
0.0
 11
272.9103865645988
 21
116.5151989188485
 31
0.0
  0
ARC
  5
2EE
330
1F
100
AcDbEntity
  8
0
 62
     7
370
    60
100
AcDbCircle
 10
274.5103855645997
 20
114.5800639188483
 30
0.0
 40
1.600000000000029
100
AcDbArc
 50
180.000005000007
 51
222.829403000007
  0
LINE
  5
2EF
330
1F
100
AcDbEntity
  8
0
 62
     7
370
    60
100
AcDbLine
 10
273.8703855645997
 20
114.3348549188481
 30
0.0
 11
273.8703855645997
 21
116.5204979188484
 31
0.0
  0
ARC
  5
2F0
330
1F
100
AcDbEntity
  8
0
 62
     7
370
    60
100
AcDbCircle
 10
274.2847455645997
 20
116.5204979188484
 30
0.0
 40
0.4143589999999638
100
AcDbArc
 50
30.00000099998887
 51
180.0000049999901
  0
LINE
  5
2F1
330
1F
100
AcDbEntity
  8
0
 62
     7
370
    60
100
AcDbLine
 10
274.6435865645997
 20
116.7276739188483
 30
0.0
 11
274.8703855645997
 21
116.3348549188481
 31
0.0
  0
LINE
  5
2F2
330
1F
100
AcDbEntity
  8
0
 62
     7
370
    60
100
AcDbLine
 10
274.8703855645997
 20
116.3348549188481
 30
0.0
 11
275.4703845645997
 21
116.3348549188481
 31
0.0
  0
LINE
  5
2F3
330
1F
100
AcDbEntity
  8
0
 62
     7
370
    60
100
AcDbLine
 10
275.4703845645997
 20
116.3348549188481
 30
0.0
 11
275.4703845645997
 21
117.4948549188484
 31
0.0
  0
ARC
  5
2F4
330
1F
100
AcDbEntity
  8
0
 62
     7
370
    60
100
AcDbCircle
 10
275.0703825645987
 20
117.4948549188484
 30
0.0
 40
0.3999999999999773
100
AcDbArc
 50
0.0
 51
90.0000029999977
  0
LINE
  5
2F5
330
1F
100
AcDbEntity
  8
0
 62
     7
370
    60
100
AcDbLine
 10
269.5449235645997
 20
139.7000969188484
 30
0.0
 11
270.2639555645987
 21
139.7000969188484
 31
0.0
  0
LINE
  5
2F6
330
1F
100
AcDbEntity
  8
0
 62
     7
370
    60
100
AcDbLine
 10
265.0650035645997
 20
139.7000969188484
 30
0.0
 11
265.6562595645997
 21
139.7000969188484
 31
0.0
  0
LINE
  5
2F7
330
1F
100
AcDbEntity
  8
0
 62
     7
370
    60
100
AcDbLine
 10
261.8457735645987
 20
139.7000969188484
 30
0.0
 11
263.1676495645997
 21
139.7000969188484
 31
0.0
  0
LINE
  5
2F8
330
1F
100
AcDbEntity
  8
0
 62
     7
370
    60
100
AcDbLine
 10
263.1676495645997
 20
139.7000969188484
 30
0.0
 11
263.5776915645997
 21
139.7000969188484
 31
0.0
  0
LINE
  5
2F9
330
1F
100
AcDbEntity
  8
0
 62
     7
370
    60
100
AcDbLine
 10
263.5776915645997
 20
139.7000969188484
 30
0.0
 11
263.7089095645997
 21
139.7000969188484
 31
0.0
  0
LINE
  5
2FA
330
1F
100
AcDbEntity
  8
0
 62
     7
370
    60
100
AcDbLine
 10
263.7089095645997
 20
139.7000969188484
 30
0.0
 11
264.2515045645997
 21
139.7000969188484
 31
0.0
  0
LINE
  5
2FB
330
1F
100
AcDbEntity
  8
0
 62
     7
370
    60
100
AcDbLine
 10
264.2515045645997
 20
139.7000969188484
 30
0.0
 11
264.9446425645997
 21
139.7000969188484
 31
0.0
  0
LINE
  5
2FC
330
1F
100
AcDbEntity
  8
0
 62
     7
370
    60
100
AcDbLine
 10
264.9446425645997
 20
139.7000969188484
 30
0.0
 11
265.0650035645997
 21
139.7000969188484
 31
0.0
  0
LINE
  5
2FD
330
1F
100
AcDbEntity
  8
0
 62
     7
370
    60
100
AcDbLine
 10
263.0699785645987
 20
139.7000969188484
 30
0.0
 11
263.1676495645997
 21
139.7000969188484
 31
0.0
  0
LINE
  5
2FE
330
1F
100
AcDbEntity
  8
0
 62
     7
370
    60
100
AcDbLine
 10
261.8176585645997
 20
139.7000969188484
 30
0.0
 11
261.8457735645987
 21
139.7000969188484
 31
0.0
  0
LINE
  5
2FF
330
1F
100
AcDbEntity
  8
0
 62
     7
370
    60
100
AcDbLine
 10
263.0642635645997
 20
139.7000969188484
 30
0.0
 11
263.0699785645987
 21
139.7000969188484
 31
0.0
  0
LINE
  5
300
330
1F
100
AcDbEntity
  8
0
 62
     7
370
    60
100
AcDbLine
 10
269.4604045645997
 20
139.7000969188484
 30
0.0
 11
269.5449235645997
 21
139.7000969188484
 31
0.0
  0
LINE
  5
301
330
1F
100
AcDbEntity
  8
0
 62
     7
370
    60
100
AcDbLine
 10
268.6698245645997
 20
139.7000969188484
 30
0.0
 11
269.4604045645997
 21
139.7000969188484
 31
0.0
  0
LINE
  5
302
330
1F
100
AcDbEntity
  8
0
 62
     7
370
    60
100
AcDbLine
 10
267.9901445645987
 20
139.7000969188484
 30
0.0
 11
268.6698245645997
 21
139.7000969188484
 31
0.0
  0
LINE
  5
303
330
1F
100
AcDbEntity
  8
0
 62
     7
370
    60
100
AcDbLine
 10
267.8931825645997
 20
139.7000969188484
 30
0.0
 11
267.9901445645987
 21
139.7000969188484
 31
0.0
  0
LINE
  5
304
330
1F
100
AcDbEntity
  8
0
 62
     7
370
    60
100
AcDbLine
 10
267.5103855645997
 20
139.7000969188484
 30
0.0
 11
267.8931825645997
 21
139.7000969188484
 31
0.0
  0
LINE
  5
305
330
1F
100
AcDbEntity
  8
0
 62
     7
370
    60
100
AcDbLine
 10
265.6562595645997
 20
139.7000969188484
 30
0.0
 11
266.3854765645997
 21
139.7000969188484
 31
0.0
  0
LINE
  5
306
330
1F
100
AcDbEntity
  8
0
 62
     7
370
    60
100
AcDbLine
 10
266.3854765645997
 20
139.7000969188484
 30
0.0
 11
266.4944095645997
 21
139.7000969188484
 31
0.0
  0
LINE
  5
307
330
1F
100
AcDbEntity
  8
0
 62
     7
370
    60
100
AcDbLine
 10
266.4944095645997
 20
139.7000969188484
 30
0.0
 11
267.1314255645997
 21
139.7000969188484
 31
0.0
  0
LINE
  5
308
330
1F
100
AcDbEntity
  8
0
 62
     7
370
    60
100
AcDbLine
 10
267.1314255645997
 20
139.7000969188484
 30
0.0
 11
267.5103855645997
 21
139.7000969188484
 31
0.0
  0
LINE
  5
309
330
1F
100
AcDbEntity
  8
0
 62
     7
370
    60
100
AcDbLine
 10
272.4266375645997
 20
139.7000969188484
 30
0.0
 11
275.0703825645987
 21
139.7000969188484
 31
0.0
  0
LINE
  5
30A
330
1F
100
AcDbEntity
  8
0
 62
     7
370
    60
100
AcDbLine
 10
271.9060685645987
 20
139.7000969188484
 30
0.0
 11
272.4266375645997
 21
139.7000969188484
 31
0.0
  0
LINE
  5
30B
330
1F
100
AcDbEntity
  8
0
 62
     7
370
    60
100
AcDbLine
 10
271.1511855645997
 20
139.7000969188484
 30
0.0
 11
271.9060685645987
 21
139.7000969188484
 31
0.0
  0
LINE
  5
30C
330
1F
100
AcDbEntity
  8
0
 62
     7
370
    60
100
AcDbLine
 10
271.0795075645997
 20
139.7000969188484
 30
0.0
 11
271.1511855645997
 21
139.7000969188484
 31
0.0
  0
LINE
  5
30D
330
1F
100
AcDbEntity
  8
0
 62
     7
370
    60
100
AcDbLine
 10
270.2639555645987
 20
139.7000969188484
 30
0.0
 11
271.0795075645997
 21
139.7000969188484
 31
0.0
  0
LINE
  5
30E
330
1F
100
AcDbEntity
  8
0
 62
     7
370
    60
100
AcDbLine
 10
275.0703825645987
 20
139.7000969188484
 30
0.0
 11
275.4703845645997
 21
139.7000969188484
 31
0.0
  0
ARC
  5
310
330
1F
100
AcDbEntity
  8
0
 62
     7
370
    60
100
AcDbCircle
 10
280.1103835645997
 20
119.7710619188483
 30
0.0
 40
8.275866999999836
100
AcDbArc
 50
270.0000010000011
 51
318.9380329999991
  0
LINE
  5
311
330
1F
100
AcDbEntity
  8
0
 62
     7
370
    60
100
AcDbLine
 10
285.1503845645997
 20
117.8948569188483
 30
0.0
 11
287.7941295645987
 21
117.8948569188483
 31
0.0
  0
ARC
  5
312
330
1F
100
AcDbEntity
  8
0
 62
     7
370
    60
100
AcDbCircle
 10
280.1103835645997
 20
119.7710619188483
 30
0.0
 40
9.235866999999873
100
AcDbArc
 50
270.000001000001
 51
317.1705980000019
  0
ARC
  5
313
330
1F
100
AcDbEntity
  8
0
 62
     7
370
    60
100
AcDbCircle
 10
285.9360215645997
 20
116.5204979188484
 30
0.0
 40
0.4143589999999904
100
AcDbArc
 50
0.0
 51
149.999996999998
  0
LINE
  5
326
330
1F
100
AcDbEntity
  8
0
 62
     7
370
    60
100
AcDbLine
 10
284.7503825645997
 20
116.3348549188481
 30
0.0
 11
285.3503815645997
 21
116.3348549188481
 31
0.0
  0
LINE
  5
327
330
1F
100
AcDbEntity
  8
0
 62
     7
370
    60
100
AcDbLine
 10
284.7503825645997
 20
116.3348549188481
 30
0.0
 11
284.7503825645997
 21
117.4948549188484
 31
0.0
  0
ARC
  5
328
330
1F
100
AcDbEntity
  8
0
 62
     7
370
    60
100
AcDbCircle
 10
285.1503845645997
 20
117.4948549188484
 30
0.0
 40
0.4000000000000915
100
AcDbArc
 50
90.00000300000096
 51
180.0000050000043
  0
LINE
  5
329
330
1F
100
AcDbEntity
  8
0
 62
     7
370
    60
100
AcDbLine
 10
285.3503815645997
 20
116.3348549188481
 30
0.0
 11
285.5771805645987
 21
116.7276739188483
 31
0.0
  0
ARC
  5
32C
330
1F
100
AcDbEntity
  8
0
 62
     7
370
    60
100
AcDbCircle
 10
290.7503825645997
 20
112.3238769188483
 30
0.0
 40
2.079999999999972
100
AcDbArc
 50
277.4576110000008
 51
42.64773899999781
  0
ARC
  5
32D
330
1F
100
AcDbEntity
  8
0
 62
     7
370
    60
100
AcDbCircle
 10
280.1103835645997
 20
93.8948529188483
 30
0.0
 40
25.00000199999995
100
AcDbArc
 50
65.00000100000102
 51
67.00000300000131
  0
ARC
  5
32E
330
1F
100
AcDbEntity
  8
0
 62
     7
370
    60
100
AcDbCircle
 10
290.7503825645997
 20
112.3238769188483
 30
0.0
 40
1.11999999999996
100
AcDbArc
 50
60.00000199999869
 51
202.5424019999934
  0
ARC
  5
32F
330
1F
100
AcDbEntity
  8
0
 62
     7
370
    60
100
AcDbCircle
 10
290.7503825645997
 20
112.3238769188483
 30
0.0
 40
2.079999999999849
100
AcDbArc
 50
77.35226099999728
 51
202.5424019999957
  0
ARC
  5
330
330
1F
100
AcDbEntity
  8
0
 62
     7
370
    60
100
AcDbCircle
 10
280.1103835645997
 20
93.8948529188483
 30
0.0
 40
24.00000199999985
100
AcDbArc
 50
61.6372460000018
 51
71.8850569999987
  0
LINE
  5
331
330
1F
100
AcDbEntity
  8
0
 62
     7
370
    60
100
AcDbLine
 10
286.3503815645997
 20
114.3348549188481
 30
0.0
 11
286.3503815645997
 21
116.5204979188484
 31
0.0
  0
ARC
  5
332
330
1F
100
AcDbEntity
  8
0
 62
     7
370
    60
100
AcDbCircle
 10
280.1103835645997
 20
93.8948529188483
 30
0.0
 40
25.2000020000002
100
AcDbArc
 50
71.00000100000074
 51
72.24720700000265
  0
LINE
  5
333
330
1F
100
AcDbEntity
  8
0
 62
     7
370
    60
100
AcDbLine
 10
288.2495895645988
 20
117.5328189188481
 30
0.0
 11
288.3146985645997
 21
117.7219209188484
 31
0.0
  0
ARC
  5
334
330
1F
100
AcDbEntity
  8
0
 62
     7
370
    60
100
AcDbCircle
 10
280.1103835645997
 20
93.8948529188483
 30
0.0
 40
25.00000200000017
100
AcDbArc
 50
68.99999900000239
 51
71.00000100000068
  0
LINE
  5
335
330
1F
100
AcDbEntity
  8
0
 62
     7
370
    60
100
AcDbLine
 10
289.0695815645997
 20
117.2343649188483
 30
0.0
 11
289.1412595645987
 21
117.4210829188482
 31
0.0
  0
ARC
  5
336
330
1F
100
AcDbEntity
  8
0
 62
     7
370
    60
100
AcDbCircle
 10
280.1103835645997
 20
93.8948529188483
 30
0.0
 40
25.20000200000005
100
AcDbArc
 50
67.0000030000013
 51
68.9999990000023
  0
LINE
  5
337
330
1F
100
AcDbEntity
  8
0
 62
     7
370
    60
100
AcDbLine
 10
289.8786635645997
 20
116.9074759188484
 30
0.0
 11
289.9568115645988
 21
117.0915769188482
 31
0.0
  0
ARC
  5
338
330
1F
100
AcDbEntity
  8
0
 62
     7
370
    60
100
AcDbCircle
 10
289.2726305645997
 20
111.7104889188481
 30
0.0
 40
0.479999999999881
100
AcDbArc
 50
202.5423889999786
 51
22.54239699997365
  0
ARC
  5
339
330
1F
100
AcDbEntity
  8
0
 62
     7
370
    60
100
AcDbCircle
 10
287.5103855645997
 20
116.5151989188485
 30
0.0
 40
0.2000000000002075
100
AcDbArc
 50
71.88505000001996
 51
180.0000050000213
  0
LINE
  5
33A
330
1F
100
AcDbEntity
  8
0
 62
     7
370
    60
100
AcDbLine
 10
287.3103805645987
 20
114.5800639188483
 30
0.0
 11
287.3103805645987
 21
116.5151989188485
 31
0.0
  0
ARC
  5
33B
330
1F
100
AcDbEntity
  8
0
 62
     7
370
    60
100
AcDbCircle
 10
285.7103825645997
 20
114.5800639188483
 30
0.0
 40
1.599999999999888
100
AcDbArc
 50
317.1705980000078
 51
0.0000000000058013
  0
ARC
  5
33C
330
1F
100
AcDbEntity
  8
0
 62
     7
370
    60
100
AcDbCircle
 10
290.9580555645997
 20
110.7374089188484
 30
0.0
 40
0.4800000000001111
100
AcDbArc
 50
97.45760600000311
 51
277.4576110000033
  0
LINE
  5
33D
330
1F
100
AcDbEntity
  8
0
 62
     7
370
    60
100
AcDbLine
 10
290.6758435645997
 20
116.5525489188485
 30
0.0
 11
290.7603625645987
 21
116.7338119188485
 31
0.0
  0
ARC
  5
33E
330
1F
100
AcDbEntity
  8
0
 62
     7
370
    60
100
AcDbCircle
 10
280.1103835645997
 20
93.8948529188483
 30
0.0
 40
25.20000200000018
100
AcDbArc
 50
62.99999799999857
 51
65.00000100000128
  0
LINE
  5
33F
330
1F
100
AcDbEntity
  8
0
 62
     7
370
    60
100
AcDbLine
 10
291.4601455645987
 20
116.1700189188482
 30
0.0
 11
291.5509425645997
 21
116.3482179188481
 31
0.0
  0
ARC
  5
340
330
1F
100
AcDbEntity
  8
0
 62
     7
370
    60
100
AcDbCircle
 10
280.1103835645997
 20
93.8948529188483
 30
0.0
 40
25.00000200000006
100
AcDbArc
 50
61.00000299999954
 51
62.99999799999825
  0
LINE
  5
341
330
1F
100
AcDbEntity
  8
0
 62
     7
370
    60
100
AcDbLine
 10
292.2306225645997
 20
115.7603469188484
 30
0.0
 11
292.3275845645987
 21
115.9352699188485
 31
0.0
  0
ARC
  5
342
330
1F
100
AcDbEntity
  8
0
 62
     7
370
    60
100
AcDbCircle
 10
280.1103835645997
 20
93.8948529188483
 30
0.0
 40
25.20000200000018
100
AcDbArc
 50
60.00000200000148
 51
61.00000299999977
  0
LINE
  5
343
330
1F
100
AcDbEntity
  8
0
 62
     7
370
    60
100
AcDbLine
 10
293.7263585645987
 20
114.8616189188483
 30
0.0
 11
293.8352905645997
 21
115.0293519188481
 31
0.0
  0
ARC
  5
344
330
1F
100
AcDbEntity
  8
0
 62
     7
370
    60
100
AcDbCircle
 10
280.1103835645997
 20
93.8948529188483
 30
0.0
 40
25.00000199999995
100
AcDbArc
 50
57.00000200000084
 51
59.00000099999934
  0
LINE
  5
345
330
1F
100
AcDbEntity
  8
0
 62
     7
370
    60
100
AcDbLine
 10
292.9863375645997
 20
115.3240369188484
 30
0.0
 11
293.0893415645987
 21
115.4954729188485
 31
0.0
  0
ARC
  5
346
330
1F
100
AcDbEntity
  8
0
 62
     7
370
    60
100
AcDbCircle
 10
280.1103835645997
 20
93.8948529188483
 30
0.0
 40
25.200002
100
AcDbArc
 50
59.00000099999958
 51
60.00000200000138
  0
ARC
  5
347
330
1F
100
AcDbEntity
  8
0
 62
     7
370
    60
100
AcDbCircle
 10
291.2496045645997
 20
114.5485509188484
 30
0.0
 40
0.1999999999999528
100
AcDbArc
 50
257.352265999989
 51
329.9999889999909
  0
LINE
  5
348
330
1F
100
AcDbEntity
  8
0
 62
     7
370
    60
100
AcDbLine
 10
291.4228075645997
 20
114.4485489188482
 30
0.0
 11
291.5898375645987
 21
114.7378439188483
 31
0.0
  0
ARC
  5
349
330
1F
100
AcDbEntity
  8
0
 62
     7
370
    60
100
AcDbCircle
 10
291.4166275645997
 20
114.8378459188484
 30
0.0
 40
0.1999999999999593
100
AcDbArc
 50
329.999989000037
 51
61.63724600003895
  0
ARC
  5
34A
330
1F
100
AcDbEntity
  8
0
 62
     7
370
    60
100
AcDbCircle
 10
290.7503825645997
 20
112.3238769188483
 30
0.0
 40
1.120000000000191
100
AcDbArc
 50
277.4576109999985
 51
60.00000199999852
  0
ARC
  5
34B
330
1F
100
AcDbEntity
  8
0
 62
     7
370
    60
100
AcDbCircle
 10
292.4274005645997
 20
113.8685509188481
 30
0.0
 40
0.1999999999999304
100
AcDbArc
 50
149.9999970000088
 51
222.6477340000098
  0
LINE
  5
34C
330
1F
100
AcDbEntity
  8
0
 62
     7
370
    60
100
AcDbLine
 10
292.2541975645997
 20
113.9685489188482
 30
0.0
 11
292.4212205645997
 21
114.2578439188483
 31
0.0
  0
ARC
  5
34D
330
1F
100
AcDbEntity
  8
0
 62
     7
370
    60
100
AcDbCircle
 10
292.5944225645987
 20
114.1578459188481
 30
0.0
 40
0.199999999999896
100
AcDbArc
 50
58.36275799998981
 51
149.9999969999865
  0
LINE
  5
34E
330
1F
100
AcDbEntity
  8
0
 62
     7
370
    60
100
AcDbLine
 10
285.1503845645997
 20
139.7000969188484
 30
0.0
 11
287.7941295645987
 21
139.7000969188484
 31
0.0
  0
LINE
  5
34F
330
1F
100
AcDbEntity
  8
0
 62
     7
370
    60
100
AcDbLine
 10
280.1103835645997
 20
139.7000969188484
 30
0.0
 11
284.7503825645997
 21
139.7000969188484
 31
0.0
  0
LINE
  5
350
330
1F
100
AcDbEntity
  8
0
 62
     7
370
    60
100
AcDbLine
 10
284.7503825645997
 20
139.7000969188484
 30
0.0
 11
285.1503845645997
 21
139.7000969188484
 31
0.0
  0
LINE
  5
351
330
1F
100
AcDbEntity
  8
0
 62
     7
370
    60
100
AcDbLine
 10
289.9568115645988
 20
139.7000969188484
 30
0.0
 11
290.6758435645997
 21
139.7000969188484
 31
0.0
  0
LINE
  5
352
330
1F
100
AcDbEntity
  8
0
 62
     7
370
    60
100
AcDbLine
 10
287.7941295645987
 20
139.7000969188484
 30
0.0
 11
288.3146985645997
 21
139.7000969188484
 31
0.0
  0
LINE
  5
353
330
1F
100
AcDbEntity
  8
0
 62
     7
370
    60
100
AcDbLine
 10
288.3146985645997
 20
139.7000969188484
 30
0.0
 11
289.0695815645997
 21
139.7000969188484
 31
0.0
  0
LINE
  5
354
330
1F
100
AcDbEntity
  8
0
 62
     7
370
    60
100
AcDbLine
 10
289.0695815645997
 20
139.7000969188484
 30
0.0
 11
289.1412595645987
 21
139.7000969188484
 31
0.0
  0
LINE
  5
355
330
1F
100
AcDbEntity
  8
0
 62
     7
370
    60
100
AcDbLine
 10
289.1412595645987
 20
139.7000969188484
 30
0.0
 11
289.9568115645988
 21
139.7000969188484
 31
0.0
  0
LINE
  5
356
330
1F
100
AcDbEntity
  8
0
 62
     7
370
    60
100
AcDbLine
 10
293.7263585645987
 20
139.7000969188484
 30
0.0
 11
293.8352905645997
 21
139.7000969188484
 31
0.0
  0
LINE
  5
357
330
1F
100
AcDbEntity
  8
0
 62
     7
370
    60
100
AcDbLine
 10
293.0893415645987
 20
139.7000969188484
 30
0.0
 11
293.7263585645987
 21
139.7000969188484
 31
0.0
  0
LINE
  5
358
330
1F
100
AcDbEntity
  8
0
 62
     7
370
    60
100
AcDbLine
 10
292.7103825645997
 20
139.7000969188484
 30
0.0
 11
293.0893415645987
 21
139.7000969188484
 31
0.0
  0
LINE
  5
359
330
1F
100
AcDbEntity
  8
0
 62
     7
370
    60
100
AcDbLine
 10
290.6758435645997
 20
139.7000969188484
 30
0.0
 11
290.7603625645987
 21
139.7000969188484
 31
0.0
  0
LINE
  5
35A
330
1F
100
AcDbEntity
  8
0
 62
     7
370
    60
100
AcDbLine
 10
290.7603625645987
 20
139.7000969188484
 30
0.0
 11
291.5509425645997
 21
139.7000969188484
 31
0.0
  0
LINE
  5
35B
330
1F
100
AcDbEntity
  8
0
 62
     7
370
    60
100
AcDbLine
 10
291.5509425645997
 20
139.7000969188484
 30
0.0
 11
292.2306225645997
 21
139.7000969188484
 31
0.0
  0
LINE
  5
35C
330
1F
100
AcDbEntity
  8
0
 62
     7
370
    60
100
AcDbLine
 10
292.2306225645997
 20
139.7000969188484
 30
0.0
 11
292.3275845645987
 21
139.7000969188484
 31
0.0
  0
LINE
  5
35D
330
1F
100
AcDbEntity
  8
0
 62
     7
370
    60
100
AcDbLine
 10
292.3275845645987
 20
139.7000969188484
 30
0.0
 11
292.7103825645997
 21
139.7000969188484
 31
0.0
  0
LINE
  5
35E
330
1F
100
AcDbEntity
  8
0
 62
     7
370
    60
100
AcDbLine
 10
305.3103885645987
 20
139.7000969188484
 30
0.0
 11
305.3103885645987
 21
211.7001049188484
 31
0.0
  0
LINE
  5
360
330
1F
100
AcDbEntity
  8
0
 62
     7
370
    60
100
AcDbLine
 10
300.9319475645997
 20
139.7000969188484
 30
0.0
 11
300.9319475645997
 21
211.7001049188484
 31
0.0
  0
LINE
  5
361
330
1F
100
AcDbEntity
  8
0
 62
     7
370
    60
100
AcDbLine
 10
301.8639925645997
 20
139.7000969188484
 30
0.0
 11
301.8639925645997
 21
211.7001049188484
 31
0.0
  0
LINE
  5
362
330
1F
100
AcDbEntity
  8
0
 62
     7
370
    60
100
AcDbLine
 10
304.7368715645997
 20
139.7000969188484
 30
0.0
 11
304.7368715645997
 21
211.7001049188484
 31
0.0
  0
LINE
  5
363
330
1F
100
AcDbEntity
  8
0
 62
     7
370
    60
100
AcDbLine
 10
304.8473905645997
 20
139.7000969188484
 30
0.0
 11
304.8473905645997
 21
211.7001049188484
 31
0.0
  0
LINE
  5
364
330
1F
100
AcDbEntity
  8
0
 62
     7
370
    60
100
AcDbLine
 10
305.0001315645987
 20
139.7000969188484
 30
0.0
 11
305.0001315645987
 21
211.7001049188484
 31
0.0
  0
LINE
  5
365
330
1F
100
AcDbEntity
  8
0
 62
     7
370
    60
100
AcDbLine
 10
305.1225445645997
 20
139.7000969188484
 30
0.0
 11
305.1225445645997
 21
211.7001049188484
 31
0.0
  0
LINE
  5
366
330
1F
100
AcDbEntity
  8
0
 62
     7
370
    60
100
AcDbLine
 10
305.2144945645997
 20
139.7000969188484
 30
0.0
 11
305.2144945645997
 21
211.7001049188484
 31
0.0
  0
LINE
  5
368
330
1F
100
AcDbEntity
  8
0
 62
     7
370
    60
100
AcDbLine
 10
298.4033375645997
 20
139.7000969188484
 30
0.0
 11
298.4033375645997
 21
211.7001049188484
 31
0.0
  0
LINE
  5
36C
330
1F
100
AcDbEntity
  8
0
 62
     7
370
    60
100
AcDbLine
 10
301.8639925645997
 20
101.0964959188482
 30
0.0
 11
302.8685855645997
 21
101.6764959188481
 31
0.0
  0
LINE
  5
36D
330
1F
100
AcDbEntity
  8
0
 62
     7
370
    60
100
AcDbLine
 10
300.9319475645997
 20
98.71085491884833
 30
0.0
 11
302.8247615645997
 21
99.80367591884851
 31
0.0
  0
LINE
  5
36E
330
1F
100
AcDbEntity
  8
0
 62
     7
370
    60
100
AcDbLine
 10
302.1639955645987
 20
100.5768809188485
 30
0.0
 11
302.6175855645997
 21
100.5768809188485
 31
0.0
  0
LINE
  5
36F
330
1F
100
AcDbEntity
  8
0
 62
     7
370
    60
100
AcDbLine
 10
301.6243075645997
 20
98.00207691884816
 30
0.0
 11
303.3001805645997
 21
98.96964191884808
 31
0.0
  0
ARC
  5
370
330
1F
100
AcDbEntity
  8
0
 62
     7
370
    60
100
AcDbCircle
 10
298.0285815645997
 20
110.0596209188484
 30
0.0
 40
0.4000000000002047
100
AcDbArc
 50
299.9999949999869
 51
30.0000009999889
  0
LINE
  5
371
330
1F
100
AcDbEntity
  8
0
 62
     7
370
    60
100
AcDbLine
 10
294.6919415645997
 20
109.5188539188484
 30
0.0
 11
296.5847645645997
 21
110.6116729188484
 31
0.0
  0
LINE
  5
372
330
1F
100
AcDbEntity
  8
0
 62
     7
370
    60
100
AcDbLine
 10
296.9239975645987
 20
109.6528259188481
 30
0.0
 11
297.1507885645997
 21
110.0456479188483
 31
0.0
  0
ARC
  5
373
330
1F
100
AcDbEntity
  8
0
 62
     7
370
    60
100
AcDbCircle
 10
302.5198375645997
 20
106.8329599188482
 30
0.0
 40
8.275866999999995
100
AcDbArc
 50
209.999998999998
 51
258.938045000003
  0
LINE
  5
374
330
1F
100
AcDbEntity
  8
0
 62
     7
370
    60
100
AcDbLine
 10
296.9239975645987
 20
109.6528259188481
 30
0.0
 11
297.2239925645997
 21
109.1332109188484
 31
0.0
  0
LINE
  5
375
330
1F
100
AcDbEntity
  8
0
 62
     7
370
    60
100
AcDbLine
 10
297.2239925645997
 20
109.1332109188484
 30
0.0
 11
298.2285855645997
 21
109.7132119188482
 31
0.0
  0
LINE
  5
376
330
1F
100
AcDbEntity
  8
0
 62
     7
370
    60
100
AcDbLine
 10
294.7149445645997
 20
101.8948529188483
 30
0.0
 11
294.7220705645997
 21
101.8948529188483
 31
0.0
  0
ARC
  5
377
330
1F
100
AcDbEntity
  8
0
 62
     7
370
    60
100
AcDbCircle
 10
300.8243045645997
 20
99.38771791884847
 30
0.0
 40
1.599999999999818
100
AcDbArc
 50
257.1705829999946
 51
299.9999949999947
  0
LINE
  5
378
330
1F
100
AcDbEntity
  8
0
 62
     7
370
    60
100
AcDbLine
 10
301.8639925645997
 20
101.0964959188482
 30
0.0
 11
302.1639955645987
 21
100.5768809188485
 31
0.0
  0
LINE
  5
37B
330
1F
100
AcDbEntity
  8
0
 62
     7
370
    60
100
AcDbLine
 10
297.0531175645997
 20
112.5491769188484
 30
0.0
 11
298.3749935645997
 21
110.2596219188481
 31
0.0
  0
ARC
  5
37C
330
1F
100
AcDbEntity
  8
0
 62
     7
370
    60
100
AcDbCircle
 10
296.7919475645997
 20
110.2528279188482
 30
0.0
 40
0.4143590000000277
100
AcDbArc
 50
329.9999889999849
 51
120.0000029999869
  0
ARC
  5
37D
330
1F
100
AcDbEntity
  8
0
 62
     7
370
    60
100
AcDbCircle
 10
280.1103835645997
 20
93.8948529188483
 30
0.0
 40
25.20000199999989
100
AcDbArc
 50
47.75278899999801
 51
48.999998999996
  0
LINE
  5
37E
330
1F
100
AcDbEntity
  8
0
 62
     7
370
    60
100
AcDbLine
 10
296.5118575645997
 20
112.7625939188483
 30
0.0
 11
296.6430755645997
 21
112.9135369188484
 31
0.0
  0
ARC
  5
37F
330
1F
100
AcDbEntity
  8
0
 62
     7
370
    60
100
AcDbCircle
 10
280.1103835645997
 20
93.8948529188483
 30
0.0
 40
25.00000200000014
100
AcDbArc
 50
48.99999899999643
 51
51.00000100000013
  0
LINE
  5
380
330
1F
100
AcDbEntity
  8
0
 62
     7
370
    60
100
AcDbLine
 10
295.8433925645987
 20
113.3235029188481
 30
0.0
 11
295.9692625645997
 21
113.4789329188484
 31
0.0
  0
ARC
  5
381
330
1F
100
AcDbEntity
  8
0
 62
     7
370
    60
100
AcDbCircle
 10
280.1103835645997
 20
93.8948529188483
 30
0.0
 40
25.20000199999997
100
AcDbArc
 50
51.00000099999979
 51
52.99999999999999
  0
LINE
  5
382
330
1F
100
AcDbEntity
  8
0
 62
     7
370
    60
100
AcDbLine
 10
295.1557635645997
 20
113.8607419188484
 30
0.0
 11
295.2761245645997
 21
114.0204709188483
 31
0.0
  0
ARC
  5
383
330
1F
100
AcDbEntity
  8
0
 62
     7
370
    60
100
AcDbCircle
 10
280.1103835645997
 20
93.8948529188483
 30
0.0
 40
25.00000199999999
100
AcDbArc
 50
53.00000000000026
 51
54.99999900000165
  0
LINE
  5
384
330
1F
100
AcDbEntity
  8
0
 62
     7
370
    60
100
AcDbLine
 10
294.4497925645987
 20
114.3736549188484
 30
0.0
 11
294.5645085645997
 21
114.5374849188483
 31
0.0
  0
ARC
  5
385
330
1F
100
AcDbEntity
  8
0
 62
     7
370
    60
100
AcDbCircle
 10
296.0001765645987
 20
111.6136139188484
 30
0.0
 40
0.1999999999999054
100
AcDbArc
 50
299.9999950000195
 51
48.11494700001847
  0
LINE
  5
386
330
1F
100
AcDbEntity
  8
0
 62
     7
370
    60
100
AcDbLine
 10
294.4243025645987
 20
110.4728439188484
 30
0.0
 11
296.1001755645997
 21
111.4404079188485
 31
0.0
  0
ARC
  5
387
330
1F
100
AcDbEntity
  8
0
 62
     7
370
    60
100
AcDbCircle
 10
280.1103835645997
 20
93.8948529188483
 30
0.0
 40
24.00000200000005
100
AcDbArc
 50
1.63724499999985
 51
11.88505400000031
  0
ARC
  5
388
330
1F
100
AcDbEntity
  8
0
 62
     7
370
    60
100
AcDbCircle
 10
303.0685825645987
 20
101.3300849188481
 30
0.0
 40
0.4000000000000598
100
AcDbArc
 50
30.00000100001839
 51
120.0000030000206
  0
LINE
  5
389
330
1F
100
AcDbEntity
  8
0
 62
     7
370
    60
100
AcDbLine
 10
303.4149945645997
 20
101.5300859188483
 30
0.0
 11
304.7368715645997
 21
99.24053091884844
 31
0.0
  0
ARC
  5
38A
330
1F
100
AcDbEntity
  8
0
 62
     7
370
    60
100
AcDbCircle
 10
280.1103835645997
 20
93.8948529188483
 30
0.0
 40
25.20000199999998
100
AcDbArc
 50
10.99999999999838
 51
12.24721000000058
  0
LINE
  5
38B
330
1F
100
AcDbEntity
  8
0
 62
     7
370
    60
100
AcDbLine
 10
304.6510635645997
 20
98.6650789188484
 30
0.0
 11
304.8473905645997
 21
98.70324091884822
 31
0.0
  0
ARC
  5
38C
330
1F
100
AcDbEntity
  8
0
 62
     7
370
    60
100
AcDbCircle
 10
280.1103835645997
 20
93.8948529188483
 30
0.0
 40
25.00000199999996
100
AcDbArc
 50
8.999999999998268
 51
10.99999999999827
  0
LINE
  5
38D
330
1F
100
AcDbEntity
  8
0
 62
     7
370
    60
100
AcDbLine
 10
304.8025905645987
 20
97.80571491884848
 30
0.0
 11
305.0001315645987
 21
97.83700091884839
 31
0.0
  0
ARC
  5
38E
330
1F
100
AcDbEntity
  8
0
 62
     7
370
    60
100
AcDbCircle
 10
280.1103835645997
 20
93.8948529188483
 30
0.0
 40
25.20000199999998
100
AcDbArc
 50
6.999999999999278
 51
8.999999999998838
  0
LINE
  5
38F
330
1F
100
AcDbEntity
  8
0
 62
     7
370
    60
100
AcDbLine
 10
304.9240355645987
 20
96.94158691884832
 30
0.0
 11
305.1225445645997
 21
96.9659609188484
 31
0.0
  0
ARC
  5
390
330
1F
100
AcDbEntity
  8
0
 62
     7
370
    60
100
AcDbCircle
 10
280.1103835645997
 20
93.8948529188483
 30
0.0
 40
25.00000200000003
100
AcDbArc
 50
4.999999999999777
 51
6.999999999998887
  0
LINE
  5
391
330
1F
100
AcDbEntity
  8
0
 62
     7
370
    60
100
AcDbLine
 10
305.0152525645997
 20
96.07374691884843
 30
0.0
 11
305.2144945645997
 21
96.09117791884819
 31
0.0
  0
ARC
  5
392
330
1F
100
AcDbEntity
  8
0
 62
     7
370
    60
100
AcDbCircle
 10
280.1103835645997
 20
93.8948529188483
 30
0.0
 40
25.20000199999999
100
AcDbArc
 50
2.999999999998903
 51
5.000000000000013
  0
LINE
  5
393
330
1F
100
AcDbEntity
  8
0
 62
     7
370
    60
100
AcDbLine
 10
305.0761195645997
 20
95.20325191884831
 30
0.0
 11
305.2758495645987
 21
95.21371991884826
 31
0.0
  0
ARC
  5
394
330
1F
100
AcDbEntity
  8
0
 62
     7
370
    60
100
AcDbCircle
 10
302.6175855645997
 20
100.1625209188483
 30
0.0
 40
0.4143590000000701
100
AcDbArc
 50
299.9999949999875
 51
90.00000299998742
  0
ARC
  5
395
330
1F
100
AcDbEntity
  8
0
 62
     7
370
    60
100
AcDbCircle
 10
303.4001785645997
 20
98.79643791884837
 30
0.0
 40
0.1999999999999947
100
AcDbArc
 50
11.8850530000322
 51
120.0000030000352
  0
LINE
  5
396
330
1F
100
AcDbEntity
  8
0
 62
     7
370
    60
100
AcDbLine
 10
301.8639925645997
 20
139.7000969188484
 30
0.0
 11
302.8685855645997
 21
139.7000969188484
 31
0.0
  0
LINE
  5
397
330
1F
100
AcDbEntity
  8
0
 62
     7
370
    60
100
AcDbLine
 10
297.0531175645997
 20
139.7000969188484
 30
0.0
 11
298.3749935645997
 21
139.7000969188484
 31
0.0
  0
LINE
  5
398
330
1F
100
AcDbEntity
  8
0
 62
     7
370
    60
100
AcDbLine
 10
296.6430755645997
 20
139.7000969188484
 30
0.0
 11
297.0531175645997
 21
139.7000969188484
 31
0.0
  0
LINE
  5
399
330
1F
100
AcDbEntity
  8
0
 62
     7
370
    60
100
AcDbLine
 10
296.5118575645997
 20
139.7000969188484
 30
0.0
 11
296.6430755645997
 21
139.7000969188484
 31
0.0
  0
LINE
  5
39A
330
1F
100
AcDbEntity
  8
0
 62
     7
370
    60
100
AcDbLine
 10
295.9692625645997
 20
139.7000969188484
 30
0.0
 11
296.5118575645997
 21
139.7000969188484
 31
0.0
  0
LINE
  5
39B
330
1F
100
AcDbEntity
  8
0
 62
     7
370
    60
100
AcDbLine
 10
295.2761245645997
 20
139.7000969188484
 30
0.0
 11
295.9692625645997
 21
139.7000969188484
 31
0.0
  0
LINE
  5
39C
330
1F
100
AcDbEntity
  8
0
 62
     7
370
    60
100
AcDbLine
 10
295.1557635645997
 20
139.7000969188484
 30
0.0
 11
295.2761245645997
 21
139.7000969188484
 31
0.0
  0
LINE
  5
39D
330
1F
100
AcDbEntity
  8
0
 62
     7
370
    60
100
AcDbLine
 10
294.5645085645997
 20
139.7000969188484
 30
0.0
 11
295.1557635645997
 21
139.7000969188484
 31
0.0
  0
LINE
  5
39E
330
1F
100
AcDbEntity
  8
0
 62
     7
370
    60
100
AcDbLine
 10
298.3749935645997
 20
139.7000969188484
 30
0.0
 11
298.4033375645997
 21
139.7000969188484
 31
0.0
  0
LINE
  5
39F
330
1F
100
AcDbEntity
  8
0
 62
     7
370
    60
100
AcDbLine
 10
298.4033375645997
 20
139.7000969188484
 30
0.0
 11
300.9319475645997
 21
139.7000969188484
 31
0.0
  0
LINE
  5
3A0
330
1F
100
AcDbEntity
  8
0
 62
     7
370
    60
100
AcDbLine
 10
300.9319475645997
 20
139.7000969188484
 30
0.0
 11
301.8639925645997
 21
139.7000969188484
 31
0.0
  0
LINE
  5
3A1
330
1F
100
AcDbEntity
  8
0
 62
     7
370
    60
100
AcDbLine
 10
302.8685855645997
 20
139.7000969188484
 30
0.0
 11
303.4149945645997
 21
139.7000969188484
 31
0.0
  0
LINE
  5
3A2
330
1F
100
AcDbEntity
  8
0
 62
     7
370
    60
100
AcDbLine
 10
305.3065505645988
 20
139.7000969188484
 30
0.0
 11
305.3103885645987
 21
139.7000969188484
 31
0.0
  0
LINE
  5
3A3
330
1F
100
AcDbEntity
  8
0
 62
     7
370
    60
100
AcDbLine
 10
303.4149945645997
 20
139.7000969188484
 30
0.0
 11
304.7368715645997
 21
139.7000969188484
 31
0.0
  0
LINE
  5
3A4
330
1F
100
AcDbEntity
  8
0
 62
     7
370
    60
100
AcDbLine
 10
304.7368715645997
 20
139.7000969188484
 30
0.0
 11
304.8473905645997
 21
139.7000969188484
 31
0.0
  0
LINE
  5
3A5
330
1F
100
AcDbEntity
  8
0
 62
     7
370
    60
100
AcDbLine
 10
304.8473905645997
 20
139.7000969188484
 30
0.0
 11
305.0001315645987
 21
139.7000969188484
 31
0.0
  0
LINE
  5
3A6
330
1F
100
AcDbEntity
  8
0
 62
     7
370
    60
100
AcDbLine
 10
305.0001315645987
 20
139.7000969188484
 30
0.0
 11
305.1225445645997
 21
139.7000969188484
 31
0.0
  0
LINE
  5
3A7
330
1F
100
AcDbEntity
  8
0
 62
     7
370
    60
100
AcDbLine
 10
304.9240355645987
 20
139.7000969188484
 30
0.0
 11
305.0001315645987
 21
139.7000969188484
 31
0.0
  0
LINE
  5
3A8
330
1F
100
AcDbEntity
  8
0
 62
     7
370
    60
100
AcDbLine
 10
305.1225445645997
 20
139.7000969188484
 30
0.0
 11
305.2144945645997
 21
139.7000969188484
 31
0.0
  0
LINE
  5
3A9
330
1F
100
AcDbEntity
  8
0
 62
     7
370
    60
100
AcDbLine
 10
305.2144945645997
 20
139.7000969188484
 30
0.0
 11
305.2758495645987
 21
139.7000969188484
 31
0.0
  0
LINE
  5
3AA
330
1F
100
AcDbEntity
  8
0
 62
     7
370
    60
100
AcDbLine
 10
305.2758495645987
 20
139.7000969188484
 30
0.0
 11
305.3065505645988
 21
139.7000969188484
 31
0.0
  0
LINE
  5
3AE
330
1F
100
AcDbEntity
  8
0
 62
     7
370
    60
100
AcDbLine
 10
298.4033375645997
 20
211.7001049188484
 30
0.0
 11
305.3103885645987
 21
211.7001049188484
 31
0.0
  0
LINE
  5
3BB
330
1F
100
AcDbEntity
  8
0
 62
     7
370
    60
100
AcDbLine
 10
319.0458235645997
 20
247.0922409188483
 30
0.0
 11
339.0458235645997
 21
267.0922409188483
 31
0.0
  0
LINE
  5
3BC
330
1F
100
AcDbEntity
  8
0
 62
     7
370
    60
100
AcDbLine
 10
305.3103885645987
 20
261.6410689188483
 30
0.0
 11
310.7615525645997
 21
267.0922409188483
 31
0.0
  0
LINE
  5
3BD
330
1F
100
AcDbEntity
  8
0
 62
     7
370
    60
100
AcDbLine
 10
305.3103885645987
 20
247.4989789188485
 30
0.0
 11
324.9036885645987
 21
267.0922409188483
 31
0.0
  0
LINE
  5
3BE
330
1F
100
AcDbEntity
  8
0
 62
     7
370
    60
100
AcDbLine
 10
298.4033375645997
 20
235.7001049188484
 30
0.0
 11
305.3103885645987
 21
235.7001049188484
 31
0.0
  0
LINE
  5
3BF
330
1F
100
AcDbEntity
  8
0
 62
     7
370
    60
100
AcDbLine
 10
347.3300945645997
 20
247.0922409188483
 30
0.0
 11
367.3300945645997
 21
267.0922409188483
 31
0.0
  0
LINE
  5
3C0
330
1F
100
AcDbEntity
  8
0
 62
     7
370
    60
100
AcDbLine
 10
333.1879595645987
 20
247.0922409188483
 30
0.0
 11
353.1879595645987
 21
267.0922409188483
 31
0.0
  0
LINE
  5
3C1
330
1F
100
AcDbEntity
  8
0
 62
     7
370
    60
100
AcDbLine
 10
361.4722305645997
 20
247.0922409188483
 30
0.0
 11
381.4722305645997
 21
267.0922409188483
 31
0.0
  0
LINE
  5
44C
330
1F
100
AcDbEntity
  8
0
  6
DASHDOT
 62
     7
370
    60
100
AcDbLine
 10
248.8300565645987
 20
548.4098979188484
 30
0.0
 11
317.4249745645997
 21
585.9831099188482
 31
0.0
  0
LINE
  5
44D
330
1F
100
AcDbEntity
  8
0
  6
DASHDOT
 62
     7
370
    60
100
AcDbLine
 10
246.5241065645997
 20
552.6197369188485
 30
0.0
 11
314.2510395645998
 21
589.7174849188482
 31
0.0
  0
LINE
  5
44E
330
1F
100
AcDbEntity
  8
0
 62
     7
370
    60
100
AcDbLine
 10
254.9103795645997
 20
483.7001199188485
 30
0.0
 11
261.8176585645997
 21
483.7001199188485
 31
0.0
  0
LINE
  5
44F
330
1F
100
AcDbEntity
  8
0
 62
     7
370
    60
100
AcDbLine
 10
259.2888195645987
 20
859.7001509188481
 30
0.0
 11
261.8176585645997
 21
859.7001509188481
 31
0.0
  0
LINE
  5
450
330
1F
100
AcDbEntity
  8
0
 62
     7
370
    60
100
AcDbLine
 10
259.2888195645987
 20
559.6116499188483
 30
0.0
 11
259.2888195645987
 21
859.7001509188481
 31
0.0
  0
LINE
  5
451
330
1F
100
AcDbEntity
  8
0
 62
     7
370
    60
100
AcDbLine
 10
255.4838955645997
 20
557.5274819188485
 30
0.0
 11
255.4838955645997
 21
859.7001509188481
 31
0.0
  0
LINE
  5
452
330
1F
100
AcDbEntity
  8
0
 62
     7
370
    60
100
AcDbLine
 10
255.3733765645987
 20
557.4669659188485
 30
0.0
 11
255.3733765645987
 21
859.7001509188481
 31
0.0
  0
LINE
  5
453
330
1F
100
AcDbEntity
  8
0
 62
     7
370
    60
100
AcDbLine
 10
255.2206355645988
 20
557.3832869188482
 30
0.0
 11
255.2206355645988
 21
859.7001509188481
 31
0.0
  0
LINE
  5
454
330
1F
100
AcDbEntity
  8
0
 62
     7
370
    60
100
AcDbLine
 10
255.0982225645997
 20
557.3162399188482
 30
0.0
 11
255.0982225645997
 21
859.7001509188481
 31
0.0
  0
LINE
  5
455
330
1F
100
AcDbEntity
  8
0
 62
     7
370
    60
100
AcDbLine
 10
255.0062725645997
 20
557.2658859188482
 30
0.0
 11
255.0062725645997
 21
859.7001509188481
 31
0.0
  0
LINE
  5
458
330
1F
100
AcDbEntity
  8
0
 62
     7
370
    60
100
AcDbLine
 10
254.9103795645997
 20
557.2133649188481
 30
0.0
 11
254.9103795645997
 21
859.7001509188481
 31
0.0
  0
LINE
  5
459
330
1F
100
AcDbEntity
  8
0
 62
     7
370
    60
100
AcDbLine
 10
258.3567745645997
 20
559.1011209188482
 30
0.0
 11
258.3567745645997
 21
859.7001509188481
 31
0.0
  0
LINE
  5
474
330
1F
100
AcDbEntity
  8
0
 62
     7
370
    60
100
AcDbLine
 10
259.2888195645987
 20
483.7001199188485
 30
0.0
 11
259.2888195645987
 21
554.1387489188483
 31
0.0
  0
LINE
  5
475
330
1F
100
AcDbEntity
  8
0
 62
     7
370
    60
100
AcDbLine
 10
255.4838955645997
 20
483.7001199188485
 30
0.0
 11
255.4838955645997
 21
552.0545819188483
 31
0.0
  0
LINE
  5
476
330
1F
100
AcDbEntity
  8
0
 62
     7
370
    60
100
AcDbLine
 10
255.3733765645987
 20
483.7001199188485
 30
0.0
 11
255.3733765645987
 21
551.9940349188482
 31
0.0
  0
LINE
  5
477
330
1F
100
AcDbEntity
  8
0
 62
     7
370
    60
100
AcDbLine
 10
255.2206355645988
 20
483.7001199188485
 30
0.0
 11
255.2206355645988
 21
551.9103859188481
 31
0.0
  0
LINE
  5
478
330
1F
100
AcDbEntity
  8
0
 62
     7
370
    60
100
AcDbLine
 10
255.0982225645997
 20
483.7001199188485
 30
0.0
 11
255.0982225645997
 21
551.8433089188484
 31
0.0
  0
LINE
  5
479
330
1F
100
AcDbEntity
  8
0
 62
     7
370
    60
100
AcDbLine
 10
255.0062725645997
 20
483.7001199188485
 30
0.0
 11
255.0062725645997
 21
551.7929549188484
 31
0.0
  0
LINE
  5
47C
330
1F
100
AcDbEntity
  8
0
 62
     7
370
    60
100
AcDbLine
 10
254.9103795645997
 20
483.7001199188485
 30
0.0
 11
254.9103795645997
 21
551.7404339188483
 31
0.0
  0
LINE
  5
47D
330
1F
100
AcDbEntity
  8
0
 62
     7
370
    60
100
AcDbLine
 10
258.3567745645997
 20
483.7001199188485
 30
0.0
 11
258.3567745645997
 21
553.6282209188485
 31
0.0
  0
LINE
  5
481
330
1F
100
AcDbEntity
  8
0
 62
     7
370
    60
100
AcDbLine
 10
256.8057725645997
 20
859.7001509188481
 30
0.0
 11
257.3521815645997
 21
859.7001509188481
 31
0.0
  0
LINE
  5
482
330
1F
100
AcDbEntity
  8
0
 62
     7
370
    60
100
AcDbLine
 10
255.4838955645997
 20
859.7001509188481
 30
0.0
 11
256.8057725645997
 21
859.7001509188481
 31
0.0
  0
LINE
  5
483
330
1F
100
AcDbEntity
  8
0
 62
     7
370
    60
100
AcDbLine
 10
255.3733765645987
 20
859.7001509188481
 30
0.0
 11
255.4838955645997
 21
859.7001509188481
 31
0.0
  0
LINE
  5
484
330
1F
100
AcDbEntity
  8
0
 62
     7
370
    60
100
AcDbLine
 10
255.2206355645988
 20
859.7001509188481
 30
0.0
 11
255.3733765645987
 21
859.7001509188481
 31
0.0
  0
LINE
  5
485
330
1F
100
AcDbEntity
  8
0
 62
     7
370
    60
100
AcDbLine
 10
255.0982225645997
 20
859.7001509188481
 30
0.0
 11
255.2206355645988
 21
859.7001509188481
 31
0.0
  0
LINE
  5
486
330
1F
100
AcDbEntity
  8
0
 62
     7
370
    60
100
AcDbLine
 10
255.0062725645997
 20
859.7001509188481
 30
0.0
 11
255.0982225645997
 21
859.7001509188481
 31
0.0
  0
LINE
  5
487
330
1F
100
AcDbEntity
  8
0
 62
     7
370
    60
100
AcDbLine
 10
254.9449175645997
 20
859.7001509188481
 30
0.0
 11
255.0062725645997
 21
859.7001509188481
 31
0.0
  0
LINE
  5
488
330
1F
100
AcDbEntity
  8
0
 62
     7
370
    60
100
AcDbLine
 10
254.9142165645987
 20
859.7001509188481
 30
0.0
 11
254.9449175645997
 21
859.7001509188481
 31
0.0
  0
LINE
  5
489
330
1F
100
AcDbEntity
  8
0
 62
     7
370
    60
100
AcDbLine
 10
254.9103795645997
 20
859.7001509188481
 30
0.0
 11
254.9142165645987
 21
859.7001509188481
 31
0.0
  0
LINE
  5
48A
330
1F
100
AcDbEntity
  8
0
 62
     7
370
    60
100
AcDbLine
 10
258.3567745645997
 20
859.7001509188481
 30
0.0
 11
259.2888195645987
 21
859.7001509188481
 31
0.0
  0
LINE
  5
48B
330
1F
100
AcDbEntity
  8
0
 62
     7
370
    60
100
AcDbLine
 10
257.3521815645997
 20
859.7001509188481
 30
0.0
 11
258.3567745645997
 21
859.7001509188481
 31
0.0
  0
LINE
  5
48C
330
1F
100
AcDbEntity
  8
0
 62
     7
370
    60
100
AcDbLine
 10
261.8176585645997
 20
560.9968429188484
 30
0.0
 11
261.8176585645997
 21
859.7001509188481
 31
0.0
  0
LINE
  5
48D
330
1F
100
AcDbEntity
  8
0
 62
     7
370
    60
100
AcDbLine
 10
298.4033375645997
 20
581.0368209188482
 30
0.0
 11
298.4033375645997
 21
859.7001509188481
 31
0.0
  0
LINE
  5
48E
330
1F
100
AcDbEntity
  8
0
 62
     7
370
    60
100
AcDbLine
 10
297.0531175645997
 20
580.2972579188481
 30
0.0
 11
297.0531175645997
 21
859.7001509188481
 31
0.0
  0
LINE
  5
48F
330
1F
100
AcDbEntity
  8
0
 62
     7
370
    60
100
AcDbLine
 10
296.6430755645997
 20
580.0726479188484
 30
0.0
 11
296.6430755645997
 21
859.7001509188481
 31
0.0
  0
LINE
  5
491
330
1F
100
AcDbEntity
  8
0
 62
     7
370
    60
100
AcDbLine
 10
295.9692625645997
 20
579.7035379188483
 30
0.0
 11
295.9692625645997
 21
859.7001509188481
 31
0.0
  0
LINE
  5
492
330
1F
100
AcDbEntity
  8
0
 62
     7
370
    60
100
AcDbLine
 10
295.2761245645997
 20
579.3238999188484
 30
0.0
 11
295.2761245645997
 21
859.7001509188481
 31
0.0
  0
LINE
  5
494
330
1F
100
AcDbEntity
  8
0
 62
     7
370
    60
100
AcDbLine
 10
294.5645085645997
 20
578.9340989188481
 30
0.0
 11
294.5645085645997
 21
859.7001509188481
 31
0.0
  0
LINE
  5
495
330
1F
100
AcDbEntity
  8
0
 62
     7
370
    60
100
AcDbLine
 10
293.8352905645997
 20
578.5346539188481
 30
0.0
 11
293.8352905645997
 21
859.7001509188481
 31
0.0
  0
LINE
  5
497
330
1F
100
AcDbEntity
  8
0
 62
     7
370
    60
100
AcDbLine
 10
293.0893415645987
 20
578.1260849188484
 30
0.0
 11
293.0893415645987
 21
859.7001509188481
 31
0.0
  0
LINE
  5
498
330
1F
100
AcDbEntity
  8
0
 62
     7
370
    60
100
AcDbLine
 10
284.7503825645997
 20
573.5583659188483
 30
0.0
 11
284.7503825645997
 21
859.7001509188481
 31
0.0
  0
LINE
  5
499
330
1F
100
AcDbEntity
  8
0
 62
     7
370
    60
100
AcDbLine
 10
287.7941295645987
 20
575.2255719188483
 30
0.0
 11
287.7941295645987
 21
859.7001509188481
 31
0.0
  0
LINE
  5
49A
330
1F
100
AcDbEntity
  8
0
 62
     7
370
    60
100
AcDbLine
 10
288.3146985645997
 20
575.5107279188483
 30
0.0
 11
288.3146985645997
 21
859.7001509188481
 31
0.0
  0
LINE
  5
49C
330
1F
100
AcDbEntity
  8
0
 62
     7
370
    60
100
AcDbLine
 10
289.1412595645987
 20
575.9634869188485
 30
0.0
 11
289.1412595645987
 21
859.7001509188481
 31
0.0
  0
LINE
  5
49D
330
1F
100
AcDbEntity
  8
0
 62
     7
370
    60
100
AcDbLine
 10
289.9568115645988
 20
576.4102029188484
 30
0.0
 11
289.9568115645988
 21
859.7001509188481
 31
0.0
  0
LINE
  5
49F
330
1F
100
AcDbEntity
  8
0
 62
     7
370
    60
100
AcDbLine
 10
290.7603625645987
 20
576.8503579188482
 30
0.0
 11
290.7603625645987
 21
859.7001509188481
 31
0.0
  0
LINE
  5
4A0
330
1F
100
AcDbEntity
  8
0
 62
     7
370
    60
100
AcDbLine
 10
291.5509425645997
 20
577.2834029188484
 30
0.0
 11
291.5509425645997
 21
859.7001509188481
 31
0.0
  0
LINE
  5
4A2
330
1F
100
AcDbEntity
  8
0
 62
     7
370
    60
100
AcDbLine
 10
292.3275845645987
 20
577.7088179188481
 30
0.0
 11
292.3275845645987
 21
859.7001509188481
 31
0.0
  0
LINE
  5
4A3
330
1F
100
AcDbEntity
  8
0
 62
     7
370
    60
100
AcDbLine
 10
272.4266375645997
 20
566.8079689188485
 30
0.0
 11
272.4266375645997
 21
859.7001509188481
 31
0.0
  0
LINE
  5
4A4
330
1F
100
AcDbEntity
  8
0
 62
     7
370
    60
100
AcDbLine
 10
271.9060685645987
 20
566.5228129188481
 30
0.0
 11
271.9060685645987
 21
859.7001509188481
 31
0.0
  0
LINE
  5
4A5
330
1F
100
AcDbEntity
  8
0
 62
     7
370
    60
100
AcDbLine
 10
271.1511855645997
 20
566.1093309188482
 30
0.0
 11
271.1511855645997
 21
859.7001509188481
 31
0.0
  0
LINE
  5
4A7
330
1F
100
AcDbEntity
  8
0
 62
     7
370
    60
100
AcDbLine
 10
270.2639555645987
 20
565.6233379188484
 30
0.0
 11
270.2639555645987
 21
859.7001509188481
 31
0.0
  0
LINE
  5
4A8
330
1F
100
AcDbEntity
  8
0
 62
     7
370
    60
100
AcDbLine
 10
269.5449235645997
 20
565.2294779188483
 30
0.0
 11
269.5449235645997
 21
859.7001509188481
 31
0.0
  0
LINE
  5
4AA
330
1F
100
AcDbEntity
  8
0
 62
     7
370
    60
100
AcDbLine
 10
268.6698245645997
 20
564.7501689188484
 30
0.0
 11
268.6698245645997
 21
859.7001509188481
 31
0.0
  0
LINE
  5
4AB
330
1F
100
AcDbEntity
  8
0
 62
     7
370
    60
100
AcDbLine
 10
267.9901445645987
 20
564.3778549188482
 30
0.0
 11
267.9901445645987
 21
859.7001509188481
 31
0.0
  0
LINE
  5
4AD
330
1F
100
AcDbEntity
  8
0
 62
     7
370
    60
100
AcDbLine
 10
263.1676495645997
 20
561.7363139188483
 30
0.0
 11
263.1676495645997
 21
859.7001509188481
 31
0.0
  0
LINE
  5
4AF
330
1F
100
AcDbEntity
  8
0
 62
     7
370
    60
100
AcDbLine
 10
263.7089095645997
 20
562.0327919188485
 30
0.0
 11
263.7089095645997
 21
859.7001509188481
 31
0.0
  0
LINE
  5
4B0
330
1F
100
AcDbEntity
  8
0
 62
     7
370
    60
100
AcDbLine
 10
264.2515045645997
 20
562.3300029188481
 30
0.0
 11
264.2515045645997
 21
859.7001509188481
 31
0.0
  0
LINE
  5
4B2
330
1F
100
AcDbEntity
  8
0
 62
     7
370
    60
100
AcDbLine
 10
265.0650035645997
 20
562.7755899188483
 30
0.0
 11
265.0650035645997
 21
859.7001509188481
 31
0.0
  0
LINE
  5
4B3
330
1F
100
AcDbEntity
  8
0
 62
     7
370
    60
100
AcDbLine
 10
265.6562595645997
 20
563.0994729188483
 30
0.0
 11
265.6562595645997
 21
859.7001509188481
 31
0.0
  0
LINE
  5
4B5
330
1F
100
AcDbEntity
  8
0
 62
     7
370
    60
100
AcDbLine
 10
266.4944095645997
 20
563.5585489188484
 30
0.0
 11
266.4944095645997
 21
859.7001509188481
 31
0.0
  0
LINE
  5
4B6
330
1F
100
AcDbEntity
  8
0
 62
     7
370
    60
100
AcDbLine
 10
267.1314255645997
 20
563.9074869188485
 30
0.0
 11
267.1314255645997
 21
859.7001509188481
 31
0.0
  0
LINE
  5
4B7
330
1F
100
AcDbEntity
  8
0
 62
     7
370
    60
100
AcDbLine
 10
305.3103885645987
 20
584.8202069188483
 30
0.0
 11
305.3103885645987
 21
859.7001509188481
 31
0.0
  0
LINE
  5
4B9
330
1F
100
AcDbEntity
  8
0
 62
     7
370
    60
100
AcDbLine
 10
275.4703845645997
 20
568.4752059188481
 30
0.0
 11
275.4703845645997
 21
859.7001509188481
 31
0.0
  0
LINE
  5
4BA
330
1F
100
AcDbEntity
  8
0
 62
     7
370
    60
100
AcDbLine
 10
300.9319475645997
 20
582.4218919188484
 30
0.0
 11
300.9319475645997
 21
859.7001509188481
 31
0.0
  0
LINE
  5
4BB
330
1F
100
AcDbEntity
  8
0
 62
     7
370
    60
100
AcDbLine
 10
301.8639925645997
 20
582.9324509188482
 30
0.0
 11
301.8639925645997
 21
859.7001509188481
 31
0.0
  0
LINE
  5
4BC
330
1F
100
AcDbEntity
  8
0
 62
     7
370
    60
100
AcDbLine
 10
304.7368715645997
 20
584.5060589188483
 30
0.0
 11
304.7368715645997
 21
859.7001509188481
 31
0.0
  0
LINE
  5
4BD
330
1F
100
AcDbEntity
  8
0
 62
     7
370
    60
100
AcDbLine
 10
304.8473905645997
 20
584.5666059188484
 30
0.0
 11
304.8473905645997
 21
859.7001509188481
 31
0.0
  0
LINE
  5
4BE
330
1F
100
AcDbEntity
  8
0
 62
     7
370
    60
100
AcDbLine
 10
305.0001315645987
 20
584.6502849188482
 30
0.0
 11
305.0001315645987
 21
859.7001509188481
 31
0.0
  0
LINE
  5
4BF
330
1F
100
AcDbEntity
  8
0
 62
     7
370
    60
100
AcDbLine
 10
305.1225445645997
 20
584.7173019188481
 30
0.0
 11
305.1225445645997
 21
859.7001509188481
 31
0.0
  0
LINE
  5
4C0
330
1F
100
AcDbEntity
  8
0
 62
     7
370
    60
100
AcDbLine
 10
305.2144945645997
 20
584.7676559188485
 30
0.0
 11
305.2144945645997
 21
859.7001509188481
 31
0.0
  0
LINE
  5
4C1
330
1F
100
AcDbEntity
  8
0
 62
     7
370
    60
100
AcDbLine
 10
305.2758495645987
 20
584.8012859188484
 30
0.0
 11
305.2758495645987
 21
859.7001509188481
 31
0.0
  0
LINE
  5
4C2
330
1F
100
AcDbEntity
  8
0
 62
     7
370
    60
100
AcDbLine
 10
298.4033375645997
 20
581.0368209188482
 30
0.0
 11
298.4033375645997
 21
859.7001509188481
 31
0.0
  0
LINE
  5
4C3
330
1F
100
AcDbEntity
  8
0
 62
     7
370
    60
100
AcDbLine
 10
261.8176585645997
 20
483.7001199188485
 30
0.0
 11
261.8176585645997
 21
555.5239119188482
 31
0.0
  0
LINE
  5
4C4
330
1F
100
AcDbEntity
  8
0
 62
     7
370
    60
100
AcDbLine
 10
261.8176585645997
 20
819.7001509188481
 30
0.0
 11
261.8176585645997
 21
859.7001509188481
 31
0.0
  0
LINE
  5
4C5
330
1F
100
AcDbEntity
  8
0
 62
     7
370
    60
100
AcDbLine
 10
293.8352905645997
 20
859.7001509188481
 30
0.0
 11
294.5645085645997
 21
859.7001509188481
 31
0.0
  0
LINE
  5
4C6
330
1F
100
AcDbEntity
  8
0
 62
     7
370
    60
100
AcDbLine
 10
275.4703845645997
 20
859.7001509188481
 30
0.0
 11
280.1103835645997
 21
859.7001509188481
 31
0.0
  0
LINE
  5
4C7
330
1F
100
AcDbEntity
  8
0
 62
     7
370
    60
100
AcDbLine
 10
269.5449235645997
 20
859.7001509188481
 30
0.0
 11
270.2639555645987
 21
859.7001509188481
 31
0.0
  0
LINE
  5
4C8
330
1F
100
AcDbEntity
  8
0
 62
     7
370
    60
100
AcDbLine
 10
265.0650035645997
 20
859.7001509188481
 30
0.0
 11
265.6562595645997
 21
859.7001509188481
 31
0.0
  0
LINE
  5
4C9
330
1F
100
AcDbEntity
  8
0
 62
     7
370
    60
100
AcDbLine
 10
261.8457735645987
 20
859.7001509188481
 30
0.0
 11
263.1676495645997
 21
859.7001509188481
 31
0.0
  0
LINE
  5
4CA
330
1F
100
AcDbEntity
  8
0
 62
     7
370
    60
100
AcDbLine
 10
263.1676495645997
 20
859.7001509188481
 30
0.0
 11
263.5776915645997
 21
859.7001509188481
 31
0.0
  0
LINE
  5
4CB
330
1F
100
AcDbEntity
  8
0
 62
     7
370
    60
100
AcDbLine
 10
263.5776915645997
 20
859.7001509188481
 30
0.0
 11
263.7089095645997
 21
859.7001509188481
 31
0.0
  0
LINE
  5
4CC
330
1F
100
AcDbEntity
  8
0
 62
     7
370
    60
100
AcDbLine
 10
263.7089095645997
 20
859.7001509188481
 30
0.0
 11
264.2515045645997
 21
859.7001509188481
 31
0.0
  0
LINE
  5
4CD
330
1F
100
AcDbEntity
  8
0
 62
     7
370
    60
100
AcDbLine
 10
264.2515045645997
 20
859.7001509188481
 30
0.0
 11
264.9446425645997
 21
859.7001509188481
 31
0.0
  0
LINE
  5
4CE
330
1F
100
AcDbEntity
  8
0
 62
     7
370
    60
100
AcDbLine
 10
264.9446425645997
 20
859.7001509188481
 30
0.0
 11
265.0650035645997
 21
859.7001509188481
 31
0.0
  0
LINE
  5
4CF
330
1F
100
AcDbEntity
  8
0
 62
     7
370
    60
100
AcDbLine
 10
261.8176585645997
 20
859.7001509188481
 30
0.0
 11
261.8457735645987
 21
859.7001509188481
 31
0.0
  0
LINE
  5
4D0
330
1F
100
AcDbEntity
  8
0
 62
     7
370
    60
100
AcDbLine
 10
269.4604045645997
 20
859.7001509188481
 30
0.0
 11
269.5449235645997
 21
859.7001509188481
 31
0.0
  0
LINE
  5
4D1
330
1F
100
AcDbEntity
  8
0
 62
     7
370
    60
100
AcDbLine
 10
268.6698245645997
 20
859.7001509188481
 30
0.0
 11
269.4604045645997
 21
859.7001509188481
 31
0.0
  0
LINE
  5
4D2
330
1F
100
AcDbEntity
  8
0
 62
     7
370
    60
100
AcDbLine
 10
267.9901445645987
 20
859.7001509188481
 30
0.0
 11
268.6698245645997
 21
859.7001509188481
 31
0.0
  0
LINE
  5
4D3
330
1F
100
AcDbEntity
  8
0
 62
     7
370
    60
100
AcDbLine
 10
267.8931825645997
 20
859.7001509188481
 30
0.0
 11
267.9901445645987
 21
859.7001509188481
 31
0.0
  0
LINE
  5
4D4
330
1F
100
AcDbEntity
  8
0
 62
     7
370
    60
100
AcDbLine
 10
267.5103855645997
 20
859.7001509188481
 30
0.0
 11
267.8931825645997
 21
859.7001509188481
 31
0.0
  0
LINE
  5
4D5
330
1F
100
AcDbEntity
  8
0
 62
     7
370
    60
100
AcDbLine
 10
265.6562595645997
 20
859.7001509188481
 30
0.0
 11
266.3854765645997
 21
859.7001509188481
 31
0.0
  0
LINE
  5
4D6
330
1F
100
AcDbEntity
  8
0
 62
     7
370
    60
100
AcDbLine
 10
266.3854765645997
 20
859.7001509188481
 30
0.0
 11
266.4944095645997
 21
859.7001509188481
 31
0.0
  0
LINE
  5
4D7
330
1F
100
AcDbEntity
  8
0
 62
     7
370
    60
100
AcDbLine
 10
266.4944095645997
 20
859.7001509188481
 30
0.0
 11
267.1314255645997
 21
859.7001509188481
 31
0.0
  0
LINE
  5
4D8
330
1F
100
AcDbEntity
  8
0
 62
     7
370
    60
100
AcDbLine
 10
267.1314255645997
 20
859.7001509188481
 30
0.0
 11
267.5103855645997
 21
859.7001509188481
 31
0.0
  0
LINE
  5
4D9
330
1F
100
AcDbEntity
  8
0
 62
     7
370
    60
100
AcDbLine
 10
272.4266375645997
 20
859.7001509188481
 30
0.0
 11
275.0703825645987
 21
859.7001509188481
 31
0.0
  0
LINE
  5
4DA
330
1F
100
AcDbEntity
  8
0
 62
     7
370
    60
100
AcDbLine
 10
271.9060685645987
 20
859.7001509188481
 30
0.0
 11
272.4266375645997
 21
859.7001509188481
 31
0.0
  0
LINE
  5
4DB
330
1F
100
AcDbEntity
  8
0
 62
     7
370
    60
100
AcDbLine
 10
271.1511855645997
 20
859.7001509188481
 30
0.0
 11
271.9060685645987
 21
859.7001509188481
 31
0.0
  0
LINE
  5
4DC
330
1F
100
AcDbEntity
  8
0
 62
     7
370
    60
100
AcDbLine
 10
271.0795075645997
 20
859.7001509188481
 30
0.0
 11
271.1511855645997
 21
859.7001509188481
 31
0.0
  0
LINE
  5
4DD
330
1F
100
AcDbEntity
  8
0
 62
     7
370
    60
100
AcDbLine
 10
270.2639555645987
 20
859.7001509188481
 30
0.0
 11
271.0795075645997
 21
859.7001509188481
 31
0.0
  0
LINE
  5
4DE
330
1F
100
AcDbEntity
  8
0
 62
     7
370
    60
100
AcDbLine
 10
275.0703825645987
 20
859.7001509188481
 30
0.0
 11
275.4703845645997
 21
859.7001509188481
 31
0.0
  0
LINE
  5
4DF
330
1F
100
AcDbEntity
  8
0
 62
     7
370
    60
100
AcDbLine
 10
285.1503845645997
 20
859.7001509188481
 30
0.0
 11
287.7941295645987
 21
859.7001509188481
 31
0.0
  0
LINE
  5
4E0
330
1F
100
AcDbEntity
  8
0
 62
     7
370
    60
100
AcDbLine
 10
280.1103835645997
 20
859.7001509188481
 30
0.0
 11
284.7503825645997
 21
859.7001509188481
 31
0.0
  0
LINE
  5
4E1
330
1F
100
AcDbEntity
  8
0
 62
     7
370
    60
100
AcDbLine
 10
284.7503825645997
 20
859.7001509188481
 30
0.0
 11
285.1503845645997
 21
859.7001509188481
 31
0.0
  0
LINE
  5
4E2
330
1F
100
AcDbEntity
  8
0
 62
     7
370
    60
100
AcDbLine
 10
289.9568115645988
 20
859.7001509188481
 30
0.0
 11
290.6758435645997
 21
859.7001509188481
 31
0.0
  0
LINE
  5
4E3
330
1F
100
AcDbEntity
  8
0
 62
     7
370
    60
100
AcDbLine
 10
287.7941295645987
 20
859.7001509188481
 30
0.0
 11
288.3146985645997
 21
859.7001509188481
 31
0.0
  0
LINE
  5
4E4
330
1F
100
AcDbEntity
  8
0
 62
     7
370
    60
100
AcDbLine
 10
288.3146985645997
 20
859.7001509188481
 30
0.0
 11
289.0695815645997
 21
859.7001509188481
 31
0.0
  0
LINE
  5
4E5
330
1F
100
AcDbEntity
  8
0
 62
     7
370
    60
100
AcDbLine
 10
289.0695815645997
 20
859.7001509188481
 30
0.0
 11
289.1412595645987
 21
859.7001509188481
 31
0.0
  0
LINE
  5
4E6
330
1F
100
AcDbEntity
  8
0
 62
     7
370
    60
100
AcDbLine
 10
289.1412595645987
 20
859.7001509188481
 30
0.0
 11
289.9568115645988
 21
859.7001509188481
 31
0.0
  0
LINE
  5
4E7
330
1F
100
AcDbEntity
  8
0
 62
     7
370
    60
100
AcDbLine
 10
293.7263585645987
 20
859.7001509188481
 30
0.0
 11
293.8352905645997
 21
859.7001509188481
 31
0.0
  0
LINE
  5
4E8
330
1F
100
AcDbEntity
  8
0
 62
     7
370
    60
100
AcDbLine
 10
293.0893415645987
 20
859.7001509188481
 30
0.0
 11
293.7263585645987
 21
859.7001509188481
 31
0.0
  0
LINE
  5
4E9
330
1F
100
AcDbEntity
  8
0
 62
     7
370
    60
100
AcDbLine
 10
292.7103825645997
 20
859.7001509188481
 30
0.0
 11
293.0893415645987
 21
859.7001509188481
 31
0.0
  0
LINE
  5
4EA
330
1F
100
AcDbEntity
  8
0
 62
     7
370
    60
100
AcDbLine
 10
290.6758435645997
 20
859.7001509188481
 30
0.0
 11
290.7603625645987
 21
859.7001509188481
 31
0.0
  0
LINE
  5
4EB
330
1F
100
AcDbEntity
  8
0
 62
     7
370
    60
100
AcDbLine
 10
290.7603625645987
 20
859.7001509188481
 30
0.0
 11
291.5509425645997
 21
859.7001509188481
 31
0.0
  0
LINE
  5
4EC
330
1F
100
AcDbEntity
  8
0
 62
     7
370
    60
100
AcDbLine
 10
291.5509425645997
 20
859.7001509188481
 30
0.0
 11
292.2306225645997
 21
859.7001509188481
 31
0.0
  0
LINE
  5
4ED
330
1F
100
AcDbEntity
  8
0
 62
     7
370
    60
100
AcDbLine
 10
292.2306225645997
 20
859.7001509188481
 30
0.0
 11
292.3275845645987
 21
859.7001509188481
 31
0.0
  0
LINE
  5
4EE
330
1F
100
AcDbEntity
  8
0
 62
     7
370
    60
100
AcDbLine
 10
292.3275845645987
 20
859.7001509188481
 30
0.0
 11
292.7103825645997
 21
859.7001509188481
 31
0.0
  0
LINE
  5
4EF
330
1F
100
AcDbEntity
  8
0
 62
     7
370
    60
100
AcDbLine
 10
301.8639925645997
 20
859.7001509188481
 30
0.0
 11
302.8685855645997
 21
859.7001509188481
 31
0.0
  0
LINE
  5
4F0
330
1F
100
AcDbEntity
  8
0
 62
     7
370
    60
100
AcDbLine
 10
297.0531175645997
 20
859.7001509188481
 30
0.0
 11
298.3749935645997
 21
859.7001509188481
 31
0.0
  0
LINE
  5
4F1
330
1F
100
AcDbEntity
  8
0
 62
     7
370
    60
100
AcDbLine
 10
296.6430755645997
 20
859.7001509188481
 30
0.0
 11
297.0531175645997
 21
859.7001509188481
 31
0.0
  0
LINE
  5
4F2
330
1F
100
AcDbEntity
  8
0
 62
     7
370
    60
100
AcDbLine
 10
296.5118575645997
 20
859.7001509188481
 30
0.0
 11
296.6430755645997
 21
859.7001509188481
 31
0.0
  0
LINE
  5
4F3
330
1F
100
AcDbEntity
  8
0
 62
     7
370
    60
100
AcDbLine
 10
295.9692625645997
 20
859.7001509188481
 30
0.0
 11
296.5118575645997
 21
859.7001509188481
 31
0.0
  0
LINE
  5
4F4
330
1F
100
AcDbEntity
  8
0
 62
     7
370
    60
100
AcDbLine
 10
295.2761245645997
 20
859.7001509188481
 30
0.0
 11
295.9692625645997
 21
859.7001509188481
 31
0.0
  0
LINE
  5
4F5
330
1F
100
AcDbEntity
  8
0
 62
     7
370
    60
100
AcDbLine
 10
295.1557635645997
 20
859.7001509188481
 30
0.0
 11
295.2761245645997
 21
859.7001509188481
 31
0.0
  0
LINE
  5
4F6
330
1F
100
AcDbEntity
  8
0
 62
     7
370
    60
100
AcDbLine
 10
294.5645085645997
 20
859.7001509188481
 30
0.0
 11
295.1557635645997
 21
859.7001509188481
 31
0.0
  0
LINE
  5
4F7
330
1F
100
AcDbEntity
  8
0
 62
     7
370
    60
100
AcDbLine
 10
298.3749935645997
 20
859.7001509188481
 30
0.0
 11
298.4033375645997
 21
859.7001509188481
 31
0.0
  0
LINE
  5
4F8
330
1F
100
AcDbEntity
  8
0
 62
     7
370
    60
100
AcDbLine
 10
298.4033375645997
 20
859.7001509188481
 30
0.0
 11
300.9319475645997
 21
859.7001509188481
 31
0.0
  0
LINE
  5
4F9
330
1F
100
AcDbEntity
  8
0
 62
     7
370
    60
100
AcDbLine
 10
300.9319475645997
 20
859.7001509188481
 30
0.0
 11
301.8639925645997
 21
859.7001509188481
 31
0.0
  0
LINE
  5
4FA
330
1F
100
AcDbEntity
  8
0
 62
     7
370
    60
100
AcDbLine
 10
302.8685855645997
 20
859.7001509188481
 30
0.0
 11
303.4149945645997
 21
859.7001509188481
 31
0.0
  0
LINE
  5
4FB
330
1F
100
AcDbEntity
  8
0
 62
     7
370
    60
100
AcDbLine
 10
305.3065505645988
 20
859.7001509188481
 30
0.0
 11
305.3103885645987
 21
859.7001509188481
 31
0.0
  0
LINE
  5
4FC
330
1F
100
AcDbEntity
  8
0
 62
     7
370
    60
100
AcDbLine
 10
303.4149945645997
 20
859.7001509188481
 30
0.0
 11
304.7368715645997
 21
859.7001509188481
 31
0.0
  0
LINE
  5
4FD
330
1F
100
AcDbEntity
  8
0
 62
     7
370
    60
100
AcDbLine
 10
304.7368715645997
 20
859.7001509188481
 30
0.0
 11
304.8473905645997
 21
859.7001509188481
 31
0.0
  0
LINE
  5
4FE
330
1F
100
AcDbEntity
  8
0
 62
     7
370
    60
100
AcDbLine
 10
304.8473905645997
 20
859.7001509188481
 30
0.0
 11
305.0001315645987
 21
859.7001509188481
 31
0.0
  0
LINE
  5
4FF
330
1F
100
AcDbEntity
  8
0
 62
     7
370
    60
100
AcDbLine
 10
305.0001315645987
 20
859.7001509188481
 30
0.0
 11
305.1225445645997
 21
859.7001509188481
 31
0.0
  0
LINE
  5
500
330
1F
100
AcDbEntity
  8
0
 62
     7
370
    60
100
AcDbLine
 10
305.1225445645997
 20
859.7001509188481
 30
0.0
 11
305.2144945645997
 21
859.7001509188481
 31
0.0
  0
LINE
  5
501
330
1F
100
AcDbEntity
  8
0
 62
     7
370
    60
100
AcDbLine
 10
305.2144945645997
 20
859.7001509188481
 30
0.0
 11
305.2758495645987
 21
859.7001509188481
 31
0.0
  0
LINE
  5
502
330
1F
100
AcDbEntity
  8
0
 62
     7
370
    60
100
AcDbLine
 10
305.2758495645987
 20
859.7001509188481
 30
0.0
 11
305.3065505645988
 21
859.7001509188481
 31
0.0
  0
DIMENSION
  5
5EF
330
1F
100
AcDbEntity
  8
0
370
    25
100
AcDbDimension
  2
*D36
 10
204.7961219168554
 20
139.7000969188484
 30
0.0
 11
192.7961219168554
 21
499.7001239188482
 31
0.0
 70
    32
  1
4600
 71
     5
 41
2.5
 42
720.0000539999996
  3
ISO-25
100
AcDbAlignedDimension
 13
257.0789770645997
 23
859.7001509188481
 33
0.0
 14
257.0789770645997
 24
139.7000969188484
 34
0.0
 50
90.0
100
AcDbRotatedDimension
1001
ACAD
1000
DSTYLE
1002
{
1070
    41
1040
10.0
1070
   140
1040
14.0
1070
   147
1040
5.0
1070
   176
1070
     7
1070
   177
1070
     7
1002
}
  0
DIMENSION
  5
632
330
1F
100
AcDbEntity
  8
0
370
    25
100
AcDbDimension
  2
*D17
 10
240.9906671717674
 20
267.0922409188483
 30
0.0
 11
228.9906671717674
 21
315.3961804188484
 31
0.0
 70
    32
  1
800
 71
     5
 41
2.5
 42
96.6078790000002
  3
ISO-25
100
AcDbAlignedDimension
 13
261.8176585645997
 23
363.7001199188485
 33
0.0
 14
257.9865452340325
 24
267.0922409188483
 34
0.0
 50
90.0
100
AcDbRotatedDimension
1001
ACAD
1000
DSTYLE
1002
{
1070
    41
1040
10.0
1070
   140
1040
14.0
1070
   147
1040
5.0
1070
   176
1070
     7
1070
   177
1070
     7
1002
}
  0
DIMENSION
  5
680
330
1F
100
AcDbEntity
  8
0
370
    25
100
AcDbDimension
  2
*D37
 10
240.9906671718529
 20
139.7000969190428
 30
0.0
 11
228.9906671718529
 21
203.3961689190427
 31
0.0
 70
    32
  1
600
 71
     5
 41
2.5
 42
127.3921439999999
  3
ISO-25
100
AcDbAlignedDimension
 13
254.8941604985334
 23
267.0922409190427
 33
0.0
 14
257.2400694985335
 24
139.7000969190428
 34
0.0
 50
90.0
100
AcDbRotatedDimension
1001
ACAD
1000
DSTYLE
1002
{
1070
    41
1040
10.0
1070
   140
1040
14.0
1070
   147
1040
5.0
1070
   176
1070
     7
1070
   177
1070
     7
1002
}
  0
DIMENSION
  5
731
330
1F
100
AcDbEntity
  8
0
370
    25
100
AcDbDimension
  2
*D38
 10
332.5189760466357
 20
139.7000969188484
 30
0.0
 11
320.5189760466357
 21
175.7001009188484
 31
0.0
 70
    32
  1
410
 71
     5
 41
2.5
 42
72.00000800000001
  3
ISO-25
100
AcDbAlignedDimension
 13
301.8639925645997
 23
211.7001049188484
 33
0.0
 14
300.9319475645997
 24
139.7000969188484
 34
0.0
 50
90.0
100
AcDbRotatedDimension
1001
ACAD
1000
DSTYLE
1002
{
1070
    41
1040
10.0
1070
   140
1040
14.0
1070
   147
1040
5.0
1070
   176
1070
     7
1070
   177
1070
     7
1002
}
  0
VIEWPORT
  5
BB
330
73
100
AcDbEntity
 67
     1
  8
0
100
AcDbViewport
 10
7.8
 20
4.5
 30
0.0
 40
15.64
 41
9.0
 68
     1
 69
     1
 12
6.0
 22
4.5
 13
0.0
 23
0.0
 14
0.5
 24
0.5
 15
0.5
 25
0.5
 16
0.0
 26
0.0
 36
1.0
 17
0.0
 27
0.0
 37
0.0
 42
50.0
 43
0.0
 44
0.0
 45
12.0
 50
0.0
 51
0.0
 72
   100
 90
   557152
  1

281
     0
 71
     1
 74
     0
110
0.0
120
0.0
130
0.0
111
1.0
121
0.0
131
0.0
112
0.0
122
1.0
132
0.0
 79
     0
146
0.0
  0
ENDSEC
  0
SECTION
  2
OBJECTS
  0
DICTIONARY
  5
C
330
0
100
AcDbDictionary
281
     1
  3
ACAD_COLOR
350
6C
  3
ACAD_GROUP
350
D
  3
ACAD_LAYOUT
350
1A
  3
ACAD_MATERIAL
350
6B
  3
ACAD_MLEADERSTYLE
350
7B7
  3
ACAD_MLINESTYLE
350
17
  3
ACAD_PLOTSETTINGS
350
19
  3
ACAD_PLOTSTYLENAME
350
E
  3
ACAD_SCALELIST
350
99
  3
ACAD_TABLESTYLE
350
92
  3
ACDBHEADERROUNDTRIPXREC
350
88A
  3
AcDbVariableDictionary
350
59
  3
DWGPROPS
350
88D
  0
DICTIONARY
  5
6C
102
{ACAD_REACTORS
330
C
102
}
330
C
100
AcDbDictionary
281
     1
  0
DICTIONARY
  5
D
102
{ACAD_REACTORS
330
C
102
}
330
C
100
AcDbDictionary
281
     1
  0
DICTIONARY
  5
1A
102
{ACAD_REACTORS
330
C
102
}
330
C
100
AcDbDictionary
281
     1
  3
Layout1
350
74
  3
Layout2
350
76D
  3
Model
350
22
  0
DICTIONARY
  5
6B
102
{ACAD_REACTORS
330
C
102
}
330
C
100
AcDbDictionary
281
     1
  0
DICTIONARY
  5
7B7
102
{ACAD_REACTORS
330
C
102
}
330
C
100
AcDbDictionary
281
     1
  0
DICTIONARY
  5
17
102
{ACAD_REACTORS
330
C
102
}
330
C
100
AcDbDictionary
281
     1
  3
Standard
350
18
  0
DICTIONARY
  5
19
102
{ACAD_REACTORS
330
C
102
}
330
C
100
AcDbDictionary
281
     1
  0
ACDBDICTIONARYWDFLT
  5
E
102
{ACAD_REACTORS
330
C
102
}
330
C
100
AcDbDictionary
281
     1
  3
Normal
350
F
100
AcDbDictionaryWithDefault
340
F
  0
DICTIONARY
  5
99
102
{ACAD_REACTORS
330
C
102
}
330
C
100
AcDbDictionary
281
     1
  3
A0
350
D5
  3
A1
350
D6
  3
A2
350
D7
  3
A3
350
D8
  3
A4
350
D9
  3
A5
350
DA
  3
A6
350
DB
  3
A7
350
DC
  3
A8
350
DD
  3
A9
350
DE
  3
B0
350
DF
  3
B1
350
E0
  3
B2
350
E1
  3
B3
350
E2
  3
B4
350
E3
  3
B5
350
E4
  3
B6
350
E5
  3
B7
350
E6
  3
B8
350
E7
  3
B9
350
E8
  3
C0
350
E9
  3
C1
350
EA
  3
C2
350
EB
  3
C3
350
EC
  3
C4
350
ED
  3
C5
350
EE
  3
C6
350
EF
  3
C7
350
F0
  3
C8
350
F1
  3
C9
350
F2
  3
D0
350
F3
  3
D1
350
F4
  3
D2
350
F5
  0
DICTIONARY
  5
92
102
{ACAD_REACTORS
330
C
102
}
330
C
100
AcDbDictionary
281
     1
  0
DICTIONARY
  5
88A
102
{ACAD_REACTORS
330
C
102
}
330
C
100
AcDbDictionary
281
     1
  3
COLORDICT
350
88B
  3
MATERIALDICT
350
88C
  0
DICTIONARY
  5
59
102
{ACAD_REACTORS
330
C
102
}
330
C
100
AcDbDictionary
281
     1
  3
CTABLESTYLE
350
98
  3
DIMASSOC
350
5A
  3
HIDETEXT
350
5E
  0
XRECORD
  5
88D
102
{ACAD_REACTORS
330
C
102
}
330
C
100
AcDbXrecord
280
     1
  1
DWGPROPS COOKIE
  2

  3

  4

  6

  7

  8
BelottiMc
  9

300
=
301
=
302
=
303
=
304
=
305
=
306
=
307
=
308
=
309
=
 40
0.0
 41
2455090.535105914
 42
2455090.576772558
  1

 90
        0
  0
LAYOUT
  5
74
102
{ACAD_REACTORS
330
1A
102
}
330
1A
100
AcDbPlotSettings
  1

  2
ProgeSOFT PDF Wizard
  4
A4
  6

 40
5.926666666666667
 41
6.011333333333317
 42
6.095999999999985
 43
5.926666666666667
 44
210.0
 45
297.0
 46
88.56200000000001
 47
136.531
 48
0.0
 49
0.0
140
0.0
141
0.0
142
1.0
143
1.0
 70
   692
 72
     1
 73
     0
 74
     0
  7

 75
    16
147
1.0
148
4.426666666666668
149
1.5
100
AcDbLayout
  1
Layout1
 70
     1
 71
     1
 10
0.0
 20
0.0
 11
0.0
 21
0.0
 12
0.0
 22
0.0
 32
0.0
 14
0.0
 24
0.0
 34
0.0
 15
0.0
 25
0.0
 35
0.0
146
0.0
 13
0.0
 23
0.0
 33
0.0
 16
1.0
 26
0.0
 36
0.0
 17
0.0
 27
1.0
 37
0.0
 76
     0
330
D1
331
7B6
1001
PROGE_PRINT_SETTINGS
1070
    73
1070
     1
  0
LAYOUT
  5
76D
102
{ACAD_REACTORS
330
1A
102
}
330
1A
100
AcDbPlotSettings
  1

  2
ProgeSOFT PDF Wizard
  4
A4
  6

 40
5.926666666666667
 41
6.011333333333317
 42
6.095999999999985
 43
5.926666666666667
 44
210.0
 45
297.0
 46
88.562
 47
136.531
 48
0.0
 49
0.0
140
0.0
141
0.0
142
1.0
143
1.0
 70
   692
 72
     1
 73
     0
 74
     0
  7

 75
    16
147
1.0
148
0.0
149
0.0
100
AcDbLayout
  1
Layout2
 70
     1
 71
     2
 10
0.0
 20
0.0
 11
12.0
 21
9.0
 12
0.0
 22
0.0
 32
0.0
 14
0.0
 24
0.0
 34
0.0
 15
12.0
 25
9.0
 35
0.0
146
0.0
 13
0.0
 23
0.0
 33
0.0
 16
1.0
 26
0.0
 36
0.0
 17
0.0
 27
1.0
 37
0.0
 76
     0
330
73
331
BB
1001
PROGE_PRINT_SETTINGS
1070
    73
1070
     1
  0
LAYOUT
  5
22
102
{ACAD_REACTORS
330
1A
102
}
330
1A
100
AcDbPlotSettings
  1

  2
none_device
  4
Letter_(8.50_x_11.00_Inches)
  6

 40
6.35
 41
6.35
 42
6.35000508
 43
6.35000508
 44
215.9
 45
279.4
 46
0.0
 47
0.0
 48
0.0
 49
0.0
140
0.0
141
0.0
142
1.0
143
13.7653150552029
 70
 11952
 72
     1
 73
     0
 74
     0
  7

 75
     0
147
0.0726463576016757
148
0.1311165230791651
149
0.096403374003771
100
AcDbLayout
  1
Model
 70
     1
 71
     0
 10
0.0
 20
0.0
 11
0.0
 21
0.0
 12
0.0
 22
0.0
 32
0.0
 14
182.6432055645997
 24
69.8948497854077
 34
0.0
 15
403.6305405645987
 25
859.7001509188481
 35
0.0
146
0.0
 13
0.0
 23
0.0
 33
0.0
 16
1.0
 26
0.0
 36
0.0
 17
0.0
 27
1.0
 37
0.0
 76
     0
330
1F
331
97
  0
MLINESTYLE
  5
18
102
{ACAD_REACTORS
330
17
102
}
330
17
100
AcDbMlineStyle
  2
STANDARD
 70
     0
  3

 62
   256
 51
90.0
 52
90.0
 71
     2
 49
0.5
 62
   256
  6
BYLAYER
 49
-0.5
 62
   256
  6
BYLAYER
  0
ACDBPLACEHOLDER
  5
F
102
{ACAD_REACTORS
330
E
102
}
330
E
  0
SCALE
  5
D5
102
{ACAD_REACTORS
330
99
102
}
330
99
100
AcDbScale
 70
     0
300
1:1
140
1.0
141
1.0
290
     1
  0
SCALE
  5
D6
102
{ACAD_REACTORS
330
99
102
}
330
99
100
AcDbScale
 70
     0
300
1:2
140
1.0
141
2.0
290
     0
  0
SCALE
  5
D7
102
{ACAD_REACTORS
330
99
102
}
330
99
100
AcDbScale
 70
     0
300
1:4
140
1.0
141
4.0
290
     0
  0
SCALE
  5
D8
102
{ACAD_REACTORS
330
99
102
}
330
99
100
AcDbScale
 70
     0
300
1:5
140
1.0
141
5.0
290
     0
  0
SCALE
  5
D9
102
{ACAD_REACTORS
330
99
102
}
330
99
100
AcDbScale
 70
     0
300
1:8
140
1.0
141
8.0
290
     0
  0
SCALE
  5
DA
102
{ACAD_REACTORS
330
99
102
}
330
99
100
AcDbScale
 70
     0
300
1:10
140
1.0
141
10.0
290
     0
  0
SCALE
  5
DB
102
{ACAD_REACTORS
330
99
102
}
330
99
100
AcDbScale
 70
     0
300
1:16
140
1.0
141
16.0
290
     0
  0
SCALE
  5
DC
102
{ACAD_REACTORS
330
99
102
}
330
99
100
AcDbScale
 70
     0
300
1:20
140
1.0
141
20.0
290
     0
  0
SCALE
  5
DD
102
{ACAD_REACTORS
330
99
102
}
330
99
100
AcDbScale
 70
     0
300
1:30
140
1.0
141
30.0
290
     0
  0
SCALE
  5
DE
102
{ACAD_REACTORS
330
99
102
}
330
99
100
AcDbScale
 70
     0
300
1:40
140
1.0
141
40.0
290
     0
  0
SCALE
  5
DF
102
{ACAD_REACTORS
330
99
102
}
330
99
100
AcDbScale
 70
     0
300
1:50
140
1.0
141
50.0
290
     0
  0
SCALE
  5
E0
102
{ACAD_REACTORS
330
99
102
}
330
99
100
AcDbScale
 70
     0
300
1:100
140
1.0
141
100.0
290
     0
  0
SCALE
  5
E1
102
{ACAD_REACTORS
330
99
102
}
330
99
100
AcDbScale
 70
     0
300
2:1
140
2.0
141
1.0
290
     0
  0
SCALE
  5
E2
102
{ACAD_REACTORS
330
99
102
}
330
99
100
AcDbScale
 70
     0
300
4:1
140
4.0
141
1.0
290
     0
  0
SCALE
  5
E3
102
{ACAD_REACTORS
330
99
102
}
330
99
100
AcDbScale
 70
     0
300
8:1
140
8.0
141
1.0
290
     0
  0
SCALE
  5
E4
102
{ACAD_REACTORS
330
99
102
}
330
99
100
AcDbScale
 70
     0
300
10:1
140
10.0
141
1.0
290
     0
  0
SCALE
  5
E5
102
{ACAD_REACTORS
330
99
102
}
330
99
100
AcDbScale
 70
     0
300
100:1
140
100.0
141
1.0
290
     0
  0
SCALE
  5
E6
102
{ACAD_REACTORS
330
99
102
}
330
99
100
AcDbScale
 70
     0
300
1/128" = 1'-0"
140
0.0078125
141
12.0
290
     0
  0
SCALE
  5
E7
102
{ACAD_REACTORS
330
99
102
}
330
99
100
AcDbScale
 70
     0
300
1/64" = 1'-0"
140
0.015625
141
12.0
290
     0
  0
SCALE
  5
E8
102
{ACAD_REACTORS
330
99
102
}
330
99
100
AcDbScale
 70
     0
300
1/32" = 1'-0"
140
0.03125
141
12.0
290
     0
  0
SCALE
  5
E9
102
{ACAD_REACTORS
330
99
102
}
330
99
100
AcDbScale
 70
     0
300
1/16" = 1'-0"
140
0.0625
141
12.0
290
     0
  0
SCALE
  5
EA
102
{ACAD_REACTORS
330
99
102
}
330
99
100
AcDbScale
 70
     0
300
3/32" = 1'-0"
140
0.09375
141
12.0
290
     0
  0
SCALE
  5
EB
102
{ACAD_REACTORS
330
99
102
}
330
99
100
AcDbScale
 70
     0
300
1/8" = 1'-0"
140
0.125
141
12.0
290
     0
  0
SCALE
  5
EC
102
{ACAD_REACTORS
330
99
102
}
330
99
100
AcDbScale
 70
     0
300
3/16" = 1'-0"
140
0.1875
141
12.0
290
     0
  0
SCALE
  5
ED
102
{ACAD_REACTORS
330
99
102
}
330
99
100
AcDbScale
 70
     0
300
1/4" = 1'-0"
140
0.25
141
12.0
290
     0
  0
SCALE
  5
EE
102
{ACAD_REACTORS
330
99
102
}
330
99
100
AcDbScale
 70
     0
300
3/8" = 1'-0"
140
0.375
141
12.0
290
     0
  0
SCALE
  5
EF
102
{ACAD_REACTORS
330
99
102
}
330
99
100
AcDbScale
 70
     0
300
1/2" = 1'-0"
140
0.5
141
12.0
290
     0
  0
SCALE
  5
F0
102
{ACAD_REACTORS
330
99
102
}
330
99
100
AcDbScale
 70
     0
300
3/4" = 1'-0"
140
0.75
141
12.0
290
     0
  0
SCALE
  5
F1
102
{ACAD_REACTORS
330
99
102
}
330
99
100
AcDbScale
 70
     0
300
1" = 1'-0"
140
1.0
141
12.0
290
     0
  0
SCALE
  5
F2
102
{ACAD_REACTORS
330
99
102
}
330
99
100
AcDbScale
 70
     0
300
1-1/2" = 1'-0"
140
1.5
141
12.0
290
     0
  0
SCALE
  5
F3
102
{ACAD_REACTORS
330
99
102
}
330
99
100
AcDbScale
 70
     0
300
3" = 1'-0"
140
3.0
141
12.0
290
     0
  0
SCALE
  5
F4
102
{ACAD_REACTORS
330
99
102
}
330
99
100
AcDbScale
 70
     0
300
6" = 1'-0"
140
6.0
141
12.0
290
     0
  0
SCALE
  5
F5
102
{ACAD_REACTORS
330
99
102
}
330
99
100
AcDbScale
 70
     0
300
1'-0" = 1'-0"
140
12.0
141
12.0
290
     0
  0
XRECORD
  5
88B
102
{ACAD_REACTORS
330
88A
102
}
330
88A
100
AcDbXrecord
280
     1
340
6C
  0
XRECORD
  5
88C
102
{ACAD_REACTORS
330
88A
102
}
330
88A
100
AcDbXrecord
280
     1
340
6B
  0
DICTIONARYVAR
  5
98
102
{ACAD_REACTORS
330
59
102
}
330
59
100
DictionaryVariables
280
     0
  1
Standard
  0
DICTIONARYVAR
  5
5A
102
{ACAD_REACTORS
330
59
102
}
330
59
100
DictionaryVariables
280
     0
  1
2
  0
DICTIONARYVAR
  5
5E
102
{ACAD_REACTORS
330
59
102
}
330
59
100
DictionaryVariables
280
     0
  1
1
  0
ENDSEC
  0
EOF
