  0
SECTION
  2
HEADER
  9
$ACADVER
  1
AC1015
  9
$ACADMAINTVER
 70
    20
  9
$DWGCODEPAGE
  3
ANSI_1252
  9
$INSBASE
 10
0.0
 20
0.0
 30
0.0
  9
$EXTMIN
 10
-74.37390951686253
 20
-71.0934305845161
 30
-0.0000000000000004
  9
$EXTMAX
 10
121.9190824583707
 20
330.6700576967334
 30
0.0
  9
$LIMMIN
 10
0.0
 20
0.0
  9
$LIMMAX
 10
12.0
 20
9.0
  9
$ORTHOMODE
 70
     0
  9
$REGENMODE
 70
     1
  9
$FILLMODE
 70
     0
  9
$QTEXTMODE
 70
     0
  9
$MIRRTEXT
 70
     0
  9
$LTSCALE
 40
1.0
  9
$ATTMODE
 70
     1
  9
$TEXTSIZE
 40
0.2
  9
$TRACEWID
 40
0.05
  9
$TEXTSTYLE
  7
Standard
  9
$CLAYER
  8
0
  9
$CELTYPE
  6
Continuous
  9
$CECOLOR
 62
   256
  9
$CELTSCALE
 40
1.0
  9
$DISPSILH
 70
     0
  9
$DIMSCALE
 40
1.0
  9
$DIMASZ
 40
0.18
  9
$DIMEXO
 40
0.0625
  9
$DIMDLI
 40
0.38
  9
$DIMRND
 40
0.0
  9
$DIMDLE
 40
0.0
  9
$DIMEXE
 40
0.18
  9
$DIMTP
 40
0.0
  9
$DIMTM
 40
0.0
  9
$DIMTXT
 40
0.18
  9
$DIMCEN
 40
0.09
  9
$DIMTSZ
 40
0.0
  9
$DIMTOL
 70
     0
  9
$DIMLIM
 70
     0
  9
$DIMTIH
 70
     1
  9
$DIMTOH
 70
     1
  9
$DIMSE1
 70
     0
  9
$DIMSE2
 70
     0
  9
$DIMTAD
 70
     0
  9
$DIMZIN
 70
     0
  9
$DIMBLK
  1

  9
$DIMASO
 70
     1
  9
$DIMSHO
 70
     1
  9
$DIMPOST
  1

  9
$DIMAPOST
  1

  9
$DIMALT
 70
     0
  9
$DIMALTD
 70
     2
  9
$DIMALTF
 40
25.4
  9
$DIMLFAC
 40
1.0
  9
$DIMTOFL
 70
     0
  9
$DIMTVP
 40
0.0
  9
$DIMTIX
 70
     0
  9
$DIMSOXD
 70
     0
  9
$DIMSAH
 70
     0
  9
$DIMBLK1
  1

  9
$DIMBLK2
  1

  9
$DIMSTYLE
  2
Standard
  9
$DIMCLRD
 70
     0
  9
$DIMCLRE
 70
     0
  9
$DIMCLRT
 70
     0
  9
$DIMTFAC
 40
1.0
  9
$DIMGAP
 40
0.09
  9
$DIMJUST
 70
     0
  9
$DIMSD1
 70
     0
  9
$DIMSD2
 70
     0
  9
$DIMTOLJ
 70
     1
  9
$DIMTZIN
 70
     0
  9
$DIMALTZ
 70
     0
  9
$DIMALTTZ
 70
     0
  9
$DIMUPT
 70
     0
  9
$DIMDEC
 70
     4
  9
$DIMTDEC
 70
     4
  9
$DIMALTU
 70
     2
  9
$DIMALTTD
 70
     2
  9
$DIMTXSTY
  7
Standard
  9
$DIMAUNIT
 70
     0
  9
$DIMADEC
 70
     0
  9
$DIMALTRND
 40
0.0
  9
$DIMAZIN
 70
     0
  9
$DIMDSEP
 70
    46
  9
$DIMATFIT
 70
     3
  9
$DIMFRAC
 70
     0
  9
$DIMLDRBLK
  1

  9
$DIMLUNIT
 70
     2
  9
$DIMLWD
 70
    -2
  9
$DIMLWE
 70
    -2
  9
$DIMTMOVE
 70
     0
  9
$LUNITS
 70
     2
  9
$LUPREC
 70
     4
  9
$SKETCHINC
 40
0.1
  9
$FILLETRAD
 40
0.0
  9
$AUNITS
 70
     0
  9
$AUPREC
 70
     0
  9
$MENU
  1
.
  9
$ELEVATION
 40
0.0
  9
$PELEVATION
 40
0.0
  9
$THICKNESS
 40
0.0
  9
$LIMCHECK
 70
     0
  9
$CHAMFERA
 40
0.0
  9
$CHAMFERB
 40
0.0
  9
$CHAMFERC
 40
0.0
  9
$CHAMFERD
 40
0.0
  9
$SKPOLY
 70
     0
  9
$TDCREATE
 40
2456535.663373172
  9
$TDUCREATE
 40
2456535.621706505
  9
$TDUPDATE
 40
2456617.667074757
  9
$TDUUPDATE
 40
2456617.625408090
  9
$TDINDWG
 40
0.0019269444
  9
$TDUSRTIMER
 40
0.0019267708
  9
$USRTIMER
 70
     1
  9
$ANGBASE
 50
0.0
  9
$ANGDIR
 70
     0
  9
$PDMODE
 70
     0
  9
$PDSIZE
 40
0.0
  9
$PLINEWID
 40
0.0
  9
$SPLFRAME
 70
     1
  9
$SPLINETYPE
 70
     6
  9
$SPLINESEGS
 70
     8
  9
$HANDSEED
  5
FF2
  9
$SURFTAB1
 70
     6
  9
$SURFTAB2
 70
     6
  9
$SURFTYPE
 70
     6
  9
$SURFU
 70
     6
  9
$SURFV
 70
     6
  9
$UCSBASE
  2

  9
$UCSNAME
  2

  9
$UCSORG
 10
0.0
 20
0.0
 30
0.0
  9
$UCSXDIR
 10
1.0
 20
0.0
 30
0.0
  9
$UCSYDIR
 10
0.0
 20
1.0
 30
0.0
  9
$UCSORTHOREF
  2

  9
$UCSORTHOVIEW
 70
     0
  9
$UCSORGTOP
 10
0.0
 20
0.0
 30
0.0
  9
$UCSORGBOTTOM
 10
0.0
 20
0.0
 30
0.0
  9
$UCSORGLEFT
 10
0.0
 20
0.0
 30
0.0
  9
$UCSORGRIGHT
 10
0.0
 20
0.0
 30
0.0
  9
$UCSORGFRONT
 10
0.0
 20
0.0
 30
0.0
  9
$UCSORGBACK
 10
0.0
 20
0.0
 30
0.0
  9
$PUCSBASE
  2

  9
$PUCSNAME
  2

  9
$PUCSORG
 10
0.0
 20
0.0
 30
0.0
  9
$PUCSXDIR
 10
1.0
 20
0.0
 30
0.0
  9
$PUCSYDIR
 10
0.0
 20
1.0
 30
0.0
  9
$PUCSORTHOREF
  2

  9
$PUCSORTHOVIEW
 70
     0
  9
$PUCSORGTOP
 10
0.0
 20
0.0
 30
0.0
  9
$PUCSORGBOTTOM
 10
0.0
 20
0.0
 30
0.0
  9
$PUCSORGLEFT
 10
0.0
 20
0.0
 30
0.0
  9
$PUCSORGRIGHT
 10
0.0
 20
0.0
 30
0.0
  9
$PUCSORGFRONT
 10
0.0
 20
0.0
 30
0.0
  9
$PUCSORGBACK
 10
0.0
 20
0.0
 30
0.0
  9
$USERI1
 70
     0
  9
$USERI2
 70
     0
  9
$USERI3
 70
     0
  9
$USERI4
 70
     0
  9
$USERI5
 70
     0
  9
$USERR1
 40
0.0
  9
$USERR2
 40
0.0
  9
$USERR3
 40
0.0
  9
$USERR4
 40
0.0
  9
$USERR5
 40
0.0
  9
$WORLDVIEW
 70
     1
  9
$SHADEDGE
 70
     3
  9
$SHADEDIF
 70
    70
  9
$TILEMODE
 70
     1
  9
$MAXACTVP
 70
    64
  9
$PINSBASE
 10
0.0
 20
0.0
 30
0.0
  9
$PLIMCHECK
 70
     0
  9
$PEXTMIN
 10
1.000000000000000E+20
 20
1.000000000000000E+20
 30
1.000000000000000E+20
  9
$PEXTMAX
 10
-1.000000000000000E+20
 20
-1.000000000000000E+20
 30
-1.000000000000000E+20
  9
$PLIMMIN
 10
0.0
 20
0.0
  9
$PLIMMAX
 10
12.0
 20
9.0
  9
$UNITMODE
 70
     0
  9
$VISRETAIN
 70
     1
  9
$PLINEGEN
 70
     0
  9
$PSLTSCALE
 70
     1
  9
$TREEDEPTH
 70
  3020
  9
$CMLSTYLE
  2
Standard
  9
$CMLJUST
 70
     0
  9
$CMLSCALE
 40
1.0
  9
$PROXYGRAPHICS
 70
     1
  9
$MEASUREMENT
 70
     0
  9
$CELWEIGHT
370
    -1
  9
$ENDCAPS
280
     0
  9
$JOINSTYLE
280
     0
  9
$LWDISPLAY
290
     0
  9
$INSUNITS
 70
     0
  9
$HYPERLINKBASE
  1

  9
$STYLESHEET
  1

  9
$XEDIT
290
     1
  9
$CEPSNTYPE
380
     0
  9
$PSTYLEMODE
290
     1
  9
$FINGERPRINTGUID
  2
{2F4B4D48-9E62-4133-85BC-3CD9737505BC}
  9
$VERSIONGUID
  2
{E4F2E2FA-F52E-49BE-A03A-A2CAE125823E}
  9
$EXTNAMES
290
     1
  9
$PSVPSCALE
 40
0.0
  9
$OLESTARTUP
290
     0
  0
ENDSEC
  0
SECTION
  2
CLASSES
  0
CLASS
  1
ACDBDICTIONARYWDFLT
  2
AcDbDictionaryWithDefault
  3
ObjectDBX Classes
 90
        0
280
     0
281
     0
  0
CLASS
  1
MATERIAL
  2
AcDbMaterial
  3
ObjectDBX Classes
 90
     1153
280
     0
281
     0
  0
CLASS
  1
VISUALSTYLE
  2
AcDbVisualStyle
  3
ObjectDBX Classes
 90
     4095
280
     0
281
     0
  0
CLASS
  1
SCALE
  2
AcDbScale
  3
ObjectDBX Classes
 90
     1153
280
     0
281
     0
  0
CLASS
  1
TABLESTYLE
  2
AcDbTableStyle
  3
ObjectDBX Classes
 90
     4095
280
     0
281
     0
  0
CLASS
  1
MLEADERSTYLE
  2
AcDbMLeaderStyle
  3
ACDB_MLEADERSTYLE_CLASS
 90
     4095
280
     0
281
     0
  0
CLASS
  1
SORTENTSTABLE
  2
AcDbSortentsTable
  3
ObjectDBX Classes
 90
        0
280
     0
281
     0
  0
CLASS
  1
DICTIONARYVAR
  2
AcDbDictionaryVar
  3
ObjectDBX Classes
 90
        0
280
     0
281
     0
  0
CLASS
  1
CELLSTYLEMAP
  2
AcDbCellStyleMap
  3
ObjectDBX Classes
 90
     1152
280
     0
281
     0
  0
CLASS
  1
ACDBPLACEHOLDER
  2
AcDbPlaceHolder
  3
ObjectDBX Classes
 90
        0
280
     0
281
     0
  0
CLASS
  1
LAYOUT
  2
AcDbLayout
  3
ObjectDBX Classes
 90
        0
280
     0
281
     0
  0
ENDSEC
  0
SECTION
  2
TABLES
  0
TABLE
  2
VPORT
  5
8
330
0
100
AcDbSymbolTable
 70
     1
  0
VPORT
  5
79
330
8
100
AcDbSymbolTableRecord
100
AcDbViewportTableRecord
  2
*Active
 70
     0
 10
0.0
 20
0.0
 11
1.0
 21
1.0
 12
29.42716041602398
 22
53.28427817037698
 13
0.0
 23
0.0
 14
1.0
 24
1.0
 15
0.0
 25
0.0
 16
0.0
 26
0.0
 36
1.0
 17
0.0
 27
0.0
 37
0.0
 40
295.4678354721116
 41
1.168711656441717
 42
50.0
 43
0.0
 44
0.0
 50
0.0
 51
0.0
 71
     0
 72
   100
 73
     1
 74
     1
 75
     0
 76
     0
 77
     0
 78
     0
281
     0
 65
     1
110
0.0
120
0.0
130
0.0
111
1.0
121
0.0
131
0.0
112
0.0
122
1.0
132
0.0
 79
     0
146
0.0
  0
ENDTAB
  0
TABLE
  2
LTYPE
  5
5
330
0
100
AcDbSymbolTable
 70
     1
  0
LTYPE
  5
62
330
5
100
AcDbSymbolTableRecord
100
AcDbLinetypeTableRecord
  2
ByBlock
 70
     0
  3

 72
    65
 73
     0
 40
0.0
  0
LTYPE
  5
63
330
5
100
AcDbSymbolTableRecord
100
AcDbLinetypeTableRecord
  2
ByLayer
 70
     0
  3

 72
    65
 73
     0
 40
0.0
  0
LTYPE
  5
64
330
5
100
AcDbSymbolTableRecord
100
AcDbLinetypeTableRecord
  2
Continuous
 70
     0
  3
Solid line
 72
    65
 73
     0
 40
0.0
  0
ENDTAB
  0
TABLE
  2
LAYER
  5
2
330
0
100
AcDbSymbolTable
 70
     2
  0
LAYER
  5
5C
102
{ACAD_XDICTIONARY
360
F3A
102
}
330
2
100
AcDbSymbolTableRecord
100
AcDbLayerTableRecord
  2
0
 70
     0
 62
     7
  6
Continuous
370
    -3
390
F
  0
LAYER
  5
F1F
330
2
100
AcDbSymbolTableRecord
100
AcDbLayerTableRecord
  2
Defpoints
 70
     0
 62
     7
  6
Continuous
290
     0
370
    -3
390
F
  0
ENDTAB
  0
TABLE
  2
STYLE
  5
3
330
0
100
AcDbSymbolTable
 70
     2
  0
STYLE
  5
5D
330
3
100
AcDbSymbolTableRecord
100
AcDbTextStyleTableRecord
  2
Standard
 70
     0
 40
0.0
 41
1.0
 50
0.0
 71
     0
 42
0.2
  3
txt
  4

  0
STYLE
  5
61
330
3
100
AcDbSymbolTableRecord
100
AcDbTextStyleTableRecord
  2
Annotative
 70
     0
 40
0.0
 41
1.0
 50
0.0
 71
     0
 42
0.2
  3

  4

1001
AcadAnnotative
1000
AnnotativeData
1002
{
1070
     1
1070
     1
1002
}
  0
ENDTAB
  0
TABLE
  2
VIEW
  5
6
330
0
100
AcDbSymbolTable
 70
     1
  0
ENDTAB
  0
TABLE
  2
UCS
  5
7
330
0
100
AcDbSymbolTable
 70
     0
  0
ENDTAB
  0
TABLE
  2
APPID
  5
9
330
0
100
AcDbSymbolTable
 70
     6
  0
APPID
  5
5E
330
9
100
AcDbSymbolTableRecord
100
AcDbRegAppTableRecord
  2
ACAD
 70
     0
  0
APPID
  5
65
330
9
100
AcDbSymbolTableRecord
100
AcDbRegAppTableRecord
  2
AcadAnnotative
 70
     0
  0
APPID
  5
6F
330
9
100
AcDbSymbolTableRecord
100
AcDbRegAppTableRecord
  2
ACAD_MLEADERVER
 70
     0
  0
APPID
  5
F6F
330
9
100
AcDbSymbolTableRecord
100
AcDbRegAppTableRecord
  2
ACAD_PSEXT
 70
     0
  0
APPID
  5
F70
330
9
100
AcDbSymbolTableRecord
100
AcDbRegAppTableRecord
  2
ACAD_DSTYLE_DIMJAG
 70
     0
  0
APPID
  5
F71
330
9
100
AcDbSymbolTableRecord
100
AcDbRegAppTableRecord
  2
ACAD_DSTYLE_DIMTALN
 70
     0
  0
ENDTAB
  0
TABLE
  2
DIMSTYLE
  5
A
330
0
100
AcDbSymbolTable
 70
     4
100
AcDbDimStyleTable
 71
     1
340
5F
  0
DIMSTYLE
105
5F
102
{ACAD_REACTORS
330
F7A
330
F7B
102
}
330
A
100
AcDbSymbolTableRecord
100
AcDbDimStyleTableRecord
  2
Standard
 70
     0
340
5D
  0
DIMSTYLE
105
60
330
A
100
AcDbSymbolTableRecord
100
AcDbDimStyleTableRecord
  2
Annotative
 70
     0
340
5D
1001
AcadAnnotative
1000
AnnotativeData
1002
{
1070
     1
1070
     1
1002
}
  0
DIMSTYLE
105
F6D
330
A
100
AcDbSymbolTableRecord
100
AcDbDimStyleTableRecord
  2
ISO-25
 70
     0
 41
2.5
 42
0.625
 43
3.75
 44
1.25
 73
     0
 74
     0
 77
     1
 78
     8
140
2.5
141
2.5
143
0.03937007874016
147
0.625
171
     3
172
     1
271
     2
272
     2
274
     3
278
    44
283
     0
284
     8
340
5D
  0
DIMSTYLE
105
F6E
330
A
100
AcDbSymbolTableRecord
100
AcDbDimStyleTableRecord
  2
Annotativa
 70
     0
 40
0.0
 41
2.5
 42
0.625
 43
3.75
 44
1.25
 73
     0
 74
     0
 77
     1
 78
     8
140
2.5
141
2.5
143
0.03937007874016
147
0.625
171
     3
172
     1
271
     2
272
     2
274
     3
278
    44
283
     0
284
     8
340
5D
1001
AcadAnnotative
1000
AnnotativeData
1002
{
1070
     1
1070
     1
1002
}
1001
ACAD_DSTYLE_DIMJAG
1070
   388
1040
1.5
1001
ACAD_DSTYLE_DIMTALN
1070
   392
1070
     0
  0
ENDTAB
  0
TABLE
  2
BLOCK_RECORD
  5
1
330
0
100
AcDbSymbolTable
 70
     6
  0
BLOCK_RECORD
  5
74
102
{ACAD_XDICTIONARY
360
C18
102
}
330
1
100
AcDbSymbolTableRecord
100
AcDbBlockTableRecord
  2
*Model_Space
340
77
  0
BLOCK_RECORD
  5
70
330
1
100
AcDbSymbolTableRecord
100
AcDbBlockTableRecord
  2
*Paper_Space
340
73
  0
BLOCK_RECORD
  5
F20
330
1
100
AcDbSymbolTableRecord
100
AcDbBlockTableRecord
  2
*D0
340
0
  0
BLOCK_RECORD
  5
F53
330
1
100
AcDbSymbolTableRecord
100
AcDbBlockTableRecord
  2
*D1
340
0
  0
BLOCK_RECORD
  5
F60
330
1
100
AcDbSymbolTableRecord
100
AcDbBlockTableRecord
  2
*D2
340
0
  0
BLOCK_RECORD
  5
F7C
330
1
100
AcDbSymbolTableRecord
100
AcDbBlockTableRecord
  2
*D4
340
0
  0
BLOCK_RECORD
  5
F89
330
1
100
AcDbSymbolTableRecord
100
AcDbBlockTableRecord
  2
*D5
340
0
  0
ENDTAB
  0
ENDSEC
  0
SECTION
  2
BLOCKS
  0
BLOCK
  5
75
330
74
100
AcDbEntity
  8
0
100
AcDbBlockBegin
  2
*Model_Space
 70
     0
 10
0.0
 20
0.0
 30
0.0
  3
*Model_Space
  1

  0
ENDBLK
  5
76
330
74
100
AcDbEntity
  8
0
100
AcDbBlockEnd
  0
BLOCK
  5
71
330
70
100
AcDbEntity
 67
     1
  8
0
100
AcDbBlockBegin
  2
*Paper_Space
 70
     0
 10
0.0
 20
0.0
 30
0.0
  3
*Paper_Space
  1

  0
ENDBLK
  5
72
330
70
100
AcDbEntity
 67
     1
  8
0
100
AcDbBlockEnd
  0
BLOCK
  5
F21
330
F20
100
AcDbEntity
  8
0
100
AcDbBlockBegin
  2
*D0
 70
     1
 10
0.0
 20
0.0
 30
0.0
  3
*D0
  1

  0
LINE
  5
F2D
330
F20
100
AcDbEntity
  8
0
  6
Continuous
 62
     0
370
    -2
100
AcDbLine
 10
-22.48065771896447
 20
-75.31216570983673
 30
0.0
 11
-22.48065771896447
 21
-143.8617854513726
 31
0.0
  0
LINE
  5
F2E
330
F20
100
AcDbEntity
  8
0
  6
Continuous
 62
     0
370
    -2
100
AcDbLine
 10
47.52154167680595
 20
-75.31216570983673
 30
0.0
 11
47.52154167680593
 21
-143.8617854513726
 31
0.0
  0
LINE
  5
F2F
330
F20
100
AcDbEntity
  8
0
  6
Continuous
 62
     0
370
    -2
100
AcDbLine
 10
-22.30065771896446
 20
-143.6817854513726
 30
0.0
 11
11.93544197892074
 21
-143.6817854513726
 31
0.0
  0
LINE
  5
F30
330
F20
100
AcDbEntity
  8
0
  6
Continuous
 62
     0
370
    -2
100
AcDbLine
 10
47.34154167680593
 20
-143.6817854513726
 30
0.0
 11
13.10544197892073
 21
-143.6817854513726
 31
0.0
  0
SOLID
  5
F31
330
F20
100
AcDbEntity
  8
0
  6
Continuous
 62
     0
100
AcDbTrace
 10
-22.30065771896446
 20
-143.6517854513726
 30
0.0
 11
-22.30065771896446
 21
-143.7117854513726
 31
0.0
 12
-22.48065771896447
 22
-143.6817854513726
 32
0.0
 13
-22.48065771896447
 23
-143.6817854513726
 33
0.0
  0
SOLID
  5
F32
330
F20
100
AcDbEntity
  8
0
  6
Continuous
 62
     0
100
AcDbTrace
 10
47.34154167680593
 20
-143.6517854513726
 30
0.0
 11
47.34154167680593
 21
-143.7117854513726
 31
0.0
 12
47.52154167680593
 22
-143.6817854513726
 32
0.0
 13
47.52154167680593
 23
-143.6817854513726
 33
0.0
  0
MTEXT
  5
F33
330
F20
100
AcDbEntity
  8
0
  6
Continuous
 62
     0
100
AcDbMText
 10
12.52044197892074
 20
-143.6817854513726
 30
0.0
 40
0.18
 41
0.0
 71
     5
 72
     1
  1
\A1;70.0022
 73
     1
 44
1.0
1001
ACAD
1000
MTEXTBEGIN
1070
    73
1070
     1
1070
    44
1040
1.0
1070
    74
1070
     0
1000
MTEXTEND
  0
POINT
  5
F34
330
F20
100
AcDbEntity
  8
Defpoints
  6
Continuous
 62
     0
100
AcDbPoint
 10
-22.48065771896447
 20
-75.24966570983673
 30
0.0
  0
POINT
  5
F35
330
F20
100
AcDbEntity
  8
Defpoints
  6
Continuous
 62
     0
100
AcDbPoint
 10
47.52154167680595
 20
-75.24966570983673
 30
0.0
  0
POINT
  5
F36
330
F20
100
AcDbEntity
  8
Defpoints
  6
Continuous
 62
     0
100
AcDbPoint
 10
47.52154167680593
 20
-143.6817854513726
 30
0.0
  0
ENDBLK
  5
F22
330
F20
100
AcDbEntity
  8
0
100
AcDbBlockEnd
  0
BLOCK
  5
F54
330
F53
100
AcDbEntity
  8
0
100
AcDbBlockBegin
  2
*D1
 70
     1
 10
0.0
 20
0.0
 30
0.0
  3
*D1
  1

  0
LINE
  5
F55
330
F53
100
AcDbEntity
  8
0
 62
     0
370
    -2
100
AcDbLine
 10
57.73989115864565
 20
392.1611089510561
 30
-0.0000000000000002
 11
31.66174988103228
 21
392.1611089510561
 31
-0.0000000000000002
  0
LINE
  5
F56
330
F53
100
AcDbEntity
  8
0
 62
     0
370
    -2
100
AcDbLine
 10
56.12907475239585
 20
10.39762066980663
 30
-0.0000000000000002
 11
31.6617498810322
 21
10.39762066980663
 31
-0.0000000000000002
  0
LINE
  5
F57
330
F53
100
AcDbEntity
  8
0
 62
     0
370
    -2
100
AcDbLine
 10
32.91174988103228
 20
382.1611089510561
 30
-0.0000000000000002
 11
32.91174988103224
 21
223.6934400029502
 31
-0.0000000000000002
  0
LINE
  5
F58
330
F53
100
AcDbEntity
  8
0
 62
     0
370
    -2
100
AcDbLine
 10
32.9117498810322
 20
20.39762066980664
 30
-0.0000000000000002
 11
32.91174988103224
 21
195.7767733362835
 31
-0.0000000000000002
  0
SOLID
  5
F59
330
F53
100
AcDbEntity
  8
0
 62
     0
100
AcDbTrace
 10
31.24508321436561
 20
382.1611089510561
 30
-0.0000000000000002
 11
34.57841654769894
 21
382.1611089510561
 31
-0.0000000000000002
 12
32.91174988103228
 22
392.1611089510561
 32
-0.0000000000000002
 13
32.91174988103228
 23
392.1611089510561
 33
-0.0000000000000002
  0
SOLID
  5
F5A
330
F53
100
AcDbEntity
  8
0
 62
     0
100
AcDbTrace
 10
31.24508321436553
 20
20.39762066980664
 30
-0.0000000000000002
 11
34.57841654769886
 21
20.39762066980664
 31
-0.0000000000000002
 12
32.91174988103219
 22
10.39762066980663
 32
-0.0000000000000002
 13
32.91174988103219
 23
10.39762066980663
 33
-0.0000000000000002
  0
MTEXT
  5
F5B
330
F53
100
AcDbEntity
  8
0
 62
     0
370
     0
100
AcDbMText
 10
32.91174988103221
 20
209.7351066696169
 30
-0.0000000000000002
 40
10.0
 41
0.0
 71
     5
 72
     1
  1
382
 11
0.0000000000000001
 21
1.0
 31
0.0
 73
     1
 44
1.0
1001
ACAD
1000
MTEXTBEGIN
1070
    73
1070
     1
1070
    44
1040
1.0
1070
    74
1070
     0
1000
MTEXTEND
  0
POINT
  5
F5C
330
F53
100
AcDbEntity
  8
Defpoints
 62
     0
100
AcDbPoint
 10
58.36489115864565
 20
392.1611089510561
 30
0.0
  0
POINT
  5
F5D
330
F53
100
AcDbEntity
  8
Defpoints
 62
     0
100
AcDbPoint
 10
56.75407475239585
 20
10.39762066980663
 30
0.0
  0
POINT
  5
F5E
330
F53
100
AcDbEntity
  8
Defpoints
 62
     0
100
AcDbPoint
 10
32.91174988103219
 20
10.39762066980663
 30
-0.0000000000000002
  0
ENDBLK
  5
F5F
330
F53
100
AcDbEntity
  8
0
100
AcDbBlockEnd
  0
BLOCK
  5
F61
330
F60
100
AcDbEntity
  8
0
100
AcDbBlockBegin
  2
*D2
 70
     1
 10
0.0
 20
0.0
 30
0.0
  3
*D2
  1

  0
LINE
  5
F62
330
F60
100
AcDbEntity
  8
0
 62
     0
370
    -2
100
AcDbLine
 10
56.75407475239587
 20
391.1752925448064
 30
0.0
 11
56.75407475239587
 21
415.9625386385565
 31
0.0
  0
LINE
  5
F63
330
F60
100
AcDbEntity
  8
0
 62
     0
370
    -2
100
AcDbLine
 10
201.1906125128126
 20
391.1752925448064
 30
0.0
 11
201.1906125128126
 21
415.9625386385565
 31
0.0
  0
LINE
  5
F64
330
F60
100
AcDbEntity
  8
0
 62
     0
370
    -2
100
AcDbLine
 10
66.75407475239587
 20
414.7125386385565
 30
0.0
 11
116.9491463669792
 21
414.7125386385565
 31
0.0
  0
LINE
  5
F65
330
F60
100
AcDbEntity
  8
0
 62
     0
370
    -2
100
AcDbLine
 10
191.1906125128125
 20
414.7125386385565
 30
0.0
 11
141.5324797003125
 21
414.7125386385565
 31
0.0
  0
SOLID
  5
F66
330
F60
100
AcDbEntity
  8
0
 62
     0
100
AcDbTrace
 10
66.75407475239587
 20
416.3792053052231
 30
0.0
 11
66.75407475239587
 21
413.0458719718898
 31
0.0
 12
56.75407475239587
 22
414.7125386385565
 32
0.0
 13
56.75407475239587
 23
414.7125386385565
 33
0.0
  0
SOLID
  5
F67
330
F60
100
AcDbEntity
  8
0
 62
     0
100
AcDbTrace
 10
191.1906125128125
 20
416.3792053052231
 30
0.0
 11
191.1906125128125
 21
413.0458719718898
 31
0.0
 12
201.1906125128126
 22
414.7125386385565
 32
0.0
 13
201.1906125128126
 23
414.7125386385565
 33
0.0
  0
MTEXT
  5
F68
330
F60
100
AcDbEntity
  8
0
 62
     0
370
     0
100
AcDbMText
 10
129.2408130336458
 20
414.7125386385565
 30
0.0
 40
10.0
 41
0.0
 71
     5
 72
     1
  1
144
 73
     1
 44
1.0
1001
ACAD
1000
MTEXTBEGIN
1070
    73
1070
     1
1070
    44
1040
1.0
1070
    74
1070
     0
1000
MTEXTEND
  0
POINT
  5
F69
330
F60
100
AcDbEntity
  8
Defpoints
 62
     0
100
AcDbPoint
 10
56.75407475239587
 20
390.5502925448064
 30
0.0
  0
POINT
  5
F6A
330
F60
100
AcDbEntity
  8
Defpoints
 62
     0
100
AcDbPoint
 10
201.1906125128126
 20
390.5502925448064
 30
0.0
  0
POINT
  5
F6B
330
F60
100
AcDbEntity
  8
Defpoints
 62
     0
100
AcDbPoint
 10
201.1906125128126
 20
414.7125386385565
 30
0.0
  0
ENDBLK
  5
F6C
330
F60
100
AcDbEntity
  8
0
100
AcDbBlockEnd
  0
BLOCK
  5
F7D
330
F7C
100
AcDbEntity
  8
0
100
AcDbBlockBegin
  2
*D4
 70
     1
 10
0.0
 20
0.0
 30
0.0
  3
*D4
  1

  0
LINE
  5
FC2
330
F7C
100
AcDbEntity
  8
0
 62
     0
370
    -2
100
AcDbLine
 10
-20.53565098038837
 20
56.83091986865605
 30
-0.0000000000000002
 11
-46.6137922580018
 21
56.83091986865605
 31
-0.0000000000000002
  0
LINE
  5
FC3
330
F7C
100
AcDbEntity
  8
0
 62
     0
370
    -2
100
AcDbLine
 10
-22.14646738663816
 20
-51.0934305845161
 30
-0.0000000000000002
 11
-46.61379225800183
 21
-51.0934305845161
 31
-0.0000000000000002
  0
LINE
  5
FC4
330
F7C
100
AcDbEntity
  8
0
 62
     0
370
    -2
100
AcDbLine
 10
-45.36379225800181
 20
46.83091986865605
 30
-0.0000000000000002
 11
-45.36379225800181
 21
14.32707797540331
 31
-0.0000000000000002
  0
LINE
  5
FC5
330
F7C
100
AcDbEntity
  8
0
 62
     0
370
    -2
100
AcDbLine
 10
-45.36379225800182
 20
-41.0934305845161
 30
-0.0000000000000002
 11
-45.36379225800181
 21
-8.589588691263353
 31
-0.0000000000000002
  0
SOLID
  5
FC6
330
F7C
100
AcDbEntity
  8
0
 62
     0
100
AcDbTrace
 10
-47.03045892466847
 20
46.83091986865605
 30
-0.0000000000000002
 11
-43.69712559133514
 21
46.83091986865605
 31
-0.0000000000000002
 12
-45.3637922580018
 22
56.83091986865605
 32
-0.0000000000000002
 13
-45.3637922580018
 23
56.83091986865605
 33
-0.0000000000000002
  0
SOLID
  5
FC7
330
F7C
100
AcDbEntity
  8
0
 62
     0
100
AcDbTrace
 10
-47.03045892466849
 20
-41.0934305845161
 30
-0.0000000000000002
 11
-43.69712559133516
 21
-41.0934305845161
 31
-0.0000000000000002
 12
-45.36379225800183
 22
-51.0934305845161
 32
-0.0000000000000002
 13
-45.36379225800183
 23
-51.0934305845161
 33
-0.0000000000000002
  0
MTEXT
  5
FC8
330
F7C
100
AcDbEntity
  8
0
 62
     0
370
     0
100
AcDbMText
 10
-45.36379225800181
 20
2.86874464206997
 30
-0.0000000000000002
 40
10.0
 41
0.0
 71
     5
 72
     1
  1
108
 11
0.0000000000000001
 21
1.0
 31
0.0
 73
     1
 44
1.0
1001
ACAD
1000
MTEXTBEGIN
1070
    73
1070
     1
1070
    44
1040
1.0
1070
    74
1070
     0
1000
MTEXTEND
  0
POINT
  5
FC9
330
F7C
100
AcDbEntity
  8
Defpoints
 62
     0
100
AcDbPoint
 10
-19.91065098038837
 20
56.83091986865605
 30
0.0
  0
POINT
  5
FCA
330
F7C
100
AcDbEntity
  8
Defpoints
 62
     0
100
AcDbPoint
 10
-21.52146738663816
 20
-51.0934305845161
 30
0.0
  0
POINT
  5
FCB
330
F7C
100
AcDbEntity
  8
Defpoints
 62
     0
100
AcDbPoint
 10
-45.36379225800183
 20
-51.0934305845161
 30
-0.0000000000000002
  0
ENDBLK
  5
F7E
330
F7C
100
AcDbEntity
  8
0
100
AcDbBlockEnd
  0
BLOCK
  5
F8A
330
F89
100
AcDbEntity
  8
0
100
AcDbBlockBegin
  2
*D5
 70
     1
 10
0.0
 20
0.0
 30
0.0
  3
*D5
  1

  0
LINE
  5
FE1
330
F89
100
AcDbEntity
  8
0
 62
     0
370
    -2
100
AcDbLine
 10
-22.51745530204602
 20
56.45604071457751
 30
0.0
 11
-22.51745530204602
 21
81.24328680832764
 31
0.0
  0
LINE
  5
FE2
330
F89
100
AcDbEntity
  8
0
 62
     0
370
    -2
100
AcDbLine
 10
47.43018216018962
 20
56.4560407145775
 30
0.0
 11
47.43018216018962
 21
81.24328680832764
 31
0.0
  0
LINE
  5
FE3
330
F89
100
AcDbEntity
  8
0
 62
     0
370
    -2
100
AcDbLine
 10
-12.51745530204601
 20
79.99328680832764
 30
0.0
 11
4.331363429071801
 21
79.99328680832764
 31
0.0
  0
LINE
  5
FE4
330
F89
100
AcDbEntity
  8
0
 62
     0
370
    -2
100
AcDbLine
 10
37.43018216018962
 20
79.99328680832764
 30
0.0
 11
20.5813634290718
 21
79.99328680832764
 31
0.0
  0
SOLID
  5
FE5
330
F89
100
AcDbEntity
  8
0
 62
     0
100
AcDbTrace
 10
-12.51745530204601
 20
81.6599534749943
 30
0.0
 11
-12.51745530204601
 21
78.32662014166096
 31
0.0
 12
-22.51745530204602
 22
79.99328680832764
 32
0.0
 13
-22.51745530204602
 23
79.99328680832764
 33
0.0
  0
SOLID
  5
FE6
330
F89
100
AcDbEntity
  8
0
 62
     0
100
AcDbTrace
 10
37.43018216018962
 20
81.6599534749943
 30
0.0
 11
37.43018216018962
 21
78.32662014166096
 31
0.0
 12
47.43018216018962
 22
79.99328680832764
 32
0.0
 13
47.43018216018962
 23
79.99328680832764
 33
0.0
  0
MTEXT
  5
FE7
330
F89
100
AcDbEntity
  8
0
 62
     0
370
     0
100
AcDbMText
 10
12.4563634290718
 20
79.99328680832764
 30
0.0
 40
10.0
 41
0.0
 71
     5
 72
     1
  1
70
 73
     1
 44
1.0
1001
ACAD
1000
MTEXTBEGIN
1070
    73
1070
     1
1070
    44
1040
1.0
1070
    74
1070
     0
1000
MTEXTEND
  0
POINT
  5
FE8
330
F89
100
AcDbEntity
  8
Defpoints
 62
     0
100
AcDbPoint
 10
-22.51745530204602
 20
55.83104071457751
 30
0.0
  0
POINT
  5
FE9
330
F89
100
AcDbEntity
  8
Defpoints
 62
     0
100
AcDbPoint
 10
47.43018216018962
 20
55.8310407145775
 30
0.0
  0
POINT
  5
FEA
330
F89
100
AcDbEntity
  8
Defpoints
 62
     0
100
AcDbPoint
 10
47.43018216018962
 20
79.99328680832764
 30
0.0
  0
ENDBLK
  5
F8B
330
F89
100
AcDbEntity
  8
0
100
AcDbBlockEnd
  0
ENDSEC
  0
SECTION
  2
ENTITIES
  0
LINE
  5
C37
330
74
100
AcDbEntity
  8
0
 62
     0
100
AcDbLine
 10
-13.89387826277111
 20
-44.51723723104186
 30
0.0
 11
-12.53541300597352
 21
-44.24146683829258
 31
0.0
  0
LINE
  5
C38
330
74
100
AcDbEntity
  8
0
 62
     0
100
AcDbLine
 10
-12.53541300597352
 20
-44.24146683829258
 30
0.0
 11
-11.4248027340702
 21
-43.48944266910831
 31
0.0
  0
LINE
  5
C39
330
74
100
AcDbEntity
  8
0
 62
     0
100
AcDbLine
 10
-11.4248027340702
 20
-43.48944266910831
 30
0.0
 11
-10.67218641987081
 21
-42.37790188360981
 31
0.0
  0
LINE
  5
C3A
330
74
100
AcDbEntity
  8
0
 62
     0
100
AcDbLine
 10
-10.67218641987081
 20
-42.37790188360981
 30
0.0
 11
-10.39700817213666
 21
-41.02019795611727
 31
0.0
  0
LINE
  5
C3B
330
74
100
AcDbEntity
  8
0
 62
     0
100
AcDbLine
 10
-10.39700817213666
 20
-41.02019795611727
 30
0.0
 11
-10.67218641987081
 21
-39.65741849992401
 31
0.0
  0
LINE
  5
C3C
330
74
100
AcDbEntity
  8
0
 62
     0
100
AcDbLine
 10
-10.67218641987081
 20
-39.65741849992401
 30
0.0
 11
-11.4248027340702
 21
-38.54672363587571
 31
0.0
  0
LINE
  5
C3D
330
74
100
AcDbEntity
  8
0
 62
     0
100
AcDbLine
 10
-11.4248027340702
 20
-38.54672363587571
 30
0.0
 11
-12.53541300597352
 21
-37.79385354524123
 31
0.0
  0
LINE
  5
C3E
330
74
100
AcDbEntity
  8
0
 62
     0
100
AcDbLine
 10
-12.53541300597352
 20
-37.79385354524123
 30
0.0
 11
-13.89387826277111
 21
-37.52315868119291
 31
0.0
  0
LINE
  5
C3F
330
74
100
AcDbEntity
  8
0
 62
     0
100
AcDbLine
 10
-13.89387826277111
 20
-37.52315868119291
 30
0.0
 11
-15.2569960875445
 21
-37.79385354524123
 31
0.0
  0
LINE
  5
C40
330
74
100
AcDbEntity
  8
0
 62
     0
100
AcDbLine
 10
-15.2569960875445
 20
-37.79385354524123
 30
0.0
 11
-16.37217433527865
 21
-38.54672363587571
 31
0.0
  0
LINE
  5
C41
330
74
100
AcDbEntity
  8
0
 62
     0
100
AcDbLine
 10
-16.37217433527865
 20
-38.54672363587571
 30
0.0
 11
-17.12022267364725
 21
-39.65741849992401
 31
0.0
  0
LINE
  5
C42
330
74
100
AcDbEntity
  8
0
 62
     0
100
AcDbLine
 10
-17.12022267364725
 20
-39.65741849992401
 30
0.0
 11
-17.39565469781642
 21
-41.02019795611727
 31
0.0
  0
LINE
  5
C43
330
74
100
AcDbEntity
  8
0
 62
     0
100
AcDbLine
 10
-17.39565469781642
 20
-41.02019795611727
 30
0.0
 11
-17.12022267364725
 21
-42.37790188360981
 31
0.0
  0
LINE
  5
C44
330
74
100
AcDbEntity
  8
0
 62
     0
100
AcDbLine
 10
-17.12022267364725
 20
-42.37790188360981
 30
0.0
 11
-16.37217433527865
 21
-43.48944266910831
 31
0.0
  0
LINE
  5
C45
330
74
100
AcDbEntity
  8
0
 62
     0
100
AcDbLine
 10
-16.37217433527865
 20
-43.48944266910831
 30
0.0
 11
-15.2569960875445
 21
-44.24146683829258
 31
0.0
  0
LINE
  5
C46
330
74
100
AcDbEntity
  8
0
 62
     0
100
AcDbLine
 10
-15.2569960875445
 20
-44.24146683829258
 30
0.0
 11
-13.89387826277111
 21
-44.51723723104186
 31
0.0
  0
LINE
  5
C47
330
74
100
AcDbEntity
  8
0
 62
     0
100
AcDbLine
 10
-13.89387826277111
 20
-44.51723723104186
 30
0.0
 11
-13.89387826277111
 21
-44.51723723104186
 31
0.0
  0
LINE
  5
C5E
330
74
100
AcDbEntity
  8
0
 62
     0
100
AcDbLine
 10
39.07247823269719
 20
43.17267213451708
 30
0.0
 11
40.43102808163978
 21
43.44759660581615
 31
0.0
  0
LINE
  5
C5F
330
74
100
AcDbEntity
  8
0
 62
     0
100
AcDbLine
 10
40.43102808163978
 20
43.44759660581615
 30
0.0
 11
41.54087702423796
 21
44.20046669645063
 31
0.0
  0
LINE
  5
C60
330
74
100
AcDbEntity
  8
0
 62
     0
100
AcDbLine
 10
41.54087702423796
 20
44.20046669645063
 30
0.0
 11
42.29459303632256
 21
45.31116156049899
 31
0.0
  0
LINE
  5
C61
330
74
100
AcDbEntity
  8
0
 62
     0
100
AcDbLine
 10
42.29459303632256
 20
45.31116156049899
 30
0.0
 11
42.56951750762164
 21
46.67055733089164
 31
0.0
  0
LINE
  5
C62
330
74
100
AcDbEntity
  8
0
 62
     0
100
AcDbLine
 10
42.56951750762164
 20
46.67055733089164
 30
0.0
 11
42.29459303632256
 21
48.03333678708503
 31
0.0
  0
LINE
  5
C63
330
74
100
AcDbEntity
  8
0
 62
     0
100
AcDbLine
 10
42.29459303632256
 20
48.03333678708503
 30
0.0
 11
41.54087702423796
 21
49.1431857296833
 31
0.0
  0
LINE
  5
C64
330
74
100
AcDbEntity
  8
0
 62
     0
100
AcDbLine
 10
41.54087702423796
 20
49.1431857296833
 30
0.0
 11
40.43102808163978
 21
49.89690174176786
 31
0.0
  0
LINE
  5
C65
330
74
100
AcDbEntity
  8
0
 62
     0
100
AcDbLine
 10
40.43102808163978
 20
49.89690174176786
 30
0.0
 11
39.07247823269719
 21
50.16675068436604
 31
0.0
  0
LINE
  5
C66
330
74
100
AcDbEntity
  8
0
 62
     0
100
AcDbLine
 10
39.07247823269719
 20
50.16675068436604
 30
0.0
 11
36.59815799100535
 21
49.1431857296833
 31
0.0
  0
LINE
  5
C67
330
74
100
AcDbEntity
  8
0
 62
     0
100
AcDbLine
 10
36.59815799100535
 20
49.1431857296833
 30
0.0
 11
35.57543895777272
 21
46.67055733089164
 31
0.0
  0
LINE
  5
C68
330
74
100
AcDbEntity
  8
0
 62
     0
100
AcDbLine
 10
35.57543895777272
 20
46.67055733089164
 30
0.0
 11
36.59815799100535
 21
44.20046669645063
 31
0.0
  0
LINE
  5
C69
330
74
100
AcDbEntity
  8
0
 62
     0
100
AcDbLine
 10
36.59815799100535
 20
44.20046669645063
 30
0.0
 11
39.07247823269719
 21
43.17267213451708
 31
0.0
  0
LINE
  5
C6A
330
74
100
AcDbEntity
  8
0
 62
     0
100
AcDbLine
 10
39.07247823269719
 20
43.17267213451708
 30
0.0
 11
39.07247823269719
 21
43.17267213451708
 31
0.0
  0
LINE
  5
C6B
330
74
100
AcDbEntity
  8
0
 62
     0
100
AcDbLine
 10
-17.33136466760493
 20
56.98233980823307
 30
0.0
 11
-17.33136466760493
 21
45.0404666964506
 31
0.0
  0
LINE
  5
C6C
330
74
100
AcDbEntity
  8
0
 62
     0
100
AcDbLine
 10
-17.33136466760493
 20
45.0404666964506
 30
0.0
 11
34.48758397287844
 21
45.0404666964506
 31
0.0
  0
LINE
  5
C6D
330
74
100
AcDbEntity
  8
0
 62
     0
100
AcDbLine
 10
34.48758397287844
 20
45.0404666964506
 30
0.0
 11
34.48758397287844
 21
56.80385038225121
 31
0.0
  0
LINE
  5
C6E
330
74
100
AcDbEntity
  8
0
 62
     0
100
AcDbLine
 10
-9.313382794493163
 20
-50.89125535792999
 30
0.0
 11
-9.313382794493163
 21
-39.25729765400257
 31
0.0
  0
LINE
  5
C6F
330
74
100
AcDbEntity
  8
0
 62
     0
100
AcDbLine
 10
-9.313382794493163
 20
-39.25729765400257
 30
0.0
 11
42.51030300611108
 21
-39.25729765400257
 31
0.0
  0
LINE
  5
C70
330
74
100
AcDbEntity
  8
0
 62
     0
100
AcDbLine
 10
42.51030300611108
 20
-39.25729765400257
 30
0.0
 11
42.51030300611108
 21
-51.15772061472762
 31
0.0
  0
LINE
  5
C71
330
74
100
AcDbEntity
  8
0
 62
     0
100
AcDbLine
 10
-16.31710484887382
 20
-34.28327952711442
 30
0.0
 11
-14.29323777938741
 21
-34.28327952711442
 31
0.0
  0
LINE
  5
C72
330
74
100
AcDbEntity
  8
0
 62
     0
100
AcDbLine
 10
-16.28495983376808
 20
-36.13246381714454
 30
0.0
 11
-16.28495983376808
 21
-30.25330973859474
 31
0.0
  0
LINE
  5
C73
330
74
100
AcDbEntity
  8
0
 62
     0
100
AcDbLine
 10
-16.28495983376808
 20
-30.25330973859474
 30
0.0
 11
-15.99125590627564
 21
-29.54611940626847
 31
0.0
  0
LINE
  5
C74
330
74
100
AcDbEntity
  8
0
 62
     0
100
AcDbLine
 10
-15.99125590627564
 20
-29.54611940626847
 30
0.0
 11
-15.28448853467442
 21
-29.25681427031674
 31
0.0
  0
LINE
  5
C75
330
74
100
AcDbEntity
  8
0
 62
     0
100
AcDbLine
 10
-15.28448853467442
 20
-29.25681427031674
 30
0.0
 11
-15.28448853467442
 21
-29.25681427031674
 31
0.0
  0
LINE
  5
C76
330
74
100
AcDbEntity
  8
0
 62
     0
100
AcDbLine
 10
-15.28448853467442
 20
-29.25681427031674
 30
0.0
 11
-14.57772116307322
 21
-29.54611940626847
 31
0.0
  0
LINE
  5
C77
330
74
100
AcDbEntity
  8
0
 62
     0
100
AcDbLine
 10
-14.57772116307322
 20
-29.54611940626847
 30
0.0
 11
-14.28401723558076
 21
-30.25330973859474
 31
0.0
  0
LINE
  5
C78
330
74
100
AcDbEntity
  8
0
 62
     0
100
AcDbLine
 10
-14.28401723558076
 20
-30.25330973859474
 30
0.0
 11
-14.28401723558076
 21
-36.17814357545268
 31
0.0
  0
LINE
  5
C79
330
74
100
AcDbEntity
  8
0
 62
     0
100
AcDbLine
 10
-11.33767282470464
 20
-34.28327952711442
 30
0.0
 11
-9.313382794493163
 21
-34.28327952711442
 31
0.0
  0
LINE
  5
C7A
330
74
100
AcDbEntity
  8
0
 62
     0
100
AcDbLine
 10
-11.30544321745388
 20
-36.13246381714454
 30
0.0
 11
-11.30544321745388
 21
-30.25330973859474
 31
0.0
  0
LINE
  5
C7B
330
74
100
AcDbEntity
  8
0
 62
     0
100
AcDbLine
 10
-11.30544321745388
 20
-30.25330973859474
 30
0.0
 11
-11.01173928996142
 21
-29.54611940626847
 31
0.0
  0
LINE
  5
C7C
330
74
100
AcDbEntity
  8
0
 62
     0
100
AcDbLine
 10
-11.01173928996142
 20
-29.54611940626847
 30
0.0
 11
-10.30480273407019
 21
-29.25681427031674
 31
0.0
  0
LINE
  5
C7D
330
74
100
AcDbEntity
  8
0
 62
     0
100
AcDbLine
 10
-10.30480273407019
 20
-29.25681427031674
 30
0.0
 11
-10.30480273407019
 21
-29.25681427031674
 31
0.0
  0
LINE
  5
C7E
330
74
100
AcDbEntity
  8
0
 62
     0
100
AcDbLine
 10
-10.30480273407019
 20
-29.25681427031674
 30
0.0
 11
-9.598458323194053
 21
-29.54611940626847
 31
0.0
  0
LINE
  5
C7F
330
74
100
AcDbEntity
  8
0
 62
     0
100
AcDbLine
 10
-9.598458323194053
 20
-29.54611940626847
 30
0.0
 11
-9.304077658541489
 21
-30.25330973859474
 31
0.0
  0
LINE
  5
C80
330
74
100
AcDbEntity
  8
0
 62
     0
100
AcDbLine
 10
-9.304077658541489
 20
-30.25330973859474
 30
0.0
 11
-9.304077658541489
 21
-36.17814357545268
 31
0.0
  0
LINE
  5
C81
330
74
100
AcDbEntity
  8
0
 62
     0
100
AcDbLine
 10
-6.357733247665365
 20
-34.28327952711442
 30
0.0
 11
-4.334289138904039
 21
-34.28327952711442
 31
0.0
  0
LINE
  5
C82
330
74
100
AcDbEntity
  8
0
 62
     0
100
AcDbLine
 10
-6.325588232559623
 20
-36.13246381714454
 30
0.0
 11
-6.325588232559623
 21
-30.25330973859474
 31
0.0
  0
LINE
  5
C83
330
74
100
AcDbEntity
  8
0
 62
     0
100
AcDbLine
 10
-6.325588232559623
 20
-30.25330973859474
 30
0.0
 11
-6.032053489357195
 21
-29.54611940626847
 31
0.0
  0
LINE
  5
C84
330
74
100
AcDbEntity
  8
0
 62
     0
100
AcDbLine
 10
-6.032053489357195
 20
-29.54611940626847
 30
0.0
 11
-5.325709078481081
 21
-29.25681427031674
 31
0.0
  0
LINE
  5
C85
330
74
100
AcDbEntity
  8
0
 62
     0
100
AcDbLine
 10
-5.325709078481081
 20
-29.25681427031674
 30
0.0
 11
-5.325709078481081
 21
-29.25681427031674
 31
0.0
  0
LINE
  5
C86
330
74
100
AcDbEntity
  8
0
 62
     0
100
AcDbLine
 10
-5.325709078481081
 20
-29.25681427031674
 30
0.0
 11
-4.618518746154776
 21
-29.54611940626847
 31
0.0
  0
LINE
  5
C87
330
74
100
AcDbEntity
  8
0
 62
     0
100
AcDbLine
 10
-4.618518746154776
 20
-29.54611940626847
 30
0.0
 11
-4.324984002952376
 21
-30.25330973859474
 31
0.0
  0
LINE
  5
C88
330
74
100
AcDbEntity
  8
0
 62
     0
100
AcDbLine
 10
-4.324984002952376
 20
-30.25330973859474
 30
0.0
 11
-4.324984002952376
 21
-36.17814357545268
 31
0.0
  0
LINE
  5
C89
330
74
100
AcDbEntity
  8
0
 62
     0
100
AcDbLine
 10
-1.382869199326989
 20
-34.28327952711442
 30
0.0
 11
0.6456504381352488
 21
-34.28327952711442
 31
0.0
  0
LINE
  5
C8A
330
74
100
AcDbEntity
  8
0
 62
     0
100
AcDbLine
 10
-1.346494576970499
 20
-36.13246381714454
 30
0.0
 11
-1.346494576970499
 21
-30.25330973859474
 31
0.0
  0
LINE
  5
C8B
330
74
100
AcDbEntity
  8
0
 62
     0
100
AcDbLine
 10
-1.346494576970499
 20
-30.25330973859474
 30
0.0
 11
-1.052959833768084
 21
-29.54611940626847
 31
0.0
  0
LINE
  5
C8C
330
74
100
AcDbEntity
  8
0
 62
     0
100
AcDbLine
 10
-1.052959833768084
 20
-29.54611940626847
 30
0.0
 11
-0.3457695014418078
 21
-29.25681427031674
 31
0.0
  0
LINE
  5
C8D
330
74
100
AcDbEntity
  8
0
 62
     0
100
AcDbLine
 10
-0.3457695014418078
 20
-29.25681427031674
 30
0.0
 11
-0.3457695014418078
 21
-29.25681427031674
 31
0.0
  0
LINE
  5
C8E
330
74
100
AcDbEntity
  8
0
 62
     0
100
AcDbLine
 10
-0.3457695014418078
 20
-29.25681427031674
 30
0.0
 11
0.3605749094343338
 21
-29.54611940626847
 31
0.0
  0
LINE
  5
C8F
330
74
100
AcDbEntity
  8
0
 62
     0
100
AcDbLine
 10
0.3605749094343338
 20
-29.54611940626847
 30
0.0
 11
0.6549555740869124
 21
-30.25330973859474
 31
0.0
  0
LINE
  5
C90
330
74
100
AcDbEntity
  8
0
 62
     0
100
AcDbLine
 10
0.6549555740869124
 20
-30.25330973859474
 30
0.0
 11
0.6549555740869124
 21
-36.17814357545268
 31
0.0
  0
LINE
  5
C91
330
74
100
AcDbEntity
  8
0
 62
     0
100
AcDbLine
 10
3.641904214570303
 20
-34.28327952711442
 30
0.0
 11
5.670423852032527
 21
-34.28327952711442
 31
0.0
  0
LINE
  5
C92
330
74
100
AcDbEntity
  8
0
 62
     0
100
AcDbLine
 10
3.679124758376943
 20
-36.13246381714454
 30
0.0
 11
3.679124758376943
 21
-30.25330973859474
 31
0.0
  0
LINE
  5
C93
330
74
100
AcDbEntity
  8
0
 62
     0
100
AcDbLine
 10
3.679124758376943
 20
-30.25330973859474
 30
0.0
 11
3.968429894328578
 21
-29.54611940626847
 31
0.0
  0
LINE
  5
C94
330
74
100
AcDbEntity
  8
0
 62
     0
100
AcDbLine
 10
3.968429894328578
 20
-29.54611940626847
 30
0.0
 11
4.679003912455485
 21
-29.25681427031674
 31
0.0
  0
LINE
  5
C95
330
74
100
AcDbEntity
  8
0
 62
     0
100
AcDbLine
 10
4.679003912455485
 20
-29.25681427031674
 30
0.0
 11
4.679003912455485
 21
-29.25681427031674
 31
0.0
  0
LINE
  5
C96
330
74
100
AcDbEntity
  8
0
 62
     0
100
AcDbLine
 10
4.679003912455485
 20
-29.25681427031674
 30
0.0
 11
5.381964637530997
 21
-29.54611940626847
 31
0.0
  0
LINE
  5
C97
330
74
100
AcDbEntity
  8
0
 62
     0
100
AcDbLine
 10
5.381964637530997
 20
-29.54611940626847
 30
0.0
 11
5.675499380733428
 21
-30.25330973859474
 31
0.0
  0
LINE
  5
C98
330
74
100
AcDbEntity
  8
0
 62
     0
100
AcDbLine
 10
5.675499380733428
 20
-30.25330973859474
 30
0.0
 11
5.675499380733428
 21
-36.17814357545268
 31
0.0
  0
LINE
  5
C99
330
74
100
AcDbEntity
  8
0
 62
     0
100
AcDbLine
 10
8.667523549917703
 20
-34.30527348481827
 30
0.0
 11
10.69181358012921
 21
-34.30527348481827
 31
0.0
  0
LINE
  5
C9A
330
74
100
AcDbEntity
  8
0
 62
     0
100
AcDbLine
 10
8.704744093724372
 20
-36.15953330354932
 30
0.0
 11
8.704744093724372
 21
-30.28037922499954
 31
0.0
  0
LINE
  5
C9B
330
74
100
AcDbEntity
  8
0
 62
     0
100
AcDbLine
 10
8.704744093724372
 20
-30.28037922499954
 30
0.0
 11
8.993203308225872
 21
-29.56980520687262
 31
0.0
  0
LINE
  5
C9C
330
74
100
AcDbEntity
  8
0
 62
     0
100
AcDbLine
 10
8.993203308225872
 20
-29.56980520687262
 30
0.0
 11
9.70039364055215
 21
-29.28050007092105
 31
0.0
  0
LINE
  5
C9D
330
74
100
AcDbEntity
  8
0
 62
     0
100
AcDbLine
 10
9.70039364055215
 20
-29.28050007092105
 30
0.0
 11
9.70039364055215
 21
-29.28050007092105
 31
0.0
  0
LINE
  5
C9E
330
74
100
AcDbEntity
  8
0
 62
     0
100
AcDbLine
 10
9.70039364055215
 20
-29.28050007092105
 30
0.0
 11
10.40673805142829
 21
-29.56980520687262
 31
0.0
  0
LINE
  5
C9F
330
74
100
AcDbEntity
  8
0
 62
     0
100
AcDbLine
 10
10.40673805142829
 20
-29.56980520687262
 30
0.0
 11
10.70111871608087
 21
-30.28037922499954
 31
0.0
  0
LINE
  5
CA0
330
74
100
AcDbEntity
  8
0
 62
     0
100
AcDbLine
 10
10.70111871608087
 20
-30.28037922499954
 30
0.0
 11
10.70111871608087
 21
-36.20182937605694
 31
0.0
  0
LINE
  5
CA1
330
74
100
AcDbEntity
  8
0
 62
     0
100
AcDbLine
 10
13.60093744719869
 20
-34.30527348481827
 30
0.0
 11
15.62945708466091
 21
-34.30527348481827
 31
0.0
  0
LINE
  5
CA2
330
74
100
AcDbEntity
  8
0
 62
     0
100
AcDbLine
 10
13.63815799100533
 20
-36.15953330354932
 30
0.0
 11
13.63815799100533
 21
-30.28037922499954
 31
0.0
  0
LINE
  5
CA3
330
74
100
AcDbEntity
  8
0
 62
     0
100
AcDbLine
 10
13.63815799100533
 20
-30.28037922499954
 30
0.0
 11
13.92746312695699
 21
-29.56980520687262
 31
0.0
  0
LINE
  5
CA4
330
74
100
AcDbEntity
  8
0
 62
     0
100
AcDbLine
 10
13.92746312695699
 20
-29.56980520687262
 30
0.0
 11
14.63888306653403
 21
-29.28050007092105
 31
0.0
  0
LINE
  5
CA5
330
74
100
AcDbEntity
  8
0
 62
     0
100
AcDbLine
 10
14.63888306653403
 20
-29.28050007092105
 30
0.0
 11
14.63888306653403
 21
-29.28050007092105
 31
0.0
  0
LINE
  5
CA6
330
74
100
AcDbEntity
  8
0
 62
     0
100
AcDbLine
 10
14.63888306653403
 20
-29.28050007092105
 30
0.0
 11
15.34099787015941
 21
-29.56980520687262
 31
0.0
  0
LINE
  5
CA7
330
74
100
AcDbEntity
  8
0
 62
     0
100
AcDbLine
 10
15.34099787015941
 20
-29.56980520687262
 30
0.0
 11
15.63453261336184
 21
-30.28037922499954
 31
0.0
  0
LINE
  5
CA8
330
74
100
AcDbEntity
  8
0
 62
     0
100
AcDbLine
 10
15.63453261336184
 20
-30.28037922499954
 30
0.0
 11
15.63453261336184
 21
-36.20182937605694
 31
0.0
  0
LINE
  5
CA9
330
74
100
AcDbEntity
  8
0
 62
     0
100
AcDbLine
 10
18.58087702423796
 20
-34.30527348481827
 30
0.0
 11
20.6093966617002
 21
-34.30527348481827
 31
0.0
  0
LINE
  5
CAA
330
74
100
AcDbEntity
  8
0
 62
     0
100
AcDbLine
 10
18.61725164659445
 20
-36.15953330354932
 30
0.0
 11
18.61725164659445
 21
-30.28037922499954
 31
0.0
  0
LINE
  5
CAB
330
74
100
AcDbEntity
  8
0
 62
     0
100
AcDbLine
 10
18.61725164659445
 20
-30.28037922499954
 30
0.0
 11
18.90655678254613
 21
-29.56980520687262
 31
0.0
  0
LINE
  5
CAC
330
74
100
AcDbEntity
  8
0
 62
     0
100
AcDbLine
 10
18.90655678254613
 20
-29.56980520687262
 30
0.0
 11
19.61797672212316
 21
-29.28050007092105
 31
0.0
  0
LINE
  5
CAD
330
74
100
AcDbEntity
  8
0
 62
     0
100
AcDbLine
 10
19.61797672212316
 20
-29.28050007092105
 30
0.0
 11
19.61797672212316
 21
-29.28050007092105
 31
0.0
  0
LINE
  5
CAE
330
74
100
AcDbEntity
  8
0
 62
     0
100
AcDbLine
 10
19.61797672212316
 20
-29.28050007092105
 30
0.0
 11
20.32009152574852
 21
-29.56980520687262
 31
0.0
  0
LINE
  5
CAF
330
74
100
AcDbEntity
  8
0
 62
     0
100
AcDbLine
 10
20.32009152574852
 20
-29.56980520687262
 30
0.0
 11
20.61362626895095
 21
-30.28037922499954
 31
0.0
  0
LINE
  5
CB0
330
74
100
AcDbEntity
  8
0
 62
     0
100
AcDbLine
 10
20.61362626895095
 20
-30.28037922499954
 30
0.0
 11
20.61362626895095
 21
-36.20182937605694
 31
0.0
  0
LINE
  5
CB1
330
74
100
AcDbEntity
  8
0
 62
     0
100
AcDbLine
 10
23.60649635958539
 20
-34.30527348481827
 30
0.0
 11
25.62994046834673
 21
-34.30527348481827
 31
0.0
  0
LINE
  5
CB2
330
74
100
AcDbEntity
  8
0
 62
     0
100
AcDbLine
 10
23.63864137469113
 20
-36.15953330354932
 30
0.0
 11
23.63864137469113
 21
-30.28037922499954
 31
0.0
  0
LINE
  5
CB3
330
74
100
AcDbEntity
  8
0
 62
     0
100
AcDbLine
 10
23.63864137469113
 20
-30.28037922499954
 30
0.0
 11
23.93217611789355
 21
-29.56980520687262
 31
0.0
  0
LINE
  5
CB4
330
74
100
AcDbEntity
  8
0
 62
     0
100
AcDbLine
 10
23.93217611789355
 20
-29.56980520687262
 30
0.0
 11
24.63936645021985
 21
-29.28050007092105
 31
0.0
  0
LINE
  5
CB5
330
74
100
AcDbEntity
  8
0
 62
     0
100
AcDbLine
 10
24.63936645021985
 20
-29.28050007092105
 30
0.0
 11
24.63936645021985
 21
-29.28050007092105
 31
0.0
  0
LINE
  5
CB6
330
74
100
AcDbEntity
  8
0
 62
     0
100
AcDbLine
 10
24.63936645021985
 20
-29.28050007092105
 30
0.0
 11
25.34571086109598
 21
-29.56980520687262
 31
0.0
  0
LINE
  5
CB7
330
74
100
AcDbEntity
  8
0
 62
     0
100
AcDbLine
 10
25.34571086109598
 20
-29.56980520687262
 30
0.0
 11
25.63924560429841
 21
-30.28037922499954
 31
0.0
  0
LINE
  5
CB8
330
74
100
AcDbEntity
  8
0
 62
     0
100
AcDbLine
 10
25.63924560429841
 20
-30.28037922499954
 30
0.0
 11
25.63924560429841
 21
-36.20182937605694
 31
0.0
  0
LINE
  5
CB9
330
74
100
AcDbEntity
  8
0
 62
     0
100
AcDbLine
 10
28.58136040792377
 20
-34.30527348481827
 30
0.0
 11
30.60988004538601
 21
-34.30527348481827
 31
0.0
  0
LINE
  5
CBA
330
74
100
AcDbEntity
  8
0
 62
     0
100
AcDbLine
 10
28.61773503028027
 20
-36.15953330354932
 30
0.0
 11
28.61773503028027
 21
-30.28037922499954
 31
0.0
  0
LINE
  5
CBB
330
74
100
AcDbEntity
  8
0
 62
     0
100
AcDbLine
 10
28.61773503028027
 20
-30.28037922499954
 30
0.0
 11
28.91126977348267
 21
-29.56980520687262
 31
0.0
  0
LINE
  5
CBC
330
74
100
AcDbEntity
  8
0
 62
     0
100
AcDbLine
 10
28.91126977348267
 20
-29.56980520687262
 30
0.0
 11
29.61846010580895
 21
-29.28050007092105
 31
0.0
  0
LINE
  5
CBD
330
74
100
AcDbEntity
  8
0
 62
     0
100
AcDbLine
 10
29.61846010580895
 20
-29.28050007092105
 30
0.0
 11
29.61846010580895
 21
-29.28050007092105
 31
0.0
  0
LINE
  5
CBE
330
74
100
AcDbEntity
  8
0
 62
     0
100
AcDbLine
 10
29.61846010580895
 20
-29.28050007092105
 30
0.0
 11
30.32480451668509
 21
-29.56980520687262
 31
0.0
  0
LINE
  5
CBF
330
74
100
AcDbEntity
  8
0
 62
     0
100
AcDbLine
 10
30.32480451668509
 20
-29.56980520687262
 30
0.0
 11
30.61833925988752
 21
-30.28037922499954
 31
0.0
  0
LINE
  5
CC0
330
74
100
AcDbEntity
  8
0
 62
     0
100
AcDbLine
 10
30.61833925988752
 20
-30.28037922499954
 30
0.0
 11
30.61833925988752
 21
-36.20182937605694
 31
0.0
  0
LINE
  5
CC1
330
74
100
AcDbEntity
  8
0
 62
     0
100
AcDbLine
 10
33.58329394266699
 20
-34.25959372651011
 30
0.0
 11
35.6118135801292
 21
-34.25959372651011
 31
0.0
  0
LINE
  5
CC2
330
74
100
AcDbEntity
  8
0
 62
     0
100
AcDbLine
 10
33.62051448647364
 20
-36.10877801654033
 30
0.0
 11
33.62051448647364
 21
-30.22962393799043
 31
0.0
  0
LINE
  5
CC3
330
74
100
AcDbEntity
  8
0
 62
     0
100
AcDbLine
 10
33.62051448647364
 20
-30.22962393799043
 30
0.0
 11
33.91404922967604
 21
-29.52327952711437
 31
0.0
  0
LINE
  5
CC4
330
74
100
AcDbEntity
  8
0
 62
     0
100
AcDbLine
 10
33.91404922967604
 20
-29.52327952711437
 30
0.0
 11
34.6212395620023
 21
-29.22974478391195
 31
0.0
  0
LINE
  5
CC5
330
74
100
AcDbEntity
  8
0
 62
     0
100
AcDbLine
 10
34.6212395620023
 20
-29.22974478391195
 30
0.0
 11
34.6212395620023
 21
-29.22974478391195
 31
0.0
  0
LINE
  5
CC6
330
74
100
AcDbEntity
  8
0
 62
     0
100
AcDbLine
 10
34.6212395620023
 20
-29.22974478391195
 30
0.0
 11
35.32758397287845
 21
-29.52327952711437
 31
0.0
  0
LINE
  5
CC7
330
74
100
AcDbEntity
  8
0
 62
     0
100
AcDbLine
 10
35.32758397287845
 20
-29.52327952711437
 30
0.0
 11
35.62111871608087
 21
-30.22962393799043
 31
0.0
  0
LINE
  5
CC8
330
74
100
AcDbEntity
  8
0
 62
     0
100
AcDbLine
 10
35.62111871608087
 20
-30.22962393799043
 30
0.0
 11
35.62111871608087
 21
-36.15445777484847
 31
0.0
  0
LINE
  5
CC9
330
74
100
AcDbEntity
  8
0
 62
     0
100
AcDbLine
 10
38.6089132780144
 20
-34.25959372651011
 30
0.0
 11
40.63743291547663
 21
-34.25959372651011
 31
0.0
  0
LINE
  5
CCA
330
74
100
AcDbEntity
  8
0
 62
     0
100
AcDbLine
 10
38.64613382182105
 20
-36.10877801654033
 30
0.0
 11
38.64613382182105
 21
-30.22962393799043
 31
0.0
  0
LINE
  5
CCB
330
74
100
AcDbEntity
  8
0
 62
     0
100
AcDbLine
 10
38.64613382182105
 20
-30.22962393799043
 30
0.0
 11
38.9354389577727
 21
-29.52327952711437
 31
0.0
  0
LINE
  5
CCC
330
74
100
AcDbEntity
  8
0
 62
     0
100
AcDbLine
 10
38.9354389577727
 20
-29.52327952711437
 30
0.0
 11
39.64178336864885
 21
-29.22974478391195
 31
0.0
  0
LINE
  5
CCD
330
74
100
AcDbEntity
  8
0
 62
     0
100
AcDbLine
 10
39.64178336864885
 20
-29.22974478391195
 30
0.0
 11
39.64178336864885
 21
-29.22974478391195
 31
0.0
  0
LINE
  5
CCE
330
74
100
AcDbEntity
  8
0
 62
     0
100
AcDbLine
 10
39.64178336864885
 20
-29.22974478391195
 30
0.0
 11
40.34897370097513
 21
-29.52327952711437
 31
0.0
  0
LINE
  5
CCF
330
74
100
AcDbEntity
  8
0
 62
     0
100
AcDbLine
 10
40.34897370097513
 20
-29.52327952711437
 30
0.0
 11
40.64250844417755
 21
-30.22962393799043
 31
0.0
  0
LINE
  5
CD0
330
74
100
AcDbEntity
  8
0
 62
     0
100
AcDbLine
 10
40.64250844417755
 20
-30.22962393799043
 30
0.0
 11
40.64250844417755
 21
-36.15445777484847
 31
0.0
  0
LINE
  5
CD1
330
74
100
AcDbEntity
  8
0
 62
     0
100
AcDbLine
 10
-16.29874835340554
 20
39.95140325234189
 30
0.0
 11
-14.27031330808833
 21
39.95140325234189
 31
0.0
  0
LINE
  5
CD2
330
74
100
AcDbEntity
  8
0
 62
     0
100
AcDbLine
 10
-16.26211995461401
 20
41.80058754237211
 30
0.0
 11
-16.26211995461401
 21
35.92143346382221
 31
0.0
  0
LINE
  5
CD3
330
74
100
AcDbEntity
  8
0
 62
     0
100
AcDbLine
 10
-16.26211995461401
 20
35.92143346382221
 30
0.0
 11
-15.96833143497654
 21
35.220164581647
 31
0.0
  0
LINE
  5
CD4
330
74
100
AcDbEntity
  8
0
 62
     0
100
AcDbLine
 10
-15.96833143497654
 20
35.220164581647
 30
0.0
 11
-15.26156406337533
 21
34.92578391699443
 31
0.0
  0
LINE
  5
CD5
330
74
100
AcDbEntity
  8
0
 62
     0
100
AcDbLine
 10
-15.26156406337533
 20
34.92578391699443
 30
0.0
 11
-15.26156406337533
 21
34.92578391699443
 31
0.0
  0
LINE
  5
CD6
330
74
100
AcDbEntity
  8
0
 62
     0
100
AcDbLine
 10
-15.26156406337533
 20
34.92578391699443
 30
0.0
 11
-14.5547120996291
 21
35.220164581647
 31
0.0
  0
LINE
  5
CD7
330
74
100
AcDbEntity
  8
0
 62
     0
100
AcDbLine
 10
-14.5547120996291
 20
35.220164581647
 30
0.0
 11
-14.26100817213667
 21
35.92143346382221
 31
0.0
  0
LINE
  5
CD8
330
74
100
AcDbEntity
  8
0
 62
     0
100
AcDbLine
 10
-14.26100817213667
 20
35.92143346382221
 30
0.0
 11
-14.26100817213667
 21
41.84626730068027
 31
0.0
  0
LINE
  5
CD9
330
74
100
AcDbEntity
  8
0
 62
     0
100
AcDbLine
 10
-11.31923173709134
 20
39.95140325234189
 30
0.0
 11
-9.290542915339088
 21
39.95140325234189
 31
0.0
  0
LINE
  5
CDA
330
74
100
AcDbEntity
  8
0
 62
     0
100
AcDbLine
 10
-11.28251874615479
 20
41.80058754237211
 30
0.0
 11
-11.28251874615479
 21
35.92143346382221
 31
0.0
  0
LINE
  5
CDB
330
74
100
AcDbEntity
  8
0
 62
     0
100
AcDbLine
 10
-11.28251874615479
 20
35.92143346382221
 30
0.0
 11
-10.98881481866235
 21
35.220164581647
 31
0.0
  0
LINE
  5
CDC
330
74
100
AcDbEntity
  8
0
 62
     0
100
AcDbLine
 10
-10.98881481866235
 20
35.220164581647
 30
0.0
 11
-10.28196285491612
 21
34.92578391699443
 31
0.0
  0
LINE
  5
CDD
330
74
100
AcDbEntity
  8
0
 62
     0
100
AcDbLine
 10
-10.28196285491612
 20
34.92578391699443
 30
0.0
 11
-10.28196285491612
 21
34.92578391699443
 31
0.0
  0
LINE
  5
CDE
330
74
100
AcDbEntity
  8
0
 62
     0
100
AcDbLine
 10
-10.28196285491612
 20
34.92578391699443
 30
0.0
 11
-9.575618444039974
 21
35.220164581647
 31
0.0
  0
LINE
  5
CDF
330
74
100
AcDbEntity
  8
0
 62
     0
100
AcDbLine
 10
-9.575618444039974
 20
35.220164581647
 30
0.0
 11
-9.28123777938741
 21
35.92143346382221
 31
0.0
  0
LINE
  5
CE0
330
74
100
AcDbEntity
  8
0
 62
     0
100
AcDbLine
 10
-9.28123777938741
 20
35.92143346382221
 30
0.0
 11
-9.28123777938741
 21
41.84626730068027
 31
0.0
  0
LINE
  5
CE1
330
74
100
AcDbEntity
  8
0
 62
     0
100
AcDbLine
 10
-6.339968897212187
 20
39.95140325234189
 30
0.0
 11
-4.311449259749949
 21
39.95140325234189
 31
0.0
  0
LINE
  5
CE2
330
74
100
AcDbEntity
  8
0
 62
     0
100
AcDbLine
 10
-6.302748353405548
 20
41.80058754237211
 30
0.0
 11
-6.302748353405548
 21
35.92143346382221
 31
0.0
  0
LINE
  5
CE3
330
74
100
AcDbEntity
  8
0
 62
     0
100
AcDbLine
 10
-6.302748353405548
 20
35.92143346382221
 30
0.0
 11
-6.009213610203132
 21
35.220164581647
 31
0.0
  0
LINE
  5
CE4
330
74
100
AcDbEntity
  8
0
 62
     0
100
AcDbLine
 10
-6.009213610203132
 20
35.220164581647
 30
0.0
 11
-5.302869199327004
 21
34.92578391699443
 31
0.0
  0
LINE
  5
CE5
330
74
100
AcDbEntity
  8
0
 62
     0
100
AcDbLine
 10
-5.302869199327004
 20
34.92578391699443
 30
0.0
 11
-5.302869199327004
 21
34.92578391699443
 31
0.0
  0
LINE
  5
CE6
330
74
100
AcDbEntity
  8
0
 62
     0
100
AcDbLine
 10
-5.302869199327004
 20
34.92578391699443
 30
0.0
 11
-4.595678867000728
 21
35.220164581647
 31
0.0
  0
LINE
  5
CE7
330
74
100
AcDbEntity
  8
0
 62
     0
100
AcDbLine
 10
-4.595678867000728
 20
35.220164581647
 30
0.0
 11
-4.302144123798298
 21
35.92143346382221
 31
0.0
  0
LINE
  5
CE8
330
74
100
AcDbEntity
  8
0
 62
     0
100
AcDbLine
 10
-4.302144123798298
 20
35.92143346382221
 30
0.0
 11
-4.302144123798298
 21
41.84626730068027
 31
0.0
  0
LINE
  5
CE9
330
74
100
AcDbEntity
  8
0
 62
     0
100
AcDbLine
 10
-1.360029320172913
 20
39.95140325234189
 30
0.0
 11
0.6684903172893259
 21
39.95140325234189
 31
0.0
  0
LINE
  5
CEA
330
74
100
AcDbEntity
  8
0
 62
     0
100
AcDbLine
 10
-1.323654697816407
 20
41.80058754237211
 30
0.0
 11
-1.323654697816407
 21
35.92143346382221
 31
0.0
  0
LINE
  5
CEB
330
74
100
AcDbEntity
  8
0
 62
     0
100
AcDbLine
 10
-1.323654697816407
 20
35.92143346382221
 30
0.0
 11
-1.030119954614007
 21
35.220164581647
 31
0.0
  0
LINE
  5
CEC
330
74
100
AcDbEntity
  8
0
 62
     0
100
AcDbLine
 10
-1.030119954614007
 20
35.220164581647
 30
0.0
 11
-0.3229296222877309
 21
34.92578391699443
 31
0.0
  0
LINE
  5
CED
330
74
100
AcDbEntity
  8
0
 62
     0
100
AcDbLine
 10
-0.3229296222877309
 20
34.92578391699443
 30
0.0
 11
-0.3229296222877309
 21
34.92578391699443
 31
0.0
  0
LINE
  5
CEE
330
74
100
AcDbEntity
  8
0
 62
     0
100
AcDbLine
 10
-0.3229296222877309
 20
34.92578391699443
 30
0.0
 11
0.3834147885884107
 21
35.220164581647
 31
0.0
  0
LINE
  5
CEF
330
74
100
AcDbEntity
  8
0
 62
     0
100
AcDbLine
 10
0.3834147885884107
 20
35.220164581647
 30
0.0
 11
0.6777954532409752
 21
35.92143346382221
 31
0.0
  0
LINE
  5
CF0
330
74
100
AcDbEntity
  8
0
 62
     0
100
AcDbLine
 10
0.6777954532409752
 20
35.92143346382221
 30
0.0
 11
0.6777954532409752
 21
41.84626730068027
 31
0.0
  0
LINE
  5
CF1
330
74
100
AcDbEntity
  8
0
 62
     0
100
AcDbLine
 10
3.665590015174515
 20
39.95140325234189
 30
0.0
 11
5.69410965263674
 21
39.95140325234189
 31
0.0
  0
LINE
  5
CF2
330
74
100
AcDbEntity
  8
0
 62
     0
100
AcDbLine
 10
3.701964637531006
 20
41.80058754237211
 30
0.0
 11
3.701964637531006
 21
35.92143346382221
 31
0.0
  0
LINE
  5
CF3
330
74
100
AcDbEntity
  8
0
 62
     0
100
AcDbLine
 10
3.701964637531006
 20
35.92143346382221
 30
0.0
 11
3.991269773482683
 21
35.220164581647
 31
0.0
  0
LINE
  5
CF4
330
74
100
AcDbEntity
  8
0
 62
     0
100
AcDbLine
 10
3.991269773482683
 20
35.220164581647
 30
0.0
 11
4.697614184358797
 21
34.92578391699443
 31
0.0
  0
LINE
  5
CF5
330
74
100
AcDbEntity
  8
0
 62
     0
100
AcDbLine
 10
4.697614184358797
 20
34.92578391699443
 30
0.0
 11
4.697614184358797
 21
34.92578391699443
 31
0.0
  0
LINE
  5
CF6
330
74
100
AcDbEntity
  8
0
 62
     0
100
AcDbLine
 10
4.697614184358797
 20
34.92578391699443
 30
0.0
 11
5.404804516685103
 21
35.220164581647
 31
0.0
  0
LINE
  5
CF7
330
74
100
AcDbEntity
  8
0
 62
     0
100
AcDbLine
 10
5.404804516685103
 20
35.220164581647
 30
0.0
 11
5.698339259887503
 21
35.92143346382221
 31
0.0
  0
LINE
  5
CF8
330
74
100
AcDbEntity
  8
0
 62
     0
100
AcDbLine
 10
5.698339259887503
 20
35.92143346382221
 30
0.0
 11
5.698339259887503
 21
41.84626730068027
 31
0.0
  0
LINE
  5
CF9
330
74
100
AcDbEntity
  8
0
 62
     0
100
AcDbLine
 10
8.686133821821043
 20
39.97339721004579
 30
0.0
 11
10.71465345928327
 21
39.97339721004579
 31
0.0
  0
LINE
  5
CFA
330
74
100
AcDbEntity
  8
0
 62
     0
100
AcDbLine
 10
8.722508444177535
 20
41.82850295022699
 30
0.0
 11
8.722508444177535
 21
35.94934887167722
 31
0.0
  0
LINE
  5
CFB
330
74
100
AcDbEntity
  8
0
 62
     0
100
AcDbLine
 10
8.722508444177535
 20
35.94934887167722
 30
0.0
 11
9.016889108830113
 21
35.24215853935095
 31
0.0
  0
LINE
  5
CFC
330
74
100
AcDbEntity
  8
0
 62
     0
100
AcDbLine
 10
9.016889108830113
 20
35.24215853935095
 30
0.0
 11
9.723233519706257
 21
34.94862379614853
 31
0.0
  0
LINE
  5
CFD
330
74
100
AcDbEntity
  8
0
 62
     0
100
AcDbLine
 10
9.723233519706257
 20
34.94862379614853
 30
0.0
 11
9.723233519706257
 21
34.94862379614853
 31
0.0
  0
LINE
  5
CFE
330
74
100
AcDbEntity
  8
0
 62
     0
100
AcDbLine
 10
9.723233519706257
 20
34.94862379614853
 30
0.0
 11
10.43042385203253
 21
35.24215853935095
 31
0.0
  0
LINE
  5
CFF
330
74
100
AcDbEntity
  8
0
 62
     0
100
AcDbLine
 10
10.43042385203253
 20
35.24215853935095
 30
0.0
 11
10.72395859523493
 21
35.94934887167722
 31
0.0
  0
LINE
  5
D00
330
74
100
AcDbEntity
  8
0
 62
     0
100
AcDbLine
 10
10.72395859523493
 20
35.94934887167722
 30
0.0
 11
10.72395859523493
 21
41.8699531012844
 31
0.0
  0
LINE
  5
D01
330
74
100
AcDbEntity
  8
0
 62
     0
100
AcDbLine
 10
13.6246232478029
 20
39.97339721004579
 30
0.0
 11
15.64806735656425
 21
39.97339721004579
 31
0.0
  0
LINE
  5
D02
330
74
100
AcDbEntity
  8
0
 62
     0
100
AcDbLine
 10
13.66099787015942
 20
41.82850295022699
 30
0.0
 11
13.66099787015942
 21
35.94934887167722
 31
0.0
  0
LINE
  5
D03
330
74
100
AcDbEntity
  8
0
 62
     0
100
AcDbLine
 10
13.66099787015942
 20
35.94934887167722
 30
0.0
 11
13.95030300611107
 21
35.24215853935095
 31
0.0
  0
LINE
  5
D04
330
74
100
AcDbEntity
  8
0
 62
     0
100
AcDbLine
 10
13.95030300611107
 20
35.24215853935095
 30
0.0
 11
14.65664741698721
 21
34.94862379614853
 31
0.0
  0
LINE
  5
D05
330
74
100
AcDbEntity
  8
0
 62
     0
100
AcDbLine
 10
14.65664741698721
 20
34.94862379614853
 30
0.0
 11
14.65664741698721
 21
34.94862379614853
 31
0.0
  0
LINE
  5
D06
330
74
100
AcDbEntity
  8
0
 62
     0
100
AcDbLine
 10
14.65664741698721
 20
34.94862379614853
 30
0.0
 11
15.36383774931349
 21
35.24215853935095
 31
0.0
  0
LINE
  5
D07
330
74
100
AcDbEntity
  8
0
 62
     0
100
AcDbLine
 10
15.36383774931349
 20
35.24215853935095
 30
0.0
 11
15.65737249251592
 21
35.94934887167722
 31
0.0
  0
LINE
  5
D08
330
74
100
AcDbEntity
  8
0
 62
     0
100
AcDbLine
 10
15.65737249251592
 20
35.94934887167722
 30
0.0
 11
15.65737249251592
 21
41.8699531012844
 31
0.0
  0
LINE
  5
D09
330
74
100
AcDbEntity
  8
0
 62
     0
100
AcDbLine
 10
18.60371690339204
 20
39.97339721004579
 30
0.0
 11
20.62800693360351
 21
39.97339721004579
 31
0.0
  0
LINE
  5
D0A
330
74
100
AcDbEntity
  8
0
 62
     0
100
AcDbLine
 10
18.64093744719868
 20
41.82850295022699
 30
0.0
 11
18.64093744719868
 21
35.94934887167722
 31
0.0
  0
LINE
  5
D0B
330
74
100
AcDbEntity
  8
0
 62
     0
100
AcDbLine
 10
18.64093744719868
 20
35.94934887167722
 30
0.0
 11
18.92939666170019
 21
35.24215853935095
 31
0.0
  0
LINE
  5
D0C
330
74
100
AcDbEntity
  8
0
 62
     0
100
AcDbLine
 10
18.92939666170019
 20
35.24215853935095
 30
0.0
 11
19.63658699402649
 21
34.94862379614853
 31
0.0
  0
LINE
  5
D0D
330
74
100
AcDbEntity
  8
0
 62
     0
100
AcDbLine
 10
19.63658699402649
 20
34.94862379614853
 30
0.0
 11
19.63658699402649
 21
34.94862379614853
 31
0.0
  0
LINE
  5
D0E
330
74
100
AcDbEntity
  8
0
 62
     0
100
AcDbLine
 10
19.63658699402649
 20
34.94862379614853
 30
0.0
 11
20.34293140490263
 21
35.24215853935095
 31
0.0
  0
LINE
  5
D0F
330
74
100
AcDbEntity
  8
0
 62
     0
100
AcDbLine
 10
20.34293140490263
 20
35.24215853935095
 30
0.0
 11
20.63646614810506
 21
35.94934887167722
 31
0.0
  0
LINE
  5
D10
330
74
100
AcDbEntity
  8
0
 62
     0
100
AcDbLine
 10
20.63646614810506
 20
35.94934887167722
 30
0.0
 11
20.63646614810506
 21
41.8699531012844
 31
0.0
  0
LINE
  5
D11
330
74
100
AcDbEntity
  8
0
 62
     0
100
AcDbLine
 10
23.62426071003857
 20
39.97339721004579
 30
0.0
 11
25.65278034750081
 21
39.97339721004579
 31
0.0
  0
LINE
  5
D12
330
74
100
AcDbEntity
  8
0
 62
     0
100
AcDbLine
 10
23.66148125384521
 20
41.82850295022699
 30
0.0
 11
23.66148125384521
 21
35.94934887167722
 31
0.0
  0
LINE
  5
D13
330
74
100
AcDbEntity
  8
0
 62
     0
100
AcDbLine
 10
23.66148125384521
 20
35.94934887167722
 30
0.0
 11
23.9558619184978
 21
35.24215853935095
 31
0.0
  0
LINE
  5
D14
330
74
100
AcDbEntity
  8
0
 62
     0
100
AcDbLine
 10
23.9558619184978
 20
35.24215853935095
 30
0.0
 11
24.66136040792377
 21
34.94862379614853
 31
0.0
  0
LINE
  5
D15
330
74
100
AcDbEntity
  8
0
 62
     0
100
AcDbLine
 10
24.66136040792377
 20
34.94862379614853
 30
0.0
 11
24.66136040792377
 21
34.94862379614853
 31
0.0
  0
LINE
  5
D16
330
74
100
AcDbEntity
  8
0
 62
     0
100
AcDbLine
 10
24.66136040792377
 20
34.94862379614853
 30
0.0
 11
25.36855074025006
 21
35.24215853935095
 31
0.0
  0
LINE
  5
D17
330
74
100
AcDbEntity
  8
0
 62
     0
100
AcDbLine
 10
25.36855074025006
 20
35.24215853935095
 30
0.0
 11
25.66293140490262
 21
35.94934887167722
 31
0.0
  0
LINE
  5
D18
330
74
100
AcDbEntity
  8
0
 62
     0
100
AcDbLine
 10
25.66293140490262
 20
35.94934887167722
 30
0.0
 11
25.66293140490262
 21
41.8699531012844
 31
0.0
  0
LINE
  5
D19
330
74
100
AcDbEntity
  8
0
 62
     0
100
AcDbLine
 10
28.60420028707785
 20
39.97339721004579
 30
0.0
 11
30.63271992454009
 21
39.97339721004579
 31
0.0
  0
LINE
  5
D1A
330
74
100
AcDbEntity
  8
0
 62
     0
100
AcDbLine
 10
28.64057490943434
 20
41.82850295022699
 30
0.0
 11
28.64057490943434
 21
35.94934887167722
 31
0.0
  0
LINE
  5
D1B
330
74
100
AcDbEntity
  8
0
 62
     0
100
AcDbLine
 10
28.64057490943434
 20
35.94934887167722
 30
0.0
 11
28.93495557408691
 21
35.24215853935095
 31
0.0
  0
LINE
  5
D1C
330
74
100
AcDbEntity
  8
0
 62
     0
100
AcDbLine
 10
28.93495557408691
 20
35.24215853935095
 30
0.0
 11
29.64045406351289
 21
34.94862379614853
 31
0.0
  0
LINE
  5
D1D
330
74
100
AcDbEntity
  8
0
 62
     0
100
AcDbLine
 10
29.64045406351289
 20
34.94862379614853
 30
0.0
 11
29.64045406351289
 21
34.94862379614853
 31
0.0
  0
LINE
  5
D1E
330
74
100
AcDbEntity
  8
0
 62
     0
100
AcDbLine
 10
29.64045406351289
 20
34.94862379614853
 30
0.0
 11
30.34849031728934
 21
35.24215853935095
 31
0.0
  0
LINE
  5
D1F
330
74
100
AcDbEntity
  8
0
 62
     0
100
AcDbLine
 10
30.34849031728934
 20
35.24215853935095
 30
0.0
 11
30.64202506049173
 21
35.94934887167722
 31
0.0
  0
LINE
  5
D20
330
74
100
AcDbEntity
  8
0
 62
     0
100
AcDbLine
 10
30.64202506049173
 20
35.94934887167722
 30
0.0
 11
30.64202506049173
 21
41.8699531012844
 31
0.0
  0
LINE
  5
D21
330
74
100
AcDbEntity
  8
0
 62
     0
100
AcDbLine
 10
33.60613382182104
 20
39.92771745173764
 30
0.0
 11
35.63549938073345
 21
39.92771745173764
 31
0.0
  0
LINE
  5
D22
330
74
100
AcDbEntity
  8
0
 62
     0
100
AcDbLine
 10
33.64335436562769
 20
41.77774766321801
 30
0.0
 11
33.64335436562769
 21
35.89859358466811
 31
0.0
  0
LINE
  5
D23
330
74
100
AcDbEntity
  8
0
 62
     0
100
AcDbLine
 10
33.64335436562769
 20
35.89859358466811
 30
0.0
 11
33.93773503028028
 21
35.19140325234185
 31
0.0
  0
LINE
  5
D24
330
74
100
AcDbEntity
  8
0
 62
     0
100
AcDbLine
 10
33.93773503028028
 20
35.19140325234185
 30
0.0
 11
34.64323351970627
 21
34.89786850913947
 31
0.0
  0
LINE
  5
D25
330
74
100
AcDbEntity
  8
0
 62
     0
100
AcDbLine
 10
34.64323351970627
 20
34.89786850913947
 30
0.0
 11
34.64323351970627
 21
34.89786850913947
 31
0.0
  0
LINE
  5
D26
330
74
100
AcDbEntity
  8
0
 62
     0
100
AcDbLine
 10
34.64323351970627
 20
34.89786850913947
 30
0.0
 11
35.35042385203252
 21
35.19140325234185
 31
0.0
  0
LINE
  5
D27
330
74
100
AcDbEntity
  8
0
 62
     0
100
AcDbLine
 10
35.35042385203252
 20
35.19140325234185
 30
0.0
 11
35.6448045166851
 21
35.89859358466811
 31
0.0
  0
LINE
  5
D28
330
74
100
AcDbEntity
  8
0
 62
     0
100
AcDbLine
 10
35.6448045166851
 20
35.89859358466811
 30
0.0
 11
35.6448045166851
 21
41.82427334297624
 31
0.0
  0
LINE
  5
D29
330
74
100
AcDbEntity
  8
0
 62
     0
100
AcDbLine
 10
38.63259907861865
 20
39.92771745173764
 30
0.0
 11
40.65519726592981
 21
39.92771745173764
 31
0.0
  0
LINE
  5
D2A
330
74
100
AcDbEntity
  8
0
 62
     0
100
AcDbLine
 10
38.66897370097513
 20
41.77774766321801
 30
0.0
 11
38.66897370097513
 21
35.89859358466811
 31
0.0
  0
LINE
  5
D2B
330
74
100
AcDbEntity
  8
0
 62
     0
100
AcDbLine
 10
38.66897370097513
 20
35.89859358466811
 30
0.0
 11
38.95743291547663
 21
35.19140325234185
 31
0.0
  0
LINE
  5
D2C
330
74
100
AcDbEntity
  8
0
 62
     0
100
AcDbLine
 10
38.95743291547663
 20
35.19140325234185
 30
0.0
 11
39.66462324780292
 21
34.89786850913947
 31
0.0
  0
LINE
  5
D2D
330
74
100
AcDbEntity
  8
0
 62
     0
100
AcDbLine
 10
39.66462324780292
 20
34.89786850913947
 30
0.0
 11
39.66462324780292
 21
34.89786850913947
 31
0.0
  0
LINE
  5
D2E
330
74
100
AcDbEntity
  8
0
 62
     0
100
AcDbLine
 10
39.66462324780292
 20
34.89786850913947
 30
0.0
 11
40.37096765867906
 21
35.19140325234185
 31
0.0
  0
LINE
  5
D2F
330
74
100
AcDbEntity
  8
0
 62
     0
100
AcDbLine
 10
40.37096765867906
 20
35.19140325234185
 30
0.0
 11
40.66450240188146
 21
35.89859358466811
 31
0.0
  0
LINE
  5
D30
330
74
100
AcDbEntity
  8
0
 62
     0
100
AcDbLine
 10
40.66450240188146
 20
35.89859358466811
 30
0.0
 11
40.66450240188146
 21
41.82427334297624
 31
0.0
  0
LINE
  5
DC0
330
74
100
AcDbEntity
  8
0
 62
     0
100
AcDbLine
 10
32.19767460731954
 20
-7.181648107174737
 30
0.0
 11
33.94704016623194
 21
-6.824669255211062
 31
0.0
  0
LINE
  5
DC1
330
74
100
AcDbEntity
  8
0
 62
     0
100
AcDbLine
 10
33.94704016623194
 20
-6.824669255211062
 30
0.0
 11
35.3732637311866
 21
-5.860318802038817
 31
0.0
  0
LINE
  5
DC2
330
74
100
AcDbEntity
  8
0
 62
     0
100
AcDbLine
 10
35.3732637311866
 20
-5.860318802038817
 30
0.0
 11
36.33761418435881
 21
-4.432403394183835
 31
0.0
  0
LINE
  5
DC3
330
74
100
AcDbEntity
  8
0
 62
     0
100
AcDbLine
 10
36.33761418435881
 20
-4.432403394183835
 30
0.0
 11
36.69459303632255
 21
-2.684729678171777
 31
0.0
  0
LINE
  5
DC4
330
74
100
AcDbEntity
  8
0
 62
     0
100
AcDbLine
 10
36.69459303632255
 20
-2.684729678171777
 30
0.0
 11
36.33761418435881
 21
-0.9311345120086116
 31
0.0
  0
LINE
  5
DC5
330
74
100
AcDbEntity
  8
0
 62
     0
100
AcDbLine
 10
36.33761418435881
 20
-0.9311345120086116
 30
0.0
 11
35.3732637311866
 21
0.4959349743962207
 31
0.0
  0
LINE
  5
DC6
330
74
100
AcDbEntity
  8
0
 62
     0
100
AcDbLine
 10
35.3732637311866
 20
0.4959349743962207
 30
0.0
 11
33.94704016623194
 21
1.459439506118314
 31
0.0
  0
LINE
  5
DC7
330
74
100
AcDbEntity
  8
0
 62
     0
100
AcDbLine
 10
33.94704016623194
 20
1.459439506118314
 30
0.0
 11
32.19767460731954
 21
1.813034672281446
 31
0.0
  0
LINE
  5
DC8
330
74
100
AcDbEntity
  8
0
 62
     0
100
AcDbLine
 10
32.19767460731954
 20
1.813034672281446
 30
0.0
 11
30.4440794411564
 21
1.459439506118314
 31
0.0
  0
LINE
  5
DC9
330
74
100
AcDbEntity
  8
0
 62
     0
100
AcDbLine
 10
30.4440794411564
 20
1.459439506118314
 30
0.0
 11
29.01700995475156
 21
0.4959349743962207
 31
0.0
  0
LINE
  5
DCA
330
74
100
AcDbEntity
  8
0
 62
     0
100
AcDbLine
 10
29.01700995475156
 20
0.4959349743962207
 30
0.0
 11
28.05350542302952
 21
-0.9311345120086116
 31
0.0
  0
LINE
  5
DCB
330
74
100
AcDbEntity
  8
0
 62
     0
100
AcDbLine
 10
28.05350542302952
 20
-0.9311345120086116
 30
0.0
 11
27.69991025686638
 21
-2.684729678171777
 31
0.0
  0
LINE
  5
DCC
330
74
100
AcDbEntity
  8
0
 62
     0
100
AcDbLine
 10
27.69991025686638
 20
-2.684729678171777
 30
0.0
 11
28.05350542302952
 21
-4.432403394183835
 31
0.0
  0
LINE
  5
DCD
330
74
100
AcDbEntity
  8
0
 62
     0
100
AcDbLine
 10
28.05350542302952
 20
-4.432403394183835
 30
0.0
 11
29.01700995475156
 21
-5.860318802038817
 31
0.0
  0
LINE
  5
DCE
330
74
100
AcDbEntity
  8
0
 62
     0
100
AcDbLine
 10
29.01700995475156
 20
-5.860318802038817
 30
0.0
 11
30.4440794411564
 21
-6.824669255211062
 31
0.0
  0
LINE
  5
DCF
330
74
100
AcDbEntity
  8
0
 62
     0
100
AcDbLine
 10
30.4440794411564
 20
-6.824669255211062
 30
0.0
 11
32.19767460731954
 21
-7.181648107174737
 31
0.0
  0
LINE
  5
DD0
330
74
100
AcDbEntity
  8
0
 62
     0
100
AcDbLine
 10
32.19767460731954
 20
-7.181648107174737
 30
0.0
 11
32.19767460731954
 21
-7.181648107174737
 31
0.0
  0
LINE
  5
DD1
330
74
100
AcDbEntity
  8
0
 62
     0
100
AcDbLine
 10
34.75404922967604
 20
-17.25657257847388
 30
0.0
 11
35.46123956200233
 21
-16.96303783527145
 31
0.0
  0
LINE
  5
DD2
330
74
100
AcDbEntity
  8
0
 62
     0
100
AcDbLine
 10
35.46123956200233
 20
-16.96303783527145
 30
0.0
 11
35.75477430520474
 21
-16.26007711019582
 31
0.0
  0
LINE
  5
DD3
330
74
100
AcDbEntity
  8
0
 62
     0
100
AcDbLine
 10
35.75477430520474
 20
-16.26007711019582
 30
0.0
 11
35.75477430520474
 21
-10.26164810717472
 31
0.0
  0
LINE
  5
DD4
330
74
100
AcDbEntity
  8
0
 62
     0
100
AcDbLine
 10
35.75477430520474
 20
-10.26164810717472
 30
0.0
 11
35.46123956200233
 21
-9.555303696298608
 31
0.0
  0
LINE
  5
DD5
330
74
100
AcDbEntity
  8
0
 62
     0
100
AcDbLine
 10
35.46123956200233
 20
-9.555303696298608
 30
0.0
 11
34.75404922967604
 21
-9.261768953096236
 31
0.0
  0
LINE
  5
DD6
330
74
100
AcDbEntity
  8
0
 62
     0
100
AcDbLine
 10
34.75404922967604
 20
-9.261768953096236
 30
0.0
 11
34.75404922967604
 21
-9.261768953096236
 31
0.0
  0
LINE
  5
DD7
330
74
100
AcDbEntity
  8
0
 62
     0
100
AcDbLine
 10
34.75404922967604
 20
-9.261768953096236
 30
0.0
 11
34.04347521154915
 21
-9.555303696298608
 31
0.0
  0
LINE
  5
DD8
330
74
100
AcDbEntity
  8
0
 62
     0
100
AcDbLine
 10
34.04347521154915
 20
-9.555303696298608
 30
0.0
 11
33.75332415414732
 21
-10.26164810717472
 31
0.0
  0
LINE
  5
DD9
330
74
100
AcDbEntity
  8
0
 62
     0
100
AcDbLine
 10
33.75332415414732
 20
-10.26164810717472
 30
0.0
 11
33.75332415414732
 21
-16.26007711019582
 31
0.0
  0
LINE
  5
DDA
330
74
100
AcDbEntity
  8
0
 62
     0
100
AcDbLine
 10
33.75332415414732
 20
-16.26007711019582
 30
0.0
 11
34.04347521154915
 21
-16.96303783527145
 31
0.0
  0
LINE
  5
DDB
330
74
100
AcDbEntity
  8
0
 62
     0
100
AcDbLine
 10
34.04347521154915
 20
-16.96303783527145
 30
0.0
 11
34.75404922967604
 21
-17.25657257847388
 31
0.0
  0
LINE
  5
DDC
330
74
100
AcDbEntity
  8
0
 62
     0
100
AcDbLine
 10
34.75404922967604
 20
-17.25657257847388
 30
0.0
 11
34.75404922967604
 21
-17.25657257847388
 31
0.0
  0
LINE
  5
DDD
330
74
100
AcDbEntity
  8
0
 62
     0
100
AcDbLine
 10
34.75404922967604
 20
-17.25657257847388
 30
0.0
 11
34.75404922967604
 21
-17.25657257847388
 31
0.0
  0
LINE
  5
DDE
330
74
100
AcDbEntity
  8
0
 62
     0
100
AcDbLine
 10
29.72927581577876
 20
-17.25657257847388
 30
0.0
 11
30.43477430520474
 21
-16.96303783527145
 31
0.0
  0
LINE
  5
DDF
330
74
100
AcDbEntity
  8
0
 62
     0
100
AcDbLine
 10
30.43477430520474
 20
-16.96303783527145
 30
0.0
 11
30.72830904840718
 21
-16.26007711019582
 31
0.0
  0
LINE
  5
DE0
330
74
100
AcDbEntity
  8
0
 62
     0
100
AcDbLine
 10
30.72830904840718
 20
-16.26007711019582
 30
0.0
 11
30.72830904840718
 21
-10.26164810717472
 31
0.0
  0
LINE
  5
DE1
330
74
100
AcDbEntity
  8
0
 62
     0
100
AcDbLine
 10
30.72830904840718
 20
-10.26164810717472
 30
0.0
 11
30.43477430520474
 21
-9.555303696298608
 31
0.0
  0
LINE
  5
DE2
330
74
100
AcDbEntity
  8
0
 62
     0
100
AcDbLine
 10
30.43477430520474
 20
-9.555303696298608
 30
0.0
 11
29.72927581577876
 21
-9.261768953096236
 31
0.0
  0
LINE
  5
DE3
330
74
100
AcDbEntity
  8
0
 62
     0
100
AcDbLine
 10
29.72927581577876
 20
-9.261768953096236
 30
0.0
 11
29.72927581577876
 21
-9.261768953096236
 31
0.0
  0
LINE
  5
DE4
330
74
100
AcDbEntity
  8
0
 62
     0
100
AcDbLine
 10
29.72927581577876
 20
-9.261768953096236
 30
0.0
 11
29.02123956200232
 21
-9.555303696298608
 31
0.0
  0
LINE
  5
DE5
330
74
100
AcDbEntity
  8
0
 62
     0
100
AcDbLine
 10
29.02123956200232
 20
-9.555303696298608
 30
0.0
 11
28.72770481879989
 21
-10.26164810717472
 31
0.0
  0
LINE
  5
DE6
330
74
100
AcDbEntity
  8
0
 62
     0
100
AcDbLine
 10
28.72770481879989
 20
-10.26164810717472
 30
0.0
 11
28.72770481879989
 21
-16.26007711019582
 31
0.0
  0
LINE
  5
DE7
330
74
100
AcDbEntity
  8
0
 62
     0
100
AcDbLine
 10
28.72770481879989
 20
-16.26007711019582
 30
0.0
 11
29.02123956200232
 21
-16.96303783527145
 31
0.0
  0
LINE
  5
DE8
330
74
100
AcDbEntity
  8
0
 62
     0
100
AcDbLine
 10
29.02123956200232
 20
-16.96303783527145
 30
0.0
 11
29.72927581577876
 21
-17.25657257847388
 31
0.0
  0
LINE
  5
DE9
330
74
100
AcDbEntity
  8
0
 62
     0
100
AcDbLine
 10
29.72927581577876
 20
-17.25657257847388
 30
0.0
 11
29.72927581577876
 21
-17.25657257847388
 31
0.0
  0
LINE
  5
DEA
330
74
100
AcDbEntity
  8
0
 62
     0
100
AcDbLine
 10
29.72927581577876
 20
-17.25657257847388
 30
0.0
 11
29.72927581577876
 21
-17.25657257847388
 31
0.0
  0
LINE
  5
DEB
330
74
100
AcDbEntity
  8
0
 62
     0
100
AcDbLine
 10
39.687463126957
 20
-17.32001668723517
 30
0.0
 11
40.39465345928329
 21
-17.02648194403275
 31
0.0
  0
LINE
  5
DEC
330
74
100
AcDbEntity
  8
0
 62
     0
100
AcDbLine
 10
40.39465345928329
 20
-17.02648194403275
 30
0.0
 11
40.68818820248572
 21
-16.32013753315664
 31
0.0
  0
LINE
  5
DED
330
74
100
AcDbEntity
  8
0
 62
     0
100
AcDbLine
 10
40.68818820248572
 20
-16.32013753315664
 30
0.0
 11
40.68818820248572
 21
-0.3296843609512052
 31
0.0
  0
LINE
  5
DEE
330
74
100
AcDbEntity
  8
0
 62
     0
100
AcDbLine
 10
40.68818820248572
 20
-0.3296843609512052
 30
0.0
 11
40.39465345928329
 21
0.3758141284748149
 31
0.0
  0
LINE
  5
DEF
330
74
100
AcDbEntity
  8
0
 62
     0
100
AcDbLine
 10
40.39465345928329
 20
0.3758141284748149
 30
0.0
 11
39.687463126957
 21
0.6701947931273367
 31
0.0
  0
LINE
  5
DF0
330
74
100
AcDbEntity
  8
0
 62
     0
100
AcDbLine
 10
39.687463126957
 20
0.6701947931273367
 30
0.0
 11
39.687463126957
 21
0.6701947931273367
 31
0.0
  0
LINE
  5
DF1
330
74
100
AcDbEntity
  8
0
 62
     0
100
AcDbLine
 10
39.687463126957
 20
0.6701947931273367
 30
0.0
 11
38.98111871608087
 21
0.3758141284748149
 31
0.0
  0
LINE
  5
DF2
330
74
100
AcDbEntity
  8
0
 62
     0
100
AcDbLine
 10
38.98111871608087
 20
0.3758141284748149
 30
0.0
 11
38.68758397287847
 21
-0.3296843609512052
 31
0.0
  0
LINE
  5
DF3
330
74
100
AcDbEntity
  8
0
 62
     0
100
AcDbLine
 10
38.68758397287847
 20
-0.3296843609512052
 30
0.0
 11
38.68758397287847
 21
-16.32013753315664
 31
0.0
  0
LINE
  5
DF4
330
74
100
AcDbEntity
  8
0
 62
     0
100
AcDbLine
 10
38.68758397287847
 20
-16.32013753315664
 30
0.0
 11
38.98111871608087
 21
-17.02648194403275
 31
0.0
  0
LINE
  5
DF5
330
74
100
AcDbEntity
  8
0
 62
     0
100
AcDbLine
 10
38.98111871608087
 20
-17.02648194403275
 30
0.0
 11
39.687463126957
 21
-17.32001668723517
 31
0.0
  0
LINE
  5
DF6
330
74
100
AcDbEntity
  8
0
 62
     0
100
AcDbLine
 10
39.687463126957
 20
-17.32001668723517
 30
0.0
 11
39.687463126957
 21
-17.32001668723517
 31
0.0
  0
LINE
  5
DF7
330
74
100
AcDbEntity
  8
0
 62
     0
100
AcDbLine
 10
39.687463126957
 20
-17.32001668723517
 30
0.0
 11
39.687463126957
 21
-17.32001668723517
 31
0.0
  0
LINE
  5
DF8
330
74
100
AcDbEntity
  8
0
 62
     0
100
AcDbLine
 10
24.70281055898117
 20
-17.22865717061881
 30
0.0
 11
25.41000089130745
 21
-16.93427650596635
 31
0.0
  0
LINE
  5
DF9
330
74
100
AcDbEntity
  8
0
 62
     0
100
AcDbLine
 10
25.41000089130745
 20
-16.93427650596635
 30
0.0
 11
25.70353563450988
 21
-16.23216170234092
 31
0.0
  0
LINE
  5
DFA
330
74
100
AcDbEntity
  8
0
 62
     0
100
AcDbLine
 10
25.70353563450988
 20
-16.23216170234092
 30
0.0
 11
25.70353563450988
 21
-0.2425544515856473
 31
0.0
  0
LINE
  5
DFB
330
74
100
AcDbEntity
  8
0
 62
     0
100
AcDbLine
 10
25.70353563450988
 20
-0.2425544515856473
 30
0.0
 11
25.41000089130745
 21
0.4646358807406729
 31
0.0
  0
LINE
  5
DFC
330
74
100
AcDbEntity
  8
0
 62
     0
100
AcDbLine
 10
25.41000089130745
 20
0.4646358807406729
 30
0.0
 11
24.70281055898117
 21
0.7581706239430446
 31
0.0
  0
LINE
  5
DFD
330
74
100
AcDbEntity
  8
0
 62
     0
100
AcDbLine
 10
24.70281055898117
 20
0.7581706239430446
 30
0.0
 11
24.70281055898117
 21
0.7581706239430446
 31
0.0
  0
LINE
  5
DFE
330
74
100
AcDbEntity
  8
0
 62
     0
100
AcDbLine
 10
24.70281055898117
 20
0.7581706239430446
 30
0.0
 11
23.99646614810503
 21
0.4646358807406729
 31
0.0
  0
LINE
  5
DFF
330
74
100
AcDbEntity
  8
0
 62
     0
100
AcDbLine
 10
23.99646614810503
 20
0.4646358807406729
 30
0.0
 11
23.70800693360353
 21
-0.2425544515856473
 31
0.0
  0
LINE
  5
E00
330
74
100
AcDbEntity
  8
0
 62
     0
100
AcDbLine
 10
23.70800693360353
 20
-0.2425544515856473
 30
0.0
 11
23.70800693360353
 21
-16.23216170234092
 31
0.0
  0
LINE
  5
E01
330
74
100
AcDbEntity
  8
0
 62
     0
100
AcDbLine
 10
23.70800693360353
 20
-16.23216170234092
 30
0.0
 11
23.99646614810503
 21
-16.93427650596635
 31
0.0
  0
LINE
  5
E02
330
74
100
AcDbEntity
  8
0
 62
     0
100
AcDbLine
 10
23.99646614810503
 20
-16.93427650596635
 30
0.0
 11
24.70281055898117
 21
-17.22865717061881
 31
0.0
  0
LINE
  5
E03
330
74
100
AcDbEntity
  8
0
 62
     0
100
AcDbLine
 10
24.70281055898117
 20
-17.22865717061881
 30
0.0
 11
24.70281055898117
 21
-17.22865717061881
 31
0.0
  0
LINE
  5
E04
330
74
100
AcDbEntity
  8
0
 62
     0
100
AcDbLine
 10
24.70281055898117
 20
-17.22865717061881
 30
0.0
 11
24.70281055898117
 21
-17.22865717061881
 31
0.0
  0
LINE
  5
E05
330
74
100
AcDbEntity
  8
0
 62
     0
100
AcDbLine
 10
39.687463126957
 20
4.892188750831336
 30
0.0
 11
40.39465345928329
 21
5.186569415483858
 31
0.0
  0
LINE
  5
E06
330
74
100
AcDbEntity
  8
0
 62
     0
100
AcDbLine
 10
40.39465345928329
 20
5.186569415483858
 30
0.0
 11
40.68818820248572
 21
5.888684219109222
 31
0.0
  0
LINE
  5
E07
330
74
100
AcDbEntity
  8
0
 62
     0
100
AcDbLine
 10
40.68818820248572
 20
5.888684219109222
 30
0.0
 11
40.68818820248572
 21
21.87829146986457
 31
0.0
  0
LINE
  5
E08
330
74
100
AcDbEntity
  8
0
 62
     0
100
AcDbLine
 10
40.68818820248572
 20
21.87829146986457
 30
0.0
 11
40.39465345928329
 21
22.58548180219083
 31
0.0
  0
LINE
  5
E09
330
74
100
AcDbEntity
  8
0
 62
     0
100
AcDbLine
 10
40.39465345928329
 20
22.58548180219083
 30
0.0
 11
39.687463126957
 21
22.8790165453932
 31
0.0
  0
LINE
  5
E0A
330
74
100
AcDbEntity
  8
0
 62
     0
100
AcDbLine
 10
39.687463126957
 20
22.8790165453932
 30
0.0
 11
39.687463126957
 21
22.8790165453932
 31
0.0
  0
LINE
  5
E0B
330
74
100
AcDbEntity
  8
0
 62
     0
100
AcDbLine
 10
39.687463126957
 20
22.8790165453932
 30
0.0
 11
38.98111871608087
 21
22.58548180219083
 31
0.0
  0
LINE
  5
E0C
330
74
100
AcDbEntity
  8
0
 62
     0
100
AcDbLine
 10
38.98111871608087
 20
22.58548180219083
 30
0.0
 11
38.68758397287847
 21
21.87829146986457
 31
0.0
  0
LINE
  5
E0D
330
74
100
AcDbEntity
  8
0
 62
     0
100
AcDbLine
 10
38.68758397287847
 20
21.87829146986457
 30
0.0
 11
38.68758397287847
 21
5.888684219109222
 31
0.0
  0
LINE
  5
E0E
330
74
100
AcDbEntity
  8
0
 62
     0
100
AcDbLine
 10
38.68758397287847
 20
5.888684219109222
 30
0.0
 11
38.98111871608087
 21
5.186569415483858
 31
0.0
  0
LINE
  5
E0F
330
74
100
AcDbEntity
  8
0
 62
     0
100
AcDbLine
 10
38.98111871608087
 20
5.186569415483858
 30
0.0
 11
39.687463126957
 21
4.892188750831336
 31
0.0
  0
LINE
  5
E10
330
74
100
AcDbEntity
  8
0
 62
     0
100
AcDbLine
 10
39.687463126957
 20
4.892188750831336
 30
0.0
 11
39.687463126957
 21
4.892188750831336
 31
0.0
  0
LINE
  5
E11
330
74
100
AcDbEntity
  8
0
 62
     0
100
AcDbLine
 10
39.687463126957
 20
4.892188750831336
 30
0.0
 11
39.687463126957
 21
4.892188750831336
 31
0.0
  0
LINE
  5
E12
330
74
100
AcDbEntity
  8
0
 62
     0
100
AcDbLine
 10
34.66691932031046
 20
4.892188750831336
 30
0.0
 11
35.36818820248571
 21
5.186569415483858
 31
0.0
  0
LINE
  5
E13
330
74
100
AcDbEntity
  8
0
 62
     0
100
AcDbLine
 10
35.36818820248571
 20
5.186569415483858
 30
0.0
 11
35.66172294568814
 21
5.888684219109222
 31
0.0
  0
LINE
  5
E14
330
74
100
AcDbEntity
  8
0
 62
     0
100
AcDbLine
 10
35.66172294568814
 20
5.888684219109222
 30
0.0
 11
35.66172294568814
 21
21.87829146986457
 31
0.0
  0
LINE
  5
E15
330
74
100
AcDbEntity
  8
0
 62
     0
100
AcDbLine
 10
35.66172294568814
 20
21.87829146986457
 30
0.0
 11
35.36818820248571
 21
22.58548180219083
 31
0.0
  0
LINE
  5
E16
330
74
100
AcDbEntity
  8
0
 62
     0
100
AcDbLine
 10
35.36818820248571
 20
22.58548180219083
 30
0.0
 11
34.66691932031046
 21
22.8790165453932
 31
0.0
  0
LINE
  5
E17
330
74
100
AcDbEntity
  8
0
 62
     0
100
AcDbLine
 10
34.66691932031046
 20
22.8790165453932
 30
0.0
 11
34.66691932031046
 21
22.8790165453932
 31
0.0
  0
LINE
  5
E18
330
74
100
AcDbEntity
  8
0
 62
     0
100
AcDbLine
 10
34.66691932031046
 20
22.8790165453932
 30
0.0
 11
33.95465345928329
 21
22.58548180219083
 31
0.0
  0
LINE
  5
E19
330
74
100
AcDbEntity
  8
0
 62
     0
100
AcDbLine
 10
33.95465345928329
 20
22.58548180219083
 30
0.0
 11
33.66619424478179
 21
21.87829146986457
 31
0.0
  0
LINE
  5
E1A
330
74
100
AcDbEntity
  8
0
 62
     0
100
AcDbLine
 10
33.66619424478179
 20
21.87829146986457
 30
0.0
 11
33.66619424478179
 21
5.888684219109222
 31
0.0
  0
LINE
  5
E1B
330
74
100
AcDbEntity
  8
0
 62
     0
100
AcDbLine
 10
33.66619424478179
 20
5.888684219109222
 30
0.0
 11
33.95465345928329
 21
5.186569415483858
 31
0.0
  0
LINE
  5
E1C
330
74
100
AcDbEntity
  8
0
 62
     0
100
AcDbLine
 10
33.95465345928329
 20
5.186569415483858
 30
0.0
 11
34.66691932031046
 21
4.892188750831336
 31
0.0
  0
LINE
  5
E1D
330
74
100
AcDbEntity
  8
0
 62
     0
100
AcDbLine
 10
34.66691932031046
 20
4.892188750831336
 30
0.0
 11
34.66691932031046
 21
4.892188750831336
 31
0.0
  0
LINE
  5
E1E
330
74
100
AcDbEntity
  8
0
 62
     0
100
AcDbLine
 10
34.66691932031046
 20
4.892188750831336
 30
0.0
 11
34.66691932031046
 21
4.892188750831336
 31
0.0
  0
LINE
  5
E1F
330
74
100
AcDbEntity
  8
0
 62
     0
100
AcDbLine
 10
29.72927581577876
 20
4.892188750831336
 30
0.0
 11
30.43477430520474
 21
5.186569415483858
 31
0.0
  0
LINE
  5
E20
330
74
100
AcDbEntity
  8
0
 62
     0
100
AcDbLine
 10
30.43477430520474
 20
5.186569415483858
 30
0.0
 11
30.72830904840718
 21
5.888684219109222
 31
0.0
  0
LINE
  5
E21
330
74
100
AcDbEntity
  8
0
 62
     0
100
AcDbLine
 10
30.72830904840718
 20
5.888684219109222
 30
0.0
 11
30.72830904840718
 21
21.87829146986457
 31
0.0
  0
LINE
  5
E22
330
74
100
AcDbEntity
  8
0
 62
     0
100
AcDbLine
 10
30.72830904840718
 20
21.87829146986457
 30
0.0
 11
30.43477430520474
 21
22.58548180219083
 31
0.0
  0
LINE
  5
E23
330
74
100
AcDbEntity
  8
0
 62
     0
100
AcDbLine
 10
30.43477430520474
 20
22.58548180219083
 30
0.0
 11
29.72927581577876
 21
22.8790165453932
 31
0.0
  0
LINE
  5
E24
330
74
100
AcDbEntity
  8
0
 62
     0
100
AcDbLine
 10
29.72927581577876
 20
22.8790165453932
 30
0.0
 11
29.72927581577876
 21
22.8790165453932
 31
0.0
  0
LINE
  5
E25
330
74
100
AcDbEntity
  8
0
 62
     0
100
AcDbLine
 10
29.72927581577876
 20
22.8790165453932
 30
0.0
 11
29.02123956200232
 21
22.58548180219083
 31
0.0
  0
LINE
  5
E26
330
74
100
AcDbEntity
  8
0
 62
     0
100
AcDbLine
 10
29.02123956200232
 20
22.58548180219083
 30
0.0
 11
28.72770481879989
 21
21.87829146986457
 31
0.0
  0
LINE
  5
E27
330
74
100
AcDbEntity
  8
0
 62
     0
100
AcDbLine
 10
28.72770481879989
 20
21.87829146986457
 30
0.0
 11
28.72770481879989
 21
5.888684219109222
 31
0.0
  0
LINE
  5
E28
330
74
100
AcDbEntity
  8
0
 62
     0
100
AcDbLine
 10
28.72770481879989
 20
5.888684219109222
 30
0.0
 11
29.02123956200232
 21
5.186569415483858
 31
0.0
  0
LINE
  5
E29
330
74
100
AcDbEntity
  8
0
 62
     0
100
AcDbLine
 10
29.02123956200232
 20
5.186569415483858
 30
0.0
 11
29.72927581577876
 21
4.892188750831336
 31
0.0
  0
LINE
  5
E2A
330
74
100
AcDbEntity
  8
0
 62
     0
100
AcDbLine
 10
29.72927581577876
 20
4.892188750831336
 30
0.0
 11
29.72927581577876
 21
4.892188750831336
 31
0.0
  0
LINE
  5
E2B
330
74
100
AcDbEntity
  8
0
 62
     0
100
AcDbLine
 10
29.72927581577876
 20
4.892188750831336
 30
0.0
 11
29.72927581577876
 21
4.892188750831336
 31
0.0
  0
LINE
  5
E2C
330
74
100
AcDbEntity
  8
0
 62
     0
100
AcDbLine
 10
24.64782566472135
 20
4.887959143580586
 30
0.0
 11
25.35501599704763
 21
5.181493886782958
 31
0.0
  0
LINE
  5
E2D
330
74
100
AcDbEntity
  8
0
 62
     0
100
AcDbLine
 10
25.35501599704763
 20
5.181493886782958
 30
0.0
 11
25.64855074025004
 21
5.888684219109222
 31
0.0
  0
LINE
  5
E2E
330
74
100
AcDbEntity
  8
0
 62
     0
100
AcDbLine
 10
25.64855074025004
 20
5.888684219109222
 30
0.0
 11
25.64855074025004
 21
21.87321594116355
 31
0.0
  0
LINE
  5
E2F
330
74
100
AcDbEntity
  8
0
 62
     0
100
AcDbLine
 10
25.64855074025004
 20
21.87321594116355
 30
0.0
 11
25.35501599704763
 21
22.58548180219083
 31
0.0
  0
LINE
  5
E30
330
74
100
AcDbEntity
  8
0
 62
     0
100
AcDbLine
 10
25.35501599704763
 20
22.58548180219083
 30
0.0
 11
24.64782566472135
 21
22.8739410166923
 31
0.0
  0
LINE
  5
E31
330
74
100
AcDbEntity
  8
0
 62
     0
100
AcDbLine
 10
24.64782566472135
 20
22.8739410166923
 30
0.0
 11
24.64782566472135
 21
22.8739410166923
 31
0.0
  0
LINE
  5
E32
330
74
100
AcDbEntity
  8
0
 62
     0
100
AcDbLine
 10
24.64782566472135
 20
22.8739410166923
 30
0.0
 11
23.94148125384521
 21
22.58548180219083
 31
0.0
  0
LINE
  5
E33
330
74
100
AcDbEntity
  8
0
 62
     0
100
AcDbLine
 10
23.94148125384521
 20
22.58548180219083
 30
0.0
 11
23.6479465106428
 21
21.87321594116355
 31
0.0
  0
LINE
  5
E34
330
74
100
AcDbEntity
  8
0
 62
     0
100
AcDbLine
 10
23.6479465106428
 20
21.87321594116355
 30
0.0
 11
23.6479465106428
 21
5.888684219109222
 31
0.0
  0
LINE
  5
E35
330
74
100
AcDbEntity
  8
0
 62
     0
100
AcDbLine
 10
23.6479465106428
 20
5.888684219109222
 30
0.0
 11
23.94148125384521
 21
5.181493886782958
 31
0.0
  0
LINE
  5
E36
330
74
100
AcDbEntity
  8
0
 62
     0
100
AcDbLine
 10
23.94148125384521
 20
5.181493886782958
 30
0.0
 11
24.64782566472135
 21
4.887959143580586
 31
0.0
  0
LINE
  5
E37
330
74
100
AcDbEntity
  8
0
 62
     0
100
AcDbLine
 10
24.64782566472135
 20
4.887959143580586
 30
0.0
 11
24.64782566472135
 21
4.887959143580586
 31
0.0
  0
LINE
  5
E38
330
74
100
AcDbEntity
  8
0
 62
     0
100
AcDbLine
 10
24.64782566472135
 20
4.887959143580586
 30
0.0
 11
24.64782566472135
 21
4.887959143580586
 31
0.0
  0
LINE
  5
E39
330
74
100
AcDbEntity
  8
0
 62
     0
100
AcDbLine
 10
47.43018216018962
 20
41.40131261790076
 30
0.0
 11
46.43030300611109
 21
41.80989267832382
 31
0.0
  0
LINE
  5
E3A
330
74
100
AcDbEntity
  8
0
 62
     0
100
AcDbLine
 10
46.43030300611109
 20
41.80989267832382
 30
0.0
 11
-21.52146738663816
 21
41.80989267832382
 31
0.0
  0
LINE
  5
E3B
330
74
100
AcDbEntity
  8
0
 62
     0
100
AcDbLine
 10
-21.52146738663816
 20
41.80989267832382
 30
0.0
 11
-22.51745530204602
 21
41.40131261790076
 31
0.0
  0
LINE
  5
E3C
330
74
100
AcDbEntity
  8
0
 62
     0
100
AcDbLine
 10
-22.51745530204602
 20
-35.68243360566419
 30
0.0
 11
-21.52146738663816
 21
-36.08678405883637
 31
0.0
  0
LINE
  5
E3D
330
74
100
AcDbEntity
  8
0
 62
     0
100
AcDbLine
 10
-21.52146738663816
 20
-36.08678405883637
 30
0.0
 11
46.43030300611109
 21
-36.08678405883637
 31
0.0
  0
LINE
  5
E3E
330
74
100
AcDbEntity
  8
0
 62
     0
100
AcDbLine
 10
46.43030300611109
 20
-36.08678405883637
 30
0.0
 11
47.43018216018962
 21
-35.68243360566419
 31
0.0
  0
LINE
  5
E3F
330
74
100
AcDbEntity
  8
0
 62
     0
100
AcDbLine
 10
-20.3282951812001
 20
22.96107092605792
 30
0.0
 11
19.50800693360351
 21
22.96107092605792
 31
0.0
  0
LINE
  5
E40
330
74
100
AcDbEntity
  8
0
 62
     0
100
AcDbLine
 10
19.50800693360351
 20
22.96107092605792
 30
0.0
 11
19.50800693360351
 21
-17.22358164191791
 31
0.0
  0
LINE
  5
E41
330
74
100
AcDbEntity
  8
0
 62
     0
100
AcDbLine
 10
19.50800693360351
 20
-17.22358164191791
 30
0.0
 11
-20.3282951812001
 21
-17.22358164191791
 31
0.0
  0
LINE
  5
E42
330
74
100
AcDbEntity
  8
0
 62
     0
100
AcDbLine
 10
-20.3282951812001
 20
-17.22358164191791
 30
0.0
 11
-20.3282951812001
 21
22.96107092605792
 31
0.0
  0
LINE
  5
E43
330
74
100
AcDbEntity
  8
0
 62
     0
100
AcDbLine
 10
-20.3282951812001
 20
22.96107092605792
 30
0.0
 11
-20.3282951812001
 21
22.96107092605792
 31
0.0
  0
LINE
  5
E44
330
74
100
AcDbEntity
  8
0
 62
     0
100
AcDbLine
 10
46.43030300611109
 20
-19.10575686850399
 30
0.0
 11
47.43018216018962
 21
-18.70140641533186
 31
0.0
  0
LINE
  5
E45
330
74
100
AcDbEntity
  8
0
 62
     0
100
AcDbLine
 10
47.43018216018962
 20
-18.70140641533186
 30
0.0
 11
47.43018216018962
 21
24.4388956994718
 31
0.0
  0
LINE
  5
E46
330
74
100
AcDbEntity
  8
0
 62
     0
100
AcDbLine
 10
47.43018216018962
 20
24.4388956994718
 30
0.0
 11
46.43030300611109
 21
24.84324615264404
 31
0.0
  0
LINE
  5
E47
330
74
100
AcDbEntity
  8
0
 62
     0
100
AcDbLine
 10
46.43030300611109
 20
24.84324615264404
 30
0.0
 11
-21.52146738663816
 21
24.84324615264404
 31
0.0
  0
LINE
  5
E48
330
74
100
AcDbEntity
  8
0
 62
     0
100
AcDbLine
 10
-21.52146738663816
 20
24.84324615264404
 30
0.0
 11
-22.51745530204602
 21
24.4388956994718
 31
0.0
  0
LINE
  5
E49
330
74
100
AcDbEntity
  8
0
 62
     0
100
AcDbLine
 10
-22.51745530204602
 20
24.4388956994718
 30
0.0
 11
-22.51745530204602
 21
-18.70140641533186
 31
0.0
  0
LINE
  5
E4A
330
74
100
AcDbEntity
  8
0
 62
     0
100
AcDbLine
 10
-22.51745530204602
 20
-18.70140641533186
 30
0.0
 11
-21.52146738663816
 21
-19.10575686850399
 31
0.0
  0
LINE
  5
E4B
330
74
100
AcDbEntity
  8
0
 62
     0
100
AcDbLine
 10
-21.52146738663816
 20
-19.10575686850399
 30
0.0
 11
46.43030300611109
 21
-19.10575686850399
 31
0.0
  0
LINE
  5
E4C
330
74
100
AcDbEntity
  8
0
 62
     0
100
AcDbLine
 10
46.43030300611109
 20
-19.10575686850399
 30
0.0
 11
46.43030300611109
 21
-19.10575686850399
 31
0.0
  0
LINE
  5
E4D
330
74
100
AcDbEntity
  8
0
 62
     0
100
AcDbLine
 10
46.43030300611109
 20
-51.0934305845161
 30
0.0
 11
47.13580149553703
 21
-50.79989584131374
 31
0.0
  0
LINE
  5
E4E
330
74
100
AcDbEntity
  8
0
 62
     0
100
AcDbLine
 10
47.13580149553703
 20
-50.79989584131374
 30
0.0
 11
47.43018216018962
 21
-50.09355143043761
 31
0.0
  0
LINE
  5
E4F
330
74
100
AcDbEntity
  8
0
 62
     0
100
AcDbLine
 10
47.43018216018962
 20
-50.09355143043761
 30
0.0
 11
47.43018216018962
 21
55.8310407145775
 31
0.0
  0
LINE
  5
E50
330
74
100
AcDbEntity
  8
0
 62
     0
100
AcDbLine
 10
47.43018216018962
 20
55.8310407145775
 30
0.0
 11
47.13580149553703
 21
56.53738512545363
 31
0.0
  0
LINE
  5
E51
330
74
100
AcDbEntity
  8
0
 62
     0
100
AcDbLine
 10
47.13580149553703
 20
56.53738512545363
 30
0.0
 11
46.43030300611109
 21
56.83091986865605
 31
0.0
  0
LINE
  5
E52
330
74
100
AcDbEntity
  8
0
 62
     0
100
AcDbLine
 10
46.43030300611109
 20
56.83091986865605
 30
0.0
 11
-21.52146738663816
 21
56.83091986865605
 31
0.0
  0
LINE
  5
E53
330
74
100
AcDbEntity
  8
0
 62
     0
100
AcDbLine
 10
-21.52146738663816
 20
56.83091986865605
 30
0.0
 11
-22.22831935038441
 21
56.53738512545363
 31
0.0
  0
LINE
  5
E54
330
74
100
AcDbEntity
  8
0
 62
     0
100
AcDbLine
 10
-22.22831935038441
 20
56.53738512545363
 30
0.0
 11
-22.51745530204602
 21
55.8310407145775
 31
0.0
  0
LINE
  5
E55
330
74
100
AcDbEntity
  8
0
 62
     0
100
AcDbLine
 10
-22.51745530204602
 20
55.8310407145775
 30
0.0
 11
-22.51745530204602
 21
-50.09355143043761
 31
0.0
  0
LINE
  5
E56
330
74
100
AcDbEntity
  8
0
 62
     0
100
AcDbLine
 10
-22.51745530204602
 20
-50.09355143043761
 30
0.0
 11
-22.22831935038441
 21
-50.79989584131374
 31
0.0
  0
LINE
  5
E57
330
74
100
AcDbEntity
  8
0
 62
     0
100
AcDbLine
 10
-22.22831935038441
 20
-50.79989584131374
 30
0.0
 11
-21.52146738663816
 21
-51.0934305845161
 31
0.0
  0
LINE
  5
E58
330
74
100
AcDbEntity
  8
0
 62
     0
100
AcDbLine
 10
-21.52146738663816
 20
-51.0934305845161
 30
0.0
 11
46.43030300611109
 21
-51.0934305845161
 31
0.0
  0
LINE
  5
E59
330
74
100
AcDbEntity
  8
0
 62
     0
100
AcDbLine
 10
46.43030300611109
 20
-51.0934305845161
 30
0.0
 11
46.43030300611109
 21
-51.0934305845161
 31
0.0
  0
DIMENSION
  5
F7A
330
74
100
AcDbEntity
  8
0
 62
     1
370
     0
100
AcDbDimension
  2
*D4
 10
-45.36379225800183
 20
-51.0934305845161
 30
-0.0000000000000002
 11
-45.36379225800181
 21
2.86874464206997
 31
-0.0000000000000002
 70
   160
 71
     5
 42
107.9243504531721
  3
Standard
100
AcDbAlignedDimension
 13
-19.91065098038837
 23
56.83091986865605
 33
0.0
 14
-21.52146738663816
 24
-51.0934305845161
 34
0.0
 50
90.0
100
AcDbRotatedDimension
1001
ACAD
1000
DSTYLE
1002
{
1070
    41
1040
10.0
1070
    42
1040
0.625
1070
    43
1040
3.75
1070
    44
1040
1.25
1070
    73
1070
     0
1070
    74
1070
     0
1070
    77
1070
     0
1070
    78
1070
     8
1070
   140
1040
10.0
1070
   141
1040
2.5
1070
   143
1040
0.03937
1070
   147
1040
0.625
1070
   171
1070
     3
1070
   172
1070
     1
1070
   271
1070
     0
1070
   272
1070
     2
1070
   274
1070
     3
1070
   278
1070
    44
1070
   283
1070
     0
1070
   284
1070
     8
1070
   289
1070
     0
1002
}
  0
DIMENSION
  5
F7B
330
74
100
AcDbEntity
  8
0
 62
     1
370
     0
100
AcDbDimension
  2
*D5
 10
47.43018216018962
 20
79.99328680832764
 30
0.0
 11
12.4563634290718
 21
79.99328680832764
 31
0.0
 70
   160
 71
     5
 42
69.94763746223563
  3
Standard
100
AcDbAlignedDimension
 13
-22.51745530204602
 23
55.83104071457751
 33
0.0
 14
47.43018216018962
 24
55.8310407145775
 34
0.0
100
AcDbRotatedDimension
1001
ACAD
1000
DSTYLE
1002
{
1070
    41
1040
10.0
1070
    42
1040
0.625
1070
    43
1040
3.75
1070
    44
1040
1.25
1070
    73
1070
     0
1070
    74
1070
     0
1070
    77
1070
     0
1070
    78
1070
     8
1070
   140
1040
10.0
1070
   141
1040
2.5
1070
   143
1040
0.03937
1070
   147
1040
0.625
1070
   171
1070
     3
1070
   172
1070
     1
1070
   271
1070
     0
1070
   272
1070
     2
1070
   274
1070
     3
1070
   278
1070
    44
1070
   283
1070
     0
1070
   284
1070
     8
1070
   289
1070
     0
1002
}
  0
ENDSEC
  0
SECTION
  2
OBJECTS
  0
DICTIONARY
  5
C
330
0
100
AcDbDictionary
281
     1
  3
ACAD_COLOR
350
6A
  3
ACAD_GROUP
350
D
  3
ACAD_LAYOUT
350
69
  3
ACAD_MATERIAL
350
10
  3
ACAD_MLEADERSTYLE
350
6D
  3
ACAD_MLINESTYLE
350
66
  3
ACAD_PLOTSETTINGS
350
68
  3
ACAD_PLOTSTYLENAME
350
E
  3
ACAD_SCALELIST
350
3A
  3
ACAD_TABLESTYLE
350
6B
  3
ACAD_VISUALSTYLE
350
29
  3
ACDB_RECOMPOSE_DATA
350
F45
  3
AcDbVariableDictionary
350
F3C
  3
DWGPROPS
350
FEC
  0
DICTIONARY
  5
F3A
330
5C
100
AcDbDictionary
280
     1
281
     1
  3
ADSK_XREC_LAYER_RECONCILED
360
F3B
  0
DICTIONARY
  5
C18
330
74
100
AcDbDictionary
280
     1
281
     1
  3
ACAD_SORTENTS
360
C19
  0
DICTIONARY
  5
6A
102
{ACAD_REACTORS
330
C
102
}
330
C
100
AcDbDictionary
281
     1
  0
DICTIONARY
  5
D
102
{ACAD_REACTORS
330
C
102
}
330
C
100
AcDbDictionary
281
     1
  0
DICTIONARY
  5
69
102
{ACAD_REACTORS
330
C
102
}
330
C
100
AcDbDictionary
281
     1
  3
Layout1
350
73
  3
Model
350
77
  0
DICTIONARY
  5
10
102
{ACAD_REACTORS
330
C
102
}
330
C
100
AcDbDictionary
281
     1
  3
ByBlock
350
19
  3
ByLayer
350
11
  3
Global
350
21
  0
DICTIONARY
  5
6D
102
{ACAD_REACTORS
330
C
102
}
330
C
100
AcDbDictionary
281
     1
  3
Standard
350
6E
  0
DICTIONARY
  5
66
102
{ACAD_REACTORS
330
C
102
}
330
C
100
AcDbDictionary
281
     1
  3
Standard
350
67
  0
DICTIONARY
  5
68
102
{ACAD_REACTORS
330
C
102
}
330
C
100
AcDbDictionary
281
     1
  0
ACDBDICTIONARYWDFLT
  5
E
102
{ACAD_REACTORS
330
C
102
}
330
C
100
AcDbDictionary
281
     1
  3
Normal
350
F
100
AcDbDictionaryWithDefault
340
F
  0
DICTIONARY
  5
3A
102
{ACAD_REACTORS
330
C
102
}
330
C
100
AcDbDictionary
281
     1
  3
A0
350
3B
  3
A1
350
3C
  3
A2
350
3D
  3
A3
350
3E
  3
A4
350
3F
  3
A5
350
40
  3
A6
350
41
  3
A7
350
42
  3
A8
350
43
  3
A9
350
44
  3
B0
350
45
  3
B1
350
46
  3
B2
350
47
  3
B3
350
48
  3
B4
350
49
  3
B5
350
4A
  3
B6
350
4B
  3
B7
350
4C
  3
B8
350
4D
  3
B9
350
4E
  3
C0
350
4F
  3
C1
350
50
  3
C2
350
51
  3
C3
350
52
  3
C4
350
53
  3
C5
350
54
  3
C6
350
55
  3
C7
350
56
  3
C8
350
57
  3
C9
350
58
  3
D0
350
59
  3
D1
350
5A
  3
D2
350
5B
  0
DICTIONARY
  5
6B
102
{ACAD_REACTORS
330
C
102
}
330
C
100
AcDbDictionary
281
     1
  3
Standard
350
6C
  0
DICTIONARY
  5
29
102
{ACAD_REACTORS
330
C
102
}
330
C
100
AcDbDictionary
281
     1
  3
2dWireframe
350
2F
  3
3D Hidden
350
31
  3
3dWireframe
350
30
  3
Basic
350
2E
  3
Brighten
350
35
  3
ColorChange
350
39
  3
Conceptual
350
32
  3
Dim
350
34
  3
Facepattern
350
38
  3
Flat
350
2A
  3
FlatWithEdges
350
2B
  3
Gouraud
350
2C
  3
GouraudWithEdges
350
2D
  3
Linepattern
350
37
  3
Realistic
350
33
  3
Thicken
350
36
  0
XRECORD
  5
F45
102
{ACAD_REACTORS
330
C
102
}
330
C
100
AcDbXrecord
280
     1
 90
        1
330
6C
  0
DICTIONARY
  5
F3C
102
{ACAD_REACTORS
330
C
102
}
330
C
100
AcDbDictionary
281
     1
  3
CANNOSCALE
350
F3F
  3
CMLEADERSTYLE
350
F3E
  3
CTABLESTYLE
350
F3D
  3
DIMASSOC
350
F42
  3
INDEXCTL
350
F41
  3
SORTENTS
350
F40
  0
XRECORD
  5
FEC
102
{ACAD_REACTORS
330
C
102
}
330
C
100
AcDbXrecord
280
     1
  1
DWGPROPS COOKIE
  2

  3

  4

  6

  7

  8
FontanaNZ
  9

300
=
301
=
302
=
303
=
304
=
305
=
306
=
307
=
308
=
309
=
 40
0.0019269328703704
 41
2456535.663373172
 42
2456617.667074757
  1

 90
        0
  0
XRECORD
  5
F3B
102
{ACAD_REACTORS
330
F3A
102
}
330
F3A
100
AcDbXrecord
280
     1
290
     1
  0
SORTENTSTABLE
  5
C19
102
{ACAD_REACTORS
330
C18
102
}
330
C18
100
AcDbSortentsTable
330
74
331
E47
  5
CE9
331
E4F
  5
CDB
331
E57
  5
CE3
331
C90
  5
EA8
331
E0A
  5
D26
331
CCD
  5
E65
331
D0C
  5
E24
331
DCB
  5
D6D
331
C98
  5
EA0
331
E12
  5
D14
331
CA0
  5
E98
331
CD5
  5
E5D
331
D14
  5
E1C
331
C61
  5
ECB
331
DD3
  5
D57
331
DDB
  5
D5F
331
E1A
  5
D1C
331
C69
  5
ED3
331
CA8
  5
E90
331
CDD
  5
E55
331
D1C
  5
E14
331
D24
  5
E0C
331
DE3
  5
D4D
331
CE5
  5
E4D
331
E22
  5
D0A
331
C71
  5
EC1
331
CB0
  5
E88
331
E2A
  5
D12
331
D2C
  5
E04
331
DEB
  5
D3B
331
C79
  5
EB9
331
CB8
  5
E80
331
CED
  5
E45
331
E32
  5
D00
331
CF5
  5
E3D
331
CC0
  5
E78
331
C81
  5
EB1
331
C3E
  5
EF2
331
DF3
  5
D43
331
DFB
  5
D31
331
E3A
  5
CF8
331
C89
  5
EA9
331
C46
  5
EFA
331
CFD
  5
E35
331
DC4
  5
D66
331
E03
  5
D39
331
D05
  5
E2D
331
E40
  5
CF0
331
E48
  5
CEA
331
E50
  5
CDC
331
E58
  5
CE4
331
C91
  5
EA1
331
DCC
  5
D6E
331
E0B
  5
D27
331
C99
  5
E99
331
CCE
  5
E66
331
D0D
  5
E25
331
D15
  5
E1D
331
DD4
  5
D58
331
C62
  5
ECC
331
CA1
  5
E91
331
CD6
  5
E5E
331
E13
  5
D15
331
E1B
  5
D1D
331
CDE
  5
E56
331
D1D
  5
E15
331
DDC
  5
D60
331
C6A
  5
ED4
331
CA9
  5
E89
331
E23
  5
D0B
331
CE6
  5
E4E
331
D25
  5
E0D
331
DE4
  5
D4E
331
CB1
  5
E81
331
C72
  5
EBA
331
DEC
  5
D3C
331
E2B
  5
D13
331
C37
  5
EEB
331
C7A
  5
EB2
331
CB9
  5
E79
331
CEE
  5
E46
331
D2D
  5
E05
331
DF4
  5
D44
331
C3F
  5
EF3
331
C82
  5
EAA
331
CC1
  5
E71
331
CF6
  5
E3E
331
E33
  5
D01
331
E3B
  5
CF9
331
DC5
  5
D67
331
DFC
  5
D32
331
C8A
  5
EA2
331
C47
  5
EFB
331
CFE
  5
E36
331
D06
  5
E2E
331
E04
  5
D3A
331
E41
  5
CF1
331
E49
  5
CEB
331
E51
  5
CDD
331
E59
  5
CE5
331
C92
  5
E9A
331
E0C
  5
D28
331
C9A
  5
E92
331
CCF
  5
E67
331
D0E
  5
E26
331
DCD
  5
D6F
331
DD5
  5
D59
331
E14
  5
D16
331
CA2
  5
E8A
331
CD7
  5
E5F
331
D16
  5
E1E
331
C63
  5
ECD
331
DDD
  5
D61
331
E1C
  5
D1E
331
C6B
  5
EC5
331
CAA
  5
E82
331
CDF
  5
E57
331
D1E
  5
E16
331
D26
  5
E0E
331
DE5
  5
D4F
331
CE7
  5
E4F
331
E24
  5
D0C
331
C73
  5
EBB
331
CB2
  5
E7A
331
E2C
  5
CFA
331
CEF
  5
E47
331
D2E
  5
E06
331
C38
  5
EEC
331
DED
  5
D3D
331
C7B
  5
EB3
331
CBA
  5
E72
331
E34
  5
D02
331
CF7
  5
E3F
331
CC2
  5
E6A
331
C83
  5
EAB
331
C40
  5
EF4
331
DF5
  5
D45
331
DFD
  5
D33
331
E3C
  5
CF4
331
C8B
  5
EA3
331
CFF
  5
E37
331
DC6
  5
D68
331
E05
  5
D21
331
D07
  5
E2F
331
E42
  5
CF2
331
E4A
  5
CEC
331
E52
  5
CDE
331
C93
  5
E9B
331
CC8
  5
E70
331
DCE
  5
D70
331
E0D
  5
D29
331
C9B
  5
E93
331
CD0
  5
E68
331
D0F
  5
E27
331
D17
  5
E1F
331
DD6
  5
D5A
331
C64
  5
ECE
331
CA3
  5
E8B
331
CD8
  5
E60
331
E15
  5
D17
331
E1D
  5
D1F
331
CAB
  5
E83
331
CE0
  5
E58
331
D1F
  5
E17
331
C6C
  5
EC6
331
DDE
  5
D48
331
DE6
  5
D50
331
E25
  5
D0D
331
D27
  5
E0F
331
CB3
  5
E7B
331
CE8
  5
E50
331
C74
  5
EBC
331
DEE
  5
D3E
331
E2D
  5
CFB
331
C39
  5
EED
331
C7C
  5
EB4
331
CBB
  5
E73
331
CF0
  5
E48
331
D2F
  5
E07
331
DF6
  5
D46
331
C41
  5
EF5
331
C84
  5
EAC
331
CC3
  5
E6B
331
CF8
  5
E40
331
E35
  5
D03
331
E3D
  5
CF5
331
D00
  5
E38
331
DC7
  5
D69
331
C8C
  5
EA4
331
DFE
  5
D34
331
E06
  5
D22
331
E43
  5
CF3
331
E4B
  5
CED
331
E53
  5
CDF
331
D08
  5
E30
331
C94
  5
E9C
331
CC9
  5
E69
331
E0E
  5
D2A
331
C9C
  5
E94
331
CD1
  5
E61
331
D10
  5
E28
331
DCF
  5
D71
331
DD7
  5
D5B
331
E16
  5
D18
331
CA4
  5
E8C
331
CD9
  5
E59
331
D18
  5
E20
331
C65
  5
ECF
331
DDF
  5
D49
331
E1E
  5
D20
331
C6D
  5
EC7
331
CAC
  5
E84
331
CE1
  5
E51
331
D20
  5
E18
331
DE7
  5
D51
331
E26
  5
D0E
331
D28
  5
E10
331
C75
  5
EBD
331
CB4
  5
E7C
331
CE9
  5
E49
331
E2E
  5
CFC
331
CF1
  5
E41
331
D30
  5
E08
331
CBC
  5
E74
331
C7D
  5
EB5
331
C3A
  5
EEE
331
DEF
  5
D3F
331
DF7
  5
D47
331
E36
  5
D04
331
CF9
  5
E39
331
DC0
  5
D62
331
CC4
  5
E6C
331
C85
  5
EAD
331
C42
  5
EF6
331
DFF
  5
D35
331
C8D
  5
EA5
331
D01
  5
E31
331
E3E
  5
CF6
331
E07
  5
D23
331
E44
  5
CE6
331
E4C
  5
CEE
331
E54
  5
CE0
331
DC8
  5
D6A
331
C95
  5
E9D
331
CCA
  5
E62
331
D09
  5
E29
331
D11
  5
E21
331
DD0
  5
D72
331
C5E
  5
EC8
331
C9D
  5
E95
331
CD2
  5
E5A
331
E0F
  5
D2B
331
D19
  5
E19
331
DD8
  5
D5C
331
C66
  5
ED0
331
CA5
  5
E8D
331
CDA
  5
E52
331
E17
  5
D19
331
E1F
  5
D07
331
CAD
  5
E85
331
CE2
  5
E4A
331
D21
  5
E11
331
C6E
  5
EC2
331
DE0
  5
D4A
331
E27
  5
D0F
331
DE8
  5
D52
331
CB5
  5
E7D
331
CEA
  5
E42
331
D29
  5
E09
331
C76
  5
EBE
331
DF0
  5
D40
331
C3B
  5
EEF
331
C7E
  5
EB6
331
CBD
  5
E75
331
CF2
  5
E3A
331
E2F
  5
CFD
331
DC1
  5
D63
331
DF8
  5
D2E
331
C43
  5
EF7
331
C86
  5
EAE
331
CC5
  5
E6D
331
CFA
  5
E32
331
E37
  5
D05
331
E3F
  5
CEF
331
D02
  5
E2A
331
C8E
  5
EA6
331
E00
  5
D36
331
E45
  5
CE7
331
E4D
  5
CD9
331
E55
  5
CE1
331
E08
  5
D24
331
D0A
  5
E22
331
DC9
  5
D6B
331
C96
  5
E9E
331
CCB
  5
E63
331
E10
  5
D2C
331
C9E
  5
E96
331
CD3
  5
E5B
331
D12
  5
E1A
331
C5F
  5
EC9
331
DD1
  5
D55
331
DD9
  5
D5D
331
E18
  5
D1A
331
C67
  5
ED1
331
CA6
  5
E8E
331
CDB
  5
E53
331
D1A
  5
E12
331
D22
  5
E0A
331
DE1
  5
D4B
331
C6F
  5
EC3
331
CAE
  5
E86
331
CE3
  5
E4B
331
E20
  5
D08
331
D2A
  5
E02
331
DE9
  5
D53
331
C77
  5
EBF
331
CB6
  5
E7E
331
CEB
  5
E43
331
E28
  5
D10
331
E30
  5
CFE
331
CF3
  5
E3B
331
CBE
  5
E76
331
C7F
  5
EB7
331
C3C
  5
EF0
331
DF1
  5
D41
331
DF9
  5
D2F
331
E38
  5
D06
331
C44
  5
EF8
331
CC6
  5
E6E
331
CFB
  5
E33
331
DC2
  5
D64
331
C87
  5
EAF
331
E01
  5
D37
331
C8F
  5
EA7
331
D03
  5
E2B
331
E46
  5
CE8
331
E4E
  5
CDA
331
E56
  5
CE2
331
DCA
  5
D6C
331
E09
  5
D25
331
C97
  5
E9F
331
CCC
  5
E64
331
D0B
  5
E23
331
D13
  5
E1B
331
DD2
  5
D56
331
C60
  5
ECA
331
C9F
  5
E97
331
CD4
  5
E5C
331
E11
  5
D2D
331
E19
  5
D1B
331
D1B
  5
E13
331
DDA
  5
D5E
331
C68
  5
ED2
331
CA7
  5
E8F
331
CDC
  5
E54
331
E21
  5
D09
331
CAF
  5
E87
331
CE4
  5
E4C
331
D23
  5
E0B
331
DE2
  5
D4C
331
C70
  5
EC4
331
DEA
  5
D54
331
E29
  5
D11
331
C78
  5
EC0
331
CB7
  5
E7F
331
CEC
  5
E44
331
D2B
  5
E03
331
DF2
  5
D42
331
C3D
  5
EF1
331
C80
  5
EB8
331
CBF
  5
E77
331
CF4
  5
E3C
331
E31
  5
CFF
331
DC3
  5
D65
331
DFA
  5
D30
331
C45
  5
EF9
331
C88
  5
EB0
331
CC7
  5
E6F
331
CFC
  5
E34
331
E39
  5
CF7
331
D04
  5
E2C
331
E02
  5
D38
  0
LAYOUT
  5
73
102
{ACAD_XDICTIONARY
360
FEE
102
}
102
{ACAD_REACTORS
330
69
102
}
330
69
100
AcDbPlotSettings
  1

  2
\\prn100a\w366
  4

  6

 40
0.0
 41
0.0
 42
0.0
 43
0.0
 44
0.0
 45
0.0
 46
0.0
 47
0.0
 48
0.0
 49
0.0
140
0.0
141
0.0
142
1.0
143
1.0
 70
   688
 72
     0
 73
     0
 74
     5
  7

 75
    16
147
1.0
148
0.0
149
0.0
100
AcDbLayout
  1
Layout1
 70
     1
 71
     1
 10
0.0
 20
0.0
 11
12.0
 21
9.0
 12
0.0
 22
0.0
 32
0.0
 14
1.000000000000000E+20
 24
1.000000000000000E+20
 34
1.000000000000000E+20
 15
-1.000000000000000E+20
 25
-1.000000000000000E+20
 35
-1.000000000000000E+20
146
0.0
 13
0.0
 23
0.0
 33
0.0
 16
1.0
 26
0.0
 36
0.0
 17
0.0
 27
1.0
 37
0.0
 76
     0
330
70
  0
LAYOUT
  5
77
102
{ACAD_XDICTIONARY
360
FF0
102
}
102
{ACAD_REACTORS
330
69
102
}
330
69
100
AcDbPlotSettings
  1

  2
\\prn100a\w366
  4

  6

 40
0.0
 41
0.0
 42
0.0
 43
0.0
 44
0.0
 45
0.0
 46
0.0
 47
0.0
 48
0.0
 49
0.0
140
0.0
141
0.0
142
1.0
143
1.0
 70
  1712
 72
     0
 73
     0
 74
     0
  7

 75
     0
147
1.0
148
0.0
149
0.0
100
AcDbLayout
  1
Model
 70
     1
 71
     0
 10
0.0
 20
0.0
 11
12.0
 21
9.0
 12
0.0
 22
0.0
 32
0.0
 14
0.0
 24
0.0
 34
0.0
 15
0.0
 25
0.0
 35
0.0
146
0.0
 13
0.0
 23
0.0
 33
0.0
 16
1.0
 26
0.0
 36
0.0
 17
0.0
 27
1.0
 37
0.0
 76
     0
330
74
331
79
  0
MATERIAL
  5
19
102
{ACAD_XDICTIONARY
360
1A
102
}
102
{ACAD_REACTORS
330
10
102
}
330
10
100
AcDbMaterial
  1
ByBlock
 72
     0
 43
0.0208333333333333
 43
0.0
 43
0.0
 43
0.0
 43
0.0
 43
0.0208333333333333
 43
0.0
 43
0.0
 43
0.0
 43
0.0
 43
1.0
 43
0.0
 43
0.0
 43
0.0
 43
0.0
 43
1.0
 77
     0
 47
0.0208333333333333
 47
0.0
 47
0.0
 47
0.0
 47
0.0
 47
0.0208333333333333
 47
0.0
 47
0.0
 47
0.0
 47
0.0
 47
1.0
 47
0.0
 47
0.0
 47
0.0
 47
0.0
 47
1.0
171
     0
 49
0.0208333333333333
 49
0.0
 49
0.0
 49
0.0
 49
0.0
 49
0.0208333333333333
 49
0.0
 49
0.0
 49
0.0
 49
0.0
 49
1.0
 49
0.0
 49
0.0
 49
0.0
 49
0.0
 49
1.0
175
     0
142
0.0208333333333333
142
0.0
142
0.0
142
0.0
142
0.0
142
0.0208333333333333
142
0.0
142
0.0
142
0.0
142
0.0
142
1.0
142
0.0
142
0.0
142
0.0
142
0.0
142
1.0
179
     0
144
0.0208333333333333
144
0.0
144
0.0
144
0.0
144
0.0
144
0.0208333333333333
144
0.0
144
0.0
144
0.0
144
0.0
144
1.0
144
0.0
144
0.0
144
0.0
144
0.0
144
1.0
147
0.0208333333333333
147
0.0
147
0.0
147
0.0
147
0.0
147
0.0208333333333333
147
0.0
147
0.0
147
0.0
147
0.0
147
1.0
147
0.0
147
0.0
147
0.0
147
0.0
147
1.0
  0
MATERIAL
  5
11
102
{ACAD_XDICTIONARY
360
12
102
}
102
{ACAD_REACTORS
330
10
102
}
330
10
100
AcDbMaterial
  1
ByLayer
 72
     0
 43
0.0208333333333333
 43
0.0
 43
0.0
 43
0.0
 43
0.0
 43
0.0208333333333333
 43
0.0
 43
0.0
 43
0.0
 43
0.0
 43
1.0
 43
0.0
 43
0.0
 43
0.0
 43
0.0
 43
1.0
 77
     0
 47
0.0208333333333333
 47
0.0
 47
0.0
 47
0.0
 47
0.0
 47
0.0208333333333333
 47
0.0
 47
0.0
 47
0.0
 47
0.0
 47
1.0
 47
0.0
 47
0.0
 47
0.0
 47
0.0
 47
1.0
171
     0
 49
0.0208333333333333
 49
0.0
 49
0.0
 49
0.0
 49
0.0
 49
0.0208333333333333
 49
0.0
 49
0.0
 49
0.0
 49
0.0
 49
1.0
 49
0.0
 49
0.0
 49
0.0
 49
0.0
 49
1.0
175
     0
142
0.0208333333333333
142
0.0
142
0.0
142
0.0
142
0.0
142
0.0208333333333333
142
0.0
142
0.0
142
0.0
142
0.0
142
1.0
142
0.0
142
0.0
142
0.0
142
0.0
142
1.0
179
     0
144
0.0208333333333333
144
0.0
144
0.0
144
0.0
144
0.0
144
0.0208333333333333
144
0.0
144
0.0
144
0.0
144
0.0
144
1.0
144
0.0
144
0.0
144
0.0
144
0.0
144
1.0
147
0.0208333333333333
147
0.0
147
0.0
147
0.0
147
0.0
147
0.0208333333333333
147
0.0
147
0.0
147
0.0
147
0.0
147
1.0
147
0.0
147
0.0
147
0.0
147
0.0
147
1.0
  0
MATERIAL
  5
21
102
{ACAD_XDICTIONARY
360
22
102
}
102
{ACAD_REACTORS
330
10
102
}
330
10
100
AcDbMaterial
  1
Global
 72
     0
 43
0.0208333333333333
 43
0.0
 43
0.0
 43
0.0
 43
0.0
 43
0.0208333333333333
 43
0.0
 43
0.0
 43
0.0
 43
0.0
 43
1.0
 43
0.0
 43
0.0
 43
0.0
 43
0.0
 43
1.0
 77
     0
 47
0.0208333333333333
 47
0.0
 47
0.0
 47
0.0
 47
0.0
 47
0.0208333333333333
 47
0.0
 47
0.0
 47
0.0
 47
0.0
 47
1.0
 47
0.0
 47
0.0
 47
0.0
 47
0.0
 47
1.0
171
     0
 49
0.0208333333333333
 49
0.0
 49
0.0
 49
0.0
 49
0.0
 49
0.0208333333333333
 49
0.0
 49
0.0
 49
0.0
 49
0.0
 49
1.0
 49
0.0
 49
0.0
 49
0.0
 49
0.0
 49
1.0
175
     0
142
0.0208333333333333
142
0.0
142
0.0
142
0.0
142
0.0
142
0.0208333333333333
142
0.0
142
0.0
142
0.0
142
0.0
142
1.0
142
0.0
142
0.0
142
0.0
142
0.0
142
1.0
179
     0
144
0.0208333333333333
144
0.0
144
0.0
144
0.0
144
0.0
144
0.0208333333333333
144
0.0
144
0.0
144
0.0
144
0.0
144
1.0
144
0.0
144
0.0
144
0.0
144
0.0
144
1.0
147
0.0208333333333333
147
0.0
147
0.0
147
0.0
147
0.0
147
0.0208333333333333
147
0.0
147
0.0
147
0.0
147
0.0
147
1.0
147
0.0
147
0.0
147
0.0
147
0.0
147
1.0
  0
MLEADERSTYLE
  5
6E
102
{ACAD_REACTORS
330
6D
102
}
330
6D
100
AcDbMLeaderStyle
170
     2
171
     1
172
     0
 90
        2
 40
0.0
 41
0.0
173
     1
 91
-1056964608
340
62
 92
       -2
290
     1
 42
0.09
291
     1
 43
0.36
  3
Standard
 44
0.18
300

342
5D
174
     1
178
     6
175
     1
176
     0
 93
-1056964608
 45
0.18
292
     0
297
     0
 46
0.18
 94
-1056964608
 47
1.0
 49
1.0
140
1.0
293
     1
141
0.0
294
     1
177
     0
142
1.0
295
     0
296
     0
143
0.125
1001
ACAD_MLEADERVER
1070
     2
  0
MLINESTYLE
  5
67
102
{ACAD_REACTORS
330
66
102
}
330
66
100
AcDbMlineStyle
  2
STANDARD
 70
     0
  3

 62
   256
 51
90.0
 52
90.0
 71
     2
 49
0.5
 62
   256
  6
BYLAYER
 49
-0.5
 62
   256
  6
BYLAYER
  0
ACDBPLACEHOLDER
  5
F
102
{ACAD_REACTORS
330
E
102
}
330
E
  0
SCALE
  5
3B
102
{ACAD_REACTORS
330
3A
102
}
330
3A
100
AcDbScale
 70
     0
300
1:1
140
1.0
141
1.0
290
     1
  0
SCALE
  5
3C
102
{ACAD_REACTORS
330
3A
102
}
330
3A
100
AcDbScale
 70
     0
300
1:2
140
1.0
141
2.0
290
     0
  0
SCALE
  5
3D
102
{ACAD_REACTORS
330
3A
102
}
330
3A
100
AcDbScale
 70
     0
300
1:4
140
1.0
141
4.0
290
     0
  0
SCALE
  5
3E
102
{ACAD_REACTORS
330
3A
102
}
330
3A
100
AcDbScale
 70
     0
300
1:5
140
1.0
141
5.0
290
     0
  0
SCALE
  5
3F
102
{ACAD_REACTORS
330
3A
102
}
330
3A
100
AcDbScale
 70
     0
300
1:8
140
1.0
141
8.0
290
     0
  0
SCALE
  5
40
102
{ACAD_REACTORS
330
3A
102
}
330
3A
100
AcDbScale
 70
     0
300
1:10
140
1.0
141
10.0
290
     0
  0
SCALE
  5
41
102
{ACAD_REACTORS
330
3A
102
}
330
3A
100
AcDbScale
 70
     0
300
1:16
140
1.0
141
16.0
290
     0
  0
SCALE
  5
42
102
{ACAD_REACTORS
330
3A
102
}
330
3A
100
AcDbScale
 70
     0
300
1:20
140
1.0
141
20.0
290
     0
  0
SCALE
  5
43
102
{ACAD_REACTORS
330
3A
102
}
330
3A
100
AcDbScale
 70
     0
300
1:30
140
1.0
141
30.0
290
     0
  0
SCALE
  5
44
102
{ACAD_REACTORS
330
3A
102
}
330
3A
100
AcDbScale
 70
     0
300
1:40
140
1.0
141
40.0
290
     0
  0
SCALE
  5
45
102
{ACAD_REACTORS
330
3A
102
}
330
3A
100
AcDbScale
 70
     0
300
1:50
140
1.0
141
50.0
290
     0
  0
SCALE
  5
46
102
{ACAD_REACTORS
330
3A
102
}
330
3A
100
AcDbScale
 70
     0
300
1:100
140
1.0
141
100.0
290
     0
  0
SCALE
  5
47
102
{ACAD_REACTORS
330
3A
102
}
330
3A
100
AcDbScale
 70
     0
300
2:1
140
2.0
141
1.0
290
     0
  0
SCALE
  5
48
102
{ACAD_REACTORS
330
3A
102
}
330
3A
100
AcDbScale
 70
     0
300
4:1
140
4.0
141
1.0
290
     0
  0
SCALE
  5
49
102
{ACAD_REACTORS
330
3A
102
}
330
3A
100
AcDbScale
 70
     0
300
8:1
140
8.0
141
1.0
290
     0
  0
SCALE
  5
4A
102
{ACAD_REACTORS
330
3A
102
}
330
3A
100
AcDbScale
 70
     0
300
10:1
140
10.0
141
1.0
290
     0
  0
SCALE
  5
4B
102
{ACAD_REACTORS
330
3A
102
}
330
3A
100
AcDbScale
 70
     0
300
100:1
140
100.0
141
1.0
290
     0
  0
SCALE
  5
4C
102
{ACAD_REACTORS
330
3A
102
}
330
3A
100
AcDbScale
 70
     0
300
1/128" = 1'-0"
140
0.0078125
141
12.0
290
     0
  0
SCALE
  5
4D
102
{ACAD_REACTORS
330
3A
102
}
330
3A
100
AcDbScale
 70
     0
300
1/64" = 1'-0"
140
0.015625
141
12.0
290
     0
  0
SCALE
  5
4E
102
{ACAD_REACTORS
330
3A
102
}
330
3A
100
AcDbScale
 70
     0
300
1/32" = 1'-0"
140
0.03125
141
12.0
290
     0
  0
SCALE
  5
4F
102
{ACAD_REACTORS
330
3A
102
}
330
3A
100
AcDbScale
 70
     0
300
1/16" = 1'-0"
140
0.0625
141
12.0
290
     0
  0
SCALE
  5
50
102
{ACAD_REACTORS
330
3A
102
}
330
3A
100
AcDbScale
 70
     0
300
3/32" = 1'-0"
140
0.09375
141
12.0
290
     0
  0
SCALE
  5
51
102
{ACAD_REACTORS
330
3A
102
}
330
3A
100
AcDbScale
 70
     0
300
1/8" = 1'-0"
140
0.125
141
12.0
290
     0
  0
SCALE
  5
52
102
{ACAD_REACTORS
330
3A
102
}
330
3A
100
AcDbScale
 70
     0
300
3/16" = 1'-0"
140
0.1875
141
12.0
290
     0
  0
SCALE
  5
53
102
{ACAD_REACTORS
330
3A
102
}
330
3A
100
AcDbScale
 70
     0
300
1/4" = 1'-0"
140
0.25
141
12.0
290
     0
  0
SCALE
  5
54
102
{ACAD_REACTORS
330
3A
102
}
330
3A
100
AcDbScale
 70
     0
300
3/8" = 1'-0"
140
0.375
141
12.0
290
     0
  0
SCALE
  5
55
102
{ACAD_REACTORS
330
3A
102
}
330
3A
100
AcDbScale
 70
     0
300
1/2" = 1'-0"
140
0.5
141
12.0
290
     0
  0
SCALE
  5
56
102
{ACAD_REACTORS
330
3A
102
}
330
3A
100
AcDbScale
 70
     0
300
3/4" = 1'-0"
140
0.75
141
12.0
290
     0
  0
SCALE
  5
57
102
{ACAD_REACTORS
330
3A
102
}
330
3A
100
AcDbScale
 70
     0
300
1" = 1'-0"
140
1.0
141
12.0
290
     0
  0
SCALE
  5
58
102
{ACAD_REACTORS
330
3A
102
}
330
3A
100
AcDbScale
 70
     0
300
1-1/2" = 1'-0"
140
1.5
141
12.0
290
     0
  0
SCALE
  5
59
102
{ACAD_REACTORS
330
3A
102
}
330
3A
100
AcDbScale
 70
     0
300
3" = 1'-0"
140
3.0
141
12.0
290
     0
  0
SCALE
  5
5A
102
{ACAD_REACTORS
330
3A
102
}
330
3A
100
AcDbScale
 70
     0
300
6" = 1'-0"
140
6.0
141
12.0
290
     0
  0
SCALE
  5
5B
102
{ACAD_REACTORS
330
3A
102
}
330
3A
100
AcDbScale
 70
     0
300
1'-0" = 1'-0"
140
12.0
141
12.0
290
     0
  0
TABLESTYLE
  5
6C
102
{ACAD_XDICTIONARY
360
F43
102
}
102
{ACAD_REACTORS
330
6B
102
}
330
6B
100
AcDbTableStyle
  3
Standard
 70
     0
 71
     0
 40
0.06
 41
0.06
280
     0
281
     0
  7
Standard
140
0.18
170
     2
 62
     0
 63
     7
283
     0
274
    -2
284
     1
 64
     0
275
    -2
285
     1
 65
     0
276
    -2
286
     1
 66
     0
277
    -2
287
     1
 67
     0
278
    -2
288
     1
 68
     0
279
    -2
289
     1
 69
     0
  7
Standard
140
0.25
170
     5
 62
     0
 63
     7
283
     0
274
    -2
284
     1
 64
     0
275
    -2
285
     1
 65
     0
276
    -2
286
     1
 66
     0
277
    -2
287
     1
 67
     0
278
    -2
288
     1
 68
     0
279
    -2
289
     1
 69
     0
  7
Standard
140
0.18
170
     5
 62
     0
 63
     7
283
     0
274
    -2
284
     1
 64
     0
275
    -2
285
     1
 65
     0
276
    -2
286
     1
 66
     0
277
    -2
287
     1
 67
     0
278
    -2
288
     1
 68
     0
279
    -2
289
     1
 69
     0
  0
VISUALSTYLE
  5
2F
102
{ACAD_REACTORS
330
29
102
}
330
29
100
AcDbVisualStyle
  2
2dWireframe
 70
     4
 71
     0
 72
     2
 73
     0
 90
        0
 40
-0.6
 41
-30.0
 62
     5
 63
     7
 74
     1
 91
        4
 64
     7
 65
   257
 75
     1
175
     1
 42
1.0
 92
        0
 66
   257
 43
1.0
 76
     1
 77
     6
 78
     2
 67
     7
 79
     5
170
     0
171
     0
290
     0
174
     0
 93
        1
 44
0.0
173
     0
291
     0
 45
0.0
1001
ACAD
1000
AcDbSavedByObjectVersion
1070
     0
1000
AcDbSavedByObjectVersion
1070
     0
  0
VISUALSTYLE
  5
31
102
{ACAD_REACTORS
330
29
102
}
330
29
100
AcDbVisualStyle
  2
3D Hidden
 70
     6
 71
     1
 72
     2
 73
     2
 90
        0
 40
-0.6
 41
-30.0
 62
     5
 63
     7
 74
     2
 91
        2
 64
     7
 65
   257
 75
     2
175
     1
 42
40.0
 92
        0
 66
   257
 43
1.0
 76
     1
 77
     6
 78
     2
 67
     7
 79
     3
170
     0
171
     0
290
     0
174
     0
 93
        1
 44
0.0
173
     0
291
     0
 45
0.0
1001
ACAD
1000
AcDbSavedByObjectVersion
1070
     0
1000
AcDbSavedByObjectVersion
1070
     0
  0
VISUALSTYLE
  5
30
102
{ACAD_REACTORS
330
29
102
}
330
29
100
AcDbVisualStyle
  2
3dWireframe
 70
     5
 71
     0
 72
     2
 73
     0
 90
        0
 40
-0.6
 41
-30.0
 62
     5
 63
     7
 74
     1
 91
        4
 64
     7
 65
   257
 75
     1
175
     1
 42
1.0
 92
        0
 66
   257
 43
1.0
 76
     1
 77
     6
 78
     2
 67
     7
 79
     5
170
     0
171
     0
290
     0
174
     0
 93
        1
 44
0.0
173
     0
291
     0
 45
0.0
1001
ACAD
1000
AcDbSavedByObjectVersion
1070
     0
1000
AcDbSavedByObjectVersion
1070
     0
  0
VISUALSTYLE
  5
2E
102
{ACAD_REACTORS
330
29
102
}
330
29
100
AcDbVisualStyle
  2
Basic
 70
     7
 71
     1
 72
     0
 73
     1
 90
        0
 40
-0.6
 41
-30.0
 62
     5
 63
     7
 74
     0
 91
        4
 64
     7
 65
   257
 75
     1
175
     1
 42
1.0
 92
        8
 66
     7
 43
1.0
 76
     1
 77
     6
 78
     2
 67
     7
 79
     5
170
     0
171
     0
290
     0
174
     0
 93
        1
 44
0.0
173
     0
291
     1
 45
0.0
1001
ACAD
1000
AcDbSavedByObjectVersion
1070
     0
1000
AcDbSavedByObjectVersion
1070
     0
  0
VISUALSTYLE
  5
35
102
{ACAD_REACTORS
330
29
102
}
330
29
100
AcDbVisualStyle
  2
Brighten
 70
    12
 71
     2
 72
     2
 73
     0
 90
        0
 40
-0.6
 41
-30.0
 62
     5
 63
     7
 74
     1
 91
        4
 64
     7
 65
   257
 75
     1
175
     1
 42
1.0
 92
        8
 66
     7
 43
1.0
 76
     1
 77
     6
 78
     2
 67
     7
 79
     5
170
     0
171
     0
290
     0
174
     0
 93
        1
 44
50.0
173
     0
291
     1
 45
0.0
1001
ACAD
1000
AcDbSavedByObjectVersion
1070
     0
1000
AcDbSavedByObjectVersion
1070
     0
  0
VISUALSTYLE
  5
39
102
{ACAD_REACTORS
330
29
102
}
330
29
100
AcDbVisualStyle
  2
ColorChange
 70
    16
 71
     2
 72
     2
 73
     3
 90
        0
 40
-0.6
 41
-30.0
 62
     5
 63
     8
 74
     1
 91
        4
 64
     7
 65
   257
 75
     1
175
     1
 42
1.0
 92
        8
 66
     8
 43
1.0
 76
     1
 77
     6
 78
     2
 67
     7
 79
     5
170
     0
171
     0
290
     0
174
     0
 93
        1
 44
0.0
173
     0
291
     1
 45
0.0
1001
ACAD
1000
AcDbSavedByObjectVersion
1070
     0
1000
AcDbSavedByObjectVersion
1070
     0
  0
VISUALSTYLE
  5
32
102
{ACAD_REACTORS
330
29
102
}
330
29
100
AcDbVisualStyle
  2
Conceptual
 70
     9
 71
     3
 72
     2
 73
     0
 90
        0
 40
-0.6
 41
-30.0
 62
     5
 63
     7
 74
     2
 91
        2
 64
     7
 65
   257
 75
     1
175
     1
 42
40.0
 92
        8
 66
     7
 43
1.0
 76
     1
 77
     6
 78
     2
 67
     7
 79
     3
170
     0
171
     0
290
     0
174
     0
 93
        1
 44
0.0
173
     0
291
     0
 45
0.0
1001
ACAD
1000
AcDbSavedByObjectVersion
1070
     0
1000
AcDbSavedByObjectVersion
1070
     0
  0
VISUALSTYLE
  5
34
102
{ACAD_REACTORS
330
29
102
}
330
29
100
AcDbVisualStyle
  2
Dim
 70
    11
 71
     2
 72
     2
 73
     0
 90
        0
 40
-0.6
 41
-30.0
 62
     5
 63
     7
 74
     1
 91
        4
 64
     7
 65
   257
 75
     1
175
     1
 42
1.0
 92
        8
 66
     7
 43
1.0
 76
     1
 77
     6
 78
     2
 67
     7
 79
     5
170
     0
171
     0
290
     0
174
     0
 93
        1
 44
-50.0
173
     0
291
     1
 45
0.0
1001
ACAD
1000
AcDbSavedByObjectVersion
1070
     0
1000
AcDbSavedByObjectVersion
1070
     0
  0
VISUALSTYLE
  5
38
102
{ACAD_REACTORS
330
29
102
}
330
29
100
AcDbVisualStyle
  2
Facepattern
 70
    15
 71
     2
 72
     2
 73
     0
 90
        0
 40
-0.6
 41
-30.0
 62
     5
 63
     7
 74
     1
 91
        4
 64
     7
 65
   257
 75
     1
175
     1
 42
1.0
 92
        8
 66
     7
 43
1.0
 76
     1
 77
     6
 78
     2
 67
     7
 79
     5
170
     0
171
     0
290
     0
174
     0
 93
        1
 44
0.0
173
     0
291
     1
 45
0.0
1001
ACAD
1000
AcDbSavedByObjectVersion
1070
     0
1000
AcDbSavedByObjectVersion
1070
     0
  0
VISUALSTYLE
  5
2A
102
{ACAD_REACTORS
330
29
102
}
330
29
100
AcDbVisualStyle
  2
Flat
 70
     0
 71
     2
 72
     1
 73
     1
 90
        2
 40
-0.6
 41
30.0
 62
     5
 63
     7
 74
     0
 91
        4
 64
     7
 65
   257
 75
     1
175
     1
 42
1.0
 92
        8
 66
     7
 43
1.0
 76
     1
 77
     6
 78
     2
 67
     7
 79
     5
170
     0
171
     0
290
     0
174
     0
 93
       13
 44
0.0
173
     0
291
     1
 45
0.0
1001
ACAD
1000
AcDbSavedByObjectVersion
1070
     0
1000
AcDbSavedByObjectVersion
1070
     0
  0
VISUALSTYLE
  5
2B
102
{ACAD_REACTORS
330
29
102
}
330
29
100
AcDbVisualStyle
  2
FlatWithEdges
 70
     1
 71
     2
 72
     1
 73
     1
 90
        2
 40
-0.6
 41
30.0
 62
     5
 63
     7
 74
     1
 91
        4
 64
     7
 65
   257
 75
     1
175
     1
 42
1.0
 92
        0
 66
   257
 43
1.0
 76
     1
 77
     6
 78
     2
 67
     7
 79
     5
170
     0
171
     0
290
     0
174
     0
 93
       13
 44
0.0
173
     0
291
     1
 45
0.0
1001
ACAD
1000
AcDbSavedByObjectVersion
1070
     0
1000
AcDbSavedByObjectVersion
1070
     0
  0
VISUALSTYLE
  5
2C
102
{ACAD_REACTORS
330
29
102
}
330
29
100
AcDbVisualStyle
  2
Gouraud
 70
     2
 71
     2
 72
     2
 73
     1
 90
        2
 40
-0.6
 41
30.0
 62
     5
 63
     7
 74
     0
 91
        4
 64
     7
 65
   257
 75
     1
175
     1
 42
1.0
 92
        0
 66
     7
 43
1.0
 76
     1
 77
     6
 78
     2
 67
     7
 79
     5
170
     0
171
     0
290
     0
174
     0
 93
       13
 44
0.0
173
     0
291
     1
 45
0.0
1001
ACAD
1000
AcDbSavedByObjectVersion
1070
     0
1000
AcDbSavedByObjectVersion
1070
     0
  0
VISUALSTYLE
  5
2D
102
{ACAD_REACTORS
330
29
102
}
330
29
100
AcDbVisualStyle
  2
GouraudWithEdges
 70
     3
 71
     2
 72
     2
 73
     1
 90
        2
 40
-0.6
 41
30.0
 62
     5
 63
     7
 74
     1
 91
        4
 64
     7
 65
   257
 75
     1
175
     1
 42
1.0
 92
        0
 66
   257
 43
1.0
 76
     1
 77
     6
 78
     2
 67
     7
 79
     5
170
     0
171
     0
290
     0
174
     0
 93
       13
 44
0.0
173
     0
291
     1
 45
0.0
1001
ACAD
1000
AcDbSavedByObjectVersion
1070
     0
1000
AcDbSavedByObjectVersion
1070
     0
  0
VISUALSTYLE
  5
37
102
{ACAD_REACTORS
330
29
102
}
330
29
100
AcDbVisualStyle
  2
Linepattern
 70
    14
 71
     2
 72
     2
 73
     0
 90
        0
 40
-0.6
 41
-30.0
 62
     5
 63
     7
 74
     1
 91
        4
 64
     7
 65
   257
 75
     7
175
     7
 42
1.0
 92
        8
 66
     7
 43
1.0
 76
     1
 77
     6
 78
     2
 67
     7
 79
     5
170
     0
171
     0
290
     0
174
     0
 93
        1
 44
0.0
173
     0
291
     1
 45
0.0
1001
ACAD
1000
AcDbSavedByObjectVersion
1070
     0
1000
AcDbSavedByObjectVersion
1070
     0
  0
VISUALSTYLE
  5
33
102
{ACAD_REACTORS
330
29
102
}
330
29
100
AcDbVisualStyle
  2
Realistic
 70
     8
 71
     2
 72
     2
 73
     0
 90
        0
 40
-0.6
 41
-30.0
 62
     5
 63
     7
 74
     1
 91
        0
 64
     7
 65
   257
 75
     1
175
     1
 42
1.0
 92
        8
 66
     8
 43
1.0
 76
     1
 77
     6
 78
     2
 67
     7
 79
     5
170
     0
171
     0
290
     0
174
     0
 93
       13
 44
0.0
173
     0
291
     0
 45
0.0
1001
ACAD
1000
AcDbSavedByObjectVersion
1070
     0
1000
AcDbSavedByObjectVersion
1070
     0
  0
VISUALSTYLE
  5
36
102
{ACAD_REACTORS
330
29
102
}
330
29
100
AcDbVisualStyle
  2
Thicken
 70
    13
 71
     2
 72
     2
 73
     0
 90
        0
 40
-0.6
 41
-30.0
 62
     5
 63
     7
 74
     1
 91
        4
 64
     7
 65
   257
 75
     1
175
     1
 42
1.0
 92
       12
 66
     7
 43
1.0
 76
     1
 77
     6
 78
     2
 67
     7
 79
     5
170
     0
171
     0
290
     0
174
     0
 93
        1
 44
0.0
173
     0
291
     1
 45
0.0
1001
ACAD
1000
AcDbSavedByObjectVersion
1070
     0
1000
AcDbSavedByObjectVersion
1070
     0
  0
DICTIONARYVAR
  5
F3F
102
{ACAD_REACTORS
330
F3C
102
}
330
F3C
100
DictionaryVariables
280
     0
  1
1:1
  0
DICTIONARYVAR
  5
F3E
102
{ACAD_REACTORS
330
F3C
102
}
330
F3C
100
DictionaryVariables
280
     0
  1
STANDARD
  0
DICTIONARYVAR
  5
F3D
102
{ACAD_REACTORS
330
F3C
102
}
330
F3C
100
DictionaryVariables
280
     0
  1
STANDARD
  0
DICTIONARYVAR
  5
F42
102
{ACAD_REACTORS
330
F3C
102
}
330
F3C
100
DictionaryVariables
280
     0
  1
1
  0
DICTIONARYVAR
  5
F41
102
{ACAD_REACTORS
330
F3C
102
}
330
F3C
100
DictionaryVariables
280
     0
  1
0
  0
DICTIONARYVAR
  5
F40
102
{ACAD_REACTORS
330
F3C
102
}
330
F3C
100
DictionaryVariables
280
     0
  1
127
  0
DICTIONARY
  5
FEE
330
73
100
AcDbDictionary
280
     1
281
     1
  3
ACAD_XREC_ROUNDTRIP
360
FEF
  0
DICTIONARY
  5
FF0
330
77
100
AcDbDictionary
280
     1
281
     1
  3
ACAD_XREC_ROUNDTRIP
360
FF1
  0
DICTIONARY
  5
1A
330
19
100
AcDbDictionary
280
     1
281
     1
  3
ACAD_XREC_ROUNDTRIP
360
F48
  3
BUMPTILE
360
1C
  3
DIFFUSETILE
360
1B
  3
OPACITYTILE
360
1F
  3
REFLECTIONTILE
360
1E
  3
REFRACTIONTILE
360
20
  3
SPECULARTILE
360
1D
  0
DICTIONARY
  5
12
330
11
100
AcDbDictionary
280
     1
281
     1
  3
ACAD_XREC_ROUNDTRIP
360
F47
  3
BUMPTILE
360
14
  3
DIFFUSETILE
360
13
  3
OPACITYTILE
360
17
  3
REFLECTIONTILE
360
16
  3
REFRACTIONTILE
360
18
  3
SPECULARTILE
360
15
  0
DICTIONARY
  5
22
330
21
100
AcDbDictionary
280
     1
281
     1
  3
ACAD_XREC_ROUNDTRIP
360
F49
  3
BUMPTILE
360
24
  3
DIFFUSETILE
360
23
  3
OPACITYTILE
360
27
  3
REFLECTIONTILE
360
26
  3
REFRACTIONTILE
360
28
  3
SPECULARTILE
360
25
  0
DICTIONARY
  5
F43
330
6C
100
AcDbDictionary
280
     1
281
     1
  3
ACAD_ROUNDTRIP_2008_TABLESTYLE_CELLSTYLEMAP
360
FEB
  3
ACAD_XREC_ROUNDTRIP
360
FED
  0
XRECORD
  5
FEF
102
{ACAD_REACTORS
330
FEE
102
}
330
FEE
100
AcDbXrecord
280
     1
102
SHADEPLOT
 70
     0
102
SHADEPLOTRESLEVEL
 70
     2
102
SHADEPLOTCUSTOMDPI
 70
   300
  0
XRECORD
  5
FF1
102
{ACAD_REACTORS
330
FF0
102
}
330
FF0
100
AcDbXrecord
280
     1
102
SHADEPLOT
 70
     0
102
SHADEPLOTRESLEVEL
 70
     2
102
SHADEPLOTCUSTOMDPI
 70
   300
  0
XRECORD
  5
F48
102
{ACAD_REACTORS
330
1A
102
}
330
1A
100
AcDbXrecord
280
     1
102
MATERIAL
148
0.0
149
0.0
149
0.0
 93
        0
 94
      127
282
     0
 72
     0
 77
     0
171
     0
175
     0
179
     0
273
     0
  0
XRECORD
  5
1C
102
{ACAD_REACTORS
330
1A
102
}
330
1A
100
AcDbXrecord
280
     1
270
     1
271
     1
  0
XRECORD
  5
1B
102
{ACAD_REACTORS
330
1A
102
}
330
1A
100
AcDbXrecord
280
     1
270
     1
271
     1
  0
XRECORD
  5
1F
102
{ACAD_REACTORS
330
1A
102
}
330
1A
100
AcDbXrecord
280
     1
270
     1
271
     1
  0
XRECORD
  5
1E
102
{ACAD_REACTORS
330
1A
102
}
330
1A
100
AcDbXrecord
280
     1
270
     1
271
     1
  0
XRECORD
  5
20
102
{ACAD_REACTORS
330
1A
102
}
330
1A
100
AcDbXrecord
280
     1
270
     1
271
     1
  0
XRECORD
  5
1D
102
{ACAD_REACTORS
330
1A
102
}
330
1A
100
AcDbXrecord
280
     1
270
     1
271
     1
  0
XRECORD
  5
F47
102
{ACAD_REACTORS
330
12
102
}
330
12
100
AcDbXrecord
280
     1
102
MATERIAL
148
0.0
149
0.0
149
0.0
 93
        0
 94
      127
282
     0
 72
     0
 77
     0
171
     0
175
     0
179
     0
273
     0
  0
XRECORD
  5
14
102
{ACAD_REACTORS
330
12
102
}
330
12
100
AcDbXrecord
280
     1
270
     1
271
     1
  0
XRECORD
  5
13
102
{ACAD_REACTORS
330
12
102
}
330
12
100
AcDbXrecord
280
     1
270
     1
271
     1
  0
XRECORD
  5
17
102
{ACAD_REACTORS
330
12
102
}
330
12
100
AcDbXrecord
280
     1
270
     1
271
     1
  0
XRECORD
  5
16
102
{ACAD_REACTORS
330
12
102
}
330
12
100
AcDbXrecord
280
     1
270
     1
271
     1
  0
XRECORD
  5
18
102
{ACAD_REACTORS
330
12
102
}
330
12
100
AcDbXrecord
280
     1
270
     1
271
     1
  0
XRECORD
  5
15
102
{ACAD_REACTORS
330
12
102
}
330
12
100
AcDbXrecord
280
     1
270
     1
271
     1
  0
XRECORD
  5
F49
102
{ACAD_REACTORS
330
22
102
}
330
22
100
AcDbXrecord
280
     1
102
MATERIAL
148
0.0
149
0.0
149
0.0
 93
        0
 94
      127
282
     0
 72
     0
 77
     0
171
     0
175
     0
179
     0
273
     0
  0
XRECORD
  5
24
102
{ACAD_REACTORS
330
22
102
}
330
22
100
AcDbXrecord
280
     1
270
     1
271
     1
  0
XRECORD
  5
23
102
{ACAD_REACTORS
330
22
102
}
330
22
100
AcDbXrecord
280
     1
270
     1
271
     1
  0
XRECORD
  5
27
102
{ACAD_REACTORS
330
22
102
}
330
22
100
AcDbXrecord
280
     1
270
     1
271
     1
  0
XRECORD
  5
26
102
{ACAD_REACTORS
330
22
102
}
330
22
100
AcDbXrecord
280
     1
270
     1
271
     1
  0
XRECORD
  5
28
102
{ACAD_REACTORS
330
22
102
}
330
22
100
AcDbXrecord
280
     1
270
     1
271
     1
  0
XRECORD
  5
25
102
{ACAD_REACTORS
330
22
102
}
330
22
100
AcDbXrecord
280
     1
270
     1
271
     1
  0
CELLSTYLEMAP
  5
FEB
102
{ACAD_REACTORS
330
F43
102
}
330
F43
100
AcDbCellStyleMap
 90
        3
300
CELLSTYLE
  1
TABLEFORMAT_BEGIN
 90
        5
170
     1
 91
        0
 92
    32768
 62
   257
 93
        1
300
CONTENTFORMAT
  1
CONTENTFORMAT_BEGIN
 90
        0
 91
        0
 92
      512
 93
        0
300

 40
0.0
140
1.0
 94
        5
 62
     0
340
5D
144
0.25
309
CONTENTFORMAT_END
171
     1
301
MARGIN
  1
CELLMARGIN_BEGIN
 40
0.06
 40
0.06
 40
0.06
 40
0.06
 40
0.18
 40
0.18
309
CELLMARGIN_END
 94
        6
 95
        1
302
GRIDFORMAT
  1
GRIDFORMAT_BEGIN
 90
        0
 91
        1
 62
     0
 92
       -2
340
0
 93
        0
 40
0.045
309
GRIDFORMAT_END
 95
        2
302
GRIDFORMAT
  1
GRIDFORMAT_BEGIN
 90
        0
 91
        1
 62
     0
 92
       -2
340
0
 93
        0
 40
0.045
309
GRIDFORMAT_END
 95
        4
302
GRIDFORMAT
  1
GRIDFORMAT_BEGIN
 90
        0
 91
        1
 62
     0
 92
       -2
340
0
 93
        0
 40
0.045
309
GRIDFORMAT_END
 95
        8
302
GRIDFORMAT
  1
GRIDFORMAT_BEGIN
 90
        0
 91
        1
 62
     0
 92
       -2
340
0
 93
        0
 40
0.045
309
GRIDFORMAT_END
 95
       16
302
GRIDFORMAT
  1
GRIDFORMAT_BEGIN
 90
        0
 91
        1
 62
     0
 92
       -2
340
0
 93
        0
 40
0.045
309
GRIDFORMAT_END
 95
       32
302
GRIDFORMAT
  1
GRIDFORMAT_BEGIN
 90
        0
 91
        1
 62
     0
 92
       -2
340
0
 93
        0
 40
0.045
309
GRIDFORMAT_END
309
TABLEFORMAT_END
  1
CELLSTYLE_BEGIN
 90
        1
 91
        1
300
_TITLE
309
CELLSTYLE_END
300
CELLSTYLE
  1
TABLEFORMAT_BEGIN
 90
        5
170
     1
 91
        0
 92
        0
 62
   257
 93
        1
300
CONTENTFORMAT
  1
CONTENTFORMAT_BEGIN
 90
        0
 91
        0
 92
      512
 93
        0
300

 40
0.0
140
1.0
 94
        5
 62
     0
340
5D
144
0.18
309
CONTENTFORMAT_END
171
     1
301
MARGIN
  1
CELLMARGIN_BEGIN
 40
0.06
 40
0.06
 40
0.06
 40
0.06
 40
0.18
 40
0.18
309
CELLMARGIN_END
 94
        6
 95
        1
302
GRIDFORMAT
  1
GRIDFORMAT_BEGIN
 90
        0
 91
        1
 62
     0
 92
       -2
340
0
 93
        0
 40
0.045
309
GRIDFORMAT_END
 95
        2
302
GRIDFORMAT
  1
GRIDFORMAT_BEGIN
 90
        0
 91
        1
 62
     0
 92
       -2
340
0
 93
        0
 40
0.045
309
GRIDFORMAT_END
 95
        4
302
GRIDFORMAT
  1
GRIDFORMAT_BEGIN
 90
        0
 91
        1
 62
     0
 92
       -2
340
0
 93
        0
 40
0.045
309
GRIDFORMAT_END
 95
        8
302
GRIDFORMAT
  1
GRIDFORMAT_BEGIN
 90
        0
 91
        1
 62
     0
 92
       -2
340
0
 93
        0
 40
0.045
309
GRIDFORMAT_END
 95
       16
302
GRIDFORMAT
  1
GRIDFORMAT_BEGIN
 90
        0
 91
        1
 62
     0
 92
       -2
340
0
 93
        0
 40
0.045
309
GRIDFORMAT_END
 95
       32
302
GRIDFORMAT
  1
GRIDFORMAT_BEGIN
 90
        0
 91
        1
 62
     0
 92
       -2
340
0
 93
        0
 40
0.045
309
GRIDFORMAT_END
309
TABLEFORMAT_END
  1
CELLSTYLE_BEGIN
 90
        2
 91
        1
300
_HEADER
309
CELLSTYLE_END
300
CELLSTYLE
  1
TABLEFORMAT_BEGIN
 90
        5
170
     1
 91
        0
 92
        0
 62
   257
 93
        1
300
CONTENTFORMAT
  1
CONTENTFORMAT_BEGIN
 90
        0
 91
        0
 92
      512
 93
        0
300

 40
0.0
140
1.0
 94
        2
 62
     0
340
5D
144
0.18
309
CONTENTFORMAT_END
171
     1
301
MARGIN
  1
CELLMARGIN_BEGIN
 40
0.06
 40
0.06
 40
0.06
 40
0.06
 40
0.18
 40
0.18
309
CELLMARGIN_END
 94
        6
 95
        1
302
GRIDFORMAT
  1
GRIDFORMAT_BEGIN
 90
        0
 91
        1
 62
     0
 92
       -2
340
0
 93
        0
 40
0.045
309
GRIDFORMAT_END
 95
        2
302
GRIDFORMAT
  1
GRIDFORMAT_BEGIN
 90
        0
 91
        1
 62
     0
 92
       -2
340
0
 93
        0
 40
0.045
309
GRIDFORMAT_END
 95
        4
302
GRIDFORMAT
  1
GRIDFORMAT_BEGIN
 90
        0
 91
        1
 62
     0
 92
       -2
340
0
 93
        0
 40
0.045
309
GRIDFORMAT_END
 95
        8
302
GRIDFORMAT
  1
GRIDFORMAT_BEGIN
 90
        0
 91
        1
 62
     0
 92
       -2
340
0
 93
        0
 40
0.045
309
GRIDFORMAT_END
 95
       16
302
GRIDFORMAT
  1
GRIDFORMAT_BEGIN
 90
        0
 91
        1
 62
     0
 92
       -2
340
0
 93
        0
 40
0.045
309
GRIDFORMAT_END
 95
       32
302
GRIDFORMAT
  1
GRIDFORMAT_BEGIN
 90
        0
 91
        1
 62
     0
 92
       -2
340
0
 93
        0
 40
0.045
309
GRIDFORMAT_END
309
TABLEFORMAT_END
  1
CELLSTYLE_BEGIN
 90
        3
 91
        2
300
_DATA
309
CELLSTYLE_END
  0
XRECORD
  5
FED
102
{ACAD_REACTORS
330
F43
102
}
330
F43
100
AcDbXrecord
280
     1
102
ACAD_ROUNDTRIP_PRE2007_TABLESTYLE
 90
      512
 91
        0
  1

 92
      512
 93
        0
  2

 94
      512
 95
        0
  3

  0
ENDSEC
  0
EOF
