  0
SECTION
  2
HEADER
  9
$ACADVER
  1
AC1015
  9
$ACADMAINTVER
 70
    20
  9
$DWGCODEPAGE
  3
ANSI_1252
  9
$INSBASE
 10
0.0
 20
0.0
 30
0.0
  9
$EXTMIN
 10
27.9117498810322
 20
10.39762066980663
 30
-0.0000000000000003
  9
$EXTMAX
 10
741.7762577315869
 20
795.7523428965513
 30
0.0
  9
$LIMMIN
 10
0.0
 20
0.0
  9
$LIMMAX
 10
420.0
 20
297.0
  9
$ORTHOMODE
 70
     0
  9
$REGENMODE
 70
     1
  9
$FILLMODE
 70
     1
  9
$QTEXTMODE
 70
     0
  9
$MIRRTEXT
 70
     0
  9
$LTSCALE
 40
1.0
  9
$ATTMODE
 70
     1
  9
$TEXTSIZE
 40
2.5
  9
$TRACEWID
 40
1.0
  9
$TEXTSTYLE
  7
Standard
  9
$CLAYER
  8
0
  9
$CELTYPE
  6
ByLayer
  9
$CECOLOR
 62
   256
  9
$CELTSCALE
 40
1.0
  9
$DISPSILH
 70
     0
  9
$DIMSCALE
 40
1.0
  9
$DIMASZ
 40
2.5
  9
$DIMEXO
 40
0.625
  9
$DIMDLI
 40
3.75
  9
$DIMRND
 40
0.0
  9
$DIMDLE
 40
0.0
  9
$DIMEXE
 40
1.25
  9
$DIMTP
 40
0.0
  9
$DIMTM
 40
0.0
  9
$DIMTXT
 40
2.5
  9
$DIMCEN
 40
2.5
  9
$DIMTSZ
 40
0.0
  9
$DIMTOL
 70
     0
  9
$DIMLIM
 70
     0
  9
$DIMTIH
 70
     0
  9
$DIMTOH
 70
     0
  9
$DIMSE1
 70
     0
  9
$DIMSE2
 70
     0
  9
$DIMTAD
 70
     1
  9
$DIMZIN
 70
     8
  9
$DIMBLK
  1

  9
$DIMASO
 70
     1
  9
$DIMSHO
 70
     1
  9
$DIMPOST
  1

  9
$DIMAPOST
  1

  9
$DIMALT
 70
     0
  9
$DIMALTD
 70
     3
  9
$DIMALTF
 40
0.03937007874016
  9
$DIMLFAC
 40
1.0
  9
$DIMTOFL
 70
     1
  9
$DIMTVP
 40
0.0
  9
$DIMTIX
 70
     0
  9
$DIMSOXD
 70
     0
  9
$DIMSAH
 70
     0
  9
$DIMBLK1
  1

  9
$DIMBLK2
  1

  9
$DIMSTYLE
  2
ISO-25
  9
$DIMCLRD
 70
     0
  9
$DIMCLRE
 70
     0
  9
$DIMCLRT
 70
     0
  9
$DIMTFAC
 40
1.0
  9
$DIMGAP
 40
0.625
  9
$DIMJUST
 70
     0
  9
$DIMSD1
 70
     0
  9
$DIMSD2
 70
     0
  9
$DIMTOLJ
 70
     0
  9
$DIMTZIN
 70
     8
  9
$DIMALTZ
 70
     0
  9
$DIMALTTZ
 70
     0
  9
$DIMUPT
 70
     0
  9
$DIMDEC
 70
     2
  9
$DIMTDEC
 70
     2
  9
$DIMALTU
 70
     2
  9
$DIMALTTD
 70
     3
  9
$DIMTXSTY
  7
Standard
  9
$DIMAUNIT
 70
     0
  9
$DIMADEC
 70
     0
  9
$DIMALTRND
 40
0.0
  9
$DIMAZIN
 70
     0
  9
$DIMDSEP
 70
    44
  9
$DIMATFIT
 70
     3
  9
$DIMFRAC
 70
     0
  9
$DIMLDRBLK
  1

  9
$DIMLUNIT
 70
     2
  9
$DIMLWD
 70
    -2
  9
$DIMLWE
 70
    -2
  9
$DIMTMOVE
 70
     0
  9
$LUNITS
 70
     2
  9
$LUPREC
 70
     4
  9
$SKETCHINC
 40
1.0
  9
$FILLETRAD
 40
0.0
  9
$AUNITS
 70
     0
  9
$AUPREC
 70
     0
  9
$MENU
  1
.
  9
$ELEVATION
 40
0.0
  9
$PELEVATION
 40
0.0
  9
$THICKNESS
 40
0.0
  9
$LIMCHECK
 70
     0
  9
$CHAMFERA
 40
0.0
  9
$CHAMFERB
 40
0.0
  9
$CHAMFERC
 40
0.0
  9
$CHAMFERD
 40
0.0
  9
$SKPOLY
 70
     0
  9
$TDCREATE
 40
2456617.659662662
  9
$TDUCREATE
 40
2456617.617995996
  9
$TDUPDATE
 40
2456617.662436563
  9
$TDUUPDATE
 40
2456617.620769895
  9
$TDINDWG
 40
0.0027740741
  9
$TDUSRTIMER
 40
0.0027740741
  9
$USRTIMER
 70
     1
  9
$ANGBASE
 50
0.0
  9
$ANGDIR
 70
     0
  9
$PDMODE
 70
     0
  9
$PDSIZE
 40
0.0
  9
$PLINEWID
 40
0.0
  9
$SPLFRAME
 70
     0
  9
$SPLINETYPE
 70
     6
  9
$SPLINESEGS
 70
     8
  9
$HANDSEED
  5
3D0
  9
$SURFTAB1
 70
     6
  9
$SURFTAB2
 70
     6
  9
$SURFTYPE
 70
     6
  9
$SURFU
 70
     6
  9
$SURFV
 70
     6
  9
$UCSBASE
  2

  9
$UCSNAME
  2

  9
$UCSORG
 10
0.0
 20
0.0
 30
0.0
  9
$UCSXDIR
 10
1.0
 20
0.0
 30
0.0
  9
$UCSYDIR
 10
0.0
 20
1.0
 30
0.0
  9
$UCSORTHOREF
  2

  9
$UCSORTHOVIEW
 70
     0
  9
$UCSORGTOP
 10
0.0
 20
0.0
 30
0.0
  9
$UCSORGBOTTOM
 10
0.0
 20
0.0
 30
0.0
  9
$UCSORGLEFT
 10
0.0
 20
0.0
 30
0.0
  9
$UCSORGRIGHT
 10
0.0
 20
0.0
 30
0.0
  9
$UCSORGFRONT
 10
0.0
 20
0.0
 30
0.0
  9
$UCSORGBACK
 10
0.0
 20
0.0
 30
0.0
  9
$PUCSBASE
  2

  9
$PUCSNAME
  2

  9
$PUCSORG
 10
0.0
 20
0.0
 30
0.0
  9
$PUCSXDIR
 10
1.0
 20
0.0
 30
0.0
  9
$PUCSYDIR
 10
0.0
 20
1.0
 30
0.0
  9
$PUCSORTHOREF
  2

  9
$PUCSORTHOVIEW
 70
     0
  9
$PUCSORGTOP
 10
0.0
 20
0.0
 30
0.0
  9
$PUCSORGBOTTOM
 10
0.0
 20
0.0
 30
0.0
  9
$PUCSORGLEFT
 10
0.0
 20
0.0
 30
0.0
  9
$PUCSORGRIGHT
 10
0.0
 20
0.0
 30
0.0
  9
$PUCSORGFRONT
 10
0.0
 20
0.0
 30
0.0
  9
$PUCSORGBACK
 10
0.0
 20
0.0
 30
0.0
  9
$USERI1
 70
     0
  9
$USERI2
 70
     0
  9
$USERI3
 70
     0
  9
$USERI4
 70
     0
  9
$USERI5
 70
     0
  9
$USERR1
 40
0.0
  9
$USERR2
 40
0.0
  9
$USERR3
 40
0.0
  9
$USERR4
 40
0.0
  9
$USERR5
 40
0.0
  9
$WORLDVIEW
 70
     1
  9
$SHADEDGE
 70
     3
  9
$SHADEDIF
 70
    70
  9
$TILEMODE
 70
     1
  9
$MAXACTVP
 70
    64
  9
$PINSBASE
 10
0.0
 20
0.0
 30
0.0
  9
$PLIMCHECK
 70
     0
  9
$PEXTMIN
 10
0.0
 20
0.0
 30
0.0
  9
$PEXTMAX
 10
0.0
 20
0.0
 30
0.0
  9
$PLIMMIN
 10
0.0
 20
0.0
  9
$PLIMMAX
 10
12.0
 20
9.0
  9
$UNITMODE
 70
     0
  9
$VISRETAIN
 70
     1
  9
$PLINEGEN
 70
     0
  9
$PSLTSCALE
 70
     1
  9
$TREEDEPTH
 70
  3020
  9
$CMLSTYLE
  2
Standard
  9
$CMLJUST
 70
     0
  9
$CMLSCALE
 40
20.0
  9
$PROXYGRAPHICS
 70
     1
  9
$MEASUREMENT
 70
     1
  9
$CELWEIGHT
370
    -1
  9
$ENDCAPS
280
     0
  9
$JOINSTYLE
280
     0
  9
$LWDISPLAY
290
     0
  9
$INSUNITS
 70
     4
  9
$HYPERLINKBASE
  1

  9
$STYLESHEET
  1

  9
$XEDIT
290
     1
  9
$CEPSNTYPE
380
     0
  9
$PSTYLEMODE
290
     1
  9
$FINGERPRINTGUID
  2
{3DD7378E-E023-4EFC-AF18-5B4EB2ABCA6C}
  9
$VERSIONGUID
  2
{E3EA4005-98F1-4C26-9BDD-C467B0122D36}
  9
$EXTNAMES
290
     1
  9
$PSVPSCALE
 40
0.0
  9
$OLESTARTUP
290
     0
  0
ENDSEC
  0
SECTION
  2
CLASSES
  0
CLASS
  1
ACDBDICTIONARYWDFLT
  2
AcDbDictionaryWithDefault
  3
ObjectDBX Classes
 90
        0
280
     0
281
     0
  0
CLASS
  1
ACDBPLACEHOLDER
  2
AcDbPlaceHolder
  3
ObjectDBX Classes
 90
        0
280
     0
281
     0
  0
CLASS
  1
LAYOUT
  2
AcDbLayout
  3
ObjectDBX Classes
 90
        0
280
     0
281
     0
  0
CLASS
  1
DICTIONARYVAR
  2
AcDbDictionaryVar
  3
ObjectDBX Classes
 90
        0
280
     0
281
     0
  0
CLASS
  1
TABLESTYLE
  2
AcDbTableStyle
  3
ObjectDBX Classes
 90
     4095
280
     0
281
     0
  0
CLASS
  1
MATERIAL
  2
AcDbMaterial
  3
ObjectDBX Classes
 90
     1153
280
     0
281
     0
  0
CLASS
  1
VISUALSTYLE
  2
AcDbVisualStyle
  3
ObjectDBX Classes
 90
     4095
280
     0
281
     0
  0
CLASS
  1
SCALE
  2
AcDbScale
  3
ObjectDBX Classes
 90
     1153
280
     0
281
     0
  0
CLASS
  1
MLEADERSTYLE
  2
AcDbMLeaderStyle
  3
ACDB_MLEADERSTYLE_CLASS
 90
     4095
280
     0
281
     0
  0
CLASS
  1
CELLSTYLEMAP
  2
AcDbCellStyleMap
  3
ObjectDBX Classes
 90
     1152
280
     0
281
     0
  0
ENDSEC
  0
SECTION
  2
TABLES
  0
TABLE
  2
VPORT
  5
8
330
0
100
AcDbSymbolTable
 70
     1
  0
VPORT
  5
EA
330
8
100
AcDbSymbolTableRecord
100
AcDbViewportTableRecord
  2
*Active
 70
     0
 10
0.0
 20
0.0
 11
1.0
 21
1.0
 12
176.9880138833712
 22
240.636665530576
 13
0.0
 23
0.0
 14
10.0
 24
10.0
 15
10.0
 25
10.0
 16
0.0
 26
0.0
 36
1.0
 17
0.0
 27
0.0
 37
0.0
 40
453.1650258628915
 41
1.168711656441717
 42
50.0
 43
0.0
 44
0.0
 50
0.0
 51
0.0
 71
     0
 72
  1000
 73
     1
 74
     3
 75
     0
 76
     0
 77
     0
 78
     0
281
     0
 65
     1
110
0.0
120
0.0
130
0.0
111
1.0
121
0.0
131
0.0
112
0.0
122
1.0
132
0.0
 79
     0
146
0.0
  0
ENDTAB
  0
TABLE
  2
LTYPE
  5
5
330
0
100
AcDbSymbolTable
 70
     1
  0
LTYPE
  5
14
330
5
100
AcDbSymbolTableRecord
100
AcDbLinetypeTableRecord
  2
ByBlock
 70
     0
  3

 72
    65
 73
     0
 40
0.0
  0
LTYPE
  5
15
330
5
100
AcDbSymbolTableRecord
100
AcDbLinetypeTableRecord
  2
ByLayer
 70
     0
  3

 72
    65
 73
     0
 40
0.0
  0
LTYPE
  5
16
330
5
100
AcDbSymbolTableRecord
100
AcDbLinetypeTableRecord
  2
Continuous
 70
     0
  3
Solid line
 72
    65
 73
     0
 40
0.0
  0
ENDTAB
  0
TABLE
  2
LAYER
  5
2
330
0
100
AcDbSymbolTable
 70
     2
  0
LAYER
  5
10
102
{ACAD_XDICTIONARY
360
13C
102
}
330
2
100
AcDbSymbolTableRecord
100
AcDbLayerTableRecord
  2
0
 70
     0
 62
     7
  6
Continuous
370
    -3
390
F
  0
LAYER
  5
2CB
330
2
100
AcDbSymbolTableRecord
100
AcDbLayerTableRecord
  2
Defpoints
 70
     0
 62
     7
  6
Continuous
290
     0
370
    -3
390
F
  0
ENDTAB
  0
TABLE
  2
STYLE
  5
3
330
0
100
AcDbSymbolTable
 70
     2
  0
STYLE
  5
11
330
3
100
AcDbSymbolTableRecord
100
AcDbTextStyleTableRecord
  2
Standard
 70
     0
 40
0.0
 41
1.0
 50
0.0
 71
     0
 42
2.5
  3
txt.shx
  4

  0
STYLE
  5
132
330
3
100
AcDbSymbolTableRecord
100
AcDbTextStyleTableRecord
  2
Annotativa
 70
     0
 40
0.0
 41
1.0
 50
0.0
 71
     0
 42
2.5
  3
txt.shx
  4

1001
AcadAnnotative
1000
AnnotativeData
1002
{
1070
     1
1070
     1
1002
}
  0
ENDTAB
  0
TABLE
  2
VIEW
  5
6
330
0
100
AcDbSymbolTable
 70
     0
  0
ENDTAB
  0
TABLE
  2
UCS
  5
7
330
0
100
AcDbSymbolTable
 70
     0
  0
ENDTAB
  0
TABLE
  2
APPID
  5
9
330
0
100
AcDbSymbolTable
 70
     7
  0
APPID
  5
12
330
9
100
AcDbSymbolTableRecord
100
AcDbRegAppTableRecord
  2
ACAD
 70
     0
  0
APPID
  5
9E
330
9
100
AcDbSymbolTableRecord
100
AcDbRegAppTableRecord
  2
ACAD_PSEXT
 70
     0
  0
APPID
  5
133
330
9
100
AcDbSymbolTableRecord
100
AcDbRegAppTableRecord
  2
AcadAnnoPO
 70
     0
  0
APPID
  5
134
330
9
100
AcDbSymbolTableRecord
100
AcDbRegAppTableRecord
  2
AcadAnnotative
 70
     0
  0
APPID
  5
135
330
9
100
AcDbSymbolTableRecord
100
AcDbRegAppTableRecord
  2
ACAD_DSTYLE_DIMJAG
 70
     0
  0
APPID
  5
136
330
9
100
AcDbSymbolTableRecord
100
AcDbRegAppTableRecord
  2
ACAD_DSTYLE_DIMTALN
 70
     0
  0
APPID
  5
165
330
9
100
AcDbSymbolTableRecord
100
AcDbRegAppTableRecord
  2
ACAD_MLEADERVER
 70
     0
  0
ENDTAB
  0
TABLE
  2
DIMSTYLE
  5
A
330
0
100
AcDbSymbolTable
 70
     3
100
AcDbDimStyleTable
 71
     2
340
27
340
137
  0
DIMSTYLE
105
27
330
A
100
AcDbSymbolTableRecord
100
AcDbDimStyleTableRecord
  2
ISO-25
 70
     0
 41
2.5
 42
0.625
 43
3.75
 44
1.25
 73
     0
 74
     0
 77
     1
 78
     8
140
2.5
141
2.5
143
0.03937007874016
147
0.625
171
     3
172
     1
271
     2
272
     2
274
     3
278
    44
283
     0
284
     8
340
11
  0
DIMSTYLE
105
137
330
A
100
AcDbSymbolTableRecord
100
AcDbDimStyleTableRecord
  2
Annotativa
 70
     0
 40
0.0
 41
2.5
 42
0.625
 43
3.75
 44
1.25
 73
     0
 74
     0
 77
     1
 78
     8
140
2.5
141
2.5
143
0.03937007874016
147
0.625
171
     3
172
     1
271
     2
272
     2
274
     3
278
    44
283
     0
284
     8
340
11
1001
AcadAnnotative
1000
AnnotativeData
1002
{
1070
     1
1070
     1
1002
}
1001
ACAD_DSTYLE_DIMJAG
1070
   388
1040
1.5
1001
ACAD_DSTYLE_DIMTALN
1070
   392
1070
     0
  0
DIMSTYLE
105
2CC
102
{ACAD_REACTORS
330
2CE
330
2CF
330
2D0
330
2D5
330
2D6
330
36E
102
}
330
A
100
AcDbSymbolTableRecord
100
AcDbDimStyleTableRecord
  2
Standard
 70
     0
340
11
  0
ENDTAB
  0
TABLE
  2
BLOCK_RECORD
  5
1
330
0
100
AcDbSymbolTable
 70
    10
  0
BLOCK_RECORD
  5
1F
330
1
100
AcDbSymbolTableRecord
100
AcDbBlockTableRecord
  2
*Model_Space
340
22
  0
BLOCK_RECORD
  5
D2
330
1
100
AcDbSymbolTableRecord
100
AcDbBlockTableRecord
  2
*Paper_Space
340
D3
  0
BLOCK_RECORD
  5
D6
330
1
100
AcDbSymbolTableRecord
100
AcDbBlockTableRecord
  2
*Paper_Space0
340
D7
  0
BLOCK_RECORD
  5
2A4
330
1
100
AcDbSymbolTableRecord
100
AcDbBlockTableRecord
  2
*D2
340
0
  0
BLOCK_RECORD
  5
2B1
330
1
100
AcDbSymbolTableRecord
100
AcDbBlockTableRecord
  2
*D3
340
0
  0
BLOCK_RECORD
  5
2BE
330
1
100
AcDbSymbolTableRecord
100
AcDbBlockTableRecord
  2
*D4
340
0
  0
BLOCK_RECORD
  5
2D7
330
1
100
AcDbSymbolTableRecord
100
AcDbBlockTableRecord
  2
*D6
340
0
  0
BLOCK_RECORD
  5
2E4
330
1
100
AcDbSymbolTableRecord
100
AcDbBlockTableRecord
  2
*D7
340
0
  0
BLOCK_RECORD
  5
2F1
330
1
100
AcDbSymbolTableRecord
100
AcDbBlockTableRecord
  2
*D8
340
0
  0
BLOCK_RECORD
  5
36F
330
1
100
AcDbSymbolTableRecord
100
AcDbBlockTableRecord
  2
*D9
340
0
  0
ENDTAB
  0
ENDSEC
  0
SECTION
  2
BLOCKS
  0
BLOCK
  5
20
330
1F
100
AcDbEntity
  8
0
100
AcDbBlockBegin
  2
*Model_Space
 70
     0
 10
0.0
 20
0.0
 30
0.0
  3
*Model_Space
  1

  0
ENDBLK
  5
21
330
1F
100
AcDbEntity
  8
0
100
AcDbBlockEnd
  0
BLOCK
  5
D4
330
D2
100
AcDbEntity
 67
     1
  8
0
100
AcDbBlockBegin
  2
*Paper_Space
 70
     0
 10
0.0
 20
0.0
 30
0.0
  3
*Paper_Space
  1

  0
ENDBLK
  5
D5
330
D2
100
AcDbEntity
 67
     1
  8
0
100
AcDbBlockEnd
  0
BLOCK
  5
D8
330
D6
100
AcDbEntity
 67
     1
  8
0
100
AcDbBlockBegin
  2
*Paper_Space0
 70
     0
 10
0.0
 20
0.0
 30
0.0
  3
*Paper_Space0
  1

  0
ENDBLK
  5
D9
330
D6
100
AcDbEntity
 67
     1
  8
0
100
AcDbBlockEnd
  0
BLOCK
  5
2A5
330
2A4
100
AcDbEntity
  8
0
100
AcDbBlockBegin
  2
*D2
 70
     1
 10
0.0
 20
0.0
 30
0.0
  3
*D2
  1

  0
LINE
  5
2A6
330
2A4
100
AcDbEntity
  8
0
 62
     0
370
    -2
100
AcDbLine
 10
82.87614224055831
 20
387.739131862613
 30
0.0
 11
82.87614224055831
 21
412.622632171131
 31
0.0
  0
LINE
  5
2A7
330
2A4
100
AcDbEntity
  8
0
 62
     0
370
    -2
100
AcDbLine
 10
209.7345416083466
 20
387.739131862613
 30
0.0
 11
209.7345416083466
 21
412.622632171131
 31
0.0
  0
LINE
  5
2A8
330
2A4
100
AcDbEntity
  8
0
 62
     0
370
    -2
100
AcDbLine
 10
92.87614224055831
 20
411.372632171131
 30
0.0
 11
137.9506189492633
 21
411.372632171131
 31
0.0
  0
LINE
  5
2A9
330
2A4
100
AcDbEntity
  8
0
 62
     0
370
    -2
100
AcDbLine
 10
199.7345416083466
 20
411.372632171131
 30
0.0
 11
162.5339522825966
 21
411.372632171131
 31
0.0
  0
SOLID
  5
2AA
330
2A4
100
AcDbEntity
  8
0
 62
     0
100
AcDbTrace
 10
92.87614224055831
 20
413.0392988377977
 30
0.0
 11
92.87614224055831
 21
409.7059655044644
 31
0.0
 12
82.87614224055831
 22
411.372632171131
 32
0.0
 13
82.87614224055831
 23
411.372632171131
 33
0.0
  0
SOLID
  5
2AB
330
2A4
100
AcDbEntity
  8
0
 62
     0
100
AcDbTrace
 10
199.7345416083466
 20
413.0392988377977
 30
0.0
 11
199.7345416083466
 21
409.7059655044644
 31
0.0
 12
209.7345416083466
 22
411.372632171131
 32
0.0
 13
209.7345416083466
 23
411.372632171131
 33
0.0
  0
MTEXT
  5
2AC
330
2A4
100
AcDbEntity
  8
0
 62
     0
370
     0
100
AcDbMText
 10
150.24228561593
 20
411.372632171131
 30
0.0
 40
10.0
 41
0.0
 71
     5
 72
     1
  1
127
 73
     1
 44
1.0
1001
ACAD
1000
MTEXTBEGIN
1070
    73
1070
     1
1070
    44
1040
1.0
1070
    74
1070
     0
1000
MTEXTEND
  0
POINT
  5
2AD
330
2A4
100
AcDbEntity
  8
Defpoints
 62
     0
100
AcDbPoint
 10
82.87614224055831
 20
387.114131862613
 30
0.0
  0
POINT
  5
2AE
330
2A4
100
AcDbEntity
  8
Defpoints
 62
     0
100
AcDbPoint
 10
209.7345416083466
 20
387.114131862613
 30
0.0
  0
POINT
  5
2AF
330
2A4
100
AcDbEntity
  8
Defpoints
 62
     0
100
AcDbPoint
 10
209.7345416083466
 20
411.372632171131
 30
0.0
  0
ENDBLK
  5
2B0
330
2A4
100
AcDbEntity
  8
0
100
AcDbBlockEnd
  0
BLOCK
  5
2B2
330
2B1
100
AcDbEntity
  8
0
100
AcDbBlockBegin
  2
*D3
 70
     1
 10
0.0
 20
0.0
 30
0.0
  3
*D3
  1

  0
LINE
  5
2B3
330
2B1
100
AcDbEntity
  8
0
 62
     0
370
    -2
100
AcDbLine
 10
82.25114224055829
 20
387.114131862613
 30
-0.0000000000000002
 11
56.0397384431668
 21
387.114131862613
 31
-0.0000000000000002
  0
LINE
  5
2B4
330
2B1
100
AcDbEntity
  8
0
 62
     0
370
    -2
100
AcDbLine
 10
82.25114224055831
 20
20.28192702409186
 30
-0.0000000000000002
 11
56.03973844316672
 21
20.28192702409186
 31
-0.0000000000000002
  0
LINE
  5
2B5
330
2B1
100
AcDbEntity
  8
0
 62
     0
370
    -2
100
AcDbLine
 10
57.2897384431668
 20
377.114131862613
 30
-0.0000000000000002
 11
57.28973844316676
 21
217.6913529549182
 31
-0.0000000000000002
  0
LINE
  5
2B6
330
2B1
100
AcDbEntity
  8
0
 62
     0
370
    -2
100
AcDbLine
 10
57.28973844316672
 20
30.28192702409186
 30
-0.0000000000000002
 11
57.28973844316676
 21
189.7746862882515
 31
-0.0000000000000002
  0
SOLID
  5
2B7
330
2B1
100
AcDbEntity
  8
0
 62
     0
100
AcDbTrace
 10
55.62307177650013
 20
377.114131862613
 30
-0.0000000000000002
 11
58.95640510983346
 21
377.114131862613
 31
-0.0000000000000002
 12
57.2897384431668
 22
387.114131862613
 32
-0.0000000000000002
 13
57.2897384431668
 23
387.114131862613
 33
-0.0000000000000002
  0
SOLID
  5
2B8
330
2B1
100
AcDbEntity
  8
0
 62
     0
100
AcDbTrace
 10
55.62307177650005
 20
30.28192702409187
 30
-0.0000000000000002
 11
58.95640510983338
 21
30.28192702409186
 31
-0.0000000000000002
 12
57.28973844316672
 22
20.28192702409186
 32
-0.0000000000000002
 13
57.28973844316672
 23
20.28192702409186
 33
-0.0000000000000002
  0
MTEXT
  5
2B9
330
2B1
100
AcDbEntity
  8
0
 62
     0
370
     0
100
AcDbMText
 10
57.28973844316673
 20
203.7330196215849
 30
-0.0000000000000002
 40
10.0
 41
0.0
 71
     5
 72
     1
  1
367
 11
0.0000000000000001
 21
1.0
 31
0.0
 73
     1
 44
1.0
1001
ACAD
1000
MTEXTBEGIN
1070
    73
1070
     1
1070
    44
1040
1.0
1070
    74
1070
     0
1000
MTEXTEND
  0
POINT
  5
2BA
330
2B1
100
AcDbEntity
  8
Defpoints
 62
     0
100
AcDbPoint
 10
82.87614224055829
 20
387.114131862613
 30
0.0
  0
POINT
  5
2BB
330
2B1
100
AcDbEntity
  8
Defpoints
 62
     0
100
AcDbPoint
 10
82.87614224055831
 20
20.28192702409186
 30
0.0
  0
POINT
  5
2BC
330
2B1
100
AcDbEntity
  8
Defpoints
 62
     0
100
AcDbPoint
 10
57.28973844316672
 20
20.28192702409186
 30
-0.0000000000000002
  0
ENDBLK
  5
2BD
330
2B1
100
AcDbEntity
  8
0
100
AcDbBlockEnd
  0
BLOCK
  5
2BF
330
2BE
100
AcDbEntity
  8
0
100
AcDbBlockBegin
  2
*D4
 70
     1
 10
0.0
 20
0.0
 30
0.0
  3
*D4
  1

  0
LINE
  5
2C0
330
2BE
100
AcDbEntity
  8
0
 62
     0
370
    -2
100
AcDbLine
 10
241.9777181143262
 20
388.7962851906775
 30
0.0
 11
241.9777181143262
 21
412.622632171131
 31
0.0
  0
LINE
  5
2C1
330
2BE
100
AcDbEntity
  8
0
 62
     0
370
    -2
100
AcDbLine
 10
286.9067345570846
 20
388.7962851906775
 30
0.0
 11
286.9067345570846
 21
412.622632171131
 31
0.0
  0
LINE
  5
2C2
330
2BE
100
AcDbEntity
  8
0
 62
     0
370
    -2
100
AcDbLine
 10
251.9777181143261
 20
411.372632171131
 30
0.0
 11
255.4838930023721
 21
411.372632171131
 31
0.0
  0
LINE
  5
2C3
330
2BE
100
AcDbEntity
  8
0
 62
     0
370
    -2
100
AcDbLine
 10
276.9067345570846
 20
411.372632171131
 30
0.0
 11
273.4005596690387
 21
411.372632171131
 31
0.0
  0
SOLID
  5
2C4
330
2BE
100
AcDbEntity
  8
0
 62
     0
100
AcDbTrace
 10
251.9777181143261
 20
413.0392988377977
 30
0.0
 11
251.9777181143261
 21
409.7059655044644
 31
0.0
 12
241.9777181143262
 22
411.372632171131
 32
0.0
 13
241.9777181143262
 23
411.372632171131
 33
0.0
  0
SOLID
  5
2C5
330
2BE
100
AcDbEntity
  8
0
 62
     0
100
AcDbTrace
 10
276.9067345570846
 20
413.0392988377977
 30
0.0
 11
276.9067345570846
 21
409.7059655044644
 31
0.0
 12
286.9067345570846
 22
411.372632171131
 32
0.0
 13
286.9067345570846
 23
411.372632171131
 33
0.0
  0
MTEXT
  5
2C6
330
2BE
100
AcDbEntity
  8
0
 62
     0
370
     0
100
AcDbMText
 10
264.4422263357054
 20
411.372632171131
 30
0.0
 40
10.0
 41
0.0
 71
     5
 72
     1
  1
45
 73
     1
 44
1.0
1001
ACAD
1000
MTEXTBEGIN
1070
    73
1070
     1
1070
    44
1040
1.0
1070
    74
1070
     0
1000
MTEXTEND
  0
POINT
  5
2C7
330
2BE
100
AcDbEntity
  8
Defpoints
 62
     0
100
AcDbPoint
 10
241.9777181143262
 20
388.1712851906775
 30
0.0
  0
POINT
  5
2C8
330
2BE
100
AcDbEntity
  8
Defpoints
 62
     0
100
AcDbPoint
 10
286.9067345570846
 20
388.1712851906775
 30
0.0
  0
POINT
  5
2C9
330
2BE
100
AcDbEntity
  8
Defpoints
 62
     0
100
AcDbPoint
 10
286.9067345570846
 20
411.372632171131
 30
0.0
  0
ENDBLK
  5
2CA
330
2BE
100
AcDbEntity
  8
0
100
AcDbBlockEnd
  0
BLOCK
  5
2D8
330
2D7
100
AcDbEntity
  8
0
100
AcDbBlockBegin
  2
*D6
 70
     1
 10
0.0
 20
0.0
 30
0.0
  3
*D6
  1

  0
LINE
  5
344
330
2D7
100
AcDbEntity
  8
0
 62
     0
370
    -2
100
AcDbLine
 10
120.301496116428
 20
446.0547369755263
 30
0.0
 11
120.301496116428
 21
470.9382372840444
 31
0.0
  0
LINE
  5
345
330
2D7
100
AcDbEntity
  8
0
 62
     0
370
    -2
100
AcDbLine
 10
264.7375667617835
 20
446.0547369755263
 30
0.0
 11
264.7375667617835
 21
470.9382372840444
 31
0.0
  0
LINE
  5
346
330
2D7
100
AcDbEntity
  8
0
 62
     0
370
    -2
100
AcDbLine
 10
130.301496116428
 20
469.6882372840445
 30
0.0
 11
175.3759728251329
 21
469.6882372840445
 31
0.0
  0
LINE
  5
347
330
2D7
100
AcDbEntity
  8
0
 62
     0
370
    -2
100
AcDbLine
 10
254.7375667617835
 20
469.6882372840445
 30
0.0
 11
199.9593061584662
 21
469.6882372840445
 31
0.0
  0
SOLID
  5
348
330
2D7
100
AcDbEntity
  8
0
 62
     0
100
AcDbTrace
 10
130.301496116428
 20
471.3549039507111
 30
0.0
 11
130.301496116428
 21
468.0215706173777
 31
0.0
 12
120.301496116428
 22
469.6882372840445
 32
0.0
 13
120.301496116428
 23
469.6882372840445
 33
0.0
  0
SOLID
  5
349
330
2D7
100
AcDbEntity
  8
0
 62
     0
100
AcDbTrace
 10
254.7375667617835
 20
471.3549039507111
 30
0.0
 11
254.7375667617835
 21
468.0215706173777
 31
0.0
 12
264.7375667617835
 22
469.6882372840445
 32
0.0
 13
264.7375667617835
 23
469.6882372840445
 33
0.0
  0
MTEXT
  5
34A
330
2D7
100
AcDbEntity
  8
0
 62
     0
370
     0
100
AcDbMText
 10
187.6676394917996
 20
469.6882372840445
 30
0.0
 40
10.0
 41
0.0
 71
     5
 72
     1
  1
144
 73
     1
 44
1.0
1001
ACAD
1000
MTEXTBEGIN
1070
    73
1070
     1
1070
    44
1040
1.0
1070
    74
1070
     0
1000
MTEXTEND
  0
POINT
  5
34B
330
2D7
100
AcDbEntity
  8
Defpoints
 62
     0
100
AcDbPoint
 10
120.301496116428
 20
445.4297369755264
 30
0.0
  0
POINT
  5
34C
330
2D7
100
AcDbEntity
  8
Defpoints
 62
     0
100
AcDbPoint
 10
264.7375667617835
 20
445.4297369755264
 30
0.0
  0
POINT
  5
34D
330
2D7
100
AcDbEntity
  8
Defpoints
 62
     0
100
AcDbPoint
 10
264.7375667617835
 20
469.6882372840445
 30
0.0
  0
ENDBLK
  5
2D9
330
2D7
100
AcDbEntity
  8
0
100
AcDbBlockEnd
  0
BLOCK
  5
2E5
330
2E4
100
AcDbEntity
  8
0
100
AcDbBlockBegin
  2
*D7
 70
     1
 10
0.0
 20
0.0
 30
0.0
  3
*D7
  1

  0
LINE
  5
39C
330
2E4
100
AcDbEntity
  8
0
 62
     0
370
    -2
100
AcDbLine
 10
57.73989115864565
 20
392.1611089510561
 30
-0.0000000000000002
 11
31.66174988103228
 21
392.1611089510561
 31
-0.0000000000000002
  0
LINE
  5
39D
330
2E4
100
AcDbEntity
  8
0
 62
     0
370
    -2
100
AcDbLine
 10
56.12907475239585
 20
10.39762066980663
 30
-0.0000000000000002
 11
31.6617498810322
 21
10.39762066980663
 31
-0.0000000000000002
  0
LINE
  5
39E
330
2E4
100
AcDbEntity
  8
0
 62
     0
370
    -2
100
AcDbLine
 10
32.91174988103228
 20
382.1611089510561
 30
-0.0000000000000002
 11
32.91174988103224
 21
223.6934400029502
 31
-0.0000000000000002
  0
LINE
  5
39F
330
2E4
100
AcDbEntity
  8
0
 62
     0
370
    -2
100
AcDbLine
 10
32.9117498810322
 20
20.39762066980664
 30
-0.0000000000000002
 11
32.91174988103224
 21
195.7767733362835
 31
-0.0000000000000002
  0
SOLID
  5
3A0
330
2E4
100
AcDbEntity
  8
0
 62
     0
100
AcDbTrace
 10
31.24508321436561
 20
382.1611089510561
 30
-0.0000000000000002
 11
34.57841654769894
 21
382.1611089510561
 31
-0.0000000000000002
 12
32.91174988103228
 22
392.1611089510561
 32
-0.0000000000000002
 13
32.91174988103228
 23
392.1611089510561
 33
-0.0000000000000002
  0
SOLID
  5
3A1
330
2E4
100
AcDbEntity
  8
0
 62
     0
100
AcDbTrace
 10
31.24508321436553
 20
20.39762066980664
 30
-0.0000000000000002
 11
34.57841654769886
 21
20.39762066980664
 31
-0.0000000000000002
 12
32.91174988103219
 22
10.39762066980663
 32
-0.0000000000000002
 13
32.91174988103219
 23
10.39762066980663
 33
-0.0000000000000002
  0
MTEXT
  5
3A2
330
2E4
100
AcDbEntity
  8
0
 62
     0
370
     0
100
AcDbMText
 10
32.91174988103221
 20
209.7351066696169
 30
-0.0000000000000002
 40
10.0
 41
0.0
 71
     5
 72
     1
  1
382
 11
0.0000000000000001
 21
1.0
 31
0.0
 73
     1
 44
1.0
1001
ACAD
1000
MTEXTBEGIN
1070
    73
1070
     1
1070
    44
1040
1.0
1070
    74
1070
     0
1000
MTEXTEND
  0
POINT
  5
3A3
330
2E4
100
AcDbEntity
  8
Defpoints
 62
     0
100
AcDbPoint
 10
58.36489115864565
 20
392.1611089510561
 30
0.0
  0
POINT
  5
3A4
330
2E4
100
AcDbEntity
  8
Defpoints
 62
     0
100
AcDbPoint
 10
56.75407475239585
 20
10.39762066980663
 30
0.0
  0
POINT
  5
3A5
330
2E4
100
AcDbEntity
  8
Defpoints
 62
     0
100
AcDbPoint
 10
32.91174988103219
 20
10.39762066980663
 30
-0.0000000000000002
  0
ENDBLK
  5
2E6
330
2E4
100
AcDbEntity
  8
0
100
AcDbBlockEnd
  0
BLOCK
  5
2F2
330
2F1
100
AcDbEntity
  8
0
100
AcDbBlockBegin
  2
*D8
 70
     1
 10
0.0
 20
0.0
 30
0.0
  3
*D8
  1

  0
LINE
  5
3A6
330
2F1
100
AcDbEntity
  8
0
 62
     0
370
    -2
100
AcDbLine
 10
257.0322479294792
 20
391.4437746799141
 30
0.0
 11
257.0322479294792
 21
415.2701216603676
 31
0.0
  0
LINE
  5
3A7
330
2F1
100
AcDbEntity
  8
0
 62
     0
370
    -2
100
AcDbLine
 10
276.8989836065629
 20
392.7861089510561
 30
0.0
 11
276.8989836065629
 21
415.2701216603676
 31
0.0
  0
LINE
  5
3A8
330
2F1
100
AcDbEntity
  8
0
 62
     0
370
    -2
100
AcDbLine
 10
247.0322479294793
 20
414.0201216603676
 30
0.0
 11
237.0322479294793
 21
414.0201216603676
 31
0.0
  0
LINE
  5
3A9
330
2F1
100
AcDbEntity
  8
0
 62
     0
370
    -2
100
AcDbLine
 10
286.8989836065629
 20
414.0201216603676
 30
0.0
 11
296.8989836065629
 21
414.0201216603676
 31
0.0
  0
LINE
  5
3AA
330
2F1
100
AcDbEntity
  8
0
 62
     0
370
    -2
100
AcDbLine
 10
257.0322479294792
 20
414.0201216603676
 30
0.0
 11
276.8989836065629
 21
414.0201216603676
 31
0.0
  0
SOLID
  5
3AB
330
2F1
100
AcDbEntity
  8
0
 62
     0
100
AcDbTrace
 10
247.0322479294793
 20
415.6867883270343
 30
0.0
 11
247.0322479294793
 21
412.3534549937009
 31
0.0
 12
257.0322479294792
 22
414.0201216603676
 32
0.0
 13
257.0322479294792
 23
414.0201216603676
 33
0.0
  0
SOLID
  5
3AC
330
2F1
100
AcDbEntity
  8
0
 62
     0
100
AcDbTrace
 10
286.8989836065629
 20
415.6867883270343
 30
0.0
 11
286.8989836065629
 21
412.3534549937009
 31
0.0
 12
276.8989836065629
 22
414.0201216603676
 32
0.0
 13
276.8989836065629
 23
414.0201216603676
 33
0.0
  0
MTEXT
  5
3AD
330
2F1
100
AcDbEntity
  8
0
 62
     0
370
     0
100
AcDbMText
 10
305.0239836065629
 20
414.0201216603676
 30
0.0
 40
10.0
 41
0.0
 71
     5
 72
     1
  1
20
 73
     1
 44
1.0
1001
ACAD
1000
MTEXTBEGIN
1070
    73
1070
     1
1070
    44
1040
1.0
1070
    74
1070
     0
1000
MTEXTEND
  0
POINT
  5
3AE
330
2F1
100
AcDbEntity
  8
Defpoints
 62
     0
100
AcDbPoint
 10
257.0322479294792
 20
390.8187746799141
 30
0.0
  0
POINT
  5
3AF
330
2F1
100
AcDbEntity
  8
Defpoints
 62
     0
100
AcDbPoint
 10
276.8989836065629
 20
392.1611089510561
 30
0.0
  0
POINT
  5
3B0
330
2F1
100
AcDbEntity
  8
Defpoints
 62
     0
100
AcDbPoint
 10
276.8989836065629
 20
414.0201216603676
 30
0.0
  0
ENDBLK
  5
2F3
330
2F1
100
AcDbEntity
  8
0
100
AcDbBlockEnd
  0
BLOCK
  5
370
330
36F
100
AcDbEntity
  8
0
100
AcDbBlockBegin
  2
*D9
 70
     1
 10
0.0
 20
0.0
 30
0.0
  3
*D9
  1

  0
LINE
  5
3B1
330
36F
100
AcDbEntity
  8
0
 62
     0
370
    -2
100
AcDbLine
 10
56.75407475239587
 20
391.1752925448064
 30
0.0
 11
56.75407475239587
 21
415.9625386385565
 31
0.0
  0
LINE
  5
3B2
330
36F
100
AcDbEntity
  8
0
 62
     0
370
    -2
100
AcDbLine
 10
201.1906125128126
 20
391.1752925448064
 30
0.0
 11
201.1906125128126
 21
415.9625386385565
 31
0.0
  0
LINE
  5
3B3
330
36F
100
AcDbEntity
  8
0
 62
     0
370
    -2
100
AcDbLine
 10
66.75407475239587
 20
414.7125386385565
 30
0.0
 11
116.9491463669792
 21
414.7125386385565
 31
0.0
  0
LINE
  5
3B4
330
36F
100
AcDbEntity
  8
0
 62
     0
370
    -2
100
AcDbLine
 10
191.1906125128126
 20
414.7125386385565
 30
0.0
 11
141.5324797003125
 21
414.7125386385565
 31
0.0
  0
SOLID
  5
3B5
330
36F
100
AcDbEntity
  8
0
 62
     0
100
AcDbTrace
 10
66.75407475239587
 20
416.3792053052231
 30
0.0
 11
66.75407475239587
 21
413.0458719718898
 31
0.0
 12
56.75407475239587
 22
414.7125386385565
 32
0.0
 13
56.75407475239587
 23
414.7125386385565
 33
0.0
  0
SOLID
  5
3B6
330
36F
100
AcDbEntity
  8
0
 62
     0
100
AcDbTrace
 10
191.1906125128126
 20
416.3792053052231
 30
0.0
 11
191.1906125128126
 21
413.0458719718898
 31
0.0
 12
201.1906125128126
 22
414.7125386385565
 32
0.0
 13
201.1906125128126
 23
414.7125386385565
 33
0.0
  0
MTEXT
  5
3B7
330
36F
100
AcDbEntity
  8
0
 62
     0
370
     0
100
AcDbMText
 10
129.2408130336458
 20
414.7125386385565
 30
0.0
 40
10.0
 41
0.0
 71
     5
 72
     1
  1
144
 73
     1
 44
1.0
1001
ACAD
1000
MTEXTBEGIN
1070
    73
1070
     1
1070
    44
1040
1.0
1070
    74
1070
     0
1000
MTEXTEND
  0
POINT
  5
3B8
330
36F
100
AcDbEntity
  8
Defpoints
 62
     0
100
AcDbPoint
 10
56.75407475239587
 20
390.5502925448064
 30
0.0
  0
POINT
  5
3B9
330
36F
100
AcDbEntity
  8
Defpoints
 62
     0
100
AcDbPoint
 10
201.1906125128126
 20
390.5502925448064
 30
0.0
  0
POINT
  5
3BA
330
36F
100
AcDbEntity
  8
Defpoints
 62
     0
100
AcDbPoint
 10
201.1906125128126
 20
414.7125386385565
 30
0.0
  0
ENDBLK
  5
371
330
36F
100
AcDbEntity
  8
0
100
AcDbBlockEnd
  0
ENDSEC
  0
SECTION
  2
ENTITIES
  0
SPLINE
  5
22C
330
1F
100
AcDbEntity
  8
0
 62
     0
370
     5
100
AcDbSpline
210
0.0
220
0.0
230
1.0
 70
     8
 71
     3
 72
     8
 73
     4
 74
     0
 42
0.0000000001
 43
0.0000000001
 40
0.0
 40
0.0
 40
0.0
 40
0.0
 40
1.0
 40
1.0
 40
1.0
 40
1.0
 10
63.73427917947987
 20
10.39762066980663
 30
0.0
 10
65.34509558572961
 20
10.39762066980663
 30
0.0
 10
66.41897318989609
 20
11.47149827397312
 30
0.0
 10
66.41897318989609
 20
13.08231468022286
 30
0.0
  0
LWPOLYLINE
  5
22D
330
1F
100
AcDbEntity
  8
0
 62
     0
370
     5
100
AcDbPolyline
 90
        2
 70
     0
 43
0.0
 10
66.41897318989609
 20
73.75639931563964
 10
66.41897318989609
 20
13.08231468022286
  0
LWPOLYLINE
  5
22E
330
1F
100
AcDbEntity
  8
0
 62
     0
370
     5
100
AcDbPolyline
 90
        2
 70
     0
 43
0.0
 10
66.41897318989609
 20
304.640084211473
 10
66.41897318989609
 20
113.4898706698066
  0
LWPOLYLINE
  5
22F
330
1F
100
AcDbEntity
  8
0
 62
     0
370
     5
100
AcDbPolyline
 90
        2
 70
     0
 43
0.0
 10
66.41897318989609
 20
381.9592717114731
 10
66.41897318989609
 20
344.3735555656395
  0
LWPOLYLINE
  5
230
330
1F
100
AcDbEntity
  8
0
 62
     0
370
     5
100
AcDbPolyline
 90
        2
 70
     0
 43
0.0
 10
56.75407475239585
 20
390.5502925448064
 10
56.75407475239585
 20
18.98864150313993
  0
LWPOLYLINE
  5
231
330
1F
100
AcDbEntity
  8
0
 62
     0
370
     5
100
AcDbPolyline
 90
        2
 70
     0
 43
0.0
 10
56.75407475239585
 20
10.39762066980663
 10
56.75407475239585
 20
18.98864150313993
  0
SPLINE
  5
232
330
1F
100
AcDbEntity
  8
0
 62
     0
370
     5
100
AcDbSpline
210
0.0
220
0.0
230
1.0
 70
     8
 71
     3
 72
     8
 73
     4
 74
     0
 42
0.0000000001
 43
0.0000000001
 40
0.0
 40
0.0
 40
0.0
 40
0.0
 40
1.0
 40
1.0
 40
1.0
 40
1.0
 10
58.3648911586465
 20
392.1611089510561
 30
0.0
 10
57.82795235656326
 20
392.1611089510561
 30
0.0
 10
56.75407475239585
 20
391.6241701489733
 30
0.0
 10
56.75407475239585
 20
390.5502925448064
 30
0.0
  0
SPLINE
  5
233
330
1F
100
AcDbEntity
  8
0
 62
     0
370
     5
100
AcDbSpline
210
0.0
220
0.0
230
1.0
 70
     8
 71
     3
 72
     8
 73
     4
 74
     0
 42
0.0000000001
 43
0.0000000001
 40
0.0
 40
0.0
 40
0.0
 40
0.0
 40
1.0
 40
1.0
 40
1.0
 40
1.0
 10
201.1906125128126
 20
390.5502925448064
 30
0.0
 10
201.1906125128126
 20
391.6241701489733
 30
0.0
 10
200.6536737107293
 20
392.1611089510561
 30
0.0
 10
199.5797961065628
 20
392.1611089510561
 30
0.0
  0
LWPOLYLINE
  5
234
330
1F
100
AcDbEntity
  8
0
 62
     0
370
     5
100
AcDbPolyline
 90
        2
 70
     0
 43
0.0
 10
58.3648911586465
 20
392.1611089510561
 10
199.5797961065628
 20
392.1611089510561
  0
LWPOLYLINE
  5
235
330
1F
100
AcDbEntity
  8
0
 62
     0
370
     5
100
AcDbPolyline
 90
        2
 70
     0
 43
0.0
 10
201.1906125128126
 20
390.5502925448064
 10
201.1906125128126
 20
18.98864150313993
  0
LWPOLYLINE
  5
236
330
1F
100
AcDbEntity
  8
0
 62
     0
370
     5
100
AcDbPolyline
 90
        2
 70
     0
 43
0.0
 10
67.49285079406257
 20
382.4962105135563
 10
190.988775273229
 20
382.4962105135563
  0
LWPOLYLINE
  5
237
330
1F
100
AcDbEntity
  8
0
 62
     0
370
     5
100
AcDbPolyline
 90
        2
 70
     0
 43
0.0
 10
201.1906125128126
 20
18.98864150313993
 10
201.1906125128126
 20
10.39762066980663
  0
SPLINE
  5
238
330
1F
100
AcDbEntity
  8
0
 62
     0
370
     5
100
AcDbSpline
210
0.0
220
0.0
230
1.0
 70
     8
 71
     3
 72
     8
 73
     4
 74
     0
 42
0.0000000001
 43
0.0000000001
 40
0.0
 40
0.0
 40
0.0
 40
0.0
 40
1.0
 40
1.0
 40
1.0
 40
1.0
 10
191.5257140753123
 20
13.08231468022286
 30
0.0
 10
191.5257140753123
 20
11.47149827397312
 30
0.0
 10
192.5995916794797
 20
10.39762066980663
 30
0.0
 10
194.2104080857294
 20
10.39762066980663
 30
0.0
  0
LWPOLYLINE
  5
239
330
1F
100
AcDbEntity
  8
0
 62
     0
370
     5
100
AcDbPolyline
 90
        2
 70
     0
 43
0.0
 10
191.5257140753123
 20
113.4898706698066
 10
191.5257140753123
 20
320.7482482739731
  0
LWPOLYLINE
  5
23A
330
1F
100
AcDbEntity
  8
0
 62
     0
370
     5
100
AcDbPolyline
 90
        2
 70
     0
 43
0.0
 10
191.5257140753123
 20
13.08231468022286
 10
191.5257140753123
 20
73.75639931563964
  0
LWPOLYLINE
  5
23B
330
1F
100
AcDbEntity
  8
0
 62
     0
370
     5
100
AcDbPolyline
 90
        2
 70
     0
 43
0.0
 10
191.5257140753123
 20
360.4817196281401
 10
191.5257140753123
 20
381.9592717114731
  0
LWPOLYLINE
  5
23C
330
1F
100
AcDbEntity
  8
0
 62
     0
370
     5
100
AcDbPolyline
 90
        2
 70
     0
 43
0.0
 10
68.02978959614671
 20
113.4898706698066
 10
68.02978959614671
 20
73.75639931563964
  0
LWPOLYLINE
  5
23D
330
1F
100
AcDbEntity
  8
0
 62
     0
370
     5
100
AcDbPolyline
 90
        2
 70
     0
 43
0.0
 10
66.95591199197932
 20
73.75639931563964
 10
68.02978959614671
 20
73.75639931563964
  0
LWPOLYLINE
  5
23E
330
1F
100
AcDbEntity
  8
0
 62
     0
370
     5
100
AcDbPolyline
 90
        2
 70
     0
 43
0.0
 10
68.02978959614671
 20
113.4898706698066
 10
66.95591199197932
 20
113.4898706698066
  0
LWPOLYLINE
  5
23F
330
1F
100
AcDbEntity
  8
0
 62
     0
370
     5
100
AcDbPolyline
 90
        2
 70
     0
 43
0.0
 10
68.02978959614671
 20
344.3735555656395
 10
68.02978959614671
 20
304.640084211473
  0
LWPOLYLINE
  5
240
330
1F
100
AcDbEntity
  8
0
 62
     0
370
     5
100
AcDbPolyline
 90
        2
 70
     0
 43
0.0
 10
66.95591199197932
 20
304.640084211473
 10
68.02978959614671
 20
304.640084211473
  0
LWPOLYLINE
  5
241
330
1F
100
AcDbEntity
  8
0
 62
     0
370
     5
100
AcDbPolyline
 90
        2
 70
     0
 43
0.0
 10
68.02978959614671
 20
344.3735555656395
 10
66.95591199197932
 20
344.3735555656395
  0
LWPOLYLINE
  5
242
330
1F
100
AcDbEntity
  8
0
 62
     0
370
     5
100
AcDbPolyline
 90
        2
 70
     0
 43
0.0
 10
189.9148976690625
 20
320.7482482739731
 10
189.9148976690625
 20
360.4817196281401
  0
LWPOLYLINE
  5
243
330
1F
100
AcDbEntity
  8
0
 62
     0
370
     5
100
AcDbPolyline
 90
        2
 70
     0
 43
0.0
 10
189.9148976690625
 20
320.7482482739731
 10
190.988775273229
 20
320.7482482739731
  0
LWPOLYLINE
  5
244
330
1F
100
AcDbEntity
  8
0
 62
     0
370
     5
100
AcDbPolyline
 90
        2
 70
     0
 43
0.0
 10
190.988775273229
 20
360.4817196281401
 10
189.9148976690625
 20
360.4817196281401
  0
LWPOLYLINE
  5
245
330
1F
100
AcDbEntity
  8
0
 62
     0
370
     5
100
AcDbPolyline
 90
        2
 70
     0
 43
0.0
 10
189.9148976690625
 20
73.75639931563964
 10
189.9148976690625
 20
113.4898706698066
  0
LWPOLYLINE
  5
246
330
1F
100
AcDbEntity
  8
0
 62
     0
370
     5
100
AcDbPolyline
 90
        2
 70
     0
 43
0.0
 10
189.9148976690625
 20
73.75639931563964
 10
190.988775273229
 20
73.75639931563964
  0
LWPOLYLINE
  5
247
330
1F
100
AcDbEntity
  8
0
 62
     0
370
     5
100
AcDbPolyline
 90
        2
 70
     0
 43
0.0
 10
190.988775273229
 20
113.4898706698066
 10
189.9148976690625
 20
113.4898706698066
  0
LWPOLYLINE
  5
248
330
1F
100
AcDbEntity
  8
0
 62
     0
370
     5
100
AcDbPolyline
 90
        2
 70
     0
 43
0.0
 10
58.90182996072974
 20
10.39762066980663
 10
63.73427917947987
 20
10.39762066980663
  0
LWPOLYLINE
  5
249
330
1F
100
AcDbEntity
  8
0
 62
     0
370
     5
100
AcDbPolyline
 90
        2
 70
     0
 43
0.0
 10
56.75407475239585
 20
10.39762066980663
 10
58.3648911586465
 20
10.39762066980663
  0
LWPOLYLINE
  5
24A
330
1F
100
AcDbEntity
  8
0
 62
     0
370
     5
100
AcDbPolyline
 90
        2
 70
     0
 43
0.0
 10
58.3648911586465
 20
10.39762066980663
 10
58.90182996072974
 20
10.39762066980663
  0
LWPOLYLINE
  5
24B
330
1F
100
AcDbEntity
  8
0
 62
     0
370
     5
100
AcDbPolyline
 90
        2
 70
     0
 43
0.0
 10
66.41897318989609
 20
344.3735555656395
 10
66.95591199197932
 20
344.3735555656395
  0
LWPOLYLINE
  5
24C
330
1F
100
AcDbEntity
  8
0
 62
     0
370
     5
100
AcDbPolyline
 90
        2
 70
     0
 43
0.0
 10
66.95591199197932
 20
304.640084211473
 10
66.41897318989609
 20
304.640084211473
  0
LWPOLYLINE
  5
24D
330
1F
100
AcDbEntity
  8
0
 62
     0
370
     5
100
AcDbPolyline
 90
        2
 70
     0
 43
0.0
 10
66.41897318989609
 20
113.4898706698066
 10
66.95591199197932
 20
113.4898706698066
  0
LWPOLYLINE
  5
24E
330
1F
100
AcDbEntity
  8
0
 62
     0
370
     5
100
AcDbPolyline
 90
        2
 70
     0
 43
0.0
 10
66.95591199197932
 20
73.75639931563964
 10
66.41897318989609
 20
73.75639931563964
  0
SPLINE
  5
24F
330
1F
100
AcDbEntity
  8
0
 62
     0
370
     5
100
AcDbSpline
210
0.0
220
0.0
230
1.0
 70
    24
 71
     3
 72
     8
 73
     4
 74
     0
 42
0.0000000001
 43
0.0000000001
 40
0.0
 40
0.0
 40
0.0
 40
0.0
 40
1.0
 40
1.0
 40
1.0
 40
1.0
 10
57.82795235656326
 20
10.39762066980663
 30
0.0
 10
58.3648911586465
 20
10.39762066980663
 30
0.0
 10
58.3648911586465
 20
10.39762066980663
 30
0.0
 10
58.3648911586465
 20
10.39762066980663
 30
0.0
  0
SPLINE
  5
250
330
1F
100
AcDbEntity
  8
0
 62
     0
370
     5
100
AcDbSpline
210
0.0
220
0.0
230
1.0
 70
    27
 71
     3
 72
     8
 73
     4
 74
     0
 42
0.0000000001
 43
0.0000000001
 40
0.0
 40
0.0
 40
0.0
 40
0.0
 40
1.0
 40
1.0
 40
1.0
 40
1.0
 10
56.75407475239585
 20
10.39762066980663
 30
0.0
 10
56.75407475239585
 20
10.39762066980663
 30
0.0
 10
56.75407475239585
 20
10.39762066980663
 30
0.0
 10
56.75407475239585
 20
10.39762066980663
 30
0.0
  0
LWPOLYLINE
  5
251
330
1F
100
AcDbEntity
  8
0
 62
     0
370
     5
100
AcDbPolyline
 90
        2
 70
     0
 43
0.0
 10
190.988775273229
 20
382.4962105135563
 10
198.5059185023972
 20
390.0133537427226
  0
LWPOLYLINE
  5
252
330
1F
100
AcDbEntity
  8
0
 62
     0
370
     5
100
AcDbPolyline
 90
        2
 70
     0
 43
0.0
 10
198.5059185023972
 20
390.0133537427226
 10
199.0428573044805
 20
391.0872313468896
  0
LWPOLYLINE
  5
253
330
1F
100
AcDbEntity
  8
0
 62
     0
370
     5
100
AcDbPolyline
 90
        2
 70
     0
 43
0.0
 10
59.4387687628139
 20
390.0133537427226
 10
58.90182996072974
 20
391.0872313468896
  0
LWPOLYLINE
  5
254
330
1F
100
AcDbEntity
  8
0
 62
     0
370
     5
100
AcDbPolyline
 90
        2
 70
     0
 43
0.0
 10
67.49285079406257
 20
382.4962105135563
 10
59.4387687628139
 20
390.0133537427226
  0
LWPOLYLINE
  5
255
330
1F
100
AcDbEntity
  8
0
 62
     0
370
     5
100
AcDbPolyline
 90
        2
 70
     0
 43
0.0
 10
199.0428573044805
 20
10.39762066980663
 10
199.5797961065628
 20
10.39762066980663
  0
LWPOLYLINE
  5
256
330
1F
100
AcDbEntity
  8
0
 62
     0
370
     5
100
AcDbPolyline
 90
        2
 70
     0
 43
0.0
 10
199.5797961065628
 20
10.39762066980663
 10
201.1906125128126
 20
10.39762066980663
  0
LWPOLYLINE
  5
257
330
1F
100
AcDbEntity
  8
0
 62
     0
370
     5
100
AcDbPolyline
 90
        2
 70
     0
 43
0.0
 10
194.2104080857294
 20
10.39762066980663
 10
199.0428573044805
 20
10.39762066980663
  0
LWPOLYLINE
  5
258
330
1F
100
AcDbEntity
  8
0
 62
     0
370
     5
100
AcDbPolyline
 90
        2
 70
     0
 43
0.0
 10
191.5257140753123
 20
73.75639931563964
 10
190.988775273229
 20
73.75639931563964
  0
LWPOLYLINE
  5
259
330
1F
100
AcDbEntity
  8
0
 62
     0
370
     5
100
AcDbPolyline
 90
        2
 70
     0
 43
0.0
 10
190.988775273229
 20
113.4898706698066
 10
191.5257140753123
 20
113.4898706698066
  0
LWPOLYLINE
  5
25A
330
1F
100
AcDbEntity
  8
0
 62
     0
370
     5
100
AcDbPolyline
 90
        2
 70
     0
 43
0.0
 10
191.5257140753123
 20
320.7482482739731
 10
190.988775273229
 20
320.7482482739731
  0
LWPOLYLINE
  5
25B
330
1F
100
AcDbEntity
  8
0
 62
     0
370
     5
100
AcDbPolyline
 90
        2
 70
     0
 43
0.0
 10
190.988775273229
 20
360.4817196281401
 10
191.5257140753123
 20
360.4817196281401
  0
SPLINE
  5
25C
330
1F
100
AcDbEntity
  8
0
 62
     0
370
     5
100
AcDbSpline
210
0.0
220
0.0
230
1.0
 70
    24
 71
     3
 72
     8
 73
     4
 74
     0
 42
0.0000000001
 43
0.0000000001
 40
0.0
 40
0.0
 40
0.0
 40
0.0
 40
1.0
 40
1.0
 40
1.0
 40
1.0
 10
200.1167349086461
 20
10.39762066980663
 30
0.0
 10
199.5797961065628
 20
10.39762066980663
 30
0.0
 10
199.5797961065628
 20
10.39762066980663
 30
0.0
 10
199.5797961065628
 20
10.39762066980663
 30
0.0
  0
SPLINE
  5
25D
330
1F
100
AcDbEntity
  8
0
 62
     0
370
     5
100
AcDbSpline
210
0.0
220
0.0
230
1.0
 70
    27
 71
     3
 72
     8
 73
     4
 74
     0
 42
0.0000000001
 43
0.0000000001
 40
0.0
 40
0.0
 40
0.0
 40
0.0
 40
1.0
 40
1.0
 40
1.0
 40
1.0
 10
201.1906125128126
 20
10.39762066980663
 30
0.0
 10
201.1906125128126
 20
10.39762066980663
 30
0.0
 10
201.1906125128126
 20
10.39762066980663
 30
0.0
 10
201.1906125128126
 20
10.39762066980663
 30
0.0
  0
SPLINE
  5
25E
330
1F
100
AcDbEntity
  8
0
 62
     0
370
     5
100
AcDbSpline
210
0.0
220
0.0
230
1.0
 70
     8
 71
     3
 72
    11
 73
     7
 74
     0
 42
0.0000000001
 43
0.0000000001
 40
0.0
 40
0.0
 40
0.0
 40
0.0
 40
1.0
 40
1.0
 40
1.0
 40
2.0
 40
2.0
 40
2.0
 40
2.0
 10
246.2934718878134
 20
92.01231858647361
 30
0.0
 10
246.8304106898966
 20
92.01231858647361
 30
0.0
 10
247.9042882940622
 20
92.54925738855641
 30
0.0
 10
247.9042882940622
 20
93.62313499272335
 30
0.0
 10
247.9042882940622
 20
94.69701259688983
 30
0.0
 10
247.367349491979
 20
95.23395139897308
 30
0.0
 10
246.2934718878134
 20
95.23395139897308
 30
0.0
  0
LWPOLYLINE
  5
25F
330
1F
100
AcDbEntity
  8
0
 62
     0
370
     5
100
AcDbPolyline
 90
        2
 70
     0
 43
0.0
 10
246.2934718878134
 20
95.23395139897308
 10
231.2591854294798
 20
95.23395139897308
  0
LWPOLYLINE
  5
260
330
1F
100
AcDbEntity
  8
0
 62
     0
370
     5
100
AcDbPolyline
 90
        2
 70
     0
 43
0.0
 10
231.2591854294798
 20
92.01231858647361
 10
246.2934718878134
 20
92.01231858647361
  0
SPLINE
  5
261
330
1F
100
AcDbEntity
  8
0
 62
     0
370
     5
100
AcDbSpline
210
0.0
220
0.0
230
1.0
 70
     8
 71
     3
 72
     8
 73
     4
 74
     0
 42
0.0000000001
 43
0.0000000001
 40
0.0
 40
0.0
 40
0.0
 40
0.0
 40
1.0
 40
1.0
 40
1.0
 40
1.0
 10
228.0375526169785
 20
98.45558421147348
 30
0.0
 10
228.0375526169785
 20
96.84476780522329
 30
0.0
 10
229.64836902323
 20
95.77089020105635
 30
0.0
 10
231.2591854294798
 20
95.23395139897308
 30
0.0
  0
SPLINE
  5
262
330
1F
100
AcDbEntity
  8
0
 62
     0
370
     5
100
AcDbSpline
210
0.0
220
0.0
230
1.0
 70
     8
 71
     3
 72
     8
 73
     4
 74
     0
 42
0.0000000001
 43
0.0000000001
 40
0.0
 40
0.0
 40
0.0
 40
0.0
 40
1.0
 40
1.0
 40
1.0
 40
1.0
 10
228.0375526169785
 20
76.44109332605677
 30
0.0
 10
228.0375526169785
 20
74.83027691980658
 30
0.0
 10
229.64836902323
 20
73.75639931563964
 30
0.0
 10
231.2591854294798
 20
73.75639931563964
 30
0.0
  0
LWPOLYLINE
  5
263
330
1F
100
AcDbEntity
  8
0
 62
     0
370
     5
100
AcDbPolyline
 90
        2
 70
     0
 43
0.0
 10
228.0375526169785
 20
88.79068577397323
 10
228.0375526169785
 20
76.44109332605677
  0
SPLINE
  5
264
330
1F
100
AcDbEntity
  8
0
 62
     0
370
     5
100
AcDbSpline
210
0.0
220
0.0
230
1.0
 70
     8
 71
     3
 72
     8
 73
     4
 74
     0
 42
0.0000000001
 43
0.0000000001
 40
0.0
 40
0.0
 40
0.0
 40
0.0
 40
1.0
 40
1.0
 40
1.0
 40
1.0
 10
231.2591854294798
 20
92.01231858647361
 30
0.0
 10
229.64836902323
 20
92.01231858647361
 30
0.0
 10
228.0375526169785
 20
90.40150218022295
 30
0.0
 10
228.0375526169785
 20
88.79068577397323
 30
0.0
  0
LWPOLYLINE
  5
265
330
1F
100
AcDbEntity
  8
0
 62
     0
370
     5
100
AcDbPolyline
 90
        2
 70
     0
 43
0.0
 10
228.0375526169785
 20
110.8051766593899
 10
228.0375526169785
 20
98.45558421147348
  0
SPLINE
  5
266
330
1F
100
AcDbEntity
  8
0
 62
     0
370
     5
100
AcDbSpline
210
0.0
220
0.0
230
1.0
 70
     8
 71
     3
 72
     8
 73
     4
 74
     0
 42
0.0000000001
 43
0.0000000001
 40
0.0
 40
0.0
 40
0.0
 40
0.0
 40
1.0
 40
1.0
 40
1.0
 40
1.0
 10
231.2591854294798
 20
113.4898706698066
 30
0.0
 10
229.64836902323
 20
113.4898706698066
 30
0.0
 10
228.0375526169785
 20
112.4159930656396
 30
0.0
 10
228.0375526169785
 20
110.8051766593899
 30
0.0
  0
SPLINE
  5
267
330
1F
100
AcDbEntity
  8
0
 62
     0
370
     5
100
AcDbSpline
210
0.0
220
0.0
230
1.0
 70
     8
 71
     3
 72
    11
 73
     7
 74
     0
 42
0.0000000001
 43
0.0000000001
 40
0.0
 40
0.0
 40
0.0
 40
0.0
 40
1.0
 40
1.0
 40
1.0
 40
2.0
 40
2.0
 40
2.0
 40
2.0
 10
246.2934718878134
 20
322.8960034823061
 30
0.0
 10
246.8304106898966
 20
322.8960034823061
 30
0.0
 10
247.9042882940622
 20
323.4329422843897
 30
0.0
 10
247.9042882940622
 20
324.5068198885567
 30
0.0
 10
247.9042882940622
 20
325.5806974927232
 30
0.0
 10
247.367349491979
 20
326.1176362948065
 30
0.0
 10
246.2934718878134
 20
326.1176362948065
 30
0.0
  0
LWPOLYLINE
  5
268
330
1F
100
AcDbEntity
  8
0
 62
     0
370
     5
100
AcDbPolyline
 90
        2
 70
     0
 43
0.0
 10
246.2934718878134
 20
326.1176362948065
 10
231.2591854294798
 20
326.1176362948065
  0
LWPOLYLINE
  5
269
330
1F
100
AcDbEntity
  8
0
 62
     0
370
     5
100
AcDbPolyline
 90
        2
 70
     0
 43
0.0
 10
231.2591854294798
 20
322.8960034823061
 10
246.2934718878134
 20
322.8960034823061
  0
SPLINE
  5
26A
330
1F
100
AcDbEntity
  8
0
 62
     0
370
     5
100
AcDbSpline
210
0.0
220
0.0
230
1.0
 70
     8
 71
     3
 72
     8
 73
     4
 74
     0
 42
0.0000000001
 43
0.0000000001
 40
0.0
 40
0.0
 40
0.0
 40
0.0
 40
1.0
 40
1.0
 40
1.0
 40
1.0
 10
228.0375526169785
 20
329.3392691073059
 30
0.0
 10
228.0375526169785
 20
327.7284527010562
 30
0.0
 10
229.64836902323
 20
326.1176362948065
 30
0.0
 10
231.2591854294798
 20
326.1176362948065
 30
0.0
  0
SPLINE
  5
26B
330
1F
100
AcDbEntity
  8
0
 62
     0
370
     5
100
AcDbSpline
210
0.0
220
0.0
230
1.0
 70
     8
 71
     3
 72
     8
 73
     4
 74
     0
 42
0.0000000001
 43
0.0000000001
 40
0.0
 40
0.0
 40
0.0
 40
0.0
 40
1.0
 40
1.0
 40
1.0
 40
1.0
 10
228.0375526169785
 20
307.3247782218896
 30
0.0
 10
228.0375526169785
 20
305.7139618156395
 30
0.0
 10
229.64836902323
 20
304.640084211473
 30
0.0
 10
231.2591854294798
 20
304.640084211473
 30
0.0
  0
LWPOLYLINE
  5
26C
330
1F
100
AcDbEntity
  8
0
 62
     0
370
     5
100
AcDbPolyline
 90
        2
 70
     0
 43
0.0
 10
228.0375526169785
 20
319.6743706698066
 10
228.0375526169785
 20
307.3247782218896
  0
SPLINE
  5
26D
330
1F
100
AcDbEntity
  8
0
 62
     0
370
     5
100
AcDbSpline
210
0.0
220
0.0
230
1.0
 70
     8
 71
     3
 72
     8
 73
     4
 74
     0
 42
0.0000000001
 43
0.0000000001
 40
0.0
 40
0.0
 40
0.0
 40
0.0
 40
1.0
 40
1.0
 40
1.0
 40
1.0
 10
231.2591854294798
 20
322.8960034823061
 30
0.0
 10
229.64836902323
 20
322.8960034823061
 30
0.0
 10
228.0375526169785
 20
321.2851870760563
 30
0.0
 10
228.0375526169785
 20
319.6743706698066
 30
0.0
  0
LWPOLYLINE
  5
26E
330
1F
100
AcDbEntity
  8
0
 62
     0
370
     5
100
AcDbPolyline
 90
        2
 70
     0
 43
0.0
 10
228.0375526169785
 20
341.6888615552228
 10
228.0375526169785
 20
329.3392691073059
  0
SPLINE
  5
26F
330
1F
100
AcDbEntity
  8
0
 62
     0
370
     5
100
AcDbSpline
210
0.0
220
0.0
230
1.0
 70
     8
 71
     3
 72
     8
 73
     4
 74
     0
 42
0.0000000001
 43
0.0000000001
 40
0.0
 40
0.0
 40
0.0
 40
0.0
 40
1.0
 40
1.0
 40
1.0
 40
1.0
 10
231.2591854294798
 20
344.3735555656395
 30
0.0
 10
229.64836902323
 20
344.3735555656395
 30
0.0
 10
228.0375526169785
 20
343.299677961473
 30
0.0
 10
228.0375526169785
 20
341.6888615552228
 30
0.0
  0
LWPOLYLINE
  5
270
330
1F
100
AcDbEntity
  8
0
 62
     0
370
     5
100
AcDbPolyline
 90
        2
 70
     0
 43
0.0
 10
228.0375526169785
 20
338.4672287427234
 10
225.8897974086464
 20
338.4672287427234
  0
LWPOLYLINE
  5
271
330
1F
100
AcDbEntity
  8
0
 62
     0
370
     5
100
AcDbPolyline
 90
        2
 70
     0
 43
0.0
 10
225.8897974086464
 20
342.2258003573061
 10
228.0375526169785
 20
342.2258003573061
  0
SPLINE
  5
272
330
1F
100
AcDbEntity
  8
0
 62
     0
370
     5
100
AcDbSpline
210
0.0
220
0.0
230
1.0
 70
     8
 71
     3
 72
     8
 73
     4
 74
     0
 42
0.0000000001
 43
0.0000000001
 40
0.0
 40
0.0
 40
0.0
 40
0.0
 40
1.0
 40
1.0
 40
1.0
 40
1.0
 10
225.8897974086464
 20
338.4672287427234
 30
0.0
 10
224.2789810023958
 20
338.4672287427234
 30
0.0
 10
223.2051033982293
 20
337.3933511385564
 30
0.0
 10
223.2051033982293
 20
335.7825347323062
 30
0.0
  0
SPLINE
  5
273
330
1F
100
AcDbEntity
  8
0
 62
     0
370
     5
100
AcDbSpline
210
0.0
220
0.0
230
1.0
 70
     8
 71
     3
 72
     8
 73
     4
 74
     0
 42
0.0000000001
 43
0.0000000001
 40
0.0
 40
0.0
 40
0.0
 40
0.0
 40
1.0
 40
1.0
 40
1.0
 40
1.0
 10
223.2051033982293
 20
323.4329422843897
 30
0.0
 10
223.2051033982293
 20
321.82212587814
 30
0.0
 10
224.2789810023958
 20
320.7482482739731
 30
0.0
 10
225.8897974086464
 20
320.7482482739731
 30
0.0
  0
LWPOLYLINE
  5
274
330
1F
100
AcDbEntity
  8
0
 62
     0
370
     5
100
AcDbPolyline
 90
        2
 70
     0
 43
0.0
 10
223.2051033982293
 20
335.7825347323062
 10
223.2051033982293
 20
323.4329422843897
  0
SPLINE
  5
275
330
1F
100
AcDbEntity
  8
0
 62
     0
370
     5
100
AcDbSpline
210
0.0
220
0.0
230
1.0
 70
     8
 71
     3
 72
     8
 73
     4
 74
     0
 42
0.0000000001
 43
0.0000000001
 40
0.0
 40
0.0
 40
0.0
 40
0.0
 40
1.0
 40
1.0
 40
1.0
 40
1.0
 10
223.2051033982293
 20
345.4474331698065
 30
0.0
 10
223.2051033982293
 20
343.8366167635563
 30
0.0
 10
224.2789810023958
 20
342.2258003573061
 30
0.0
 10
225.8897974086464
 20
342.2258003573061
 30
0.0
  0
LWPOLYLINE
  5
276
330
1F
100
AcDbEntity
  8
0
 62
     0
370
     5
100
AcDbPolyline
 90
        2
 70
     0
 43
0.0
 10
223.2051033982293
 20
357.2600868156397
 10
223.2051033982293
 20
345.4474331698065
  0
SPLINE
  5
277
330
1F
100
AcDbEntity
  8
0
 62
     0
370
     5
100
AcDbSpline
210
0.0
220
0.0
230
1.0
 70
     8
 71
     3
 72
     8
 73
     4
 74
     0
 42
0.0000000001
 43
0.0000000001
 40
0.0
 40
0.0
 40
0.0
 40
0.0
 40
1.0
 40
1.0
 40
1.0
 40
1.0
 10
225.8897974086464
 20
360.4817196281401
 30
0.0
 10
224.2789810023958
 20
360.4817196281401
 30
0.0
 10
223.2051033982293
 20
359.4078420239731
 30
0.0
 10
223.2051033982293
 20
357.2600868156397
 30
0.0
  0
LWPOLYLINE
  5
278
330
1F
100
AcDbEntity
  8
0
 62
     0
370
     5
100
AcDbPolyline
 90
        2
 70
     0
 43
0.0
 10
276.8989836065629
 20
390.5502925448064
 10
267.2340851690627
 20
18.98864150313993
  0
SPLINE
  5
279
330
1F
100
AcDbEntity
  8
0
 62
     0
370
     5
100
AcDbSpline
210
0.0
220
0.0
230
1.0
 70
     8
 71
     3
 72
    11
 73
     7
 74
     0
 42
0.0000000001
 43
0.0000000001
 40
0.0
 40
0.0
 40
0.0
 40
0.0
 40
1.0
 40
1.0
 40
1.0
 40
2.0
 40
2.0
 40
2.0
 40
2.0
 10
258.1061255336457
 20
10.39762066980663
 30
0.0
 10
260.7908195440638
 20
10.39762066980663
 30
0.0
 10
263.4755135544791
 20
11.47149827397312
 30
0.0
 10
265.0863299607297
 20
13.61925348230656
 30
0.0
 10
266.6971463669794
 20
15.23006988855675
 30
0.0
 10
267.2340851690627
 20
16.84088629480649
 30
0.0
 10
267.2340851690627
 20
18.98864150313993
 30
0.0
  0
SPLINE
  5
27B
330
1F
100
AcDbEntity
  8
0
 62
     0
370
     5
100
AcDbSpline
210
0.0
220
0.0
230
1.0
 70
    24
 71
     3
 72
     8
 73
     4
 74
     0
 42
0.0000000001
 43
0.0000000001
 40
0.0
 40
0.0
 40
0.0
 40
0.0
 40
1.0
 40
1.0
 40
1.0
 40
1.0
 10
257.0322479294792
 20
390.5502925448064
 30
0.0
 10
257.0322479294792
 20
390.5502925448064
 30
0.0
 10
257.0322479294792
 20
390.5502925448064
 30
0.0
 10
257.0322479294792
 20
391.0872313468896
 30
0.0
  0
LWPOLYLINE
  5
27C
330
1F
100
AcDbEntity
  8
0
 62
     0
370
     5
100
AcDbPolyline
 90
        2
 70
     0
 43
0.0
 10
257.0322479294792
 20
390.5502925448064
 10
257.0322479294792
 20
390.0133537427226
  0
SPLINE
  5
27D
330
1F
100
AcDbEntity
  8
0
 62
     0
370
     5
100
AcDbSpline
210
0.0
220
0.0
230
1.0
 70
     8
 71
     3
 72
     8
 73
     4
 74
     0
 42
0.0000000001
 43
0.0000000001
 40
0.0
 40
0.0
 40
0.0
 40
0.0
 40
1.0
 40
1.0
 40
1.0
 40
1.0
 10
258.643064335729
 20
392.1611089510561
 30
0.0
 10
258.1061255336457
 20
392.1611089510561
 30
0.0
 10
257.5691867315625
 20
391.6241701489733
 30
0.0
 10
257.0322479294792
 20
391.0872313468896
 30
0.0
  0
LWPOLYLINE
  5
27E
330
1F
100
AcDbEntity
  8
0
 62
     0
370
     5
100
AcDbPolyline
 90
        2
 70
     0
 43
0.0
 10
258.643064335729
 20
392.1611089510561
 10
276.8989836065629
 20
392.1611089510561
  0
LWPOLYLINE
  5
27F
330
1F
100
AcDbEntity
  8
0
 62
     0
370
     5
100
AcDbPolyline
 90
        2
 70
     0
 43
0.0
 10
276.8989836065629
 20
390.5502925448064
 10
276.8989836065629
 20
392.1611089510561
  0
LWPOLYLINE
  5
280
330
1F
100
AcDbEntity
  8
0
 62
     0
370
     5
100
AcDbPolyline
 90
        2
 70
     0
 43
0.0
 10
257.0322479294792
 20
389.4764149406394
 10
257.0322479294792
 20
390.0133537427226
  0
LWPOLYLINE
  5
281
330
1F
100
AcDbEntity
  8
0
 62
     0
370
     5
100
AcDbPolyline
 90
        2
 70
     0
 43
0.0
 10
228.0375526169785
 20
320.7482482739731
 10
225.8897974086464
 20
320.7482482739731
  0
LWPOLYLINE
  5
282
330
1F
100
AcDbEntity
  8
0
 62
     0
370
     5
100
AcDbPolyline
 90
        2
 70
     0
 43
0.0
 10
257.0322479294792
 20
360.4817196281401
 10
225.8897974086464
 20
360.4817196281401
  0
SPLINE
  5
283
330
1F
100
AcDbEntity
  8
0
 62
     0
370
     5
100
AcDbSpline
210
0.0
220
0.0
230
1.0
 70
    24
 71
     3
 72
     8
 73
     4
 74
     0
 42
0.0000000001
 43
0.0000000001
 40
0.0
 40
0.0
 40
0.0
 40
0.0
 40
1.0
 40
1.0
 40
1.0
 40
1.0
 10
257.0322479294792
 20
390.0133537427226
 30
0.0
 10
257.0322479294792
 20
390.0133537427226
 30
0.0
 10
257.0322479294792
 20
389.4764149406394
 30
0.0
 10
257.0322479294792
 20
389.4764149406394
 30
0.0
  0
LWPOLYLINE
  5
284
330
1F
100
AcDbEntity
  8
0
 62
     0
370
     5
100
AcDbPolyline
 90
        2
 70
     0
 43
0.0
 10
257.0322479294792
 20
10.39762066980663
 10
258.1061255336457
 20
10.39762066980663
  0
LWPOLYLINE
  5
286
330
1F
100
AcDbEntity
  8
0
 62
     0
370
     5
100
AcDbPolyline
 90
        2
 70
     0
 43
0.0
 10
257.0322479294792
 20
10.39762066980663
 10
257.0322479294792
 20
389.4764149406394
  0
SPLINE
  5
287
330
1F
100
AcDbEntity
  8
0
 62
     0
370
     5
100
AcDbSpline
210
0.0
220
0.0
230
1.0
 70
    24
 71
     3
 72
     8
 73
     4
 74
     0
 42
0.0000000001
 43
0.0000000001
 40
0.0
 40
0.0
 40
0.0
 40
0.0
 40
1.0
 40
1.0
 40
1.0
 40
1.0
 10
257.0322479294792
 20
391.0872313468896
 30
0.0
 10
257.0322479294792
 20
390.5502925448064
 30
0.0
 10
257.0322479294792
 20
390.5502925448064
 30
0.0
 10
257.0322479294792
 20
390.0133537427226
 30
0.0
  0
LWPOLYLINE
  5
288
330
1F
100
AcDbEntity
  8
0
 62
     0
370
     5
100
AcDbPolyline
 90
        2
 70
     0
 43
0.0
 10
256.4953091273969
 20
304.640084211473
 10
231.2591854294798
 20
304.640084211473
  0
LWPOLYLINE
  5
289
330
1F
100
AcDbEntity
  8
0
 62
     0
370
     5
100
AcDbPolyline
 90
        2
 70
     0
 43
0.0
 10
256.4953091273969
 20
304.640084211473
 10
257.0322479294792
 20
304.640084211473
  0
LWPOLYLINE
  5
28A
330
1F
100
AcDbEntity
  8
0
 62
     0
370
     5
100
AcDbPolyline
 90
        2
 70
     0
 43
0.0
 10
256.4953091273969
 20
344.3735555656395
 10
231.2591854294798
 20
344.3735555656395
  0
LWPOLYLINE
  5
28B
330
1F
100
AcDbEntity
  8
0
 62
     0
370
     5
100
AcDbPolyline
 90
        2
 70
     0
 43
0.0
 10
257.0322479294792
 20
344.3735555656395
 10
256.4953091273969
 20
344.3735555656395
  0
LWPOLYLINE
  5
28C
330
1F
100
AcDbEntity
  8
0
 62
     0
370
     5
100
AcDbPolyline
 90
        2
 70
     0
 43
0.0
 10
256.4953091273969
 20
344.3735555656395
 10
256.4953091273969
 20
304.640084211473
  0
LWPOLYLINE
  5
28D
330
1F
100
AcDbEntity
  8
0
 62
     0
370
     5
100
AcDbPolyline
 90
        2
 70
     0
 43
0.0
 10
256.4953091273969
 20
73.75639931563964
 10
231.2591854294798
 20
73.75639931563964
  0
LWPOLYLINE
  5
28E
330
1F
100
AcDbEntity
  8
0
 62
     0
370
     5
100
AcDbPolyline
 90
        2
 70
     0
 43
0.0
 10
256.4953091273969
 20
73.75639931563964
 10
257.0322479294792
 20
73.75639931563964
  0
LWPOLYLINE
  5
28F
330
1F
100
AcDbEntity
  8
0
 62
     0
370
     5
100
AcDbPolyline
 90
        2
 70
     0
 43
0.0
 10
256.4953091273969
 20
113.4898706698066
 10
231.2591854294798
 20
113.4898706698066
  0
LWPOLYLINE
  5
290
330
1F
100
AcDbEntity
  8
0
 62
     0
370
     5
100
AcDbPolyline
 90
        2
 70
     0
 43
0.0
 10
257.0322479294792
 20
113.4898706698066
 10
256.4953091273969
 20
113.4898706698066
  0
LWPOLYLINE
  5
291
330
1F
100
AcDbEntity
  8
0
 62
     0
370
     5
100
AcDbPolyline
 90
        2
 70
     0
 43
0.0
 10
256.4953091273969
 20
113.4898706698066
 10
256.4953091273969
 20
73.75639931563964
  0
HATCH
  5
295
330
1F
100
AcDbEntity
  8
0
 62
     0
100
AcDbHatch
 10
0.0
 20
0.0
 30
0.0
210
0.0
220
0.0
230
1.0
  2
SOLID
 70
     1
 71
     0
 91
        1
 92
        0
 93
        1
 72
     4
 94
        3
 73
     0
 74
     1
 95
       13
 96
       13
 40
0.0
 40
0.0
 40
0.0
 40
1.0
 40
1.0
 40
1.0
 40
2.0
 40
2.0
 40
2.0
 40
3.0
 40
3.0
 40
3.0
 40
4.0
 10
545.7248391966459
 20
419.4758931328641
 10
545.8518391966459
 20
419.0948931328641
 10
545.8518391966459
 20
419.0948931328641
 10
545.6613391966459
 20
419.2218931328642
 10
545.3438391966459
 20
419.4123931328642
 10
545.0898391966459
 20
419.4758931328641
 10
545.3438391966459
 20
419.6028931328641
 10
545.6613391966459
 20
419.7298931328641
 10
545.8518391966459
 20
419.9203931328642
 10
545.8518391966459
 20
419.9203931328642
 10
545.7248391966459
 20
419.4758931328641
 10
545.7248391966459
 20
419.4758931328641
 10
545.7248391966459
 20
419.4758931328641
 97
        0
 75
     0
 76
     1
 98
        1
 10
293.645839196646
 20
89.50320713286419
  0
HATCH
  5
296
330
1F
100
AcDbEntity
  8
0
 62
     0
100
AcDbHatch
 10
0.0
 20
0.0
 30
0.0
210
0.0
220
0.0
230
1.0
  2
SOLID
 70
     1
 71
     0
 91
        1
 92
        0
 93
        1
 72
     4
 94
        3
 73
     0
 74
     1
 95
       13
 96
       13
 40
0.0
 40
0.0
 40
0.0
 40
1.0
 40
1.0
 40
1.0
 40
2.0
 40
2.0
 40
2.0
 40
3.0
 40
3.0
 40
3.0
 40
4.0
 10
561.5998391966459
 20
419.4758931328641
 10
561.4728391966459
 20
419.9203931328642
 10
561.4728391966459
 20
419.9203931328642
 10
561.6633391966458
 20
419.7298931328641
 10
561.980839196646
 20
419.6028931328641
 10
562.2348391966458
 20
419.4758931328641
 10
561.980839196646
 20
419.4123931328642
 10
561.6633391966458
 20
419.2218931328642
 10
561.4728391966459
 20
419.0948931328641
 10
561.4728391966459
 20
419.0948931328641
 10
561.5998391966459
 20
419.4758931328641
 10
561.5998391966459
 20
419.4758931328641
 10
561.5998391966459
 20
419.4758931328641
 97
        0
 75
     0
 76
     1
 98
        1
 10
293.645839196646
 20
89.50320713286419
  0
HATCH
  5
298
330
1F
100
AcDbEntity
  8
0
 62
     0
100
AcDbHatch
 10
0.0
 20
0.0
 30
0.0
210
0.0
220
0.0
230
1.0
  2
SOLID
 70
     1
 71
     0
 91
        1
 92
        0
 93
        1
 72
     4
 94
        3
 73
     0
 74
     1
 95
       13
 96
       13
 40
0.0
 40
0.0
 40
0.0
 40
1.0
 40
1.0
 40
1.0
 40
2.0
 40
2.0
 40
2.0
 40
3.0
 40
3.0
 40
3.0
 40
4.0
 10
569.283339196646
 20
419.6028931328641
 10
569.4103391966459
 20
419.1583931328642
 10
569.4103391966459
 20
419.1583931328642
 10
569.219839196646
 20
419.3488931328642
 10
568.9023391966459
 20
419.4758931328641
 10
568.648339196646
 20
419.6028931328641
 10
568.9023391966459
 20
419.6663931328641
 10
569.219839196646
 20
419.8568931328641
 10
569.4103391966459
 20
419.9838931328641
 10
569.4103391966459
 20
419.9838931328641
 10
569.283339196646
 20
419.6028931328641
 10
569.283339196646
 20
419.6028931328641
 10
569.283339196646
 20
419.6028931328641
 97
        0
 75
     0
 76
     1
 98
        1
 10
293.645839196646
 20
89.50320713286419
  0
HATCH
  5
299
330
1F
100
AcDbEntity
  8
0
 62
     0
100
AcDbHatch
 10
0.0
 20
0.0
 30
0.0
210
0.0
220
0.0
230
1.0
  2
SOLID
 70
     1
 71
     0
 91
        1
 92
        0
 93
        1
 72
     4
 94
        3
 73
     0
 74
     1
 95
       13
 96
       13
 40
0.0
 40
0.0
 40
0.0
 40
1.0
 40
1.0
 40
1.0
 40
2.0
 40
2.0
 40
2.0
 40
3.0
 40
3.0
 40
3.0
 40
4.0
 10
570.426339196646
 20
419.6028931328641
 10
570.2993391966459
 20
419.9838931328641
 10
570.2993391966459
 20
419.9838931328641
 10
570.489839196646
 20
419.8568931328641
 10
570.8073391966459
 20
419.6663931328641
 10
571.061339196646
 20
419.6028931328641
 10
570.8073391966459
 20
419.4758931328641
 10
570.489839196646
 20
419.3488931328642
 10
570.2993391966459
 20
419.1583931328642
 10
570.2993391966459
 20
419.1583931328642
 10
570.426339196646
 20
419.6028931328641
 10
570.426339196646
 20
419.6028931328641
 10
570.426339196646
 20
419.6028931328641
 97
        0
 75
     0
 76
     1
 98
        1
 10
293.645839196646
 20
89.50320713286419
  0
LWPOLYLINE
  5
29F
330
1F
100
AcDbEntity
  8
0
 62
     0
370
     5
100
AcDbPolyline
 90
        2
 70
     0
 43
0.0
 10
83.60101485656358
 20
392.1611089510561
 10
36.88733907531304
 20
392.1611089510561
  0
HATCH
  5
2A2
330
1F
100
AcDbEntity
  8
0
 62
     0
100
AcDbHatch
 10
0.0
 20
0.0
 30
0.0
210
0.0
220
0.0
230
1.0
  2
SOLID
 70
     1
 71
     0
 91
        1
 92
        0
 93
        1
 72
     4
 94
        3
 73
     0
 74
     1
 95
       13
 96
       13
 40
0.0
 40
0.0
 40
0.0
 40
1.0
 40
1.0
 40
1.0
 40
2.0
 40
2.0
 40
2.0
 40
3.0
 40
3.0
 40
3.0
 40
4.0
 10
542.867339196646
 20
372.1048931328642
 10
543.2483391966459
 20
372.2953931328642
 10
543.2483391966459
 20
372.2953931328642
 10
543.1213391966459
 20
372.1048931328642
 10
542.9308391966459
 20
371.7873931328642
 10
542.867339196646
 20
371.5333931328642
 10
542.740339196646
 20
371.7873931328642
 10
542.6133391966459
 20
372.1048931328642
 10
542.422839196646
 20
372.2953931328642
 10
542.422839196646
 20
372.2953931328642
 10
542.867339196646
 20
372.1048931328642
 10
542.867339196646
 20
372.1048931328642
 10
542.867339196646
 20
372.1048931328642
 97
        0
 75
     0
 76
     1
 98
        1
 10
293.645839196646
 20
89.50320713286419
  0
HATCH
  5
2A3
330
1F
100
AcDbEntity
  8
0
 62
     0
100
AcDbHatch
 10
0.0
 20
0.0
 30
0.0
210
0.0
220
0.0
230
1.0
  2
SOLID
 70
     1
 71
     0
 91
        1
 92
        0
 93
        1
 72
     4
 94
        3
 73
     0
 74
     1
 95
       13
 96
       13
 40
0.0
 40
0.0
 40
0.0
 40
1.0
 40
1.0
 40
1.0
 40
2.0
 40
2.0
 40
2.0
 40
3.0
 40
3.0
 40
3.0
 40
4.0
 10
542.867339196646
 20
416.1738931328641
 10
542.422839196646
 20
416.0468931328641
 10
542.422839196646
 20
416.0468931328641
 10
542.6133391966459
 20
416.2373931328641
 10
542.740339196646
 20
416.5548931328642
 10
542.867339196646
 20
416.7453931328641
 10
542.9308391966459
 20
416.5548931328642
 10
543.1213391966459
 20
416.2373931328641
 10
543.2483391966459
 20
416.0468931328641
 10
543.2483391966459
 20
416.0468931328641
 10
542.867339196646
 20
416.1738931328641
 10
542.867339196646
 20
416.1738931328641
 10
542.867339196646
 20
416.1738931328641
 97
        0
 75
     0
 76
     1
 98
        1
 10
293.645839196646
 20
89.50320713286419
  0
DIMENSION
  5
2D5
330
1F
100
AcDbEntity
  8
0
 62
     1
370
     0
100
AcDbDimension
  2
*D7
 10
32.91174988103219
 20
10.39762066980663
 30
-0.0000000000000002
 11
32.91174988103221
 21
209.7351066696169
 31
-0.0000000000000002
 70
   160
 71
     5
 42
381.7634882812495
  3
Standard
100
AcDbAlignedDimension
 13
58.36489115864565
 23
392.1611089510561
 33
0.0
 14
56.75407475239585
 24
10.39762066980663
 34
0.0
 50
90.0
100
AcDbRotatedDimension
1001
ACAD
1000
DSTYLE
1002
{
1070
    41
1040
10.0
1070
    42
1040
0.625
1070
    43
1040
3.75
1070
    44
1040
1.25
1070
    73
1070
     0
1070
    74
1070
     0
1070
    77
1070
     0
1070
    78
1070
     8
1070
   140
1040
10.0
1070
   141
1040
2.5
1070
   143
1040
0.03937
1070
   147
1040
0.625
1070
   171
1070
     3
1070
   172
1070
     1
1070
   271
1070
     0
1070
   272
1070
     2
1070
   274
1070
     3
1070
   278
1070
    44
1070
   283
1070
     0
1070
   284
1070
     8
1070
   289
1070
     0
1002
}
  0
DIMENSION
  5
2D6
330
1F
100
AcDbEntity
  8
0
 62
     1
370
     0
100
AcDbDimension
  2
*D8
 10
276.8989836065629
 20
414.0201216603676
 30
0.0
 11
305.0239836065629
 21
414.0201216603676
 31
0.0
 70
   160
 71
     5
 42
19.86673567708368
  3
Standard
100
AcDbAlignedDimension
 13
257.0322479294792
 23
390.8187746799141
 33
0.0
 14
276.8989836065629
 24
392.1611089510561
 34
0.0
100
AcDbRotatedDimension
1001
ACAD
1000
DSTYLE
1002
{
1070
    41
1040
10.0
1070
    42
1040
0.625
1070
    43
1040
3.75
1070
    44
1040
1.25
1070
    73
1070
     0
1070
    74
1070
     0
1070
    77
1070
     0
1070
    78
1070
     8
1070
   140
1040
10.0
1070
   141
1040
2.5
1070
   143
1040
0.03937
1070
   147
1040
0.625
1070
   171
1070
     3
1070
   172
1070
     1
1070
   271
1070
     0
1070
   272
1070
     2
1070
   274
1070
     3
1070
   278
1070
    44
1070
   283
1070
     0
1070
   284
1070
     8
1070
   289
1070
     0
1002
}
  0
DIMENSION
  5
36E
330
1F
100
AcDbEntity
  8
0
 62
     1
370
     0
100
AcDbDimension
  2
*D9
 10
201.1906125128126
 20
414.7125386385565
 30
0.0
 11
129.2408130336458
 21
414.7125386385565
 31
0.0
 70
   160
 71
     5
 42
144.4365377604167
  3
Standard
100
AcDbAlignedDimension
 13
56.75407475239587
 23
390.5502925448064
 33
0.0
 14
201.1906125128126
 24
390.5502925448064
 34
0.0
100
AcDbRotatedDimension
1001
ACAD
1000
DSTYLE
1002
{
1070
    41
1040
10.0
1070
    42
1040
0.625
1070
    43
1040
3.75
1070
    44
1040
1.25
1070
    73
1070
     0
1070
    74
1070
     0
1070
    77
1070
     0
1070
    78
1070
     8
1070
   140
1040
10.0
1070
   141
1040
2.5
1070
   143
1040
0.03937
1070
   147
1040
0.625
1070
   171
1070
     3
1070
   172
1070
     1
1070
   271
1070
     0
1070
   272
1070
     2
1070
   274
1070
     3
1070
   278
1070
    44
1070
   283
1070
     0
1070
   284
1070
     8
1070
   289
1070
     0
1002
}
  0
ENDSEC
  0
SECTION
  2
OBJECTS
  0
DICTIONARY
  5
C
330
0
100
AcDbDictionary
281
     1
  3
ACAD_COLOR
350
6B
  3
ACAD_GROUP
350
D
  3
ACAD_LAYOUT
350
1A
  3
ACAD_MATERIAL
350
6A
  3
ACAD_MLEADERSTYLE
350
12D
  3
ACAD_MLINESTYLE
350
17
  3
ACAD_PLOTSETTINGS
350
19
  3
ACAD_PLOTSTYLENAME
350
E
  3
ACAD_SCALELIST
350
10C
  3
ACAD_TABLESTYLE
350
7E
  3
ACAD_VISUALSTYLE
350
EF
  3
ACDB_RECOMPOSE_DATA
350
15D
  3
AcDbVariableDictionary
350
5E
  3
DWGPROPS
350
3C3
  0
DICTIONARY
  5
13C
330
10
100
AcDbDictionary
280
     1
281
     1
  3
ADSK_XREC_LAYER_RECONCILED
360
3BB
  0
DICTIONARY
  5
6B
102
{ACAD_REACTORS
330
C
102
}
330
C
100
AcDbDictionary
281
     1
  0
DICTIONARY
  5
D
102
{ACAD_REACTORS
330
C
102
}
330
C
100
AcDbDictionary
281
     1
  0
DICTIONARY
  5
1A
102
{ACAD_REACTORS
330
C
102
}
330
C
100
AcDbDictionary
281
     1
  3
Layout1
350
D3
  3
Layout2
350
D7
  3
Model
350
22
  0
DICTIONARY
  5
6A
102
{ACAD_REACTORS
330
C
102
}
330
C
100
AcDbDictionary
281
     1
  3
ByBlock
350
ED
  3
ByLayer
350
EC
  3
Global
350
EE
  0
DICTIONARY
  5
12D
102
{ACAD_REACTORS
330
C
102
}
330
C
100
AcDbDictionary
281
     1
  3
Annotativa
350
13B
  3
Standard
350
12E
  0
DICTIONARY
  5
17
102
{ACAD_REACTORS
330
C
102
}
330
C
100
AcDbDictionary
281
     1
  3
Standard
350
18
  0
DICTIONARY
  5
19
102
{ACAD_REACTORS
330
C
102
}
330
C
100
AcDbDictionary
281
     1
  0
ACDBDICTIONARYWDFLT
  5
E
102
{ACAD_REACTORS
330
C
102
}
330
C
100
AcDbDictionary
281
     1
  3
Normal
350
F
100
AcDbDictionaryWithDefault
340
F
  0
DICTIONARY
  5
10C
102
{ACAD_REACTORS
330
C
102
}
330
C
100
AcDbDictionary
281
     1
  3
A0
350
10D
  3
A1
350
188
  3
A2
350
189
  3
A3
350
18A
  3
A4
350
18B
  3
A5
350
18C
  3
A6
350
18D
  3
A7
350
18E
  3
A8
350
18F
  3
A9
350
190
  3
B0
350
191
  3
B1
350
192
  3
B2
350
193
  3
B3
350
194
  3
B4
350
195
  3
B5
350
196
  3
B6
350
197
  3
B7
350
198
  3
B8
350
199
  3
B9
350
19A
  3
C0
350
19B
  3
C1
350
19C
  3
C2
350
19D
  3
C3
350
19E
  3
C4
350
19F
  3
C5
350
1A0
  3
C6
350
1A1
  3
C7
350
1A2
  3
C8
350
1A3
  3
C9
350
1A4
  3
D0
350
1A5
  3
D1
350
1A6
  3
D2
350
1A7
  0
DICTIONARY
  5
7E
102
{ACAD_REACTORS
330
C
102
}
330
C
100
AcDbDictionary
281
     1
  3
Standard
350
7F
  0
DICTIONARY
  5
EF
102
{ACAD_REACTORS
330
C
102
}
330
C
100
AcDbDictionary
281
     1
  3
2dWireframe
350
F5
  3
3D Hidden
350
F7
  3
3dWireframe
350
F6
  3
Basic
350
F4
  3
Brighten
350
FB
  3
ColorChange
350
FF
  3
Conceptual
350
F8
  3
Dim
350
FA
  3
Facepattern
350
FE
  3
Flat
350
F0
  3
FlatWithEdges
350
F1
  3
Gouraud
350
F2
  3
GouraudWithEdges
350
F3
  3
Linepattern
350
FD
  3
Realistic
350
F9
  3
Thicken
350
FC
  0
XRECORD
  5
15D
102
{ACAD_REACTORS
330
C
102
}
330
C
100
AcDbXrecord
280
     1
 90
        1
330
7F
  0
DICTIONARY
  5
5E
102
{ACAD_REACTORS
330
C
102
}
330
C
100
AcDbDictionary
281
     1
  3
CANNOSCALE
350
146
  3
CMLEADERSTYLE
350
145
  3
CTABLESTYLE
350
84
  3
DIMASSOC
350
5F
  3
HIDETEXT
350
63
  3
INDEXCTL
350
3BF
  3
LIGHTINGUNITS
350
3BD
  3
MSLTSCALE
350
3BC
  3
PSOLHEIGHT
350
3C1
  3
PSOLWIDTH
350
3C0
  3
SORTENTS
350
3BE
  0
XRECORD
  5
3C3
102
{ACAD_REACTORS
330
C
102
}
330
C
100
AcDbXrecord
280
     1
  1
DWGPROPS COOKIE
  2

  3

  4

  6

  7

  8
FontanaNZ
  9

300
=
301
=
302
=
303
=
304
=
305
=
306
=
307
=
308
=
309
=
 40
0.0027740740740741
 41
2456617.659662662
 42
2456617.662436563
  1

 90
        0
  0
XRECORD
  5
3BB
102
{ACAD_REACTORS
330
13C
102
}
330
13C
100
AcDbXrecord
280
     1
290
     1
  0
LAYOUT
  5
D3
102
{ACAD_XDICTIONARY
360
3C7
102
}
102
{ACAD_REACTORS
330
1A
102
}
330
1A
100
AcDbPlotSettings
  1

  2
C:\Documents and Settings\basas\Application Data\Autodesk\AutoCAD 2005\R16.1\enu\plotters\Default Windows System Printer.pc3
  4

  6

 40
0.0
 41
0.0
 42
0.0
 43
0.0
 44
0.0
 45
0.0
 46
0.0
 47
0.0
 48
0.0
 49
0.0
140
0.0
141
0.0
142
1.0
143
1.0
 70
   688
 72
     0
 73
     0
 74
     5
  7

 75
    16
147
1.0
148
0.0
149
0.0
100
AcDbLayout
  1
Layout1
 70
     1
 71
     1
 10
0.0
 20
0.0
 11
12.0
 21
9.0
 12
0.0
 22
0.0
 32
0.0
 14
0.0
 24
0.0
 34
0.0
 15
0.0
 25
0.0
 35
0.0
146
0.0
 13
0.0
 23
0.0
 33
0.0
 16
1.0
 26
0.0
 36
0.0
 17
0.0
 27
1.0
 37
0.0
 76
     0
330
D2
  0
LAYOUT
  5
D7
102
{ACAD_XDICTIONARY
360
3C9
102
}
102
{ACAD_REACTORS
330
1A
102
}
330
1A
100
AcDbPlotSettings
  1

  2
C:\Documents and Settings\basas\Application Data\Autodesk\AutoCAD 2005\R16.1\enu\plotters\Default Windows System Printer.pc3
  4

  6

 40
0.0
 41
0.0
 42
0.0
 43
0.0
 44
0.0
 45
0.0
 46
0.0
 47
0.0
 48
0.0
 49
0.0
140
0.0
141
0.0
142
1.0
143
1.0
 70
   688
 72
     0
 73
     0
 74
     5
  7

 75
    16
147
1.0
148
0.0
149
0.0
100
AcDbLayout
  1
Layout2
 70
     1
 71
     2
 10
0.0
 20
0.0
 11
12.0
 21
9.0
 12
0.0
 22
0.0
 32
0.0
 14
0.0
 24
0.0
 34
0.0
 15
0.0
 25
0.0
 35
0.0
146
0.0
 13
0.0
 23
0.0
 33
0.0
 16
1.0
 26
0.0
 36
0.0
 17
0.0
 27
1.0
 37
0.0
 76
     0
330
D6
  0
LAYOUT
  5
22
102
{ACAD_XDICTIONARY
360
3C4
102
}
102
{ACAD_REACTORS
330
1A
102
}
330
1A
100
AcDbPlotSettings
  1

  2
none_device
  4
ISO_A4_(210.00_x_297.00_MM)
  6

 40
7.5
 41
20.0
 42
7.5
 43
20.0
 44
210.0
 45
297.0
 46
11.54999923706054
 47
-13.65000009536743
 48
0.0
 49
0.0
140
0.0
141
0.0
142
1.0
143
8.704084754739808
 70
 11952
 72
     1
 73
     0
 74
     0
  7

 75
     0
147
0.1148885871608098
148
0.0
149
0.0
100
AcDbLayout
  1
Model
 70
     1
 71
     0
 10
0.0
 20
0.0
 11
12.0
 21
9.0
 12
0.0
 22
0.0
 32
0.0
 14
0.0
 24
0.0
 34
0.0
 15
0.0
 25
0.0
 35
0.0
146
0.0
 13
0.0
 23
0.0
 33
0.0
 16
1.0
 26
0.0
 36
0.0
 17
0.0
 27
1.0
 37
0.0
 76
     0
330
1F
331
EA
1001
ACAD_PSEXT
1000
None
1000
None
1000
Not applicable
1000
The layout will not be plotted unless a new plotter configuration name is selected.
1070
     0
  0
MATERIAL
  5
ED
102
{ACAD_XDICTIONARY
360
3CD
102
}
102
{ACAD_REACTORS
330
6A
102
}
330
6A
100
AcDbMaterial
  1
ByBlock
  0
MATERIAL
  5
EC
102
{ACAD_XDICTIONARY
360
3CB
102
}
102
{ACAD_REACTORS
330
6A
102
}
330
6A
100
AcDbMaterial
  1
ByLayer
  0
MATERIAL
  5
EE
102
{ACAD_XDICTIONARY
360
173
102
}
102
{ACAD_REACTORS
330
6A
102
}
330
6A
100
AcDbMaterial
  1
Global
 43
0.0007999999797903
 43
0.0
 43
0.0
 43
0.0
 43
0.0
 43
0.0007999999797903
 43
0.0
 43
0.0
 43
0.0
 43
0.0
 43
1.0
 43
0.0
 43
0.0
 43
0.0
 43
0.0
 43
1.0
 49
0.0007999999797903
 49
0.0
 49
0.0
 49
0.0
 49
0.0
 49
0.0007999999797903
 49
0.0
 49
0.0
 49
0.0
 49
0.0
 49
1.0
 49
0.0
 49
0.0
 49
0.0
 49
0.0
 49
1.0
142
0.0007999999797903
142
0.0
142
0.0
142
0.0
142
0.0
142
0.0007999999797903
142
0.0
142
0.0
142
0.0
142
0.0
142
1.0
142
0.0
142
0.0
142
0.0
142
0.0
142
1.0
144
0.0007999999797903
144
0.0
144
0.0
144
0.0
144
0.0
144
0.0007999999797903
144
0.0
144
0.0
144
0.0
144
0.0
144
1.0
144
0.0
144
0.0
144
0.0
144
0.0
144
1.0
1001
ACAD
1070
    -1
1070
     3
1070
     0
1000

1071
        0
1070
     0
  0
MLEADERSTYLE
  5
13B
102
{ACAD_REACTORS
330
12D
102
}
330
12D
100
AcDbMLeaderStyle
170
     2
171
     1
172
     0
 90
        2
 40
0.0
 41
0.0
173
     1
 91
-1056964608
340
14
 92
       -2
290
     1
 42
2.0
291
     1
 43
8.0
  3
Standard
 44
4.0
300

342
11
174
     1
178
     1
175
     1
176
     0
 93
-1056964608
 45
4.0
292
     0
297
     0
 46
4.0
 94
-1056964608
 47
1.0
 49
1.0
140
1.0
293
     1
141
0.0
294
     1
177
     0
142
1.0
295
     0
296
     1
143
3.75
1001
ACAD_MLEADERVER
1070
     2
  0
MLEADERSTYLE
  5
12E
102
{ACAD_REACTORS
330
12D
102
}
330
12D
100
AcDbMLeaderStyle
170
     2
171
     1
172
     0
 90
        2
 40
0.0
 41
0.0
173
     1
 91
-1056964608
340
14
 92
       -2
290
     1
 42
2.0
291
     1
 43
8.0
  3
Standard
 44
4.0
300

342
11
174
     1
178
     1
175
     1
176
     0
 93
-1056964608
 45
4.0
292
     0
297
     0
 46
4.0
 94
-1056964608
 47
1.0
 49
1.0
140
1.0
293
     1
141
0.0
294
     1
177
     0
142
1.0
295
     0
296
     0
143
3.75
1001
ACAD_MLEADERVER
1070
     2
  0
MLINESTYLE
  5
18
102
{ACAD_REACTORS
330
17
102
}
330
17
100
AcDbMlineStyle
  2
STANDARD
 70
     0
  3

 62
   256
 51
90.0
 52
90.0
 71
     2
 49
0.5
 62
   256
  6
BYLAYER
 49
-0.5
 62
   256
  6
BYLAYER
  0
ACDBPLACEHOLDER
  5
F
102
{ACAD_REACTORS
330
E
102
}
330
E
  0
SCALE
  5
10D
102
{ACAD_REACTORS
330
10C
102
}
330
10C
100
AcDbScale
 70
     0
300
1:1
140
1.0
141
1.0
290
     1
  0
SCALE
  5
188
102
{ACAD_REACTORS
330
10C
102
}
330
10C
100
AcDbScale
 70
     0
300
1:2
140
1.0
141
2.0
290
     0
  0
SCALE
  5
189
102
{ACAD_REACTORS
330
10C
102
}
330
10C
100
AcDbScale
 70
     0
300
1:4
140
1.0
141
4.0
290
     0
  0
SCALE
  5
18A
102
{ACAD_REACTORS
330
10C
102
}
330
10C
100
AcDbScale
 70
     0
300
1:5
140
1.0
141
5.0
290
     0
  0
SCALE
  5
18B
102
{ACAD_REACTORS
330
10C
102
}
330
10C
100
AcDbScale
 70
     0
300
1:8
140
1.0
141
8.0
290
     0
  0
SCALE
  5
18C
102
{ACAD_REACTORS
330
10C
102
}
330
10C
100
AcDbScale
 70
     0
300
1:10
140
1.0
141
10.0
290
     0
  0
SCALE
  5
18D
102
{ACAD_REACTORS
330
10C
102
}
330
10C
100
AcDbScale
 70
     0
300
1:16
140
1.0
141
16.0
290
     0
  0
SCALE
  5
18E
102
{ACAD_REACTORS
330
10C
102
}
330
10C
100
AcDbScale
 70
     0
300
1:20
140
1.0
141
20.0
290
     0
  0
SCALE
  5
18F
102
{ACAD_REACTORS
330
10C
102
}
330
10C
100
AcDbScale
 70
     0
300
1:30
140
1.0
141
30.0
290
     0
  0
SCALE
  5
190
102
{ACAD_REACTORS
330
10C
102
}
330
10C
100
AcDbScale
 70
     0
300
1:40
140
1.0
141
40.0
290
     0
  0
SCALE
  5
191
102
{ACAD_REACTORS
330
10C
102
}
330
10C
100
AcDbScale
 70
     0
300
1:50
140
1.0
141
50.0
290
     0
  0
SCALE
  5
192
102
{ACAD_REACTORS
330
10C
102
}
330
10C
100
AcDbScale
 70
     0
300
1:100
140
1.0
141
100.0
290
     0
  0
SCALE
  5
193
102
{ACAD_REACTORS
330
10C
102
}
330
10C
100
AcDbScale
 70
     0
300
2:1
140
2.0
141
1.0
290
     0
  0
SCALE
  5
194
102
{ACAD_REACTORS
330
10C
102
}
330
10C
100
AcDbScale
 70
     0
300
4:1
140
4.0
141
1.0
290
     0
  0
SCALE
  5
195
102
{ACAD_REACTORS
330
10C
102
}
330
10C
100
AcDbScale
 70
     0
300
8:1
140
8.0
141
1.0
290
     0
  0
SCALE
  5
196
102
{ACAD_REACTORS
330
10C
102
}
330
10C
100
AcDbScale
 70
     0
300
10:1
140
10.0
141
1.0
290
     0
  0
SCALE
  5
197
102
{ACAD_REACTORS
330
10C
102
}
330
10C
100
AcDbScale
 70
     0
300
100:1
140
100.0
141
1.0
290
     0
  0
SCALE
  5
198
102
{ACAD_REACTORS
330
10C
102
}
330
10C
100
AcDbScale
 70
     0
300
1/128" = 1'-0"
140
0.0078125
141
12.0
290
     0
  0
SCALE
  5
199
102
{ACAD_REACTORS
330
10C
102
}
330
10C
100
AcDbScale
 70
     0
300
1/64" = 1'-0"
140
0.015625
141
12.0
290
     0
  0
SCALE
  5
19A
102
{ACAD_REACTORS
330
10C
102
}
330
10C
100
AcDbScale
 70
     0
300
1/32" = 1'-0"
140
0.03125
141
12.0
290
     0
  0
SCALE
  5
19B
102
{ACAD_REACTORS
330
10C
102
}
330
10C
100
AcDbScale
 70
     0
300
1/16" = 1'-0"
140
0.0625
141
12.0
290
     0
  0
SCALE
  5
19C
102
{ACAD_REACTORS
330
10C
102
}
330
10C
100
AcDbScale
 70
     0
300
3/32" = 1'-0"
140
0.09375
141
12.0
290
     0
  0
SCALE
  5
19D
102
{ACAD_REACTORS
330
10C
102
}
330
10C
100
AcDbScale
 70
     0
300
1/8" = 1'-0"
140
0.125
141
12.0
290
     0
  0
SCALE
  5
19E
102
{ACAD_REACTORS
330
10C
102
}
330
10C
100
AcDbScale
 70
     0
300
3/16" = 1'-0"
140
0.1875
141
12.0
290
     0
  0
SCALE
  5
19F
102
{ACAD_REACTORS
330
10C
102
}
330
10C
100
AcDbScale
 70
     0
300
1/4" = 1'-0"
140
0.25
141
12.0
290
     0
  0
SCALE
  5
1A0
102
{ACAD_REACTORS
330
10C
102
}
330
10C
100
AcDbScale
 70
     0
300
3/8" = 1'-0"
140
0.375
141
12.0
290
     0
  0
SCALE
  5
1A1
102
{ACAD_REACTORS
330
10C
102
}
330
10C
100
AcDbScale
 70
     0
300
1/2" = 1'-0"
140
0.5
141
12.0
290
     0
  0
SCALE
  5
1A2
102
{ACAD_REACTORS
330
10C
102
}
330
10C
100
AcDbScale
 70
     0
300
3/4" = 1'-0"
140
0.75
141
12.0
290
     0
  0
SCALE
  5
1A3
102
{ACAD_REACTORS
330
10C
102
}
330
10C
100
AcDbScale
 70
     0
300
1" = 1'-0"
140
1.0
141
12.0
290
     0
  0
SCALE
  5
1A4
102
{ACAD_REACTORS
330
10C
102
}
330
10C
100
AcDbScale
 70
     0
300
1-1/2" = 1'-0"
140
1.5
141
12.0
290
     0
  0
SCALE
  5
1A5
102
{ACAD_REACTORS
330
10C
102
}
330
10C
100
AcDbScale
 70
     0
300
3" = 1'-0"
140
3.0
141
12.0
290
     0
  0
SCALE
  5
1A6
102
{ACAD_REACTORS
330
10C
102
}
330
10C
100
AcDbScale
 70
     0
300
6" = 1'-0"
140
6.0
141
12.0
290
     0
  0
SCALE
  5
1A7
102
{ACAD_REACTORS
330
10C
102
}
330
10C
100
AcDbScale
 70
     0
300
1'-0" = 1'-0"
140
12.0
141
12.0
290
     0
  0
TABLESTYLE
  5
7F
102
{ACAD_XDICTIONARY
360
162
102
}
102
{ACAD_REACTORS
330
7E
102
}
330
7E
100
AcDbTableStyle
  3
Standard
 70
     0
 71
     0
 40
1.5
 41
1.5
280
     0
281
     0
  7
Standard
140
4.5
170
     2
 62
     0
 63
     7
283
     0
274
    -2
284
     1
 64
     0
275
    -2
285
     1
 65
     0
276
    -2
286
     1
 66
     0
277
    -2
287
     1
 67
     0
278
    -2
288
     1
 68
     0
279
    -2
289
     1
 69
     0
  7
Standard
140
6.0
170
     5
 62
     0
 63
     7
283
     0
274
    -2
284
     1
 64
     0
275
    -2
285
     1
 65
     0
276
    -2
286
     1
 66
     0
277
    -2
287
     1
 67
     0
278
    -2
288
     1
 68
     0
279
    -2
289
     1
 69
     0
  7
Standard
140
4.5
170
     5
 62
     0
 63
     7
283
     0
274
    -2
284
     1
 64
     0
275
    -2
285
     1
 65
     0
276
    -2
286
     1
 66
     0
277
    -2
287
     1
 67
     0
278
    -2
288
     1
 68
     0
279
    -2
289
     1
 69
     0
  0
VISUALSTYLE
  5
F5
102
{ACAD_REACTORS
330
EF
102
}
330
EF
100
AcDbVisualStyle
  2
2dWireframe
 70
     4
 71
     0
 72
     2
 73
     1
 90
        0
 40
-0.6
 41
-30.0
 62
     5
 63
     7
 74
     1
 91
        4
 64
     7
 65
   257
 75
     1
175
     1
 42
1.0
 92
        0
 66
   257
 43
1.0
 76
     1
 77
     6
 78
     2
 67
     7
 79
     5
170
     0
171
     0
290
     0
174
     0
 93
        1
 44
0.0
173
     0
291
     0
 45
0.0
1001
ACAD
1000
AcDbSavedByObjectVersion
1070
     0
  0
VISUALSTYLE
  5
F7
102
{ACAD_REACTORS
330
EF
102
}
330
EF
100
AcDbVisualStyle
  2
3D Hidden
 70
     6
 71
     1
 72
     2
 73
     2
 90
        0
 40
-0.6
 41
-30.0
 62
     5
 63
     7
 74
     2
 91
        2
 64
     7
 65
   257
 75
     2
175
     1
 42
40.0
 92
        0
 66
   257
 43
1.0
 76
     1
 77
     6
 78
     2
 67
     7
 79
     3
170
     0
171
     0
290
     0
174
     0
 93
        1
 44
0.0
173
     0
291
     0
 45
0.0
1001
ACAD
1000
AcDbSavedByObjectVersion
1070
     0
  0
VISUALSTYLE
  5
F6
102
{ACAD_REACTORS
330
EF
102
}
330
EF
100
AcDbVisualStyle
  2
3dWireframe
 70
     5
 71
     0
 72
     2
 73
     1
 90
        0
 40
-0.6
 41
-30.0
 62
     5
 63
     7
 74
     1
 91
        4
 64
     7
 65
   257
 75
     1
175
     1
 42
1.0
 92
        0
 66
   257
 43
1.0
 76
     1
 77
     6
 78
     2
 67
     7
 79
     5
170
     0
171
     0
290
     0
174
     0
 93
        1
 44
0.0
173
     0
291
     0
 45
0.0
1001
ACAD
1000
AcDbSavedByObjectVersion
1070
     0
  0
VISUALSTYLE
  5
F4
102
{ACAD_REACTORS
330
EF
102
}
330
EF
100
AcDbVisualStyle
  2
Basic
 70
     7
 71
     1
 72
     0
 73
     1
 90
        0
 40
-0.6
 41
-30.0
 62
     5
 63
     7
 74
     0
 91
        4
 64
     7
 65
   257
 75
     1
175
     1
 42
1.0
 92
        8
 66
     7
 43
1.0
 76
     1
 77
     6
 78
     2
 67
     7
 79
     5
170
     0
171
     0
290
     0
174
     0
 93
        1
 44
0.0
173
     0
291
     1
 45
0.0
1001
ACAD
1000
AcDbSavedByObjectVersion
1070
     0
  0
VISUALSTYLE
  5
FB
102
{ACAD_REACTORS
330
EF
102
}
330
EF
100
AcDbVisualStyle
  2
Brighten
 70
    12
 71
     2
 72
     2
 73
     1
 90
        0
 40
-0.6
 41
-30.0
 62
     5
 63
     7
 74
     1
 91
        4
 64
     7
 65
   257
 75
     1
175
     1
 42
1.0
 92
        8
 66
     7
 43
1.0
 76
     1
 77
     6
 78
     2
 67
     7
 79
     5
170
     0
171
     0
290
     0
174
     0
 93
        1
 44
50.0
173
     0
291
     1
 45
0.0
1001
ACAD
1000
AcDbSavedByObjectVersion
1070
     0
  0
VISUALSTYLE
  5
FF
102
{ACAD_REACTORS
330
EF
102
}
330
EF
100
AcDbVisualStyle
  2
ColorChange
 70
    16
 71
     2
 72
     2
 73
     3
 90
        0
 40
-0.6
 41
-30.0
 62
     5
 63
     8
 74
     1
 91
        4
 64
     7
 65
   257
 75
     1
175
     1
 42
1.0
 92
        8
 66
     8
 43
1.0
 76
     1
 77
     6
 78
     2
 67
     7
 79
     5
170
     0
171
     0
290
     0
174
     0
 93
        1
 44
0.0
173
     0
291
     1
 45
0.0
1001
ACAD
1000
AcDbSavedByObjectVersion
1070
     0
  0
VISUALSTYLE
  5
F8
102
{ACAD_REACTORS
330
EF
102
}
330
EF
100
AcDbVisualStyle
  2
Conceptual
 70
     9
 71
     3
 72
     2
 73
     1
 90
        0
 40
-0.6
 41
-30.0
 62
     5
 63
     7
 74
     2
 91
        2
 64
     7
 65
   257
 75
     1
175
     1
 42
40.0
 92
        8
 66
     7
 43
1.0
 76
     1
 77
     6
 78
     2
 67
     7
 79
     3
170
     0
171
     0
290
     0
174
     0
 93
        1
 44
0.0
173
     0
291
     0
 45
0.0
1001
ACAD
1000
AcDbSavedByObjectVersion
1070
     0
  0
VISUALSTYLE
  5
FA
102
{ACAD_REACTORS
330
EF
102
}
330
EF
100
AcDbVisualStyle
  2
Dim
 70
    11
 71
     2
 72
     2
 73
     1
 90
        0
 40
-0.6
 41
-30.0
 62
     5
 63
     7
 74
     1
 91
        4
 64
     7
 65
   257
 75
     1
175
     1
 42
1.0
 92
        8
 66
     7
 43
1.0
 76
     1
 77
     6
 78
     2
 67
     7
 79
     5
170
     0
171
     0
290
     0
174
     0
 93
        1
 44
-50.0
173
     0
291
     1
 45
0.0
1001
ACAD
1000
AcDbSavedByObjectVersion
1070
     0
  0
VISUALSTYLE
  5
FE
102
{ACAD_REACTORS
330
EF
102
}
330
EF
100
AcDbVisualStyle
  2
Facepattern
 70
    15
 71
     2
 72
     2
 73
     1
 90
        0
 40
-0.6
 41
-30.0
 62
     5
 63
     7
 74
     1
 91
        4
 64
     7
 65
   257
 75
     1
175
     1
 42
1.0
 92
        8
 66
     7
 43
1.0
 76
     1
 77
     6
 78
     2
 67
     7
 79
     5
170
     0
171
     0
290
     0
174
     0
 93
        1
 44
0.0
173
     0
291
     1
 45
0.0
1001
ACAD
1000
AcDbSavedByObjectVersion
1070
     0
  0
VISUALSTYLE
  5
F0
102
{ACAD_REACTORS
330
EF
102
}
330
EF
100
AcDbVisualStyle
  2
Flat
 70
     0
 71
     2
 72
     1
 73
     1
 90
        2
 40
-0.6
 41
30.0
 62
     5
 63
     7
 74
     0
 91
        4
 64
     7
 65
   257
 75
     1
175
     1
 42
1.0
 92
        8
 66
     7
 43
1.0
 76
     1
 77
     6
 78
     2
 67
     7
 79
     5
170
     0
171
     0
290
     0
174
     0
 93
        1
 44
0.0
173
     0
291
     1
 45
0.0
1001
ACAD
1000
AcDbSavedByObjectVersion
1070
     0
  0
VISUALSTYLE
  5
F1
102
{ACAD_REACTORS
330
EF
102
}
330
EF
100
AcDbVisualStyle
  2
FlatWithEdges
 70
     1
 71
     2
 72
     1
 73
     1
 90
        2
 40
-0.6
 41
30.0
 62
     5
 63
     7
 74
     1
 91
        4
 64
     7
 65
   257
 75
     1
175
     1
 42
1.0
 92
        0
 66
   257
 43
1.0
 76
     1
 77
     6
 78
     2
 67
     7
 79
     5
170
     0
171
     0
290
     0
174
     0
 93
        1
 44
0.0
173
     0
291
     1
 45
0.0
1001
ACAD
1000
AcDbSavedByObjectVersion
1070
     0
  0
VISUALSTYLE
  5
F2
102
{ACAD_REACTORS
330
EF
102
}
330
EF
100
AcDbVisualStyle
  2
Gouraud
 70
     2
 71
     2
 72
     2
 73
     1
 90
        2
 40
-0.6
 41
30.0
 62
     5
 63
     7
 74
     0
 91
        4
 64
     7
 65
   257
 75
     1
175
     1
 42
1.0
 92
        0
 66
     7
 43
1.0
 76
     1
 77
     6
 78
     2
 67
     7
 79
     5
170
     0
171
     0
290
     0
174
     0
 93
        1
 44
0.0
173
     0
291
     1
 45
0.0
1001
ACAD
1000
AcDbSavedByObjectVersion
1070
     0
  0
VISUALSTYLE
  5
F3
102
{ACAD_REACTORS
330
EF
102
}
330
EF
100
AcDbVisualStyle
  2
GouraudWithEdges
 70
     3
 71
     2
 72
     2
 73
     1
 90
        2
 40
-0.6
 41
30.0
 62
     5
 63
     7
 74
     1
 91
        4
 64
     7
 65
   257
 75
     1
175
     1
 42
1.0
 92
        0
 66
   257
 43
1.0
 76
     1
 77
     6
 78
     2
 67
     7
 79
     5
170
     0
171
     0
290
     0
174
     0
 93
        1
 44
0.0
173
     0
291
     1
 45
0.0
1001
ACAD
1000
AcDbSavedByObjectVersion
1070
     0
  0
VISUALSTYLE
  5
FD
102
{ACAD_REACTORS
330
EF
102
}
330
EF
100
AcDbVisualStyle
  2
Linepattern
 70
    14
 71
     2
 72
     2
 73
     1
 90
        0
 40
-0.6
 41
-30.0
 62
     5
 63
     7
 74
     1
 91
        4
 64
     7
 65
   257
 75
     7
175
     7
 42
1.0
 92
        8
 66
     7
 43
1.0
 76
     1
 77
     6
 78
     2
 67
     7
 79
     5
170
     0
171
     0
290
     0
174
     0
 93
        1
 44
0.0
173
     0
291
     1
 45
0.0
1001
ACAD
1000
AcDbSavedByObjectVersion
1070
     0
  0
VISUALSTYLE
  5
F9
102
{ACAD_REACTORS
330
EF
102
}
330
EF
100
AcDbVisualStyle
  2
Realistic
 70
     8
 71
     2
 72
     2
 73
     1
 90
        0
 40
-0.6
 41
-30.0
 62
     5
 63
     7
 74
     1
 91
        0
 64
     7
 65
   257
 75
     1
175
     1
 42
1.0
 92
        8
 66
     8
 43
1.0
 76
     1
 77
     6
 78
     2
 67
     7
 79
     5
170
     0
171
     0
290
     0
174
     0
 93
       13
 44
0.0
173
     0
291
     0
 45
0.0
1001
ACAD
1000
AcDbSavedByObjectVersion
1070
     0
  0
VISUALSTYLE
  5
FC
102
{ACAD_REACTORS
330
EF
102
}
330
EF
100
AcDbVisualStyle
  2
Thicken
 70
    13
 71
     2
 72
     2
 73
     1
 90
        0
 40
-0.6
 41
-30.0
 62
     5
 63
     7
 74
     1
 91
        4
 64
     7
 65
   257
 75
     1
175
     1
 42
1.0
 92
       12
 66
     7
 43
1.0
 76
     1
 77
     6
 78
     2
 67
     7
 79
     5
170
     0
171
     0
290
     0
174
     0
 93
        1
 44
0.0
173
     0
291
     1
 45
0.0
1001
ACAD
1000
AcDbSavedByObjectVersion
1070
     0
  0
DICTIONARYVAR
  5
146
102
{ACAD_REACTORS
330
5E
102
}
330
5E
100
DictionaryVariables
280
     0
  1
1:1
  0
DICTIONARYVAR
  5
145
102
{ACAD_REACTORS
330
5E
102
}
330
5E
100
DictionaryVariables
280
     0
  1
STANDARD
  0
DICTIONARYVAR
  5
84
102
{ACAD_REACTORS
330
5E
102
}
330
5E
100
DictionaryVariables
280
     0
  1
STANDARD
  0
DICTIONARYVAR
  5
5F
102
{ACAD_REACTORS
330
5E
102
}
330
5E
100
DictionaryVariables
280
     0
  1
2
  0
DICTIONARYVAR
  5
63
102
{ACAD_REACTORS
330
5E
102
}
330
5E
100
DictionaryVariables
280
     0
  1
1
  0
DICTIONARYVAR
  5
3BF
102
{ACAD_REACTORS
330
5E
102
}
330
5E
100
DictionaryVariables
280
     0
  1
0
  0
DICTIONARYVAR
  5
3BD
102
{ACAD_REACTORS
330
5E
102
}
330
5E
100
DictionaryVariables
280
     0
  1
2
  0
DICTIONARYVAR
  5
3BC
102
{ACAD_REACTORS
330
5E
102
}
330
5E
100
DictionaryVariables
280
     0
  1
1
  0
DICTIONARYVAR
  5
3C1
102
{ACAD_REACTORS
330
5E
102
}
330
5E
100
DictionaryVariables
280
     0
  1
80.000000
  0
DICTIONARYVAR
  5
3C0
102
{ACAD_REACTORS
330
5E
102
}
330
5E
100
DictionaryVariables
280
     0
  1
5.000000
  0
DICTIONARYVAR
  5
3BE
102
{ACAD_REACTORS
330
5E
102
}
330
5E
100
DictionaryVariables
280
     0
  1
127
  0
DICTIONARY
  5
3C7
330
D3
100
AcDbDictionary
280
     1
281
     1
  3
ACAD_XREC_ROUNDTRIP
360
3C8
  0
DICTIONARY
  5
3C9
330
D7
100
AcDbDictionary
280
     1
281
     1
  3
ACAD_XREC_ROUNDTRIP
360
3CA
  0
DICTIONARY
  5
3C4
330
22
100
AcDbDictionary
280
     1
281
     1
  3
ACAD_XREC_ROUNDTRIP
360
3C5
  0
DICTIONARY
  5
3CD
330
ED
100
AcDbDictionary
280
     1
281
     1
  3
ACAD_XREC_ROUNDTRIP
360
3CE
  0
DICTIONARY
  5
3CB
330
EC
100
AcDbDictionary
280
     1
281
     1
  3
ACAD_XREC_ROUNDTRIP
360
3CC
  0
DICTIONARY
  5
173
330
EE
100
AcDbDictionary
280
     1
281
     1
  3
ACAD_XREC_ROUNDTRIP
360
3CF
  3
BUMPTILE
360
175
  3
DIFFUSETILE
360
174
  3
OPACITYTILE
360
176
  3
REFLECTIONTILE
360
177
  0
DICTIONARY
  5
162
330
7F
100
AcDbDictionary
280
     1
281
     1
  3
ACAD_ROUNDTRIP_2008_TABLESTYLE_CELLSTYLEMAP
360
3C2
  3
ACAD_XREC_ROUNDTRIP
360
3C6
  0
XRECORD
  5
3C8
102
{ACAD_REACTORS
330
3C7
102
}
330
3C7
100
AcDbXrecord
280
     1
102
SHADEPLOT
 70
     0
102
SHADEPLOTRESLEVEL
 70
     2
102
SHADEPLOTCUSTOMDPI
 70
   300
  0
XRECORD
  5
3CA
102
{ACAD_REACTORS
330
3C9
102
}
330
3C9
100
AcDbXrecord
280
     1
102
SHADEPLOT
 70
     0
102
SHADEPLOTRESLEVEL
 70
     2
102
SHADEPLOTCUSTOMDPI
 70
   300
  0
XRECORD
  5
3C5
102
{ACAD_REACTORS
330
3C4
102
}
330
3C4
100
AcDbXrecord
280
     1
102
SHADEPLOT
 70
     0
102
SHADEPLOTRESLEVEL
 70
     2
102
SHADEPLOTCUSTOMDPI
 70
   300
  0
XRECORD
  5
3CE
102
{ACAD_REACTORS
330
3CD
102
}
330
3CD
100
AcDbXrecord
280
     1
102
MATERIAL
148
0.0
149
0.0
149
0.0
 93
        0
 94
       63
282
     0
 72
     1
 77
     1
171
     1
175
     1
179
     1
273
     0
  0
XRECORD
  5
3CC
102
{ACAD_REACTORS
330
3CB
102
}
330
3CB
100
AcDbXrecord
280
     1
102
MATERIAL
148
0.0
149
0.0
149
0.0
 93
        0
 94
       63
282
     0
 72
     1
 77
     1
171
     1
175
     1
179
     1
273
     0
  0
XRECORD
  5
3CF
102
{ACAD_REACTORS
330
173
102
}
330
173
100
AcDbXrecord
280
     1
102
MATERIAL
148
0.0
149
0.0
149
0.0
 93
        0
 94
       63
282
     0
 72
     1
 77
     1
171
     1
175
     1
179
     1
273
     0
  0
XRECORD
  5
175
102
{ACAD_REACTORS
330
173
102
}
330
173
100
AcDbXrecord
280
     1
270
     1
271
     1
  0
XRECORD
  5
174
102
{ACAD_REACTORS
330
173
102
}
330
173
100
AcDbXrecord
280
     1
270
     1
271
     1
  0
XRECORD
  5
176
102
{ACAD_REACTORS
330
173
102
}
330
173
100
AcDbXrecord
280
     1
270
     1
271
     1
  0
XRECORD
  5
177
102
{ACAD_REACTORS
330
173
102
}
330
173
100
AcDbXrecord
280
     1
270
     1
271
     1
  0
CELLSTYLEMAP
  5
3C2
102
{ACAD_REACTORS
330
162
102
}
330
162
100
AcDbCellStyleMap
 90
        3
300
CELLSTYLE
  1
TABLEFORMAT_BEGIN
 90
        5
170
     1
 91
        0
 92
    32768
 62
   257
 93
        1
300
CONTENTFORMAT
  1
CONTENTFORMAT_BEGIN
 90
        0
 91
        0
 92
      512
 93
        0
300

 40
0.0
140
1.0
 94
        5
 62
     0
340
11
144
6.0
309
CONTENTFORMAT_END
171
     1
301
MARGIN
  1
CELLMARGIN_BEGIN
 40
1.5
 40
1.5
 40
1.5
 40
1.5
 40
4.5
 40
4.5
309
CELLMARGIN_END
 94
        6
 95
        1
302
GRIDFORMAT
  1
GRIDFORMAT_BEGIN
 90
        0
 91
        1
 62
     0
 92
       -2
340
14
 93
        0
 40
1.125
309
GRIDFORMAT_END
 95
        2
302
GRIDFORMAT
  1
GRIDFORMAT_BEGIN
 90
        0
 91
        1
 62
     0
 92
       -2
340
14
 93
        0
 40
1.125
309
GRIDFORMAT_END
 95
        4
302
GRIDFORMAT
  1
GRIDFORMAT_BEGIN
 90
        0
 91
        1
 62
     0
 92
       -2
340
14
 93
        0
 40
1.125
309
GRIDFORMAT_END
 95
        8
302
GRIDFORMAT
  1
GRIDFORMAT_BEGIN
 90
        0
 91
        1
 62
     0
 92
       -2
340
14
 93
        0
 40
1.125
309
GRIDFORMAT_END
 95
       16
302
GRIDFORMAT
  1
GRIDFORMAT_BEGIN
 90
        0
 91
        1
 62
     0
 92
       -2
340
14
 93
        0
 40
1.125
309
GRIDFORMAT_END
 95
       32
302
GRIDFORMAT
  1
GRIDFORMAT_BEGIN
 90
        0
 91
        1
 62
     0
 92
       -2
340
14
 93
        0
 40
1.125
309
GRIDFORMAT_END
309
TABLEFORMAT_END
  1
CELLSTYLE_BEGIN
 90
        1
 91
        1
300
_TITLE
309
CELLSTYLE_END
300
CELLSTYLE
  1
TABLEFORMAT_BEGIN
 90
        5
170
     1
 91
        0
 92
        0
 62
   257
 93
        1
300
CONTENTFORMAT
  1
CONTENTFORMAT_BEGIN
 90
        0
 91
        0
 92
      512
 93
        0
300

 40
0.0
140
1.0
 94
        5
 62
     0
340
11
144
4.5
309
CONTENTFORMAT_END
171
     1
301
MARGIN
  1
CELLMARGIN_BEGIN
 40
1.5
 40
1.5
 40
1.5
 40
1.5
 40
4.5
 40
4.5
309
CELLMARGIN_END
 94
        6
 95
        1
302
GRIDFORMAT
  1
GRIDFORMAT_BEGIN
 90
        0
 91
        1
 62
     0
 92
       -2
340
14
 93
        0
 40
1.125
309
GRIDFORMAT_END
 95
        2
302
GRIDFORMAT
  1
GRIDFORMAT_BEGIN
 90
        0
 91
        1
 62
     0
 92
       -2
340
14
 93
        0
 40
1.125
309
GRIDFORMAT_END
 95
        4
302
GRIDFORMAT
  1
GRIDFORMAT_BEGIN
 90
        0
 91
        1
 62
     0
 92
       -2
340
14
 93
        0
 40
1.125
309
GRIDFORMAT_END
 95
        8
302
GRIDFORMAT
  1
GRIDFORMAT_BEGIN
 90
        0
 91
        1
 62
     0
 92
       -2
340
14
 93
        0
 40
1.125
309
GRIDFORMAT_END
 95
       16
302
GRIDFORMAT
  1
GRIDFORMAT_BEGIN
 90
        0
 91
        1
 62
     0
 92
       -2
340
14
 93
        0
 40
1.125
309
GRIDFORMAT_END
 95
       32
302
GRIDFORMAT
  1
GRIDFORMAT_BEGIN
 90
        0
 91
        1
 62
     0
 92
       -2
340
14
 93
        0
 40
1.125
309
GRIDFORMAT_END
309
TABLEFORMAT_END
  1
CELLSTYLE_BEGIN
 90
        2
 91
        1
300
_HEADER
309
CELLSTYLE_END
300
CELLSTYLE
  1
TABLEFORMAT_BEGIN
 90
        5
170
     1
 91
        0
 92
        0
 62
   257
 93
        1
300
CONTENTFORMAT
  1
CONTENTFORMAT_BEGIN
 90
        0
 91
        0
 92
      512
 93
        0
300

 40
0.0
140
1.0
 94
        2
 62
     0
340
11
144
4.5
309
CONTENTFORMAT_END
171
     1
301
MARGIN
  1
CELLMARGIN_BEGIN
 40
1.5
 40
1.5
 40
1.5
 40
1.5
 40
4.5
 40
4.5
309
CELLMARGIN_END
 94
        6
 95
        1
302
GRIDFORMAT
  1
GRIDFORMAT_BEGIN
 90
        0
 91
        1
 62
     0
 92
       -2
340
14
 93
        0
 40
1.125
309
GRIDFORMAT_END
 95
        2
302
GRIDFORMAT
  1
GRIDFORMAT_BEGIN
 90
        0
 91
        1
 62
     0
 92
       -2
340
14
 93
        0
 40
1.125
309
GRIDFORMAT_END
 95
        4
302
GRIDFORMAT
  1
GRIDFORMAT_BEGIN
 90
        0
 91
        1
 62
     0
 92
       -2
340
14
 93
        0
 40
1.125
309
GRIDFORMAT_END
 95
        8
302
GRIDFORMAT
  1
GRIDFORMAT_BEGIN
 90
        0
 91
        1
 62
     0
 92
       -2
340
14
 93
        0
 40
1.125
309
GRIDFORMAT_END
 95
       16
302
GRIDFORMAT
  1
GRIDFORMAT_BEGIN
 90
        0
 91
        1
 62
     0
 92
       -2
340
14
 93
        0
 40
1.125
309
GRIDFORMAT_END
 95
       32
302
GRIDFORMAT
  1
GRIDFORMAT_BEGIN
 90
        0
 91
        1
 62
     0
 92
       -2
340
14
 93
        0
 40
1.125
309
GRIDFORMAT_END
309
TABLEFORMAT_END
  1
CELLSTYLE_BEGIN
 90
        3
 91
        2
300
_DATA
309
CELLSTYLE_END
  0
XRECORD
  5
3C6
102
{ACAD_REACTORS
330
162
102
}
330
162
100
AcDbXrecord
280
     1
102
ACAD_ROUNDTRIP_PRE2007_TABLESTYLE
 90
      512
 91
        0
  1

 92
      512
 93
        0
  2

 94
      512
 95
        0
  3

  0
ENDSEC
  0
EOF
