  0
SECTION
  2
HEADER
  9
$ACADVER
  1
AC1015
  9
$ACADMAINTVER
 70
    20
  9
$DWGCODEPAGE
  3
ANSI_1252
  9
$INSBASE
 10
0.0
 20
0.0
 30
0.0
  9
$EXTMIN
 10
61.56409219620753
 20
60.29403783395577
 30
-0.0000000000000003
  9
$EXTMAX
 10
1050.703485287986
 20
718.1557615294196
 30
0.0
  9
$LIMMIN
 10
0.0
 20
0.0
  9
$LIMMAX
 10
420.0
 20
297.0
  9
$ORTHOMODE
 70
     0
  9
$REGENMODE
 70
     1
  9
$FILLMODE
 70
     1
  9
$QTEXTMODE
 70
     0
  9
$MIRRTEXT
 70
     0
  9
$LTSCALE
 40
1.0
  9
$ATTMODE
 70
     1
  9
$TEXTSIZE
 40
2.5
  9
$TRACEWID
 40
1.0
  9
$TEXTSTYLE
  7
Standard
  9
$CLAYER
  8
0
  9
$CELTYPE
  6
ByLayer
  9
$CECOLOR
 62
   256
  9
$CELTSCALE
 40
1.0
  9
$DISPSILH
 70
     0
  9
$DIMSCALE
 40
1.0
  9
$DIMASZ
 40
2.5
  9
$DIMEXO
 40
0.625
  9
$DIMDLI
 40
3.75
  9
$DIMRND
 40
0.0
  9
$DIMDLE
 40
0.0
  9
$DIMEXE
 40
1.25
  9
$DIMTP
 40
0.0
  9
$DIMTM
 40
0.0
  9
$DIMTXT
 40
2.5
  9
$DIMCEN
 40
2.5
  9
$DIMTSZ
 40
0.0
  9
$DIMTOL
 70
     0
  9
$DIMLIM
 70
     0
  9
$DIMTIH
 70
     0
  9
$DIMTOH
 70
     0
  9
$DIMSE1
 70
     0
  9
$DIMSE2
 70
     0
  9
$DIMTAD
 70
     1
  9
$DIMZIN
 70
     8
  9
$DIMBLK
  1

  9
$DIMASO
 70
     1
  9
$DIMSHO
 70
     1
  9
$DIMPOST
  1

  9
$DIMAPOST
  1

  9
$DIMALT
 70
     0
  9
$DIMALTD
 70
     3
  9
$DIMALTF
 40
0.03937007874016
  9
$DIMLFAC
 40
1.0
  9
$DIMTOFL
 70
     1
  9
$DIMTVP
 40
0.0
  9
$DIMTIX
 70
     0
  9
$DIMSOXD
 70
     0
  9
$DIMSAH
 70
     0
  9
$DIMBLK1
  1

  9
$DIMBLK2
  1

  9
$DIMSTYLE
  2
ISO-25
  9
$DIMCLRD
 70
     0
  9
$DIMCLRE
 70
     0
  9
$DIMCLRT
 70
     0
  9
$DIMTFAC
 40
1.0
  9
$DIMGAP
 40
0.625
  9
$DIMJUST
 70
     0
  9
$DIMSD1
 70
     0
  9
$DIMSD2
 70
     0
  9
$DIMTOLJ
 70
     0
  9
$DIMTZIN
 70
     8
  9
$DIMALTZ
 70
     0
  9
$DIMALTTZ
 70
     0
  9
$DIMUPT
 70
     0
  9
$DIMDEC
 70
     2
  9
$DIMTDEC
 70
     2
  9
$DIMALTU
 70
     2
  9
$DIMALTTD
 70
     3
  9
$DIMTXSTY
  7
Standard
  9
$DIMAUNIT
 70
     0
  9
$DIMADEC
 70
     0
  9
$DIMALTRND
 40
0.0
  9
$DIMAZIN
 70
     0
  9
$DIMDSEP
 70
    44
  9
$DIMATFIT
 70
     3
  9
$DIMFRAC
 70
     0
  9
$DIMLDRBLK
  1

  9
$DIMLUNIT
 70
     2
  9
$DIMLWD
 70
    -2
  9
$DIMLWE
 70
    -2
  9
$DIMTMOVE
 70
     0
  9
$LUNITS
 70
     2
  9
$LUPREC
 70
     4
  9
$SKETCHINC
 40
1.0
  9
$FILLETRAD
 40
0.0
  9
$AUNITS
 70
     0
  9
$AUPREC
 70
     0
  9
$MENU
  1
.
  9
$ELEVATION
 40
0.0
  9
$PELEVATION
 40
0.0
  9
$THICKNESS
 40
0.0
  9
$LIMCHECK
 70
     0
  9
$CHAMFERA
 40
0.0
  9
$CHAMFERB
 40
0.0
  9
$CHAMFERC
 40
0.0
  9
$CHAMFERD
 40
0.0
  9
$SKPOLY
 70
     0
  9
$TDCREATE
 40
2456617.653354572
  9
$TDUCREATE
 40
2456617.611687905
  9
$TDUPDATE
 40
2456617.659018808
  9
$TDUUPDATE
 40
2456617.617352141
  9
$TDINDWG
 40
0.0056645949
  9
$TDUSRTIMER
 40
0.0056645949
  9
$USRTIMER
 70
     1
  9
$ANGBASE
 50
0.0
  9
$ANGDIR
 70
     0
  9
$PDMODE
 70
     0
  9
$PDSIZE
 40
0.0
  9
$PLINEWID
 40
0.0
  9
$SPLFRAME
 70
     0
  9
$SPLINETYPE
 70
     6
  9
$SPLINESEGS
 70
     8
  9
$HANDSEED
  5
43F
  9
$SURFTAB1
 70
     6
  9
$SURFTAB2
 70
     6
  9
$SURFTYPE
 70
     6
  9
$SURFU
 70
     6
  9
$SURFV
 70
     6
  9
$UCSBASE
  2

  9
$UCSNAME
  2

  9
$UCSORG
 10
0.0
 20
0.0
 30
0.0
  9
$UCSXDIR
 10
1.0
 20
0.0
 30
0.0
  9
$UCSYDIR
 10
0.0
 20
1.0
 30
0.0
  9
$UCSORTHOREF
  2

  9
$UCSORTHOVIEW
 70
     0
  9
$UCSORGTOP
 10
0.0
 20
0.0
 30
0.0
  9
$UCSORGBOTTOM
 10
0.0
 20
0.0
 30
0.0
  9
$UCSORGLEFT
 10
0.0
 20
0.0
 30
0.0
  9
$UCSORGRIGHT
 10
0.0
 20
0.0
 30
0.0
  9
$UCSORGFRONT
 10
0.0
 20
0.0
 30
0.0
  9
$UCSORGBACK
 10
0.0
 20
0.0
 30
0.0
  9
$PUCSBASE
  2

  9
$PUCSNAME
  2

  9
$PUCSORG
 10
0.0
 20
0.0
 30
0.0
  9
$PUCSXDIR
 10
1.0
 20
0.0
 30
0.0
  9
$PUCSYDIR
 10
0.0
 20
1.0
 30
0.0
  9
$PUCSORTHOREF
  2

  9
$PUCSORTHOVIEW
 70
     0
  9
$PUCSORGTOP
 10
0.0
 20
0.0
 30
0.0
  9
$PUCSORGBOTTOM
 10
0.0
 20
0.0
 30
0.0
  9
$PUCSORGLEFT
 10
0.0
 20
0.0
 30
0.0
  9
$PUCSORGRIGHT
 10
0.0
 20
0.0
 30
0.0
  9
$PUCSORGFRONT
 10
0.0
 20
0.0
 30
0.0
  9
$PUCSORGBACK
 10
0.0
 20
0.0
 30
0.0
  9
$USERI1
 70
     0
  9
$USERI2
 70
     0
  9
$USERI3
 70
     0
  9
$USERI4
 70
     0
  9
$USERI5
 70
     0
  9
$USERR1
 40
0.0
  9
$USERR2
 40
0.0
  9
$USERR3
 40
0.0
  9
$USERR4
 40
0.0
  9
$USERR5
 40
0.0
  9
$WORLDVIEW
 70
     1
  9
$SHADEDGE
 70
     3
  9
$SHADEDIF
 70
    70
  9
$TILEMODE
 70
     1
  9
$MAXACTVP
 70
    64
  9
$PINSBASE
 10
0.0
 20
0.0
 30
0.0
  9
$PLIMCHECK
 70
     0
  9
$PEXTMIN
 10
0.0
 20
0.0
 30
0.0
  9
$PEXTMAX
 10
0.0
 20
0.0
 30
0.0
  9
$PLIMMIN
 10
0.0
 20
0.0
  9
$PLIMMAX
 10
12.0
 20
9.0
  9
$UNITMODE
 70
     0
  9
$VISRETAIN
 70
     1
  9
$PLINEGEN
 70
     0
  9
$PSLTSCALE
 70
     1
  9
$TREEDEPTH
 70
  3020
  9
$CMLSTYLE
  2
Standard
  9
$CMLJUST
 70
     0
  9
$CMLSCALE
 40
20.0
  9
$PROXYGRAPHICS
 70
     1
  9
$MEASUREMENT
 70
     1
  9
$CELWEIGHT
370
    -1
  9
$ENDCAPS
280
     0
  9
$JOINSTYLE
280
     0
  9
$LWDISPLAY
290
     0
  9
$INSUNITS
 70
     4
  9
$HYPERLINKBASE
  1

  9
$STYLESHEET
  1

  9
$XEDIT
290
     1
  9
$CEPSNTYPE
380
     0
  9
$PSTYLEMODE
290
     1
  9
$FINGERPRINTGUID
  2
{ADB33D04-82B2-4E24-8A07-735B98864841}
  9
$VERSIONGUID
  2
{4D2A2AC1-3924-46EF-A94E-D8E3482AAA2E}
  9
$EXTNAMES
290
     1
  9
$PSVPSCALE
 40
0.0
  9
$OLESTARTUP
290
     0
  0
ENDSEC
  0
SECTION
  2
CLASSES
  0
CLASS
  1
ACDBDICTIONARYWDFLT
  2
AcDbDictionaryWithDefault
  3
ObjectDBX Classes
 90
        0
280
     0
281
     0
  0
CLASS
  1
ACDBPLACEHOLDER
  2
AcDbPlaceHolder
  3
ObjectDBX Classes
 90
        0
280
     0
281
     0
  0
CLASS
  1
LAYOUT
  2
AcDbLayout
  3
ObjectDBX Classes
 90
        0
280
     0
281
     0
  0
CLASS
  1
DICTIONARYVAR
  2
AcDbDictionaryVar
  3
ObjectDBX Classes
 90
        0
280
     0
281
     0
  0
CLASS
  1
TABLESTYLE
  2
AcDbTableStyle
  3
ObjectDBX Classes
 90
     4095
280
     0
281
     0
  0
CLASS
  1
MATERIAL
  2
AcDbMaterial
  3
ObjectDBX Classes
 90
     1153
280
     0
281
     0
  0
CLASS
  1
VISUALSTYLE
  2
AcDbVisualStyle
  3
ObjectDBX Classes
 90
     4095
280
     0
281
     0
  0
CLASS
  1
SCALE
  2
AcDbScale
  3
ObjectDBX Classes
 90
     1153
280
     0
281
     0
  0
CLASS
  1
MLEADERSTYLE
  2
AcDbMLeaderStyle
  3
ACDB_MLEADERSTYLE_CLASS
 90
     4095
280
     0
281
     0
  0
CLASS
  1
CELLSTYLEMAP
  2
AcDbCellStyleMap
  3
ObjectDBX Classes
 90
     1152
280
     0
281
     0
  0
ENDSEC
  0
SECTION
  2
TABLES
  0
TABLE
  2
VPORT
  5
8
330
0
100
AcDbSymbolTable
 70
     1
  0
VPORT
  5
EA
330
8
100
AcDbSymbolTableRecord
100
AcDbViewportTableRecord
  2
*Active
 70
     0
 10
0.0
 20
0.0
 11
1.0
 21
1.0
 12
313.489213426561
 22
466.0579090909314
 13
0.0
 23
0.0
 14
10.0
 24
10.0
 15
10.0
 25
10.0
 16
0.0
 26
0.0
 36
1.0
 17
0.0
 27
0.0
 37
0.0
 40
1411.401990463319
 41
1.168711656441717
 42
50.0
 43
0.0
 44
0.0
 50
0.0
 51
0.0
 71
     0
 72
  1000
 73
     1
 74
     3
 75
     0
 76
     0
 77
     0
 78
     0
281
     0
 65
     1
110
0.0
120
0.0
130
0.0
111
1.0
121
0.0
131
0.0
112
0.0
122
1.0
132
0.0
 79
     0
146
0.0
  0
ENDTAB
  0
TABLE
  2
LTYPE
  5
5
330
0
100
AcDbSymbolTable
 70
     2
  0
LTYPE
  5
14
330
5
100
AcDbSymbolTableRecord
100
AcDbLinetypeTableRecord
  2
ByBlock
 70
     0
  3

 72
    65
 73
     0
 40
0.0
  0
LTYPE
  5
15
330
5
100
AcDbSymbolTableRecord
100
AcDbLinetypeTableRecord
  2
ByLayer
 70
     0
  3

 72
    65
 73
     0
 40
0.0
  0
LTYPE
  5
16
330
5
100
AcDbSymbolTableRecord
100
AcDbLinetypeTableRecord
  2
Continuous
 70
     0
  3
Solid line
 72
    65
 73
     0
 40
0.0
  0
ENDTAB
  0
TABLE
  2
LAYER
  5
2
330
0
100
AcDbSymbolTable
 70
     2
  0
LAYER
  5
10
102
{ACAD_XDICTIONARY
360
13C
102
}
330
2
100
AcDbSymbolTableRecord
100
AcDbLayerTableRecord
  2
0
 70
     0
 62
     7
  6
Continuous
370
    -3
390
F
  0
LAYER
  5
30E
330
2
100
AcDbSymbolTableRecord
100
AcDbLayerTableRecord
  2
Defpoints
 70
     0
 62
     7
  6
Continuous
290
     0
370
    -3
390
F
  0
ENDTAB
  0
TABLE
  2
STYLE
  5
3
330
0
100
AcDbSymbolTable
 70
     2
  0
STYLE
  5
11
330
3
100
AcDbSymbolTableRecord
100
AcDbTextStyleTableRecord
  2
Standard
 70
     0
 40
0.0
 41
1.0
 50
0.0
 71
     0
 42
2.5
  3
txt.shx
  4

  0
STYLE
  5
132
330
3
100
AcDbSymbolTableRecord
100
AcDbTextStyleTableRecord
  2
Annotativa
 70
     0
 40
0.0
 41
1.0
 50
0.0
 71
     0
 42
2.5
  3
txt.shx
  4

1001
AcadAnnotative
1000
AnnotativeData
1002
{
1070
     1
1070
     1
1002
}
  0
ENDTAB
  0
TABLE
  2
VIEW
  5
6
330
0
100
AcDbSymbolTable
 70
     0
  0
ENDTAB
  0
TABLE
  2
UCS
  5
7
330
0
100
AcDbSymbolTable
 70
     0
  0
ENDTAB
  0
TABLE
  2
APPID
  5
9
330
0
100
AcDbSymbolTable
 70
     8
  0
APPID
  5
12
330
9
100
AcDbSymbolTableRecord
100
AcDbRegAppTableRecord
  2
ACAD
 70
     0
  0
APPID
  5
9E
330
9
100
AcDbSymbolTableRecord
100
AcDbRegAppTableRecord
  2
ACAD_PSEXT
 70
     0
  0
APPID
  5
133
330
9
100
AcDbSymbolTableRecord
100
AcDbRegAppTableRecord
  2
AcadAnnoPO
 70
     0
  0
APPID
  5
134
330
9
100
AcDbSymbolTableRecord
100
AcDbRegAppTableRecord
  2
AcadAnnotative
 70
     0
  0
APPID
  5
135
330
9
100
AcDbSymbolTableRecord
100
AcDbRegAppTableRecord
  2
ACAD_DSTYLE_DIMJAG
 70
     0
  0
APPID
  5
136
330
9
100
AcDbSymbolTableRecord
100
AcDbRegAppTableRecord
  2
ACAD_DSTYLE_DIMTALN
 70
     0
  0
APPID
  5
165
330
9
100
AcDbSymbolTableRecord
100
AcDbRegAppTableRecord
  2
ACAD_MLEADERVER
 70
     0
  0
APPID
  5
3C9
330
9
100
AcDbSymbolTableRecord
100
AcDbRegAppTableRecord
  2
ACAD_EXEMPT_FROM_CAD_STANDARDS
 70
     0
  0
ENDTAB
  0
TABLE
  2
DIMSTYLE
  5
A
330
0
100
AcDbSymbolTable
 70
     4
100
AcDbDimStyleTable
 71
     2
340
27
340
137
  0
DIMSTYLE
105
27
330
A
100
AcDbSymbolTableRecord
100
AcDbDimStyleTableRecord
  2
ISO-25
 70
     0
 41
2.5
 42
0.625
 43
3.75
 44
1.25
 73
     0
 74
     0
 77
     1
 78
     8
140
2.5
141
2.5
143
0.03937007874016
147
0.625
171
     3
172
     1
271
     2
272
     2
274
     3
278
    44
283
     0
284
     8
340
11
  0
DIMSTYLE
105
137
330
A
100
AcDbSymbolTableRecord
100
AcDbDimStyleTableRecord
  2
Annotativa
 70
     0
 40
0.0
 41
2.5
 42
0.625
 43
3.75
 44
1.25
 73
     0
 74
     0
 77
     1
 78
     8
140
2.5
141
2.5
143
0.03937007874016
147
0.625
171
     3
172
     1
271
     2
272
     2
274
     3
278
    44
283
     0
284
     8
340
11
1001
AcadAnnotative
1000
AnnotativeData
1002
{
1070
     1
1070
     1
1002
}
1001
ACAD_DSTYLE_DIMJAG
1070
   388
1040
1.5
1001
ACAD_DSTYLE_DIMTALN
1070
   392
1070
     0
  0
DIMSTYLE
105
30F
102
{ACAD_REACTORS
330
311
330
312
330
313
330
317
330
318
330
39B
102
}
330
A
100
AcDbSymbolTableRecord
100
AcDbDimStyleTableRecord
  2
Standard
 70
     0
340
11
  0
ENDTAB
  0
TABLE
  2
BLOCK_RECORD
  5
1
330
0
100
AcDbSymbolTable
 70
    11
  0
BLOCK_RECORD
  5
1F
330
1
100
AcDbSymbolTableRecord
100
AcDbBlockTableRecord
  2
*Model_Space
340
22
  0
BLOCK_RECORD
  5
D2
330
1
100
AcDbSymbolTableRecord
100
AcDbBlockTableRecord
  2
*Paper_Space
340
D3
  0
BLOCK_RECORD
  5
D6
330
1
100
AcDbSymbolTableRecord
100
AcDbBlockTableRecord
  2
*Paper_Space0
340
D7
  0
BLOCK_RECORD
  5
2E7
330
1
100
AcDbSymbolTableRecord
100
AcDbBlockTableRecord
  2
*D2
340
0
  0
BLOCK_RECORD
  5
2F4
330
1
100
AcDbSymbolTableRecord
100
AcDbBlockTableRecord
  2
*D3
340
0
  0
BLOCK_RECORD
  5
301
330
1
100
AcDbSymbolTableRecord
100
AcDbBlockTableRecord
  2
*D4
340
0
  0
BLOCK_RECORD
  5
31A
330
1
100
AcDbSymbolTableRecord
100
AcDbBlockTableRecord
  2
*D6
340
0
  0
BLOCK_RECORD
  5
327
330
1
100
AcDbSymbolTableRecord
100
AcDbBlockTableRecord
  2
*D7
340
0
  0
BLOCK_RECORD
  5
334
330
1
100
AcDbSymbolTableRecord
100
AcDbBlockTableRecord
  2
*D8
340
0
  0
BLOCK_RECORD
  5
39C
330
1
100
AcDbSymbolTableRecord
100
AcDbBlockTableRecord
  2
*D9
340
0
  0
ENDTAB
  0
ENDSEC
  0
SECTION
  2
BLOCKS
  0
BLOCK
  5
20
330
1F
100
AcDbEntity
  8
0
100
AcDbBlockBegin
  2
*Model_Space
 70
     0
 10
0.0
 20
0.0
 30
0.0
  3
*Model_Space
  1

  0
ENDBLK
  5
21
330
1F
100
AcDbEntity
  8
0
100
AcDbBlockEnd
  0
BLOCK
  5
D4
330
D2
100
AcDbEntity
 67
     1
  8
0
100
AcDbBlockBegin
  2
*Paper_Space
 70
     0
 10
0.0
 20
0.0
 30
0.0
  3
*Paper_Space
  1

  0
ENDBLK
  5
D5
330
D2
100
AcDbEntity
 67
     1
  8
0
100
AcDbBlockEnd
  0
BLOCK
  5
D8
330
D6
100
AcDbEntity
 67
     1
  8
0
100
AcDbBlockBegin
  2
*Paper_Space0
 70
     0
 10
0.0
 20
0.0
 30
0.0
  3
*Paper_Space0
  1

  0
ENDBLK
  5
D9
330
D6
100
AcDbEntity
 67
     1
  8
0
100
AcDbBlockEnd
  0
BLOCK
  5
2E8
330
2E7
100
AcDbEntity
  8
0
100
AcDbBlockBegin
  2
*D2
 70
     1
 10
0.0
 20
0.0
 30
0.0
  3
*D2
  1

  0
LINE
  5
2E9
330
2E7
100
AcDbEntity
  8
0
 62
     0
370
    -2
100
AcDbLine
 10
82.87614224055831
 20
387.739131862613
 30
0.0
 11
82.87614224055831
 21
412.622632171131
 31
0.0
  0
LINE
  5
2EA
330
2E7
100
AcDbEntity
  8
0
 62
     0
370
    -2
100
AcDbLine
 10
209.7345416083466
 20
387.739131862613
 30
0.0
 11
209.7345416083466
 21
412.622632171131
 31
0.0
  0
LINE
  5
2EB
330
2E7
100
AcDbEntity
  8
0
 62
     0
370
    -2
100
AcDbLine
 10
92.87614224055831
 20
411.372632171131
 30
0.0
 11
137.9506189492633
 21
411.372632171131
 31
0.0
  0
LINE
  5
2EC
330
2E7
100
AcDbEntity
  8
0
 62
     0
370
    -2
100
AcDbLine
 10
199.7345416083466
 20
411.372632171131
 30
0.0
 11
162.5339522825966
 21
411.372632171131
 31
0.0
  0
SOLID
  5
2ED
330
2E7
100
AcDbEntity
  8
0
 62
     0
100
AcDbTrace
 10
92.87614224055831
 20
413.0392988377977
 30
0.0
 11
92.87614224055831
 21
409.7059655044644
 31
0.0
 12
82.87614224055831
 22
411.372632171131
 32
0.0
 13
82.87614224055831
 23
411.372632171131
 33
0.0
  0
SOLID
  5
2EE
330
2E7
100
AcDbEntity
  8
0
 62
     0
100
AcDbTrace
 10
199.7345416083466
 20
413.0392988377977
 30
0.0
 11
199.7345416083466
 21
409.7059655044644
 31
0.0
 12
209.7345416083466
 22
411.372632171131
 32
0.0
 13
209.7345416083466
 23
411.372632171131
 33
0.0
  0
MTEXT
  5
2EF
330
2E7
100
AcDbEntity
  8
0
 62
     0
370
     0
100
AcDbMText
 10
150.24228561593
 20
411.372632171131
 30
0.0
 40
10.0
 41
0.0
 71
     5
 72
     1
  1
127
 73
     1
 44
1.0
1001
ACAD
1000
MTEXTBEGIN
1070
    73
1070
     1
1070
    44
1040
1.0
1070
    74
1070
     0
1000
MTEXTEND
  0
POINT
  5
2F0
330
2E7
100
AcDbEntity
  8
Defpoints
 62
     0
100
AcDbPoint
 10
82.87614224055831
 20
387.114131862613
 30
0.0
  0
POINT
  5
2F1
330
2E7
100
AcDbEntity
  8
Defpoints
 62
     0
100
AcDbPoint
 10
209.7345416083466
 20
387.114131862613
 30
0.0
  0
POINT
  5
2F2
330
2E7
100
AcDbEntity
  8
Defpoints
 62
     0
100
AcDbPoint
 10
209.7345416083466
 20
411.372632171131
 30
0.0
  0
ENDBLK
  5
2F3
330
2E7
100
AcDbEntity
  8
0
100
AcDbBlockEnd
  0
BLOCK
  5
2F5
330
2F4
100
AcDbEntity
  8
0
100
AcDbBlockBegin
  2
*D3
 70
     1
 10
0.0
 20
0.0
 30
0.0
  3
*D3
  1

  0
LINE
  5
2F6
330
2F4
100
AcDbEntity
  8
0
 62
     0
370
    -2
100
AcDbLine
 10
82.25114224055829
 20
387.114131862613
 30
-0.0000000000000002
 11
56.0397384431668
 21
387.114131862613
 31
-0.0000000000000002
  0
LINE
  5
2F7
330
2F4
100
AcDbEntity
  8
0
 62
     0
370
    -2
100
AcDbLine
 10
82.25114224055831
 20
20.28192702409186
 30
-0.0000000000000002
 11
56.03973844316672
 21
20.28192702409186
 31
-0.0000000000000002
  0
LINE
  5
2F8
330
2F4
100
AcDbEntity
  8
0
 62
     0
370
    -2
100
AcDbLine
 10
57.2897384431668
 20
377.114131862613
 30
-0.0000000000000002
 11
57.28973844316676
 21
217.6913529549182
 31
-0.0000000000000002
  0
LINE
  5
2F9
330
2F4
100
AcDbEntity
  8
0
 62
     0
370
    -2
100
AcDbLine
 10
57.28973844316672
 20
30.28192702409186
 30
-0.0000000000000002
 11
57.28973844316676
 21
189.7746862882515
 31
-0.0000000000000002
  0
SOLID
  5
2FA
330
2F4
100
AcDbEntity
  8
0
 62
     0
100
AcDbTrace
 10
55.62307177650013
 20
377.114131862613
 30
-0.0000000000000002
 11
58.95640510983346
 21
377.114131862613
 31
-0.0000000000000002
 12
57.2897384431668
 22
387.114131862613
 32
-0.0000000000000002
 13
57.2897384431668
 23
387.114131862613
 33
-0.0000000000000002
  0
SOLID
  5
2FB
330
2F4
100
AcDbEntity
  8
0
 62
     0
100
AcDbTrace
 10
55.62307177650005
 20
30.28192702409187
 30
-0.0000000000000002
 11
58.95640510983338
 21
30.28192702409186
 31
-0.0000000000000002
 12
57.28973844316672
 22
20.28192702409186
 32
-0.0000000000000002
 13
57.28973844316672
 23
20.28192702409186
 33
-0.0000000000000002
  0
MTEXT
  5
2FC
330
2F4
100
AcDbEntity
  8
0
 62
     0
370
     0
100
AcDbMText
 10
57.28973844316673
 20
203.7330196215849
 30
-0.0000000000000002
 40
10.0
 41
0.0
 71
     5
 72
     1
  1
367
 11
0.0000000000000001
 21
1.0
 31
0.0
 73
     1
 44
1.0
1001
ACAD
1000
MTEXTBEGIN
1070
    73
1070
     1
1070
    44
1040
1.0
1070
    74
1070
     0
1000
MTEXTEND
  0
POINT
  5
2FD
330
2F4
100
AcDbEntity
  8
Defpoints
 62
     0
100
AcDbPoint
 10
82.87614224055829
 20
387.114131862613
 30
0.0
  0
POINT
  5
2FE
330
2F4
100
AcDbEntity
  8
Defpoints
 62
     0
100
AcDbPoint
 10
82.87614224055831
 20
20.28192702409186
 30
0.0
  0
POINT
  5
2FF
330
2F4
100
AcDbEntity
  8
Defpoints
 62
     0
100
AcDbPoint
 10
57.28973844316672
 20
20.28192702409186
 30
-0.0000000000000002
  0
ENDBLK
  5
300
330
2F4
100
AcDbEntity
  8
0
100
AcDbBlockEnd
  0
BLOCK
  5
302
330
301
100
AcDbEntity
  8
0
100
AcDbBlockBegin
  2
*D4
 70
     1
 10
0.0
 20
0.0
 30
0.0
  3
*D4
  1

  0
LINE
  5
303
330
301
100
AcDbEntity
  8
0
 62
     0
370
    -2
100
AcDbLine
 10
241.9777181143262
 20
388.7962851906775
 30
0.0
 11
241.9777181143262
 21
412.622632171131
 31
0.0
  0
LINE
  5
304
330
301
100
AcDbEntity
  8
0
 62
     0
370
    -2
100
AcDbLine
 10
286.9067345570846
 20
388.7962851906775
 30
0.0
 11
286.9067345570846
 21
412.622632171131
 31
0.0
  0
LINE
  5
305
330
301
100
AcDbEntity
  8
0
 62
     0
370
    -2
100
AcDbLine
 10
251.9777181143261
 20
411.372632171131
 30
0.0
 11
255.4838930023721
 21
411.372632171131
 31
0.0
  0
LINE
  5
306
330
301
100
AcDbEntity
  8
0
 62
     0
370
    -2
100
AcDbLine
 10
276.9067345570846
 20
411.372632171131
 30
0.0
 11
273.4005596690387
 21
411.372632171131
 31
0.0
  0
SOLID
  5
307
330
301
100
AcDbEntity
  8
0
 62
     0
100
AcDbTrace
 10
251.9777181143261
 20
413.0392988377977
 30
0.0
 11
251.9777181143261
 21
409.7059655044644
 31
0.0
 12
241.9777181143262
 22
411.372632171131
 32
0.0
 13
241.9777181143262
 23
411.372632171131
 33
0.0
  0
SOLID
  5
308
330
301
100
AcDbEntity
  8
0
 62
     0
100
AcDbTrace
 10
276.9067345570846
 20
413.0392988377977
 30
0.0
 11
276.9067345570846
 21
409.7059655044644
 31
0.0
 12
286.9067345570846
 22
411.372632171131
 32
0.0
 13
286.9067345570846
 23
411.372632171131
 33
0.0
  0
MTEXT
  5
309
330
301
100
AcDbEntity
  8
0
 62
     0
370
     0
100
AcDbMText
 10
264.4422263357054
 20
411.372632171131
 30
0.0
 40
10.0
 41
0.0
 71
     5
 72
     1
  1
45
 73
     1
 44
1.0
1001
ACAD
1000
MTEXTBEGIN
1070
    73
1070
     1
1070
    44
1040
1.0
1070
    74
1070
     0
1000
MTEXTEND
  0
POINT
  5
30A
330
301
100
AcDbEntity
  8
Defpoints
 62
     0
100
AcDbPoint
 10
241.9777181143262
 20
388.1712851906775
 30
0.0
  0
POINT
  5
30B
330
301
100
AcDbEntity
  8
Defpoints
 62
     0
100
AcDbPoint
 10
286.9067345570846
 20
388.1712851906775
 30
0.0
  0
POINT
  5
30C
330
301
100
AcDbEntity
  8
Defpoints
 62
     0
100
AcDbPoint
 10
286.9067345570846
 20
411.372632171131
 30
0.0
  0
ENDBLK
  5
30D
330
301
100
AcDbEntity
  8
0
100
AcDbBlockEnd
  0
BLOCK
  5
31B
330
31A
100
AcDbEntity
  8
0
100
AcDbBlockBegin
  2
*D6
 70
     1
 10
0.0
 20
0.0
 30
0.0
  3
*D6
  1

  0
LINE
  5
40C
330
31A
100
AcDbEntity
  8
0
 62
     0
370
    -2
100
AcDbLine
 10
89.57189115789129
 20
441.2699545006225
 30
0.0
 11
89.57189115789129
 21
466.2807960181091
 31
0.0
  0
LINE
  5
40D
330
31A
100
AcDbEntity
  8
0
 62
     0
370
    -2
100
AcDbLine
 10
234.3094511681393
 20
441.2699545006225
 30
0.0
 11
234.3094511681393
 21
466.2807960181091
 31
0.0
  0
LINE
  5
40E
330
31A
100
AcDbEntity
  8
0
 62
     0
370
    -2
100
AcDbLine
 10
99.57189115789129
 20
465.0307960181091
 30
0.0
 11
144.9999959158108
 21
465.0307960181091
 31
0.0
  0
LINE
  5
40F
330
31A
100
AcDbEntity
  8
0
 62
     0
370
    -2
100
AcDbLine
 10
224.3094511681393
 20
465.0307960181091
 30
0.0
 11
169.5833292491441
 21
465.0307960181091
 31
0.0
  0
SOLID
  5
410
330
31A
100
AcDbEntity
  8
0
 62
     0
100
AcDbTrace
 10
99.57189115789129
 20
466.6974626847759
 30
0.0
 11
99.57189115789129
 21
463.3641293514425
 31
0.0
 12
89.57189115789129
 22
465.0307960181091
 32
0.0
 13
89.57189115789129
 23
465.0307960181091
 33
0.0
  0
SOLID
  5
411
330
31A
100
AcDbEntity
  8
0
 62
     0
100
AcDbTrace
 10
224.3094511681393
 20
466.6974626847759
 30
0.0
 11
224.3094511681393
 21
463.3641293514425
 31
0.0
 12
234.3094511681393
 22
465.0307960181091
 32
0.0
 13
234.3094511681393
 23
465.0307960181091
 33
0.0
  0
MTEXT
  5
412
330
31A
100
AcDbEntity
  8
0
 62
     0
370
     0
100
AcDbMText
 10
157.2916625824774
 20
465.0307960181091
 30
0.0
 40
10.0
 41
0.0
 71
     5
 72
     1
  1
145
 73
     1
 44
1.0
1001
ACAD
1000
MTEXTBEGIN
1070
    73
1070
     1
1070
    44
1040
1.0
1070
    74
1070
     0
1000
MTEXTEND
  0
POINT
  5
413
330
31A
100
AcDbEntity
  8
Defpoints
 62
     0
100
AcDbPoint
 10
89.57189115789129
 20
440.6449545006226
 30
0.0
  0
POINT
  5
414
330
31A
100
AcDbEntity
  8
Defpoints
 62
     0
100
AcDbPoint
 10
234.3094511681393
 20
440.6449545006226
 30
0.0
  0
POINT
  5
415
330
31A
100
AcDbEntity
  8
Defpoints
 62
     0
100
AcDbPoint
 10
234.3094511681393
 20
465.0307960181091
 30
0.0
  0
ENDBLK
  5
31C
330
31A
100
AcDbEntity
  8
0
100
AcDbBlockEnd
  0
BLOCK
  5
328
330
327
100
AcDbEntity
  8
0
100
AcDbBlockBegin
  2
*D7
 70
     1
 10
0.0
 20
0.0
 30
0.0
  3
*D7
  1

  0
LINE
  5
416
330
327
100
AcDbEntity
  8
0
 62
     0
370
    -2
100
AcDbLine
 10
91.65980782455648
 20
443.3578711672892
 30
-0.0000000000000002
 11
65.31409219620761
 21
443.3578711672892
 31
-0.0000000000000002
  0
LINE
  5
417
330
327
100
AcDbEntity
  8
0
 62
     0
370
    -2
100
AcDbLine
 10
88.94689115789129
 20
60.29403783395577
 30
-0.0000000000000002
 11
65.31409219620752
 21
60.29403783395578
 31
-0.0000000000000002
  0
LINE
  5
418
330
327
100
AcDbEntity
  8
0
 62
     0
370
    -2
100
AcDbLine
 10
66.56409219620761
 20
433.3578711672893
 30
-0.0000000000000002
 11
66.56409219620757
 21
272.9724617491428
 31
-0.0000000000000002
  0
LINE
  5
419
330
327
100
AcDbEntity
  8
0
 62
     0
370
    -2
100
AcDbLine
 10
66.56409219620752
 20
70.29403783395578
 30
-0.0000000000000002
 11
66.56409219620757
 21
245.0557950824761
 31
-0.0000000000000002
  0
SOLID
  5
41A
330
327
100
AcDbEntity
  8
0
 62
     0
100
AcDbTrace
 10
64.89742552954094
 20
433.3578711672893
 30
-0.0000000000000002
 11
68.23075886287428
 21
433.3578711672893
 31
-0.0000000000000002
 12
66.56409219620761
 22
443.3578711672892
 32
-0.0000000000000002
 13
66.56409219620761
 23
443.3578711672892
 33
-0.0000000000000002
  0
SOLID
  5
41B
330
327
100
AcDbEntity
  8
0
 62
     0
100
AcDbTrace
 10
64.89742552954085
 20
70.29403783395578
 30
-0.0000000000000002
 11
68.23075886287419
 21
70.29403783395578
 31
-0.0000000000000002
 12
66.56409219620752
 22
60.29403783395578
 32
-0.0000000000000002
 13
66.56409219620752
 23
60.29403783395578
 33
-0.0000000000000002
  0
MTEXT
  5
41C
330
327
100
AcDbEntity
  8
0
 62
     0
370
     0
100
AcDbMText
 10
66.56409219620752
 20
259.0141284158095
 30
-0.0000000000000002
 40
10.0
 41
0.0
 71
     5
 72
     1
  1
383
 11
0.0000000000000001
 21
1.0
 31
0.0
 73
     1
 44
1.0
1001
ACAD
1000
MTEXTBEGIN
1070
    73
1070
     1
1070
    44
1040
1.0
1070
    74
1070
     0
1000
MTEXTEND
  0
POINT
  5
41D
330
327
100
AcDbEntity
  8
Defpoints
 62
     0
100
AcDbPoint
 10
92.28480782455648
 20
443.3578711672892
 30
0.0
  0
POINT
  5
41E
330
327
100
AcDbEntity
  8
Defpoints
 62
     0
100
AcDbPoint
 10
89.57189115789129
 20
60.29403783395577
 30
0.0
  0
POINT
  5
41F
330
327
100
AcDbEntity
  8
Defpoints
 62
     0
100
AcDbPoint
 10
66.56409219620752
 20
60.29403783395578
 30
-0.0000000000000002
  0
ENDBLK
  5
329
330
327
100
AcDbEntity
  8
0
100
AcDbBlockEnd
  0
BLOCK
  5
335
330
334
100
AcDbEntity
  8
0
100
AcDbBlockBegin
  2
*D8
 70
     1
 10
0.0
 20
0.0
 30
0.0
  3
*D8
  1

  0
LINE
  5
355
330
334
100
AcDbEntity
  8
0
 62
     0
370
    -2
100
AcDbLine
 10
1005.774468845227
 20
690.579414548966
 30
0.0
 11
1005.774468845227
 21
714.4057615294196
 31
0.0
  0
LINE
  5
356
330
334
100
AcDbEntity
  8
0
 62
     0
370
    -2
100
AcDbLine
 10
1050.703485287986
 20
690.579414548966
 30
0.0
 11
1050.703485287986
 21
714.4057615294196
 31
0.0
  0
LINE
  5
357
330
334
100
AcDbEntity
  8
0
 62
     0
370
    -2
100
AcDbLine
 10
1015.774468845227
 20
713.1557615294195
 30
0.0
 11
1019.280643733273
 21
713.1557615294195
 31
0.0
  0
LINE
  5
358
330
334
100
AcDbEntity
  8
0
 62
     0
370
    -2
100
AcDbLine
 10
1040.703485287986
 20
713.1557615294195
 30
0.0
 11
1037.19731039994
 21
713.1557615294195
 31
0.0
  0
SOLID
  5
359
330
334
100
AcDbEntity
  8
0
 62
     0
100
AcDbTrace
 10
1015.774468845227
 20
714.8224281960862
 30
0.0
 11
1015.774468845227
 21
711.4890948627529
 31
0.0
 12
1005.774468845227
 22
713.1557615294195
 32
0.0
 13
1005.774468845227
 23
713.1557615294195
 33
0.0
  0
SOLID
  5
35A
330
334
100
AcDbEntity
  8
0
 62
     0
100
AcDbTrace
 10
1040.703485287986
 20
714.8224281960862
 30
0.0
 11
1040.703485287986
 21
711.4890948627529
 31
0.0
 12
1050.703485287986
 22
713.1557615294195
 32
0.0
 13
1050.703485287986
 23
713.1557615294195
 33
0.0
  0
MTEXT
  5
35B
330
334
100
AcDbEntity
  8
0
 62
     0
370
     0
100
AcDbMText
 10
1028.238977066607
 20
713.1557615294195
 30
0.0
 40
10.0
 41
0.0
 71
     5
 72
     1
  1
45
 73
     1
 44
1.0
1001
ACAD
1000
MTEXTBEGIN
1070
    73
1070
     1
1070
    44
1040
1.0
1070
    74
1070
     0
1000
MTEXTEND
  0
POINT
  5
35C
330
334
100
AcDbEntity
  8
Defpoints
 62
     0
100
AcDbPoint
 10
1005.774468845227
 20
689.954414548966
 30
0.0
  0
POINT
  5
35D
330
334
100
AcDbEntity
  8
Defpoints
 62
     0
100
AcDbPoint
 10
1050.703485287986
 20
689.954414548966
 30
0.0
  0
POINT
  5
35E
330
334
100
AcDbEntity
  8
Defpoints
 62
     0
100
AcDbPoint
 10
1050.703485287986
 20
713.1557615294195
 30
0.0
  0
ENDBLK
  5
336
330
334
100
AcDbEntity
  8
0
100
AcDbBlockEnd
  0
BLOCK
  5
39D
330
39C
100
AcDbEntity
  8
0
100
AcDbBlockBegin
  2
*D9
 70
     1
 10
0.0
 20
0.0
 30
0.0
  3
*D9
  1

  0
LINE
  5
420
330
39C
100
AcDbEntity
  8
0
 62
     0
370
    -2
100
AcDbLine
 10
262.1133911578917
 20
440.7273711672888
 30
0.0
 11
262.1133911578917
 21
465.7382126847754
 31
0.0
  0
LINE
  5
421
330
39C
100
AcDbEntity
  8
0
 62
     0
370
    -2
100
AcDbLine
 10
326.1382244912238
 20
443.9828711672893
 30
0.0
 11
326.1382244912238
 21
465.7382126847754
 31
0.0
  0
LINE
  5
422
330
39C
100
AcDbEntity
  8
0
 62
     0
370
    -2
100
AcDbLine
 10
272.1133911578917
 20
464.4882126847754
 30
0.0
 11
285.1674744912245
 21
464.4882126847754
 31
0.0
  0
LINE
  5
423
330
39C
100
AcDbEntity
  8
0
 62
     0
370
    -2
100
AcDbLine
 10
316.1382244912238
 20
464.4882126847754
 30
0.0
 11
303.0841411578911
 21
464.4882126847754
 31
0.0
  0
SOLID
  5
424
330
39C
100
AcDbEntity
  8
0
 62
     0
100
AcDbTrace
 10
272.1133911578917
 20
466.1548793514421
 30
0.0
 11
272.1133911578917
 21
462.8215460181087
 31
0.0
 12
262.1133911578917
 22
464.4882126847754
 32
0.0
 13
262.1133911578917
 23
464.4882126847754
 33
0.0
  0
SOLID
  5
425
330
39C
100
AcDbEntity
  8
0
 62
     0
100
AcDbTrace
 10
316.1382244912238
 20
466.1548793514421
 30
0.0
 11
316.1382244912238
 21
462.8215460181087
 31
0.0
 12
326.1382244912238
 22
464.4882126847754
 32
0.0
 13
326.1382244912238
 23
464.4882126847754
 33
0.0
  0
MTEXT
  5
426
330
39C
100
AcDbEntity
  8
0
 62
     0
370
     0
100
AcDbMText
 10
294.1258078245578
 20
464.4882126847754
 30
0.0
 40
10.0
 41
0.0
 71
     5
 72
     1
  1
64
 73
     1
 44
1.0
1001
ACAD
1000
MTEXTBEGIN
1070
    73
1070
     1
1070
    44
1040
1.0
1070
    74
1070
     0
1000
MTEXTEND
  0
POINT
  5
427
330
39C
100
AcDbEntity
  8
Defpoints
 62
     0
100
AcDbPoint
 10
262.1133911578917
 20
440.1023711672888
 30
0.0
  0
POINT
  5
428
330
39C
100
AcDbEntity
  8
Defpoints
 62
     0
100
AcDbPoint
 10
326.1382244912238
 20
443.3578711672892
 30
0.0
  0
POINT
  5
429
330
39C
100
AcDbEntity
  8
Defpoints
 62
     0
100
AcDbPoint
 10
326.1382244912238
 20
464.4882126847754
 30
0.0
  0
ENDBLK
  5
39E
330
39C
100
AcDbEntity
  8
0
100
AcDbBlockEnd
  0
ENDSEC
  0
SECTION
  2
ENTITIES
  0
LWPOLYLINE
  5
24F
330
1F
100
AcDbEntity
  8
0
 62
     0
370
     5
100
AcDbPolyline
 90
        2
 70
     0
 43
0.0
 10
91.19964115789105
 20
433.591371167289
 10
232.813891157891
 20
433.591371167289
  0
SPLINE
  5
250
330
1F
100
AcDbEntity
  8
0
 62
     0
370
     5
100
AcDbSpline
210
0.0
220
0.0
230
1.0
 70
     8
 71
     3
 72
    14
 73
    10
 74
     0
 42
0.0000000001
 43
0.0000000001
 40
0.0
 40
0.0
 40
0.0
 40
0.0
 40
1.0
 40
1.0
 40
1.0
 40
2.0
 40
2.0
 40
2.0
 40
3.0
 40
3.0
 40
3.0
 40
3.0
 10
145.4579744912247
 20
233.9207045006227
 30
0.0
 10
145.4579744912247
 20
239.8891211672893
 30
0.0
 10
141.6598911578911
 20
244.7723711672895
 30
0.0
 10
136.2340578245586
 20
246.4001211672892
 30
0.0
 10
130.8082244912252
 20
248.5704545006221
 30
0.0
 10
124.2972244912245
 20
246.4001211672892
 30
0.0
 10
121.041724491225
 20
242.0594545006223
 30
0.0
 10
119.4139744912244
 20
239.8891211672893
 30
0.0
 10
118.3288078245569
 20
237.1762045006227
 30
0.0
 10
118.3288078245569
 20
233.9207045006227
 30
0.0
  0
SPLINE
  5
251
330
1F
100
AcDbEntity
  8
0
 62
     0
370
     5
100
AcDbSpline
210
0.0
220
0.0
230
1.0
 70
     8
 71
     3
 72
    14
 73
    10
 74
     0
 42
0.0000000001
 43
0.0000000001
 40
0.0
 40
0.0
 40
0.0
 40
0.0
 40
1.0
 40
1.0
 40
1.0
 40
2.0
 40
2.0
 40
2.0
 40
3.0
 40
3.0
 40
3.0
 40
3.0
 10
118.3288078245569
 20
233.9207045006227
 30
0.0
 10
118.3288078245569
 20
227.4097045006223
 30
0.0
 10
122.1268911578906
 20
222.5264545006222
 30
0.0
 10
127.5527244912239
 20
220.3561211672893
 30
0.0
 10
132.9785578245573
 20
218.7283711672896
 30
0.0
 10
138.9469744912239
 20
220.3561211672893
 30
0.0
 10
142.7450578245576
 20
225.2393711672894
 30
0.0
 10
144.3728078245573
 20
227.4097045006223
 30
0.0
 10
145.4579744912247
 20
230.1226211672891
 30
0.0
 10
145.4579744912247
 20
233.9207045006227
 30
0.0
  0
SPLINE
  5
252
330
1F
100
AcDbEntity
  8
0
 62
     0
370
     5
100
AcDbSpline
210
0.0
220
0.0
230
1.0
 70
     8
 71
     3
 72
    14
 73
    10
 74
     0
 42
0.0000000001
 43
0.0000000001
 40
0.0
 40
0.0
 40
0.0
 40
0.0
 40
1.0
 40
1.0
 40
1.0
 40
2.0
 40
2.0
 40
2.0
 40
3.0
 40
3.0
 40
3.0
 40
3.0
 10
175.3000578245568
 20
99.90262116728912
 30
0.0
 10
175.3000578245568
 20
105.8710378339557
 30
0.0
 10
171.5019744912242
 20
110.7542878339558
 30
0.0
 10
166.0761411578908
 20
112.382037833956
 30
0.0
 10
160.6503078245574
 20
114.5523711672895
 30
0.0
 10
154.6818911578908
 20
112.382037833956
 30
0.0
 10
150.8838078245571
 20
108.0413711672896
 30
0.0
 10
149.2560578245574
 20
105.8710378339557
 30
0.0
 10
148.1708911578909
 20
103.1581211672895
 30
0.0
 10
148.1708911578909
 20
99.90262116728912
 30
0.0
  0
SPLINE
  5
253
330
1F
100
AcDbEntity
  8
0
 62
     0
370
     5
100
AcDbSpline
210
0.0
220
0.0
230
1.0
 70
     8
 71
     3
 72
    14
 73
    10
 74
     0
 42
0.0000000001
 43
0.0000000001
 40
0.0
 40
0.0
 40
0.0
 40
0.0
 40
1.0
 40
1.0
 40
1.0
 40
2.0
 40
2.0
 40
2.0
 40
3.0
 40
3.0
 40
3.0
 40
3.0
 10
148.1708911578909
 20
99.90262116728912
 30
0.0
 10
148.7134744912242
 20
93.39162116728926
 30
0.0
 10
151.9689744912245
 20
88.50837116728957
 30
0.0
 10
157.9373911578912
 20
86.33803783395615
 30
0.0
 10
162.8206411578913
 20
84.71028783395594
 30
0.0
 10
169.3316411578911
 20
86.88062116728895
 30
0.0
 10
172.5871411578915
 20
91.22128783395629
 30
0.0
 10
174.2148911578913
 20
93.39162116728926
 30
0.0
 10
175.3000578245568
 20
96.10453783395639
 30
0.0
 10
175.3000578245568
 20
99.90262116728912
 30
0.0
  0
SPLINE
  5
254
330
1F
100
AcDbEntity
  8
0
 62
     0
370
     5
100
AcDbSpline
210
0.0
220
0.0
230
1.0
 70
     8
 71
     3
 72
    11
 73
     7
 74
     0
 42
0.0000000001
 43
0.0000000001
 40
0.0
 40
0.0
 40
0.0
 40
0.0
 40
1.0
 40
1.0
 40
1.0
 40
2.0
 40
2.0
 40
2.0
 40
2.0
 10
160.6503078245574
 20
388.0143711672893
 30
0.0
 10
168.7890578245579
 20
388.5569545006228
 30
0.0
 10
172.5871411578915
 20
393.9827878339557
 30
0.0
 10
171.5019744912242
 20
399.9512045006223
 30
0.0
 10
170.4168078245567
 20
404.2918711672891
 30
0.0
 10
167.1613078245573
 20
407.5473711672891
 30
0.0
 10
162.8206411578913
 20
407.5473711672891
 30
0.0
  0
SPLINE
  5
255
330
1F
100
AcDbEntity
  8
0
 62
     0
370
     5
100
AcDbSpline
210
0.0
220
0.0
230
1.0
 70
     8
 71
     3
 72
    11
 73
     7
 74
     0
 42
0.0000000001
 43
0.0000000001
 40
0.0
 40
0.0
 40
0.0
 40
0.0
 40
1.0
 40
1.0
 40
1.0
 40
2.0
 40
2.0
 40
2.0
 40
2.0
 10
162.8206411578913
 20
407.5473711672891
 30
0.0
 10
155.2244744912249
 20
407.0047878339559
 30
0.0
 10
150.8838078245571
 20
401.5789545006225
 30
0.0
 10
151.9689744912245
 20
395.610537833956
 30
0.0
 10
153.0541411578911
 20
391.8124545006222
 30
0.0
 10
156.8522244912238
 20
388.5569545006228
 30
0.0
 10
160.6503078245574
 20
388.0143711672891
 30
0.0
  0
SPLINE
  5
256
330
1F
100
AcDbEntity
  8
0
 62
     0
370
     5
100
AcDbSpline
210
0.0
220
0.0
230
1.0
 70
     8
 71
     3
 72
    17
 73
    13
 74
     0
 42
0.0000000001
 43
0.0000000001
 40
0.0
 40
0.0
 40
0.0
 40
0.0
 40
1.0
 40
1.0
 40
1.0
 40
2.0
 40
2.0
 40
2.0
 40
3.0
 40
3.0
 40
3.0
 40
4.0
 40
4.0
 40
4.0
 40
4.0
 10
143.7719984897147
 20
397.8053468381066
 30
0.0
 10
146.5431411578912
 20
390.1847045006225
 30
0.0
 10
153.0541411578911
 20
388.0143711672891
 30
0.0
 10
159.0225578245576
 20
386.9292045006226
 30
0.0
 10
161.7354744912239
 20
386.9292045006226
 30
0.0
 10
164.9909744912243
 20
386.9292045006226
 30
0.0
 10
168.2464744912247
 20
387.4717878339559
 30
0.0
 10
170.9593911578909
 20
388.0143711672891
 30
0.0
 10
173.672307824558
 20
389.6421211672894
 30
0.0
 10
175.842641157891
 20
391.8124545006222
 30
0.0
 10
177.4703911578908
 20
392.8976211672893
 30
0.0
 10
178.5555578245582
 20
394.525371167289
 30
0.0
 10
179.4275549303484
 20
397.5378232579169
 30
0.0
  0
SPLINE
  5
257
330
1F
100
AcDbEntity
  8
0
 62
     0
370
     5
100
AcDbSpline
210
0.0
220
0.0
230
1.0
 70
     8
 71
     3
 72
    17
 73
    13
 74
     0
 42
0.0000000001
 43
0.0000000001
 40
0.0
 40
0.0
 40
0.0
 40
0.0
 40
1.0
 40
1.0
 40
1.0
 40
2.0
 40
2.0
 40
2.0
 40
3.0
 40
3.0
 40
3.0
 40
4.0
 40
4.0
 40
4.0
 40
4.0
 10
179.4275549303484
 20
397.5378232579169
 30
0.0
 10
177.4703911578908
 20
405.3770378339561
 30
0.0
 10
170.4168078245567
 20
407.5473711672891
 30
0.0
 10
164.9909744912243
 20
408.6325378339556
 30
0.0
 10
161.7354744912239
 20
409.1751211672893
 30
0.0
 10
158.4799744912244
 20
408.6325378339556
 30
0.0
 10
155.7670578245573
 20
408.0899545006229
 30
0.0
 10
152.5115578245578
 20
407.5473711672891
 30
0.0
 10
149.7986411578916
 20
405.9196211672894
 30
0.0
 10
147.6283078245577
 20
404.2918711672891
 30
0.0
 10
146.0005578245571
 20
402.6641211672894
 30
0.0
 10
144.9153911578914
 20
401.0363711672892
 30
0.0
 10
143.7719984897147
 20
397.8053468381066
 30
0.0
  0
LWPOLYLINE
  5
258
330
1F
100
AcDbEntity
  8
0
 62
     0
370
     5
100
AcDbPolyline
 90
        2
 70
     0
 43
0.0
 10
169.8742244912235
 20
298.4881211672895
 10
169.8742244912235
 20
263.2202045006225
  0
LWPOLYLINE
  5
259
330
1F
100
AcDbEntity
  8
0
 62
     0
370
     5
100
AcDbPolyline
 90
        2
 70
     0
 43
0.0
 10
169.8742244912235
 20
263.2202045006225
 10
166.618724491224
 20
263.2202045006225
  0
LWPOLYLINE
  5
25B
330
1F
100
AcDbEntity
  8
0
 62
     0
370
     5
100
AcDbPolyline
 90
        2
 70
     0
 43
0.0
 10
162.2009441574146
 20
323.7600548978115
 10
179.6407244912255
 20
299.0307045006226
  0
LWPOLYLINE
  5
25C
330
1F
100
AcDbEntity
  8
0
 62
     0
370
     5
100
AcDbPolyline
 90
        2
 70
     0
 43
0.0
 10
179.0981411578914
 20
298.4881211672895
 10
169.8742244912235
 20
298.4881211672895
  0
LWPOLYLINE
  5
25D
330
1F
100
AcDbEntity
  8
0
 62
     0
370
     5
100
AcDbPolyline
 90
        2
 70
     0
 43
0.0
 10
162.2009441574146
 20
323.7600548978115
 10
144.3728078245573
 20
299.0307045006226
  0
SPLINE
  5
25E
330
1F
100
AcDbEntity
  8
0
 62
     0
370
     5
100
AcDbSpline
210
0.0
220
0.0
230
1.0
 70
     8
 71
     3
 72
     8
 73
     4
 74
     0
 42
0.0000000001
 43
0.0000000001
 40
0.0
 40
0.0
 40
0.0
 40
0.0
 40
1.0
 40
1.0
 40
1.0
 40
1.0
 10
144.3728078245573
 20
299.0307045006226
 30
0.0
 10
144.3728078245573
 20
299.0307045006226
 30
0.0
 10
144.3728078245573
 20
298.4881211672895
 30
0.0
 10
144.9153911578914
 20
298.4881211672895
 30
0.0
  0
LWPOLYLINE
  5
25F
330
1F
100
AcDbEntity
  8
0
 62
     0
370
     5
100
AcDbPolyline
 90
        2
 70
     0
 43
0.0
 10
144.9153911578914
 20
298.4881211672895
 10
153.5967244912243
 20
298.4881211672895
  0
LWPOLYLINE
  5
260
330
1F
100
AcDbEntity
  8
0
 62
     0
370
     5
100
AcDbPolyline
 90
        2
 70
     0
 43
0.0
 10
224.6751411578905
 20
433.0487878339558
 10
224.6751411578905
 20
296.317787833956
  0
LWPOLYLINE
  5
261
330
1F
100
AcDbEntity
  8
0
 62
     0
370
     5
100
AcDbPolyline
 90
        2
 70
     0
 43
0.0
 10
227.3880578245575
 20
293.6048711672892
 10
230.643557824558
 20
293.6048711672892
  0
SPLINE
  5
262
330
1F
100
AcDbEntity
  8
0
 62
     0
370
     5
100
AcDbSpline
210
0.0
220
0.0
230
1.0
 70
     8
 71
     3
 72
     8
 73
     4
 74
     0
 42
0.0000000001
 43
0.0000000001
 40
0.0
 40
0.0
 40
0.0
 40
0.0
 40
1.0
 40
1.0
 40
1.0
 40
1.0
 10
224.6751411578905
 20
296.317787833956
 30
0.0
 10
224.6751411578905
 20
294.6900378339563
 30
0.0
 10
225.7603078245579
 20
293.6048711672892
 30
0.0
 10
227.3880578245575
 20
293.6048711672892
 30
0.0
  0
LWPOLYLINE
  5
263
330
1F
100
AcDbEntity
  8
0
 62
     0
370
     5
100
AcDbPolyline
 90
        2
 70
     0
 43
0.0
 10
99.33839115789062
 20
243.687204500623
 10
99.33839115789062
 20
68.97537116728955
  0
SPLINE
  5
264
330
1F
100
AcDbEntity
  8
0
 62
     0
370
     5
100
AcDbSpline
210
0.0
220
0.0
230
1.0
 70
     8
 71
     3
 72
     8
 73
     4
 74
     0
 42
0.0000000001
 43
0.0000000001
 40
0.0
 40
0.0
 40
0.0
 40
0.0
 40
1.0
 40
1.0
 40
1.0
 40
1.0
 10
99.33839115789062
 20
243.687204500623
 30
0.0
 10
99.33839115789062
 20
245.3149545006227
 30
0.0
 10
97.71064115789091
 20
246.4001211672892
 30
0.0
 10
96.08289115789114
 20
246.4001211672892
 30
0.0
  0
LWPOLYLINE
  5
265
330
1F
100
AcDbEntity
  8
0
 62
     0
370
     5
100
AcDbPolyline
 90
        2
 70
     0
 43
0.0
 10
96.08289115789114
 20
246.4001211672892
 10
92.82739115789075
 20
246.4001211672892
  0
LWPOLYLINE
  5
266
330
1F
100
AcDbEntity
  8
0
 62
     0
370
     5
100
AcDbPolyline
 90
        2
 70
     0
 43
0.0
 10
91.19964115789105
 20
62.46437116728924
 10
91.19964115789105
 20
68.43278783395584
  0
LWPOLYLINE
  5
267
330
1F
100
AcDbEntity
  8
0
 62
     0
370
     5
100
AcDbPolyline
 90
        2
 70
     0
 43
0.0
 10
91.19964115789105
 20
60.29403783395577
 10
91.19964115789105
 20
62.46437116728924
  0
LWPOLYLINE
  5
268
330
1F
100
AcDbEntity
  8
0
 62
     0
370
     5
100
AcDbPolyline
 90
        2
 70
     0
 43
0.0
 10
91.19964115789105
 20
68.43278783395584
 10
232.813891157891
 20
68.43278783395584
  0
LWPOLYLINE
  5
269
330
1F
100
AcDbEntity
  8
0
 62
     0
370
     5
100
AcDbPolyline
 90
        2
 70
     0
 43
0.0
 10
230.643557824558
 20
246.4001211672892
 10
231.5965345014731
 20
246.4001211672892
  0
LWPOLYLINE
  5
26A
330
1F
100
AcDbEntity
  8
0
 62
     0
370
     5
100
AcDbPolyline
 90
        2
 70
     0
 43
0.0
 10
224.6751411578905
 20
243.687204500623
 10
224.6751411578905
 20
68.97537116728955
  0
LWPOLYLINE
  5
26B
330
1F
100
AcDbEntity
  8
0
 62
     0
370
     5
100
AcDbPolyline
 90
        2
 70
     0
 43
0.0
 10
230.643557824558
 20
246.4001211672892
 10
227.3880578245575
 20
246.4001211672892
  0
SPLINE
  5
26C
330
1F
100
AcDbEntity
  8
0
 62
     0
370
     5
100
AcDbSpline
210
0.0
220
0.0
230
1.0
 70
     8
 71
     3
 72
     8
 73
     4
 74
     0
 42
0.0000000001
 43
0.0000000001
 40
0.0
 40
0.0
 40
0.0
 40
0.0
 40
1.0
 40
1.0
 40
1.0
 40
1.0
 10
227.3880578245575
 20
246.4001211672892
 30
0.0
 10
225.7603078245579
 20
246.4001211672892
 30
0.0
 10
224.6751411578905
 20
245.3149545006227
 30
0.0
 10
224.6751411578905
 20
243.687204500623
 30
0.0
  0
LWPOLYLINE
  5
26D
330
1F
100
AcDbEntity
  8
0
 62
     0
370
     5
100
AcDbPolyline
 90
        2
 70
     0
 43
0.0
 10
92.2848078245566
 20
293.6048711672892
 10
92.2848078245566
 20
246.4001211672892
  0
SPLINE
  5
26E
330
1F
100
AcDbEntity
  8
0
 62
     0
370
     5
100
AcDbSpline
210
0.0
220
0.0
230
1.0
 70
    11
 71
     3
 72
    14
 73
    10
 74
     0
 42
0.0000000001
 43
0.0000000001
 40
0.0
 40
0.0
 40
0.0
 40
0.0
 40
1.0
 40
1.0
 40
1.0
 40
2.0
 40
2.0
 40
2.0
 40
3.0
 40
3.0
 40
3.0
 40
3.0
 10
198.6311411578919
 20
378.2478711672893
 30
0.0
 10
197.5459744912246
 20
375.5349545006227
 30
0.0
 10
199.7163078245574
 20
372.2794545006223
 30
0.0
 10
202.9718078245579
 20
373.3646211672892
 30
0.0
 10
205.6847244912241
 20
374.4497878339562
 30
0.0
 10
206.2273078245573
 20
378.2478711672893
 30
0.0
 10
203.5143911578912
 20
379.8756211672891
 30
0.0
 10
201.8866411578905
 20
380.4182045006228
 30
0.0
 10
199.7163078245574
 20
379.8756211672891
 30
0.0
 10
198.6311411578919
 20
378.2478711672893
 30
0.0
  0
SPLINE
  5
26F
330
1F
100
AcDbEntity
  8
0
 62
     0
370
     5
100
AcDbSpline
210
0.0
220
0.0
230
1.0
 70
    11
 71
     3
 72
    14
 73
    10
 74
     0
 42
0.0000000001
 43
0.0000000001
 40
0.0
 40
0.0
 40
0.0
 40
0.0
 40
1.0
 40
1.0
 40
1.0
 40
2.0
 40
2.0
 40
2.0
 40
3.0
 40
3.0
 40
3.0
 40
3.0
 10
118.8713911578911
 20
378.2478711672893
 30
0.0
 10
117.2436411578904
 20
375.5349545006227
 30
0.0
 10
119.9565578245576
 20
372.2794545006223
 30
0.0
 10
122.6694744912238
 20
373.3646211672892
 30
0.0
 10
125.9249744912251
 20
374.4497878339562
 30
0.0
 10
125.9249744912251
 20
378.2478711672893
 30
0.0
 10
123.212057824557
 20
379.8756211672891
 30
0.0
 10
121.5843078245573
 20
380.4182045006228
 30
0.0
 10
119.4139744912244
 20
379.8756211672891
 30
0.0
 10
118.8713911578911
 20
378.2478711672893
 30
0.0
  0
SPLINE
  5
270
330
1F
100
AcDbEntity
  8
0
 62
     0
370
     5
100
AcDbSpline
210
0.0
220
0.0
230
1.0
 70
    11
 71
     3
 72
    14
 73
    10
 74
     0
 42
0.0000000001
 43
0.0000000001
 40
0.0
 40
0.0
 40
0.0
 40
0.0
 40
1.0
 40
1.0
 40
1.0
 40
2.0
 40
2.0
 40
2.0
 40
3.0
 40
3.0
 40
3.0
 40
3.0
 10
118.8713911578911
 20
119.9782045006228
 30
0.0
 10
117.2436411578904
 20
117.8078711672889
 30
0.0
 10
119.9565578245576
 20
114.0097878339558
 30
0.0
 10
122.6694744912238
 20
115.0949545006227
 30
0.0
 10
125.9249744912251
 20
116.1801211672892
 30
0.0
 10
125.9249744912251
 20
120.5207878339556
 30
0.0
 10
123.212057824557
 20
121.6059545006226
 30
0.0
 10
121.5843078245573
 20
122.691121167289
 30
0.0
 10
119.4139744912244
 20
121.6059545006226
 30
0.0
 10
118.8713911578911
 20
119.9782045006228
 30
0.0
  0
SPLINE
  5
271
330
1F
100
AcDbEntity
  8
0
 62
     0
370
     5
100
AcDbSpline
210
0.0
220
0.0
230
1.0
 70
    11
 71
     3
 72
    14
 73
    10
 74
     0
 42
0.0000000001
 43
0.0000000001
 40
0.0
 40
0.0
 40
0.0
 40
0.0
 40
1.0
 40
1.0
 40
1.0
 40
2.0
 40
2.0
 40
2.0
 40
3.0
 40
3.0
 40
3.0
 40
3.0
 10
198.6311411578919
 20
119.9782045006228
 30
0.0
 10
197.5459744912246
 20
117.8078711672889
 30
0.0
 10
199.7163078245574
 20
114.0097878339558
 30
0.0
 10
202.9718078245579
 20
115.0949545006227
 30
0.0
 10
205.6847244912241
 20
116.1801211672892
 30
0.0
 10
206.2273078245573
 20
120.5207878339556
 30
0.0
 10
203.5143911578912
 20
121.6059545006226
 30
0.0
 10
201.8866411578905
 20
122.691121167289
 30
0.0
 10
199.7163078245574
 20
121.6059545006226
 30
0.0
 10
198.6311411578919
 20
119.9782045006228
 30
0.0
  0
SPLINE
  5
272
330
1F
100
AcDbEntity
  8
0
 62
     0
370
     5
100
AcDbSpline
210
0.0
220
0.0
230
1.0
 70
     8
 71
     3
 72
     8
 73
     4
 74
     0
 42
0.0000000001
 43
0.0000000001
 40
0.0
 40
0.0
 40
0.0
 40
0.0
 40
1.0
 40
1.0
 40
1.0
 40
1.0
 10
96.08289115789114
 20
293.6048711672892
 30
0.0
 10
97.71064115789091
 20
293.6048711672892
 30
0.0
 10
99.33839115789062
 20
294.6900378339563
 30
0.0
 10
99.33839115789062
 20
296.317787833956
 30
0.0
  0
LWPOLYLINE
  5
273
330
1F
100
AcDbEntity
  8
0
 62
     0
370
     5
100
AcDbPolyline
 90
        2
 70
     0
 43
0.0
 10
92.82739115789075
 20
293.6048711672892
 10
96.08289115789114
 20
293.6048711672892
  0
LWPOLYLINE
  5
274
330
1F
100
AcDbEntity
  8
0
 62
     0
370
     5
100
AcDbPolyline
 90
        2
 70
     0
 43
0.0
 10
99.33839115789062
 20
433.0487878339558
 10
99.33839115789062
 20
296.317787833956
  0
LWPOLYLINE
  5
275
330
1F
100
AcDbEntity
  8
0
 62
     0
370
     5
100
AcDbPolyline
 90
        2
 70
     0
 43
0.0
 10
91.19964115789105
 20
60.29403783395577
 10
232.813891157891
 20
60.29403783395577
  0
LWPOLYLINE
  5
276
330
1F
100
AcDbEntity
  8
0
 62
     0
370
     5
100
AcDbPolyline
 90
        2
 70
     0
 43
0.0
 10
231.5965345014731
 20
293.6048711672892
 10
230.643557824558
 20
293.6048711672892
  0
LWPOLYLINE
  5
277
330
1F
100
AcDbEntity
  8
0
 62
     0
370
     5
100
AcDbPolyline
 90
        2
 70
     0
 43
0.0
 10
153.5967244912243
 20
298.4881211672895
 10
153.5967244912243
 20
263.2202045006225
  0
LWPOLYLINE
  5
278
330
1F
100
AcDbEntity
  8
0
 62
     0
370
     5
100
AcDbPolyline
 90
        2
 70
     0
 43
0.0
 10
153.5967244912243
 20
263.2202045006225
 10
166.618724491224
 20
263.2202045006225
  0
SPLINE
  5
279
330
1F
100
AcDbEntity
  8
0
 62
     0
370
     5
100
AcDbSpline
210
0.0
220
0.0
230
1.0
 70
     8
 71
     3
 72
     8
 73
     4
 74
     0
 42
0.0000000001
 43
0.0000000001
 40
0.0
 40
0.0
 40
0.0
 40
0.0
 40
1.0
 40
1.0
 40
1.0
 40
1.0
 10
234.3094511681393
 20
440.6449545006226
 30
0.0
 10
234.3094511681393
 20
442.2727045006228
 30
0.0
 10
233.2242845014729
 20
443.3578711672892
 30
0.0
 10
231.5965345014731
 20
443.3578711672892
 30
0.0
  0
LWPOLYLINE
  5
27A
330
1F
100
AcDbEntity
  8
0
 62
     0
370
     5
100
AcDbPolyline
 90
        2
 70
     0
 43
0.0
 10
92.2848078245566
 20
443.3578711672892
 10
231.5965345014731
 20
443.3578711672892
  0
SPLINE
  5
27B
330
1F
100
AcDbEntity
  8
0
 62
     0
370
     5
100
AcDbSpline
210
0.0
220
0.0
230
1.0
 70
     8
 71
     3
 72
     8
 73
     4
 74
     0
 42
0.0000000001
 43
0.0000000001
 40
0.0
 40
0.0
 40
0.0
 40
0.0
 40
1.0
 40
1.0
 40
1.0
 40
1.0
 10
92.2848078245566
 20
443.3578711672892
 30
0.0
 10
90.65705782455779
 20
443.3578711672892
 30
0.0
 10
89.57189115789129
 20
442.2727045006228
 30
0.0
 10
89.57189115789129
 20
440.6449545006226
 30
0.0
  0
LWPOLYLINE
  5
27C
330
1F
100
AcDbEntity
  8
0
 62
     0
370
     5
100
AcDbPolyline
 90
        2
 70
     0
 43
0.0
 10
89.57189115789129
 20
440.6449545006226
 10
89.57189115789129
 20
70.06053783395606
  0
LWPOLYLINE
  5
27D
330
1F
100
AcDbEntity
  8
0
 62
     0
370
     5
100
AcDbPolyline
 90
        2
 70
     0
 43
0.0
 10
89.57189115789129
 20
70.06053783395606
 10
89.57189115789129
 20
60.29403783395577
  0
LWPOLYLINE
  5
27E
330
1F
100
AcDbEntity
  8
0
 62
     0
370
     5
100
AcDbPolyline
 90
        2
 70
     0
 43
0.0
 10
91.19964115789105
 20
60.29403783395577
 10
89.57189115789129
 20
60.29403783395577
  0
LWPOLYLINE
  5
27F
330
1F
100
AcDbEntity
  8
0
 62
     0
370
     5
100
AcDbPolyline
 90
        2
 70
     0
 43
0.0
 10
234.3094511681393
 20
440.6449545006226
 10
234.3094511681393
 20
70.06053783395606
  0
LWPOLYLINE
  5
280
330
1F
100
AcDbEntity
  8
0
 62
     0
370
     5
100
AcDbPolyline
 90
        2
 70
     0
 43
0.0
 10
232.813891157891
 20
60.29403783395577
 10
232.813891157891
 20
68.43278783395584
  0
LWPOLYLINE
  5
281
330
1F
100
AcDbEntity
  8
0
 62
     0
370
     5
100
AcDbPolyline
 90
        2
 70
     0
 43
0.0
 10
234.3094511681393
 20
60.29403783395577
 10
232.813891157891
 20
60.29403783395577
  0
LWPOLYLINE
  5
282
330
1F
100
AcDbEntity
  8
0
 62
     0
370
     5
100
AcDbPolyline
 90
        2
 70
     0
 43
0.0
 10
234.3094511681393
 20
60.29403783395577
 10
234.3094511681393
 20
70.06053783395606
  0
LWPOLYLINE
  5
283
330
1F
100
AcDbEntity
  8
0
 62
     0
370
     5
100
AcDbPolyline
 90
        2
 70
     0
 43
0.0
 10
210.025391157891
 20
417.8564545006225
 10
224.6751411578905
 20
417.8564545006225
  0
SPLINE
  5
284
330
1F
100
AcDbEntity
  8
0
 62
     0
370
     5
100
AcDbSpline
210
0.0
220
0.0
230
1.0
 70
     8
 71
     3
 72
     8
 73
     4
 74
     0
 42
0.0000000001
 43
0.0000000001
 40
0.0
 40
0.0
 40
0.0
 40
0.0
 40
1.0
 40
1.0
 40
1.0
 40
1.0
 10
208.9402244912236
 20
418.3990378339558
 30
0.0
 10
208.9402244912236
 20
417.8564545006225
 30
0.0
 10
209.4828078245578
 20
417.8564545006225
 30
0.0
 10
210.025391157891
 20
417.8564545006225
 30
0.0
  0
LWPOLYLINE
  5
285
330
1F
100
AcDbEntity
  8
0
 62
     0
370
     5
100
AcDbPolyline
 90
        2
 70
     0
 43
0.0
 10
201.8866411578905
 20
424.9100378339561
 10
208.9402244912236
 20
418.3990378339558
  0
SPLINE
  5
286
330
1F
100
AcDbEntity
  8
0
 62
     0
370
     5
100
AcDbSpline
210
0.0
220
0.0
230
1.0
 70
     8
 71
     3
 72
     8
 73
     4
 74
     0
 42
0.0000000001
 43
0.0000000001
 40
0.0
 40
0.0
 40
0.0
 40
0.0
 40
1.0
 40
1.0
 40
1.0
 40
1.0
 10
201.8866411578905
 20
424.9100378339561
 30
0.0
 10
201.3440578245572
 20
425.4526211672894
 30
0.0
 10
200.801474491224
 20
425.4526211672894
 30
0.0
 10
200.801474491224
 20
425.4526211672894
 30
0.0
  0
LWPOLYLINE
  5
287
330
1F
100
AcDbEntity
  8
0
 62
     0
370
     5
100
AcDbPolyline
 90
        2
 70
     0
 43
0.0
 10
123.212057824557
 20
425.4526211672894
 10
200.801474491224
 20
425.4526211672894
  0
SPLINE
  5
288
330
1F
100
AcDbEntity
  8
0
 62
     0
370
     5
100
AcDbSpline
210
0.0
220
0.0
230
1.0
 70
     8
 71
     3
 72
     8
 73
     4
 74
     0
 42
0.0000000001
 43
0.0000000001
 40
0.0
 40
0.0
 40
0.0
 40
0.0
 40
1.0
 40
1.0
 40
1.0
 40
1.0
 10
123.212057824557
 20
425.4526211672894
 30
0.0
 10
122.6694744912238
 20
425.4526211672894
 30
0.0
 10
122.1268911578906
 20
425.4526211672894
 30
0.0
 10
121.5843078245573
 20
424.9100378339561
 30
0.0
  0
LWPOLYLINE
  5
289
330
1F
100
AcDbEntity
  8
0
 62
     0
370
     5
100
AcDbPolyline
 90
        2
 70
     0
 43
0.0
 10
115.0733078245575
 20
418.3990378339558
 10
121.5843078245573
 20
424.9100378339561
  0
SPLINE
  5
28A
330
1F
100
AcDbEntity
  8
0
 62
     0
370
     5
100
AcDbSpline
210
0.0
220
0.0
230
1.0
 70
     8
 71
     3
 72
     8
 73
     4
 74
     0
 42
0.0000000001
 43
0.0000000001
 40
0.0
 40
0.0
 40
0.0
 40
0.0
 40
1.0
 40
1.0
 40
1.0
 40
1.0
 10
113.4455578245577
 20
417.8564545006225
 30
0.0
 10
113.988141157891
 20
417.8564545006225
 30
0.0
 10
114.5307244912242
 20
417.8564545006225
 30
0.0
 10
115.0733078245575
 20
418.3990378339558
 30
0.0
  0
LWPOLYLINE
  5
28B
330
1F
100
AcDbEntity
  8
0
 62
     0
370
     5
100
AcDbPolyline
 90
        2
 70
     0
 43
0.0
 10
107.4771411578902
 20
417.8564545006225
 10
113.4455578245577
 20
417.8564545006225
  0
LWPOLYLINE
  5
28C
330
1F
100
AcDbEntity
  8
0
 62
     0
370
     5
100
AcDbPolyline
 90
        2
 70
     0
 43
0.0
 10
107.4771411578902
 20
417.8564545006225
 10
107.4771411578902
 20
415.6861211672897
  0
LWPOLYLINE
  5
28D
330
1F
100
AcDbEntity
  8
0
 62
     0
370
     5
100
AcDbPolyline
 90
        2
 70
     0
 43
0.0
 10
107.4771411578902
 20
415.6861211672897
 10
99.33839115789062
 20
415.6861211672897
  0
LWPOLYLINE
  5
28E
330
1F
100
AcDbEntity
  8
0
 62
     0
370
     5
100
AcDbPolyline
 90
        2
 70
     0
 43
0.0
 10
111.8178078245571
 20
401.0363711672892
 10
111.8178078245571
 20
402.1215378339558
  0
LWPOLYLINE
  5
28F
330
1F
100
AcDbEntity
  8
0
 62
     0
370
     5
100
AcDbPolyline
 90
        2
 70
     0
 43
0.0
 10
111.8178078245571
 20
401.0363711672892
 10
111.8178078245571
 20
399.9512045006223
  0
LWPOLYLINE
  5
290
330
1F
100
AcDbEntity
  8
0
 62
     0
370
     5
100
AcDbPolyline
 90
        2
 70
     0
 43
0.0
 10
111.8178078245571
 20
408.6325378339556
 10
111.8178078245571
 20
407.5473711672891
  0
LWPOLYLINE
  5
291
330
1F
100
AcDbEntity
  8
0
 62
     0
370
     5
100
AcDbPolyline
 90
        2
 70
     0
 43
0.0
 10
111.8178078245571
 20
408.6325378339556
 10
111.8178078245571
 20
410.2602878339558
  0
LWPOLYLINE
  5
292
330
1F
100
AcDbEntity
  8
0
 62
     0
370
     5
100
AcDbPolyline
 90
        2
 70
     0
 43
0.0
 10
99.33839115789062
 20
402.6641211672894
 10
111.8178078245571
 20
402.6641211672894
  0
LWPOLYLINE
  5
293
330
1F
100
AcDbEntity
  8
0
 62
     0
370
     5
100
AcDbPolyline
 90
        2
 70
     0
 43
0.0
 10
99.33839115789062
 20
399.4086211672891
 10
111.8178078245571
 20
399.4086211672891
  0
LWPOLYLINE
  5
294
330
1F
100
AcDbEntity
  8
0
 62
     0
370
     5
100
AcDbPolyline
 90
        2
 70
     0
 43
0.0
 10
99.33839115789062
 20
407.5473711672891
 10
111.8178078245571
 20
407.5473711672891
  0
LWPOLYLINE
  5
295
330
1F
100
AcDbEntity
  8
0
 62
     0
370
     5
100
AcDbPolyline
 90
        2
 70
     0
 43
0.0
 10
99.33839115789062
 20
410.2602878339558
 10
111.8178078245571
 20
410.2602878339558
  0
LWPOLYLINE
  5
296
330
1F
100
AcDbEntity
  8
0
 62
     0
370
     5
100
AcDbPolyline
 90
        2
 70
     0
 43
0.0
 10
111.8178078245571
 20
402.1215378339558
 10
111.8178078245571
 20
402.6641211672894
  0
LWPOLYLINE
  5
297
330
1F
100
AcDbEntity
  8
0
 62
     0
370
     5
100
AcDbPolyline
 90
        2
 70
     0
 43
0.0
 10
111.8178078245571
 20
399.9512045006223
 10
111.8178078245571
 20
399.4086211672891
  0
LWPOLYLINE
  5
298
330
1F
100
AcDbEntity
  8
0
 62
     0
370
     5
100
AcDbPolyline
 90
        2
 70
     0
 43
0.0
 10
111.8178078245571
 20
407.5473711672891
 10
111.8178078245571
 20
407.5473711672891
  0
LWPOLYLINE
  5
299
330
1F
100
AcDbEntity
  8
0
 62
     0
370
     5
100
AcDbPolyline
 90
        2
 70
     0
 43
0.0
 10
111.8178078245571
 20
410.2602878339558
 10
111.8178078245571
 20
410.2602878339558
  0
SPLINE
  5
29A
330
1F
100
AcDbEntity
  8
0
 62
     0
370
     5
100
AcDbSpline
210
0.0
220
0.0
230
1.0
 70
     8
 71
     3
 72
     8
 73
     4
 74
     0
 42
0.0000000001
 43
0.0000000001
 40
0.0
 40
0.0
 40
0.0
 40
0.0
 40
1.0
 40
1.0
 40
1.0
 40
1.0
 10
219.249307824557
 20
84.71028783395594
 30
0.0
 10
221.9622244912242
 20
84.71028783395594
 30
0.0
 10
224.1325578245572
 20
86.88062116728895
 30
0.0
 10
224.1325578245572
 20
89.59353783395608
 30
0.0
  0
LWPOLYLINE
  5
29B
330
1F
100
AcDbEntity
  8
0
 62
     0
370
     5
100
AcDbPolyline
 90
        2
 70
     0
 43
0.0
 10
210.025391157891
 20
84.71028783395594
 10
219.249307824557
 20
84.71028783395594
  0
SPLINE
  5
29C
330
1F
100
AcDbEntity
  8
0
 62
     0
370
     5
100
AcDbSpline
210
0.0
220
0.0
230
1.0
 70
     8
 71
     3
 72
     8
 73
     4
 74
     0
 42
0.0000000001
 43
0.0000000001
 40
0.0
 40
0.0
 40
0.0
 40
0.0
 40
1.0
 40
1.0
 40
1.0
 40
1.0
 10
210.025391157891
 20
84.71028783395594
 30
0.0
 10
209.4828078245578
 20
84.71028783395594
 30
0.0
 10
208.9402244912236
 20
84.16770450062228
 30
0.0
 10
208.9402244912236
 20
84.16770450062228
 30
0.0
  0
LWPOLYLINE
  5
29D
330
1F
100
AcDbEntity
  8
0
 62
     0
370
     5
100
AcDbPolyline
 90
        2
 70
     0
 43
0.0
 10
202.4292244912246
 20
77.65670450062237
 10
208.9402244912236
 20
84.16770450062228
  0
SPLINE
  5
29E
330
1F
100
AcDbEntity
  8
0
 62
     0
370
     5
100
AcDbSpline
210
0.0
220
0.0
230
1.0
 70
     8
 71
     3
 72
     8
 73
     4
 74
     0
 42
0.0000000001
 43
0.0000000001
 40
0.0
 40
0.0
 40
0.0
 40
0.0
 40
1.0
 40
1.0
 40
1.0
 40
1.0
 10
202.4292244912246
 20
77.65670450062237
 30
0.0
 10
202.4292244912246
 20
77.11412116728917
 30
0.0
 10
201.8866411578905
 20
77.11412116728917
 30
0.0
 10
201.8866411578905
 20
76.57153783395637
 30
0.0
  0
LWPOLYLINE
  5
29F
330
1F
100
AcDbEntity
  8
0
 62
     0
370
     5
100
AcDbPolyline
 90
        2
 70
     0
 43
0.0
 10
201.8866411578905
 20
73.31603783395599
 10
201.8866411578905
 20
76.57153783395637
  0
SPLINE
  5
2A0
330
1F
100
AcDbEntity
  8
0
 62
     0
370
     5
100
AcDbSpline
210
0.0
220
0.0
230
1.0
 70
     8
 71
     3
 72
     8
 73
     4
 74
     0
 42
0.0000000001
 43
0.0000000001
 40
0.0
 40
0.0
 40
0.0
 40
0.0
 40
1.0
 40
1.0
 40
1.0
 40
1.0
 10
198.0885578245578
 20
69.51795450062235
 30
0.0
 10
200.2588911578907
 20
69.51795450062235
 30
0.0
 10
201.8866411578905
 20
71.14570450062251
 30
0.0
 10
201.8866411578905
 20
73.31603783395599
 30
0.0
  0
LWPOLYLINE
  5
2A1
330
1F
100
AcDbEntity
  8
0
 62
     0
370
     5
100
AcDbPolyline
 90
        2
 70
     0
 43
0.0
 10
187.7794744912242
 20
69.51795450062235
 10
198.0885578245578
 20
69.51795450062235
  0
SPLINE
  5
2A2
330
1F
100
AcDbEntity
  8
0
 62
     0
370
     5
100
AcDbSpline
210
0.0
220
0.0
230
1.0
 70
     8
 71
     3
 72
     8
 73
     4
 74
     0
 42
0.0000000001
 43
0.0000000001
 40
0.0
 40
0.0
 40
0.0
 40
0.0
 40
1.0
 40
1.0
 40
1.0
 40
1.0
 10
183.9813911578916
 20
73.31603783395599
 30
0.0
 10
183.9813911578916
 20
71.14570450062251
 30
0.0
 10
185.6091411578903
 20
69.51795450062235
 30
0.0
 10
187.7794744912242
 20
69.51795450062235
 30
0.0
  0
LWPOLYLINE
  5
2A3
330
1F
100
AcDbEntity
  8
0
 62
     0
370
     5
100
AcDbPolyline
 90
        2
 70
     0
 43
0.0
 10
183.9813911578916
 20
74.40120450062244
 10
183.9813911578916
 20
73.31603783395599
  0
SPLINE
  5
2A4
330
1F
100
AcDbEntity
  8
0
 62
     0
370
     5
100
AcDbSpline
210
0.0
220
0.0
230
1.0
 70
     8
 71
     3
 72
     8
 73
     4
 74
     0
 42
0.0000000001
 43
0.0000000001
 40
0.0
 40
0.0
 40
0.0
 40
0.0
 40
1.0
 40
1.0
 40
1.0
 40
1.0
 10
183.9813911578916
 20
74.40120450062244
 30
0.0
 10
183.9813911578916
 20
75.4863711672894
 30
0.0
 10
182.8962244912242
 20
76.57153783395637
 30
0.0
 10
181.8110578245577
 20
76.57153783395637
 30
0.0
  0
LWPOLYLINE
  5
2A5
330
1F
100
AcDbEntity
  8
0
 62
     0
370
     5
100
AcDbPolyline
 90
        2
 70
     0
 43
0.0
 10
123.212057824557
 20
76.57153783395637
 10
181.8110578245577
 20
76.57153783395637
  0
SPLINE
  5
2A6
330
1F
100
AcDbEntity
  8
0
 62
     0
370
     5
100
AcDbSpline
210
0.0
220
0.0
230
1.0
 70
     8
 71
     3
 72
     8
 73
     4
 74
     0
 42
0.0000000001
 43
0.0000000001
 40
0.0
 40
0.0
 40
0.0
 40
0.0
 40
1.0
 40
1.0
 40
1.0
 40
1.0
 10
121.5843078245573
 20
77.11412116728917
 30
0.0
 10
122.1268911578906
 20
76.57153783395637
 30
0.0
 10
122.6694744912238
 20
76.57153783395637
 30
0.0
 10
123.212057824557
 20
76.57153783395637
 30
0.0
  0
LWPOLYLINE
  5
2A7
330
1F
100
AcDbEntity
  8
0
 62
     0
370
     5
100
AcDbPolyline
 90
        2
 70
     0
 43
0.0
 10
115.0733078245575
 20
84.16770450062228
 10
121.5843078245573
 20
77.11412116728917
  0
SPLINE
  5
2A8
330
1F
100
AcDbEntity
  8
0
 62
     0
370
     5
100
AcDbSpline
210
0.0
220
0.0
230
1.0
 70
     8
 71
     3
 72
     8
 73
     4
 74
     0
 42
0.0000000001
 43
0.0000000001
 40
0.0
 40
0.0
 40
0.0
 40
0.0
 40
1.0
 40
1.0
 40
1.0
 40
1.0
 10
115.0733078245575
 20
84.16770450062228
 30
0.0
 10
114.5307244912242
 20
84.16770450062228
 30
0.0
 10
113.988141157891
 20
84.71028783395594
 30
0.0
 10
113.4455578245577
 20
84.71028783395594
 30
0.0
  0
LWPOLYLINE
  5
2A9
330
1F
100
AcDbEntity
  8
0
 62
     0
370
     5
100
AcDbPolyline
 90
        2
 70
     0
 43
0.0
 10
104.2216411578907
 20
84.71028783395594
 10
113.4455578245577
 20
84.71028783395594
  0
SPLINE
  5
2AA
330
1F
100
AcDbEntity
  8
0
 62
     0
370
     5
100
AcDbSpline
210
0.0
220
0.0
230
1.0
 70
     8
 71
     3
 72
     8
 73
     4
 74
     0
 42
0.0000000001
 43
0.0000000001
 40
0.0
 40
0.0
 40
0.0
 40
0.0
 40
1.0
 40
1.0
 40
1.0
 40
1.0
 10
99.33839115789062
 20
89.59353783395608
 30
0.0
 10
99.33839115789062
 20
86.88062116728895
 30
0.0
 10
101.5087244912245
 20
84.71028783395594
 30
0.0
 10
104.2216411578907
 20
84.71028783395594
 30
0.0
  0
SPLINE
  5
2AC
330
1F
100
AcDbEntity
  8
0
 62
     0
370
     5
100
AcDbSpline
210
0.0
220
0.0
230
1.0
 70
    11
 71
     3
 72
    11
 73
     7
 74
     0
 42
0.0000000001
 43
0.0000000001
 40
0.0
 40
0.0
 40
0.0
 40
0.0
 40
1.0
 40
1.0
 40
1.0
 40
2.0
 40
2.0
 40
2.0
 40
2.0
 10
108.5623078245576
 20
423.2822878339556
 30
0.0
 10
111.2752244912248
 20
421.6545378339558
 30
0.0
 10
113.4455578245577
 20
425.4526211672894
 30
0.0
 10
110.7326411578915
 20
427.0803711672892
 30
0.0
 10
108.5623078245576
 20
428.1655378339556
 30
0.0
 10
106.3919744912246
 20
424.3674545006225
 30
0.0
 10
108.5623078245576
 20
423.2822878339556
 30
0.0
  0
SPLINE
  5
2AD
330
1F
100
AcDbEntity
  8
0
 62
     0
370
     5
100
AcDbSpline
210
0.0
220
0.0
230
1.0
 70
    11
 71
     3
 72
    17
 73
    13
 74
     0
 42
0.0000000001
 43
0.0000000001
 40
0.0
 40
0.0
 40
0.0
 40
0.0
 40
1.0
 40
1.0
 40
1.0
 40
2.0
 40
2.0
 40
2.0
 40
3.0
 40
3.0
 40
3.0
 40
4.0
 40
4.0
 40
4.0
 40
4.0
 10
107.4771411578902
 20
420.5693711672893
 30
0.0
 10
110.1900578245582
 20
419.4842045006224
 30
0.0
 10
113.4455578245577
 20
420.5693711672893
 30
0.0
 10
114.5307244912242
 20
423.2822878339556
 30
0.0
 10
115.6158911578916
 20
425.9952045006222
 30
0.0
 10
113.988141157891
 20
428.7081211672894
 30
0.0
 10
111.2752244912248
 20
429.7932878339558
 30
0.0
 10
109.1048911578908
 20
430.8784545006224
 30
0.0
 10
106.3919744912246
 20
429.2507045006226
 30
0.0
 10
105.3068078245581
 20
427.0803711672892
 30
0.0
 10
104.2216411578907
 20
424.9100378339561
 30
0.0
 10
105.3068078245581
 20
422.1971211672895
 30
0.0
 10
107.4771411578902
 20
420.5693711672893
 30
0.0
  0
SPLINE
  5
2AF
330
1F
100
AcDbEntity
  8
0
 62
     0
370
     5
100
AcDbSpline
210
0.0
220
0.0
230
1.0
 70
    11
 71
     3
 72
    11
 73
     7
 74
     0
 42
0.0000000001
 43
0.0000000001
 40
0.0
 40
0.0
 40
0.0
 40
0.0
 40
1.0
 40
1.0
 40
1.0
 40
2.0
 40
2.0
 40
2.0
 40
2.0
 10
212.7383078245581
 20
423.2822878339556
 30
0.0
 10
215.4512244912244
 20
421.6545378339558
 30
0.0
 10
217.6215578245583
 20
425.4526211672894
 30
0.0
 10
214.9086411578911
 20
427.0803711672892
 30
0.0
 10
212.1957244912239
 20
428.1655378339556
 30
0.0
 10
210.5679744912243
 20
424.3674545006225
 30
0.0
 10
212.7383078245581
 20
423.2822878339556
 30
0.0
  0
SPLINE
  5
2B0
330
1F
100
AcDbEntity
  8
0
 62
     0
370
     5
100
AcDbSpline
210
0.0
220
0.0
230
1.0
 70
    11
 71
     3
 72
    17
 73
    13
 74
     0
 42
0.0000000001
 43
0.0000000001
 40
0.0
 40
0.0
 40
0.0
 40
0.0
 40
1.0
 40
1.0
 40
1.0
 40
2.0
 40
2.0
 40
2.0
 40
3.0
 40
3.0
 40
3.0
 40
4.0
 40
4.0
 40
4.0
 40
4.0
 10
211.6531411578908
 20
420.5693711672893
 30
0.0
 10
213.8234744912237
 20
419.4842045006224
 30
0.0
 10
217.0789744912241
 20
420.5693711672893
 30
0.0
 10
218.7067244912239
 20
423.2822878339556
 30
0.0
 10
219.7918911578912
 20
425.9952045006222
 30
0.0
 10
218.1641411578915
 20
428.7081211672894
 30
0.0
 10
215.4512244912244
 20
429.7932878339558
 30
0.0
 10
212.7383078245581
 20
430.8784545006224
 30
0.0
 10
210.025391157891
 20
429.2507045006226
 30
0.0
 10
209.4828078245578
 20
427.0803711672892
 30
0.0
 10
208.3976411578913
 20
424.9100378339561
 30
0.0
 10
209.4828078245578
 20
422.1971211672895
 30
0.0
 10
211.6531411578908
 20
420.5693711672893
 30
0.0
  0
SPLINE
  5
2B1
330
1F
100
AcDbEntity
  8
0
 62
     0
370
     5
100
AcDbSpline
210
0.0
220
0.0
230
1.0
 70
    11
 71
     3
 72
    20
 73
    16
 74
     0
 42
0.0000000001
 43
0.0000000001
 40
0.0
 40
0.0
 40
0.0
 40
0.0
 40
1.0
 40
1.0
 40
1.0
 40
2.0
 40
2.0
 40
2.0
 40
3.0
 40
3.0
 40
3.0
 40
4.0
 40
4.0
 40
4.0
 40
5.0
 40
5.0
 40
5.0
 40
5.0
 10
108.5623078245576
 20
74.40120450062244
 30
0.0
 10
109.6474744912241
 20
73.85862116728919
 30
0.0
 10
111.2752244912248
 20
74.40120450062244
 30
0.0
 10
112.3603911578904
 20
75.4863711672894
 30
0.0
 10
112.9029744912235
 20
76.57153783395637
 30
0.0
 10
112.9029744912235
 20
78.19928783395607
 30
0.0
 10
111.8178078245571
 20
79.28445450062259
 30
0.0
 10
110.1900578245582
 20
79.82703783395584
 30
0.0
 10
108.5623078245576
 20
79.82703783395584
 30
0.0
 10
108.0197244912244
 20
78.74187116728933
 30
0.0
 10
106.9345578245579
 20
77.65670450062237
 30
0.0
 10
106.9345578245579
 20
76.02895450062266
 30
0.0
 10
108.0197244912244
 20
74.94378783395569
 30
0.0
 10
108.0197244912244
 20
74.94378783395569
 30
0.0
 10
108.0197244912244
 20
74.94378783395569
 30
0.0
 10
108.5623078245576
 20
74.40120450062244
 30
0.0
  0
SPLINE
  5
2B3
330
1F
100
AcDbEntity
  8
0
 62
     0
370
     5
100
AcDbSpline
210
0.0
220
0.0
230
1.0
 70
    11
 71
     3
 72
    17
 73
    13
 74
     0
 42
0.0000000001
 43
0.0000000001
 40
0.0
 40
0.0
 40
0.0
 40
0.0
 40
1.0
 40
1.0
 40
1.0
 40
2.0
 40
2.0
 40
2.0
 40
3.0
 40
3.0
 40
3.0
 40
4.0
 40
4.0
 40
4.0
 40
4.0
 10
107.4771411578902
 20
72.77345450062274
 30
0.0
 10
110.1900578245582
 20
71.14570450062251
 30
0.0
 10
113.4455578245577
 20
72.23087116728902
 30
0.0
 10
114.5307244912242
 20
74.94378783395569
 30
0.0
 10
115.6158911578916
 20
77.65670450062237
 30
0.0
 10
113.988141157891
 20
80.91220450062275
 30
0.0
 10
111.2752244912248
 20
81.99737116728925
 30
0.0
 10
109.1048911578908
 20
82.53995450062252
 30
0.0
 10
106.3919744912246
 20
81.45478783395601
 30
0.0
 10
105.3068078245581
 20
79.28445450062259
 30
0.0
 10
104.2216411578907
 20
76.57153783395637
 30
0.0
 10
105.3068078245581
 20
73.85862116728919
 30
0.0
 10
107.4771411578902
 20
72.77345450062274
 30
0.0
  0
SPLINE
  5
2B5
330
1F
100
AcDbEntity
  8
0
 62
     0
370
     5
100
AcDbSpline
210
0.0
220
0.0
230
1.0
 70
    11
 71
     3
 72
    14
 73
    10
 74
     0
 42
0.0000000001
 43
0.0000000001
 40
0.0
 40
0.0
 40
0.0
 40
0.0
 40
1.0
 40
1.0
 40
1.0
 40
2.0
 40
2.0
 40
2.0
 40
3.0
 40
3.0
 40
3.0
 40
3.0
 10
212.7383078245581
 20
74.94378783395569
 30
0.0
 10
215.4512244912244
 20
73.85862116728919
 30
0.0
 10
217.6215578245583
 20
77.65670450062237
 30
0.0
 10
214.9086411578911
 20
78.74187116728933
 30
0.0
 10
213.8234744912237
 20
79.82703783395584
 30
0.0
 10
212.7383078245581
 20
79.28445450062259
 30
0.0
 10
211.6531411578908
 20
78.19928783395607
 30
0.0
 10
211.1105578245575
 20
77.11412116728917
 30
0.0
 10
211.6531411578908
 20
75.4863711672894
 30
0.0
 10
212.7383078245581
 20
74.94378783395569
 30
0.0
  0
SPLINE
  5
2B6
330
1F
100
AcDbEntity
  8
0
 62
     0
370
     5
100
AcDbSpline
210
0.0
220
0.0
230
1.0
 70
    11
 71
     3
 72
    17
 73
    13
 74
     0
 42
0.0000000001
 43
0.0000000001
 40
0.0
 40
0.0
 40
0.0
 40
0.0
 40
1.0
 40
1.0
 40
1.0
 40
2.0
 40
2.0
 40
2.0
 40
3.0
 40
3.0
 40
3.0
 40
4.0
 40
4.0
 40
4.0
 40
4.0
 10
211.6531411578908
 20
72.77345450062274
 30
0.0
 10
213.8234744912237
 20
71.14570450062251
 30
0.0
 10
217.6215578245583
 20
72.23087116728902
 30
0.0
 10
218.7067244912239
 20
74.94378783395569
 30
0.0
 10
219.7918911578912
 20
77.65670450062237
 30
0.0
 10
218.1641411578915
 20
80.91220450062275
 30
0.0
 10
215.4512244912244
 20
81.99737116728925
 30
0.0
 10
212.7383078245581
 20
82.53995450062252
 30
0.0
 10
210.025391157891
 20
81.45478783395601
 30
0.0
 10
209.4828078245578
 20
79.28445450062259
 30
0.0
 10
208.3976411578913
 20
76.57153783395637
 30
0.0
 10
208.9402244912236
 20
73.85862116728919
 30
0.0
 10
211.6531411578908
 20
72.77345450062274
 30
0.0
  0
SPLINE
  5
2B7
330
1F
100
AcDbEntity
  8
0
 62
     0
370
     5
100
AcDbSpline
210
0.0
220
0.0
230
1.0
 70
     8
 71
     3
 72
     8
 73
     4
 74
     0
 42
0.0000000001
 43
0.0000000001
 40
0.0
 40
0.0
 40
0.0
 40
0.0
 40
1.0
 40
1.0
 40
1.0
 40
1.0
 10
115.0733078245575
 20
193.7695378339556
 30
0.0
 10
114.5307244912242
 20
193.7695378339556
 30
0.0
 10
113.988141157891
 20
193.2269545006224
 30
0.0
 10
113.988141157891
 20
192.6843711672896
 30
0.0
  0
LWPOLYLINE
  5
2B8
330
1F
100
AcDbEntity
  8
0
 62
     0
370
     5
100
AcDbPolyline
 90
        2
 70
     0
 43
0.0
 10
113.988141157891
 20
192.6843711672896
 10
113.988141157891
 20
156.3312878339562
  0
SPLINE
  5
2B9
330
1F
100
AcDbEntity
  8
0
 62
     0
370
     5
100
AcDbSpline
210
0.0
220
0.0
230
1.0
 70
     8
 71
     3
 72
     8
 73
     4
 74
     0
 42
0.0000000001
 43
0.0000000001
 40
0.0
 40
0.0
 40
0.0
 40
0.0
 40
1.0
 40
1.0
 40
1.0
 40
1.0
 10
113.988141157891
 20
156.3312878339562
 30
0.0
 10
113.988141157891
 20
155.7887045006225
 30
0.0
 10
114.5307244912242
 20
155.7887045006225
 30
0.0
 10
115.0733078245575
 20
155.7887045006225
 30
0.0
  0
LWPOLYLINE
  5
2BA
330
1F
100
AcDbEntity
  8
0
 62
     0
370
     5
100
AcDbPolyline
 90
        2
 70
     0
 43
0.0
 10
150.8838078245571
 20
155.7887045006225
 10
115.0733078245575
 20
155.7887045006225
  0
SPLINE
  5
2BB
330
1F
100
AcDbEntity
  8
0
 62
     0
370
     5
100
AcDbSpline
210
0.0
220
0.0
230
1.0
 70
     8
 71
     3
 72
     8
 73
     4
 74
     0
 42
0.0000000001
 43
0.0000000001
 40
0.0
 40
0.0
 40
0.0
 40
0.0
 40
1.0
 40
1.0
 40
1.0
 40
1.0
 10
150.8838078245571
 20
155.7887045006225
 30
0.0
 10
151.4263911578904
 20
155.7887045006225
 30
0.0
 10
151.9689744912245
 20
155.7887045006225
 30
0.0
 10
151.9689744912245
 20
156.3312878339562
 30
0.0
  0
LWPOLYLINE
  5
2BC
330
1F
100
AcDbEntity
  8
0
 62
     0
370
     5
100
AcDbPolyline
 90
        2
 70
     0
 43
0.0
 10
151.9689744912245
 20
156.3312878339562
 10
151.9689744912245
 20
192.6843711672896
  0
SPLINE
  5
2BD
330
1F
100
AcDbEntity
  8
0
 62
     0
370
     5
100
AcDbSpline
210
0.0
220
0.0
230
1.0
 70
     8
 71
     3
 72
     8
 73
     4
 74
     0
 42
0.0000000001
 43
0.0000000001
 40
0.0
 40
0.0
 40
0.0
 40
0.0
 40
1.0
 40
1.0
 40
1.0
 40
1.0
 10
151.9689744912245
 20
192.6843711672896
 30
0.0
 10
151.9689744912245
 20
193.2269545006224
 30
0.0
 10
151.4263911578904
 20
193.7695378339556
 30
0.0
 10
150.8838078245571
 20
193.7695378339556
 30
0.0
  0
LWPOLYLINE
  5
2BE
330
1F
100
AcDbEntity
  8
0
 62
     0
370
     5
100
AcDbPolyline
 90
        2
 70
     0
 43
0.0
 10
115.0733078245575
 20
193.7695378339556
 10
150.8838078245571
 20
193.7695378339556
  0
SPLINE
  5
2BF
330
1F
100
AcDbEntity
  8
0
 62
     0
370
     5
100
AcDbSpline
210
0.0
220
0.0
230
1.0
 70
     8
 71
     3
 72
    14
 73
    10
 74
     0
 42
0.0000000001
 43
0.0000000001
 40
0.0
 40
0.0
 40
0.0
 40
0.0
 40
1.0
 40
1.0
 40
1.0
 40
2.0
 40
2.0
 40
2.0
 40
3.0
 40
3.0
 40
3.0
 40
3.0
 10
197.0033911578913
 20
121.0633711672893
 30
0.0
 10
195.9182244912239
 20
118.8930378339559
 30
0.0
 10
196.4608078245571
 20
115.0949545006227
 30
0.0
 10
199.1737244912242
 20
114.0097878339558
 30
0.0
 10
201.3440578245572
 20
112.382037833956
 30
0.0
 10
204.5995578245577
 20
112.9246211672888
 30
0.0
 10
206.2273078245573
 20
115.637537833956
 30
0.0
 10
206.7698911578906
 20
115.637537833956
 30
0.0
 10
206.7698911578906
 20
115.637537833956
 30
0.0
 10
206.7698911578906
 20
116.1801211672892
 30
0.0
  0
SPLINE
  5
2C0
330
1F
100
AcDbEntity
  8
0
 62
     0
370
     5
100
AcDbSpline
210
0.0
220
0.0
230
1.0
 70
     8
 71
     3
 72
    14
 73
    10
 74
     0
 42
0.0000000001
 43
0.0000000001
 40
0.0
 40
0.0
 40
0.0
 40
0.0
 40
1.0
 40
1.0
 40
1.0
 40
2.0
 40
2.0
 40
2.0
 40
3.0
 40
3.0
 40
3.0
 40
3.0
 10
206.7698911578906
 20
116.1801211672892
 30
0.0
 10
207.855057824558
 20
118.3504545006226
 30
0.0
 10
207.3124744912247
 20
121.6059545006226
 30
0.0
 10
204.5995578245577
 20
123.2337045006223
 30
0.0
 10
201.8866411578905
 20
124.861454500623
 30
0.0
 10
199.1737244912242
 20
123.776287833956
 30
0.0
 10
197.5459744912246
 20
121.6059545006226
 30
0.0
 10
197.0033911578913
 20
121.6059545006226
 30
0.0
 10
197.0033911578913
 20
121.0633711672893
 30
0.0
 10
197.0033911578913
 20
121.0633711672893
 30
0.0
  0
SPLINE
  5
2C1
330
1F
100
AcDbEntity
  8
0
 62
     0
370
     5
100
AcDbSpline
210
0.0
220
0.0
230
1.0
 70
     8
 71
     3
 72
    14
 73
    10
 74
     0
 42
0.0000000001
 43
0.0000000001
 40
0.0
 40
0.0
 40
0.0
 40
0.0
 40
1.0
 40
1.0
 40
1.0
 40
2.0
 40
2.0
 40
2.0
 40
3.0
 40
3.0
 40
3.0
 40
3.0
 10
117.2436411578904
 20
121.0633711672893
 30
0.0
 10
115.6158911578916
 20
118.8930378339559
 30
0.0
 10
116.7010578245581
 20
115.0949545006227
 30
0.0
 10
118.8713911578911
 20
114.0097878339558
 30
0.0
 10
121.5843078245573
 20
112.382037833956
 30
0.0
 10
124.8398078245577
 20
112.9246211672888
 30
0.0
 10
126.4675578245584
 20
115.637537833956
 30
0.0
 10
126.4675578245584
 20
115.637537833956
 30
0.0
 10
126.4675578245584
 20
115.637537833956
 30
0.0
 10
126.4675578245584
 20
116.1801211672892
 30
0.0
  0
SPLINE
  5
2C2
330
1F
100
AcDbEntity
  8
0
 62
     0
370
     5
100
AcDbSpline
210
0.0
220
0.0
230
1.0
 70
     8
 71
     3
 72
    14
 73
    10
 74
     0
 42
0.0000000001
 43
0.0000000001
 40
0.0
 40
0.0
 40
0.0
 40
0.0
 40
1.0
 40
1.0
 40
1.0
 40
2.0
 40
2.0
 40
2.0
 40
3.0
 40
3.0
 40
3.0
 40
3.0
 10
126.4675578245584
 20
116.1801211672892
 30
0.0
 10
128.0953078245572
 20
118.3504545006226
 30
0.0
 10
127.0101411578907
 20
121.6059545006226
 30
0.0
 10
124.8398078245577
 20
123.2337045006223
 30
0.0
 10
122.1268911578906
 20
124.861454500623
 30
0.0
 10
118.8713911578911
 20
123.776287833956
 30
0.0
 10
117.2436411578904
 20
121.6059545006226
 30
0.0
 10
117.2436411578904
 20
121.6059545006226
 30
0.0
 10
117.2436411578904
 20
121.0633711672893
 30
0.0
 10
117.2436411578904
 20
121.0633711672893
 30
0.0
  0
SPLINE
  5
2C3
330
1F
100
AcDbEntity
  8
0
 62
     0
370
     5
100
AcDbSpline
210
0.0
220
0.0
230
1.0
 70
     8
 71
     3
 72
    14
 73
    10
 74
     0
 42
0.0000000001
 43
0.0000000001
 40
0.0
 40
0.0
 40
0.0
 40
0.0
 40
1.0
 40
1.0
 40
1.0
 40
2.0
 40
2.0
 40
2.0
 40
3.0
 40
3.0
 40
3.0
 40
3.0
 10
117.2436411578904
 20
379.3330378339563
 30
0.0
 10
115.6158911578916
 20
376.6201211672895
 30
0.0
 10
116.7010578245581
 20
373.3646211672892
 30
0.0
 10
118.8713911578911
 20
371.7368711672894
 30
0.0
 10
121.5843078245573
 20
370.6517045006225
 30
0.0
 10
124.8398078245577
 20
371.1942878339558
 30
0.0
 10
126.4675578245584
 20
373.3646211672892
 30
0.0
 10
126.4675578245584
 20
373.9072045006229
 30
0.0
 10
126.4675578245584
 20
373.9072045006229
 30
0.0
 10
126.4675578245584
 20
373.9072045006229
 30
0.0
  0
SPLINE
  5
2C4
330
1F
100
AcDbEntity
  8
0
 62
     0
370
     5
100
AcDbSpline
210
0.0
220
0.0
230
1.0
 70
     8
 71
     3
 72
    14
 73
    10
 74
     0
 42
0.0000000001
 43
0.0000000001
 40
0.0
 40
0.0
 40
0.0
 40
0.0
 40
1.0
 40
1.0
 40
1.0
 40
2.0
 40
2.0
 40
2.0
 40
3.0
 40
3.0
 40
3.0
 40
3.0
 10
126.4675578245584
 20
373.9072045006229
 30
0.0
 10
128.0953078245572
 20
376.6201211672895
 30
0.0
 10
127.0101411578907
 20
379.8756211672891
 30
0.0
 10
124.8398078245577
 20
381.5033711672893
 30
0.0
 10
122.1268911578906
 20
382.5885378339558
 30
0.0
 10
118.8713911578911
 20
382.0459545006226
 30
0.0
 10
117.2436411578904
 20
379.3330378339563
 30
0.0
 10
117.2436411578904
 20
379.3330378339563
 30
0.0
 10
117.2436411578904
 20
379.3330378339563
 30
0.0
 10
117.2436411578904
 20
379.3330378339563
 30
0.0
  0
SPLINE
  5
2C5
330
1F
100
AcDbEntity
  8
0
 62
     0
370
     5
100
AcDbSpline
210
0.0
220
0.0
230
1.0
 70
     8
 71
     3
 72
    14
 73
    10
 74
     0
 42
0.0000000001
 43
0.0000000001
 40
0.0
 40
0.0
 40
0.0
 40
0.0
 40
1.0
 40
1.0
 40
1.0
 40
2.0
 40
2.0
 40
2.0
 40
3.0
 40
3.0
 40
3.0
 40
3.0
 10
197.0033911578913
 20
379.3330378339563
 30
0.0
 10
195.9182244912239
 20
376.6201211672895
 30
0.0
 10
196.4608078245571
 20
373.3646211672892
 30
0.0
 10
199.1737244912242
 20
371.7368711672894
 30
0.0
 10
201.3440578245572
 20
370.6517045006225
 30
0.0
 10
204.5995578245577
 20
371.1942878339558
 30
0.0
 10
206.2273078245573
 20
373.3646211672892
 30
0.0
 10
206.7698911578906
 20
373.9072045006229
 30
0.0
 10
206.7698911578906
 20
373.9072045006229
 30
0.0
 10
206.7698911578906
 20
373.9072045006229
 30
0.0
  0
SPLINE
  5
2C6
330
1F
100
AcDbEntity
  8
0
 62
     0
370
     5
100
AcDbSpline
210
0.0
220
0.0
230
1.0
 70
     8
 71
     3
 72
    14
 73
    10
 74
     0
 42
0.0000000001
 43
0.0000000001
 40
0.0
 40
0.0
 40
0.0
 40
0.0
 40
1.0
 40
1.0
 40
1.0
 40
2.0
 40
2.0
 40
2.0
 40
3.0
 40
3.0
 40
3.0
 40
3.0
 10
206.7698911578906
 20
373.9072045006229
 30
0.0
 10
207.855057824558
 20
376.6201211672895
 30
0.0
 10
207.3124744912247
 20
379.8756211672891
 30
0.0
 10
204.5995578245577
 20
381.5033711672893
 30
0.0
 10
201.8866411578905
 20
382.5885378339558
 30
0.0
 10
199.1737244912242
 20
382.0459545006226
 30
0.0
 10
197.5459744912246
 20
379.3330378339563
 30
0.0
 10
197.0033911578913
 20
379.3330378339563
 30
0.0
 10
197.0033911578913
 20
379.3330378339563
 30
0.0
 10
197.0033911578913
 20
379.3330378339563
 30
0.0
  0
LWPOLYLINE
  5
2C7
330
1F
100
AcDbEntity
  8
0
 62
     0
370
     5
100
AcDbPolyline
 90
        2
 70
     0
 43
0.0
 10
231.5965345014731
 20
293.6048711672892
 10
231.5965345014731
 20
246.4001211672892
  0
LWPOLYLINE
  5
2C8
330
1F
100
AcDbEntity
  8
0
 62
     0
370
     5
100
AcDbPolyline
 90
        2
 70
     0
 43
0.0
 10
265.9114744912244
 20
60.29403783395577
 10
303.892307824558
 20
60.29403783395577
  0
LWPOLYLINE
  5
2C9
330
1F
100
AcDbEntity
  8
0
 62
     0
370
     5
100
AcDbPolyline
 90
        2
 70
     0
 43
0.0
 10
326.1382244912238
 20
440.6449545006226
 10
326.1382244912238
 20
443.3578711672892
  0
LWPOLYLINE
  5
2CA
330
1F
100
AcDbEntity
  8
0
 62
     0
370
     5
100
AcDbPolyline
 90
        2
 70
     0
 43
0.0
 10
326.1382244912238
 20
440.6449545006226
 10
316.3717244912236
 20
70.06053783395606
  0
SPLINE
  5
2CB
330
1F
100
AcDbEntity
  8
0
 62
     0
370
     5
100
AcDbSpline
210
0.0
220
0.0
230
1.0
 70
     8
 71
     3
 72
     8
 73
     4
 74
     0
 42
0.0000000001
 43
0.0000000001
 40
0.0
 40
0.0
 40
0.0
 40
0.0
 40
1.0
 40
1.0
 40
1.0
 40
1.0
 10
306.0626411578901
 20
60.29403783395577
 30
0.0
 10
311.4884744912243
 20
60.29403783395577
 30
0.0
 10
315.8291411578904
 20
64.63470450062221
 30
0.0
 10
316.3717244912236
 20
70.06053783395606
 30
0.0
  0
LWPOLYLINE
  5
2CC
330
1F
100
AcDbEntity
  8
0
 62
     0
370
     5
100
AcDbPolyline
 90
        2
 70
     0
 43
0.0
 10
265.9114744912244
 20
443.3578711672892
 10
326.1382244912238
 20
443.3578711672892
  0
LWPOLYLINE
  5
2CD
330
1F
100
AcDbEntity
  8
0
 62
     0
370
     5
100
AcDbPolyline
 90
        2
 70
     0
 43
0.0
 10
265.9114744912244
 20
60.29403783395577
 10
306.0626411578901
 20
60.29403783395577
  0
LWPOLYLINE
  5
2CE
330
1F
100
AcDbEntity
  8
0
 62
     0
370
     5
100
AcDbPolyline
 90
        2
 70
     0
 43
0.0
 10
262.1133911578917
 20
439.0172045006223
 10
262.1133911578917
 20
440.1023711672888
  0
LWPOLYLINE
  5
2CF
330
1F
100
AcDbEntity
  8
0
 62
     0
370
     5
100
AcDbPolyline
 90
        2
 70
     0
 43
0.0
 10
262.1133911578917
 20
439.0172045006223
 10
262.1133911578917
 20
60.29403783395577
  0
SPLINE
  5
2D0
330
1F
100
AcDbEntity
  8
0
 62
     0
370
     5
100
AcDbSpline
210
0.0
220
0.0
230
1.0
 70
     8
 71
     3
 72
     8
 73
     4
 74
     0
 42
0.0000000001
 43
0.0000000001
 40
0.0
 40
0.0
 40
0.0
 40
0.0
 40
1.0
 40
1.0
 40
1.0
 40
1.0
 10
265.9114744912244
 20
443.3578711672892
 30
0.0
 10
263.7411411578905
 20
443.3578711672892
 30
0.0
 10
262.1133911578917
 20
441.7301211672895
 30
0.0
 10
262.1133911578917
 20
440.1023711672888
 30
0.0
  0
LWPOLYLINE
  5
2D1
330
1F
100
AcDbEntity
  8
0
 62
     0
370
     5
100
AcDbPolyline
 90
        2
 70
     0
 43
0.0
 10
262.1133911578917
 20
60.29403783395577
 10
265.9114744912244
 20
60.29403783395577
  0
SPLINE
  5
2D2
330
1F
100
AcDbEntity
  8
0
 62
     0
370
     5
100
AcDbSpline
210
0.0
220
0.0
230
1.0
 70
    24
 71
     3
 72
     8
 73
     4
 74
     0
 42
0.0000000001
 43
0.0000000001
 40
0.0
 40
0.0
 40
0.0
 40
0.0
 40
1.0
 40
1.0
 40
1.0
 40
1.0
 10
262.1133911578917
 20
440.1023711672888
 30
0.0
 10
262.1133911578917
 20
439.559787833956
 30
0.0
 10
262.1133911578917
 20
439.559787833956
 30
0.0
 10
262.1133911578917
 20
439.0172045006223
 30
0.0
  0
DIMENSION
  5
317
330
1F
100
AcDbEntity
  8
0
 62
     1
370
     0
100
AcDbDimension
  2
*D6
 10
234.3094511681393
 20
465.0307960181091
 30
0.0
 11
157.2916625824774
 21
465.0307960181091
 31
0.0
 70
   160
 71
     5
 42
144.737560010248
  3
Standard
100
AcDbAlignedDimension
 13
89.57189115789129
 23
440.6449545006226
 33
0.0
 14
234.3094511681393
 24
440.6449545006226
 34
0.0
100
AcDbRotatedDimension
1001
ACAD
1000
DSTYLE
1002
{
1070
    41
1040
10.0
1070
    42
1040
0.625
1070
    43
1040
3.75
1070
    44
1040
1.25
1070
    73
1070
     0
1070
    74
1070
     0
1070
    77
1070
     0
1070
    78
1070
     8
1070
   140
1040
10.0
1070
   141
1040
2.5
1070
   143
1040
0.03937
1070
   147
1040
0.625
1070
   171
1070
     3
1070
   172
1070
     1
1070
   271
1070
     0
1070
   272
1070
     2
1070
   274
1070
     3
1070
   278
1070
    44
1070
   283
1070
     0
1070
   284
1070
     8
1070
   289
1070
     0
1002
}
  0
DIMENSION
  5
318
330
1F
100
AcDbEntity
  8
0
 62
     1
370
     0
100
AcDbDimension
  2
*D7
 10
66.56409219620752
 20
60.29403783395578
 30
-0.0000000000000002
 11
66.56409219620752
 21
259.0141284158095
 31
-0.0000000000000002
 70
   160
 71
     5
 42
383.0638333333336
  3
Standard
100
AcDbAlignedDimension
 13
92.28480782455648
 23
443.3578711672892
 33
0.0
 14
89.57189115789129
 24
60.29403783395577
 34
0.0
 50
90.0
100
AcDbRotatedDimension
1001
ACAD
1000
DSTYLE
1002
{
1070
    41
1040
10.0
1070
    42
1040
0.625
1070
    43
1040
3.75
1070
    44
1040
1.25
1070
    73
1070
     0
1070
    74
1070
     0
1070
    77
1070
     0
1070
    78
1070
     8
1070
   140
1040
10.0
1070
   141
1040
2.5
1070
   143
1040
0.03937
1070
   147
1040
0.625
1070
   171
1070
     3
1070
   172
1070
     1
1070
   271
1070
     0
1070
   272
1070
     2
1070
   274
1070
     3
1070
   278
1070
    44
1070
   283
1070
     0
1070
   284
1070
     8
1070
   289
1070
     0
1002
}
  0
DIMENSION
  5
39B
330
1F
100
AcDbEntity
  8
0
 62
     1
370
     0
100
AcDbDimension
  2
*D9
 10
326.1382244912238
 20
464.4882126847754
 30
0.0
 11
294.1258078245578
 21
464.4882126847754
 31
0.0
 70
   160
 71
     5
 42
64.02483333333214
  3
Standard
100
AcDbAlignedDimension
 13
262.1133911578917
 23
440.1023711672888
 33
0.0
 14
326.1382244912238
 24
443.3578711672892
 34
0.0
100
AcDbRotatedDimension
1001
ACAD
1000
DSTYLE
1002
{
1070
    41
1040
10.0
1070
    42
1040
0.625
1070
    43
1040
3.75
1070
    44
1040
1.25
1070
    73
1070
     0
1070
    74
1070
     0
1070
    77
1070
     0
1070
    78
1070
     8
1070
   140
1040
10.0
1070
   141
1040
2.5
1070
   143
1040
0.03937
1070
   147
1040
0.625
1070
   171
1070
     3
1070
   172
1070
     1
1070
   271
1070
     0
1070
   272
1070
     2
1070
   274
1070
     3
1070
   278
1070
    44
1070
   283
1070
     0
1070
   284
1070
     8
1070
   289
1070
     0
1002
}
  0
SPLINE
  5
3CF
330
1F
100
AcDbEntity
  8
0
 62
     0
370
     5
100
AcDbSpline
210
0.0
220
0.0
230
1.0
 70
     8
 71
     3
 72
     8
 73
     4
 74
     0
 42
0.0000000001
 43
0.0000000001
 40
0.0
 40
0.0
 40
0.0
 40
0.0
 40
1.0
 40
1.0
 40
1.0
 40
1.0
 10
179.6407244912255
 20
299.0307045006226
 30
0.0
 10
179.6407244912255
 20
299.0307045006226
 30
0.0
 10
179.6407244912255
 20
298.4881211672895
 30
0.0
 10
179.0981411578914
 20
298.4881211672895
 30
0.0
  0
ENDSEC
  0
SECTION
  2
OBJECTS
  0
DICTIONARY
  5
C
330
0
100
AcDbDictionary
281
     1
  3
ACAD_COLOR
350
6B
  3
ACAD_GROUP
350
D
  3
ACAD_LAYOUT
350
1A
  3
ACAD_MATERIAL
350
6A
  3
ACAD_MLEADERSTYLE
350
12D
  3
ACAD_MLINESTYLE
350
17
  3
ACAD_PLOTSETTINGS
350
19
  3
ACAD_PLOTSTYLENAME
350
E
  3
ACAD_SCALELIST
350
10C
  3
ACAD_TABLESTYLE
350
7E
  3
ACAD_VISUALSTYLE
350
EF
  3
ACDB_RECOMPOSE_DATA
350
15D
  3
AcDbVariableDictionary
350
5E
  3
DWGPROPS
350
432
  0
DICTIONARY
  5
13C
330
10
100
AcDbDictionary
280
     1
281
     1
  3
ADSK_XREC_LAYER_RECONCILED
360
42A
  0
DICTIONARY
  5
6B
102
{ACAD_REACTORS
330
C
102
}
330
C
100
AcDbDictionary
281
     1
  0
DICTIONARY
  5
D
102
{ACAD_REACTORS
330
C
102
}
330
C
100
AcDbDictionary
281
     1
  0
DICTIONARY
  5
1A
102
{ACAD_REACTORS
330
C
102
}
330
C
100
AcDbDictionary
281
     1
  3
Layout1
350
D3
  3
Layout2
350
D7
  3
Model
350
22
  0
DICTIONARY
  5
6A
102
{ACAD_REACTORS
330
C
102
}
330
C
100
AcDbDictionary
281
     1
  3
ByBlock
350
ED
  3
ByLayer
350
EC
  3
Global
350
EE
  0
DICTIONARY
  5
12D
102
{ACAD_REACTORS
330
C
102
}
330
C
100
AcDbDictionary
281
     1
  3
Annotativa
350
13B
  3
Standard
350
12E
  0
DICTIONARY
  5
17
102
{ACAD_REACTORS
330
C
102
}
330
C
100
AcDbDictionary
281
     1
  3
Standard
350
18
  0
DICTIONARY
  5
19
102
{ACAD_REACTORS
330
C
102
}
330
C
100
AcDbDictionary
281
     1
  0
ACDBDICTIONARYWDFLT
  5
E
102
{ACAD_REACTORS
330
C
102
}
330
C
100
AcDbDictionary
281
     1
  3
Normal
350
F
100
AcDbDictionaryWithDefault
340
F
  0
DICTIONARY
  5
10C
102
{ACAD_REACTORS
330
C
102
}
330
C
100
AcDbDictionary
281
     1
  3
A0
350
10D
  3
A1
350
188
  3
A2
350
189
  3
A3
350
18A
  3
A4
350
18B
  3
A5
350
18C
  3
A6
350
18D
  3
A7
350
18E
  3
A8
350
18F
  3
A9
350
190
  3
B0
350
191
  3
B1
350
192
  3
B2
350
193
  3
B3
350
194
  3
B4
350
195
  3
B5
350
196
  3
B6
350
197
  3
B7
350
198
  3
B8
350
199
  3
B9
350
19A
  3
C0
350
19B
  3
C1
350
19C
  3
C2
350
19D
  3
C3
350
19E
  3
C4
350
19F
  3
C5
350
1A0
  3
C6
350
1A1
  3
C7
350
1A2
  3
C8
350
1A3
  3
C9
350
1A4
  3
D0
350
1A5
  3
D1
350
1A6
  3
D2
350
1A7
  0
DICTIONARY
  5
7E
102
{ACAD_REACTORS
330
C
102
}
330
C
100
AcDbDictionary
281
     1
  3
Standard
350
7F
  0
DICTIONARY
  5
EF
102
{ACAD_REACTORS
330
C
102
}
330
C
100
AcDbDictionary
281
     1
  3
2dWireframe
350
F5
  3
3D Hidden
350
F7
  3
3dWireframe
350
F6
  3
Basic
350
F4
  3
Brighten
350
FB
  3
ColorChange
350
FF
  3
Conceptual
350
F8
  3
Dim
350
FA
  3
Facepattern
350
FE
  3
Flat
350
F0
  3
FlatWithEdges
350
F1
  3
Gouraud
350
F2
  3
GouraudWithEdges
350
F3
  3
Linepattern
350
FD
  3
Realistic
350
F9
  3
Thicken
350
FC
  0
XRECORD
  5
15D
102
{ACAD_REACTORS
330
C
102
}
330
C
100
AcDbXrecord
280
     1
 90
        1
330
7F
  0
DICTIONARY
  5
5E
102
{ACAD_REACTORS
330
C
102
}
330
C
100
AcDbDictionary
281
     1
  3
CANNOSCALE
350
146
  3
CMLEADERSTYLE
350
145
  3
CTABLESTYLE
350
84
  3
DIMASSOC
350
5F
  3
HIDETEXT
350
63
  3
INDEXCTL
350
42E
  3
LIGHTINGUNITS
350
42C
  3
MSLTSCALE
350
42B
  3
PSOLHEIGHT
350
430
  3
PSOLWIDTH
350
42F
  3
SORTENTS
350
42D
  0
XRECORD
  5
432
102
{ACAD_REACTORS
330
C
102
}
330
C
100
AcDbXrecord
280
     1
  1
DWGPROPS COOKIE
  2

  3

  4

  6

  7

  8
FontanaNZ
  9

300
=
301
=
302
=
303
=
304
=
305
=
306
=
307
=
308
=
309
=
 40
0.0056644097222222
 41
2456617.653354572
 42
2456617.659018808
  1

 90
        0
  0
XRECORD
  5
42A
102
{ACAD_REACTORS
330
13C
102
}
330
13C
100
AcDbXrecord
280
     1
290
     1
  0
LAYOUT
  5
D3
102
{ACAD_XDICTIONARY
360
436
102
}
102
{ACAD_REACTORS
330
1A
102
}
330
1A
100
AcDbPlotSettings
  1

  2
C:\Documents and Settings\basas\Application Data\Autodesk\AutoCAD 2005\R16.1\enu\plotters\Default Windows System Printer.pc3
  4

  6

 40
0.0
 41
0.0
 42
0.0
 43
0.0
 44
0.0
 45
0.0
 46
0.0
 47
0.0
 48
0.0
 49
0.0
140
0.0
141
0.0
142
1.0
143
1.0
 70
   688
 72
     0
 73
     0
 74
     5
  7

 75
    16
147
1.0
148
0.0
149
0.0
100
AcDbLayout
  1
Layout1
 70
     1
 71
     1
 10
0.0
 20
0.0
 11
12.0
 21
9.0
 12
0.0
 22
0.0
 32
0.0
 14
0.0
 24
0.0
 34
0.0
 15
0.0
 25
0.0
 35
0.0
146
0.0
 13
0.0
 23
0.0
 33
0.0
 16
1.0
 26
0.0
 36
0.0
 17
0.0
 27
1.0
 37
0.0
 76
     0
330
D2
  0
LAYOUT
  5
D7
102
{ACAD_XDICTIONARY
360
438
102
}
102
{ACAD_REACTORS
330
1A
102
}
330
1A
100
AcDbPlotSettings
  1

  2
C:\Documents and Settings\basas\Application Data\Autodesk\AutoCAD 2005\R16.1\enu\plotters\Default Windows System Printer.pc3
  4

  6

 40
0.0
 41
0.0
 42
0.0
 43
0.0
 44
0.0
 45
0.0
 46
0.0
 47
0.0
 48
0.0
 49
0.0
140
0.0
141
0.0
142
1.0
143
1.0
 70
   688
 72
     0
 73
     0
 74
     5
  7

 75
    16
147
1.0
148
0.0
149
0.0
100
AcDbLayout
  1
Layout2
 70
     1
 71
     2
 10
0.0
 20
0.0
 11
12.0
 21
9.0
 12
0.0
 22
0.0
 32
0.0
 14
0.0
 24
0.0
 34
0.0
 15
0.0
 25
0.0
 35
0.0
146
0.0
 13
0.0
 23
0.0
 33
0.0
 16
1.0
 26
0.0
 36
0.0
 17
0.0
 27
1.0
 37
0.0
 76
     0
330
D6
  0
LAYOUT
  5
22
102
{ACAD_XDICTIONARY
360
433
102
}
102
{ACAD_REACTORS
330
1A
102
}
330
1A
100
AcDbPlotSettings
  1

  2
none_device
  4
ISO_A4_(210.00_x_297.00_MM)
  6

 40
7.5
 41
20.0
 42
7.5
 43
20.0
 44
210.0
 45
297.0
 46
11.54999923706054
 47
-13.65000009536743
 48
0.0
 49
0.0
140
0.0
141
0.0
142
1.0
143
8.704084754739808
 70
 11952
 72
     1
 73
     0
 74
     0
  7

 75
     0
147
0.1148885871608098
148
0.0
149
0.0
100
AcDbLayout
  1
Model
 70
     1
 71
     0
 10
0.0
 20
0.0
 11
12.0
 21
9.0
 12
0.0
 22
0.0
 32
0.0
 14
0.0
 24
0.0
 34
0.0
 15
0.0
 25
0.0
 35
0.0
146
0.0
 13
0.0
 23
0.0
 33
0.0
 16
1.0
 26
0.0
 36
0.0
 17
0.0
 27
1.0
 37
0.0
 76
     0
330
1F
331
EA
1001
ACAD_PSEXT
1000
None
1000
None
1000
Not applicable
1000
The layout will not be plotted unless a new plotter configuration name is selected.
1070
     0
  0
MATERIAL
  5
ED
102
{ACAD_XDICTIONARY
360
43C
102
}
102
{ACAD_REACTORS
330
6A
102
}
330
6A
100
AcDbMaterial
  1
ByBlock
  0
MATERIAL
  5
EC
102
{ACAD_XDICTIONARY
360
43A
102
}
102
{ACAD_REACTORS
330
6A
102
}
330
6A
100
AcDbMaterial
  1
ByLayer
  0
MATERIAL
  5
EE
102
{ACAD_XDICTIONARY
360
173
102
}
102
{ACAD_REACTORS
330
6A
102
}
330
6A
100
AcDbMaterial
  1
Global
 43
0.0007999999797903
 43
0.0
 43
0.0
 43
0.0
 43
0.0
 43
0.0007999999797903
 43
0.0
 43
0.0
 43
0.0
 43
0.0
 43
1.0
 43
0.0
 43
0.0
 43
0.0
 43
0.0
 43
1.0
 49
0.0007999999797903
 49
0.0
 49
0.0
 49
0.0
 49
0.0
 49
0.0007999999797903
 49
0.0
 49
0.0
 49
0.0
 49
0.0
 49
1.0
 49
0.0
 49
0.0
 49
0.0
 49
0.0
 49
1.0
142
0.0007999999797903
142
0.0
142
0.0
142
0.0
142
0.0
142
0.0007999999797903
142
0.0
142
0.0
142
0.0
142
0.0
142
1.0
142
0.0
142
0.0
142
0.0
142
0.0
142
1.0
144
0.0007999999797903
144
0.0
144
0.0
144
0.0
144
0.0
144
0.0007999999797903
144
0.0
144
0.0
144
0.0
144
0.0
144
1.0
144
0.0
144
0.0
144
0.0
144
0.0
144
1.0
1001
ACAD
1070
    -1
1070
     3
1070
     0
1000

1071
        0
1070
     0
  0
MLEADERSTYLE
  5
13B
102
{ACAD_REACTORS
330
12D
102
}
330
12D
100
AcDbMLeaderStyle
170
     2
171
     1
172
     0
 90
        2
 40
0.0
 41
0.0
173
     1
 91
-1056964608
340
14
 92
       -2
290
     1
 42
2.0
291
     1
 43
8.0
  3
Standard
 44
4.0
300

342
11
174
     1
178
     1
175
     1
176
     0
 93
-1056964608
 45
4.0
292
     0
297
     0
 46
4.0
 94
-1056964608
 47
1.0
 49
1.0
140
1.0
293
     1
141
0.0
294
     1
177
     0
142
1.0
295
     0
296
     1
143
3.75
1001
ACAD_MLEADERVER
1070
     2
  0
MLEADERSTYLE
  5
12E
102
{ACAD_REACTORS
330
12D
102
}
330
12D
100
AcDbMLeaderStyle
170
     2
171
     1
172
     0
 90
        2
 40
0.0
 41
0.0
173
     1
 91
-1056964608
340
14
 92
       -2
290
     1
 42
2.0
291
     1
 43
8.0
  3
Standard
 44
4.0
300

342
11
174
     1
178
     1
175
     1
176
     0
 93
-1056964608
 45
4.0
292
     0
297
     0
 46
4.0
 94
-1056964608
 47
1.0
 49
1.0
140
1.0
293
     1
141
0.0
294
     1
177
     0
142
1.0
295
     0
296
     0
143
3.75
1001
ACAD_MLEADERVER
1070
     2
  0
MLINESTYLE
  5
18
102
{ACAD_REACTORS
330
17
102
}
330
17
100
AcDbMlineStyle
  2
STANDARD
 70
     0
  3

 62
   256
 51
90.0
 52
90.0
 71
     2
 49
0.5
 62
   256
  6
BYLAYER
 49
-0.5
 62
   256
  6
BYLAYER
  0
ACDBPLACEHOLDER
  5
F
102
{ACAD_REACTORS
330
E
102
}
330
E
  0
SCALE
  5
10D
102
{ACAD_REACTORS
330
10C
102
}
330
10C
100
AcDbScale
 70
     0
300
1:1
140
1.0
141
1.0
290
     1
  0
SCALE
  5
188
102
{ACAD_REACTORS
330
10C
102
}
330
10C
100
AcDbScale
 70
     0
300
1:2
140
1.0
141
2.0
290
     0
  0
SCALE
  5
189
102
{ACAD_REACTORS
330
10C
102
}
330
10C
100
AcDbScale
 70
     0
300
1:4
140
1.0
141
4.0
290
     0
  0
SCALE
  5
18A
102
{ACAD_REACTORS
330
10C
102
}
330
10C
100
AcDbScale
 70
     0
300
1:5
140
1.0
141
5.0
290
     0
  0
SCALE
  5
18B
102
{ACAD_REACTORS
330
10C
102
}
330
10C
100
AcDbScale
 70
     0
300
1:8
140
1.0
141
8.0
290
     0
  0
SCALE
  5
18C
102
{ACAD_REACTORS
330
10C
102
}
330
10C
100
AcDbScale
 70
     0
300
1:10
140
1.0
141
10.0
290
     0
  0
SCALE
  5
18D
102
{ACAD_REACTORS
330
10C
102
}
330
10C
100
AcDbScale
 70
     0
300
1:16
140
1.0
141
16.0
290
     0
  0
SCALE
  5
18E
102
{ACAD_REACTORS
330
10C
102
}
330
10C
100
AcDbScale
 70
     0
300
1:20
140
1.0
141
20.0
290
     0
  0
SCALE
  5
18F
102
{ACAD_REACTORS
330
10C
102
}
330
10C
100
AcDbScale
 70
     0
300
1:30
140
1.0
141
30.0
290
     0
  0
SCALE
  5
190
102
{ACAD_REACTORS
330
10C
102
}
330
10C
100
AcDbScale
 70
     0
300
1:40
140
1.0
141
40.0
290
     0
  0
SCALE
  5
191
102
{ACAD_REACTORS
330
10C
102
}
330
10C
100
AcDbScale
 70
     0
300
1:50
140
1.0
141
50.0
290
     0
  0
SCALE
  5
192
102
{ACAD_REACTORS
330
10C
102
}
330
10C
100
AcDbScale
 70
     0
300
1:100
140
1.0
141
100.0
290
     0
  0
SCALE
  5
193
102
{ACAD_REACTORS
330
10C
102
}
330
10C
100
AcDbScale
 70
     0
300
2:1
140
2.0
141
1.0
290
     0
  0
SCALE
  5
194
102
{ACAD_REACTORS
330
10C
102
}
330
10C
100
AcDbScale
 70
     0
300
4:1
140
4.0
141
1.0
290
     0
  0
SCALE
  5
195
102
{ACAD_REACTORS
330
10C
102
}
330
10C
100
AcDbScale
 70
     0
300
8:1
140
8.0
141
1.0
290
     0
  0
SCALE
  5
196
102
{ACAD_REACTORS
330
10C
102
}
330
10C
100
AcDbScale
 70
     0
300
10:1
140
10.0
141
1.0
290
     0
  0
SCALE
  5
197
102
{ACAD_REACTORS
330
10C
102
}
330
10C
100
AcDbScale
 70
     0
300
100:1
140
100.0
141
1.0
290
     0
  0
SCALE
  5
198
102
{ACAD_REACTORS
330
10C
102
}
330
10C
100
AcDbScale
 70
     0
300
1/128" = 1'-0"
140
0.0078125
141
12.0
290
     0
  0
SCALE
  5
199
102
{ACAD_REACTORS
330
10C
102
}
330
10C
100
AcDbScale
 70
     0
300
1/64" = 1'-0"
140
0.015625
141
12.0
290
     0
  0
SCALE
  5
19A
102
{ACAD_REACTORS
330
10C
102
}
330
10C
100
AcDbScale
 70
     0
300
1/32" = 1'-0"
140
0.03125
141
12.0
290
     0
  0
SCALE
  5
19B
102
{ACAD_REACTORS
330
10C
102
}
330
10C
100
AcDbScale
 70
     0
300
1/16" = 1'-0"
140
0.0625
141
12.0
290
     0
  0
SCALE
  5
19C
102
{ACAD_REACTORS
330
10C
102
}
330
10C
100
AcDbScale
 70
     0
300
3/32" = 1'-0"
140
0.09375
141
12.0
290
     0
  0
SCALE
  5
19D
102
{ACAD_REACTORS
330
10C
102
}
330
10C
100
AcDbScale
 70
     0
300
1/8" = 1'-0"
140
0.125
141
12.0
290
     0
  0
SCALE
  5
19E
102
{ACAD_REACTORS
330
10C
102
}
330
10C
100
AcDbScale
 70
     0
300
3/16" = 1'-0"
140
0.1875
141
12.0
290
     0
  0
SCALE
  5
19F
102
{ACAD_REACTORS
330
10C
102
}
330
10C
100
AcDbScale
 70
     0
300
1/4" = 1'-0"
140
0.25
141
12.0
290
     0
  0
SCALE
  5
1A0
102
{ACAD_REACTORS
330
10C
102
}
330
10C
100
AcDbScale
 70
     0
300
3/8" = 1'-0"
140
0.375
141
12.0
290
     0
  0
SCALE
  5
1A1
102
{ACAD_REACTORS
330
10C
102
}
330
10C
100
AcDbScale
 70
     0
300
1/2" = 1'-0"
140
0.5
141
12.0
290
     0
  0
SCALE
  5
1A2
102
{ACAD_REACTORS
330
10C
102
}
330
10C
100
AcDbScale
 70
     0
300
3/4" = 1'-0"
140
0.75
141
12.0
290
     0
  0
SCALE
  5
1A3
102
{ACAD_REACTORS
330
10C
102
}
330
10C
100
AcDbScale
 70
     0
300
1" = 1'-0"
140
1.0
141
12.0
290
     0
  0
SCALE
  5
1A4
102
{ACAD_REACTORS
330
10C
102
}
330
10C
100
AcDbScale
 70
     0
300
1-1/2" = 1'-0"
140
1.5
141
12.0
290
     0
  0
SCALE
  5
1A5
102
{ACAD_REACTORS
330
10C
102
}
330
10C
100
AcDbScale
 70
     0
300
3" = 1'-0"
140
3.0
141
12.0
290
     0
  0
SCALE
  5
1A6
102
{ACAD_REACTORS
330
10C
102
}
330
10C
100
AcDbScale
 70
     0
300
6" = 1'-0"
140
6.0
141
12.0
290
     0
  0
SCALE
  5
1A7
102
{ACAD_REACTORS
330
10C
102
}
330
10C
100
AcDbScale
 70
     0
300
1'-0" = 1'-0"
140
12.0
141
12.0
290
     0
  0
TABLESTYLE
  5
7F
102
{ACAD_XDICTIONARY
360
162
102
}
102
{ACAD_REACTORS
330
7E
102
}
330
7E
100
AcDbTableStyle
  3
Standard
 70
     0
 71
     0
 40
1.5
 41
1.5
280
     0
281
     0
  7
Standard
140
4.5
170
     2
 62
     0
 63
     7
283
     0
274
    -2
284
     1
 64
     0
275
    -2
285
     1
 65
     0
276
    -2
286
     1
 66
     0
277
    -2
287
     1
 67
     0
278
    -2
288
     1
 68
     0
279
    -2
289
     1
 69
     0
  7
Standard
140
6.0
170
     5
 62
     0
 63
     7
283
     0
274
    -2
284
     1
 64
     0
275
    -2
285
     1
 65
     0
276
    -2
286
     1
 66
     0
277
    -2
287
     1
 67
     0
278
    -2
288
     1
 68
     0
279
    -2
289
     1
 69
     0
  7
Standard
140
4.5
170
     5
 62
     0
 63
     7
283
     0
274
    -2
284
     1
 64
     0
275
    -2
285
     1
 65
     0
276
    -2
286
     1
 66
     0
277
    -2
287
     1
 67
     0
278
    -2
288
     1
 68
     0
279
    -2
289
     1
 69
     0
  0
VISUALSTYLE
  5
F5
102
{ACAD_REACTORS
330
EF
102
}
330
EF
100
AcDbVisualStyle
  2
2dWireframe
 70
     4
 71
     0
 72
     2
 73
     1
 90
        0
 40
-0.6
 41
-30.0
 62
     5
 63
     7
 74
     1
 91
        4
 64
     7
 65
   257
 75
     1
175
     1
 42
1.0
 92
        0
 66
   257
 43
1.0
 76
     1
 77
     6
 78
     2
 67
     7
 79
     5
170
     0
171
     0
290
     0
174
     0
 93
        1
 44
0.0
173
     0
291
     0
 45
0.0
1001
ACAD
1000
AcDbSavedByObjectVersion
1070
     0
  0
VISUALSTYLE
  5
F7
102
{ACAD_REACTORS
330
EF
102
}
330
EF
100
AcDbVisualStyle
  2
3D Hidden
 70
     6
 71
     1
 72
     2
 73
     2
 90
        0
 40
-0.6
 41
-30.0
 62
     5
 63
     7
 74
     2
 91
        2
 64
     7
 65
   257
 75
     2
175
     1
 42
40.0
 92
        0
 66
   257
 43
1.0
 76
     1
 77
     6
 78
     2
 67
     7
 79
     3
170
     0
171
     0
290
     0
174
     0
 93
        1
 44
0.0
173
     0
291
     0
 45
0.0
1001
ACAD
1000
AcDbSavedByObjectVersion
1070
     0
  0
VISUALSTYLE
  5
F6
102
{ACAD_REACTORS
330
EF
102
}
330
EF
100
AcDbVisualStyle
  2
3dWireframe
 70
     5
 71
     0
 72
     2
 73
     1
 90
        0
 40
-0.6
 41
-30.0
 62
     5
 63
     7
 74
     1
 91
        4
 64
     7
 65
   257
 75
     1
175
     1
 42
1.0
 92
        0
 66
   257
 43
1.0
 76
     1
 77
     6
 78
     2
 67
     7
 79
     5
170
     0
171
     0
290
     0
174
     0
 93
        1
 44
0.0
173
     0
291
     0
 45
0.0
1001
ACAD
1000
AcDbSavedByObjectVersion
1070
     0
  0
VISUALSTYLE
  5
F4
102
{ACAD_REACTORS
330
EF
102
}
330
EF
100
AcDbVisualStyle
  2
Basic
 70
     7
 71
     1
 72
     0
 73
     1
 90
        0
 40
-0.6
 41
-30.0
 62
     5
 63
     7
 74
     0
 91
        4
 64
     7
 65
   257
 75
     1
175
     1
 42
1.0
 92
        8
 66
     7
 43
1.0
 76
     1
 77
     6
 78
     2
 67
     7
 79
     5
170
     0
171
     0
290
     0
174
     0
 93
        1
 44
0.0
173
     0
291
     1
 45
0.0
1001
ACAD
1000
AcDbSavedByObjectVersion
1070
     0
  0
VISUALSTYLE
  5
FB
102
{ACAD_REACTORS
330
EF
102
}
330
EF
100
AcDbVisualStyle
  2
Brighten
 70
    12
 71
     2
 72
     2
 73
     1
 90
        0
 40
-0.6
 41
-30.0
 62
     5
 63
     7
 74
     1
 91
        4
 64
     7
 65
   257
 75
     1
175
     1
 42
1.0
 92
        8
 66
     7
 43
1.0
 76
     1
 77
     6
 78
     2
 67
     7
 79
     5
170
     0
171
     0
290
     0
174
     0
 93
        1
 44
50.0
173
     0
291
     1
 45
0.0
1001
ACAD
1000
AcDbSavedByObjectVersion
1070
     0
  0
VISUALSTYLE
  5
FF
102
{ACAD_REACTORS
330
EF
102
}
330
EF
100
AcDbVisualStyle
  2
ColorChange
 70
    16
 71
     2
 72
     2
 73
     3
 90
        0
 40
-0.6
 41
-30.0
 62
     5
 63
     8
 74
     1
 91
        4
 64
     7
 65
   257
 75
     1
175
     1
 42
1.0
 92
        8
 66
     8
 43
1.0
 76
     1
 77
     6
 78
     2
 67
     7
 79
     5
170
     0
171
     0
290
     0
174
     0
 93
        1
 44
0.0
173
     0
291
     1
 45
0.0
1001
ACAD
1000
AcDbSavedByObjectVersion
1070
     0
  0
VISUALSTYLE
  5
F8
102
{ACAD_REACTORS
330
EF
102
}
330
EF
100
AcDbVisualStyle
  2
Conceptual
 70
     9
 71
     3
 72
     2
 73
     1
 90
        0
 40
-0.6
 41
-30.0
 62
     5
 63
     7
 74
     2
 91
        2
 64
     7
 65
   257
 75
     1
175
     1
 42
40.0
 92
        8
 66
     7
 43
1.0
 76
     1
 77
     6
 78
     2
 67
     7
 79
     3
170
     0
171
     0
290
     0
174
     0
 93
        1
 44
0.0
173
     0
291
     0
 45
0.0
1001
ACAD
1000
AcDbSavedByObjectVersion
1070
     0
  0
VISUALSTYLE
  5
FA
102
{ACAD_REACTORS
330
EF
102
}
330
EF
100
AcDbVisualStyle
  2
Dim
 70
    11
 71
     2
 72
     2
 73
     1
 90
        0
 40
-0.6
 41
-30.0
 62
     5
 63
     7
 74
     1
 91
        4
 64
     7
 65
   257
 75
     1
175
     1
 42
1.0
 92
        8
 66
     7
 43
1.0
 76
     1
 77
     6
 78
     2
 67
     7
 79
     5
170
     0
171
     0
290
     0
174
     0
 93
        1
 44
-50.0
173
     0
291
     1
 45
0.0
1001
ACAD
1000
AcDbSavedByObjectVersion
1070
     0
  0
VISUALSTYLE
  5
FE
102
{ACAD_REACTORS
330
EF
102
}
330
EF
100
AcDbVisualStyle
  2
Facepattern
 70
    15
 71
     2
 72
     2
 73
     1
 90
        0
 40
-0.6
 41
-30.0
 62
     5
 63
     7
 74
     1
 91
        4
 64
     7
 65
   257
 75
     1
175
     1
 42
1.0
 92
        8
 66
     7
 43
1.0
 76
     1
 77
     6
 78
     2
 67
     7
 79
     5
170
     0
171
     0
290
     0
174
     0
 93
        1
 44
0.0
173
     0
291
     1
 45
0.0
1001
ACAD
1000
AcDbSavedByObjectVersion
1070
     0
  0
VISUALSTYLE
  5
F0
102
{ACAD_REACTORS
330
EF
102
}
330
EF
100
AcDbVisualStyle
  2
Flat
 70
     0
 71
     2
 72
     1
 73
     1
 90
        2
 40
-0.6
 41
30.0
 62
     5
 63
     7
 74
     0
 91
        4
 64
     7
 65
   257
 75
     1
175
     1
 42
1.0
 92
        8
 66
     7
 43
1.0
 76
     1
 77
     6
 78
     2
 67
     7
 79
     5
170
     0
171
     0
290
     0
174
     0
 93
        1
 44
0.0
173
     0
291
     1
 45
0.0
1001
ACAD
1000
AcDbSavedByObjectVersion
1070
     0
  0
VISUALSTYLE
  5
F1
102
{ACAD_REACTORS
330
EF
102
}
330
EF
100
AcDbVisualStyle
  2
FlatWithEdges
 70
     1
 71
     2
 72
     1
 73
     1
 90
        2
 40
-0.6
 41
30.0
 62
     5
 63
     7
 74
     1
 91
        4
 64
     7
 65
   257
 75
     1
175
     1
 42
1.0
 92
        0
 66
   257
 43
1.0
 76
     1
 77
     6
 78
     2
 67
     7
 79
     5
170
     0
171
     0
290
     0
174
     0
 93
        1
 44
0.0
173
     0
291
     1
 45
0.0
1001
ACAD
1000
AcDbSavedByObjectVersion
1070
     0
  0
VISUALSTYLE
  5
F2
102
{ACAD_REACTORS
330
EF
102
}
330
EF
100
AcDbVisualStyle
  2
Gouraud
 70
     2
 71
     2
 72
     2
 73
     1
 90
        2
 40
-0.6
 41
30.0
 62
     5
 63
     7
 74
     0
 91
        4
 64
     7
 65
   257
 75
     1
175
     1
 42
1.0
 92
        0
 66
     7
 43
1.0
 76
     1
 77
     6
 78
     2
 67
     7
 79
     5
170
     0
171
     0
290
     0
174
     0
 93
        1
 44
0.0
173
     0
291
     1
 45
0.0
1001
ACAD
1000
AcDbSavedByObjectVersion
1070
     0
  0
VISUALSTYLE
  5
F3
102
{ACAD_REACTORS
330
EF
102
}
330
EF
100
AcDbVisualStyle
  2
GouraudWithEdges
 70
     3
 71
     2
 72
     2
 73
     1
 90
        2
 40
-0.6
 41
30.0
 62
     5
 63
     7
 74
     1
 91
        4
 64
     7
 65
   257
 75
     1
175
     1
 42
1.0
 92
        0
 66
   257
 43
1.0
 76
     1
 77
     6
 78
     2
 67
     7
 79
     5
170
     0
171
     0
290
     0
174
     0
 93
        1
 44
0.0
173
     0
291
     1
 45
0.0
1001
ACAD
1000
AcDbSavedByObjectVersion
1070
     0
  0
VISUALSTYLE
  5
FD
102
{ACAD_REACTORS
330
EF
102
}
330
EF
100
AcDbVisualStyle
  2
Linepattern
 70
    14
 71
     2
 72
     2
 73
     1
 90
        0
 40
-0.6
 41
-30.0
 62
     5
 63
     7
 74
     1
 91
        4
 64
     7
 65
   257
 75
     7
175
     7
 42
1.0
 92
        8
 66
     7
 43
1.0
 76
     1
 77
     6
 78
     2
 67
     7
 79
     5
170
     0
171
     0
290
     0
174
     0
 93
        1
 44
0.0
173
     0
291
     1
 45
0.0
1001
ACAD
1000
AcDbSavedByObjectVersion
1070
     0
  0
VISUALSTYLE
  5
F9
102
{ACAD_REACTORS
330
EF
102
}
330
EF
100
AcDbVisualStyle
  2
Realistic
 70
     8
 71
     2
 72
     2
 73
     1
 90
        0
 40
-0.6
 41
-30.0
 62
     5
 63
     7
 74
     1
 91
        0
 64
     7
 65
   257
 75
     1
175
     1
 42
1.0
 92
        8
 66
     8
 43
1.0
 76
     1
 77
     6
 78
     2
 67
     7
 79
     5
170
     0
171
     0
290
     0
174
     0
 93
       13
 44
0.0
173
     0
291
     0
 45
0.0
1001
ACAD
1000
AcDbSavedByObjectVersion
1070
     0
  0
VISUALSTYLE
  5
FC
102
{ACAD_REACTORS
330
EF
102
}
330
EF
100
AcDbVisualStyle
  2
Thicken
 70
    13
 71
     2
 72
     2
 73
     1
 90
        0
 40
-0.6
 41
-30.0
 62
     5
 63
     7
 74
     1
 91
        4
 64
     7
 65
   257
 75
     1
175
     1
 42
1.0
 92
       12
 66
     7
 43
1.0
 76
     1
 77
     6
 78
     2
 67
     7
 79
     5
170
     0
171
     0
290
     0
174
     0
 93
        1
 44
0.0
173
     0
291
     1
 45
0.0
1001
ACAD
1000
AcDbSavedByObjectVersion
1070
     0
  0
DICTIONARYVAR
  5
146
102
{ACAD_REACTORS
330
5E
102
}
330
5E
100
DictionaryVariables
280
     0
  1
1:1
  0
DICTIONARYVAR
  5
145
102
{ACAD_REACTORS
330
5E
102
}
330
5E
100
DictionaryVariables
280
     0
  1
STANDARD
  0
DICTIONARYVAR
  5
84
102
{ACAD_REACTORS
330
5E
102
}
330
5E
100
DictionaryVariables
280
     0
  1
STANDARD
  0
DICTIONARYVAR
  5
5F
102
{ACAD_REACTORS
330
5E
102
}
330
5E
100
DictionaryVariables
280
     0
  1
2
  0
DICTIONARYVAR
  5
63
102
{ACAD_REACTORS
330
5E
102
}
330
5E
100
DictionaryVariables
280
     0
  1
1
  0
DICTIONARYVAR
  5
42E
102
{ACAD_REACTORS
330
5E
102
}
330
5E
100
DictionaryVariables
280
     0
  1
0
  0
DICTIONARYVAR
  5
42C
102
{ACAD_REACTORS
330
5E
102
}
330
5E
100
DictionaryVariables
280
     0
  1
2
  0
DICTIONARYVAR
  5
42B
102
{ACAD_REACTORS
330
5E
102
}
330
5E
100
DictionaryVariables
280
     0
  1
1
  0
DICTIONARYVAR
  5
430
102
{ACAD_REACTORS
330
5E
102
}
330
5E
100
DictionaryVariables
280
     0
  1
80.000000
  0
DICTIONARYVAR
  5
42F
102
{ACAD_REACTORS
330
5E
102
}
330
5E
100
DictionaryVariables
280
     0
  1
5.000000
  0
DICTIONARYVAR
  5
42D
102
{ACAD_REACTORS
330
5E
102
}
330
5E
100
DictionaryVariables
280
     0
  1
127
  0
DICTIONARY
  5
436
330
D3
100
AcDbDictionary
280
     1
281
     1
  3
ACAD_XREC_ROUNDTRIP
360
437
  0
DICTIONARY
  5
438
330
D7
100
AcDbDictionary
280
     1
281
     1
  3
ACAD_XREC_ROUNDTRIP
360
439
  0
DICTIONARY
  5
433
330
22
100
AcDbDictionary
280
     1
281
     1
  3
ACAD_XREC_ROUNDTRIP
360
434
  0
DICTIONARY
  5
43C
330
ED
100
AcDbDictionary
280
     1
281
     1
  3
ACAD_XREC_ROUNDTRIP
360
43D
  0
DICTIONARY
  5
43A
330
EC
100
AcDbDictionary
280
     1
281
     1
  3
ACAD_XREC_ROUNDTRIP
360
43B
  0
DICTIONARY
  5
173
330
EE
100
AcDbDictionary
280
     1
281
     1
  3
ACAD_XREC_ROUNDTRIP
360
43E
  3
BUMPTILE
360
175
  3
DIFFUSETILE
360
174
  3
OPACITYTILE
360
176
  3
REFLECTIONTILE
360
177
  0
DICTIONARY
  5
162
330
7F
100
AcDbDictionary
280
     1
281
     1
  3
ACAD_ROUNDTRIP_2008_TABLESTYLE_CELLSTYLEMAP
360
431
  3
ACAD_XREC_ROUNDTRIP
360
435
  0
XRECORD
  5
437
102
{ACAD_REACTORS
330
436
102
}
330
436
100
AcDbXrecord
280
     1
102
SHADEPLOT
 70
     0
102
SHADEPLOTRESLEVEL
 70
     2
102
SHADEPLOTCUSTOMDPI
 70
   300
  0
XRECORD
  5
439
102
{ACAD_REACTORS
330
438
102
}
330
438
100
AcDbXrecord
280
     1
102
SHADEPLOT
 70
     0
102
SHADEPLOTRESLEVEL
 70
     2
102
SHADEPLOTCUSTOMDPI
 70
   300
  0
XRECORD
  5
434
102
{ACAD_REACTORS
330
433
102
}
330
433
100
AcDbXrecord
280
     1
102
SHADEPLOT
 70
     0
102
SHADEPLOTRESLEVEL
 70
     2
102
SHADEPLOTCUSTOMDPI
 70
   300
  0
XRECORD
  5
43D
102
{ACAD_REACTORS
330
43C
102
}
330
43C
100
AcDbXrecord
280
     1
102
MATERIAL
148
0.0
149
0.0
149
0.0
 93
        0
 94
       63
282
     0
 72
     1
 77
     1
171
     1
175
     1
179
     1
273
     0
  0
XRECORD
  5
43B
102
{ACAD_REACTORS
330
43A
102
}
330
43A
100
AcDbXrecord
280
     1
102
MATERIAL
148
0.0
149
0.0
149
0.0
 93
        0
 94
       63
282
     0
 72
     1
 77
     1
171
     1
175
     1
179
     1
273
     0
  0
XRECORD
  5
43E
102
{ACAD_REACTORS
330
173
102
}
330
173
100
AcDbXrecord
280
     1
102
MATERIAL
148
0.0
149
0.0
149
0.0
 93
        0
 94
       63
282
     0
 72
     1
 77
     1
171
     1
175
     1
179
     1
273
     0
  0
XRECORD
  5
175
102
{ACAD_REACTORS
330
173
102
}
330
173
100
AcDbXrecord
280
     1
270
     1
271
     1
  0
XRECORD
  5
174
102
{ACAD_REACTORS
330
173
102
}
330
173
100
AcDbXrecord
280
     1
270
     1
271
     1
  0
XRECORD
  5
176
102
{ACAD_REACTORS
330
173
102
}
330
173
100
AcDbXrecord
280
     1
270
     1
271
     1
  0
XRECORD
  5
177
102
{ACAD_REACTORS
330
173
102
}
330
173
100
AcDbXrecord
280
     1
270
     1
271
     1
  0
CELLSTYLEMAP
  5
431
102
{ACAD_REACTORS
330
162
102
}
330
162
100
AcDbCellStyleMap
 90
        3
300
CELLSTYLE
  1
TABLEFORMAT_BEGIN
 90
        5
170
     1
 91
        0
 92
    32768
 62
   257
 93
        1
300
CONTENTFORMAT
  1
CONTENTFORMAT_BEGIN
 90
        0
 91
        0
 92
      512
 93
        0
300

 40
0.0
140
1.0
 94
        5
 62
     0
340
11
144
6.0
309
CONTENTFORMAT_END
171
     1
301
MARGIN
  1
CELLMARGIN_BEGIN
 40
1.5
 40
1.5
 40
1.5
 40
1.5
 40
4.5
 40
4.5
309
CELLMARGIN_END
 94
        6
 95
        1
302
GRIDFORMAT
  1
GRIDFORMAT_BEGIN
 90
        0
 91
        1
 62
     0
 92
       -2
340
14
 93
        0
 40
1.125
309
GRIDFORMAT_END
 95
        2
302
GRIDFORMAT
  1
GRIDFORMAT_BEGIN
 90
        0
 91
        1
 62
     0
 92
       -2
340
14
 93
        0
 40
1.125
309
GRIDFORMAT_END
 95
        4
302
GRIDFORMAT
  1
GRIDFORMAT_BEGIN
 90
        0
 91
        1
 62
     0
 92
       -2
340
14
 93
        0
 40
1.125
309
GRIDFORMAT_END
 95
        8
302
GRIDFORMAT
  1
GRIDFORMAT_BEGIN
 90
        0
 91
        1
 62
     0
 92
       -2
340
14
 93
        0
 40
1.125
309
GRIDFORMAT_END
 95
       16
302
GRIDFORMAT
  1
GRIDFORMAT_BEGIN
 90
        0
 91
        1
 62
     0
 92
       -2
340
14
 93
        0
 40
1.125
309
GRIDFORMAT_END
 95
       32
302
GRIDFORMAT
  1
GRIDFORMAT_BEGIN
 90
        0
 91
        1
 62
     0
 92
       -2
340
14
 93
        0
 40
1.125
309
GRIDFORMAT_END
309
TABLEFORMAT_END
  1
CELLSTYLE_BEGIN
 90
        1
 91
        1
300
_TITLE
309
CELLSTYLE_END
300
CELLSTYLE
  1
TABLEFORMAT_BEGIN
 90
        5
170
     1
 91
        0
 92
        0
 62
   257
 93
        1
300
CONTENTFORMAT
  1
CONTENTFORMAT_BEGIN
 90
        0
 91
        0
 92
      512
 93
        0
300

 40
0.0
140
1.0
 94
        5
 62
     0
340
11
144
4.5
309
CONTENTFORMAT_END
171
     1
301
MARGIN
  1
CELLMARGIN_BEGIN
 40
1.5
 40
1.5
 40
1.5
 40
1.5
 40
4.5
 40
4.5
309
CELLMARGIN_END
 94
        6
 95
        1
302
GRIDFORMAT
  1
GRIDFORMAT_BEGIN
 90
        0
 91
        1
 62
     0
 92
       -2
340
14
 93
        0
 40
1.125
309
GRIDFORMAT_END
 95
        2
302
GRIDFORMAT
  1
GRIDFORMAT_BEGIN
 90
        0
 91
        1
 62
     0
 92
       -2
340
14
 93
        0
 40
1.125
309
GRIDFORMAT_END
 95
        4
302
GRIDFORMAT
  1
GRIDFORMAT_BEGIN
 90
        0
 91
        1
 62
     0
 92
       -2
340
14
 93
        0
 40
1.125
309
GRIDFORMAT_END
 95
        8
302
GRIDFORMAT
  1
GRIDFORMAT_BEGIN
 90
        0
 91
        1
 62
     0
 92
       -2
340
14
 93
        0
 40
1.125
309
GRIDFORMAT_END
 95
       16
302
GRIDFORMAT
  1
GRIDFORMAT_BEGIN
 90
        0
 91
        1
 62
     0
 92
       -2
340
14
 93
        0
 40
1.125
309
GRIDFORMAT_END
 95
       32
302
GRIDFORMAT
  1
GRIDFORMAT_BEGIN
 90
        0
 91
        1
 62
     0
 92
       -2
340
14
 93
        0
 40
1.125
309
GRIDFORMAT_END
309
TABLEFORMAT_END
  1
CELLSTYLE_BEGIN
 90
        2
 91
        1
300
_HEADER
309
CELLSTYLE_END
300
CELLSTYLE
  1
TABLEFORMAT_BEGIN
 90
        5
170
     1
 91
        0
 92
        0
 62
   257
 93
        1
300
CONTENTFORMAT
  1
CONTENTFORMAT_BEGIN
 90
        0
 91
        0
 92
      512
 93
        0
300

 40
0.0
140
1.0
 94
        2
 62
     0
340
11
144
4.5
309
CONTENTFORMAT_END
171
     1
301
MARGIN
  1
CELLMARGIN_BEGIN
 40
1.5
 40
1.5
 40
1.5
 40
1.5
 40
4.5
 40
4.5
309
CELLMARGIN_END
 94
        6
 95
        1
302
GRIDFORMAT
  1
GRIDFORMAT_BEGIN
 90
        0
 91
        1
 62
     0
 92
       -2
340
14
 93
        0
 40
1.125
309
GRIDFORMAT_END
 95
        2
302
GRIDFORMAT
  1
GRIDFORMAT_BEGIN
 90
        0
 91
        1
 62
     0
 92
       -2
340
14
 93
        0
 40
1.125
309
GRIDFORMAT_END
 95
        4
302
GRIDFORMAT
  1
GRIDFORMAT_BEGIN
 90
        0
 91
        1
 62
     0
 92
       -2
340
14
 93
        0
 40
1.125
309
GRIDFORMAT_END
 95
        8
302
GRIDFORMAT
  1
GRIDFORMAT_BEGIN
 90
        0
 91
        1
 62
     0
 92
       -2
340
14
 93
        0
 40
1.125
309
GRIDFORMAT_END
 95
       16
302
GRIDFORMAT
  1
GRIDFORMAT_BEGIN
 90
        0
 91
        1
 62
     0
 92
       -2
340
14
 93
        0
 40
1.125
309
GRIDFORMAT_END
 95
       32
302
GRIDFORMAT
  1
GRIDFORMAT_BEGIN
 90
        0
 91
        1
 62
     0
 92
       -2
340
14
 93
        0
 40
1.125
309
GRIDFORMAT_END
309
TABLEFORMAT_END
  1
CELLSTYLE_BEGIN
 90
        3
 91
        2
300
_DATA
309
CELLSTYLE_END
  0
XRECORD
  5
435
102
{ACAD_REACTORS
330
162
102
}
330
162
100
AcDbXrecord
280
     1
102
ACAD_ROUNDTRIP_PRE2007_TABLESTYLE
 90
      512
 91
        0
  1

 92
      512
 93
        0
  2

 94
      512
 95
        0
  3

  0
ENDSEC
  0
EOF
