  0
SECTION
  2
HEADER
  9
$ACADVER
  1
AC1015
  9
$ACADMAINTVER
 70
    20
  9
$DWGCODEPAGE
  3
ANSI_1252
  9
$INSBASE
 10
0.0
 20
0.0
 30
0.0
  9
$EXTMIN
 10
34.3698130296192
 20
51.40489271912361
 30
-0.0015258207003583
  9
$EXTMAX
 10
306.8994149087223
 20
453.448883930278
 30
0.0000000349246037
  9
$LIMMIN
 10
0.0
 20
0.0
  9
$LIMMAX
 10
420.0
 20
297.0
  9
$ORTHOMODE
 70
     1
  9
$REGENMODE
 70
     1
  9
$FILLMODE
 70
     1
  9
$QTEXTMODE
 70
     0
  9
$MIRRTEXT
 70
     0
  9
$LTSCALE
 40
1.0
  9
$ATTMODE
 70
     1
  9
$TEXTSIZE
 40
2.5
  9
$TRACEWID
 40
1.0
  9
$TEXTSTYLE
  7
Standard
  9
$CLAYER
  8
0
  9
$CELTYPE
  6
ByLayer
  9
$CECOLOR
 62
   256
  9
$CELTSCALE
 40
1.0
  9
$DISPSILH
 70
     0
  9
$DIMSCALE
 40
1.0
  9
$DIMASZ
 40
2.5
  9
$DIMEXO
 40
0.625
  9
$DIMDLI
 40
3.75
  9
$DIMRND
 40
0.0
  9
$DIMDLE
 40
0.0
  9
$DIMEXE
 40
1.25
  9
$DIMTP
 40
0.0
  9
$DIMTM
 40
0.0
  9
$DIMTXT
 40
2.5
  9
$DIMCEN
 40
2.5
  9
$DIMTSZ
 40
0.0
  9
$DIMTOL
 70
     0
  9
$DIMLIM
 70
     0
  9
$DIMTIH
 70
     0
  9
$DIMTOH
 70
     0
  9
$DIMSE1
 70
     0
  9
$DIMSE2
 70
     0
  9
$DIMTAD
 70
     1
  9
$DIMZIN
 70
     8
  9
$DIMBLK
  1

  9
$DIMASO
 70
     1
  9
$DIMSHO
 70
     1
  9
$DIMPOST
  1

  9
$DIMAPOST
  1

  9
$DIMALT
 70
     0
  9
$DIMALTD
 70
     3
  9
$DIMALTF
 40
0.03937007874016
  9
$DIMLFAC
 40
1.0
  9
$DIMTOFL
 70
     1
  9
$DIMTVP
 40
0.0
  9
$DIMTIX
 70
     0
  9
$DIMSOXD
 70
     0
  9
$DIMSAH
 70
     0
  9
$DIMBLK1
  1

  9
$DIMBLK2
  1

  9
$DIMSTYLE
  2
ISO-25
  9
$DIMCLRD
 70
     0
  9
$DIMCLRE
 70
     0
  9
$DIMCLRT
 70
     0
  9
$DIMTFAC
 40
1.0
  9
$DIMGAP
 40
0.625
  9
$DIMJUST
 70
     0
  9
$DIMSD1
 70
     0
  9
$DIMSD2
 70
     0
  9
$DIMTOLJ
 70
     0
  9
$DIMTZIN
 70
     8
  9
$DIMALTZ
 70
     0
  9
$DIMALTTZ
 70
     0
  9
$DIMUPT
 70
     0
  9
$DIMDEC
 70
     2
  9
$DIMTDEC
 70
     2
  9
$DIMALTU
 70
     2
  9
$DIMALTTD
 70
     3
  9
$DIMTXSTY
  7
Standard
  9
$DIMAUNIT
 70
     0
  9
$DIMADEC
 70
     0
  9
$DIMALTRND
 40
0.0
  9
$DIMAZIN
 70
     0
  9
$DIMDSEP
 70
    44
  9
$DIMATFIT
 70
     3
  9
$DIMFRAC
 70
     0
  9
$DIMLDRBLK
  1

  9
$DIMLUNIT
 70
     2
  9
$DIMLWD
 70
    -2
  9
$DIMLWE
 70
    -2
  9
$DIMTMOVE
 70
     0
  9
$LUNITS
 70
     2
  9
$LUPREC
 70
     4
  9
$SKETCHINC
 40
1.0
  9
$FILLETRAD
 40
0.0
  9
$AUNITS
 70
     0
  9
$AUPREC
 70
     0
  9
$MENU
  1
.
  9
$ELEVATION
 40
0.0
  9
$PELEVATION
 40
0.0
  9
$THICKNESS
 40
0.0
  9
$LIMCHECK
 70
     0
  9
$CHAMFERA
 40
0.0
  9
$CHAMFERB
 40
0.0
  9
$CHAMFERC
 40
0.0
  9
$CHAMFERD
 40
0.0
  9
$SKPOLY
 70
     0
  9
$TDCREATE
 40
2456617.641527072
  9
$TDUCREATE
 40
2456617.599860405
  9
$TDUPDATE
 40
2456617.647607350
  9
$TDUUPDATE
 40
2456617.605940683
  9
$TDINDWG
 40
0.0060806366
  9
$TDUSRTIMER
 40
0.0060806366
  9
$USRTIMER
 70
     1
  9
$ANGBASE
 50
0.0
  9
$ANGDIR
 70
     0
  9
$PDMODE
 70
     0
  9
$PDSIZE
 40
0.0
  9
$PLINEWID
 40
0.0
  9
$SPLFRAME
 70
     0
  9
$SPLINETYPE
 70
     6
  9
$SPLINESEGS
 70
     8
  9
$HANDSEED
  5
949
  9
$SURFTAB1
 70
     6
  9
$SURFTAB2
 70
     6
  9
$SURFTYPE
 70
     6
  9
$SURFU
 70
     6
  9
$SURFV
 70
     6
  9
$UCSBASE
  2

  9
$UCSNAME
  2

  9
$UCSORG
 10
0.0
 20
0.0
 30
0.0
  9
$UCSXDIR
 10
1.0
 20
0.0
 30
0.0
  9
$UCSYDIR
 10
0.0
 20
1.0
 30
0.0
  9
$UCSORTHOREF
  2

  9
$UCSORTHOVIEW
 70
     0
  9
$UCSORGTOP
 10
0.0
 20
0.0
 30
0.0
  9
$UCSORGBOTTOM
 10
0.0
 20
0.0
 30
0.0
  9
$UCSORGLEFT
 10
0.0
 20
0.0
 30
0.0
  9
$UCSORGRIGHT
 10
0.0
 20
0.0
 30
0.0
  9
$UCSORGFRONT
 10
0.0
 20
0.0
 30
0.0
  9
$UCSORGBACK
 10
0.0
 20
0.0
 30
0.0
  9
$PUCSBASE
  2

  9
$PUCSNAME
  2

  9
$PUCSORG
 10
0.0
 20
0.0
 30
0.0
  9
$PUCSXDIR
 10
1.0
 20
0.0
 30
0.0
  9
$PUCSYDIR
 10
0.0
 20
1.0
 30
0.0
  9
$PUCSORTHOREF
  2

  9
$PUCSORTHOVIEW
 70
     0
  9
$PUCSORGTOP
 10
0.0
 20
0.0
 30
0.0
  9
$PUCSORGBOTTOM
 10
0.0
 20
0.0
 30
0.0
  9
$PUCSORGLEFT
 10
0.0
 20
0.0
 30
0.0
  9
$PUCSORGRIGHT
 10
0.0
 20
0.0
 30
0.0
  9
$PUCSORGFRONT
 10
0.0
 20
0.0
 30
0.0
  9
$PUCSORGBACK
 10
0.0
 20
0.0
 30
0.0
  9
$USERI1
 70
     0
  9
$USERI2
 70
     0
  9
$USERI3
 70
     0
  9
$USERI4
 70
     0
  9
$USERI5
 70
     0
  9
$USERR1
 40
0.0
  9
$USERR2
 40
0.0
  9
$USERR3
 40
0.0
  9
$USERR4
 40
0.0
  9
$USERR5
 40
0.0
  9
$WORLDVIEW
 70
     1
  9
$SHADEDGE
 70
     3
  9
$SHADEDIF
 70
    70
  9
$TILEMODE
 70
     1
  9
$MAXACTVP
 70
    64
  9
$PINSBASE
 10
0.0
 20
0.0
 30
0.0
  9
$PLIMCHECK
 70
     0
  9
$PEXTMIN
 10
0.0
 20
0.0
 30
0.0
  9
$PEXTMAX
 10
0.0
 20
0.0
 30
0.0
  9
$PLIMMIN
 10
0.0
 20
0.0
  9
$PLIMMAX
 10
12.0
 20
9.0
  9
$UNITMODE
 70
     0
  9
$VISRETAIN
 70
     1
  9
$PLINEGEN
 70
     0
  9
$PSLTSCALE
 70
     1
  9
$TREEDEPTH
 70
  3020
  9
$CMLSTYLE
  2
Standard
  9
$CMLJUST
 70
     0
  9
$CMLSCALE
 40
20.0
  9
$PROXYGRAPHICS
 70
     1
  9
$MEASUREMENT
 70
     1
  9
$CELWEIGHT
370
    -1
  9
$ENDCAPS
280
     0
  9
$JOINSTYLE
280
     0
  9
$LWDISPLAY
290
     0
  9
$INSUNITS
 70
     4
  9
$HYPERLINKBASE
  1

  9
$STYLESHEET
  1

  9
$XEDIT
290
     1
  9
$CEPSNTYPE
380
     0
  9
$PSTYLEMODE
290
     1
  9
$FINGERPRINTGUID
  2
{F7A59C0A-9480-4D10-BB52-1C13A05166AC}
  9
$VERSIONGUID
  2
{7A692A20-BC09-4065-8688-8D881D122701}
  9
$EXTNAMES
290
     1
  9
$PSVPSCALE
 40
0.0
  9
$OLESTARTUP
290
     0
  0
ENDSEC
  0
SECTION
  2
CLASSES
  0
CLASS
  1
ACDBDICTIONARYWDFLT
  2
AcDbDictionaryWithDefault
  3
ObjectDBX Classes
 90
        0
280
     0
281
     0
  0
CLASS
  1
ACDBPLACEHOLDER
  2
AcDbPlaceHolder
  3
ObjectDBX Classes
 90
        0
280
     0
281
     0
  0
CLASS
  1
LAYOUT
  2
AcDbLayout
  3
ObjectDBX Classes
 90
        0
280
     0
281
     0
  0
CLASS
  1
DICTIONARYVAR
  2
AcDbDictionaryVar
  3
ObjectDBX Classes
 90
        0
280
     0
281
     0
  0
CLASS
  1
TABLESTYLE
  2
AcDbTableStyle
  3
ObjectDBX Classes
 90
     4095
280
     0
281
     0
  0
CLASS
  1
MATERIAL
  2
AcDbMaterial
  3
ObjectDBX Classes
 90
     1153
280
     0
281
     0
  0
CLASS
  1
VISUALSTYLE
  2
AcDbVisualStyle
  3
ObjectDBX Classes
 90
     4095
280
     0
281
     0
  0
CLASS
  1
SCALE
  2
AcDbScale
  3
ObjectDBX Classes
 90
     1153
280
     0
281
     0
  0
CLASS
  1
MLEADERSTYLE
  2
AcDbMLeaderStyle
  3
ACDB_MLEADERSTYLE_CLASS
 90
     4095
280
     0
281
     0
  0
CLASS
  1
CELLSTYLEMAP
  2
AcDbCellStyleMap
  3
ObjectDBX Classes
 90
     1152
280
     0
281
     0
  0
CLASS
  1
SORTENTSTABLE
  2
AcDbSortentsTable
  3
ObjectDBX Classes
 90
        0
280
     0
281
     0
  0
ENDSEC
  0
SECTION
  2
TABLES
  0
TABLE
  2
VPORT
  5
8
330
0
100
AcDbSymbolTable
 70
     1
  0
VPORT
  5
EA
330
8
100
AcDbSymbolTableRecord
100
AcDbViewportTableRecord
  2
*Active
 70
     0
 10
0.0
 20
0.0
 11
1.0
 21
1.0
 12
170.6346139691707
 22
252.4268883247008
 13
0.0
 23
0.0
 14
10.0
 24
10.0
 15
10.0
 25
10.0
 16
0.0
 26
0.0
 36
1.0
 17
0.0
 27
0.0
 37
0.0
 40
405.7381167046719
 41
1.168711656441717
 42
50.0
 43
0.0
 44
0.0
 50
0.0
 51
0.0
 71
     0
 72
  1000
 73
     1
 74
     3
 75
     0
 76
     0
 77
     0
 78
     0
281
     0
 65
     1
110
0.0
120
0.0
130
0.0
111
1.0
121
0.0
131
0.0
112
0.0
122
1.0
132
0.0
 79
     0
146
0.0
  0
ENDTAB
  0
TABLE
  2
LTYPE
  5
5
330
0
100
AcDbSymbolTable
 70
     1
  0
LTYPE
  5
14
330
5
100
AcDbSymbolTableRecord
100
AcDbLinetypeTableRecord
  2
ByBlock
 70
     0
  3

 72
    65
 73
     0
 40
0.0
  0
LTYPE
  5
15
330
5
100
AcDbSymbolTableRecord
100
AcDbLinetypeTableRecord
  2
ByLayer
 70
     0
  3

 72
    65
 73
     0
 40
0.0
  0
LTYPE
  5
16
330
5
100
AcDbSymbolTableRecord
100
AcDbLinetypeTableRecord
  2
Continuous
 70
     0
  3
Solid line
 72
    65
 73
     0
 40
0.0
  0
ENDTAB
  0
TABLE
  2
LAYER
  5
2
330
0
100
AcDbSymbolTable
 70
     2
  0
LAYER
  5
10
102
{ACAD_XDICTIONARY
360
13C
102
}
330
2
100
AcDbSymbolTableRecord
100
AcDbLayerTableRecord
  2
0
 70
     0
 62
     7
  6
Continuous
370
    -3
390
F
  0
LAYER
  5
813
330
2
100
AcDbSymbolTableRecord
100
AcDbLayerTableRecord
  2
Defpoints
 70
     0
 62
     7
  6
Continuous
290
     0
370
    -3
390
F
  0
ENDTAB
  0
TABLE
  2
STYLE
  5
3
330
0
100
AcDbSymbolTable
 70
     2
  0
STYLE
  5
11
330
3
100
AcDbSymbolTableRecord
100
AcDbTextStyleTableRecord
  2
Standard
 70
     0
 40
0.0
 41
1.0
 50
0.0
 71
     0
 42
2.5
  3
txt.shx
  4

  0
STYLE
  5
132
330
3
100
AcDbSymbolTableRecord
100
AcDbTextStyleTableRecord
  2
Annotativa
 70
     0
 40
0.0
 41
1.0
 50
0.0
 71
     0
 42
2.5
  3
txt.shx
  4

1001
AcadAnnotative
1000
AnnotativeData
1002
{
1070
     1
1070
     1
1002
}
  0
ENDTAB
  0
TABLE
  2
VIEW
  5
6
330
0
100
AcDbSymbolTable
 70
     2
  0
ENDTAB
  0
TABLE
  2
UCS
  5
7
330
0
100
AcDbSymbolTable
 70
     0
  0
ENDTAB
  0
TABLE
  2
APPID
  5
9
330
0
100
AcDbSymbolTable
 70
     7
  0
APPID
  5
12
330
9
100
AcDbSymbolTableRecord
100
AcDbRegAppTableRecord
  2
ACAD
 70
     0
  0
APPID
  5
9E
330
9
100
AcDbSymbolTableRecord
100
AcDbRegAppTableRecord
  2
ACAD_PSEXT
 70
     0
  0
APPID
  5
133
330
9
100
AcDbSymbolTableRecord
100
AcDbRegAppTableRecord
  2
AcadAnnoPO
 70
     0
  0
APPID
  5
134
330
9
100
AcDbSymbolTableRecord
100
AcDbRegAppTableRecord
  2
AcadAnnotative
 70
     0
  0
APPID
  5
135
330
9
100
AcDbSymbolTableRecord
100
AcDbRegAppTableRecord
  2
ACAD_DSTYLE_DIMJAG
 70
     0
  0
APPID
  5
136
330
9
100
AcDbSymbolTableRecord
100
AcDbRegAppTableRecord
  2
ACAD_DSTYLE_DIMTALN
 70
     0
  0
APPID
  5
165
330
9
100
AcDbSymbolTableRecord
100
AcDbRegAppTableRecord
  2
ACAD_MLEADERVER
 70
     0
  0
ENDTAB
  0
TABLE
  2
DIMSTYLE
  5
A
330
0
100
AcDbSymbolTable
 70
     3
100
AcDbDimStyleTable
 71
     2
340
27
340
137
  0
DIMSTYLE
105
27
330
A
100
AcDbSymbolTableRecord
100
AcDbDimStyleTableRecord
  2
ISO-25
 70
     0
 41
2.5
 42
0.625
 43
3.75
 44
1.25
 73
     0
 74
     0
 77
     1
 78
     8
140
2.5
141
2.5
143
0.03937007874016
147
0.625
171
     3
172
     1
271
     2
272
     2
274
     3
278
    44
283
     0
284
     8
340
11
  0
DIMSTYLE
105
137
330
A
100
AcDbSymbolTableRecord
100
AcDbDimStyleTableRecord
  2
Annotativa
 70
     0
 40
0.0
 41
2.5
 42
0.625
 43
3.75
 44
1.25
 73
     0
 74
     0
 77
     1
 78
     8
140
2.5
141
2.5
143
0.03937007874016
147
0.625
171
     3
172
     1
271
     2
272
     2
274
     3
278
    44
283
     0
284
     8
340
11
1001
AcadAnnotative
1000
AnnotativeData
1002
{
1070
     1
1070
     1
1002
}
1001
ACAD_DSTYLE_DIMJAG
1070
   388
1040
1.5
1001
ACAD_DSTYLE_DIMTALN
1070
   392
1070
     0
  0
DIMSTYLE
105
814
102
{ACAD_REACTORS
330
816
330
817
330
81D
330
8C5
330
81E
102
}
330
A
100
AcDbSymbolTableRecord
100
AcDbDimStyleTableRecord
  2
Standard
 70
     0
340
11
  0
ENDTAB
  0
TABLE
  2
BLOCK_RECORD
  5
1
330
0
100
AcDbSymbolTable
 70
     8
  0
BLOCK_RECORD
  5
1F
330
1
100
AcDbSymbolTableRecord
100
AcDbBlockTableRecord
  2
*Model_Space
340
22
  0
BLOCK_RECORD
  5
D2
330
1
100
AcDbSymbolTableRecord
100
AcDbBlockTableRecord
  2
*Paper_Space
340
D3
  0
BLOCK_RECORD
  5
D6
330
1
100
AcDbSymbolTableRecord
100
AcDbBlockTableRecord
  2
*Paper_Space0
340
D7
  0
BLOCK_RECORD
  5
7F9
330
1
100
AcDbSymbolTableRecord
100
AcDbBlockTableRecord
  2
*D2
340
0
  0
BLOCK_RECORD
  5
806
330
1
100
AcDbSymbolTableRecord
100
AcDbBlockTableRecord
  2
*D3
340
0
  0
BLOCK_RECORD
  5
81F
330
1
100
AcDbSymbolTableRecord
100
AcDbBlockTableRecord
  2
*D5
340
0
  0
BLOCK_RECORD
  5
82C
330
1
100
AcDbSymbolTableRecord
100
AcDbBlockTableRecord
  2
*D6
340
0
  0
BLOCK_RECORD
  5
8C6
330
1
100
AcDbSymbolTableRecord
100
AcDbBlockTableRecord
  2
*D7
340
0
  0
ENDTAB
  0
ENDSEC
  0
SECTION
  2
BLOCKS
  0
BLOCK
  5
20
330
1F
100
AcDbEntity
  8
0
100
AcDbBlockBegin
  2
*Model_Space
 70
     0
 10
0.0
 20
0.0
 30
0.0
  3
*Model_Space
  1

  0
ENDBLK
  5
21
330
1F
100
AcDbEntity
  8
0
100
AcDbBlockEnd
  0
BLOCK
  5
D4
330
D2
100
AcDbEntity
 67
     1
  8
0
100
AcDbBlockBegin
  2
*Paper_Space
 70
     0
 10
0.0
 20
0.0
 30
0.0
  3
*Paper_Space
  1

  0
ENDBLK
  5
D5
330
D2
100
AcDbEntity
 67
     1
  8
0
100
AcDbBlockEnd
  0
BLOCK
  5
D8
330
D6
100
AcDbEntity
 67
     1
  8
0
100
AcDbBlockBegin
  2
*Paper_Space0
 70
     0
 10
0.0
 20
0.0
 30
0.0
  3
*Paper_Space0
  1

  0
ENDBLK
  5
D9
330
D6
100
AcDbEntity
 67
     1
  8
0
100
AcDbBlockEnd
  0
BLOCK
  5
7FA
330
7F9
100
AcDbEntity
  8
0
100
AcDbBlockBegin
  2
*D2
 70
     1
 10
0.0
 20
0.0
 30
0.0
  3
*D2
  1

  0
LINE
  5
7FB
330
7F9
100
AcDbEntity
  8
0
 62
     0
370
    -2
100
AcDbLine
 10
30.29154784544664
 20
58.25160657064014
 30
0.0
 11
30.29154784544664
 21
107.8664876207279
 31
0.0
  0
LINE
  5
7FC
330
7F9
100
AcDbEntity
  8
0
 62
     0
370
    -2
100
AcDbLine
 10
155.6405478454466
 20
58.25160657064014
 30
0.0
 11
155.6405478454466
 21
107.8664876207279
 31
0.0
  0
LINE
  5
7FD
330
7F9
100
AcDbEntity
  8
0
 62
     0
370
    -2
100
AcDbLine
 10
40.29154784544664
 20
106.6164876207278
 30
0.0
 11
73.56777420653211
 21
106.6164876207278
 31
0.0
  0
LINE
  5
7FE
330
7F9
100
AcDbEntity
  8
0
 62
     0
370
    -2
100
AcDbLine
 10
145.6405478454465
 20
106.6164876207278
 30
0.0
 11
113.1511075398654
 21
106.6164876207278
 31
0.0
  0
SOLID
  5
7FF
330
7F9
100
AcDbEntity
  8
0
 62
     0
100
AcDbTrace
 10
40.29154784544664
 20
108.2831542873945
 30
0.0
 11
40.29154784544664
 21
104.9498209540612
 31
0.0
 12
30.29154784544664
 22
106.6164876207278
 32
0.0
 13
30.29154784544664
 23
106.6164876207278
 33
0.0
  0
SOLID
  5
800
330
7F9
100
AcDbEntity
  8
0
 62
     0
100
AcDbTrace
 10
145.6405478454465
 20
108.2831542873945
 30
0.0
 11
145.6405478454465
 21
104.9498209540612
 31
0.0
 12
155.6405478454466
 22
106.6164876207278
 32
0.0
 13
155.6405478454466
 23
106.6164876207278
 33
0.0
  0
MTEXT
  5
801
330
7F9
100
AcDbEntity
  8
0
 62
     0
370
     0
100
AcDbMText
 10
93.35944087319877
 20
106.6164876207278
 30
0.0
 40
10.0
 41
0.0
 71
     5
 72
     1
  1
125,3
 73
     1
 44
1.0
1001
ACAD
1000
MTEXTBEGIN
1070
    73
1070
     1
1070
    44
1040
1.0
1070
    74
1070
     0
1000
MTEXTEND
  0
POINT
  5
802
330
7F9
100
AcDbEntity
  8
Defpoints
 62
     0
100
AcDbPoint
 10
30.29154784544664
 20
57.62660657064014
 30
0.0
  0
POINT
  5
803
330
7F9
100
AcDbEntity
  8
Defpoints
 62
     0
100
AcDbPoint
 10
155.6405478454466
 20
57.62660657064014
 30
0.0
  0
POINT
  5
804
330
7F9
100
AcDbEntity
  8
Defpoints
 62
     0
100
AcDbPoint
 10
155.6405478454466
 20
106.6164876207278
 30
0.0
  0
ENDBLK
  5
805
330
7F9
100
AcDbEntity
  8
0
100
AcDbBlockEnd
  0
BLOCK
  5
807
330
806
100
AcDbEntity
  8
0
100
AcDbBlockBegin
  2
*D3
 70
     1
 10
0.0
 20
0.0
 30
0.0
  3
*D3
  1

  0
LINE
  5
808
330
806
100
AcDbEntity
  8
0
 62
     0
370
    -2
100
AcDbLine
 10
63.63904784544661
 20
82.51860657064014
 30
-0.0000000000000001
 11
5.762120563822027
 21
82.51860657064016
 31
-0.0000000000000001
  0
LINE
  5
809
330
806
100
AcDbEntity
  8
0
 62
     0
370
    -2
100
AcDbLine
 10
63.76604784544664
 20
10.70010657064015
 30
-0.0000000000000001
 11
5.762120563822011
 21
10.70010657064016
 31
-0.0000000000000001
  0
LINE
  5
80A
330
806
100
AcDbEntity
  8
0
 62
     0
370
    -2
100
AcDbLine
 10
7.012120563822021
 20
72.51860657064016
 30
-0.0000000000000001
 11
7.012120563822017
 21
60.73427323730665
 31
-0.0000000000000001
  0
LINE
  5
80B
330
806
100
AcDbEntity
  8
0
 62
     0
370
    -2
100
AcDbLine
 10
7.012120563822008
 20
20.70010657064017
 30
-0.0000000000000001
 11
7.012120563822013
 21
31.15093990397334
 31
-0.0000000000000001
  0
SOLID
  5
80C
330
806
100
AcDbEntity
  8
0
 62
     0
100
AcDbTrace
 10
5.345453897155353
 20
72.51860657064016
 30
-0.0000000000000001
 11
8.678787230488687
 21
72.51860657064016
 31
-0.0000000000000001
 12
7.012120563822024
 22
82.51860657064016
 32
-0.0000000000000001
 13
7.012120563822024
 23
82.51860657064016
 33
-0.0000000000000001
  0
SOLID
  5
80D
330
806
100
AcDbEntity
  8
0
 62
     0
100
AcDbTrace
 10
5.345453897155341
 20
20.70010657064017
 30
-0.0000000000000001
 11
8.678787230488675
 21
20.70010657064016
 31
-0.0000000000000001
 12
7.012120563822008
 22
10.70010657064016
 32
-0.0000000000000001
 13
7.012120563822008
 23
10.70010657064016
 33
-0.0000000000000001
  0
MTEXT
  5
80E
330
806
100
AcDbEntity
  8
0
 62
     0
370
     0
100
AcDbMText
 10
7.012120563822008
 20
45.94260657064
 30
-0.0000000000000001
 40
10.0
 41
0.0
 71
     5
 72
     1
  1
71,8
 11
0.0000000000000001
 21
1.0
 31
0.0
 73
     1
 44
1.0
1001
ACAD
1000
MTEXTBEGIN
1070
    73
1070
     1
1070
    44
1040
1.0
1070
    74
1070
     0
1000
MTEXTEND
  0
POINT
  5
80F
330
806
100
AcDbEntity
  8
Defpoints
 62
     0
100
AcDbPoint
 10
64.26404784544661
 20
82.51860657064014
 30
0.0
  0
POINT
  5
810
330
806
100
AcDbEntity
  8
Defpoints
 62
     0
100
AcDbPoint
 10
64.39104784544665
 20
10.70010657064015
 30
0.0
  0
POINT
  5
811
330
806
100
AcDbEntity
  8
Defpoints
 62
     0
100
AcDbPoint
 10
7.012120563822008
 20
10.70010657064016
 30
-0.0000000000000001
  0
ENDBLK
  5
812
330
806
100
AcDbEntity
  8
0
100
AcDbBlockEnd
  0
BLOCK
  5
820
330
81F
100
AcDbEntity
  8
0
100
AcDbBlockBegin
  2
*D5
 70
     1
 10
0.0
 20
0.0
 30
0.0
  3
*D5
  1

  0
LINE
  5
912
330
81F
100
AcDbEntity
  8
0
 62
     0
370
    -2
100
AcDbLine
 10
62.40800423793124
 20
428.8586936046369
 30
0.0
 11
62.40800423793124
 21
449.6891069047006
 31
0.0
  0
LINE
  5
913
330
81F
100
AcDbEntity
  8
0
 62
     0
370
    -2
100
AcDbLine
 10
202.4966631038178
 20
428.8586936046369
 30
0.0
 11
202.4966631038178
 21
449.6891069047006
 31
0.0
  0
LINE
  5
914
330
81F
100
AcDbEntity
  8
0
 62
     0
370
    -2
100
AcDbLine
 10
72.40800423793124
 20
448.4391069047005
 30
0.0
 11
125.5334785809655
 21
448.4391069047005
 31
0.0
  0
LINE
  5
915
330
81F
100
AcDbEntity
  8
0
 62
     0
370
    -2
100
AcDbLine
 10
192.4966631038178
 20
448.4391069047005
 30
0.0
 11
148.4501452476322
 21
448.4391069047005
 31
0.0
  0
SOLID
  5
916
330
81F
100
AcDbEntity
  8
0
 62
     0
100
AcDbTrace
 10
72.40800423793124
 20
450.1057735713673
 30
0.0
 11
72.40800423793124
 21
446.7724402380339
 31
0.0
 12
62.40800423793124
 22
448.4391069047005
 32
0.0
 13
62.40800423793124
 23
448.4391069047005
 33
0.0
  0
SOLID
  5
917
330
81F
100
AcDbEntity
  8
0
 62
     0
100
AcDbTrace
 10
192.4966631038178
 20
450.1057735713673
 30
0.0
 11
192.4966631038178
 21
446.7724402380339
 31
0.0
 12
202.4966631038178
 22
448.4391069047005
 32
0.0
 13
202.4966631038178
 23
448.4391069047005
 33
0.0
  0
MTEXT
  5
918
330
81F
100
AcDbEntity
  8
0
 62
     0
370
     0
100
AcDbMText
 10
136.9918119142988
 20
448.4391069047005
 30
0.0
 40
10.0
 41
0.0
 71
     5
 72
     1
  1
140
 73
     1
 44
1.0
1001
ACAD
1000
MTEXTBEGIN
1070
    73
1070
     1
1070
    44
1040
1.0
1070
    74
1070
     0
1000
MTEXTEND
  0
POINT
  5
919
330
81F
100
AcDbEntity
  8
Defpoints
 62
     0
100
AcDbPoint
 10
62.40800423793124
 20
428.233693604637
 30
0.0
  0
POINT
  5
91A
330
81F
100
AcDbEntity
  8
Defpoints
 62
     0
100
AcDbPoint
 10
202.4966631038178
 20
428.233693604637
 30
0.0
  0
POINT
  5
91B
330
81F
100
AcDbEntity
  8
Defpoints
 62
     0
100
AcDbPoint
 10
202.4966631038178
 20
448.4391069047005
 30
0.0
  0
ENDBLK
  5
821
330
81F
100
AcDbEntity
  8
0
100
AcDbBlockEnd
  0
BLOCK
  5
82D
330
82C
100
AcDbEntity
  8
0
100
AcDbBlockBegin
  2
*D6
 70
     1
 10
0.0
 20
0.0
 30
0.0
  3
*D6
  1

  0
LINE
  5
91C
330
82C
100
AcDbEntity
  8
0
 62
     0
370
    -2
100
AcDbLine
 10
65.04088002550995
 20
431.4915693922156
 30
-0.0000000000000002
 11
38.12666149071088
 21
431.4915693922156
 31
-0.0000000000000002
  0
LINE
  5
91D
330
82C
100
AcDbEntity
  8
0
 62
     0
370
    -2
100
AcDbLine
 10
65.03524250329022
 20
51.40606328195364
 30
-0.0000000000000002
 11
38.1266614907108
 21
51.40606328195364
 31
-0.0000000000000002
  0
LINE
  5
91E
330
82C
100
AcDbEntity
  8
0
 62
     0
370
    -2
100
AcDbLine
 10
39.37666149071088
 20
421.4915693922156
 30
-0.0000000000000002
 11
39.37666149071084
 21
252.9808232526753
 31
-0.0000000000000002
  0
LINE
  5
91F
330
82C
100
AcDbEntity
  8
0
 62
     0
370
    -2
100
AcDbLine
 10
39.3766614907108
 20
61.40606328195364
 30
-0.0000000000000002
 11
39.37666149071084
 21
226.7308232526753
 31
-0.0000000000000002
  0
SOLID
  5
920
330
82C
100
AcDbEntity
  8
0
 62
     0
100
AcDbTrace
 10
37.70999482404422
 20
421.4915693922156
 30
-0.0000000000000002
 11
41.04332815737754
 21
421.4915693922156
 31
-0.0000000000000002
 12
39.37666149071088
 22
431.4915693922156
 32
-0.0000000000000002
 13
39.37666149071088
 23
431.4915693922156
 33
-0.0000000000000002
  0
SOLID
  5
921
330
82C
100
AcDbEntity
  8
0
 62
     0
100
AcDbTrace
 10
37.70999482404414
 20
61.40606328195364
 30
-0.0000000000000002
 11
41.04332815737746
 21
61.40606328195364
 31
-0.0000000000000002
 12
39.3766614907108
 22
51.40606328195364
 32
-0.0000000000000002
 13
39.3766614907108
 23
51.40606328195364
 33
-0.0000000000000002
  0
MTEXT
  5
922
330
82C
100
AcDbEntity
  8
0
 62
     0
370
     0
100
AcDbMText
 10
39.3766614907108
 20
239.8558232526753
 30
-0.0000000000000002
 40
10.0
 41
0.0
 71
     5
 72
     1
  1
380
 11
0.0000000000000001
 21
1.0
 31
0.0
 73
     1
 44
1.0
1001
ACAD
1000
MTEXTBEGIN
1070
    73
1070
     1
1070
    44
1040
1.0
1070
    74
1070
     0
1000
MTEXTEND
  0
POINT
  5
923
330
82C
100
AcDbEntity
  8
Defpoints
 62
     0
100
AcDbPoint
 10
65.66588002550995
 20
431.4915693922156
 30
0.0
  0
POINT
  5
924
330
82C
100
AcDbEntity
  8
Defpoints
 62
     0
100
AcDbPoint
 10
65.66024250329022
 20
51.40606328195364
 30
0.0
  0
POINT
  5
925
330
82C
100
AcDbEntity
  8
Defpoints
 62
     0
100
AcDbPoint
 10
39.3766614907108
 20
51.40606328195364
 30
-0.0000000000000002
  0
ENDBLK
  5
82E
330
82C
100
AcDbEntity
  8
0
100
AcDbBlockEnd
  0
BLOCK
  5
8C7
330
8C6
100
AcDbEntity
  8
0
100
AcDbBlockBegin
  2
*D7
 70
     1
 10
0.0
 20
0.0
 30
0.0
  3
*D7
  1

  0
LINE
  5
926
330
8C6
100
AcDbEntity
  8
0
 62
     0
370
    -2
100
AcDbLine
 10
277.4278062181293
 20
431.5735900942861
 30
0.0
 11
277.4278062181293
 21
449.6891069047006
 31
0.0
  0
LINE
  5
927
330
8C6
100
AcDbEntity
  8
0
 62
     0
370
    -2
100
AcDbLine
 10
279.5997234098485
 20
431.5735900942861
 30
0.0
 11
279.5997234098485
 21
449.6891069047006
 31
0.0
  0
LINE
  5
928
330
8C6
100
AcDbEntity
  8
0
 62
     0
370
    -2
100
AcDbLine
 10
267.4278062181293
 20
448.4391069047005
 30
0.0
 11
257.4278062181293
 21
448.4391069047005
 31
0.0
  0
LINE
  5
929
330
8C6
100
AcDbEntity
  8
0
 62
     0
370
    -2
100
AcDbLine
 10
289.5997234098485
 20
448.4391069047005
 30
0.0
 11
299.5997234098485
 21
448.4391069047005
 31
0.0
  0
LINE
  5
92A
330
8C6
100
AcDbEntity
  8
0
 62
     0
370
    -2
100
AcDbLine
 10
277.4278062181293
 20
448.4391069047005
 30
0.0
 11
279.5997234098485
 21
448.4391069047005
 31
0.0
  0
SOLID
  5
92B
330
8C6
100
AcDbEntity
  8
0
 62
     0
100
AcDbTrace
 10
267.4278062181293
 20
450.1057735713672
 30
0.0
 11
267.4278062181293
 21
446.7724402380339
 31
0.0
 12
277.4278062181293
 22
448.4391069047005
 32
0.0
 13
277.4278062181293
 23
448.4391069047005
 33
0.0
  0
SOLID
  5
92C
330
8C6
100
AcDbEntity
  8
0
 62
     0
100
AcDbTrace
 10
289.5997234098485
 20
450.1057735713672
 30
0.0
 11
289.5997234098485
 21
446.7724402380339
 31
0.0
 12
279.5997234098485
 22
448.4391069047005
 32
0.0
 13
279.5997234098485
 23
448.4391069047005
 33
0.0
  0
MTEXT
  5
92D
330
8C6
100
AcDbEntity
  8
0
 62
     0
370
     0
100
AcDbMText
 10
303.5580567431818
 20
448.4391069047005
 30
0.0
 40
10.0
 41
0.0
 71
     5
 72
     1
  1
2
 73
     1
 44
1.0
1001
ACAD
1000
MTEXTBEGIN
1070
    73
1070
     1
1070
    44
1040
1.0
1070
    74
1070
     0
1000
MTEXTEND
  0
POINT
  5
92E
330
8C6
100
AcDbEntity
  8
Defpoints
 62
     0
100
AcDbPoint
 10
277.4278062181293
 20
430.9485900942861
 30
0.0
  0
POINT
  5
92F
330
8C6
100
AcDbEntity
  8
Defpoints
 62
     0
100
AcDbPoint
 10
279.5997234098485
 20
430.9485900942861
 30
0.0
  0
POINT
  5
930
330
8C6
100
AcDbEntity
  8
Defpoints
 62
     0
100
AcDbPoint
 10
279.5997234098485
 20
448.4391069047005
 30
0.0
  0
ENDBLK
  5
8C8
330
8C6
100
AcDbEntity
  8
0
100
AcDbBlockEnd
  0
ENDSEC
  0
SECTION
  2
ENTITIES
  0
LWPOLYLINE
  5
4DE
330
1F
100
AcDbEntity
  8
0
 62
     0
370
     5
100
AcDbPolyline
 90
        2
 70
     0
 43
0.0
 10
149.8276712046278
 20
174.1193821734938
 10
149.8276712046278
 20
174.6623614714234
  0
SPLINE
  5
4DF
330
1F
100
AcDbEntity
  8
0
 62
     0
370
     5
100
AcDbSpline
210
0.0
220
0.0
230
1.0
 70
     8
 71
     3
 72
     8
 73
     4
 74
     0
 42
0.0000000001
 43
0.0000000001
 40
0.0
 40
0.0
 40
0.0
 40
0.0
 40
1.0
 40
1.0
 40
1.0
 40
1.0
 10
151.4566090984174
 20
173.5764028755642
 30
0.0
 10
150.9136298004876
 20
173.5764028755642
 30
0.0
 10
150.3706505025576
 20
173.5764028755642
 30
0.0
 10
149.8276712046278
 20
174.1193821734938
 30
0.0
  0
SPLINE
  5
4E0
330
1F
100
AcDbEntity
  8
0
 62
     0
370
     5
100
AcDbSpline
210
0.0
220
0.0
230
1.0
 70
     8
 71
     3
 72
    11
 73
     7
 74
     0
 42
0.0000000001
 43
0.0000000001
 40
0.0
 40
0.0
 40
0.0
 40
0.0
 40
1.0
 40
1.0
 40
1.0
 40
2.0
 40
2.0
 40
2.0
 40
2.0
 10
154.1715055880663
 20
175.7483200672831
 30
0.0
 10
154.1715055880663
 20
175.2053407693536
 30
0.0
 10
154.1715055880663
 20
174.1193821734938
 30
0.0
 10
153.6285262901363
 20
174.1193821734938
 30
0.0
 10
153.0855469922065
 20
173.5764028755642
 30
0.0
 10
152.5425676942769
 20
173.5764028755642
 30
0.0
 10
151.4566090984174
 20
173.5764028755642
 30
0.0
  0
SPLINE
  5
4E1
330
1F
100
AcDbEntity
  8
0
 62
     0
370
     5
100
AcDbSpline
210
0.0
220
0.0
230
1.0
 70
     8
 71
     3
 72
    11
 73
     7
 74
     0
 42
0.0000000001
 43
0.0000000001
 40
0.0
 40
0.0
 40
0.0
 40
0.0
 40
1.0
 40
1.0
 40
1.0
 40
2.0
 40
2.0
 40
2.0
 40
2.0
 10
152.5425676942769
 20
177.3772579610727
 30
0.0
 10
153.0855469922065
 20
177.3772579610727
 30
0.0
 10
153.6285262901363
 20
177.3772579610727
 30
0.0
 10
153.6285262901363
 20
176.8342786631428
 30
0.0
 10
154.1715055880663
 20
176.2912993652131
 30
0.0
 10
154.1715055880663
 20
176.2912993652131
 30
0.0
 10
154.1715055880663
 20
175.7483200672831
 30
0.0
  0
SPLINE
  5
4E2
330
1F
100
AcDbEntity
  8
0
 62
     0
370
     5
100
AcDbSpline
210
0.0
220
0.0
230
1.0
 70
     8
 71
     3
 72
    11
 73
     7
 74
     0
 42
0.0000000001
 43
0.0000000001
 40
0.0
 40
0.0
 40
0.0
 40
0.0
 40
1.0
 40
1.0
 40
1.0
 40
2.0
 40
2.0
 40
2.0
 40
2.0
 10
154.1715055880663
 20
179.0061958548621
 30
0.0
 10
154.1715055880663
 20
178.4632165569319
 30
0.0
 10
153.6285262901363
 20
178.4632165569319
 30
0.0
 10
153.6285262901363
 20
177.9202372590023
 30
0.0
 10
153.6285262901363
 20
177.9202372590023
 30
0.0
 10
153.0855469922065
 20
177.3772579610727
 30
0.0
 10
152.5425676942769
 20
177.3772579610727
 30
0.0
  0
SPLINE
  5
4E3
330
1F
100
AcDbEntity
  8
0
 62
     0
370
     5
100
AcDbSpline
210
0.0
220
0.0
230
1.0
 70
     8
 71
     3
 72
    11
 73
     7
 74
     0
 42
0.0000000001
 43
0.0000000001
 40
0.0
 40
0.0
 40
0.0
 40
0.0
 40
1.0
 40
1.0
 40
1.0
 40
2.0
 40
2.0
 40
2.0
 40
2.0
 10
151.9995883963471
 20
180.6351337486514
 30
0.0
 10
152.5425676942769
 20
180.6351337486514
 30
0.0
 10
153.0855469922065
 20
180.6351337486514
 30
0.0
 10
153.6285262901363
 20
180.6351337486514
 30
0.0
 10
153.6285262901363
 20
180.0921544507218
 30
0.0
 10
154.1715055880663
 20
179.5491751527917
 30
0.0
 10
154.1715055880663
 20
179.0061958548621
 30
0.0
  0
SPLINE
  5
4E4
330
1F
100
AcDbEntity
  8
0
 62
     0
370
     5
100
AcDbSpline
210
0.0
220
0.0
230
1.0
 70
     8
 71
     3
 72
     8
 73
     4
 74
     0
 42
0.0000000001
 43
0.0000000001
 40
0.0
 40
0.0
 40
0.0
 40
0.0
 40
1.0
 40
1.0
 40
1.0
 40
1.0
 10
149.8276712046278
 20
180.0921544507218
 30
0.0
 10
150.9136298004876
 20
180.6351337486514
 30
0.0
 10
151.4566090984174
 20
180.6351337486514
 30
0.0
 10
151.9995883963471
 20
180.6351337486514
 30
0.0
  0
LWPOLYLINE
  5
4E5
330
1F
100
AcDbEntity
  8
0
 62
     0
370
     5
100
AcDbPolyline
 90
        2
 70
     0
 43
0.0
 10
150.3706505025576
 20
179.5491751527917
 10
149.8276712046278
 20
180.0921544507218
  0
SPLINE
  5
4E6
330
1F
100
AcDbEntity
  8
0
 62
     0
370
     5
100
AcDbSpline
210
0.0
220
0.0
230
1.0
 70
     8
 71
     3
 72
     8
 73
     4
 74
     0
 42
0.0000000001
 43
0.0000000001
 40
0.0
 40
0.0
 40
0.0
 40
0.0
 40
1.0
 40
1.0
 40
1.0
 40
1.0
 10
151.9995883963471
 20
180.0921544507218
 30
0.0
 10
151.4566090984174
 20
180.0921544507218
 30
0.0
 10
150.9136298004876
 20
179.5491751527917
 30
0.0
 10
150.3706505025576
 20
179.5491751527917
 30
0.0
  0
SPLINE
  5
4E7
330
1F
100
AcDbEntity
  8
0
 62
     0
370
     5
100
AcDbSpline
210
0.0
220
0.0
230
1.0
 70
     8
 71
     3
 72
     8
 73
     4
 74
     0
 42
0.0000000001
 43
0.0000000001
 40
0.0
 40
0.0
 40
0.0
 40
0.0
 40
1.0
 40
1.0
 40
1.0
 40
1.0
 10
153.0855469922065
 20
179.0061958548621
 30
0.0
 10
153.0855469922065
 20
179.5491751527917
 30
0.0
 10
152.5425676942769
 20
180.0921544507218
 30
0.0
 10
151.9995883963471
 20
180.0921544507218
 30
0.0
  0
SPLINE
  5
4E8
330
1F
100
AcDbEntity
  8
0
 62
     0
370
     5
100
AcDbSpline
210
0.0
220
0.0
230
1.0
 70
     8
 71
     3
 72
    11
 73
     7
 74
     0
 42
0.0000000001
 43
0.0000000001
 40
0.0
 40
0.0
 40
0.0
 40
0.0
 40
1.0
 40
1.0
 40
1.0
 40
2.0
 40
2.0
 40
2.0
 40
2.0
 10
151.4566090984174
 20
177.9202372590023
 30
0.0
 10
151.9995883963471
 20
177.9202372590023
 30
0.0
 10
151.9995883963471
 20
177.9202372590023
 30
0.0
 10
152.5425676942769
 20
177.9202372590023
 30
0.0
 10
153.0855469922065
 20
178.4632165569319
 30
0.0
 10
153.0855469922065
 20
178.4632165569319
 30
0.0
 10
153.0855469922065
 20
179.0061958548621
 30
0.0
  0
LWPOLYLINE
  5
4E9
330
1F
100
AcDbEntity
  8
0
 62
     0
370
     5
100
AcDbPolyline
 90
        2
 70
     0
 43
0.0
 10
150.9136298004876
 20
177.9202372590023
 10
151.4566090984174
 20
177.9202372590023
  0
LWPOLYLINE
  5
4EA
330
1F
100
AcDbEntity
  8
0
 62
     0
370
     5
100
AcDbPolyline
 90
        2
 70
     0
 43
0.0
 10
150.9136298004876
 20
176.8342786631428
 10
150.9136298004876
 20
177.9202372590023
  0
LWPOLYLINE
  5
4EB
330
1F
100
AcDbEntity
  8
0
 62
     0
370
     5
100
AcDbPolyline
 90
        2
 70
     0
 43
0.0
 10
151.4566090984174
 20
176.8342786631428
 10
150.9136298004876
 20
176.8342786631428
  0
SPLINE
  5
4EC
330
1F
100
AcDbEntity
  8
0
 62
     0
370
     5
100
AcDbSpline
210
0.0
220
0.0
230
1.0
 70
     8
 71
     3
 72
    11
 73
     7
 74
     0
 42
0.0000000001
 43
0.0000000001
 40
0.0
 40
0.0
 40
0.0
 40
0.0
 40
1.0
 40
1.0
 40
1.0
 40
2.0
 40
2.0
 40
2.0
 40
2.0
 10
153.0855469922065
 20
175.7483200672831
 30
0.0
 10
153.0855469922065
 20
175.7483200672831
 30
0.0
 10
153.0855469922065
 20
176.2912993652131
 30
0.0
 10
152.5425676942769
 20
176.8342786631428
 30
0.0
 10
151.9995883963471
 20
176.8342786631428
 30
0.0
 10
151.9995883963471
 20
176.8342786631428
 30
0.0
 10
151.4566090984174
 20
176.8342786631428
 30
0.0
  0
SPLINE
  5
4ED
330
1F
100
AcDbEntity
  8
0
 62
     0
370
     5
100
AcDbSpline
210
0.0
220
0.0
230
1.0
 70
     8
 71
     3
 72
    11
 73
     7
 74
     0
 42
0.0000000001
 43
0.0000000001
 40
0.0
 40
0.0
 40
0.0
 40
0.0
 40
1.0
 40
1.0
 40
1.0
 40
2.0
 40
2.0
 40
2.0
 40
2.0
 10
151.4566090984174
 20
174.1193821734938
 30
0.0
 10
151.9995883963471
 20
174.1193821734938
 30
0.0
 10
152.5425676942769
 20
174.1193821734938
 30
0.0
 10
152.5425676942769
 20
174.6623614714234
 30
0.0
 10
153.0855469922065
 20
174.6623614714234
 30
0.0
 10
153.0855469922065
 20
175.2053407693536
 30
0.0
 10
153.0855469922065
 20
175.7483200672831
 30
0.0
  0
SPLINE
  5
4EE
330
1F
100
AcDbEntity
  8
0
 62
     0
370
     5
100
AcDbSpline
210
0.0
220
0.0
230
1.0
 70
     8
 71
     3
 72
     8
 73
     4
 74
     0
 42
0.0000000001
 43
0.0000000001
 40
0.0
 40
0.0
 40
0.0
 40
0.0
 40
1.0
 40
1.0
 40
1.0
 40
1.0
 10
149.8276712046278
 20
174.6623614714234
 30
0.0
 10
150.3706505025576
 20
174.6623614714234
 30
0.0
 10
150.9136298004876
 20
174.1193821734938
 30
0.0
 10
151.4566090984174
 20
174.1193821734938
 30
0.0
  0
LWPOLYLINE
  5
4EF
330
1F
100
AcDbEntity
  8
0
 62
     0
370
     5
100
AcDbPolyline
 90
        2
 70
     0
 43
0.0
 10
130.2804164791554
 20
173.033423577634
 10
125.3936027977873
 20
173.033423577634
  0
LWPOLYLINE
  5
4F0
330
1F
100
AcDbEntity
  8
0
 62
     0
370
     5
100
AcDbPolyline
 90
        2
 70
     0
 43
0.0
 10
130.2804164791554
 20
174.1193821734938
 10
130.2804164791554
 20
173.033423577634
  0
LWPOLYLINE
  5
4F1
330
1F
100
AcDbEntity
  8
0
 62
     0
370
     5
100
AcDbPolyline
 90
        2
 70
     0
 43
0.0
 10
127.0225406915765
 20
174.1193821734938
 10
130.2804164791554
 20
174.1193821734938
  0
LWPOLYLINE
  5
4F2
330
1F
100
AcDbEntity
  8
0
 62
     0
370
     5
100
AcDbPolyline
 90
        2
 70
     0
 43
0.0
 10
127.5655199895062
 20
174.6623614714234
 10
127.0225406915765
 20
174.1193821734938
  0
SPLINE
  5
4F3
330
1F
100
AcDbEntity
  8
0
 62
     0
370
     5
100
AcDbSpline
210
0.0
220
0.0
230
1.0
 70
     8
 71
     3
 72
    14
 73
    10
 74
     0
 42
0.0000000001
 43
0.0000000001
 40
0.0
 40
0.0
 40
0.0
 40
0.0
 40
1.0
 40
1.0
 40
1.0
 40
2.0
 40
2.0
 40
2.0
 40
3.0
 40
3.0
 40
3.0
 40
3.0
 10
129.7374371812257
 20
178.4632165569319
 30
0.0
 10
129.7374371812257
 20
177.9202372590023
 30
0.0
 10
129.7374371812257
 20
177.9202372590023
 30
0.0
 10
129.7374371812257
 20
177.3772579610727
 30
0.0
 10
129.7374371812257
 20
176.8342786631428
 30
0.0
 10
129.1944578832958
 20
176.8342786631428
 30
0.0
 10
129.1944578832958
 20
176.2912993652131
 30
0.0
 10
128.651478585366
 20
175.7483200672831
 30
0.0
 10
128.1084992874362
 20
175.2053407693536
 30
0.0
 10
127.5655199895062
 20
174.6623614714234
 30
0.0
  0
SPLINE
  5
4F4
330
1F
100
AcDbEntity
  8
0
 62
     0
370
     5
100
AcDbSpline
210
0.0
220
0.0
230
1.0
 70
     8
 71
     3
 72
    11
 73
     7
 74
     0
 42
0.0000000001
 43
0.0000000001
 40
0.0
 40
0.0
 40
0.0
 40
0.0
 40
1.0
 40
1.0
 40
1.0
 40
2.0
 40
2.0
 40
2.0
 40
2.0
 10
127.5655199895062
 20
180.6351337486514
 30
0.0
 10
128.651478585366
 20
180.6351337486514
 30
0.0
 10
129.1944578832958
 20
180.6351337486514
 30
0.0
 10
129.1944578832958
 20
180.0921544507218
 30
0.0
 10
129.7374371812257
 20
179.5491751527917
 30
0.0
 10
129.7374371812257
 20
179.0061958548621
 30
0.0
 10
129.7374371812257
 20
178.4632165569319
 30
0.0
  0
SPLINE
  5
4F5
330
1F
100
AcDbEntity
  8
0
 62
     0
370
     5
100
AcDbSpline
210
0.0
220
0.0
230
1.0
 70
     8
 71
     3
 72
     8
 73
     4
 74
     0
 42
0.0000000001
 43
0.0000000001
 40
0.0
 40
0.0
 40
0.0
 40
0.0
 40
1.0
 40
1.0
 40
1.0
 40
1.0
 10
127.5655199895062
 20
180.6351337486514
 30
0.0
 10
127.0225406915765
 20
180.6351337486514
 30
0.0
 10
126.4795613936468
 20
180.0921544507218
 30
0.0
 10
125.9365820957171
 20
179.5491751527917
 30
0.0
  0
LWPOLYLINE
  5
4F6
330
1F
100
AcDbEntity
  8
0
 62
     0
370
     5
100
AcDbPolyline
 90
        2
 70
     0
 43
0.0
 10
125.9365820957171
 20
179.0061958548621
 10
125.9365820957171
 20
179.5491751527917
  0
SPLINE
  5
4F7
330
1F
100
AcDbEntity
  8
0
 62
     0
370
     5
100
AcDbSpline
210
0.0
220
0.0
230
1.0
 70
     8
 71
     3
 72
     8
 73
     4
 74
     0
 42
0.0000000001
 43
0.0000000001
 40
0.0
 40
0.0
 40
0.0
 40
0.0
 40
1.0
 40
1.0
 40
1.0
 40
1.0
 10
127.5655199895062
 20
179.5491751527917
 30
0.0
 10
127.0225406915765
 20
179.5491751527917
 30
0.0
 10
126.4795613936468
 20
179.5491751527917
 30
0.0
 10
125.9365820957171
 20
179.0061958548621
 30
0.0
  0
SPLINE
  5
4F8
330
1F
100
AcDbEntity
  8
0
 62
     0
370
     5
100
AcDbSpline
210
0.0
220
0.0
230
1.0
 70
     8
 71
     3
 72
    11
 73
     7
 74
     0
 42
0.0000000001
 43
0.0000000001
 40
0.0
 40
0.0
 40
0.0
 40
0.0
 40
1.0
 40
1.0
 40
1.0
 40
2.0
 40
2.0
 40
2.0
 40
2.0
 10
129.1944578832958
 20
178.4632165569319
 30
0.0
 10
129.1944578832958
 20
178.4632165569319
 30
0.0
 10
129.1944578832958
 20
179.0061958548621
 30
0.0
 10
128.651478585366
 20
179.5491751527917
 30
0.0
 10
128.1084992874362
 20
179.5491751527917
 30
0.0
 10
128.1084992874362
 20
179.5491751527917
 30
0.0
 10
127.5655199895062
 20
179.5491751527917
 30
0.0
  0
SPLINE
  5
4F9
330
1F
100
AcDbEntity
  8
0
 62
     0
370
     5
100
AcDbSpline
210
0.0
220
0.0
230
1.0
 70
     8
 71
     3
 72
     8
 73
     4
 74
     0
 42
0.0000000001
 43
0.0000000001
 40
0.0
 40
0.0
 40
0.0
 40
0.0
 40
1.0
 40
1.0
 40
1.0
 40
1.0
 10
126.4795613936468
 20
174.6623614714234
 30
0.0
 10
127.5655199895062
 20
175.7483200672831
 30
0.0
 10
128.651478585366
 20
176.8342786631428
 30
0.0
 10
129.1944578832958
 20
178.4632165569319
 30
0.0
  0
LWPOLYLINE
  5
4FA
330
1F
100
AcDbEntity
  8
0
 62
     0
370
     5
100
AcDbPolyline
 90
        2
 70
     0
 43
0.0
 10
125.3936027977873
 20
174.1193821734938
 10
126.4795613936468
 20
174.6623614714234
  0
LWPOLYLINE
  5
4FB
330
1F
100
AcDbEntity
  8
0
 62
     0
370
     5
100
AcDbPolyline
 90
        2
 70
     0
 43
0.0
 10
125.3936027977873
 20
173.033423577634
 10
125.3936027977873
 20
174.1193821734938
  0
LWPOLYLINE
  5
4FC
330
1F
100
AcDbEntity
  8
0
 62
     0
370
     5
100
AcDbPolyline
 90
        2
 70
     0
 43
0.0
 10
104.2174101785255
 20
173.033423577634
 10
104.2174101785255
 20
179.5491751527917
  0
LWPOLYLINE
  5
4FD
330
1F
100
AcDbEntity
  8
0
 62
     0
370
     5
100
AcDbPolyline
 90
        2
 70
     0
 43
0.0
 10
105.3033687743848
 20
173.033423577634
 10
104.2174101785255
 20
173.033423577634
  0
LWPOLYLINE
  5
4FE
330
1F
100
AcDbEntity
  8
0
 62
     0
370
     5
100
AcDbPolyline
 90
        2
 70
     0
 43
0.0
 10
105.3033687743848
 20
180.6351337486514
 10
105.3033687743848
 20
173.033423577634
  0
LWPOLYLINE
  5
4FF
330
1F
100
AcDbEntity
  8
0
 62
     0
370
     5
100
AcDbPolyline
 90
        2
 70
     0
 43
0.0
 10
104.2174101785255
 20
180.6351337486514
 10
105.3033687743848
 20
180.6351337486514
  0
LWPOLYLINE
  5
500
330
1F
100
AcDbEntity
  8
0
 62
     0
370
     5
100
AcDbPolyline
 90
        2
 70
     0
 43
0.0
 10
103.1314515826657
 20
179.5491751527917
 10
104.2174101785255
 20
180.6351337486514
  0
LWPOLYLINE
  5
501
330
1F
100
AcDbEntity
  8
0
 62
     0
370
     5
100
AcDbPolyline
 90
        2
 70
     0
 43
0.0
 10
103.1314515826657
 20
179.0061958548621
 10
103.1314515826657
 20
179.5491751527917
  0
LWPOLYLINE
  5
502
330
1F
100
AcDbEntity
  8
0
 62
     0
370
     5
100
AcDbPolyline
 90
        2
 70
     0
 43
0.0
 10
104.2174101785255
 20
179.5491751527917
 10
103.1314515826657
 20
179.0061958548621
  0
LWPOLYLINE
  5
504
330
1F
100
AcDbEntity
  8
0
 62
     0
370
     5
100
AcDbPolyline
 90
        2
 70
     0
 43
0.0
 10
153.6285262901363
 20
162.716816916968
 10
153.6285262901363
 20
162.1738376190384
  0
SPLINE
  5
505
330
1F
100
AcDbEntity
  8
0
 62
     0
370
     5
100
AcDbSpline
210
0.0
220
0.0
230
1.0
 70
    24
 71
     3
 72
     8
 73
     4
 74
     0
 42
0.0000000001
 43
0.0000000001
 40
0.0
 40
0.0
 40
0.0
 40
0.0
 40
1.0
 40
1.0
 40
1.0
 40
1.0
 10
153.6285262901363
 20
162.716816916968
 30
0.0
 10
153.6285262901363
 20
162.716816916968
 30
0.0
 10
153.6285262901363
 20
162.716816916968
 30
0.0
 10
153.0855469922065
 20
162.716816916968
 30
0.0
  0
SPLINE
  5
506
330
1F
100
AcDbEntity
  8
0
 62
     0
370
     5
100
AcDbSpline
210
0.0
220
0.0
230
1.0
 70
     8
 71
     3
 72
     8
 73
     4
 74
     0
 42
0.0000000001
 43
0.0000000001
 40
0.0
 40
0.0
 40
0.0
 40
0.0
 40
1.0
 40
1.0
 40
1.0
 40
1.0
 10
153.0855469922065
 20
162.716816916968
 30
0.0
 10
152.5425676942769
 20
162.716816916968
 30
0.0
 10
151.4566090984174
 20
162.1738376190384
 30
0.0
 10
150.9136298004876
 20
161.6308583211083
 30
0.0
  0
SPLINE
  5
507
330
1F
100
AcDbEntity
  8
0
 62
     0
370
     5
100
AcDbSpline
210
0.0
220
0.0
230
1.0
 70
     8
 71
     3
 72
    11
 73
     7
 74
     0
 42
0.0000000001
 43
0.0000000001
 40
0.0
 40
0.0
 40
0.0
 40
0.0
 40
1.0
 40
1.0
 40
1.0
 40
2.0
 40
2.0
 40
2.0
 40
2.0
 10
149.8276712046278
 20
158.3729825335299
 30
0.0
 10
149.8276712046278
 20
158.9159618314594
 30
0.0
 10
149.8276712046278
 20
159.4589411293896
 30
0.0
 10
149.8276712046278
 20
160.0019204273192
 30
0.0
 10
150.3706505025576
 20
160.5448997252492
 30
0.0
 10
150.3706505025576
 20
161.0878790231788
 30
0.0
 10
150.9136298004876
 20
161.6308583211083
 30
0.0
  0
SPLINE
  5
508
330
1F
100
AcDbEntity
  8
0
 62
     0
370
     5
100
AcDbSpline
210
0.0
220
0.0
230
1.0
 70
     8
 71
     3
 72
    14
 73
    10
 74
     0
 42
0.0000000001
 43
0.0000000001
 40
0.0
 40
0.0
 40
0.0
 40
0.0
 40
1.0
 40
1.0
 40
1.0
 40
2.0
 40
2.0
 40
2.0
 40
3.0
 40
3.0
 40
3.0
 40
3.0
 10
151.9995883963471
 20
155.6580860438809
 30
0.0
 10
151.9995883963471
 20
155.6580860438809
 30
0.0
 10
151.4566090984174
 20
155.6580860438809
 30
0.0
 10
150.9136298004876
 20
155.6580860438809
 30
0.0
 10
150.9136298004876
 20
155.6580860438809
 30
0.0
 10
150.3706505025576
 20
156.2010653418106
 30
0.0
 10
150.3706505025576
 20
156.2010653418106
 30
0.0
 10
149.8276712046278
 20
156.7440446397405
 30
0.0
 10
149.8276712046278
 20
157.8300032356002
 30
0.0
 10
149.8276712046278
 20
158.3729825335299
 30
0.0
  0
SPLINE
  5
509
330
1F
100
AcDbEntity
  8
0
 62
     0
370
     5
100
AcDbSpline
210
0.0
220
0.0
230
1.0
 70
     8
 71
     3
 72
    11
 73
     7
 74
     0
 42
0.0000000001
 43
0.0000000001
 40
0.0
 40
0.0
 40
0.0
 40
0.0
 40
1.0
 40
1.0
 40
1.0
 40
2.0
 40
2.0
 40
2.0
 40
2.0
 10
154.7144848859961
 20
157.8300032356002
 30
0.0
 10
154.7144848859961
 20
157.2870239376701
 30
0.0
 10
154.1715055880663
 20
156.7440446397405
 30
0.0
 10
154.1715055880663
 20
156.2010653418106
 30
0.0
 10
153.6285262901363
 20
155.6580860438809
 30
0.0
 10
153.0855469922065
 20
155.6580860438809
 30
0.0
 10
151.9995883963471
 20
155.6580860438809
 30
0.0
  0
SPLINE
  5
50A
330
1F
100
AcDbEntity
  8
0
 62
     0
370
     5
100
AcDbSpline
210
0.0
220
0.0
230
1.0
 70
     8
 71
     3
 72
    14
 73
    10
 74
     0
 42
0.0000000001
 43
0.0000000001
 40
0.0
 40
0.0
 40
0.0
 40
0.0
 40
1.0
 40
1.0
 40
1.0
 40
2.0
 40
2.0
 40
2.0
 40
3.0
 40
3.0
 40
3.0
 40
3.0
 10
152.5425676942769
 20
160.0019204273192
 30
0.0
 10
153.0855469922065
 20
160.0019204273192
 30
0.0
 10
153.6285262901363
 20
160.0019204273192
 30
0.0
 10
154.1715055880663
 20
159.4589411293896
 30
0.0
 10
154.1715055880663
 20
159.4589411293896
 30
0.0
 10
154.1715055880663
 20
158.9159618314594
 30
0.0
 10
154.1715055880663
 20
158.9159618314594
 30
0.0
 10
154.7144848859961
 20
158.3729825335299
 30
0.0
 10
154.7144848859961
 20
158.3729825335299
 30
0.0
 10
154.7144848859961
 20
157.8300032356002
 30
0.0
  0
SPLINE
  5
50B
330
1F
100
AcDbEntity
  8
0
 62
     0
370
     5
100
AcDbSpline
210
0.0
220
0.0
230
1.0
 70
     8
 71
     3
 72
    11
 73
     7
 74
     0
 42
0.0000000001
 43
0.0000000001
 40
0.0
 40
0.0
 40
0.0
 40
0.0
 40
1.0
 40
1.0
 40
1.0
 40
2.0
 40
2.0
 40
2.0
 40
2.0
 10
150.9136298004876
 20
159.4589411293896
 30
0.0
 10
150.9136298004876
 20
159.4589411293896
 30
0.0
 10
150.9136298004876
 20
160.0019204273192
 30
0.0
 10
151.4566090984174
 20
160.0019204273192
 30
0.0
 10
151.9995883963471
 20
160.0019204273192
 30
0.0
 10
151.9995883963471
 20
160.0019204273192
 30
0.0
 10
152.5425676942769
 20
160.0019204273192
 30
0.0
  0
SPLINE
  5
50C
330
1F
100
AcDbEntity
  8
0
 62
     0
370
     5
100
AcDbSpline
210
0.0
220
0.0
230
1.0
 70
     8
 71
     3
 72
    11
 73
     7
 74
     0
 42
0.0000000001
 43
0.0000000001
 40
0.0
 40
0.0
 40
0.0
 40
0.0
 40
1.0
 40
1.0
 40
1.0
 40
2.0
 40
2.0
 40
2.0
 40
2.0
 10
153.0855469922065
 20
162.1738376190384
 30
0.0
 10
152.5425676942769
 20
161.6308583211083
 30
0.0
 10
151.9995883963471
 20
161.6308583211083
 30
0.0
 10
151.4566090984174
 20
161.0878790231788
 30
0.0
 10
150.9136298004876
 20
160.5448997252492
 30
0.0
 10
150.9136298004876
 20
160.0019204273192
 30
0.0
 10
150.9136298004876
 20
159.4589411293896
 30
0.0
  0
SPLINE
  5
50D
330
1F
100
AcDbEntity
  8
0
 62
     0
370
     5
100
AcDbSpline
210
0.0
220
0.0
230
1.0
 70
    24
 71
     3
 72
     8
 73
     4
 74
     0
 42
0.0000000001
 43
0.0000000001
 40
0.0
 40
0.0
 40
0.0
 40
0.0
 40
1.0
 40
1.0
 40
1.0
 40
1.0
 10
153.6285262901363
 20
162.1738376190384
 30
0.0
 10
153.6285262901363
 20
162.1738376190384
 30
0.0
 10
153.6285262901363
 20
162.1738376190384
 30
0.0
 10
153.0855469922065
 20
162.1738376190384
 30
0.0
  0
SPLINE
  5
50E
330
1F
100
AcDbEntity
  8
0
 62
     0
370
     5
100
AcDbSpline
210
0.0
220
0.0
230
1.0
 70
     8
 71
     3
 72
    11
 73
     7
 74
     0
 42
0.0000000001
 43
0.0000000001
 40
0.0
 40
0.0
 40
0.0
 40
0.0
 40
1.0
 40
1.0
 40
1.0
 40
2.0
 40
2.0
 40
2.0
 40
2.0
 10
150.3706505025576
 20
158.3729825335299
 30
0.0
 10
150.9136298004876
 20
157.8300032356002
 30
0.0
 10
150.9136298004876
 20
157.2870239376701
 30
0.0
 10
150.9136298004876
 20
156.7440446397405
 30
0.0
 10
151.4566090984174
 20
156.2010653418106
 30
0.0
 10
151.4566090984174
 20
156.2010653418106
 30
0.0
 10
151.9995883963471
 20
156.2010653418106
 30
0.0
  0
SPLINE
  5
50F
330
1F
100
AcDbEntity
  8
0
 62
     0
370
     5
100
AcDbSpline
210
0.0
220
0.0
230
1.0
 70
     8
 71
     3
 72
     8
 73
     4
 74
     0
 42
0.0000000001
 43
0.0000000001
 40
0.0
 40
0.0
 40
0.0
 40
0.0
 40
1.0
 40
1.0
 40
1.0
 40
1.0
 10
150.9136298004876
 20
158.9159618314594
 30
0.0
 10
150.9136298004876
 20
158.3729825335299
 30
0.0
 10
150.9136298004876
 20
158.3729825335299
 30
0.0
 10
150.3706505025576
 20
158.3729825335299
 30
0.0
  0
SPLINE
  5
510
330
1F
100
AcDbEntity
  8
0
 62
     0
370
     5
100
AcDbSpline
210
0.0
220
0.0
230
1.0
 70
     8
 71
     3
 72
     8
 73
     4
 74
     0
 42
0.0000000001
 43
0.0000000001
 40
0.0
 40
0.0
 40
0.0
 40
0.0
 40
1.0
 40
1.0
 40
1.0
 40
1.0
 10
151.9995883963471
 20
159.4589411293896
 30
0.0
 10
151.4566090984174
 20
159.4589411293896
 30
0.0
 10
150.9136298004876
 20
159.4589411293896
 30
0.0
 10
150.9136298004876
 20
158.9159618314594
 30
0.0
  0
SPLINE
  5
511
330
1F
100
AcDbEntity
  8
0
 62
     0
370
     5
100
AcDbSpline
210
0.0
220
0.0
230
1.0
 70
     8
 71
     3
 72
    11
 73
     7
 74
     0
 42
0.0000000001
 43
0.0000000001
 40
0.0
 40
0.0
 40
0.0
 40
0.0
 40
1.0
 40
1.0
 40
1.0
 40
2.0
 40
2.0
 40
2.0
 40
2.0
 10
153.6285262901363
 20
157.8300032356002
 30
0.0
 10
153.6285262901363
 20
158.3729825335299
 30
0.0
 10
153.6285262901363
 20
158.9159618314594
 30
0.0
 10
153.0855469922065
 20
158.9159618314594
 30
0.0
 10
153.0855469922065
 20
159.4589411293896
 30
0.0
 10
152.5425676942769
 20
159.4589411293896
 30
0.0
 10
151.9995883963471
 20
159.4589411293896
 30
0.0
  0
SPLINE
  5
512
330
1F
100
AcDbEntity
  8
0
 62
     0
370
     5
100
AcDbSpline
210
0.0
220
0.0
230
1.0
 70
     8
 71
     3
 72
     8
 73
     4
 74
     0
 42
0.0000000001
 43
0.0000000001
 40
0.0
 40
0.0
 40
0.0
 40
0.0
 40
1.0
 40
1.0
 40
1.0
 40
1.0
 10
151.9995883963471
 20
156.2010653418106
 30
0.0
 10
153.0855469922065
 20
156.2010653418106
 30
0.0
 10
153.6285262901363
 20
157.2870239376701
 30
0.0
 10
153.6285262901363
 20
157.8300032356002
 30
0.0
  0
LWPOLYLINE
  5
513
330
1F
100
AcDbEntity
  8
0
 62
     0
370
     5
100
AcDbPolyline
 90
        2
 70
     0
 43
0.0
 10
129.7374371812257
 20
162.716816916968
 10
129.7374371812257
 20
162.1738376190384
  0
LWPOLYLINE
  5
514
330
1F
100
AcDbEntity
  8
0
 62
     0
370
     5
100
AcDbPolyline
 90
        2
 70
     0
 43
0.0
 10
126.4795613936468
 20
162.716816916968
 10
129.7374371812257
 20
162.716816916968
  0
LWPOLYLINE
  5
515
330
1F
100
AcDbEntity
  8
0
 62
     0
370
     5
100
AcDbPolyline
 90
        2
 70
     0
 43
0.0
 10
125.9365820957171
 20
159.4589411293896
 10
126.4795613936468
 20
162.716816916968
  0
SPLINE
  5
516
330
1F
100
AcDbEntity
  8
0
 62
     0
370
     5
100
AcDbSpline
210
0.0
220
0.0
230
1.0
 70
    24
 71
     3
 72
     8
 73
     4
 74
     0
 42
0.0000000001
 43
0.0000000001
 40
0.0
 40
0.0
 40
0.0
 40
0.0
 40
1.0
 40
1.0
 40
1.0
 40
1.0
 10
127.0225406915765
 20
159.4589411293896
 30
0.0
 10
126.4795613936468
 20
159.4589411293896
 30
0.0
 10
126.4795613936468
 20
159.4589411293896
 30
0.0
 10
125.9365820957171
 20
159.4589411293896
 30
0.0
  0
SPLINE
  5
517
330
1F
100
AcDbEntity
  8
0
 62
     0
370
     5
100
AcDbSpline
210
0.0
220
0.0
230
1.0
 70
     8
 71
     3
 72
     8
 73
     4
 74
     0
 42
0.0000000001
 43
0.0000000001
 40
0.0
 40
0.0
 40
0.0
 40
0.0
 40
1.0
 40
1.0
 40
1.0
 40
1.0
 10
129.1944578832958
 20
157.8300032356002
 30
0.0
 10
129.1944578832958
 20
158.9159618314594
 30
0.0
 10
128.1084992874362
 20
159.4589411293896
 30
0.0
 10
127.0225406915765
 20
159.4589411293896
 30
0.0
  0
SPLINE
  5
518
330
1F
100
AcDbEntity
  8
0
 62
     0
370
     5
100
AcDbSpline
210
0.0
220
0.0
230
1.0
 70
     8
 71
     3
 72
     8
 73
     4
 74
     0
 42
0.0000000001
 43
0.0000000001
 40
0.0
 40
0.0
 40
0.0
 40
0.0
 40
1.0
 40
1.0
 40
1.0
 40
1.0
 10
127.5655199895062
 20
156.2010653418106
 30
0.0
 10
128.651478585366
 20
156.2010653418106
 30
0.0
 10
129.1944578832958
 20
156.7440446397405
 30
0.0
 10
129.1944578832958
 20
157.8300032356002
 30
0.0
  0
SPLINE
  5
519
330
1F
100
AcDbEntity
  8
0
 62
     0
370
     5
100
AcDbSpline
210
0.0
220
0.0
230
1.0
 70
     8
 71
     3
 72
     8
 73
     4
 74
     0
 42
0.0000000001
 43
0.0000000001
 40
0.0
 40
0.0
 40
0.0
 40
0.0
 40
1.0
 40
1.0
 40
1.0
 40
1.0
 10
125.9365820957171
 20
156.7440446397405
 30
0.0
 10
126.4795613936468
 20
156.7440446397405
 30
0.0
 10
127.0225406915765
 20
156.2010653418106
 30
0.0
 10
127.5655199895062
 20
156.2010653418106
 30
0.0
  0
LWPOLYLINE
  5
51A
330
1F
100
AcDbEntity
  8
0
 62
     0
370
     5
100
AcDbPolyline
 90
        2
 70
     0
 43
0.0
 10
125.3936027977873
 20
156.2010653418106
 10
125.9365820957171
 20
156.7440446397405
  0
SPLINE
  5
51B
330
1F
100
AcDbEntity
  8
0
 62
     0
370
     5
100
AcDbSpline
210
0.0
220
0.0
230
1.0
 70
     8
 71
     3
 72
     8
 73
     4
 74
     0
 42
0.0000000001
 43
0.0000000001
 40
0.0
 40
0.0
 40
0.0
 40
0.0
 40
1.0
 40
1.0
 40
1.0
 40
1.0
 10
127.5655199895062
 20
155.6580860438809
 30
0.0
 10
127.0225406915765
 20
155.6580860438809
 30
0.0
 10
126.4795613936468
 20
155.6580860438809
 30
0.0
 10
125.3936027977873
 20
156.2010653418106
 30
0.0
  0
SPLINE
  5
51C
330
1F
100
AcDbEntity
  8
0
 62
     0
370
     5
100
AcDbSpline
210
0.0
220
0.0
230
1.0
 70
     8
 71
     3
 72
    11
 73
     7
 74
     0
 42
0.0000000001
 43
0.0000000001
 40
0.0
 40
0.0
 40
0.0
 40
0.0
 40
1.0
 40
1.0
 40
1.0
 40
2.0
 40
2.0
 40
2.0
 40
2.0
 10
130.2804164791554
 20
157.8300032356002
 30
0.0
 10
129.7374371812257
 20
157.2870239376701
 30
0.0
 10
129.7374371812257
 20
156.7440446397405
 30
0.0
 10
129.1944578832958
 20
156.2010653418106
 30
0.0
 10
128.651478585366
 20
155.6580860438809
 30
0.0
 10
128.1084992874362
 20
155.6580860438809
 30
0.0
 10
127.5655199895062
 20
155.6580860438809
 30
0.0
  0
SPLINE
  5
51D
330
1F
100
AcDbEntity
  8
0
 62
     0
370
     5
100
AcDbSpline
210
0.0
220
0.0
230
1.0
 70
     8
 71
     3
 72
     8
 73
     4
 74
     0
 42
0.0000000001
 43
0.0000000001
 40
0.0
 40
0.0
 40
0.0
 40
0.0
 40
1.0
 40
1.0
 40
1.0
 40
1.0
 10
129.1944578832958
 20
160.0019204273192
 30
0.0
 10
129.7374371812257
 20
159.4589411293896
 30
0.0
 10
130.2804164791554
 20
158.9159618314594
 30
0.0
 10
130.2804164791554
 20
157.8300032356002
 30
0.0
  0
SPLINE
  5
51E
330
1F
100
AcDbEntity
  8
0
 62
     0
370
     5
100
AcDbSpline
210
0.0
220
0.0
230
1.0
 70
    24
 71
     3
 72
     8
 73
     4
 74
     0
 42
0.0000000001
 43
0.0000000001
 40
0.0
 40
0.0
 40
0.0
 40
0.0
 40
1.0
 40
1.0
 40
1.0
 40
1.0
 10
127.5655199895062
 20
160.0019204273192
 30
0.0
 10
128.1084992874362
 20
160.0019204273192
 30
0.0
 10
128.651478585366
 20
160.0019204273192
 30
0.0
 10
129.1944578832958
 20
160.0019204273192
 30
0.0
  0
SPLINE
  5
51F
330
1F
100
AcDbEntity
  8
0
 62
     0
370
     5
100
AcDbSpline
210
0.0
220
0.0
230
1.0
 70
    24
 71
     3
 72
     8
 73
     4
 74
     0
 42
0.0000000001
 43
0.0000000001
 40
0.0
 40
0.0
 40
0.0
 40
0.0
 40
1.0
 40
1.0
 40
1.0
 40
1.0
 10
127.5655199895062
 20
160.0019204273192
 30
0.0
 10
127.5655199895062
 20
160.0019204273192
 30
0.0
 10
127.0225406915765
 20
160.0019204273192
 30
0.0
 10
127.0225406915765
 20
160.0019204273192
 30
0.0
  0
LWPOLYLINE
  5
520
330
1F
100
AcDbEntity
  8
0
 62
     0
370
     5
100
AcDbPolyline
 90
        2
 70
     0
 43
0.0
 10
127.0225406915765
 20
162.1738376190384
 10
127.0225406915765
 20
160.0019204273192
  0
LWPOLYLINE
  5
521
330
1F
100
AcDbEntity
  8
0
 62
     0
370
     5
100
AcDbPolyline
 90
        2
 70
     0
 43
0.0
 10
129.7374371812257
 20
162.1738376190384
 10
127.0225406915765
 20
162.1738376190384
  0
LWPOLYLINE
  5
522
330
1F
100
AcDbEntity
  8
0
 62
     0
370
     5
100
AcDbPolyline
 90
        2
 70
     0
 43
0.0
 10
105.8463480723146
 20
155.6580860438809
 10
104.760389476455
 20
155.6580860438809
  0
LWPOLYLINE
  5
523
330
1F
100
AcDbEntity
  8
0
 62
     0
370
     5
100
AcDbPolyline
 90
        2
 70
     0
 43
0.0
 10
105.8463480723146
 20
157.8300032356002
 10
105.8463480723146
 20
155.6580860438809
  0
LWPOLYLINE
  5
524
330
1F
100
AcDbEntity
  8
0
 62
     0
370
     5
100
AcDbPolyline
 90
        2
 70
     0
 43
0.0
 10
106.9323066681744
 20
157.8300032356002
 10
105.8463480723146
 20
157.8300032356002
  0
LWPOLYLINE
  5
525
330
1F
100
AcDbEntity
  8
0
 62
     0
370
     5
100
AcDbPolyline
 90
        2
 70
     0
 43
0.0
 10
106.9323066681744
 20
158.3729825335299
 10
106.9323066681744
 20
157.8300032356002
  0
LWPOLYLINE
  5
526
330
1F
100
AcDbEntity
  8
0
 62
     0
370
     5
100
AcDbPolyline
 90
        2
 70
     0
 43
0.0
 10
105.8463480723146
 20
158.3729825335299
 10
106.9323066681744
 20
158.3729825335299
  0
LWPOLYLINE
  5
527
330
1F
100
AcDbEntity
  8
0
 62
     0
370
     5
100
AcDbPolyline
 90
        2
 70
     0
 43
0.0
 10
105.8463480723146
 20
162.716816916968
 10
105.8463480723146
 20
158.3729825335299
  0
LWPOLYLINE
  5
528
330
1F
100
AcDbEntity
  8
0
 62
     0
370
     5
100
AcDbPolyline
 90
        2
 70
     0
 43
0.0
 10
104.760389476455
 20
162.716816916968
 10
105.8463480723146
 20
162.716816916968
  0
LWPOLYLINE
  5
529
330
1F
100
AcDbEntity
  8
0
 62
     0
370
     5
100
AcDbPolyline
 90
        2
 70
     0
 43
0.0
 10
101.5025136888761
 20
158.3729825335299
 10
104.760389476455
 20
162.716816916968
  0
LWPOLYLINE
  5
52A
330
1F
100
AcDbEntity
  8
0
 62
     0
370
     5
100
AcDbPolyline
 90
        2
 70
     0
 43
0.0
 10
101.5025136888761
 20
157.8300032356002
 10
101.5025136888761
 20
158.3729825335299
  0
LWPOLYLINE
  5
52B
330
1F
100
AcDbEntity
  8
0
 62
     0
370
     5
100
AcDbPolyline
 90
        2
 70
     0
 43
0.0
 10
104.760389476455
 20
157.8300032356002
 10
101.5025136888761
 20
157.8300032356002
  0
LWPOLYLINE
  5
52C
330
1F
100
AcDbEntity
  8
0
 62
     0
370
     5
100
AcDbPolyline
 90
        2
 70
     0
 43
0.0
 10
104.760389476455
 20
155.6580860438809
 10
104.760389476455
 20
157.8300032356002
  0
LWPOLYLINE
  5
52D
330
1F
100
AcDbEntity
  8
0
 62
     0
370
     5
100
AcDbPolyline
 90
        2
 70
     0
 43
0.0
 10
102.5884722847359
 20
158.3729825335299
 10
104.760389476455
 20
158.3729825335299
  0
LWPOLYLINE
  5
52E
330
1F
100
AcDbEntity
  8
0
 62
     0
370
     5
100
AcDbPolyline
 90
        2
 70
     0
 43
0.0
 10
104.2174101785255
 20
160.5448997252492
 10
102.5884722847359
 20
158.3729825335299
  0
SPLINE
  5
52F
330
1F
100
AcDbEntity
  8
0
 62
     0
370
     5
100
AcDbSpline
210
0.0
220
0.0
230
1.0
 70
     8
 71
     3
 72
     8
 73
     4
 74
     0
 42
0.0000000001
 43
0.0000000001
 40
0.0
 40
0.0
 40
0.0
 40
0.0
 40
1.0
 40
1.0
 40
1.0
 40
1.0
 10
104.2174101785255
 20
160.5448997252492
 30
0.0
 10
104.2174101785255
 20
161.0878790231788
 30
0.0
 10
104.760389476455
 20
161.6308583211083
 30
0.0
 10
104.760389476455
 20
161.6308583211083
 30
0.0
  0
SPLINE
  5
531
330
1F
100
AcDbEntity
  8
0
 62
     0
370
     5
100
AcDbSpline
210
0.0
220
0.0
230
1.0
 70
    24
 71
     3
 72
     8
 73
     4
 74
     0
 42
0.0000000001
 43
0.0000000001
 40
0.0
 40
0.0
 40
0.0
 40
0.0
 40
1.0
 40
1.0
 40
1.0
 40
1.0
 10
104.760389476455
 20
161.6308583211083
 30
0.0
 10
104.760389476455
 20
161.6308583211083
 30
0.0
 10
104.760389476455
 20
161.0878790231788
 30
0.0
 10
104.760389476455
 20
160.5448997252492
 30
0.0
  0
LWPOLYLINE
  5
532
330
1F
100
AcDbEntity
  8
0
 62
     0
370
     5
100
AcDbPolyline
 90
        2
 70
     0
 43
0.0
 10
104.760389476455
 20
158.3729825335299
 10
104.760389476455
 20
160.5448997252492
  0
LWPOLYLINE
  5
533
330
1F
100
AcDbEntity
  8
0
 62
     0
370
     5
100
AcDbPolyline
 90
        2
 70
     0
 43
0.0
 10
149.8276712046278
 20
137.7397692121977
 10
149.8276712046278
 20
138.2827485101278
  0
SPLINE
  5
534
330
1F
100
AcDbEntity
  8
0
 62
     0
370
     5
100
AcDbSpline
210
0.0
220
0.0
230
1.0
 70
    24
 71
     3
 72
     8
 73
     4
 74
     0
 42
0.0000000001
 43
0.0000000001
 40
0.0
 40
0.0
 40
0.0
 40
0.0
 40
1.0
 40
1.0
 40
1.0
 40
1.0
 10
150.3706505025576
 20
137.7397692121977
 30
0.0
 10
150.3706505025576
 20
137.7397692121977
 30
0.0
 10
149.8276712046278
 20
137.7397692121977
 30
0.0
 10
149.8276712046278
 20
137.7397692121977
 30
0.0
  0
SPLINE
  5
535
330
1F
100
AcDbEntity
  8
0
 62
     0
370
     5
100
AcDbSpline
210
0.0
220
0.0
230
1.0
 70
     8
 71
     3
 72
     8
 73
     4
 74
     0
 42
0.0000000001
 43
0.0000000001
 40
0.0
 40
0.0
 40
0.0
 40
0.0
 40
1.0
 40
1.0
 40
1.0
 40
1.0
 10
152.5425676942769
 20
138.2827485101278
 30
0.0
 10
151.9995883963471
 20
137.7397692121977
 30
0.0
 10
151.4566090984174
 20
137.7397692121977
 30
0.0
 10
150.3706505025576
 20
137.7397692121977
 30
0.0
  0
SPLINE
  5
536
330
1F
100
AcDbEntity
  8
0
 62
     0
370
     5
100
AcDbSpline
210
0.0
220
0.0
230
1.0
 70
     8
 71
     3
 72
     8
 73
     4
 74
     0
 42
0.0000000001
 43
0.0000000001
 40
0.0
 40
0.0
 40
0.0
 40
0.0
 40
1.0
 40
1.0
 40
1.0
 40
1.0
 10
153.6285262901363
 20
142.0836035956357
 30
0.0
 10
153.6285262901363
 20
140.4546657018465
 30
0.0
 10
153.6285262901363
 20
139.368707105987
 30
0.0
 10
152.5425676942769
 20
138.2827485101278
 30
0.0
  0
SPLINE
  5
537
330
1F
100
AcDbEntity
  8
0
 62
     0
370
     5
100
AcDbSpline
210
0.0
220
0.0
230
1.0
 70
     8
 71
     3
 72
    11
 73
     7
 74
     0
 42
0.0000000001
 43
0.0000000001
 40
0.0
 40
0.0
 40
0.0
 40
0.0
 40
1.0
 40
1.0
 40
1.0
 40
2.0
 40
2.0
 40
2.0
 40
2.0
 10
151.4566090984174
 20
144.7985000852852
 30
0.0
 10
151.9995883963471
 20
144.7985000852852
 30
0.0
 10
153.0855469922065
 20
144.7985000852852
 30
0.0
 10
153.0855469922065
 20
143.7125414894256
 30
0.0
 10
153.6285262901363
 20
143.1695621914955
 30
0.0
 10
153.6285262901363
 20
142.6265828935659
 30
0.0
 10
153.6285262901363
 20
142.0836035956357
 30
0.0
  0
SPLINE
  5
538
330
1F
100
AcDbEntity
  8
0
 62
     0
370
     5
100
AcDbSpline
210
0.0
220
0.0
230
1.0
 70
     8
 71
     3
 72
    11
 73
     7
 74
     0
 42
0.0000000001
 43
0.0000000001
 40
0.0
 40
0.0
 40
0.0
 40
0.0
 40
1.0
 40
1.0
 40
1.0
 40
2.0
 40
2.0
 40
2.0
 40
2.0
 10
149.2846919066982
 20
142.0836035956357
 30
0.0
 10
149.2846919066982
 20
143.1695621914955
 30
0.0
 10
149.2846919066982
 20
143.7125414894256
 30
0.0
 10
149.8276712046278
 20
144.2555207873552
 30
0.0
 10
150.3706505025576
 20
144.7985000852852
 30
0.0
 10
150.9136298004876
 20
144.7985000852852
 30
0.0
 10
151.4566090984174
 20
144.7985000852852
 30
0.0
  0
SPLINE
  5
539
330
1F
100
AcDbEntity
  8
0
 62
     0
370
     5
100
AcDbSpline
210
0.0
220
0.0
230
1.0
 70
     8
 71
     3
 72
    11
 73
     7
 74
     0
 42
0.0000000001
 43
0.0000000001
 40
0.0
 40
0.0
 40
0.0
 40
0.0
 40
1.0
 40
1.0
 40
1.0
 40
2.0
 40
2.0
 40
2.0
 40
2.0
 10
150.9136298004876
 20
139.911686403917
 30
0.0
 10
150.3706505025576
 20
139.911686403917
 30
0.0
 10
149.8276712046278
 20
140.4546657018465
 30
0.0
 10
149.8276712046278
 20
140.9976449997765
 30
0.0
 10
149.2846919066982
 20
140.9976449997765
 30
0.0
 10
149.2846919066982
 20
141.5406242977061
 30
0.0
 10
149.2846919066982
 20
142.0836035956357
 30
0.0
  0
SPLINE
  5
53A
330
1F
100
AcDbEntity
  8
0
 62
     0
370
     5
100
AcDbSpline
210
0.0
220
0.0
230
1.0
 70
     8
 71
     3
 72
     8
 73
     4
 74
     0
 42
0.0000000001
 43
0.0000000001
 40
0.0
 40
0.0
 40
0.0
 40
0.0
 40
1.0
 40
1.0
 40
1.0
 40
1.0
 10
153.0855469922065
 20
140.9976449997765
 30
0.0
 10
152.5425676942769
 20
140.4546657018465
 30
0.0
 10
151.9995883963471
 20
140.4546657018465
 30
0.0
 10
150.9136298004876
 20
139.911686403917
 30
0.0
  0
SPLINE
  5
53C
330
1F
100
AcDbEntity
  8
0
 62
     0
370
     5
100
AcDbSpline
210
0.0
220
0.0
230
1.0
 70
     8
 71
     3
 72
     8
 73
     4
 74
     0
 42
0.0000000001
 43
0.0000000001
 40
0.0
 40
0.0
 40
0.0
 40
0.0
 40
1.0
 40
1.0
 40
1.0
 40
1.0
 10
151.9995883963471
 20
138.8257278080574
 30
0.0
 10
152.5425676942769
 20
139.368707105987
 30
0.0
 10
152.5425676942769
 20
139.911686403917
 30
0.0
 10
153.0855469922065
 20
140.9976449997765
 30
0.0
  0
SPLINE
  5
53D
330
1F
100
AcDbEntity
  8
0
 62
     0
370
     5
100
AcDbSpline
210
0.0
220
0.0
230
1.0
 70
     8
 71
     3
 72
     8
 73
     4
 74
     0
 42
0.0000000001
 43
0.0000000001
 40
0.0
 40
0.0
 40
0.0
 40
0.0
 40
1.0
 40
1.0
 40
1.0
 40
1.0
 10
150.3706505025576
 20
138.2827485101278
 30
0.0
 10
150.9136298004876
 20
138.2827485101278
 30
0.0
 10
151.4566090984174
 20
138.8257278080574
 30
0.0
 10
151.9995883963471
 20
138.8257278080574
 30
0.0
  0
SPLINE
  5
53E
330
1F
100
AcDbEntity
  8
0
 62
     0
370
     5
100
AcDbSpline
210
0.0
220
0.0
230
1.0
 70
    24
 71
     3
 72
     8
 73
     4
 74
     0
 42
0.0000000001
 43
0.0000000001
 40
0.0
 40
0.0
 40
0.0
 40
0.0
 40
1.0
 40
1.0
 40
1.0
 40
1.0
 10
149.8276712046278
 20
138.2827485101278
 30
0.0
 10
149.8276712046278
 20
138.2827485101278
 30
0.0
 10
150.3706505025576
 20
138.2827485101278
 30
0.0
 10
150.3706505025576
 20
138.2827485101278
 30
0.0
  0
SPLINE
  5
540
330
1F
100
AcDbEntity
  8
0
 62
     0
370
     5
100
AcDbSpline
210
0.0
220
0.0
230
1.0
 70
     8
 71
     3
 72
    11
 73
     7
 74
     0
 42
0.0000000001
 43
0.0000000001
 40
0.0
 40
0.0
 40
0.0
 40
0.0
 40
1.0
 40
1.0
 40
1.0
 40
2.0
 40
2.0
 40
2.0
 40
2.0
 10
153.0855469922065
 20
142.0836035956357
 30
0.0
 10
153.0855469922065
 20
142.6265828935659
 30
0.0
 10
153.0855469922065
 20
143.1695621914955
 30
0.0
 10
152.5425676942769
 20
143.1695621914955
 30
0.0
 10
152.5425676942769
 20
143.7125414894256
 30
0.0
 10
151.9995883963471
 20
144.2555207873552
 30
0.0
 10
151.4566090984174
 20
144.2555207873552
 30
0.0
  0
SPLINE
  5
541
330
1F
100
AcDbEntity
  8
0
 62
     0
370
     5
100
AcDbSpline
210
0.0
220
0.0
230
1.0
 70
     8
 71
     3
 72
     8
 73
     4
 74
     0
 42
0.0000000001
 43
0.0000000001
 40
0.0
 40
0.0
 40
0.0
 40
0.0
 40
1.0
 40
1.0
 40
1.0
 40
1.0
 10
152.5425676942769
 20
141.5406242977061
 30
0.0
 10
153.0855469922065
 20
141.5406242977061
 30
0.0
 10
153.0855469922065
 20
142.0836035956357
 30
0.0
 10
153.0855469922065
 20
142.0836035956357
 30
0.0
  0
SPLINE
  5
542
330
1F
100
AcDbEntity
  8
0
 62
     0
370
     5
100
AcDbSpline
210
0.0
220
0.0
230
1.0
 70
     8
 71
     3
 72
     8
 73
     4
 74
     0
 42
0.0000000001
 43
0.0000000001
 40
0.0
 40
0.0
 40
0.0
 40
0.0
 40
1.0
 40
1.0
 40
1.0
 40
1.0
 10
151.4566090984174
 20
140.9976449997765
 30
0.0
 10
151.9995883963471
 20
140.9976449997765
 30
0.0
 10
152.5425676942769
 20
140.9976449997765
 30
0.0
 10
152.5425676942769
 20
141.5406242977061
 30
0.0
  0
SPLINE
  5
543
330
1F
100
AcDbEntity
  8
0
 62
     0
370
     5
100
AcDbSpline
210
0.0
220
0.0
230
1.0
 70
     8
 71
     3
 72
    11
 73
     7
 74
     0
 42
0.0000000001
 43
0.0000000001
 40
0.0
 40
0.0
 40
0.0
 40
0.0
 40
1.0
 40
1.0
 40
1.0
 40
2.0
 40
2.0
 40
2.0
 40
2.0
 10
149.8276712046278
 20
142.6265828935659
 30
0.0
 10
149.8276712046278
 20
142.0836035956357
 30
0.0
 10
149.8276712046278
 20
141.5406242977061
 30
0.0
 10
150.3706505025576
 20
141.5406242977061
 30
0.0
 10
150.9136298004876
 20
140.9976449997765
 30
0.0
 10
150.9136298004876
 20
140.9976449997765
 30
0.0
 10
151.4566090984174
 20
140.9976449997765
 30
0.0
  0
SPLINE
  5
544
330
1F
100
AcDbEntity
  8
0
 62
     0
370
     5
100
AcDbSpline
210
0.0
220
0.0
230
1.0
 70
     8
 71
     3
 72
     8
 73
     4
 74
     0
 42
0.0000000001
 43
0.0000000001
 40
0.0
 40
0.0
 40
0.0
 40
0.0
 40
1.0
 40
1.0
 40
1.0
 40
1.0
 10
151.4566090984174
 20
144.2555207873552
 30
0.0
 10
150.3706505025576
 20
144.2555207873552
 30
0.0
 10
150.3706505025576
 20
143.1695621914955
 30
0.0
 10
149.8276712046278
 20
142.6265828935659
 30
0.0
  0
SPLINE
  5
545
330
1F
100
AcDbEntity
  8
0
 62
     0
370
     5
100
AcDbSpline
210
0.0
220
0.0
230
1.0
 70
     8
 71
     3
 72
    11
 73
     7
 74
     0
 42
0.0000000001
 43
0.0000000001
 40
0.0
 40
0.0
 40
0.0
 40
0.0
 40
1.0
 40
1.0
 40
1.0
 40
2.0
 40
2.0
 40
2.0
 40
2.0
 10
125.9365820957171
 20
143.1695621914955
 30
0.0
 10
125.9365820957171
 20
143.7125414894256
 30
0.0
 10
125.9365820957171
 20
144.2555207873552
 30
0.0
 10
126.4795613936468
 20
144.2555207873552
 30
0.0
 10
127.0225406915765
 20
144.7985000852852
 30
0.0
 10
127.5655199895062
 20
144.7985000852852
 30
0.0
 10
128.1084992874362
 20
144.7985000852852
 30
0.0
  0
SPLINE
  5
546
330
1F
100
AcDbEntity
  8
0
 62
     0
370
     5
100
AcDbSpline
210
0.0
220
0.0
230
1.0
 70
     8
 71
     3
 72
    11
 73
     7
 74
     0
 42
0.0000000001
 43
0.0000000001
 40
0.0
 40
0.0
 40
0.0
 40
0.0
 40
1.0
 40
1.0
 40
1.0
 40
2.0
 40
2.0
 40
2.0
 40
2.0
 10
127.0225406915765
 20
141.5406242977061
 30
0.0
 10
126.4795613936468
 20
141.5406242977061
 30
0.0
 10
126.4795613936468
 20
141.5406242977061
 30
0.0
 10
125.9365820957171
 20
142.0836035956357
 30
0.0
 10
125.9365820957171
 20
142.0836035956357
 30
0.0
 10
125.9365820957171
 20
142.6265828935659
 30
0.0
 10
125.9365820957171
 20
143.1695621914955
 30
0.0
  0
SPLINE
  5
547
330
1F
100
AcDbEntity
  8
0
 62
     0
370
     5
100
AcDbSpline
210
0.0
220
0.0
230
1.0
 70
     8
 71
     3
 72
     8
 73
     4
 74
     0
 42
0.0000000001
 43
0.0000000001
 40
0.0
 40
0.0
 40
0.0
 40
0.0
 40
1.0
 40
1.0
 40
1.0
 40
1.0
 10
125.3936027977873
 20
139.368707105987
 30
0.0
 10
125.9365820957171
 20
140.4546657018465
 30
0.0
 10
125.9365820957171
 20
140.9976449997765
 30
0.0
 10
127.0225406915765
 20
141.5406242977061
 30
0.0
  0
SPLINE
  5
548
330
1F
100
AcDbEntity
  8
0
 62
     0
370
     5
100
AcDbSpline
210
0.0
220
0.0
230
1.0
 70
     8
 71
     3
 72
    11
 73
     7
 74
     0
 42
0.0000000001
 43
0.0000000001
 40
0.0
 40
0.0
 40
0.0
 40
0.0
 40
1.0
 40
1.0
 40
1.0
 40
2.0
 40
2.0
 40
2.0
 40
2.0
 10
128.1084992874362
 20
137.7397692121977
 30
0.0
 10
127.5655199895062
 20
137.7397692121977
 30
0.0
 10
127.0225406915765
 20
137.7397692121977
 30
0.0
 10
126.4795613936468
 20
138.2827485101278
 30
0.0
 10
125.9365820957171
 20
138.2827485101278
 30
0.0
 10
125.9365820957171
 20
138.8257278080574
 30
0.0
 10
125.3936027977873
 20
139.368707105987
 30
0.0
  0
SPLINE
  5
549
330
1F
100
AcDbEntity
  8
0
 62
     0
370
     5
100
AcDbSpline
210
0.0
220
0.0
230
1.0
 70
     8
 71
     3
 72
    11
 73
     7
 74
     0
 42
0.0000000001
 43
0.0000000001
 40
0.0
 40
0.0
 40
0.0
 40
0.0
 40
1.0
 40
1.0
 40
1.0
 40
2.0
 40
2.0
 40
2.0
 40
2.0
 10
130.2804164791554
 20
139.368707105987
 30
0.0
 10
130.2804164791554
 20
138.8257278080574
 30
0.0
 10
130.2804164791554
 20
138.2827485101278
 30
0.0
 10
129.7374371812257
 20
138.2827485101278
 30
0.0
 10
129.1944578832958
 20
137.7397692121977
 30
0.0
 10
128.651478585366
 20
137.7397692121977
 30
0.0
 10
128.1084992874362
 20
137.7397692121977
 30
0.0
  0
SPLINE
  5
54A
330
1F
100
AcDbEntity
  8
0
 62
     0
370
     5
100
AcDbSpline
210
0.0
220
0.0
230
1.0
 70
     8
 71
     3
 72
     8
 73
     4
 74
     0
 42
0.0000000001
 43
0.0000000001
 40
0.0
 40
0.0
 40
0.0
 40
0.0
 40
1.0
 40
1.0
 40
1.0
 40
1.0
 10
129.1944578832958
 20
141.5406242977061
 30
0.0
 10
129.7374371812257
 20
140.9976449997765
 30
0.0
 10
130.2804164791554
 20
140.4546657018465
 30
0.0
 10
130.2804164791554
 20
139.368707105987
 30
0.0
  0
SPLINE
  5
54C
330
1F
100
AcDbEntity
  8
0
 62
     0
370
     5
100
AcDbSpline
210
0.0
220
0.0
230
1.0
 70
     8
 71
     3
 72
     8
 73
     4
 74
     0
 42
0.0000000001
 43
0.0000000001
 40
0.0
 40
0.0
 40
0.0
 40
0.0
 40
1.0
 40
1.0
 40
1.0
 40
1.0
 10
130.2804164791554
 20
143.1695621914955
 30
0.0
 10
130.2804164791554
 20
142.0836035956357
 30
0.0
 10
129.7374371812257
 20
142.0836035956357
 30
0.0
 10
129.1944578832958
 20
141.5406242977061
 30
0.0
  0
SPLINE
  5
54D
330
1F
100
AcDbEntity
  8
0
 62
     0
370
     5
100
AcDbSpline
210
0.0
220
0.0
230
1.0
 70
     8
 71
     3
 72
    11
 73
     7
 74
     0
 42
0.0000000001
 43
0.0000000001
 40
0.0
 40
0.0
 40
0.0
 40
0.0
 40
1.0
 40
1.0
 40
1.0
 40
2.0
 40
2.0
 40
2.0
 40
2.0
 10
128.1084992874362
 20
144.7985000852852
 30
0.0
 10
128.651478585366
 20
144.7985000852852
 30
0.0
 10
129.1944578832958
 20
144.7985000852852
 30
0.0
 10
129.7374371812257
 20
144.2555207873552
 30
0.0
 10
129.7374371812257
 20
144.2555207873552
 30
0.0
 10
130.2804164791554
 20
143.7125414894256
 30
0.0
 10
130.2804164791554
 20
143.1695621914955
 30
0.0
  0
SPLINE
  5
54E
330
1F
100
AcDbEntity
  8
0
 62
     0
370
     5
100
AcDbSpline
210
0.0
220
0.0
230
1.0
 70
     8
 71
     3
 72
    11
 73
     7
 74
     0
 42
0.0000000001
 43
0.0000000001
 40
0.0
 40
0.0
 40
0.0
 40
0.0
 40
1.0
 40
1.0
 40
1.0
 40
2.0
 40
2.0
 40
2.0
 40
2.0
 10
126.4795613936468
 20
139.368707105987
 30
0.0
 10
126.4795613936468
 20
139.368707105987
 30
0.0
 10
126.4795613936468
 20
138.8257278080574
 30
0.0
 10
127.0225406915765
 20
138.8257278080574
 30
0.0
 10
127.0225406915765
 20
138.2827485101278
 30
0.0
 10
127.5655199895062
 20
138.2827485101278
 30
0.0
 10
128.1084992874362
 20
138.2827485101278
 30
0.0
  0
SPLINE
  5
54F
330
1F
100
AcDbEntity
  8
0
 62
     0
370
     5
100
AcDbSpline
210
0.0
220
0.0
230
1.0
 70
     8
 71
     3
 72
     8
 73
     4
 74
     0
 42
0.0000000001
 43
0.0000000001
 40
0.0
 40
0.0
 40
0.0
 40
0.0
 40
1.0
 40
1.0
 40
1.0
 40
1.0
 10
128.1084992874362
 20
140.9976449997765
 30
0.0
 10
127.0225406915765
 20
140.9976449997765
 30
0.0
 10
126.4795613936468
 20
140.4546657018465
 30
0.0
 10
126.4795613936468
 20
139.368707105987
 30
0.0
  0
SPLINE
  5
550
330
1F
100
AcDbEntity
  8
0
 62
     0
370
     5
100
AcDbSpline
210
0.0
220
0.0
230
1.0
 70
     8
 71
     3
 72
    11
 73
     7
 74
     0
 42
0.0000000001
 43
0.0000000001
 40
0.0
 40
0.0
 40
0.0
 40
0.0
 40
1.0
 40
1.0
 40
1.0
 40
2.0
 40
2.0
 40
2.0
 40
2.0
 10
129.1944578832958
 20
139.368707105987
 30
0.0
 10
129.1944578832958
 20
139.911686403917
 30
0.0
 10
129.1944578832958
 20
140.4546657018465
 30
0.0
 10
129.1944578832958
 20
140.4546657018465
 30
0.0
 10
128.651478585366
 20
140.9976449997765
 30
0.0
 10
128.1084992874362
 20
140.9976449997765
 30
0.0
 10
128.1084992874362
 20
140.9976449997765
 30
0.0
  0
SPLINE
  5
551
330
1F
100
AcDbEntity
  8
0
 62
     0
370
     5
100
AcDbSpline
210
0.0
220
0.0
230
1.0
 70
     8
 71
     3
 72
    11
 73
     7
 74
     0
 42
0.0000000001
 43
0.0000000001
 40
0.0
 40
0.0
 40
0.0
 40
0.0
 40
1.0
 40
1.0
 40
1.0
 40
2.0
 40
2.0
 40
2.0
 40
2.0
 10
128.1084992874362
 20
138.2827485101278
 30
0.0
 10
128.1084992874362
 20
138.2827485101278
 30
0.0
 10
128.651478585366
 20
138.2827485101278
 30
0.0
 10
129.1944578832958
 20
138.8257278080574
 30
0.0
 10
129.1944578832958
 20
138.8257278080574
 30
0.0
 10
129.1944578832958
 20
139.368707105987
 30
0.0
 10
129.1944578832958
 20
139.368707105987
 30
0.0
  0
SPLINE
  5
553
330
1F
100
AcDbEntity
  8
0
 62
     0
370
     5
100
AcDbSpline
210
0.0
220
0.0
230
1.0
 70
     8
 71
     3
 72
    11
 73
     7
 74
     0
 42
0.0000000001
 43
0.0000000001
 40
0.0
 40
0.0
 40
0.0
 40
0.0
 40
1.0
 40
1.0
 40
1.0
 40
2.0
 40
2.0
 40
2.0
 40
2.0
 10
129.1944578832958
 20
143.1695621914955
 30
0.0
 10
129.1944578832958
 20
143.1695621914955
 30
0.0
 10
129.1944578832958
 20
143.7125414894256
 30
0.0
 10
129.1944578832958
 20
143.7125414894256
 30
0.0
 10
128.651478585366
 20
144.2555207873552
 30
0.0
 10
128.651478585366
 20
144.2555207873552
 30
0.0
 10
128.1084992874362
 20
144.2555207873552
 30
0.0
  0
SPLINE
  5
554
330
1F
100
AcDbEntity
  8
0
 62
     0
370
     5
100
AcDbSpline
210
0.0
220
0.0
230
1.0
 70
     8
 71
     3
 72
     8
 73
     4
 74
     0
 42
0.0000000001
 43
0.0000000001
 40
0.0
 40
0.0
 40
0.0
 40
0.0
 40
1.0
 40
1.0
 40
1.0
 40
1.0
 10
128.1084992874362
 20
141.5406242977061
 30
0.0
 10
128.651478585366
 20
142.0836035956357
 30
0.0
 10
129.1944578832958
 20
142.6265828935659
 30
0.0
 10
129.1944578832958
 20
143.1695621914955
 30
0.0
  0
SPLINE
  5
555
330
1F
100
AcDbEntity
  8
0
 62
     0
370
     5
100
AcDbSpline
210
0.0
220
0.0
230
1.0
 70
     8
 71
     3
 72
    11
 73
     7
 74
     0
 42
0.0000000001
 43
0.0000000001
 40
0.0
 40
0.0
 40
0.0
 40
0.0
 40
1.0
 40
1.0
 40
1.0
 40
2.0
 40
2.0
 40
2.0
 40
2.0
 10
127.0225406915765
 20
143.1695621914955
 30
0.0
 10
127.0225406915765
 20
142.6265828935659
 30
0.0
 10
127.0225406915765
 20
142.6265828935659
 30
0.0
 10
127.0225406915765
 20
142.0836035956357
 30
0.0
 10
127.5655199895062
 20
142.0836035956357
 30
0.0
 10
127.5655199895062
 20
142.0836035956357
 30
0.0
 10
128.1084992874362
 20
141.5406242977061
 30
0.0
  0
SPLINE
  5
556
330
1F
100
AcDbEntity
  8
0
 62
     0
370
     5
100
AcDbSpline
210
0.0
220
0.0
230
1.0
 70
     8
 71
     3
 72
     8
 73
     4
 74
     0
 42
0.0000000001
 43
0.0000000001
 40
0.0
 40
0.0
 40
0.0
 40
0.0
 40
1.0
 40
1.0
 40
1.0
 40
1.0
 10
128.1084992874362
 20
144.2555207873552
 30
0.0
 10
127.5655199895062
 20
144.2555207873552
 30
0.0
 10
127.0225406915765
 20
143.7125414894256
 30
0.0
 10
127.0225406915765
 20
143.1695621914955
 30
0.0
  0
LWPOLYLINE
  5
557
330
1F
100
AcDbEntity
  8
0
 62
     0
370
     5
100
AcDbPolyline
 90
        2
 70
     0
 43
0.0
 10
102.5884722847359
 20
144.7985000852852
 10
106.9323066681744
 20
144.7985000852852
  0
LWPOLYLINE
  5
558
330
1F
100
AcDbEntity
  8
0
 62
     0
370
     5
100
AcDbPolyline
 90
        2
 70
     0
 43
0.0
 10
102.5884722847359
 20
143.7125414894256
 10
102.5884722847359
 20
144.7985000852852
  0
LWPOLYLINE
  5
559
330
1F
100
AcDbEntity
  8
0
 62
     0
370
     5
100
AcDbPolyline
 90
        2
 70
     0
 43
0.0
 10
105.8463480723146
 20
143.7125414894256
 10
102.5884722847359
 20
143.7125414894256
  0
LWPOLYLINE
  5
55A
330
1F
100
AcDbEntity
  8
0
 62
     0
370
     5
100
AcDbPolyline
 90
        2
 70
     0
 43
0.0
 10
102.5884722847359
 20
137.7397692121977
 10
105.8463480723146
 20
143.7125414894256
  0
LWPOLYLINE
  5
55B
330
1F
100
AcDbEntity
  8
0
 62
     0
370
     5
100
AcDbPolyline
 90
        2
 70
     0
 43
0.0
 10
103.6744308805957
 20
137.7397692121977
 10
102.5884722847359
 20
137.7397692121977
  0
LWPOLYLINE
  5
55C
330
1F
100
AcDbEntity
  8
0
 62
     0
370
     5
100
AcDbPolyline
 90
        2
 70
     0
 43
0.0
 10
106.9323066681744
 20
144.2555207873552
 10
103.6744308805957
 20
137.7397692121977
  0
LWPOLYLINE
  5
55D
330
1F
100
AcDbEntity
  8
0
 62
     0
370
     5
100
AcDbPolyline
 90
        2
 70
     0
 43
0.0
 10
106.9323066681744
 20
144.7985000852852
 10
106.9323066681744
 20
144.2555207873552
  0
SPLINE
  5
55E
330
1F
100
AcDbEntity
  8
0
 62
     0
370
     5
100
AcDbSpline
210
0.0
220
0.0
230
1.0
 70
     8
 71
     3
 72
    11
 73
     7
 74
     0
 42
0.0000000001
 43
0.0000000001
 40
0.0
 40
0.0
 40
0.0
 40
0.0
 40
1.0
 40
1.0
 40
1.0
 40
2.0
 40
2.0
 40
2.0
 40
2.0
 10
160.1442778652939
 20
120.9074109763739
 30
0.0
 10
160.1442778652939
 20
121.4503902743041
 30
0.0
 10
159.6012985673641
 20
121.9933695722336
 30
0.0
 10
159.6012985673641
 20
122.5363488701632
 30
0.0
 10
159.0583192694346
 20
123.0793281680934
 30
0.0
 10
159.0583192694346
 20
123.622307466023
 30
0.0
 10
159.0583192694346
 20
124.165286763953
 30
0.0
  0
SPLINE
  5
55F
330
1F
100
AcDbEntity
  8
0
 62
     0
370
     5
100
AcDbSpline
210
0.0
220
0.0
230
1.0
 70
    24
 71
     3
 72
     8
 73
     4
 74
     0
 42
0.0000000001
 43
0.0000000001
 40
0.0
 40
0.0
 40
0.0
 40
0.0
 40
1.0
 40
1.0
 40
1.0
 40
1.0
 10
160.6872571632237
 20
120.3644316784443
 30
0.0
 10
160.6872571632237
 20
120.3644316784443
 30
0.0
 10
160.1442778652939
 20
120.9074109763739
 30
0.0
 10
160.1442778652939
 20
120.9074109763739
 30
0.0
  0
LWPOLYLINE
  5
560
330
1F
100
AcDbEntity
  8
0
 62
     0
370
     5
100
AcDbPolyline
 90
        2
 70
     0
 43
0.0
 10
159.0583192694346
 20
124.165286763953
 10
159.0583192694346
 20
124.7082660618826
  0
SPLINE
  5
561
330
1F
100
AcDbEntity
  8
0
 62
     0
370
     5
100
AcDbSpline
210
0.0
220
0.0
230
1.0
 70
     8
 71
     3
 72
    11
 73
     7
 74
     0
 42
0.0000000001
 43
0.0000000001
 40
0.0
 40
0.0
 40
0.0
 40
0.0
 40
1.0
 40
1.0
 40
1.0
 40
2.0
 40
2.0
 40
2.0
 40
2.0
 10
159.0583192694346
 20
124.7082660618826
 30
0.0
 10
159.0583192694346
 20
125.2512453598126
 30
0.0
 10
159.0583192694346
 20
125.7942246577422
 30
0.0
 10
158.5153399715045
 20
125.7942246577422
 30
0.0
 10
158.5153399715045
 20
126.3372039556717
 30
0.0
 10
157.9723606735748
 20
126.3372039556717
 30
0.0
 10
157.9723606735748
 20
126.3372039556717
 30
0.0
  0
LWPOLYLINE
  5
562
330
1F
100
AcDbEntity
  8
0
 62
     0
370
     5
100
AcDbPolyline
 90
        2
 70
     0
 43
0.0
 10
157.9723606735748
 20
126.3372039556717
 10
157.9723606735748
 20
126.8801832536019
  0
SPLINE
  5
563
330
1F
100
AcDbEntity
  8
0
 62
     0
370
     5
100
AcDbSpline
210
0.0
220
0.0
230
1.0
 70
    24
 71
     3
 72
     8
 73
     4
 74
     0
 42
0.0000000001
 43
0.0000000001
 40
0.0
 40
0.0
 40
0.0
 40
0.0
 40
1.0
 40
1.0
 40
1.0
 40
1.0
 10
157.9723606735748
 20
126.8801832536019
 30
0.0
 10
157.429381375645
 20
127.4231625515315
 30
0.0
 10
157.429381375645
 20
127.4231625515315
 30
0.0
 10
157.429381375645
 20
127.4231625515315
 30
0.0
  0
LWPOLYLINE
  5
564
330
1F
100
AcDbEntity
  8
0
 62
     0
370
     5
100
AcDbPolyline
 90
        2
 70
     0
 43
0.0
 10
157.429381375645
 20
127.4231625515315
 10
156.8864020777152
 20
127.4231625515315
  0
SPLINE
  5
565
330
1F
100
AcDbEntity
  8
0
 62
     0
370
     5
100
AcDbSpline
210
0.0
220
0.0
230
1.0
 70
     8
 71
     3
 72
     8
 73
     4
 74
     0
 42
0.0000000001
 43
0.0000000001
 40
0.0
 40
0.0
 40
0.0
 40
0.0
 40
1.0
 40
1.0
 40
1.0
 40
1.0
 10
156.8864020777152
 20
127.4231625515315
 30
0.0
 10
156.3434227797854
 20
127.4231625515315
 30
0.0
 10
156.3434227797854
 20
127.4231625515315
 30
0.0
 10
156.3434227797854
 20
126.8801832536019
 30
0.0
  0
LWPOLYLINE
  5
566
330
1F
100
AcDbEntity
  8
0
 62
     0
370
     5
100
AcDbPolyline
 90
        2
 70
     0
 43
0.0
 10
156.3434227797854
 20
126.8801832536019
 10
156.3434227797854
 20
126.3372039556717
  0
SPLINE
  5
567
330
1F
100
AcDbEntity
  8
0
 62
     0
370
     5
100
AcDbSpline
210
0.0
220
0.0
230
1.0
 70
     8
 71
     3
 72
    11
 73
     7
 74
     0
 42
0.0000000001
 43
0.0000000001
 40
0.0
 40
0.0
 40
0.0
 40
0.0
 40
1.0
 40
1.0
 40
1.0
 40
2.0
 40
2.0
 40
2.0
 40
2.0
 10
156.3434227797854
 20
126.3372039556717
 30
0.0
 10
155.8004434818558
 20
126.3372039556717
 30
0.0
 10
155.8004434818558
 20
126.3372039556717
 30
0.0
 10
155.2574641839258
 20
125.7942246577422
 30
0.0
 10
155.2574641839258
 20
125.7942246577422
 30
0.0
 10
155.2574641839258
 20
125.2512453598126
 30
0.0
 10
154.7144848859961
 20
124.7082660618826
 30
0.0
  0
LWPOLYLINE
  5
568
330
1F
100
AcDbEntity
  8
0
 62
     0
370
     5
100
AcDbPolyline
 90
        2
 70
     0
 43
0.0
 10
154.7144848859961
 20
124.7082660618826
 10
154.7144848859961
 20
124.165286763953
  0
SPLINE
  5
569
330
1F
100
AcDbEntity
  8
0
 62
     0
370
     5
100
AcDbSpline
210
0.0
220
0.0
230
1.0
 70
     8
 71
     3
 72
    11
 73
     7
 74
     0
 42
0.0000000001
 43
0.0000000001
 40
0.0
 40
0.0
 40
0.0
 40
0.0
 40
1.0
 40
1.0
 40
1.0
 40
2.0
 40
2.0
 40
2.0
 40
2.0
 10
154.7144848859961
 20
124.165286763953
 30
0.0
 10
154.7144848859961
 20
123.622307466023
 30
0.0
 10
154.7144848859961
 20
123.0793281680934
 30
0.0
 10
154.7144848859961
 20
122.5363488701632
 30
0.0
 10
154.1715055880663
 20
121.9933695722336
 30
0.0
 10
154.1715055880663
 20
121.4503902743041
 30
0.0
 10
153.6285262901363
 20
120.9074109763739
 30
0.0
  0
SPLINE
  5
56A
330
1F
100
AcDbEntity
  8
0
 62
     0
370
     5
100
AcDbSpline
210
0.0
220
0.0
230
1.0
 70
    24
 71
     3
 72
     8
 73
     4
 74
     0
 42
0.0000000001
 43
0.0000000001
 40
0.0
 40
0.0
 40
0.0
 40
0.0
 40
1.0
 40
1.0
 40
1.0
 40
1.0
 10
153.6285262901363
 20
120.9074109763739
 30
0.0
 10
153.6285262901363
 20
120.9074109763739
 30
0.0
 10
153.6285262901363
 20
120.3644316784443
 30
0.0
 10
153.6285262901363
 20
120.3644316784443
 30
0.0
  0
LWPOLYLINE
  5
56B
330
1F
100
AcDbEntity
  8
0
 62
     0
370
     5
100
AcDbPolyline
 90
        2
 70
     0
 43
0.0
 10
153.6285262901363
 20
120.3644316784443
 10
153.6285262901363
 20
119.8214523805143
  0
LWPOLYLINE
  5
56C
330
1F
100
AcDbEntity
  8
0
 62
     0
370
     5
100
AcDbPolyline
 90
        2
 70
     0
 43
0.0
 10
153.6285262901363
 20
119.8214523805143
 10
155.2574641839258
 20
119.8214523805143
  0
LWPOLYLINE
  5
56D
330
1F
100
AcDbEntity
  8
0
 62
     0
370
     5
100
AcDbPolyline
 90
        2
 70
     0
 43
0.0
 10
155.2574641839258
 20
119.8214523805143
 10
154.7144848859961
 20
118.7354937846551
  0
SPLINE
  5
56E
330
1F
100
AcDbEntity
  8
0
 62
     0
370
     5
100
AcDbSpline
210
0.0
220
0.0
230
1.0
 70
    24
 71
     3
 72
     8
 73
     4
 74
     0
 42
0.0000000001
 43
0.0000000001
 40
0.0
 40
0.0
 40
0.0
 40
0.0
 40
1.0
 40
1.0
 40
1.0
 40
1.0
 10
154.7144848859961
 20
118.7354937846551
 30
0.0
 10
154.7144848859961
 20
118.7354937846551
 30
0.0
 10
154.7144848859961
 20
118.7354937846551
 30
0.0
 10
155.2574641839258
 20
118.7354937846551
 30
0.0
  0
LWPOLYLINE
  5
56F
330
1F
100
AcDbEntity
  8
0
 62
     0
370
     5
100
AcDbPolyline
 90
        2
 70
     0
 43
0.0
 10
155.2574641839258
 20
118.7354937846551
 10
155.8004434818558
 20
118.7354937846551
  0
SPLINE
  5
570
330
1F
100
AcDbEntity
  8
0
 62
     0
370
     5
100
AcDbSpline
210
0.0
220
0.0
230
1.0
 70
    27
 71
     3
 72
     8
 73
     4
 74
     0
 42
0.0000000001
 43
0.0000000001
 40
0.0
 40
0.0
 40
0.0
 40
0.0
 40
1.0
 40
1.0
 40
1.0
 40
1.0
 10
155.8004434818558
 20
118.7354937846551
 30
0.0
 10
155.8004434818558
 20
118.7354937846551
 30
0.0
 10
155.8004434818558
 20
118.7354937846551
 30
0.0
 10
155.8004434818558
 20
118.7354937846551
 30
0.0
  0
LWPOLYLINE
  5
571
330
1F
100
AcDbEntity
  8
0
 62
     0
370
     5
100
AcDbPolyline
 90
        2
 70
     0
 43
0.0
 10
155.8004434818558
 20
118.7354937846551
 10
156.3434227797854
 20
119.8214523805143
  0
LWPOLYLINE
  5
572
330
1F
100
AcDbEntity
  8
0
 62
     0
370
     5
100
AcDbPolyline
 90
        2
 70
     0
 43
0.0
 10
156.3434227797854
 20
119.8214523805143
 10
160.6872571632237
 20
119.8214523805143
  0
LWPOLYLINE
  5
573
330
1F
100
AcDbEntity
  8
0
 62
     0
370
     5
100
AcDbPolyline
 90
        2
 70
     0
 43
0.0
 10
160.6872571632237
 20
119.8214523805143
 10
160.6872571632237
 20
120.3644316784443
  0
LWPOLYLINE
  5
574
330
1F
100
AcDbEntity
  8
0
 62
     0
370
     5
100
AcDbPolyline
 90
        2
 70
     0
 43
0.0
 10
159.6012985673641
 20
120.3644316784443
 10
154.7144848859961
 20
120.3644316784443
  0
SPLINE
  5
575
330
1F
100
AcDbEntity
  8
0
 62
     0
370
     5
100
AcDbSpline
210
0.0
220
0.0
230
1.0
 70
    24
 71
     3
 72
     8
 73
     4
 74
     0
 42
0.0000000001
 43
0.0000000001
 40
0.0
 40
0.0
 40
0.0
 40
0.0
 40
1.0
 40
1.0
 40
1.0
 40
1.0
 10
154.7144848859961
 20
120.3644316784443
 30
0.0
 10
154.7144848859961
 20
120.3644316784443
 30
0.0
 10
154.7144848859961
 20
120.3644316784443
 30
0.0
 10
154.7144848859961
 20
120.9074109763739
 30
0.0
  0
SPLINE
  5
576
330
1F
100
AcDbEntity
  8
0
 62
     0
370
     5
100
AcDbSpline
210
0.0
220
0.0
230
1.0
 70
     8
 71
     3
 72
    11
 73
     7
 74
     0
 42
0.0000000001
 43
0.0000000001
 40
0.0
 40
0.0
 40
0.0
 40
0.0
 40
1.0
 40
1.0
 40
1.0
 40
2.0
 40
2.0
 40
2.0
 40
2.0
 10
154.7144848859961
 20
120.9074109763739
 30
0.0
 10
154.7144848859961
 20
121.4503902743041
 30
0.0
 10
155.2574641839258
 20
121.9933695722336
 30
0.0
 10
155.2574641839258
 20
122.5363488701632
 30
0.0
 10
155.8004434818558
 20
123.0793281680934
 30
0.0
 10
155.8004434818558
 20
123.622307466023
 30
0.0
 10
155.8004434818558
 20
124.165286763953
 30
0.0
  0
LWPOLYLINE
  5
577
330
1F
100
AcDbEntity
  8
0
 62
     0
370
     5
100
AcDbPolyline
 90
        2
 70
     0
 43
0.0
 10
155.8004434818558
 20
124.165286763953
 10
155.8004434818558
 20
124.7082660618826
  0
SPLINE
  5
578
330
1F
100
AcDbEntity
  8
0
 62
     0
370
     5
100
AcDbSpline
210
0.0
220
0.0
230
1.0
 70
     8
 71
     3
 72
     8
 73
     4
 74
     0
 42
0.0000000001
 43
0.0000000001
 40
0.0
 40
0.0
 40
0.0
 40
0.0
 40
1.0
 40
1.0
 40
1.0
 40
1.0
 10
155.8004434818558
 20
124.7082660618826
 30
0.0
 10
155.8004434818558
 20
125.2512453598126
 30
0.0
 10
156.3434227797854
 20
125.7942246577422
 30
0.0
 10
156.8864020777152
 20
125.7942246577422
 30
0.0
  0
SPLINE
  5
579
330
1F
100
AcDbEntity
  8
0
 62
     0
370
     5
100
AcDbSpline
210
0.0
220
0.0
230
1.0
 70
     8
 71
     3
 72
    11
 73
     7
 74
     0
 42
0.0000000001
 43
0.0000000001
 40
0.0
 40
0.0
 40
0.0
 40
0.0
 40
1.0
 40
1.0
 40
1.0
 40
2.0
 40
2.0
 40
2.0
 40
2.0
 10
156.8864020777152
 20
125.7942246577422
 30
0.0
 10
157.429381375645
 20
125.7942246577422
 30
0.0
 10
157.429381375645
 20
125.7942246577422
 30
0.0
 10
157.9723606735748
 20
125.7942246577422
 30
0.0
 10
157.9723606735748
 20
125.2512453598126
 30
0.0
 10
157.9723606735748
 20
125.2512453598126
 30
0.0
 10
157.9723606735748
 20
124.7082660618826
 30
0.0
  0
LWPOLYLINE
  5
57A
330
1F
100
AcDbEntity
  8
0
 62
     0
370
     5
100
AcDbPolyline
 90
        2
 70
     0
 43
0.0
 10
157.9723606735748
 20
124.7082660618826
 10
158.5153399715045
 20
124.165286763953
  0
SPLINE
  5
57B
330
1F
100
AcDbEntity
  8
0
 62
     0
370
     5
100
AcDbSpline
210
0.0
220
0.0
230
1.0
 70
     8
 71
     3
 72
     8
 73
     4
 74
     0
 42
0.0000000001
 43
0.0000000001
 40
0.0
 40
0.0
 40
0.0
 40
0.0
 40
1.0
 40
1.0
 40
1.0
 40
1.0
 10
158.5153399715045
 20
124.165286763953
 30
0.0
 10
158.5153399715045
 20
123.0793281680934
 30
0.0
 10
159.0583192694346
 20
121.4503902743041
 30
0.0
 10
159.6012985673641
 20
120.9074109763739
 30
0.0
  0
SPLINE
  5
57C
330
1F
100
AcDbEntity
  8
0
 62
     0
370
     5
100
AcDbSpline
210
0.0
220
0.0
230
1.0
 70
    24
 71
     3
 72
     8
 73
     4
 74
     0
 42
0.0000000001
 43
0.0000000001
 40
0.0
 40
0.0
 40
0.0
 40
0.0
 40
1.0
 40
1.0
 40
1.0
 40
1.0
 10
159.6012985673641
 20
120.9074109763739
 30
0.0
 10
159.6012985673641
 20
120.3644316784443
 30
0.0
 10
159.6012985673641
 20
120.3644316784443
 30
0.0
 10
159.6012985673641
 20
120.3644316784443
 30
0.0
  0
SPLINE
  5
57D
330
1F
100
AcDbEntity
  8
0
 62
     0
370
     5
100
AcDbSpline
210
0.0
220
0.0
230
1.0
 70
    27
 71
     3
 72
     8
 73
     4
 74
     0
 42
0.0000000001
 43
0.0000000001
 40
0.0
 40
0.0
 40
0.0
 40
0.0
 40
1.0
 40
1.0
 40
1.0
 40
1.0
 10
153.0855469922065
 20
125.7942246577422
 30
0.0
 10
153.0855469922065
 20
125.7942246577422
 30
0.0
 10
153.0855469922065
 20
125.7942246577422
 30
0.0
 10
153.0855469922065
 20
125.7942246577422
 30
0.0
  0
SPLINE
  5
57E
330
1F
100
AcDbEntity
  8
0
 62
     0
370
     5
100
AcDbSpline
210
0.0
220
0.0
230
1.0
 70
     8
 71
     3
 72
     8
 73
     4
 74
     0
 42
0.0000000001
 43
0.0000000001
 40
0.0
 40
0.0
 40
0.0
 40
0.0
 40
1.0
 40
1.0
 40
1.0
 40
1.0
 10
154.1715055880663
 20
127.4231625515315
 30
0.0
 10
153.6285262901363
 20
126.8801832536019
 30
0.0
 10
153.6285262901363
 20
126.3372039556717
 30
0.0
 10
153.0855469922065
 20
125.7942246577422
 30
0.0
  0
SPLINE
  5
57F
330
1F
100
AcDbEntity
  8
0
 62
     0
370
     5
100
AcDbSpline
210
0.0
220
0.0
230
1.0
 70
    24
 71
     3
 72
     8
 73
     4
 74
     0
 42
0.0000000001
 43
0.0000000001
 40
0.0
 40
0.0
 40
0.0
 40
0.0
 40
1.0
 40
1.0
 40
1.0
 40
1.0
 10
153.0855469922065
 20
125.7942246577422
 30
0.0
 10
153.6285262901363
 20
125.7942246577422
 30
0.0
 10
153.6285262901363
 20
125.7942246577422
 30
0.0
 10
153.6285262901363
 20
125.7942246577422
 30
0.0
  0
SPLINE
  5
580
330
1F
100
AcDbEntity
  8
0
 62
     0
370
     5
100
AcDbSpline
210
0.0
220
0.0
230
1.0
 70
     8
 71
     3
 72
     8
 73
     4
 74
     0
 42
0.0000000001
 43
0.0000000001
 40
0.0
 40
0.0
 40
0.0
 40
0.0
 40
1.0
 40
1.0
 40
1.0
 40
1.0
 10
153.6285262901363
 20
125.7942246577422
 30
0.0
 10
153.6285262901363
 20
126.3372039556717
 30
0.0
 10
154.1715055880663
 20
126.8801832536019
 30
0.0
 10
154.7144848859961
 20
127.4231625515315
 30
0.0
  0
SPLINE
  5
581
330
1F
100
AcDbEntity
  8
0
 62
     0
370
     5
100
AcDbSpline
210
0.0
220
0.0
230
1.0
 70
     8
 71
     3
 72
     8
 73
     4
 74
     0
 42
0.0000000001
 43
0.0000000001
 40
0.0
 40
0.0
 40
0.0
 40
0.0
 40
1.0
 40
1.0
 40
1.0
 40
1.0
 10
154.7144848859961
 20
127.4231625515315
 30
0.0
 10
154.7144848859961
 20
127.4231625515315
 30
0.0
 10
154.7144848859961
 20
127.9661418494617
 30
0.0
 10
154.1715055880663
 20
127.4231625515315
 30
0.0
  0
SPLINE
  5
582
330
1F
100
AcDbEntity
  8
0
 62
     0
370
     5
100
AcDbSpline
210
0.0
220
0.0
230
1.0
 70
    27
 71
     3
 72
     8
 73
     4
 74
     0
 42
0.0000000001
 43
0.0000000001
 40
0.0
 40
0.0
 40
0.0
 40
0.0
 40
1.0
 40
1.0
 40
1.0
 40
1.0
 10
151.9995883963471
 20
125.7942246577422
 30
0.0
 10
151.9995883963471
 20
125.7942246577422
 30
0.0
 10
151.9995883963471
 20
125.7942246577422
 30
0.0
 10
151.9995883963471
 20
125.7942246577422
 30
0.0
  0
SPLINE
  5
583
330
1F
100
AcDbEntity
  8
0
 62
     0
370
     5
100
AcDbSpline
210
0.0
220
0.0
230
1.0
 70
     8
 71
     3
 72
    11
 73
     7
 74
     0
 42
0.0000000001
 43
0.0000000001
 40
0.0
 40
0.0
 40
0.0
 40
0.0
 40
1.0
 40
1.0
 40
1.0
 40
2.0
 40
2.0
 40
2.0
 40
2.0
 10
153.6285262901363
 20
128.5091211473913
 30
0.0
 10
153.0855469922065
 20
128.5091211473913
 30
0.0
 10
153.0855469922065
 20
127.9661418494617
 30
0.0
 10
152.5425676942769
 20
127.4231625515315
 30
0.0
 10
151.9995883963471
 20
126.8801832536019
 30
0.0
 10
151.9995883963471
 20
126.3372039556717
 30
0.0
 10
151.9995883963471
 20
125.7942246577422
 30
0.0
  0
SPLINE
  5
584
330
1F
100
AcDbEntity
  8
0
 62
     0
370
     5
100
AcDbSpline
210
0.0
220
0.0
230
1.0
 70
    24
 71
     3
 72
     8
 73
     4
 74
     0
 42
0.0000000001
 43
0.0000000001
 40
0.0
 40
0.0
 40
0.0
 40
0.0
 40
1.0
 40
1.0
 40
1.0
 40
1.0
 10
151.9995883963471
 20
125.7942246577422
 30
0.0
 10
151.9995883963471
 20
125.7942246577422
 30
0.0
 10
152.5425676942769
 20
125.7942246577422
 30
0.0
 10
152.5425676942769
 20
125.7942246577422
 30
0.0
  0
SPLINE
  5
585
330
1F
100
AcDbEntity
  8
0
 62
     0
370
     5
100
AcDbSpline
210
0.0
220
0.0
230
1.0
 70
     8
 71
     3
 72
    11
 73
     7
 74
     0
 42
0.0000000001
 43
0.0000000001
 40
0.0
 40
0.0
 40
0.0
 40
0.0
 40
1.0
 40
1.0
 40
1.0
 40
2.0
 40
2.0
 40
2.0
 40
2.0
 10
152.5425676942769
 20
125.7942246577422
 30
0.0
 10
152.5425676942769
 20
126.3372039556717
 30
0.0
 10
152.5425676942769
 20
126.8801832536019
 30
0.0
 10
153.0855469922065
 20
127.4231625515315
 30
0.0
 10
153.0855469922065
 20
127.4231625515315
 30
0.0
 10
153.6285262901363
 20
127.9661418494617
 30
0.0
 10
154.1715055880663
 20
128.5091211473913
 30
0.0
  0
SPLINE
  5
586
330
1F
100
AcDbEntity
  8
0
 62
     0
370
     5
100
AcDbSpline
210
0.0
220
0.0
230
1.0
 70
     8
 71
     3
 72
     8
 73
     4
 74
     0
 42
0.0000000001
 43
0.0000000001
 40
0.0
 40
0.0
 40
0.0
 40
0.0
 40
1.0
 40
1.0
 40
1.0
 40
1.0
 10
154.1715055880663
 20
128.5091211473913
 30
0.0
 10
154.1715055880663
 20
128.5091211473913
 30
0.0
 10
154.1715055880663
 20
129.0521004453209
 30
0.0
 10
153.6285262901363
 20
128.5091211473913
 30
0.0
  0
HATCH
  5
587
330
1F
100
AcDbEntity
  8
0
 62
     0
100
AcDbHatch
 10
0.0
 20
0.0
 30
0.0
210
0.0
220
0.0
230
1.0
  2
SOLID
 70
     1
 71
     0
 91
        1
 92
        3
 72
     0
 73
     1
 93
        3
 10
128.1084992874362
 20
119.2784730825847
 10
128.1084992874362
 20
118.7354937846551
 10
127.5655199895062
 20
119.2784730825847
 97
        0
 75
     2
 76
     0
 98
        1
 10
-1046.761887751267
 20
-2369.966816746398
  0
SPLINE
  5
588
330
1F
100
AcDbEntity
  8
0
 62
     0
370
     5
100
AcDbSpline
210
0.0
220
0.0
230
1.0
 70
     8
 71
     3
 72
    14
 73
    10
 74
     0
 42
0.0000000001
 43
0.0000000001
 40
0.0
 40
0.0
 40
0.0
 40
0.0
 40
1.0
 40
1.0
 40
1.0
 40
2.0
 40
2.0
 40
2.0
 40
3.0
 40
3.0
 40
3.0
 40
3.0
 10
130.2804164791554
 20
123.0793281680934
 30
0.0
 10
130.2804164791554
 20
121.9933695722336
 30
0.0
 10
130.2804164791554
 20
121.4503902743041
 30
0.0
 10
129.7374371812257
 20
120.3644316784443
 30
0.0
 10
129.7374371812257
 20
120.3644316784443
 30
0.0
 10
129.7374371812257
 20
119.8214523805143
 30
0.0
 10
129.1944578832958
 20
119.2784730825848
 30
0.0
 10
128.651478585366
 20
119.2784730825848
 30
0.0
 10
128.1084992874362
 20
119.2784730825848
 30
0.0
 10
128.1084992874362
 20
119.2784730825848
 30
0.0
  0
SPLINE
  5
589
330
1F
100
AcDbEntity
  8
0
 62
     0
370
     5
100
AcDbSpline
210
0.0
220
0.0
230
1.0
 70
     8
 71
     3
 72
    14
 73
    10
 74
     0
 42
0.0000000001
 43
0.0000000001
 40
0.0
 40
0.0
 40
0.0
 40
0.0
 40
1.0
 40
1.0
 40
1.0
 40
2.0
 40
2.0
 40
2.0
 40
3.0
 40
3.0
 40
3.0
 40
3.0
 10
128.1084992874362
 20
126.3372039556717
 30
0.0
 10
128.651478585366
 20
126.3372039556717
 30
0.0
 10
128.651478585366
 20
126.3372039556717
 30
0.0
 10
129.1944578832958
 20
126.3372039556717
 30
0.0
 10
129.7374371812257
 20
125.7942246577422
 30
0.0
 10
129.7374371812257
 20
125.7942246577422
 30
0.0
 10
129.7374371812257
 20
125.2512453598126
 30
0.0
 10
130.2804164791554
 20
124.7082660618826
 30
0.0
 10
130.2804164791554
 20
123.622307466023
 30
0.0
 10
130.2804164791554
 20
123.0793281680934
 30
0.0
  0
SPLINE
  5
58A
330
1F
100
AcDbEntity
  8
0
 62
     0
370
     5
100
AcDbSpline
210
0.0
220
0.0
230
1.0
 70
     8
 71
     3
 72
    11
 73
     7
 74
     0
 42
0.0000000001
 43
0.0000000001
 40
0.0
 40
0.0
 40
0.0
 40
0.0
 40
1.0
 40
1.0
 40
1.0
 40
2.0
 40
2.0
 40
2.0
 40
2.0
 10
125.3936027977873
 20
123.0793281680934
 30
0.0
 10
125.3936027977873
 20
123.622307466023
 30
0.0
 10
125.9365820957171
 20
124.7082660618826
 30
0.0
 10
125.9365820957171
 20
125.2512453598126
 30
0.0
 10
126.4795613936468
 20
126.3372039556717
 30
0.0
 10
127.0225406915765
 20
126.3372039556717
 30
0.0
 10
128.1084992874362
 20
126.3372039556717
 30
0.0
  0
SPLINE
  5
58B
330
1F
100
AcDbEntity
  8
0
 62
     0
370
     5
100
AcDbSpline
210
0.0
220
0.0
230
1.0
 70
     8
 71
     3
 72
    14
 73
    10
 74
     0
 42
0.0000000001
 43
0.0000000001
 40
0.0
 40
0.0
 40
0.0
 40
0.0
 40
1.0
 40
1.0
 40
1.0
 40
2.0
 40
2.0
 40
2.0
 40
3.0
 40
3.0
 40
3.0
 40
3.0
 10
128.1084992874362
 20
119.2784730825848
 30
0.0
 10
127.5655199895062
 20
119.2784730825848
 30
0.0
 10
127.0225406915765
 20
119.2784730825848
 30
0.0
 10
127.0225406915765
 20
119.8214523805143
 30
0.0
 10
126.4795613936468
 20
119.8214523805143
 30
0.0
 10
126.4795613936468
 20
120.3644316784443
 30
0.0
 10
125.9365820957171
 20
120.3644316784443
 30
0.0
 10
125.9365820957171
 20
121.4503902743041
 30
0.0
 10
125.3936027977873
 20
121.9933695722336
 30
0.0
 10
125.3936027977873
 20
123.0793281680934
 30
0.0
  0
HATCH
  5
58C
330
1F
100
AcDbEntity
  8
0
 62
     0
100
AcDbHatch
 10
0.0
 20
0.0
 30
0.0
210
0.0
220
0.0
230
1.0
  2
SOLID
 70
     1
 71
     0
 91
        1
 92
        3
 72
     0
 73
     1
 93
        3
 10
128.1084992874362
 20
119.8214523805143
 10
127.5655199895062
 20
119.8214523805143
 10
128.1084992874362
 20
120.3644316784443
 97
        0
 75
     2
 76
     0
 98
        1
 10
-1046.761887751267
 20
-2369.966816746398
  0
SPLINE
  5
58D
330
1F
100
AcDbEntity
  8
0
 62
     0
370
     5
100
AcDbSpline
210
0.0
220
0.0
230
1.0
 70
     8
 71
     3
 72
    14
 73
    10
 74
     0
 42
0.0000000001
 43
0.0000000001
 40
0.0
 40
0.0
 40
0.0
 40
0.0
 40
1.0
 40
1.0
 40
1.0
 40
2.0
 40
2.0
 40
2.0
 40
3.0
 40
3.0
 40
3.0
 40
3.0
 10
126.4795613936468
 20
123.0793281680934
 30
0.0
 10
126.4795613936468
 20
122.5363488701632
 30
0.0
 10
126.4795613936468
 20
121.4503902743041
 30
0.0
 10
127.0225406915765
 20
120.9074109763739
 30
0.0
 10
127.0225406915765
 20
120.9074109763739
 30
0.0
 10
127.0225406915765
 20
120.3644316784443
 30
0.0
 10
127.0225406915765
 20
120.3644316784443
 30
0.0
 10
127.5655199895062
 20
119.8214523805143
 30
0.0
 10
127.5655199895062
 20
119.8214523805143
 30
0.0
 10
128.1084992874362
 20
119.8214523805143
 30
0.0
  0
SPLINE
  5
58E
330
1F
100
AcDbEntity
  8
0
 62
     0
370
     5
100
AcDbSpline
210
0.0
220
0.0
230
1.0
 70
     8
 71
     3
 72
    14
 73
    10
 74
     0
 42
0.0000000001
 43
0.0000000001
 40
0.0
 40
0.0
 40
0.0
 40
0.0
 40
1.0
 40
1.0
 40
1.0
 40
2.0
 40
2.0
 40
2.0
 40
3.0
 40
3.0
 40
3.0
 40
3.0
 10
128.1084992874362
 20
125.7942246577422
 30
0.0
 10
127.5655199895062
 20
125.7942246577422
 30
0.0
 10
127.5655199895062
 20
125.7942246577422
 30
0.0
 10
127.0225406915765
 20
125.2512453598126
 30
0.0
 10
127.0225406915765
 20
125.2512453598126
 30
0.0
 10
127.0225406915765
 20
125.2512453598126
 30
0.0
 10
127.0225406915765
 20
124.7082660618826
 30
0.0
 10
126.4795613936468
 20
124.165286763953
 30
0.0
 10
126.4795613936468
 20
123.622307466023
 30
0.0
 10
126.4795613936468
 20
123.0793281680934
 30
0.0
  0
SPLINE
  5
58F
330
1F
100
AcDbEntity
  8
0
 62
     0
370
     5
100
AcDbSpline
210
0.0
220
0.0
230
1.0
 70
     8
 71
     3
 72
    11
 73
     7
 74
     0
 42
0.0000000001
 43
0.0000000001
 40
0.0
 40
0.0
 40
0.0
 40
0.0
 40
1.0
 40
1.0
 40
1.0
 40
2.0
 40
2.0
 40
2.0
 40
2.0
 10
129.1944578832958
 20
123.0793281680934
 30
0.0
 10
129.1944578832958
 20
123.622307466023
 30
0.0
 10
129.1944578832958
 20
124.165286763953
 30
0.0
 10
129.1944578832958
 20
124.7082660618826
 30
0.0
 10
129.1944578832958
 20
125.2512453598126
 30
0.0
 10
128.651478585366
 20
125.7942246577422
 30
0.0
 10
128.1084992874362
 20
125.7942246577422
 30
0.0
  0
SPLINE
  5
590
330
1F
100
AcDbEntity
  8
0
 62
     0
370
     5
100
AcDbSpline
210
0.0
220
0.0
230
1.0
 70
     8
 71
     3
 72
    11
 73
     7
 74
     0
 42
0.0000000001
 43
0.0000000001
 40
0.0
 40
0.0
 40
0.0
 40
0.0
 40
1.0
 40
1.0
 40
1.0
 40
2.0
 40
2.0
 40
2.0
 40
2.0
 10
128.1084992874362
 20
119.8214523805143
 30
0.0
 10
128.651478585366
 20
119.8214523805143
 30
0.0
 10
129.1944578832958
 20
120.3644316784443
 30
0.0
 10
129.1944578832958
 20
120.9074109763739
 30
0.0
 10
129.1944578832958
 20
121.4503902743041
 30
0.0
 10
129.1944578832958
 20
122.5363488701632
 30
0.0
 10
129.1944578832958
 20
123.0793281680934
 30
0.0
  0
LWPOLYLINE
  5
591
330
1F
100
AcDbEntity
  8
0
 62
     0
370
     5
100
AcDbPolyline
 90
        2
 70
     0
 43
0.0
 10
111.2761410516124
 20
127.9661418494617
 10
111.2761410516124
 20
127.9661418494617
  0
LWPOLYLINE
  5
592
330
1F
100
AcDbEntity
  8
0
 62
     0
370
     5
100
AcDbPolyline
 90
        2
 70
     0
 43
0.0
 10
111.2761410516124
 20
127.9661418494617
 10
111.2761410516124
 20
127.9661418494617
  0
LWPOLYLINE
  5
593
330
1F
100
AcDbEntity
  8
0
 62
     0
370
     5
100
AcDbPolyline
 90
        2
 70
     0
 43
0.0
 10
111.2761410516124
 20
127.9661418494617
 10
111.2761410516124
 20
127.9661418494617
  0
LWPOLYLINE
  5
594
330
1F
100
AcDbEntity
  8
0
 62
     0
370
     5
100
AcDbPolyline
 90
        2
 70
     0
 43
0.0
 10
108.5612445619636
 20
127.9661418494617
 10
111.2761410516124
 20
127.9661418494617
  0
LWPOLYLINE
  5
595
330
1F
100
AcDbEntity
  8
0
 62
     0
370
     5
100
AcDbPolyline
 90
        2
 70
     0
 43
0.0
 10
106.3893273702444
 20
127.9661418494617
 10
108.5612445619636
 20
127.9661418494617
  0
LWPOLYLINE
  5
596
330
1F
100
AcDbEntity
  8
0
 62
     0
370
     5
100
AcDbPolyline
 90
        2
 70
     0
 43
0.0
 10
105.8463480723146
 20
127.9661418494617
 10
106.3893273702444
 20
127.9661418494617
  0
LWPOLYLINE
  5
597
330
1F
100
AcDbEntity
  8
0
 62
     0
370
     5
100
AcDbPolyline
 90
        2
 70
     0
 43
0.0
 10
105.8463480723146
 20
127.9661418494617
 10
105.8463480723146
 20
127.9661418494617
  0
LWPOLYLINE
  5
598
330
1F
100
AcDbEntity
  8
0
 62
     0
370
     5
100
AcDbPolyline
 90
        2
 70
     0
 43
0.0
 10
105.8463480723146
 20
127.9661418494617
 10
105.8463480723146
 20
127.9661418494617
  0
LWPOLYLINE
  5
599
330
1F
100
AcDbEntity
  8
0
 62
     0
370
     5
100
AcDbPolyline
 90
        2
 70
     0
 43
0.0
 10
105.8463480723146
 20
127.4231625515315
 10
105.8463480723146
 20
127.9661418494617
  0
LWPOLYLINE
  5
59A
330
1F
100
AcDbEntity
  8
0
 62
     0
370
     5
100
AcDbPolyline
 90
        2
 70
     0
 43
0.0
 10
105.8463480723146
 20
123.622307466023
 10
105.8463480723146
 20
127.4231625515315
  0
LWPOLYLINE
  5
59B
330
1F
100
AcDbEntity
  8
0
 62
     0
370
     5
100
AcDbPolyline
 90
        2
 70
     0
 43
0.0
 10
105.8463480723146
 20
119.8214523805143
 10
105.8463480723146
 20
123.622307466023
  0
LWPOLYLINE
  5
59C
330
1F
100
AcDbEntity
  8
0
 62
     0
370
     5
100
AcDbPolyline
 90
        2
 70
     0
 43
0.0
 10
105.3033687743848
 20
119.8214523805143
 10
105.8463480723146
 20
119.8214523805143
  0
LWPOLYLINE
  5
59D
330
1F
100
AcDbEntity
  8
0
 62
     0
370
     5
100
AcDbPolyline
 90
        2
 70
     0
 43
0.0
 10
105.3033687743848
 20
119.8214523805143
 10
105.3033687743848
 20
119.8214523805143
  0
LWPOLYLINE
  5
59E
330
1F
100
AcDbEntity
  8
0
 62
     0
370
     5
100
AcDbPolyline
 90
        2
 70
     0
 43
0.0
 10
105.3033687743848
 20
119.8214523805143
 10
105.3033687743848
 20
119.8214523805143
  0
LWPOLYLINE
  5
59F
330
1F
100
AcDbEntity
  8
0
 62
     0
370
     5
100
AcDbPolyline
 90
        2
 70
     0
 43
0.0
 10
104.760389476455
 20
119.8214523805143
 10
105.3033687743848
 20
119.8214523805143
  0
LWPOLYLINE
  5
5A0
330
1F
100
AcDbEntity
  8
0
 62
     0
370
     5
100
AcDbPolyline
 90
        2
 70
     0
 43
0.0
 10
104.760389476455
 20
119.8214523805143
 10
104.760389476455
 20
119.8214523805143
  0
LWPOLYLINE
  5
5A1
330
1F
100
AcDbEntity
  8
0
 62
     0
370
     5
100
AcDbPolyline
 90
        2
 70
     0
 43
0.0
 10
104.760389476455
 20
119.8214523805143
 10
104.760389476455
 20
119.8214523805143
  0
LWPOLYLINE
  5
5A2
330
1F
100
AcDbEntity
  8
0
 62
     0
370
     5
100
AcDbPolyline
 90
        2
 70
     0
 43
0.0
 10
104.760389476455
 20
119.8214523805143
 10
104.760389476455
 20
119.8214523805143
  0
LWPOLYLINE
  5
5A3
330
1F
100
AcDbEntity
  8
0
 62
     0
370
     5
100
AcDbPolyline
 90
        2
 70
     0
 43
0.0
 10
104.760389476455
 20
119.2784730825848
 10
104.760389476455
 20
119.8214523805143
  0
LWPOLYLINE
  5
5A4
330
1F
100
AcDbEntity
  8
0
 62
     0
370
     5
100
AcDbPolyline
 90
        2
 70
     0
 43
0.0
 10
104.760389476455
 20
119.2784730825848
 10
104.760389476455
 20
119.2784730825848
  0
LWPOLYLINE
  5
5A5
330
1F
100
AcDbEntity
  8
0
 62
     0
370
     5
100
AcDbPolyline
 90
        2
 70
     0
 43
0.0
 10
105.3033687743848
 20
119.2784730825848
 10
105.3033687743848
 20
119.2784730825848
  0
LWPOLYLINE
  5
5A6
330
1F
100
AcDbEntity
  8
0
 62
     0
370
     5
100
AcDbPolyline
 90
        2
 70
     0
 43
0.0
 10
105.8463480723146
 20
119.2784730825848
 10
105.3033687743848
 20
119.2784730825848
  0
LWPOLYLINE
  5
5A7
330
1F
100
AcDbEntity
  8
0
 62
     0
370
     5
100
AcDbPolyline
 90
        2
 70
     0
 43
0.0
 10
106.3893273702444
 20
119.2784730825848
 10
105.8463480723146
 20
119.2784730825848
  0
LWPOLYLINE
  5
5A8
330
1F
100
AcDbEntity
  8
0
 62
     0
370
     5
100
AcDbPolyline
 90
        2
 70
     0
 43
0.0
 10
106.3893273702444
 20
119.2784730825848
 10
106.3893273702444
 20
119.2784730825848
  0
LWPOLYLINE
  5
5A9
330
1F
100
AcDbEntity
  8
0
 62
     0
370
     5
100
AcDbPolyline
 90
        2
 70
     0
 43
0.0
 10
106.3893273702444
 20
119.2784730825848
 10
106.3893273702444
 20
119.2784730825848
  0
LWPOLYLINE
  5
5AA
330
1F
100
AcDbEntity
  8
0
 62
     0
370
     5
100
AcDbPolyline
 90
        2
 70
     0
 43
0.0
 10
106.3893273702444
 20
119.2784730825848
 10
106.3893273702444
 20
119.2784730825848
  0
LWPOLYLINE
  5
5AB
330
1F
100
AcDbEntity
  8
0
 62
     0
370
     5
100
AcDbPolyline
 90
        2
 70
     0
 43
0.0
 10
106.3893273702444
 20
119.8214523805143
 10
106.3893273702444
 20
119.2784730825848
  0
LWPOLYLINE
  5
5AC
330
1F
100
AcDbEntity
  8
0
 62
     0
370
     5
100
AcDbPolyline
 90
        2
 70
     0
 43
0.0
 10
106.3893273702444
 20
123.622307466023
 10
106.3893273702444
 20
119.8214523805143
  0
LWPOLYLINE
  5
5AD
330
1F
100
AcDbEntity
  8
0
 62
     0
370
     5
100
AcDbPolyline
 90
        2
 70
     0
 43
0.0
 10
106.3893273702444
 20
127.4231625515315
 10
106.3893273702444
 20
123.622307466023
  0
LWPOLYLINE
  5
5AE
330
1F
100
AcDbEntity
  8
0
 62
     0
370
     5
100
AcDbPolyline
 90
        2
 70
     0
 43
0.0
 10
106.9323066681744
 20
127.4231625515315
 10
106.3893273702444
 20
127.4231625515315
  0
LWPOLYLINE
  5
5AF
330
1F
100
AcDbEntity
  8
0
 62
     0
370
     5
100
AcDbPolyline
 90
        2
 70
     0
 43
0.0
 10
106.9323066681744
 20
119.8214523805143
 10
106.9323066681744
 20
127.4231625515315
  0
LWPOLYLINE
  5
5B0
330
1F
100
AcDbEntity
  8
0
 62
     0
370
     5
100
AcDbPolyline
 90
        2
 70
     0
 43
0.0
 10
110.1901824557531
 20
121.9933695722336
 10
106.9323066681744
 20
119.8214523805143
  0
LWPOLYLINE
  5
5B1
330
1F
100
AcDbEntity
  8
0
 62
     0
370
     5
100
AcDbPolyline
 90
        2
 70
     0
 43
0.0
 10
110.1901824557531
 20
127.4231625515315
 10
110.1901824557531
 20
121.9933695722336
  0
LWPOLYLINE
  5
5B2
330
1F
100
AcDbEntity
  8
0
 62
     0
370
     5
100
AcDbPolyline
 90
        2
 70
     0
 43
0.0
 10
110.7331617536829
 20
127.4231625515315
 10
110.1901824557531
 20
127.4231625515315
  0
LWPOLYLINE
  5
5B3
330
1F
100
AcDbEntity
  8
0
 62
     0
370
     5
100
AcDbPolyline
 90
        2
 70
     0
 43
0.0
 10
110.7331617536829
 20
127.4231625515315
 10
110.7331617536829
 20
127.4231625515315
  0
LWPOLYLINE
  5
5B4
330
1F
100
AcDbEntity
  8
0
 62
     0
370
     5
100
AcDbPolyline
 90
        2
 70
     0
 43
0.0
 10
110.7331617536829
 20
123.622307466023
 10
110.7331617536829
 20
127.4231625515315
  0
LWPOLYLINE
  5
5B5
330
1F
100
AcDbEntity
  8
0
 62
     0
370
     5
100
AcDbPolyline
 90
        2
 70
     0
 43
0.0
 10
110.7331617536829
 20
119.8214523805143
 10
110.7331617536829
 20
123.622307466023
  0
LWPOLYLINE
  5
5B6
330
1F
100
AcDbEntity
  8
0
 62
     0
370
     5
100
AcDbPolyline
 90
        2
 70
     0
 43
0.0
 10
110.7331617536829
 20
119.8214523805143
 10
110.7331617536829
 20
119.8214523805143
  0
LWPOLYLINE
  5
5B7
330
1F
100
AcDbEntity
  8
0
 62
     0
370
     5
100
AcDbPolyline
 90
        2
 70
     0
 43
0.0
 10
110.7331617536829
 20
119.2784730825848
 10
110.7331617536829
 20
119.8214523805143
  0
LWPOLYLINE
  5
5B8
330
1F
100
AcDbEntity
  8
0
 62
     0
370
     5
100
AcDbPolyline
 90
        2
 70
     0
 43
0.0
 10
110.7331617536829
 20
119.2784730825848
 10
110.7331617536829
 20
119.2784730825848
  0
LWPOLYLINE
  5
5B9
330
1F
100
AcDbEntity
  8
0
 62
     0
370
     5
100
AcDbPolyline
 90
        2
 70
     0
 43
0.0
 10
111.2761410516124
 20
119.2784730825848
 10
110.7331617536829
 20
119.2784730825848
  0
LWPOLYLINE
  5
5BA
330
1F
100
AcDbEntity
  8
0
 62
     0
370
     5
100
AcDbPolyline
 90
        2
 70
     0
 43
0.0
 10
111.8191203495423
 20
119.2784730825848
 10
111.2761410516124
 20
119.2784730825848
  0
LWPOLYLINE
  5
5BB
330
1F
100
AcDbEntity
  8
0
 62
     0
370
     5
100
AcDbPolyline
 90
        2
 70
     0
 43
0.0
 10
111.8191203495423
 20
119.2784730825848
 10
111.8191203495423
 20
119.2784730825848
  0
LWPOLYLINE
  5
5BC
330
1F
100
AcDbEntity
  8
0
 62
     0
370
     5
100
AcDbPolyline
 90
        2
 70
     0
 43
0.0
 10
112.3620996474722
 20
119.2784730825848
 10
111.8191203495423
 20
119.2784730825848
  0
LWPOLYLINE
  5
5BD
330
1F
100
AcDbEntity
  8
0
 62
     0
370
     5
100
AcDbPolyline
 90
        2
 70
     0
 43
0.0
 10
112.3620996474722
 20
119.2784730825848
 10
112.3620996474722
 20
119.2784730825848
  0
LWPOLYLINE
  5
5BE
330
1F
100
AcDbEntity
  8
0
 62
     0
370
     5
100
AcDbPolyline
 90
        2
 70
     0
 43
0.0
 10
112.3620996474722
 20
119.8214523805143
 10
112.3620996474722
 20
119.2784730825848
  0
LWPOLYLINE
  5
5BF
330
1F
100
AcDbEntity
  8
0
 62
     0
370
     5
100
AcDbPolyline
 90
        2
 70
     0
 43
0.0
 10
112.3620996474722
 20
119.8214523805143
 10
112.3620996474722
 20
119.8214523805143
  0
LWPOLYLINE
  5
5C0
330
1F
100
AcDbEntity
  8
0
 62
     0
370
     5
100
AcDbPolyline
 90
        2
 70
     0
 43
0.0
 10
112.3620996474722
 20
119.8214523805143
 10
112.3620996474722
 20
119.8214523805143
  0
LWPOLYLINE
  5
5C1
330
1F
100
AcDbEntity
  8
0
 62
     0
370
     5
100
AcDbPolyline
 90
        2
 70
     0
 43
0.0
 10
112.3620996474722
 20
119.8214523805143
 10
112.3620996474722
 20
119.8214523805143
  0
LWPOLYLINE
  5
5C2
330
1F
100
AcDbEntity
  8
0
 62
     0
370
     5
100
AcDbPolyline
 90
        2
 70
     0
 43
0.0
 10
111.8191203495423
 20
119.8214523805143
 10
112.3620996474722
 20
119.8214523805143
  0
LWPOLYLINE
  5
5C3
330
1F
100
AcDbEntity
  8
0
 62
     0
370
     5
100
AcDbPolyline
 90
        2
 70
     0
 43
0.0
 10
111.8191203495423
 20
119.8214523805143
 10
111.8191203495423
 20
119.8214523805143
  0
LWPOLYLINE
  5
5C4
330
1F
100
AcDbEntity
  8
0
 62
     0
370
     5
100
AcDbPolyline
 90
        2
 70
     0
 43
0.0
 10
111.2761410516124
 20
119.8214523805143
 10
111.8191203495423
 20
119.8214523805143
  0
LWPOLYLINE
  5
5C5
330
1F
100
AcDbEntity
  8
0
 62
     0
370
     5
100
AcDbPolyline
 90
        2
 70
     0
 43
0.0
 10
111.2761410516124
 20
127.9661418494617
 10
111.2761410516124
 20
119.8214523805143
  0
LWPOLYLINE
  5
5C6
330
1F
100
AcDbEntity
  8
0
 62
     0
370
     5
100
AcDbPolyline
 90
        2
 70
     0
 43
0.0
 10
109.6472031578233
 20
127.4231625515315
 10
109.6472031578233
 20
123.0793281680934
  0
LWPOLYLINE
  5
5C7
330
1F
100
AcDbEntity
  8
0
 62
     0
370
     5
100
AcDbPolyline
 90
        2
 70
     0
 43
0.0
 10
109.6472031578233
 20
123.0793281680934
 10
107.4752859661042
 20
121.4503902743041
  0
LWPOLYLINE
  5
5C8
330
1F
100
AcDbEntity
  8
0
 62
     0
370
     5
100
AcDbPolyline
 90
        2
 70
     0
 43
0.0
 10
107.4752859661042
 20
121.4503902743041
 10
107.4752859661042
 20
127.4231625515315
  0
LWPOLYLINE
  5
5C9
330
1F
100
AcDbEntity
  8
0
 62
     0
370
     5
100
AcDbPolyline
 90
        2
 70
     0
 43
0.0
 10
107.4752859661042
 20
127.4231625515315
 10
109.6472031578233
 20
127.4231625515315
  0
SPLINE
  5
5CB
330
1F
100
AcDbEntity
  8
0
 62
     0
370
     5
100
AcDbSpline
210
0.0
220
0.0
230
1.0
 70
     8
 71
     3
 72
     8
 73
     4
 74
     0
 42
0.0000000001
 43
0.0000000001
 40
0.0
 40
0.0
 40
0.0
 40
0.0
 40
1.0
 40
1.0
 40
1.0
 40
1.0
 10
148.1987333108384
 20
184.9789681320895
 30
0.0
 10
147.6557540129087
 20
184.9789681320895
 30
0.0
 10
147.1127747149789
 20
184.9789681320895
 30
0.0
 10
147.1127747149789
 20
184.4359888341599
 30
0.0
  0
LWPOLYLINE
  5
5CC
330
1F
100
AcDbEntity
  8
0
 62
     0
370
     5
100
AcDbPolyline
 90
        2
 70
     0
 43
0.0
 10
147.1127747149789
 20
184.4359888341599
 10
147.1127747149789
 20
170.8615063859153
  0
SPLINE
  5
5CD
330
1F
100
AcDbEntity
  8
0
 62
     0
370
     5
100
AcDbSpline
210
0.0
220
0.0
230
1.0
 70
     8
 71
     3
 72
     8
 73
     4
 74
     0
 42
0.0000000001
 43
0.0000000001
 40
0.0
 40
0.0
 40
0.0
 40
0.0
 40
1.0
 40
1.0
 40
1.0
 40
1.0
 10
147.1127747149789
 20
170.8615063859153
 30
0.0
 10
147.1127747149789
 20
170.3185270879853
 30
0.0
 10
147.6557540129087
 20
170.3185270879853
 30
0.0
 10
148.1987333108384
 20
170.3185270879853
 30
0.0
  0
LWPOLYLINE
  5
5CE
330
1F
100
AcDbEntity
  8
0
 62
     0
370
     5
100
AcDbPolyline
 90
        2
 70
     0
 43
0.0
 10
164.4881122487324
 20
170.3185270879853
 10
148.1987333108384
 20
170.3185270879853
  0
SPLINE
  5
5CF
330
1F
100
AcDbEntity
  8
0
 62
     0
370
     5
100
AcDbSpline
210
0.0
220
0.0
230
1.0
 70
     8
 71
     3
 72
     8
 73
     4
 74
     0
 42
0.0000000001
 43
0.0000000001
 40
0.0
 40
0.0
 40
0.0
 40
0.0
 40
1.0
 40
1.0
 40
1.0
 40
1.0
 10
164.4881122487324
 20
170.3185270879853
 30
0.0
 10
165.0310915466622
 20
170.3185270879853
 30
0.0
 10
165.0310915466622
 20
170.3185270879853
 30
0.0
 10
165.0310915466622
 20
170.8615063859153
 30
0.0
  0
LWPOLYLINE
  5
5D0
330
1F
100
AcDbEntity
  8
0
 62
     0
370
     5
100
AcDbPolyline
 90
        2
 70
     0
 43
0.0
 10
165.0310915466622
 20
170.8615063859153
 10
165.0310915466622
 20
184.4359888341599
  0
SPLINE
  5
5D1
330
1F
100
AcDbEntity
  8
0
 62
     0
370
     5
100
AcDbSpline
210
0.0
220
0.0
230
1.0
 70
     8
 71
     3
 72
     8
 73
     4
 74
     0
 42
0.0000000001
 43
0.0000000001
 40
0.0
 40
0.0
 40
0.0
 40
0.0
 40
1.0
 40
1.0
 40
1.0
 40
1.0
 10
165.0310915466622
 20
184.4359888341599
 30
0.0
 10
165.0310915466622
 20
184.9789681320895
 30
0.0
 10
165.0310915466622
 20
184.9789681320895
 30
0.0
 10
164.4881122487324
 20
184.9789681320895
 30
0.0
  0
LWPOLYLINE
  5
5D2
330
1F
100
AcDbEntity
  8
0
 62
     0
370
     5
100
AcDbPolyline
 90
        2
 70
     0
 43
0.0
 10
148.1987333108384
 20
184.9789681320895
 10
164.4881122487324
 20
184.9789681320895
  0
LWPOLYLINE
  5
5D8
330
1F
100
AcDbEntity
  8
0
 62
     0
370
     5
100
AcDbPolyline
 90
        2
 70
     0
 43
0.0
 10
100.4165550930168
 20
131.22401763704
 10
116.7059340309105
 20
131.22401763704
  0
SPLINE
  5
5D9
330
1F
100
AcDbEntity
  8
0
 62
     0
370
     5
100
AcDbSpline
210
0.0
220
0.0
230
1.0
 70
     8
 71
     3
 72
     8
 73
     4
 74
     0
 42
0.0000000001
 43
0.0000000001
 40
0.0
 40
0.0
 40
0.0
 40
0.0
 40
1.0
 40
1.0
 40
1.0
 40
1.0
 10
117.7918926267701
 20
130.1380590411804
 30
0.0
 10
117.7918926267701
 20
130.6810383391104
 30
0.0
 10
117.2489133288401
 20
131.22401763704
 30
0.0
 10
116.7059340309105
 20
131.22401763704
 30
0.0
  0
LWPOLYLINE
  5
5DA
330
1F
100
AcDbEntity
  8
0
 62
     0
370
     5
100
AcDbPolyline
 90
        2
 70
     0
 43
0.0
 10
117.7918926267701
 20
117.1065558908654
 10
117.7918926267701
 20
130.1380590411804
  0
SPLINE
  5
5DB
330
1F
100
AcDbEntity
  8
0
 62
     0
370
     5
100
AcDbSpline
210
0.0
220
0.0
230
1.0
 70
     8
 71
     3
 72
     8
 73
     4
 74
     0
 42
0.0000000001
 43
0.0000000001
 40
0.0
 40
0.0
 40
0.0
 40
0.0
 40
1.0
 40
1.0
 40
1.0
 40
1.0
 10
116.7059340309105
 20
116.0205972950062
 30
0.0
 10
117.2489133288401
 20
116.0205972950062
 30
0.0
 10
117.7918926267701
 20
116.5635765929358
 30
0.0
 10
117.7918926267701
 20
117.1065558908654
 30
0.0
  0
LWPOLYLINE
  5
5DC
330
1F
100
AcDbEntity
  8
0
 62
     0
370
     5
100
AcDbPolyline
 90
        2
 70
     0
 43
0.0
 10
116.7059340309105
 20
116.0205972950062
 10
100.4165550930168
 20
116.0205972950062
  0
SPLINE
  5
5DD
330
1F
100
AcDbEntity
  8
0
 62
     0
370
     5
100
AcDbSpline
210
0.0
220
0.0
230
1.0
 70
     8
 71
     3
 72
     8
 73
     4
 74
     0
 42
0.0000000001
 43
0.0000000001
 40
0.0
 40
0.0
 40
0.0
 40
0.0
 40
1.0
 40
1.0
 40
1.0
 40
1.0
 10
99.87357579508699
 20
117.1065558908654
 30
0.0
 10
99.87357579508699
 20
116.5635765929358
 30
0.0
 10
99.87357579508699
 20
116.0205972950062
 30
0.0
 10
100.4165550930168
 20
116.0205972950062
 30
0.0
  0
LWPOLYLINE
  5
5DE
330
1F
100
AcDbEntity
  8
0
 62
     0
370
     5
100
AcDbPolyline
 90
        2
 70
     0
 43
0.0
 10
99.87357579508699
 20
130.1380590411804
 10
99.87357579508699
 20
117.1065558908654
  0
SPLINE
  5
5DF
330
1F
100
AcDbEntity
  8
0
 62
     0
370
     5
100
AcDbSpline
210
0.0
220
0.0
230
1.0
 70
     8
 71
     3
 72
     8
 73
     4
 74
     0
 42
0.0000000001
 43
0.0000000001
 40
0.0
 40
0.0
 40
0.0
 40
0.0
 40
1.0
 40
1.0
 40
1.0
 40
1.0
 10
100.4165550930168
 20
131.22401763704
 30
0.0
 10
99.87357579508699
 20
131.22401763704
 30
0.0
 10
99.87357579508699
 20
130.6810383391104
 30
0.0
 10
99.87357579508699
 20
130.1380590411804
 30
0.0
  0
LWPOLYLINE
  5
5E0
330
1F
100
AcDbEntity
  8
0
 62
     0
370
     5
100
AcDbPolyline
 90
        2
 70
     0
 43
0.0
 10
124.3076442019275
 20
131.22401763704
 10
140.5970231398215
 20
131.22401763704
  0
SPLINE
  5
5E1
330
1F
100
AcDbEntity
  8
0
 62
     0
370
     5
100
AcDbSpline
210
0.0
220
0.0
230
1.0
 70
     8
 71
     3
 72
     8
 73
     4
 74
     0
 42
0.0000000001
 43
0.0000000001
 40
0.0
 40
0.0
 40
0.0
 40
0.0
 40
1.0
 40
1.0
 40
1.0
 40
1.0
 10
141.682981735681
 20
130.1380590411804
 30
0.0
 10
141.1400024377512
 20
130.6810383391104
 30
0.0
 10
141.1400024377512
 20
131.22401763704
 30
0.0
 10
140.5970231398215
 20
131.22401763704
 30
0.0
  0
LWPOLYLINE
  5
5E2
330
1F
100
AcDbEntity
  8
0
 62
     0
370
     5
100
AcDbPolyline
 90
        2
 70
     0
 43
0.0
 10
141.682981735681
 20
117.1065558908654
 10
141.682981735681
 20
130.1380590411804
  0
SPLINE
  5
5E3
330
1F
100
AcDbEntity
  8
0
 62
     0
370
     5
100
AcDbSpline
210
0.0
220
0.0
230
1.0
 70
     8
 71
     3
 72
     8
 73
     4
 74
     0
 42
0.0000000001
 43
0.0000000001
 40
0.0
 40
0.0
 40
0.0
 40
0.0
 40
1.0
 40
1.0
 40
1.0
 40
1.0
 10
140.5970231398215
 20
116.0205972950062
 30
0.0
 10
141.1400024377512
 20
116.0205972950062
 30
0.0
 10
141.1400024377512
 20
116.5635765929358
 30
0.0
 10
141.682981735681
 20
117.1065558908654
 30
0.0
  0
LWPOLYLINE
  5
5E4
330
1F
100
AcDbEntity
  8
0
 62
     0
370
     5
100
AcDbPolyline
 90
        2
 70
     0
 43
0.0
 10
140.5970231398215
 20
116.0205972950062
 10
124.3076442019275
 20
116.0205972950062
  0
SPLINE
  5
5E5
330
1F
100
AcDbEntity
  8
0
 62
     0
370
     5
100
AcDbSpline
210
0.0
220
0.0
230
1.0
 70
     8
 71
     3
 72
     8
 73
     4
 74
     0
 42
0.0000000001
 43
0.0000000001
 40
0.0
 40
0.0
 40
0.0
 40
0.0
 40
1.0
 40
1.0
 40
1.0
 40
1.0
 10
123.2216856060681
 20
117.1065558908654
 30
0.0
 10
123.7646649039977
 20
116.5635765929358
 30
0.0
 10
123.7646649039977
 20
116.0205972950062
 30
0.0
 10
124.3076442019275
 20
116.0205972950062
 30
0.0
  0
LWPOLYLINE
  5
5E6
330
1F
100
AcDbEntity
  8
0
 62
     0
370
     5
100
AcDbPolyline
 90
        2
 70
     0
 43
0.0
 10
123.2216856060681
 20
130.1380590411804
 10
123.2216856060681
 20
117.1065558908654
  0
SPLINE
  5
5E7
330
1F
100
AcDbEntity
  8
0
 62
     0
370
     5
100
AcDbSpline
210
0.0
220
0.0
230
1.0
 70
     8
 71
     3
 72
     8
 73
     4
 74
     0
 42
0.0000000001
 43
0.0000000001
 40
0.0
 40
0.0
 40
0.0
 40
0.0
 40
1.0
 40
1.0
 40
1.0
 40
1.0
 10
124.3076442019275
 20
131.22401763704
 30
0.0
 10
123.7646649039977
 20
131.22401763704
 30
0.0
 10
123.2216856060681
 20
130.6810383391104
 30
0.0
 10
123.2216856060681
 20
130.1380590411804
 30
0.0
  0
LWPOLYLINE
  5
5E8
330
1F
100
AcDbEntity
  8
0
 62
     0
370
     5
100
AcDbPolyline
 90
        2
 70
     0
 43
0.0
 10
148.1987333108384
 20
131.22401763704
 10
164.4881122487324
 20
131.22401763704
  0
SPLINE
  5
5E9
330
1F
100
AcDbEntity
  8
0
 62
     0
370
     5
100
AcDbSpline
210
0.0
220
0.0
230
1.0
 70
     8
 71
     3
 72
     8
 73
     4
 74
     0
 42
0.0000000001
 43
0.0000000001
 40
0.0
 40
0.0
 40
0.0
 40
0.0
 40
1.0
 40
1.0
 40
1.0
 40
1.0
 10
165.0310915466622
 20
130.1380590411804
 30
0.0
 10
165.0310915466622
 20
130.6810383391104
 30
0.0
 10
165.0310915466622
 20
131.22401763704
 30
0.0
 10
164.4881122487324
 20
131.22401763704
 30
0.0
  0
LWPOLYLINE
  5
5EA
330
1F
100
AcDbEntity
  8
0
 62
     0
370
     5
100
AcDbPolyline
 90
        2
 70
     0
 43
0.0
 10
165.0310915466622
 20
117.1065558908654
 10
165.0310915466622
 20
130.1380590411804
  0
SPLINE
  5
5EB
330
1F
100
AcDbEntity
  8
0
 62
     0
370
     5
100
AcDbSpline
210
0.0
220
0.0
230
1.0
 70
     8
 71
     3
 72
     8
 73
     4
 74
     0
 42
0.0000000001
 43
0.0000000001
 40
0.0
 40
0.0
 40
0.0
 40
0.0
 40
1.0
 40
1.0
 40
1.0
 40
1.0
 10
164.4881122487324
 20
116.0205972950062
 30
0.0
 10
165.0310915466622
 20
116.0205972950062
 30
0.0
 10
165.0310915466622
 20
116.5635765929358
 30
0.0
 10
165.0310915466622
 20
117.1065558908654
 30
0.0
  0
LWPOLYLINE
  5
5EC
330
1F
100
AcDbEntity
  8
0
 62
     0
370
     5
100
AcDbPolyline
 90
        2
 70
     0
 43
0.0
 10
164.4881122487324
 20
116.0205972950062
 10
148.1987333108384
 20
116.0205972950062
  0
SPLINE
  5
5ED
330
1F
100
AcDbEntity
  8
0
 62
     0
370
     5
100
AcDbSpline
210
0.0
220
0.0
230
1.0
 70
     8
 71
     3
 72
     8
 73
     4
 74
     0
 42
0.0000000001
 43
0.0000000001
 40
0.0
 40
0.0
 40
0.0
 40
0.0
 40
1.0
 40
1.0
 40
1.0
 40
1.0
 10
147.1127747149789
 20
117.1065558908654
 30
0.0
 10
147.1127747149789
 20
116.5635765929358
 30
0.0
 10
147.6557540129087
 20
116.0205972950062
 30
0.0
 10
148.1987333108384
 20
116.0205972950062
 30
0.0
  0
LWPOLYLINE
  5
5EE
330
1F
100
AcDbEntity
  8
0
 62
     0
370
     5
100
AcDbPolyline
 90
        2
 70
     0
 43
0.0
 10
147.1127747149789
 20
130.1380590411804
 10
147.1127747149789
 20
117.1065558908654
  0
SPLINE
  5
5EF
330
1F
100
AcDbEntity
  8
0
 62
     0
370
     5
100
AcDbSpline
210
0.0
220
0.0
230
1.0
 70
     8
 71
     3
 72
     8
 73
     4
 74
     0
 42
0.0000000001
 43
0.0000000001
 40
0.0
 40
0.0
 40
0.0
 40
0.0
 40
1.0
 40
1.0
 40
1.0
 40
1.0
 10
148.1987333108384
 20
131.22401763704
 30
0.0
 10
147.6557540129087
 20
131.22401763704
 30
0.0
 10
147.1127747149789
 20
130.6810383391104
 30
0.0
 10
147.1127747149789
 20
130.1380590411804
 30
0.0
  0
LWPOLYLINE
  5
5F0
330
1F
100
AcDbEntity
  8
0
 62
     0
370
     5
100
AcDbPolyline
 90
        2
 70
     0
 43
0.0
 10
100.4165550930168
 20
149.1423344687235
 10
116.7059340309105
 20
149.1423344687235
  0
SPLINE
  5
5F1
330
1F
100
AcDbEntity
  8
0
 62
     0
370
     5
100
AcDbSpline
210
0.0
220
0.0
230
1.0
 70
     8
 71
     3
 72
     8
 73
     4
 74
     0
 42
0.0000000001
 43
0.0000000001
 40
0.0
 40
0.0
 40
0.0
 40
0.0
 40
1.0
 40
1.0
 40
1.0
 40
1.0
 10
117.7918926267701
 20
148.5993551707933
 30
0.0
 10
117.7918926267701
 20
148.5993551707933
 30
0.0
 10
117.2489133288401
 20
149.1423344687235
 30
0.0
 10
116.7059340309105
 20
149.1423344687235
 30
0.0
  0
LWPOLYLINE
  5
5F2
330
1F
100
AcDbEntity
  8
0
 62
     0
370
     5
100
AcDbPolyline
 90
        2
 70
     0
 43
0.0
 10
117.7918926267701
 20
135.0248727225487
 10
117.7918926267701
 20
148.5993551707933
  0
SPLINE
  5
5F3
330
1F
100
AcDbEntity
  8
0
 62
     0
370
     5
100
AcDbSpline
210
0.0
220
0.0
230
1.0
 70
     8
 71
     3
 72
     8
 73
     4
 74
     0
 42
0.0000000001
 43
0.0000000001
 40
0.0
 40
0.0
 40
0.0
 40
0.0
 40
1.0
 40
1.0
 40
1.0
 40
1.0
 10
116.7059340309105
 20
133.9389141266891
 30
0.0
 10
117.2489133288401
 20
133.9389141266891
 30
0.0
 10
117.7918926267701
 20
134.4818934246191
 30
0.0
 10
117.7918926267701
 20
135.0248727225487
 30
0.0
  0
LWPOLYLINE
  5
5F4
330
1F
100
AcDbEntity
  8
0
 62
     0
370
     5
100
AcDbPolyline
 90
        2
 70
     0
 43
0.0
 10
116.7059340309105
 20
133.9389141266891
 10
100.4165550930168
 20
133.9389141266891
  0
SPLINE
  5
5F5
330
1F
100
AcDbEntity
  8
0
 62
     0
370
     5
100
AcDbSpline
210
0.0
220
0.0
230
1.0
 70
     8
 71
     3
 72
     8
 73
     4
 74
     0
 42
0.0000000001
 43
0.0000000001
 40
0.0
 40
0.0
 40
0.0
 40
0.0
 40
1.0
 40
1.0
 40
1.0
 40
1.0
 10
99.87357579508699
 20
135.0248727225487
 30
0.0
 10
99.87357579508699
 20
134.4818934246191
 30
0.0
 10
99.87357579508699
 20
133.9389141266891
 30
0.0
 10
100.4165550930168
 20
133.9389141266891
 30
0.0
  0
LWPOLYLINE
  5
5F6
330
1F
100
AcDbEntity
  8
0
 62
     0
370
     5
100
AcDbPolyline
 90
        2
 70
     0
 43
0.0
 10
99.87357579508699
 20
148.5993551707933
 10
99.87357579508699
 20
135.0248727225487
  0
SPLINE
  5
5F7
330
1F
100
AcDbEntity
  8
0
 62
     0
370
     5
100
AcDbSpline
210
0.0
220
0.0
230
1.0
 70
     8
 71
     3
 72
     8
 73
     4
 74
     0
 42
0.0000000001
 43
0.0000000001
 40
0.0
 40
0.0
 40
0.0
 40
0.0
 40
1.0
 40
1.0
 40
1.0
 40
1.0
 10
100.4165550930168
 20
149.1423344687235
 30
0.0
 10
99.87357579508699
 20
149.1423344687235
 30
0.0
 10
99.87357579508699
 20
148.5993551707933
 30
0.0
 10
99.87357579508699
 20
148.5993551707933
 30
0.0
  0
LWPOLYLINE
  5
5F8
330
1F
100
AcDbEntity
  8
0
 62
     0
370
     5
100
AcDbPolyline
 90
        2
 70
     0
 43
0.0
 10
124.3076442019275
 20
149.1423344687235
 10
140.5970231398215
 20
149.1423344687235
  0
SPLINE
  5
5F9
330
1F
100
AcDbEntity
  8
0
 62
     0
370
     5
100
AcDbSpline
210
0.0
220
0.0
230
1.0
 70
     8
 71
     3
 72
     8
 73
     4
 74
     0
 42
0.0000000001
 43
0.0000000001
 40
0.0
 40
0.0
 40
0.0
 40
0.0
 40
1.0
 40
1.0
 40
1.0
 40
1.0
 10
141.682981735681
 20
148.5993551707933
 30
0.0
 10
141.1400024377512
 20
148.5993551707933
 30
0.0
 10
141.1400024377512
 20
149.1423344687235
 30
0.0
 10
140.5970231398215
 20
149.1423344687235
 30
0.0
  0
LWPOLYLINE
  5
5FA
330
1F
100
AcDbEntity
  8
0
 62
     0
370
     5
100
AcDbPolyline
 90
        2
 70
     0
 43
0.0
 10
141.682981735681
 20
135.0248727225487
 10
141.682981735681
 20
148.5993551707933
  0
SPLINE
  5
5FB
330
1F
100
AcDbEntity
  8
0
 62
     0
370
     5
100
AcDbSpline
210
0.0
220
0.0
230
1.0
 70
     8
 71
     3
 72
     8
 73
     4
 74
     0
 42
0.0000000001
 43
0.0000000001
 40
0.0
 40
0.0
 40
0.0
 40
0.0
 40
1.0
 40
1.0
 40
1.0
 40
1.0
 10
140.5970231398215
 20
133.9389141266891
 30
0.0
 10
141.1400024377512
 20
133.9389141266891
 30
0.0
 10
141.1400024377512
 20
134.4818934246191
 30
0.0
 10
141.682981735681
 20
135.0248727225487
 30
0.0
  0
LWPOLYLINE
  5
5FC
330
1F
100
AcDbEntity
  8
0
 62
     0
370
     5
100
AcDbPolyline
 90
        2
 70
     0
 43
0.0
 10
140.5970231398215
 20
133.9389141266891
 10
124.3076442019275
 20
133.9389141266891
  0
SPLINE
  5
5FD
330
1F
100
AcDbEntity
  8
0
 62
     0
370
     5
100
AcDbSpline
210
0.0
220
0.0
230
1.0
 70
     8
 71
     3
 72
     8
 73
     4
 74
     0
 42
0.0000000001
 43
0.0000000001
 40
0.0
 40
0.0
 40
0.0
 40
0.0
 40
1.0
 40
1.0
 40
1.0
 40
1.0
 10
123.2216856060681
 20
135.0248727225487
 30
0.0
 10
123.7646649039977
 20
134.4818934246191
 30
0.0
 10
123.7646649039977
 20
133.9389141266891
 30
0.0
 10
124.3076442019275
 20
133.9389141266891
 30
0.0
  0
LWPOLYLINE
  5
5FE
330
1F
100
AcDbEntity
  8
0
 62
     0
370
     5
100
AcDbPolyline
 90
        2
 70
     0
 43
0.0
 10
123.2216856060681
 20
148.5993551707933
 10
123.2216856060681
 20
135.0248727225487
  0
SPLINE
  5
5FF
330
1F
100
AcDbEntity
  8
0
 62
     0
370
     5
100
AcDbSpline
210
0.0
220
0.0
230
1.0
 70
     8
 71
     3
 72
     8
 73
     4
 74
     0
 42
0.0000000001
 43
0.0000000001
 40
0.0
 40
0.0
 40
0.0
 40
0.0
 40
1.0
 40
1.0
 40
1.0
 40
1.0
 10
124.3076442019275
 20
149.1423344687235
 30
0.0
 10
123.7646649039977
 20
149.1423344687235
 30
0.0
 10
123.2216856060681
 20
148.5993551707933
 30
0.0
 10
123.2216856060681
 20
148.5993551707933
 30
0.0
  0
LWPOLYLINE
  5
600
330
1F
100
AcDbEntity
  8
0
 62
     0
370
     5
100
AcDbPolyline
 90
        2
 70
     0
 43
0.0
 10
148.1987333108384
 20
149.1423344687235
 10
164.4881122487324
 20
149.1423344687235
  0
SPLINE
  5
601
330
1F
100
AcDbEntity
  8
0
 62
     0
370
     5
100
AcDbSpline
210
0.0
220
0.0
230
1.0
 70
     8
 71
     3
 72
     8
 73
     4
 74
     0
 42
0.0000000001
 43
0.0000000001
 40
0.0
 40
0.0
 40
0.0
 40
0.0
 40
1.0
 40
1.0
 40
1.0
 40
1.0
 10
165.0310915466622
 20
148.5993551707933
 30
0.0
 10
165.0310915466622
 20
148.5993551707933
 30
0.0
 10
165.0310915466622
 20
149.1423344687235
 30
0.0
 10
164.4881122487324
 20
149.1423344687235
 30
0.0
  0
LWPOLYLINE
  5
602
330
1F
100
AcDbEntity
  8
0
 62
     0
370
     5
100
AcDbPolyline
 90
        2
 70
     0
 43
0.0
 10
165.0310915466622
 20
135.0248727225487
 10
165.0310915466622
 20
148.5993551707933
  0
SPLINE
  5
603
330
1F
100
AcDbEntity
  8
0
 62
     0
370
     5
100
AcDbSpline
210
0.0
220
0.0
230
1.0
 70
     8
 71
     3
 72
     8
 73
     4
 74
     0
 42
0.0000000001
 43
0.0000000001
 40
0.0
 40
0.0
 40
0.0
 40
0.0
 40
1.0
 40
1.0
 40
1.0
 40
1.0
 10
164.4881122487324
 20
133.9389141266891
 30
0.0
 10
165.0310915466622
 20
133.9389141266891
 30
0.0
 10
165.0310915466622
 20
134.4818934246191
 30
0.0
 10
165.0310915466622
 20
135.0248727225487
 30
0.0
  0
LWPOLYLINE
  5
604
330
1F
100
AcDbEntity
  8
0
 62
     0
370
     5
100
AcDbPolyline
 90
        2
 70
     0
 43
0.0
 10
164.4881122487324
 20
133.9389141266891
 10
148.1987333108384
 20
133.9389141266891
  0
SPLINE
  5
605
330
1F
100
AcDbEntity
  8
0
 62
     0
370
     5
100
AcDbSpline
210
0.0
220
0.0
230
1.0
 70
     8
 71
     3
 72
     8
 73
     4
 74
     0
 42
0.0000000001
 43
0.0000000001
 40
0.0
 40
0.0
 40
0.0
 40
0.0
 40
1.0
 40
1.0
 40
1.0
 40
1.0
 10
147.1127747149789
 20
135.0248727225487
 30
0.0
 10
147.1127747149789
 20
134.4818934246191
 30
0.0
 10
147.6557540129087
 20
133.9389141266891
 30
0.0
 10
148.1987333108384
 20
133.9389141266891
 30
0.0
  0
LWPOLYLINE
  5
606
330
1F
100
AcDbEntity
  8
0
 62
     0
370
     5
100
AcDbPolyline
 90
        2
 70
     0
 43
0.0
 10
147.1127747149789
 20
148.5993551707933
 10
147.1127747149789
 20
135.0248727225487
  0
SPLINE
  5
607
330
1F
100
AcDbEntity
  8
0
 62
     0
370
     5
100
AcDbSpline
210
0.0
220
0.0
230
1.0
 70
     8
 71
     3
 72
     8
 73
     4
 74
     0
 42
0.0000000001
 43
0.0000000001
 40
0.0
 40
0.0
 40
0.0
 40
0.0
 40
1.0
 40
1.0
 40
1.0
 40
1.0
 10
148.1987333108384
 20
149.1423344687235
 30
0.0
 10
147.6557540129087
 20
149.1423344687235
 30
0.0
 10
147.1127747149789
 20
148.5993551707933
 30
0.0
 10
147.1127747149789
 20
148.5993551707933
 30
0.0
  0
LWPOLYLINE
  5
608
330
1F
100
AcDbEntity
  8
0
 62
     0
370
     5
100
AcDbPolyline
 90
        2
 70
     0
 43
0.0
 10
100.4165550930168
 20
167.0606513004066
 10
116.7059340309105
 20
167.0606513004066
  0
SPLINE
  5
609
330
1F
100
AcDbEntity
  8
0
 62
     0
370
     5
100
AcDbSpline
210
0.0
220
0.0
230
1.0
 70
     8
 71
     3
 72
     8
 73
     4
 74
     0
 42
0.0000000001
 43
0.0000000001
 40
0.0
 40
0.0
 40
0.0
 40
0.0
 40
1.0
 40
1.0
 40
1.0
 40
1.0
 10
117.7918926267701
 20
166.5176720024766
 30
0.0
 10
117.7918926267701
 20
167.0606513004066
 30
0.0
 10
117.2489133288401
 20
167.0606513004066
 30
0.0
 10
116.7059340309105
 20
167.0606513004066
 30
0.0
  0
LWPOLYLINE
  5
60A
330
1F
100
AcDbEntity
  8
0
 62
     0
370
     5
100
AcDbPolyline
 90
        2
 70
     0
 43
0.0
 10
117.7918926267701
 20
152.943189554232
 10
117.7918926267701
 20
166.5176720024766
  0
SPLINE
  5
60B
330
1F
100
AcDbEntity
  8
0
 62
     0
370
     5
100
AcDbSpline
210
0.0
220
0.0
230
1.0
 70
     8
 71
     3
 72
     8
 73
     4
 74
     0
 42
0.0000000001
 43
0.0000000001
 40
0.0
 40
0.0
 40
0.0
 40
0.0
 40
1.0
 40
1.0
 40
1.0
 40
1.0
 10
116.7059340309105
 20
152.4002102563018
 30
0.0
 10
117.2489133288401
 20
152.4002102563018
 30
0.0
 10
117.7918926267701
 20
152.4002102563018
 30
0.0
 10
117.7918926267701
 20
152.943189554232
 30
0.0
  0
LWPOLYLINE
  5
60C
330
1F
100
AcDbEntity
  8
0
 62
     0
370
     5
100
AcDbPolyline
 90
        2
 70
     0
 43
0.0
 10
116.7059340309105
 20
152.4002102563018
 10
100.4165550930168
 20
152.4002102563018
  0
SPLINE
  5
60D
330
1F
100
AcDbEntity
  8
0
 62
     0
370
     5
100
AcDbSpline
210
0.0
220
0.0
230
1.0
 70
     8
 71
     3
 72
     8
 73
     4
 74
     0
 42
0.0000000001
 43
0.0000000001
 40
0.0
 40
0.0
 40
0.0
 40
0.0
 40
1.0
 40
1.0
 40
1.0
 40
1.0
 10
99.87357579508699
 20
152.943189554232
 30
0.0
 10
99.87357579508699
 20
152.4002102563018
 30
0.0
 10
99.87357579508699
 20
152.4002102563018
 30
0.0
 10
100.4165550930168
 20
152.4002102563018
 30
0.0
  0
LWPOLYLINE
  5
60E
330
1F
100
AcDbEntity
  8
0
 62
     0
370
     5
100
AcDbPolyline
 90
        2
 70
     0
 43
0.0
 10
99.87357579508699
 20
166.5176720024766
 10
99.87357579508699
 20
152.943189554232
  0
SPLINE
  5
60F
330
1F
100
AcDbEntity
  8
0
 62
     0
370
     5
100
AcDbSpline
210
0.0
220
0.0
230
1.0
 70
     8
 71
     3
 72
     8
 73
     4
 74
     0
 42
0.0000000001
 43
0.0000000001
 40
0.0
 40
0.0
 40
0.0
 40
0.0
 40
1.0
 40
1.0
 40
1.0
 40
1.0
 10
100.4165550930168
 20
167.0606513004066
 30
0.0
 10
99.87357579508699
 20
167.0606513004066
 30
0.0
 10
99.87357579508699
 20
167.0606513004066
 30
0.0
 10
99.87357579508699
 20
166.5176720024766
 30
0.0
  0
LWPOLYLINE
  5
610
330
1F
100
AcDbEntity
  8
0
 62
     0
370
     5
100
AcDbPolyline
 90
        2
 70
     0
 43
0.0
 10
124.3076442019275
 20
167.0606513004066
 10
140.5970231398215
 20
167.0606513004066
  0
SPLINE
  5
611
330
1F
100
AcDbEntity
  8
0
 62
     0
370
     5
100
AcDbSpline
210
0.0
220
0.0
230
1.0
 70
     8
 71
     3
 72
     8
 73
     4
 74
     0
 42
0.0000000001
 43
0.0000000001
 40
0.0
 40
0.0
 40
0.0
 40
0.0
 40
1.0
 40
1.0
 40
1.0
 40
1.0
 10
141.682981735681
 20
166.5176720024766
 30
0.0
 10
141.1400024377512
 20
166.5176720024766
 30
0.0
 10
141.1400024377512
 20
167.0606513004066
 30
0.0
 10
140.5970231398215
 20
167.0606513004066
 30
0.0
  0
LWPOLYLINE
  5
612
330
1F
100
AcDbEntity
  8
0
 62
     0
370
     5
100
AcDbPolyline
 90
        2
 70
     0
 43
0.0
 10
141.682981735681
 20
152.943189554232
 10
141.682981735681
 20
166.5176720024766
  0
SPLINE
  5
613
330
1F
100
AcDbEntity
  8
0
 62
     0
370
     5
100
AcDbSpline
210
0.0
220
0.0
230
1.0
 70
     8
 71
     3
 72
     8
 73
     4
 74
     0
 42
0.0000000001
 43
0.0000000001
 40
0.0
 40
0.0
 40
0.0
 40
0.0
 40
1.0
 40
1.0
 40
1.0
 40
1.0
 10
140.5970231398215
 20
152.4002102563018
 30
0.0
 10
141.1400024377512
 20
152.4002102563018
 30
0.0
 10
141.1400024377512
 20
152.4002102563018
 30
0.0
 10
141.682981735681
 20
152.943189554232
 30
0.0
  0
LWPOLYLINE
  5
614
330
1F
100
AcDbEntity
  8
0
 62
     0
370
     5
100
AcDbPolyline
 90
        2
 70
     0
 43
0.0
 10
140.5970231398215
 20
152.4002102563018
 10
124.3076442019275
 20
152.4002102563018
  0
SPLINE
  5
615
330
1F
100
AcDbEntity
  8
0
 62
     0
370
     5
100
AcDbSpline
210
0.0
220
0.0
230
1.0
 70
     8
 71
     3
 72
     8
 73
     4
 74
     0
 42
0.0000000001
 43
0.0000000001
 40
0.0
 40
0.0
 40
0.0
 40
0.0
 40
1.0
 40
1.0
 40
1.0
 40
1.0
 10
123.2216856060681
 20
152.943189554232
 30
0.0
 10
123.7646649039977
 20
152.4002102563018
 30
0.0
 10
123.7646649039977
 20
152.4002102563018
 30
0.0
 10
124.3076442019275
 20
152.4002102563018
 30
0.0
  0
LWPOLYLINE
  5
616
330
1F
100
AcDbEntity
  8
0
 62
     0
370
     5
100
AcDbPolyline
 90
        2
 70
     0
 43
0.0
 10
123.2216856060681
 20
166.5176720024766
 10
123.2216856060681
 20
152.943189554232
  0
SPLINE
  5
617
330
1F
100
AcDbEntity
  8
0
 62
     0
370
     5
100
AcDbSpline
210
0.0
220
0.0
230
1.0
 70
     8
 71
     3
 72
     8
 73
     4
 74
     0
 42
0.0000000001
 43
0.0000000001
 40
0.0
 40
0.0
 40
0.0
 40
0.0
 40
1.0
 40
1.0
 40
1.0
 40
1.0
 10
124.3076442019275
 20
167.0606513004066
 30
0.0
 10
123.7646649039977
 20
167.0606513004066
 30
0.0
 10
123.2216856060681
 20
167.0606513004066
 30
0.0
 10
123.2216856060681
 20
166.5176720024766
 30
0.0
  0
LWPOLYLINE
  5
618
330
1F
100
AcDbEntity
  8
0
 62
     0
370
     5
100
AcDbPolyline
 90
        2
 70
     0
 43
0.0
 10
148.1987333108384
 20
167.0606513004066
 10
164.4881122487324
 20
167.0606513004066
  0
SPLINE
  5
619
330
1F
100
AcDbEntity
  8
0
 62
     0
370
     5
100
AcDbSpline
210
0.0
220
0.0
230
1.0
 70
     8
 71
     3
 72
     8
 73
     4
 74
     0
 42
0.0000000001
 43
0.0000000001
 40
0.0
 40
0.0
 40
0.0
 40
0.0
 40
1.0
 40
1.0
 40
1.0
 40
1.0
 10
165.0310915466622
 20
166.5176720024766
 30
0.0
 10
165.0310915466622
 20
167.0606513004066
 30
0.0
 10
165.0310915466622
 20
167.0606513004066
 30
0.0
 10
164.4881122487324
 20
167.0606513004066
 30
0.0
  0
LWPOLYLINE
  5
61A
330
1F
100
AcDbEntity
  8
0
 62
     0
370
     5
100
AcDbPolyline
 90
        2
 70
     0
 43
0.0
 10
165.0310915466622
 20
152.943189554232
 10
165.0310915466622
 20
166.5176720024766
  0
SPLINE
  5
61B
330
1F
100
AcDbEntity
  8
0
 62
     0
370
     5
100
AcDbSpline
210
0.0
220
0.0
230
1.0
 70
     8
 71
     3
 72
     8
 73
     4
 74
     0
 42
0.0000000001
 43
0.0000000001
 40
0.0
 40
0.0
 40
0.0
 40
0.0
 40
1.0
 40
1.0
 40
1.0
 40
1.0
 10
164.4881122487324
 20
152.4002102563018
 30
0.0
 10
165.0310915466622
 20
152.4002102563018
 30
0.0
 10
165.0310915466622
 20
152.4002102563018
 30
0.0
 10
165.0310915466622
 20
152.943189554232
 30
0.0
  0
LWPOLYLINE
  5
61C
330
1F
100
AcDbEntity
  8
0
 62
     0
370
     5
100
AcDbPolyline
 90
        2
 70
     0
 43
0.0
 10
164.4881122487324
 20
152.4002102563018
 10
148.1987333108384
 20
152.4002102563018
  0
SPLINE
  5
61D
330
1F
100
AcDbEntity
  8
0
 62
     0
370
     5
100
AcDbSpline
210
0.0
220
0.0
230
1.0
 70
     8
 71
     3
 72
     8
 73
     4
 74
     0
 42
0.0000000001
 43
0.0000000001
 40
0.0
 40
0.0
 40
0.0
 40
0.0
 40
1.0
 40
1.0
 40
1.0
 40
1.0
 10
147.1127747149789
 20
152.943189554232
 30
0.0
 10
147.1127747149789
 20
152.4002102563018
 30
0.0
 10
147.6557540129087
 20
152.4002102563018
 30
0.0
 10
148.1987333108384
 20
152.4002102563018
 30
0.0
  0
LWPOLYLINE
  5
61E
330
1F
100
AcDbEntity
  8
0
 62
     0
370
     5
100
AcDbPolyline
 90
        2
 70
     0
 43
0.0
 10
147.1127747149789
 20
166.5176720024766
 10
147.1127747149789
 20
152.943189554232
  0
SPLINE
  5
61F
330
1F
100
AcDbEntity
  8
0
 62
     0
370
     5
100
AcDbSpline
210
0.0
220
0.0
230
1.0
 70
     8
 71
     3
 72
     8
 73
     4
 74
     0
 42
0.0000000001
 43
0.0000000001
 40
0.0
 40
0.0
 40
0.0
 40
0.0
 40
1.0
 40
1.0
 40
1.0
 40
1.0
 10
148.1987333108384
 20
167.0606513004066
 30
0.0
 10
147.6557540129087
 20
167.0606513004066
 30
0.0
 10
147.1127747149789
 20
167.0606513004066
 30
0.0
 10
147.1127747149789
 20
166.5176720024766
 30
0.0
  0
LWPOLYLINE
  5
620
330
1F
100
AcDbEntity
  8
0
 62
     0
370
     5
100
AcDbPolyline
 90
        2
 70
     0
 43
0.0
 10
100.4165550930168
 20
184.9789681320895
 10
116.7059340309105
 20
184.9789681320895
  0
SPLINE
  5
621
330
1F
100
AcDbEntity
  8
0
 62
     0
370
     5
100
AcDbSpline
210
0.0
220
0.0
230
1.0
 70
     8
 71
     3
 72
     8
 73
     4
 74
     0
 42
0.0000000001
 43
0.0000000001
 40
0.0
 40
0.0
 40
0.0
 40
0.0
 40
1.0
 40
1.0
 40
1.0
 40
1.0
 10
117.7918926267701
 20
184.4359888341599
 30
0.0
 10
117.7918926267701
 20
184.9789681320895
 30
0.0
 10
117.2489133288401
 20
184.9789681320895
 30
0.0
 10
116.7059340309105
 20
184.9789681320895
 30
0.0
  0
LWPOLYLINE
  5
622
330
1F
100
AcDbEntity
  8
0
 62
     0
370
     5
100
AcDbPolyline
 90
        2
 70
     0
 43
0.0
 10
117.7918926267701
 20
170.8615063859153
 10
117.7918926267701
 20
184.4359888341599
  0
SPLINE
  5
623
330
1F
100
AcDbEntity
  8
0
 62
     0
370
     5
100
AcDbSpline
210
0.0
220
0.0
230
1.0
 70
     8
 71
     3
 72
     8
 73
     4
 74
     0
 42
0.0000000001
 43
0.0000000001
 40
0.0
 40
0.0
 40
0.0
 40
0.0
 40
1.0
 40
1.0
 40
1.0
 40
1.0
 10
116.7059340309105
 20
170.3185270879853
 30
0.0
 10
117.2489133288401
 20
170.3185270879853
 30
0.0
 10
117.7918926267701
 20
170.3185270879853
 30
0.0
 10
117.7918926267701
 20
170.8615063859153
 30
0.0
  0
LWPOLYLINE
  5
624
330
1F
100
AcDbEntity
  8
0
 62
     0
370
     5
100
AcDbPolyline
 90
        2
 70
     0
 43
0.0
 10
116.7059340309105
 20
170.3185270879853
 10
100.4165550930168
 20
170.3185270879853
  0
SPLINE
  5
625
330
1F
100
AcDbEntity
  8
0
 62
     0
370
     5
100
AcDbSpline
210
0.0
220
0.0
230
1.0
 70
     8
 71
     3
 72
     8
 73
     4
 74
     0
 42
0.0000000001
 43
0.0000000001
 40
0.0
 40
0.0
 40
0.0
 40
0.0
 40
1.0
 40
1.0
 40
1.0
 40
1.0
 10
99.87357579508699
 20
170.8615063859153
 30
0.0
 10
99.87357579508699
 20
170.3185270879853
 30
0.0
 10
99.87357579508699
 20
170.3185270879853
 30
0.0
 10
100.4165550930168
 20
170.3185270879853
 30
0.0
  0
LWPOLYLINE
  5
626
330
1F
100
AcDbEntity
  8
0
 62
     0
370
     5
100
AcDbPolyline
 90
        2
 70
     0
 43
0.0
 10
99.87357579508699
 20
184.4359888341599
 10
99.87357579508699
 20
170.8615063859153
  0
SPLINE
  5
627
330
1F
100
AcDbEntity
  8
0
 62
     0
370
     5
100
AcDbSpline
210
0.0
220
0.0
230
1.0
 70
     8
 71
     3
 72
     8
 73
     4
 74
     0
 42
0.0000000001
 43
0.0000000001
 40
0.0
 40
0.0
 40
0.0
 40
0.0
 40
1.0
 40
1.0
 40
1.0
 40
1.0
 10
100.4165550930168
 20
184.9789681320895
 30
0.0
 10
99.87357579508699
 20
184.9789681320895
 30
0.0
 10
99.87357579508699
 20
184.9789681320895
 30
0.0
 10
99.87357579508699
 20
184.4359888341599
 30
0.0
  0
LWPOLYLINE
  5
628
330
1F
100
AcDbEntity
  8
0
 62
     0
370
     5
100
AcDbPolyline
 90
        2
 70
     0
 43
0.0
 10
124.3076442019275
 20
184.9789681320895
 10
140.5970231398215
 20
184.9789681320895
  0
SPLINE
  5
629
330
1F
100
AcDbEntity
  8
0
 62
     0
370
     5
100
AcDbSpline
210
0.0
220
0.0
230
1.0
 70
     8
 71
     3
 72
     8
 73
     4
 74
     0
 42
0.0000000001
 43
0.0000000001
 40
0.0
 40
0.0
 40
0.0
 40
0.0
 40
1.0
 40
1.0
 40
1.0
 40
1.0
 10
141.682981735681
 20
184.4359888341599
 30
0.0
 10
141.1400024377512
 20
184.9789681320895
 30
0.0
 10
141.1400024377512
 20
184.9789681320895
 30
0.0
 10
140.5970231398215
 20
184.9789681320895
 30
0.0
  0
LWPOLYLINE
  5
62A
330
1F
100
AcDbEntity
  8
0
 62
     0
370
     5
100
AcDbPolyline
 90
        2
 70
     0
 43
0.0
 10
141.682981735681
 20
170.8615063859153
 10
141.682981735681
 20
184.4359888341599
  0
SPLINE
  5
62B
330
1F
100
AcDbEntity
  8
0
 62
     0
370
     5
100
AcDbSpline
210
0.0
220
0.0
230
1.0
 70
     8
 71
     3
 72
     8
 73
     4
 74
     0
 42
0.0000000001
 43
0.0000000001
 40
0.0
 40
0.0
 40
0.0
 40
0.0
 40
1.0
 40
1.0
 40
1.0
 40
1.0
 10
140.5970231398215
 20
170.3185270879853
 30
0.0
 10
141.1400024377512
 20
170.3185270879853
 30
0.0
 10
141.1400024377512
 20
170.3185270879853
 30
0.0
 10
141.682981735681
 20
170.8615063859153
 30
0.0
  0
LWPOLYLINE
  5
62C
330
1F
100
AcDbEntity
  8
0
 62
     0
370
     5
100
AcDbPolyline
 90
        2
 70
     0
 43
0.0
 10
140.5970231398215
 20
170.3185270879853
 10
124.3076442019275
 20
170.3185270879853
  0
SPLINE
  5
62D
330
1F
100
AcDbEntity
  8
0
 62
     0
370
     5
100
AcDbSpline
210
0.0
220
0.0
230
1.0
 70
     8
 71
     3
 72
     8
 73
     4
 74
     0
 42
0.0000000001
 43
0.0000000001
 40
0.0
 40
0.0
 40
0.0
 40
0.0
 40
1.0
 40
1.0
 40
1.0
 40
1.0
 10
123.2216856060681
 20
170.8615063859153
 30
0.0
 10
123.7646649039977
 20
170.3185270879853
 30
0.0
 10
123.7646649039977
 20
170.3185270879853
 30
0.0
 10
124.3076442019275
 20
170.3185270879853
 30
0.0
  0
LWPOLYLINE
  5
62E
330
1F
100
AcDbEntity
  8
0
 62
     0
370
     5
100
AcDbPolyline
 90
        2
 70
     0
 43
0.0
 10
123.2216856060681
 20
184.4359888341599
 10
123.2216856060681
 20
170.8615063859153
  0
SPLINE
  5
62F
330
1F
100
AcDbEntity
  8
0
 62
     0
370
     5
100
AcDbSpline
210
0.0
220
0.0
230
1.0
 70
     8
 71
     3
 72
     8
 73
     4
 74
     0
 42
0.0000000001
 43
0.0000000001
 40
0.0
 40
0.0
 40
0.0
 40
0.0
 40
1.0
 40
1.0
 40
1.0
 40
1.0
 10
124.3076442019275
 20
184.9789681320895
 30
0.0
 10
123.7646649039977
 20
184.9789681320895
 30
0.0
 10
123.2216856060681
 20
184.9789681320895
 30
0.0
 10
123.2216856060681
 20
184.4359888341599
 30
0.0
  0
SPLINE
  5
630
330
1F
100
AcDbEntity
  8
0
 62
     0
370
     5
100
AcDbSpline
210
0.0
220
0.0
230
1.0
 70
     8
 71
     3
 72
     8
 73
     4
 74
     0
 42
0.0000000001
 43
0.0000000001
 40
0.0
 40
0.0
 40
0.0
 40
0.0
 40
1.0
 40
1.0
 40
1.0
 40
1.0
 10
114.5340168391914
 20
212.1279330285794
 30
0.0
 10
114.5340168391914
 20
212.6709123265094
 30
0.0
 10
113.9910375412618
 20
213.213891624439
 30
0.0
 10
113.4480582433318
 20
213.213891624439
 30
0.0
  0
LWPOLYLINE
  5
631
330
1F
100
AcDbEntity
  8
0
 62
     0
370
     5
100
AcDbPolyline
 90
        2
 70
     0
 43
0.0
 10
114.5340168391914
 20
198.5534505803345
 10
114.5340168391914
 20
212.1279330285794
  0
SPLINE
  5
632
330
1F
100
AcDbEntity
  8
0
 62
     0
370
     5
100
AcDbSpline
210
0.0
220
0.0
230
1.0
 70
     8
 71
     3
 72
     8
 73
     4
 74
     0
 42
0.0000000001
 43
0.0000000001
 40
0.0
 40
0.0
 40
0.0
 40
0.0
 40
1.0
 40
1.0
 40
1.0
 40
1.0
 10
113.4480582433318
 20
198.0104712824046
 30
0.0
 10
113.9910375412618
 20
198.0104712824046
 30
0.0
 10
114.5340168391914
 20
198.5534505803345
 30
0.0
 10
114.5340168391914
 20
198.5534505803345
 30
0.0
  0
LWPOLYLINE
  5
633
330
1F
100
AcDbEntity
  8
0
 62
     0
370
     5
100
AcDbPolyline
 90
        2
 70
     0
 43
0.0
 10
113.4480582433318
 20
198.0104712824046
 10
100.4165550930168
 20
198.0104712824046
  0
SPLINE
  5
634
330
1F
100
AcDbEntity
  8
0
 62
     0
370
     5
100
AcDbSpline
210
0.0
220
0.0
230
1.0
 70
     8
 71
     3
 72
     8
 73
     4
 74
     0
 42
0.0000000001
 43
0.0000000001
 40
0.0
 40
0.0
 40
0.0
 40
0.0
 40
1.0
 40
1.0
 40
1.0
 40
1.0
 10
99.33059649715723
 20
198.5534505803345
 30
0.0
 10
99.33059649715723
 20
198.5534505803345
 30
0.0
 10
99.87357579508699
 20
198.0104712824046
 30
0.0
 10
100.4165550930168
 20
198.0104712824046
 30
0.0
  0
LWPOLYLINE
  5
635
330
1F
100
AcDbEntity
  8
0
 62
     0
370
     5
100
AcDbPolyline
 90
        2
 70
     0
 43
0.0
 10
99.33059649715723
 20
212.1279330285794
 10
99.33059649715723
 20
198.5534505803345
  0
SPLINE
  5
636
330
1F
100
AcDbEntity
  8
0
 62
     0
370
     5
100
AcDbSpline
210
0.0
220
0.0
230
1.0
 70
     8
 71
     3
 72
     8
 73
     4
 74
     0
 42
0.0000000001
 43
0.0000000001
 40
0.0
 40
0.0
 40
0.0
 40
0.0
 40
1.0
 40
1.0
 40
1.0
 40
1.0
 10
100.4165550930168
 20
213.213891624439
 30
0.0
 10
99.87357579508699
 20
212.6709123265094
 30
0.0
 10
99.33059649715723
 20
212.6709123265094
 30
0.0
 10
99.33059649715723
 20
212.1279330285794
 30
0.0
  0
LWPOLYLINE
  5
637
330
1F
100
AcDbEntity
  8
0
 62
     0
370
     5
100
AcDbPolyline
 90
        2
 70
     0
 43
0.0
 10
100.4165550930168
 20
213.213891624439
 10
113.4480582433318
 20
213.213891624439
  0
SPLINE
  5
638
330
1F
100
AcDbEntity
  8
0
 62
     0
370
     5
100
AcDbSpline
210
0.0
220
0.0
230
1.0
 70
     8
 71
     3
 72
     8
 73
     4
 74
     0
 42
0.0000000001
 43
0.0000000001
 40
0.0
 40
0.0
 40
0.0
 40
0.0
 40
1.0
 40
1.0
 40
1.0
 40
1.0
 10
131.3663750750149
 20
212.1279330285794
 30
0.0
 10
131.3663750750149
 20
212.6709123265094
 30
0.0
 10
131.3663750750149
 20
213.213891624439
 30
0.0
 10
130.8233957770851
 20
213.213891624439
 30
0.0
  0
LWPOLYLINE
  5
639
330
1F
100
AcDbEntity
  8
0
 62
     0
370
     5
100
AcDbPolyline
 90
        2
 70
     0
 43
0.0
 10
131.3663750750149
 20
198.5534505803345
 10
131.3663750750149
 20
212.1279330285794
  0
SPLINE
  5
63A
330
1F
100
AcDbEntity
  8
0
 62
     0
370
     5
100
AcDbSpline
210
0.0
220
0.0
230
1.0
 70
    24
 71
     3
 72
     8
 73
     4
 74
     0
 42
0.0000000001
 43
0.0000000001
 40
0.0
 40
0.0
 40
0.0
 40
0.0
 40
1.0
 40
1.0
 40
1.0
 40
1.0
 10
130.8233957770851
 20
198.0104712824046
 30
0.0
 10
130.8233957770851
 20
198.0104712824046
 30
0.0
 10
131.3663750750149
 20
198.5534505803345
 30
0.0
 10
131.3663750750149
 20
198.5534505803345
 30
0.0
  0
LWPOLYLINE
  5
63B
330
1F
100
AcDbEntity
  8
0
 62
     0
370
     5
100
AcDbPolyline
 90
        2
 70
     0
 43
0.0
 10
130.8233957770851
 20
198.0104712824046
 10
117.2489133288401
 20
198.0104712824046
  0
SPLINE
  5
63C
330
1F
100
AcDbEntity
  8
0
 62
     0
370
     5
100
AcDbSpline
210
0.0
220
0.0
230
1.0
 70
     8
 71
     3
 72
     8
 73
     4
 74
     0
 42
0.0000000001
 43
0.0000000001
 40
0.0
 40
0.0
 40
0.0
 40
0.0
 40
1.0
 40
1.0
 40
1.0
 40
1.0
 10
116.1629547329807
 20
198.5534505803345
 30
0.0
 10
116.7059340309105
 20
198.5534505803345
 30
0.0
 10
116.7059340309105
 20
198.0104712824046
 30
0.0
 10
117.2489133288401
 20
198.0104712824046
 30
0.0
  0
LWPOLYLINE
  5
63D
330
1F
100
AcDbEntity
  8
0
 62
     0
370
     5
100
AcDbPolyline
 90
        2
 70
     0
 43
0.0
 10
116.1629547329807
 20
212.1279330285794
 10
116.1629547329807
 20
198.5534505803345
  0
SPLINE
  5
63E
330
1F
100
AcDbEntity
  8
0
 62
     0
370
     5
100
AcDbSpline
210
0.0
220
0.0
230
1.0
 70
    24
 71
     3
 72
     8
 73
     4
 74
     0
 42
0.0000000001
 43
0.0000000001
 40
0.0
 40
0.0
 40
0.0
 40
0.0
 40
1.0
 40
1.0
 40
1.0
 40
1.0
 10
117.2489133288401
 20
213.213891624439
 30
0.0
 10
116.7059340309105
 20
212.6709123265094
 30
0.0
 10
116.7059340309105
 20
212.6709123265094
 30
0.0
 10
116.1629547329807
 20
212.1279330285794
 30
0.0
  0
LWPOLYLINE
  5
63F
330
1F
100
AcDbEntity
  8
0
 62
     0
370
     5
100
AcDbPolyline
 90
        2
 70
     0
 43
0.0
 10
117.2489133288401
 20
213.213891624439
 10
130.8233957770851
 20
213.213891624439
  0
SPLINE
  5
640
330
1F
100
AcDbEntity
  8
0
 62
     0
370
     5
100
AcDbSpline
210
0.0
220
0.0
230
1.0
 70
     8
 71
     3
 72
     8
 73
     4
 74
     0
 42
0.0000000001
 43
0.0000000001
 40
0.0
 40
0.0
 40
0.0
 40
0.0
 40
1.0
 40
1.0
 40
1.0
 40
1.0
 10
148.1987333108384
 20
212.1279330285794
 30
0.0
 10
148.1987333108384
 20
212.6709123265094
 30
0.0
 10
148.1987333108384
 20
213.213891624439
 30
0.0
 10
147.6557540129087
 20
213.213891624439
 30
0.0
  0
LWPOLYLINE
  5
641
330
1F
100
AcDbEntity
  8
0
 62
     0
370
     5
100
AcDbPolyline
 90
        2
 70
     0
 43
0.0
 10
148.1987333108384
 20
198.5534505803345
 10
148.1987333108384
 20
212.1279330285794
  0
SPLINE
  5
642
330
1F
100
AcDbEntity
  8
0
 62
     0
370
     5
100
AcDbSpline
210
0.0
220
0.0
230
1.0
 70
     8
 71
     3
 72
     8
 73
     4
 74
     0
 42
0.0000000001
 43
0.0000000001
 40
0.0
 40
0.0
 40
0.0
 40
0.0
 40
1.0
 40
1.0
 40
1.0
 40
1.0
 10
147.6557540129087
 20
198.0104712824046
 30
0.0
 10
148.1987333108384
 20
198.0104712824046
 30
0.0
 10
148.1987333108384
 20
198.5534505803345
 30
0.0
 10
148.1987333108384
 20
198.5534505803345
 30
0.0
  0
LWPOLYLINE
  5
643
330
1F
100
AcDbEntity
  8
0
 62
     0
370
     5
100
AcDbPolyline
 90
        2
 70
     0
 43
0.0
 10
147.6557540129087
 20
198.0104712824046
 10
134.0812715646638
 20
198.0104712824046
  0
SPLINE
  5
644
330
1F
100
AcDbEntity
  8
0
 62
     0
370
     5
100
AcDbSpline
210
0.0
220
0.0
230
1.0
 70
     8
 71
     3
 72
     8
 73
     4
 74
     0
 42
0.0000000001
 43
0.0000000001
 40
0.0
 40
0.0
 40
0.0
 40
0.0
 40
1.0
 40
1.0
 40
1.0
 40
1.0
 10
133.5382922667341
 20
198.5534505803345
 30
0.0
 10
133.5382922667341
 20
198.5534505803345
 30
0.0
 10
133.5382922667341
 20
198.0104712824046
 30
0.0
 10
134.0812715646638
 20
198.0104712824046
 30
0.0
  0
LWPOLYLINE
  5
645
330
1F
100
AcDbEntity
  8
0
 62
     0
370
     5
100
AcDbPolyline
 90
        2
 70
     0
 43
0.0
 10
133.5382922667341
 20
212.1279330285794
 10
133.5382922667341
 20
198.5534505803345
  0
SPLINE
  5
646
330
1F
100
AcDbEntity
  8
0
 62
     0
370
     5
100
AcDbSpline
210
0.0
220
0.0
230
1.0
 70
     8
 71
     3
 72
     8
 73
     4
 74
     0
 42
0.0000000001
 43
0.0000000001
 40
0.0
 40
0.0
 40
0.0
 40
0.0
 40
1.0
 40
1.0
 40
1.0
 40
1.0
 10
134.0812715646638
 20
213.213891624439
 30
0.0
 10
133.5382922667341
 20
212.6709123265094
 30
0.0
 10
133.5382922667341
 20
212.6709123265094
 30
0.0
 10
133.5382922667341
 20
212.1279330285794
 30
0.0
  0
LWPOLYLINE
  5
647
330
1F
100
AcDbEntity
  8
0
 62
     0
370
     5
100
AcDbPolyline
 90
        2
 70
     0
 43
0.0
 10
134.0812715646638
 20
213.213891624439
 10
147.6557540129087
 20
213.213891624439
  0
SPLINE
  5
648
330
1F
100
AcDbEntity
  8
0
 62
     0
370
     5
100
AcDbSpline
210
0.0
220
0.0
230
1.0
 70
     8
 71
     3
 72
     8
 73
     4
 74
     0
 42
0.0000000001
 43
0.0000000001
 40
0.0
 40
0.0
 40
0.0
 40
0.0
 40
1.0
 40
1.0
 40
1.0
 40
1.0
 10
165.5740708445919
 20
212.1279330285794
 30
0.0
 10
165.5740708445919
 20
212.6709123265094
 30
0.0
 10
165.0310915466622
 20
213.213891624439
 30
0.0
 10
164.4881122487324
 20
213.213891624439
 30
0.0
  0
LWPOLYLINE
  5
649
330
1F
100
AcDbEntity
  8
0
 62
     0
370
     5
100
AcDbPolyline
 90
        2
 70
     0
 43
0.0
 10
165.5740708445919
 20
198.5534505803345
 10
165.5740708445919
 20
212.1279330285794
  0
SPLINE
  5
64A
330
1F
100
AcDbEntity
  8
0
 62
     0
370
     5
100
AcDbSpline
210
0.0
220
0.0
230
1.0
 70
     8
 71
     3
 72
     8
 73
     4
 74
     0
 42
0.0000000001
 43
0.0000000001
 40
0.0
 40
0.0
 40
0.0
 40
0.0
 40
1.0
 40
1.0
 40
1.0
 40
1.0
 10
164.4881122487324
 20
198.0104712824046
 30
0.0
 10
165.0310915466622
 20
198.0104712824046
 30
0.0
 10
165.5740708445919
 20
198.5534505803345
 30
0.0
 10
165.5740708445919
 20
198.5534505803345
 30
0.0
  0
LWPOLYLINE
  5
64B
330
1F
100
AcDbEntity
  8
0
 62
     0
370
     5
100
AcDbPolyline
 90
        2
 70
     0
 43
0.0
 10
164.4881122487324
 20
198.0104712824046
 10
151.4566090984174
 20
198.0104712824046
  0
SPLINE
  5
64C
330
1F
100
AcDbEntity
  8
0
 62
     0
370
     5
100
AcDbSpline
210
0.0
220
0.0
230
1.0
 70
     8
 71
     3
 72
     8
 73
     4
 74
     0
 42
0.0000000001
 43
0.0000000001
 40
0.0
 40
0.0
 40
0.0
 40
0.0
 40
1.0
 40
1.0
 40
1.0
 40
1.0
 10
150.3706505025576
 20
198.5534505803345
 30
0.0
 10
150.3706505025576
 20
198.5534505803345
 30
0.0
 10
150.9136298004876
 20
198.0104712824046
 30
0.0
 10
151.4566090984174
 20
198.0104712824046
 30
0.0
  0
LWPOLYLINE
  5
64D
330
1F
100
AcDbEntity
  8
0
 62
     0
370
     5
100
AcDbPolyline
 90
        2
 70
     0
 43
0.0
 10
150.3706505025576
 20
212.1279330285794
 10
150.3706505025576
 20
198.5534505803345
  0
SPLINE
  5
64E
330
1F
100
AcDbEntity
  8
0
 62
     0
370
     5
100
AcDbSpline
210
0.0
220
0.0
230
1.0
 70
     8
 71
     3
 72
     8
 73
     4
 74
     0
 42
0.0000000001
 43
0.0000000001
 40
0.0
 40
0.0
 40
0.0
 40
0.0
 40
1.0
 40
1.0
 40
1.0
 40
1.0
 10
151.4566090984174
 20
213.213891624439
 30
0.0
 10
150.9136298004876
 20
212.6709123265094
 30
0.0
 10
150.3706505025576
 20
212.6709123265094
 30
0.0
 10
150.3706505025576
 20
212.1279330285794
 30
0.0
  0
LWPOLYLINE
  5
64F
330
1F
100
AcDbEntity
  8
0
 62
     0
370
     5
100
AcDbPolyline
 90
        2
 70
     0
 43
0.0
 10
151.4566090984174
 20
213.213891624439
 10
164.4881122487324
 20
213.213891624439
  0
SPLINE
  5
68B
330
1F
100
AcDbEntity
  8
0
 62
     0
370
     5
100
AcDbSpline
210
0.0
220
0.0
230
1.0
 70
    11
 71
     3
 72
    14
 73
    10
 74
     0
 42
0.0000000001
 43
0.0000000001
 40
0.0
 40
0.0
 40
0.0
 40
0.0
 40
1.0
 40
1.0
 40
1.0
 40
2.0
 40
2.0
 40
2.0
 40
3.0
 40
3.0
 40
3.0
 40
3.0
 10
109.1042238598935
 20
205.6121814534217
 30
0.0
 10
109.1042238598935
 20
207.2411193472111
 30
0.0
 10
107.4752859661042
 20
207.7840986451411
 30
0.0
 10
105.8463480723146
 20
207.2411193472111
 30
0.0
 10
104.760389476455
 20
206.6981400492815
 30
0.0
 10
104.760389476455
 20
204.526222857562
 30
0.0
 10
105.8463480723146
 20
203.9832435596324
 30
0.0
 10
107.4752859661042
 20
202.8972849637728
 30
0.0
 10
109.1042238598935
 20
203.9832435596324
 30
0.0
 10
109.1042238598935
 20
205.6121814534217
 30
0.0
  0
SPLINE
  5
68C
330
1F
100
AcDbEntity
  8
0
 62
     0
370
     5
100
AcDbSpline
210
0.0
220
0.0
230
1.0
 70
    11
 71
     3
 72
    17
 73
    13
 74
     0
 42
0.0000000001
 43
0.0000000001
 40
0.0
 40
0.0
 40
0.0
 40
0.0
 40
1.0
 40
1.0
 40
1.0
 40
2.0
 40
2.0
 40
2.0
 40
3.0
 40
3.0
 40
3.0
 40
4.0
 40
4.0
 40
4.0
 40
4.0
 10
125.9365820957171
 20
205.6121814534217
 30
0.0
 10
125.9365820957171
 20
206.1551607513519
 30
0.0
 10
125.3936027977873
 20
206.6981400492815
 30
0.0
 10
124.8506234998575
 20
207.2411193472111
 30
0.0
 10
124.3076442019275
 20
207.7840986451411
 30
0.0
 10
123.7646649039977
 20
207.7840986451411
 30
0.0
 10
122.6787063081383
 20
207.2411193472111
 30
0.0
 10
121.5927477122786
 20
206.6981400492815
 30
0.0
 10
121.5927477122786
 20
204.526222857562
 30
0.0
 10
122.6787063081383
 20
203.9832435596324
 30
0.0
 10
124.3076442019275
 20
202.8972849637728
 30
0.0
 10
125.9365820957171
 20
203.9832435596324
 30
0.0
 10
125.9365820957171
 20
205.6121814534217
 30
0.0
  0
SPLINE
  5
68D
330
1F
100
AcDbEntity
  8
0
 62
     0
370
     5
100
AcDbSpline
210
0.0
220
0.0
230
1.0
 70
    11
 71
     3
 72
    17
 73
    13
 74
     0
 42
0.0000000001
 43
0.0000000001
 40
0.0
 40
0.0
 40
0.0
 40
0.0
 40
1.0
 40
1.0
 40
1.0
 40
2.0
 40
2.0
 40
2.0
 40
3.0
 40
3.0
 40
3.0
 40
4.0
 40
4.0
 40
4.0
 40
4.0
 10
142.7689403315406
 20
205.6121814534217
 30
0.0
 10
142.7689403315406
 20
206.1551607513519
 30
0.0
 10
142.7689403315406
 20
206.6981400492815
 30
0.0
 10
141.682981735681
 20
207.2411193472111
 30
0.0
 10
141.1400024377512
 20
207.7840986451411
 30
0.0
 10
140.5970231398215
 20
207.7840986451411
 30
0.0
 10
140.0540438418915
 20
207.2411193472111
 30
0.0
 10
138.4251059481023
 20
206.6981400492815
 30
0.0
 10
138.4251059481023
 20
204.526222857562
 30
0.0
 10
140.0540438418915
 20
203.9832435596324
 30
0.0
 10
141.1400024377512
 20
202.8972849637728
 30
0.0
 10
142.7689403315406
 20
203.9832435596324
 30
0.0
 10
142.7689403315406
 20
205.6121814534217
 30
0.0
  0
SPLINE
  5
68E
330
1F
100
AcDbEntity
  8
0
 62
     0
370
     5
100
AcDbSpline
210
0.0
220
0.0
230
1.0
 70
    11
 71
     3
 72
    17
 73
    13
 74
     0
 42
0.0000000001
 43
0.0000000001
 40
0.0
 40
0.0
 40
0.0
 40
0.0
 40
1.0
 40
1.0
 40
1.0
 40
2.0
 40
2.0
 40
2.0
 40
3.0
 40
3.0
 40
3.0
 40
4.0
 40
4.0
 40
4.0
 40
4.0
 10
160.1442778652939
 20
205.6121814534217
 30
0.0
 10
159.6012985673641
 20
206.1551607513519
 30
0.0
 10
159.6012985673641
 20
206.6981400492815
 30
0.0
 10
159.0583192694346
 20
207.2411193472111
 30
0.0
 10
158.5153399715045
 20
207.7840986451411
 30
0.0
 10
157.429381375645
 20
207.7840986451411
 30
0.0
 10
156.8864020777152
 20
207.2411193472111
 30
0.0
 10
155.8004434818558
 20
206.6981400492815
 30
0.0
 10
155.8004434818558
 20
204.526222857562
 30
0.0
 10
156.8864020777152
 20
203.9832435596324
 30
0.0
 10
157.9723606735748
 20
202.8972849637728
 30
0.0
 10
160.1442778652939
 20
203.9832435596324
 30
0.0
 10
160.1442778652939
 20
205.6121814534217
 30
0.0
  0
SPLINE
  5
6A2
330
1F
100
AcDbEntity
  8
0
 62
     0
370
     5
100
AcDbSpline
210
0.0
220
0.0
230
1.0
 70
     8
 71
     3
 72
     8
 73
     4
 74
     0
 42
0.0000000001
 43
0.0000000001
 40
0.0
 40
0.0
 40
0.0
 40
0.0
 40
1.0
 40
1.0
 40
1.0
 40
1.0
 10
65.66588002550995
 20
431.4915693922156
 30
0.0
 10
64.03694213172059
 20
430.9485900942861
 30
0.0
 10
62.40800423793124
 20
429.8626314984264
 30
0.0
 10
62.40800423793124
 20
428.233693604637
 30
0.0
  0
SPLINE
  5
6A3
330
1F
100
AcDbEntity
  8
0
 62
     0
370
     5
100
AcDbSpline
210
0.0
220
0.0
230
1.0
 70
     8
 71
     3
 72
     8
 73
     4
 74
     0
 42
0.0000000001
 43
0.0000000001
 40
0.0
 40
0.0
 40
0.0
 40
0.0
 40
1.0
 40
1.0
 40
1.0
 40
1.0
 10
202.4966631038178
 20
428.233693604637
 30
0.0
 10
202.4966631038178
 20
429.8626314984264
 30
0.0
 10
200.8677252100286
 20
430.9485900942861
 30
0.0
 10
199.2387873162391
 20
431.4915693922156
 30
0.0
  0
LWPOLYLINE
  5
6A4
330
1F
100
AcDbEntity
  8
0
 62
     0
370
     5
100
AcDbPolyline
 90
        2
 70
     0
 43
0.0
 10
202.4966631038178
 20
54.12095733100954
 10
202.4966631038178
 20
428.233693604637
  0
SPLINE
  5
6A5
330
1F
100
AcDbEntity
  8
0
 62
     0
370
     5
100
AcDbSpline
210
0.0
220
0.0
230
1.0
 70
     8
 71
     3
 72
     8
 73
     4
 74
     0
 42
0.0000000001
 43
0.0000000001
 40
0.0
 40
0.0
 40
0.0
 40
0.0
 40
1.0
 40
1.0
 40
1.0
 40
1.0
 10
199.2387873162391
 20
51.40606084136064
 30
0.0
 10
200.8677252100286
 20
51.40606084136064
 30
0.0
 10
202.4966631038178
 20
52.49201943722019
 30
0.0
 10
202.4966631038178
 20
54.12095733100954
 30
0.0
  0
LWPOLYLINE
  5
6A6
330
1F
100
AcDbEntity
  8
0
 62
     0
370
     5
100
AcDbPolyline
 90
        2
 70
     0
 43
0.0
 10
62.40800423793124
 20
428.233693604637
 10
62.40800423793124
 20
54.12095733100954
  0
SPLINE
  5
6A7
330
1F
100
AcDbEntity
  8
0
 62
     0
370
     5
100
AcDbSpline
210
0.0
220
0.0
230
1.0
 70
     8
 71
     3
 72
     8
 73
     4
 74
     0
 42
0.0000000001
 43
0.0000000001
 40
0.0
 40
0.0
 40
0.0
 40
0.0
 40
1.0
 40
1.0
 40
1.0
 40
1.0
 10
62.40800423793124
 20
54.12095733100954
 30
0.0
 10
62.40800423793124
 20
52.49201943722019
 30
0.0
 10
63.49396283379082
 20
51.40606084136064
 30
0.0
 10
65.66588002550995
 20
51.40606084136064
 30
0.0
  0
SPLINE
  5
6A8
330
1F
100
AcDbEntity
  8
0
 62
     0
370
     5
100
AcDbSpline
210
0.0
220
0.0
230
1.0
 70
     8
 71
     3
 72
     8
 73
     4
 74
     0
 42
0.0000000001
 43
0.0000000001
 40
0.0
 40
0.0
 40
0.0
 40
0.0
 40
1.0
 40
1.0
 40
1.0
 40
1.0
 10
99.87357579508699
 20
216.4717674120175
 30
0.0
 10
98.78761719922744
 20
216.4717674120175
 30
0.0
 10
97.70165860336787
 20
215.3858088161583
 30
0.0
 10
97.70165860336787
 20
214.2998502202985
 30
0.0
  0
LWPOLYLINE
  5
6A9
330
1F
100
AcDbEntity
  8
0
 62
     0
370
     5
100
AcDbPolyline
 90
        2
 70
     0
 43
0.0
 10
99.87357579508699
 20
216.4717674120175
 10
165.0310915466622
 20
216.4717674120175
  0
LWPOLYLINE
  5
6AA
330
1F
100
AcDbEntity
  8
0
 62
     0
370
     5
100
AcDbPolyline
 90
        2
 70
     0
 43
0.0
 10
97.70165860336787
 20
214.2998502202985
 10
97.70165860336787
 20
114.3916594012165
  0
SPLINE
  5
6AB
330
1F
100
AcDbEntity
  8
0
 62
     0
370
     5
100
AcDbSpline
210
0.0
220
0.0
230
1.0
 70
     8
 71
     3
 72
     8
 73
     4
 74
     0
 42
0.0000000001
 43
0.0000000001
 40
0.0
 40
0.0
 40
0.0
 40
0.0
 40
1.0
 40
1.0
 40
1.0
 40
1.0
 10
167.2030087383813
 20
214.2998502202985
 30
0.0
 10
167.2030087383813
 20
215.3858088161583
 30
0.0
 10
166.1170501425216
 20
216.4717674120175
 30
0.0
 10
165.0310915466622
 20
216.4717674120175
 30
0.0
  0
SPLINE
  5
6AC
330
1F
100
AcDbEntity
  8
0
 62
     0
370
     5
100
AcDbSpline
210
0.0
220
0.0
230
1.0
 70
     8
 71
     3
 72
     8
 73
     4
 74
     0
 42
0.0000000001
 43
0.0000000001
 40
0.0
 40
0.0
 40
0.0
 40
0.0
 40
1.0
 40
1.0
 40
1.0
 40
1.0
 10
97.70165860336787
 20
114.3916594012165
 30
0.0
 10
97.70165860336787
 20
113.3057008053569
 30
0.0
 10
98.78761719922744
 20
112.2197422094977
 30
0.0
 10
99.87357579508699
 20
112.2197422094977
 30
0.0
  0
LWPOLYLINE
  5
6AD
330
1F
100
AcDbEntity
  8
0
 62
     0
370
     5
100
AcDbPolyline
 90
        2
 70
     0
 43
0.0
 10
167.2030087383813
 20
114.3916594012165
 10
167.2030087383813
 20
214.2998502202985
  0
LWPOLYLINE
  5
6AE
330
1F
100
AcDbEntity
  8
0
 62
     0
370
     5
100
AcDbPolyline
 90
        2
 70
     0
 43
0.0
 10
165.0310915466622
 20
112.2197422094977
 10
99.87357579508699
 20
112.2197422094977
  0
SPLINE
  5
6AF
330
1F
100
AcDbEntity
  8
0
 62
     0
370
     5
100
AcDbSpline
210
0.0
220
0.0
230
1.0
 70
     8
 71
     3
 72
     8
 73
     4
 74
     0
 42
0.0000000001
 43
0.0000000001
 40
0.0
 40
0.0
 40
0.0
 40
0.0
 40
1.0
 40
1.0
 40
1.0
 40
1.0
 10
165.0310915466622
 20
112.2197422094977
 30
0.0
 10
166.1170501425216
 20
112.2197422094977
 30
0.0
 10
167.2030087383813
 20
112.7627215074273
 30
0.0
 10
167.2030087383813
 20
114.3916594012165
 30
0.0
  0
LWPOLYLINE
  5
6B0
330
1F
100
AcDbEntity
  8
0
 62
     0
370
     5
100
AcDbPolyline
 90
        2
 70
     0
 43
0.0
 10
144.3978782253299
 20
340.2710473400102
 10
144.3978782253299
 20
338.0991301482915
  0
LWPOLYLINE
  5
6B1
330
1F
100
AcDbEntity
  8
0
 62
     0
370
     5
100
AcDbPolyline
 90
        2
 70
     0
 43
0.0
 10
144.3978782253299
 20
340.2710473400102
 10
146.0268161191195
 20
340.2710473400102
  0
LWPOLYLINE
  5
6B2
330
1F
100
AcDbEntity
  8
0
 62
     0
370
     5
100
AcDbPolyline
 90
        2
 70
     0
 43
0.0
 10
146.0268161191195
 20
338.0991301482915
 10
144.3978782253299
 20
338.0991301482915
  0
LWPOLYLINE
  5
6B3
330
1F
100
AcDbEntity
  8
0
 62
     0
370
     5
100
AcDbPolyline
 90
        2
 70
     0
 43
0.0
 10
146.0268161191195
 20
338.0991301482915
 10
146.0268161191195
 20
340.2710473400102
  0
LWPOLYLINE
  5
6B4
330
1F
100
AcDbEntity
  8
0
 62
     0
370
     5
100
AcDbPolyline
 90
        2
 70
     0
 43
0.0
 10
118.8778512226297
 20
320.7237926145378
 10
118.8778512226297
 20
319.0948547207485
  0
LWPOLYLINE
  5
6B5
330
1F
100
AcDbEntity
  8
0
 62
     0
370
     5
100
AcDbPolyline
 90
        2
 70
     0
 43
0.0
 10
118.8778512226297
 20
320.7237926145378
 10
120.506789116419
 20
320.7237926145378
  0
LWPOLYLINE
  5
6B6
330
1F
100
AcDbEntity
  8
0
 62
     0
370
     5
100
AcDbPolyline
 90
        2
 70
     0
 43
0.0
 10
120.506789116419
 20
319.0948547207485
 10
118.8778512226297
 20
319.0948547207485
  0
LWPOLYLINE
  5
6B7
330
1F
100
AcDbEntity
  8
0
 62
     0
370
     5
100
AcDbPolyline
 90
        2
 70
     0
 43
0.0
 10
120.506789116419
 20
319.0948547207485
 10
120.506789116419
 20
320.7237926145378
  0
LWPOLYLINE
  5
6B8
330
1F
100
AcDbEntity
  8
0
 62
     0
370
     5
100
AcDbPolyline
 90
        2
 70
     0
 43
0.0
 10
137.8821266501723
 20
340.2710473400102
 10
137.8821266501723
 20
338.0991301482915
  0
LWPOLYLINE
  5
6B9
330
1F
100
AcDbEntity
  8
0
 62
     0
370
     5
100
AcDbPolyline
 90
        2
 70
     0
 43
0.0
 10
137.8821266501723
 20
340.2710473400102
 10
140.0540438418915
 20
340.2710473400102
  0
LWPOLYLINE
  5
6BA
330
1F
100
AcDbEntity
  8
0
 62
     0
370
     5
100
AcDbPolyline
 90
        2
 70
     0
 43
0.0
 10
140.0540438418915
 20
338.0991301482915
 10
137.8821266501723
 20
338.0991301482915
  0
LWPOLYLINE
  5
6BB
330
1F
100
AcDbEntity
  8
0
 62
     0
370
     5
100
AcDbPolyline
 90
        2
 70
     0
 43
0.0
 10
140.0540438418915
 20
338.0991301482915
 10
140.0540438418915
 20
340.2710473400102
  0
LWPOLYLINE
  5
6BC
330
1F
100
AcDbEntity
  8
0
 62
     0
370
     5
100
AcDbPolyline
 90
        2
 70
     0
 43
0.0
 10
124.8506234998575
 20
320.7237926145378
 10
124.8506234998575
 20
319.0948547207485
  0
LWPOLYLINE
  5
6BD
330
1F
100
AcDbEntity
  8
0
 62
     0
370
     5
100
AcDbPolyline
 90
        2
 70
     0
 43
0.0
 10
124.8506234998575
 20
320.7237926145378
 10
127.0225406915765
 20
320.7237926145378
  0
LWPOLYLINE
  5
6BE
330
1F
100
AcDbEntity
  8
0
 62
     0
370
     5
100
AcDbPolyline
 90
        2
 70
     0
 43
0.0
 10
127.0225406915765
 20
319.0948547207485
 10
124.8506234998575
 20
319.0948547207485
  0
LWPOLYLINE
  5
6BF
330
1F
100
AcDbEntity
  8
0
 62
     0
370
     5
100
AcDbPolyline
 90
        2
 70
     0
 43
0.0
 10
127.0225406915765
 20
319.0948547207485
 10
127.0225406915765
 20
320.7237926145378
  0
LWPOLYLINE
  5
6C0
330
1F
100
AcDbEntity
  8
0
 62
     0
370
     5
100
AcDbPolyline
 90
        2
 70
     0
 43
0.0
 10
150.3706505025576
 20
340.2710473400102
 10
150.3706505025576
 20
338.0991301482915
  0
LWPOLYLINE
  5
6C1
330
1F
100
AcDbEntity
  8
0
 62
     0
370
     5
100
AcDbPolyline
 90
        2
 70
     0
 43
0.0
 10
150.3706505025576
 20
340.2710473400102
 10
152.5425676942769
 20
340.2710473400102
  0
LWPOLYLINE
  5
6C2
330
1F
100
AcDbEntity
  8
0
 62
     0
370
     5
100
AcDbPolyline
 90
        2
 70
     0
 43
0.0
 10
152.5425676942769
 20
338.0991301482915
 10
150.3706505025576
 20
338.0991301482915
  0
LWPOLYLINE
  5
6C3
330
1F
100
AcDbEntity
  8
0
 62
     0
370
     5
100
AcDbPolyline
 90
        2
 70
     0
 43
0.0
 10
152.5425676942769
 20
338.0991301482915
 10
152.5425676942769
 20
340.2710473400102
  0
LWPOLYLINE
  5
6C4
330
1F
100
AcDbEntity
  8
0
 62
     0
370
     5
100
AcDbPolyline
 90
        2
 70
     0
 43
0.0
 10
131.3663750750149
 20
320.7237926145378
 10
131.3663750750149
 20
319.0948547207485
  0
LWPOLYLINE
  5
6C5
330
1F
100
AcDbEntity
  8
0
 62
     0
370
     5
100
AcDbPolyline
 90
        2
 70
     0
 43
0.0
 10
131.3663750750149
 20
320.7237926145378
 10
133.5382922667341
 20
320.7237926145378
  0
LWPOLYLINE
  5
6C6
330
1F
100
AcDbEntity
  8
0
 62
     0
370
     5
100
AcDbPolyline
 90
        2
 70
     0
 43
0.0
 10
133.5382922667341
 20
319.0948547207485
 10
131.3663750750149
 20
319.0948547207485
  0
LWPOLYLINE
  5
6C7
330
1F
100
AcDbEntity
  8
0
 62
     0
370
     5
100
AcDbPolyline
 90
        2
 70
     0
 43
0.0
 10
133.5382922667341
 20
319.0948547207485
 10
133.5382922667341
 20
320.7237926145378
  0
LWPOLYLINE
  5
6C8
330
1F
100
AcDbEntity
  8
0
 62
     0
370
     5
100
AcDbPolyline
 90
        2
 70
     0
 43
0.0
 10
118.8778512226297
 20
346.7867989151679
 10
118.8778512226297
 20
344.6148817234489
  0
LWPOLYLINE
  5
6C9
330
1F
100
AcDbEntity
  8
0
 62
     0
370
     5
100
AcDbPolyline
 90
        2
 70
     0
 43
0.0
 10
118.8778512226297
 20
346.7867989151679
 10
120.506789116419
 20
346.7867989151679
  0
LWPOLYLINE
  5
6CA
330
1F
100
AcDbEntity
  8
0
 62
     0
370
     5
100
AcDbPolyline
 90
        2
 70
     0
 43
0.0
 10
120.506789116419
 20
344.6148817234489
 10
118.8778512226297
 20
344.6148817234489
  0
LWPOLYLINE
  5
6CB
330
1F
100
AcDbEntity
  8
0
 62
     0
370
     5
100
AcDbPolyline
 90
        2
 70
     0
 43
0.0
 10
120.506789116419
 20
344.6148817234489
 10
120.506789116419
 20
346.7867989151679
  0
LWPOLYLINE
  5
6CC
330
1F
100
AcDbEntity
  8
0
 62
     0
370
     5
100
AcDbPolyline
 90
        2
 70
     0
 43
0.0
 10
137.8821266501723
 20
320.7237926145378
 10
137.8821266501723
 20
319.0948547207485
  0
LWPOLYLINE
  5
6CD
330
1F
100
AcDbEntity
  8
0
 62
     0
370
     5
100
AcDbPolyline
 90
        2
 70
     0
 43
0.0
 10
137.8821266501723
 20
320.7237926145378
 10
140.0540438418915
 20
320.7237926145378
  0
LWPOLYLINE
  5
6CE
330
1F
100
AcDbEntity
  8
0
 62
     0
370
     5
100
AcDbPolyline
 90
        2
 70
     0
 43
0.0
 10
140.0540438418915
 20
319.0948547207485
 10
137.8821266501723
 20
319.0948547207485
  0
LWPOLYLINE
  5
6CF
330
1F
100
AcDbEntity
  8
0
 62
     0
370
     5
100
AcDbPolyline
 90
        2
 70
     0
 43
0.0
 10
140.0540438418915
 20
319.0948547207485
 10
140.0540438418915
 20
320.7237926145378
  0
LWPOLYLINE
  5
6D0
330
1F
100
AcDbEntity
  8
0
 62
     0
370
     5
100
AcDbPolyline
 90
        2
 70
     0
 43
0.0
 10
131.3663750750149
 20
346.7867989151679
 10
131.3663750750149
 20
344.6148817234489
  0
LWPOLYLINE
  5
6D1
330
1F
100
AcDbEntity
  8
0
 62
     0
370
     5
100
AcDbPolyline
 90
        2
 70
     0
 43
0.0
 10
131.3663750750149
 20
346.7867989151679
 10
133.5382922667341
 20
346.7867989151679
  0
LWPOLYLINE
  5
6D2
330
1F
100
AcDbEntity
  8
0
 62
     0
370
     5
100
AcDbPolyline
 90
        2
 70
     0
 43
0.0
 10
133.5382922667341
 20
344.6148817234489
 10
131.3663750750149
 20
344.6148817234489
  0
LWPOLYLINE
  5
6D3
330
1F
100
AcDbEntity
  8
0
 62
     0
370
     5
100
AcDbPolyline
 90
        2
 70
     0
 43
0.0
 10
133.5382922667341
 20
344.6148817234489
 10
133.5382922667341
 20
346.7867989151679
  0
LWPOLYLINE
  5
6D4
330
1F
100
AcDbEntity
  8
0
 62
     0
370
     5
100
AcDbPolyline
 90
        2
 70
     0
 43
0.0
 10
144.3978782253299
 20
320.7237926145378
 10
144.3978782253299
 20
319.0948547207485
  0
LWPOLYLINE
  5
6D5
330
1F
100
AcDbEntity
  8
0
 62
     0
370
     5
100
AcDbPolyline
 90
        2
 70
     0
 43
0.0
 10
144.3978782253299
 20
320.7237926145378
 10
146.0268161191195
 20
320.7237926145378
  0
LWPOLYLINE
  5
6D6
330
1F
100
AcDbEntity
  8
0
 62
     0
370
     5
100
AcDbPolyline
 90
        2
 70
     0
 43
0.0
 10
146.0268161191195
 20
319.0948547207485
 10
144.3978782253299
 20
319.0948547207485
  0
LWPOLYLINE
  5
6D7
330
1F
100
AcDbEntity
  8
0
 62
     0
370
     5
100
AcDbPolyline
 90
        2
 70
     0
 43
0.0
 10
146.0268161191195
 20
319.0948547207485
 10
146.0268161191195
 20
320.7237926145378
  0
LWPOLYLINE
  5
6D8
330
1F
100
AcDbEntity
  8
0
 62
     0
370
     5
100
AcDbPolyline
 90
        2
 70
     0
 43
0.0
 10
144.3978782253299
 20
346.7867989151679
 10
144.3978782253299
 20
344.6148817234489
  0
LWPOLYLINE
  5
6D9
330
1F
100
AcDbEntity
  8
0
 62
     0
370
     5
100
AcDbPolyline
 90
        2
 70
     0
 43
0.0
 10
144.3978782253299
 20
346.7867989151679
 10
146.0268161191195
 20
346.7867989151679
  0
LWPOLYLINE
  5
6DA
330
1F
100
AcDbEntity
  8
0
 62
     0
370
     5
100
AcDbPolyline
 90
        2
 70
     0
 43
0.0
 10
146.0268161191195
 20
344.6148817234489
 10
144.3978782253299
 20
344.6148817234489
  0
LWPOLYLINE
  5
6DB
330
1F
100
AcDbEntity
  8
0
 62
     0
370
     5
100
AcDbPolyline
 90
        2
 70
     0
 43
0.0
 10
146.0268161191195
 20
344.6148817234489
 10
146.0268161191195
 20
346.7867989151679
  0
LWPOLYLINE
  5
6DC
330
1F
100
AcDbEntity
  8
0
 62
     0
370
     5
100
AcDbPolyline
 90
        2
 70
     0
 43
0.0
 10
150.3706505025576
 20
320.7237926145378
 10
150.3706505025576
 20
319.0948547207485
  0
LWPOLYLINE
  5
6DD
330
1F
100
AcDbEntity
  8
0
 62
     0
370
     5
100
AcDbPolyline
 90
        2
 70
     0
 43
0.0
 10
150.3706505025576
 20
320.7237926145378
 10
152.5425676942769
 20
320.7237926145378
  0
LWPOLYLINE
  5
6DE
330
1F
100
AcDbEntity
  8
0
 62
     0
370
     5
100
AcDbPolyline
 90
        2
 70
     0
 43
0.0
 10
152.5425676942769
 20
319.0948547207485
 10
150.3706505025576
 20
319.0948547207485
  0
LWPOLYLINE
  5
6DF
330
1F
100
AcDbEntity
  8
0
 62
     0
370
     5
100
AcDbPolyline
 90
        2
 70
     0
 43
0.0
 10
152.5425676942769
 20
319.0948547207485
 10
152.5425676942769
 20
320.7237926145378
  0
LWPOLYLINE
  5
6E0
330
1F
100
AcDbEntity
  8
0
 62
     0
370
     5
100
AcDbPolyline
 90
        2
 70
     0
 43
0.0
 10
112.3620996474722
 20
352.7595711923958
 10
112.3620996474722
 20
351.1306332986066
  0
LWPOLYLINE
  5
6E1
330
1F
100
AcDbEntity
  8
0
 62
     0
370
     5
100
AcDbPolyline
 90
        2
 70
     0
 43
0.0
 10
112.3620996474722
 20
352.7595711923958
 10
113.9910375412618
 20
352.7595711923958
  0
LWPOLYLINE
  5
6E2
330
1F
100
AcDbEntity
  8
0
 62
     0
370
     5
100
AcDbPolyline
 90
        2
 70
     0
 43
0.0
 10
113.9910375412618
 20
351.1306332986066
 10
112.3620996474722
 20
351.1306332986066
  0
LWPOLYLINE
  5
6E3
330
1F
100
AcDbEntity
  8
0
 62
     0
370
     5
100
AcDbPolyline
 90
        2
 70
     0
 43
0.0
 10
113.9910375412618
 20
351.1306332986066
 10
113.9910375412618
 20
352.7595711923958
  0
LWPOLYLINE
  5
6E4
330
1F
100
AcDbEntity
  8
0
 62
     0
370
     5
100
AcDbPolyline
 90
        2
 70
     0
 43
0.0
 10
112.3620996474722
 20
327.2395441896954
 10
112.3620996474722
 20
325.610606295906
  0
LWPOLYLINE
  5
6E5
330
1F
100
AcDbEntity
  8
0
 62
     0
370
     5
100
AcDbPolyline
 90
        2
 70
     0
 43
0.0
 10
112.3620996474722
 20
327.2395441896954
 10
113.9910375412618
 20
327.2395441896954
  0
LWPOLYLINE
  5
6E6
330
1F
100
AcDbEntity
  8
0
 62
     0
370
     5
100
AcDbPolyline
 90
        2
 70
     0
 43
0.0
 10
113.9910375412618
 20
325.610606295906
 10
112.3620996474722
 20
325.610606295906
  0
LWPOLYLINE
  5
6E7
330
1F
100
AcDbEntity
  8
0
 62
     0
370
     5
100
AcDbPolyline
 90
        2
 70
     0
 43
0.0
 10
113.9910375412618
 20
325.610606295906
 10
113.9910375412618
 20
327.2395441896954
  0
LWPOLYLINE
  5
6E8
330
1F
100
AcDbEntity
  8
0
 62
     0
370
     5
100
AcDbPolyline
 90
        2
 70
     0
 43
0.0
 10
124.8506234998575
 20
352.7595711923958
 10
124.8506234998575
 20
351.1306332986066
  0
LWPOLYLINE
  5
6E9
330
1F
100
AcDbEntity
  8
0
 62
     0
370
     5
100
AcDbPolyline
 90
        2
 70
     0
 43
0.0
 10
124.8506234998575
 20
352.7595711923958
 10
127.0225406915765
 20
352.7595711923958
  0
LWPOLYLINE
  5
6EA
330
1F
100
AcDbEntity
  8
0
 62
     0
370
     5
100
AcDbPolyline
 90
        2
 70
     0
 43
0.0
 10
127.0225406915765
 20
351.1306332986066
 10
124.8506234998575
 20
351.1306332986066
  0
LWPOLYLINE
  5
6EB
330
1F
100
AcDbEntity
  8
0
 62
     0
370
     5
100
AcDbPolyline
 90
        2
 70
     0
 43
0.0
 10
127.0225406915765
 20
351.1306332986066
 10
127.0225406915765
 20
352.7595711923958
  0
LWPOLYLINE
  5
6EC
330
1F
100
AcDbEntity
  8
0
 62
     0
370
     5
100
AcDbPolyline
 90
        2
 70
     0
 43
0.0
 10
118.8778512226297
 20
327.2395441896954
 10
118.8778512226297
 20
325.610606295906
  0
LWPOLYLINE
  5
6ED
330
1F
100
AcDbEntity
  8
0
 62
     0
370
     5
100
AcDbPolyline
 90
        2
 70
     0
 43
0.0
 10
118.8778512226297
 20
327.2395441896954
 10
120.506789116419
 20
327.2395441896954
  0
LWPOLYLINE
  5
6EE
330
1F
100
AcDbEntity
  8
0
 62
     0
370
     5
100
AcDbPolyline
 90
        2
 70
     0
 43
0.0
 10
120.506789116419
 20
325.610606295906
 10
118.8778512226297
 20
325.610606295906
  0
LWPOLYLINE
  5
6EF
330
1F
100
AcDbEntity
  8
0
 62
     0
370
     5
100
AcDbPolyline
 90
        2
 70
     0
 43
0.0
 10
120.506789116419
 20
325.610606295906
 10
120.506789116419
 20
327.2395441896954
  0
LWPOLYLINE
  5
6F0
330
1F
100
AcDbEntity
  8
0
 62
     0
370
     5
100
AcDbPolyline
 90
        2
 70
     0
 43
0.0
 10
137.8821266501723
 20
352.7595711923958
 10
137.8821266501723
 20
351.1306332986066
  0
LWPOLYLINE
  5
6F1
330
1F
100
AcDbEntity
  8
0
 62
     0
370
     5
100
AcDbPolyline
 90
        2
 70
     0
 43
0.0
 10
137.8821266501723
 20
352.7595711923958
 10
140.0540438418915
 20
352.7595711923958
  0
LWPOLYLINE
  5
6F2
330
1F
100
AcDbEntity
  8
0
 62
     0
370
     5
100
AcDbPolyline
 90
        2
 70
     0
 43
0.0
 10
140.0540438418915
 20
351.1306332986066
 10
137.8821266501723
 20
351.1306332986066
  0
LWPOLYLINE
  5
6F3
330
1F
100
AcDbEntity
  8
0
 62
     0
370
     5
100
AcDbPolyline
 90
        2
 70
     0
 43
0.0
 10
140.0540438418915
 20
351.1306332986066
 10
140.0540438418915
 20
352.7595711923958
  0
LWPOLYLINE
  5
6F4
330
1F
100
AcDbEntity
  8
0
 62
     0
370
     5
100
AcDbPolyline
 90
        2
 70
     0
 43
0.0
 10
124.8506234998575
 20
327.2395441896954
 10
124.8506234998575
 20
325.610606295906
  0
LWPOLYLINE
  5
6F5
330
1F
100
AcDbEntity
  8
0
 62
     0
370
     5
100
AcDbPolyline
 90
        2
 70
     0
 43
0.0
 10
124.8506234998575
 20
327.2395441896954
 10
127.0225406915765
 20
327.2395441896954
  0
LWPOLYLINE
  5
6F6
330
1F
100
AcDbEntity
  8
0
 62
     0
370
     5
100
AcDbPolyline
 90
        2
 70
     0
 43
0.0
 10
127.0225406915765
 20
325.610606295906
 10
124.8506234998575
 20
325.610606295906
  0
LWPOLYLINE
  5
6F7
330
1F
100
AcDbEntity
  8
0
 62
     0
370
     5
100
AcDbPolyline
 90
        2
 70
     0
 43
0.0
 10
127.0225406915765
 20
325.610606295906
 10
127.0225406915765
 20
327.2395441896954
  0
LWPOLYLINE
  5
6F8
330
1F
100
AcDbEntity
  8
0
 62
     0
370
     5
100
AcDbPolyline
 90
        2
 70
     0
 43
0.0
 10
150.3706505025576
 20
352.7595711923958
 10
150.3706505025576
 20
351.1306332986066
  0
LWPOLYLINE
  5
6F9
330
1F
100
AcDbEntity
  8
0
 62
     0
370
     5
100
AcDbPolyline
 90
        2
 70
     0
 43
0.0
 10
150.3706505025576
 20
352.7595711923958
 10
152.5425676942769
 20
352.7595711923958
  0
LWPOLYLINE
  5
6FA
330
1F
100
AcDbEntity
  8
0
 62
     0
370
     5
100
AcDbPolyline
 90
        2
 70
     0
 43
0.0
 10
152.5425676942769
 20
351.1306332986066
 10
150.3706505025576
 20
351.1306332986066
  0
LWPOLYLINE
  5
6FB
330
1F
100
AcDbEntity
  8
0
 62
     0
370
     5
100
AcDbPolyline
 90
        2
 70
     0
 43
0.0
 10
152.5425676942769
 20
351.1306332986066
 10
152.5425676942769
 20
352.7595711923958
  0
LWPOLYLINE
  5
6FC
330
1F
100
AcDbEntity
  8
0
 62
     0
370
     5
100
AcDbPolyline
 90
        2
 70
     0
 43
0.0
 10
131.3663750750149
 20
327.2395441896954
 10
131.3663750750149
 20
325.610606295906
  0
LWPOLYLINE
  5
6FD
330
1F
100
AcDbEntity
  8
0
 62
     0
370
     5
100
AcDbPolyline
 90
        2
 70
     0
 43
0.0
 10
131.3663750750149
 20
327.2395441896954
 10
133.5382922667341
 20
327.2395441896954
  0
LWPOLYLINE
  5
6FE
330
1F
100
AcDbEntity
  8
0
 62
     0
370
     5
100
AcDbPolyline
 90
        2
 70
     0
 43
0.0
 10
133.5382922667341
 20
325.610606295906
 10
131.3663750750149
 20
325.610606295906
  0
LWPOLYLINE
  5
6FF
330
1F
100
AcDbEntity
  8
0
 62
     0
370
     5
100
AcDbPolyline
 90
        2
 70
     0
 43
0.0
 10
133.5382922667341
 20
325.610606295906
 10
133.5382922667341
 20
327.2395441896954
  0
LWPOLYLINE
  5
700
330
1F
100
AcDbEntity
  8
0
 62
     0
370
     5
100
AcDbPolyline
 90
        2
 70
     0
 43
0.0
 10
118.8778512226297
 20
359.2753227675532
 10
118.8778512226297
 20
357.1034055758339
  0
LWPOLYLINE
  5
701
330
1F
100
AcDbEntity
  8
0
 62
     0
370
     5
100
AcDbPolyline
 90
        2
 70
     0
 43
0.0
 10
118.8778512226297
 20
359.2753227675532
 10
120.506789116419
 20
359.2753227675532
  0
LWPOLYLINE
  5
702
330
1F
100
AcDbEntity
  8
0
 62
     0
370
     5
100
AcDbPolyline
 90
        2
 70
     0
 43
0.0
 10
120.506789116419
 20
357.1034055758339
 10
118.8778512226297
 20
357.1034055758339
  0
LWPOLYLINE
  5
703
330
1F
100
AcDbEntity
  8
0
 62
     0
370
     5
100
AcDbPolyline
 90
        2
 70
     0
 43
0.0
 10
120.506789116419
 20
357.1034055758339
 10
120.506789116419
 20
359.2753227675532
  0
LWPOLYLINE
  5
704
330
1F
100
AcDbEntity
  8
0
 62
     0
370
     5
100
AcDbPolyline
 90
        2
 70
     0
 43
0.0
 10
137.8821266501723
 20
327.2395441896954
 10
137.8821266501723
 20
325.610606295906
  0
LWPOLYLINE
  5
705
330
1F
100
AcDbEntity
  8
0
 62
     0
370
     5
100
AcDbPolyline
 90
        2
 70
     0
 43
0.0
 10
137.8821266501723
 20
327.2395441896954
 10
140.0540438418915
 20
327.2395441896954
  0
LWPOLYLINE
  5
706
330
1F
100
AcDbEntity
  8
0
 62
     0
370
     5
100
AcDbPolyline
 90
        2
 70
     0
 43
0.0
 10
140.0540438418915
 20
325.610606295906
 10
137.8821266501723
 20
325.610606295906
  0
LWPOLYLINE
  5
707
330
1F
100
AcDbEntity
  8
0
 62
     0
370
     5
100
AcDbPolyline
 90
        2
 70
     0
 43
0.0
 10
140.0540438418915
 20
325.610606295906
 10
140.0540438418915
 20
327.2395441896954
  0
LWPOLYLINE
  5
708
330
1F
100
AcDbEntity
  8
0
 62
     0
370
     5
100
AcDbPolyline
 90
        2
 70
     0
 43
0.0
 10
131.3663750750149
 20
359.2753227675532
 10
131.3663750750149
 20
357.1034055758339
  0
LWPOLYLINE
  5
709
330
1F
100
AcDbEntity
  8
0
 62
     0
370
     5
100
AcDbPolyline
 90
        2
 70
     0
 43
0.0
 10
131.3663750750149
 20
359.2753227675532
 10
133.5382922667341
 20
359.2753227675532
  0
LWPOLYLINE
  5
70A
330
1F
100
AcDbEntity
  8
0
 62
     0
370
     5
100
AcDbPolyline
 90
        2
 70
     0
 43
0.0
 10
133.5382922667341
 20
357.1034055758339
 10
131.3663750750149
 20
357.1034055758339
  0
LWPOLYLINE
  5
70B
330
1F
100
AcDbEntity
  8
0
 62
     0
370
     5
100
AcDbPolyline
 90
        2
 70
     0
 43
0.0
 10
133.5382922667341
 20
357.1034055758339
 10
133.5382922667341
 20
359.2753227675532
  0
LWPOLYLINE
  5
70C
330
1F
100
AcDbEntity
  8
0
 62
     0
370
     5
100
AcDbPolyline
 90
        2
 70
     0
 43
0.0
 10
144.3978782253299
 20
327.2395441896954
 10
144.3978782253299
 20
325.610606295906
  0
LWPOLYLINE
  5
70D
330
1F
100
AcDbEntity
  8
0
 62
     0
370
     5
100
AcDbPolyline
 90
        2
 70
     0
 43
0.0
 10
144.3978782253299
 20
327.2395441896954
 10
146.0268161191195
 20
327.2395441896954
  0
LWPOLYLINE
  5
70E
330
1F
100
AcDbEntity
  8
0
 62
     0
370
     5
100
AcDbPolyline
 90
        2
 70
     0
 43
0.0
 10
146.0268161191195
 20
325.610606295906
 10
144.3978782253299
 20
325.610606295906
  0
LWPOLYLINE
  5
70F
330
1F
100
AcDbEntity
  8
0
 62
     0
370
     5
100
AcDbPolyline
 90
        2
 70
     0
 43
0.0
 10
146.0268161191195
 20
325.610606295906
 10
146.0268161191195
 20
327.2395441896954
  0
LWPOLYLINE
  5
710
330
1F
100
AcDbEntity
  8
0
 62
     0
370
     5
100
AcDbPolyline
 90
        2
 70
     0
 43
0.0
 10
144.3978782253299
 20
359.2753227675532
 10
144.3978782253299
 20
357.1034055758339
  0
LWPOLYLINE
  5
711
330
1F
100
AcDbEntity
  8
0
 62
     0
370
     5
100
AcDbPolyline
 90
        2
 70
     0
 43
0.0
 10
144.3978782253299
 20
359.2753227675532
 10
146.0268161191195
 20
359.2753227675532
  0
LWPOLYLINE
  5
712
330
1F
100
AcDbEntity
  8
0
 62
     0
370
     5
100
AcDbPolyline
 90
        2
 70
     0
 43
0.0
 10
146.0268161191195
 20
357.1034055758339
 10
144.3978782253299
 20
357.1034055758339
  0
LWPOLYLINE
  5
713
330
1F
100
AcDbEntity
  8
0
 62
     0
370
     5
100
AcDbPolyline
 90
        2
 70
     0
 43
0.0
 10
146.0268161191195
 20
357.1034055758339
 10
146.0268161191195
 20
359.2753227675532
  0
LWPOLYLINE
  5
714
330
1F
100
AcDbEntity
  8
0
 62
     0
370
     5
100
AcDbPolyline
 90
        2
 70
     0
 43
0.0
 10
150.3706505025576
 20
327.2395441896954
 10
150.3706505025576
 20
325.610606295906
  0
LWPOLYLINE
  5
715
330
1F
100
AcDbEntity
  8
0
 62
     0
370
     5
100
AcDbPolyline
 90
        2
 70
     0
 43
0.0
 10
150.3706505025576
 20
327.2395441896954
 10
152.5425676942769
 20
327.2395441896954
  0
LWPOLYLINE
  5
716
330
1F
100
AcDbEntity
  8
0
 62
     0
370
     5
100
AcDbPolyline
 90
        2
 70
     0
 43
0.0
 10
152.5425676942769
 20
325.610606295906
 10
150.3706505025576
 20
325.610606295906
  0
LWPOLYLINE
  5
717
330
1F
100
AcDbEntity
  8
0
 62
     0
370
     5
100
AcDbPolyline
 90
        2
 70
     0
 43
0.0
 10
152.5425676942769
 20
325.610606295906
 10
152.5425676942769
 20
327.2395441896954
  0
LWPOLYLINE
  5
718
330
1F
100
AcDbEntity
  8
0
 62
     0
370
     5
100
AcDbPolyline
 90
        2
 70
     0
 43
0.0
 10
112.3620996474722
 20
359.2753227675532
 10
112.3620996474722
 20
357.1034055758339
  0
LWPOLYLINE
  5
719
330
1F
100
AcDbEntity
  8
0
 62
     0
370
     5
100
AcDbPolyline
 90
        2
 70
     0
 43
0.0
 10
112.3620996474722
 20
359.2753227675532
 10
113.9910375412618
 20
359.2753227675532
  0
LWPOLYLINE
  5
71A
330
1F
100
AcDbEntity
  8
0
 62
     0
370
     5
100
AcDbPolyline
 90
        2
 70
     0
 43
0.0
 10
113.9910375412618
 20
357.1034055758339
 10
112.3620996474722
 20
357.1034055758339
  0
LWPOLYLINE
  5
71B
330
1F
100
AcDbEntity
  8
0
 62
     0
370
     5
100
AcDbPolyline
 90
        2
 70
     0
 43
0.0
 10
113.9910375412618
 20
357.1034055758339
 10
113.9910375412618
 20
359.2753227675532
  0
LWPOLYLINE
  5
71C
330
1F
100
AcDbEntity
  8
0
 62
     0
370
     5
100
AcDbPolyline
 90
        2
 70
     0
 43
0.0
 10
112.3620996474722
 20
333.7552957648528
 10
112.3620996474722
 20
331.583378573134
  0
LWPOLYLINE
  5
71D
330
1F
100
AcDbEntity
  8
0
 62
     0
370
     5
100
AcDbPolyline
 90
        2
 70
     0
 43
0.0
 10
112.3620996474722
 20
333.7552957648528
 10
113.9910375412618
 20
333.7552957648528
  0
LWPOLYLINE
  5
71E
330
1F
100
AcDbEntity
  8
0
 62
     0
370
     5
100
AcDbPolyline
 90
        2
 70
     0
 43
0.0
 10
113.9910375412618
 20
331.583378573134
 10
112.3620996474722
 20
331.583378573134
  0
LWPOLYLINE
  5
71F
330
1F
100
AcDbEntity
  8
0
 62
     0
370
     5
100
AcDbPolyline
 90
        2
 70
     0
 43
0.0
 10
113.9910375412618
 20
331.583378573134
 10
113.9910375412618
 20
333.7552957648528
  0
LWPOLYLINE
  5
720
330
1F
100
AcDbEntity
  8
0
 62
     0
370
     5
100
AcDbPolyline
 90
        2
 70
     0
 43
0.0
 10
112.3620996474722
 20
346.7867989151679
 10
112.3620996474722
 20
344.6148817234489
  0
LWPOLYLINE
  5
721
330
1F
100
AcDbEntity
  8
0
 62
     0
370
     5
100
AcDbPolyline
 90
        2
 70
     0
 43
0.0
 10
112.3620996474722
 20
346.7867989151679
 10
113.9910375412618
 20
346.7867989151679
  0
LWPOLYLINE
  5
722
330
1F
100
AcDbEntity
  8
0
 62
     0
370
     5
100
AcDbPolyline
 90
        2
 70
     0
 43
0.0
 10
113.9910375412618
 20
344.6148817234489
 10
112.3620996474722
 20
344.6148817234489
  0
LWPOLYLINE
  5
723
330
1F
100
AcDbEntity
  8
0
 62
     0
370
     5
100
AcDbPolyline
 90
        2
 70
     0
 43
0.0
 10
113.9910375412618
 20
344.6148817234489
 10
113.9910375412618
 20
346.7867989151679
  0
LWPOLYLINE
  5
724
330
1F
100
AcDbEntity
  8
0
 62
     0
370
     5
100
AcDbPolyline
 90
        2
 70
     0
 43
0.0
 10
118.8778512226297
 20
333.7552957648528
 10
118.8778512226297
 20
331.583378573134
  0
LWPOLYLINE
  5
725
330
1F
100
AcDbEntity
  8
0
 62
     0
370
     5
100
AcDbPolyline
 90
        2
 70
     0
 43
0.0
 10
118.8778512226297
 20
333.7552957648528
 10
120.506789116419
 20
333.7552957648528
  0
LWPOLYLINE
  5
726
330
1F
100
AcDbEntity
  8
0
 62
     0
370
     5
100
AcDbPolyline
 90
        2
 70
     0
 43
0.0
 10
120.506789116419
 20
331.583378573134
 10
118.8778512226297
 20
331.583378573134
  0
LWPOLYLINE
  5
727
330
1F
100
AcDbEntity
  8
0
 62
     0
370
     5
100
AcDbPolyline
 90
        2
 70
     0
 43
0.0
 10
120.506789116419
 20
331.583378573134
 10
120.506789116419
 20
333.7552957648528
  0
LWPOLYLINE
  5
728
330
1F
100
AcDbEntity
  8
0
 62
     0
370
     5
100
AcDbPolyline
 90
        2
 70
     0
 43
0.0
 10
137.8821266501723
 20
346.7867989151679
 10
137.8821266501723
 20
344.6148817234489
  0
LWPOLYLINE
  5
729
330
1F
100
AcDbEntity
  8
0
 62
     0
370
     5
100
AcDbPolyline
 90
        2
 70
     0
 43
0.0
 10
137.8821266501723
 20
346.7867989151679
 10
140.0540438418915
 20
346.7867989151679
  0
LWPOLYLINE
  5
72A
330
1F
100
AcDbEntity
  8
0
 62
     0
370
     5
100
AcDbPolyline
 90
        2
 70
     0
 43
0.0
 10
140.0540438418915
 20
344.6148817234489
 10
137.8821266501723
 20
344.6148817234489
  0
LWPOLYLINE
  5
72B
330
1F
100
AcDbEntity
  8
0
 62
     0
370
     5
100
AcDbPolyline
 90
        2
 70
     0
 43
0.0
 10
140.0540438418915
 20
344.6148817234489
 10
140.0540438418915
 20
346.7867989151679
  0
LWPOLYLINE
  5
72C
330
1F
100
AcDbEntity
  8
0
 62
     0
370
     5
100
AcDbPolyline
 90
        2
 70
     0
 43
0.0
 10
124.8506234998575
 20
333.7552957648528
 10
124.8506234998575
 20
331.583378573134
  0
LWPOLYLINE
  5
72D
330
1F
100
AcDbEntity
  8
0
 62
     0
370
     5
100
AcDbPolyline
 90
        2
 70
     0
 43
0.0
 10
124.8506234998575
 20
333.7552957648528
 10
127.0225406915765
 20
333.7552957648528
  0
LWPOLYLINE
  5
72E
330
1F
100
AcDbEntity
  8
0
 62
     0
370
     5
100
AcDbPolyline
 90
        2
 70
     0
 43
0.0
 10
127.0225406915765
 20
331.583378573134
 10
124.8506234998575
 20
331.583378573134
  0
LWPOLYLINE
  5
72F
330
1F
100
AcDbEntity
  8
0
 62
     0
370
     5
100
AcDbPolyline
 90
        2
 70
     0
 43
0.0
 10
127.0225406915765
 20
331.583378573134
 10
127.0225406915765
 20
333.7552957648528
  0
LWPOLYLINE
  5
730
330
1F
100
AcDbEntity
  8
0
 62
     0
370
     5
100
AcDbPolyline
 90
        2
 70
     0
 43
0.0
 10
118.8778512226297
 20
352.7595711923958
 10
118.8778512226297
 20
351.1306332986066
  0
LWPOLYLINE
  5
731
330
1F
100
AcDbEntity
  8
0
 62
     0
370
     5
100
AcDbPolyline
 90
        2
 70
     0
 43
0.0
 10
118.8778512226297
 20
352.7595711923958
 10
120.506789116419
 20
352.7595711923958
  0
LWPOLYLINE
  5
732
330
1F
100
AcDbEntity
  8
0
 62
     0
370
     5
100
AcDbPolyline
 90
        2
 70
     0
 43
0.0
 10
120.506789116419
 20
351.1306332986066
 10
118.8778512226297
 20
351.1306332986066
  0
LWPOLYLINE
  5
733
330
1F
100
AcDbEntity
  8
0
 62
     0
370
     5
100
AcDbPolyline
 90
        2
 70
     0
 43
0.0
 10
120.506789116419
 20
351.1306332986066
 10
120.506789116419
 20
352.7595711923958
  0
LWPOLYLINE
  5
734
330
1F
100
AcDbEntity
  8
0
 62
     0
370
     5
100
AcDbPolyline
 90
        2
 70
     0
 43
0.0
 10
131.3663750750149
 20
333.7552957648528
 10
131.3663750750149
 20
331.583378573134
  0
LWPOLYLINE
  5
735
330
1F
100
AcDbEntity
  8
0
 62
     0
370
     5
100
AcDbPolyline
 90
        2
 70
     0
 43
0.0
 10
131.3663750750149
 20
333.7552957648528
 10
133.5382922667341
 20
333.7552957648528
  0
LWPOLYLINE
  5
736
330
1F
100
AcDbEntity
  8
0
 62
     0
370
     5
100
AcDbPolyline
 90
        2
 70
     0
 43
0.0
 10
133.5382922667341
 20
331.583378573134
 10
131.3663750750149
 20
331.583378573134
  0
LWPOLYLINE
  5
737
330
1F
100
AcDbEntity
  8
0
 62
     0
370
     5
100
AcDbPolyline
 90
        2
 70
     0
 43
0.0
 10
133.5382922667341
 20
331.583378573134
 10
133.5382922667341
 20
333.7552957648528
  0
LWPOLYLINE
  5
738
330
1F
100
AcDbEntity
  8
0
 62
     0
370
     5
100
AcDbPolyline
 90
        2
 70
     0
 43
0.0
 10
144.3978782253299
 20
352.7595711923958
 10
144.3978782253299
 20
351.1306332986066
  0
LWPOLYLINE
  5
739
330
1F
100
AcDbEntity
  8
0
 62
     0
370
     5
100
AcDbPolyline
 90
        2
 70
     0
 43
0.0
 10
144.3978782253299
 20
352.7595711923958
 10
146.0268161191195
 20
352.7595711923958
  0
LWPOLYLINE
  5
73A
330
1F
100
AcDbEntity
  8
0
 62
     0
370
     5
100
AcDbPolyline
 90
        2
 70
     0
 43
0.0
 10
146.0268161191195
 20
351.1306332986066
 10
144.3978782253299
 20
351.1306332986066
  0
LWPOLYLINE
  5
73B
330
1F
100
AcDbEntity
  8
0
 62
     0
370
     5
100
AcDbPolyline
 90
        2
 70
     0
 43
0.0
 10
146.0268161191195
 20
351.1306332986066
 10
146.0268161191195
 20
352.7595711923958
  0
LWPOLYLINE
  5
73C
330
1F
100
AcDbEntity
  8
0
 62
     0
370
     5
100
AcDbPolyline
 90
        2
 70
     0
 43
0.0
 10
137.8821266501723
 20
333.7552957648528
 10
137.8821266501723
 20
331.583378573134
  0
LWPOLYLINE
  5
73D
330
1F
100
AcDbEntity
  8
0
 62
     0
370
     5
100
AcDbPolyline
 90
        2
 70
     0
 43
0.0
 10
137.8821266501723
 20
333.7552957648528
 10
140.0540438418915
 20
333.7552957648528
  0
LWPOLYLINE
  5
73E
330
1F
100
AcDbEntity
  8
0
 62
     0
370
     5
100
AcDbPolyline
 90
        2
 70
     0
 43
0.0
 10
140.0540438418915
 20
331.583378573134
 10
137.8821266501723
 20
331.583378573134
  0
LWPOLYLINE
  5
73F
330
1F
100
AcDbEntity
  8
0
 62
     0
370
     5
100
AcDbPolyline
 90
        2
 70
     0
 43
0.0
 10
140.0540438418915
 20
331.583378573134
 10
140.0540438418915
 20
333.7552957648528
  0
LWPOLYLINE
  5
740
330
1F
100
AcDbEntity
  8
0
 62
     0
370
     5
100
AcDbPolyline
 90
        2
 70
     0
 43
0.0
 10
124.8506234998575
 20
359.2753227675532
 10
124.8506234998575
 20
357.1034055758339
  0
LWPOLYLINE
  5
741
330
1F
100
AcDbEntity
  8
0
 62
     0
370
     5
100
AcDbPolyline
 90
        2
 70
     0
 43
0.0
 10
124.8506234998575
 20
359.2753227675532
 10
127.0225406915765
 20
359.2753227675532
  0
LWPOLYLINE
  5
742
330
1F
100
AcDbEntity
  8
0
 62
     0
370
     5
100
AcDbPolyline
 90
        2
 70
     0
 43
0.0
 10
127.0225406915765
 20
357.1034055758339
 10
124.8506234998575
 20
357.1034055758339
  0
LWPOLYLINE
  5
743
330
1F
100
AcDbEntity
  8
0
 62
     0
370
     5
100
AcDbPolyline
 90
        2
 70
     0
 43
0.0
 10
127.0225406915765
 20
357.1034055758339
 10
127.0225406915765
 20
359.2753227675532
  0
LWPOLYLINE
  5
744
330
1F
100
AcDbEntity
  8
0
 62
     0
370
     5
100
AcDbPolyline
 90
        2
 70
     0
 43
0.0
 10
144.3978782253299
 20
333.7552957648528
 10
144.3978782253299
 20
331.583378573134
  0
LWPOLYLINE
  5
745
330
1F
100
AcDbEntity
  8
0
 62
     0
370
     5
100
AcDbPolyline
 90
        2
 70
     0
 43
0.0
 10
144.3978782253299
 20
333.7552957648528
 10
146.0268161191195
 20
333.7552957648528
  0
LWPOLYLINE
  5
746
330
1F
100
AcDbEntity
  8
0
 62
     0
370
     5
100
AcDbPolyline
 90
        2
 70
     0
 43
0.0
 10
146.0268161191195
 20
331.583378573134
 10
144.3978782253299
 20
331.583378573134
  0
LWPOLYLINE
  5
747
330
1F
100
AcDbEntity
  8
0
 62
     0
370
     5
100
AcDbPolyline
 90
        2
 70
     0
 43
0.0
 10
146.0268161191195
 20
331.583378573134
 10
146.0268161191195
 20
333.7552957648528
  0
LWPOLYLINE
  5
748
330
1F
100
AcDbEntity
  8
0
 62
     0
370
     5
100
AcDbPolyline
 90
        2
 70
     0
 43
0.0
 10
150.3706505025576
 20
359.2753227675532
 10
150.3706505025576
 20
357.1034055758339
  0
LWPOLYLINE
  5
749
330
1F
100
AcDbEntity
  8
0
 62
     0
370
     5
100
AcDbPolyline
 90
        2
 70
     0
 43
0.0
 10
150.3706505025576
 20
359.2753227675532
 10
152.5425676942769
 20
359.2753227675532
  0
LWPOLYLINE
  5
74A
330
1F
100
AcDbEntity
  8
0
 62
     0
370
     5
100
AcDbPolyline
 90
        2
 70
     0
 43
0.0
 10
152.5425676942769
 20
357.1034055758339
 10
150.3706505025576
 20
357.1034055758339
  0
LWPOLYLINE
  5
74B
330
1F
100
AcDbEntity
  8
0
 62
     0
370
     5
100
AcDbPolyline
 90
        2
 70
     0
 43
0.0
 10
152.5425676942769
 20
357.1034055758339
 10
152.5425676942769
 20
359.2753227675532
  0
LWPOLYLINE
  5
74C
330
1F
100
AcDbEntity
  8
0
 62
     0
370
     5
100
AcDbPolyline
 90
        2
 70
     0
 43
0.0
 10
150.3706505025576
 20
333.7552957648528
 10
150.3706505025576
 20
331.583378573134
  0
LWPOLYLINE
  5
74D
330
1F
100
AcDbEntity
  8
0
 62
     0
370
     5
100
AcDbPolyline
 90
        2
 70
     0
 43
0.0
 10
150.3706505025576
 20
333.7552957648528
 10
152.5425676942769
 20
333.7552957648528
  0
LWPOLYLINE
  5
74E
330
1F
100
AcDbEntity
  8
0
 62
     0
370
     5
100
AcDbPolyline
 90
        2
 70
     0
 43
0.0
 10
152.5425676942769
 20
331.583378573134
 10
150.3706505025576
 20
331.583378573134
  0
LWPOLYLINE
  5
74F
330
1F
100
AcDbEntity
  8
0
 62
     0
370
     5
100
AcDbPolyline
 90
        2
 70
     0
 43
0.0
 10
152.5425676942769
 20
331.583378573134
 10
152.5425676942769
 20
333.7552957648528
  0
LWPOLYLINE
  5
750
330
1F
100
AcDbEntity
  8
0
 62
     0
370
     5
100
AcDbPolyline
 90
        2
 70
     0
 43
0.0
 10
124.8506234998575
 20
346.7867989151679
 10
124.8506234998575
 20
344.6148817234489
  0
LWPOLYLINE
  5
751
330
1F
100
AcDbEntity
  8
0
 62
     0
370
     5
100
AcDbPolyline
 90
        2
 70
     0
 43
0.0
 10
124.8506234998575
 20
346.7867989151679
 10
127.0225406915765
 20
346.7867989151679
  0
LWPOLYLINE
  5
752
330
1F
100
AcDbEntity
  8
0
 62
     0
370
     5
100
AcDbPolyline
 90
        2
 70
     0
 43
0.0
 10
127.0225406915765
 20
344.6148817234489
 10
124.8506234998575
 20
344.6148817234489
  0
LWPOLYLINE
  5
753
330
1F
100
AcDbEntity
  8
0
 62
     0
370
     5
100
AcDbPolyline
 90
        2
 70
     0
 43
0.0
 10
127.0225406915765
 20
344.6148817234489
 10
127.0225406915765
 20
346.7867989151679
  0
LWPOLYLINE
  5
754
330
1F
100
AcDbEntity
  8
0
 62
     0
370
     5
100
AcDbPolyline
 90
        2
 70
     0
 43
0.0
 10
112.3620996474722
 20
340.2710473400102
 10
112.3620996474722
 20
338.0991301482915
  0
LWPOLYLINE
  5
755
330
1F
100
AcDbEntity
  8
0
 62
     0
370
     5
100
AcDbPolyline
 90
        2
 70
     0
 43
0.0
 10
112.3620996474722
 20
340.2710473400102
 10
113.9910375412618
 20
340.2710473400102
  0
LWPOLYLINE
  5
756
330
1F
100
AcDbEntity
  8
0
 62
     0
370
     5
100
AcDbPolyline
 90
        2
 70
     0
 43
0.0
 10
113.9910375412618
 20
338.0991301482915
 10
112.3620996474722
 20
338.0991301482915
  0
LWPOLYLINE
  5
757
330
1F
100
AcDbEntity
  8
0
 62
     0
370
     5
100
AcDbPolyline
 90
        2
 70
     0
 43
0.0
 10
113.9910375412618
 20
338.0991301482915
 10
113.9910375412618
 20
340.2710473400102
  0
LWPOLYLINE
  5
758
330
1F
100
AcDbEntity
  8
0
 62
     0
370
     5
100
AcDbPolyline
 90
        2
 70
     0
 43
0.0
 10
131.3663750750149
 20
352.7595711923958
 10
131.3663750750149
 20
351.1306332986066
  0
LWPOLYLINE
  5
759
330
1F
100
AcDbEntity
  8
0
 62
     0
370
     5
100
AcDbPolyline
 90
        2
 70
     0
 43
0.0
 10
131.3663750750149
 20
352.7595711923958
 10
133.5382922667341
 20
352.7595711923958
  0
LWPOLYLINE
  5
75A
330
1F
100
AcDbEntity
  8
0
 62
     0
370
     5
100
AcDbPolyline
 90
        2
 70
     0
 43
0.0
 10
133.5382922667341
 20
351.1306332986066
 10
131.3663750750149
 20
351.1306332986066
  0
LWPOLYLINE
  5
75B
330
1F
100
AcDbEntity
  8
0
 62
     0
370
     5
100
AcDbPolyline
 90
        2
 70
     0
 43
0.0
 10
133.5382922667341
 20
351.1306332986066
 10
133.5382922667341
 20
352.7595711923958
  0
LWPOLYLINE
  5
75C
330
1F
100
AcDbEntity
  8
0
 62
     0
370
     5
100
AcDbPolyline
 90
        2
 70
     0
 43
0.0
 10
118.8778512226297
 20
340.2710473400102
 10
118.8778512226297
 20
338.0991301482915
  0
LWPOLYLINE
  5
75D
330
1F
100
AcDbEntity
  8
0
 62
     0
370
     5
100
AcDbPolyline
 90
        2
 70
     0
 43
0.0
 10
118.8778512226297
 20
340.2710473400102
 10
120.506789116419
 20
340.2710473400102
  0
LWPOLYLINE
  5
75E
330
1F
100
AcDbEntity
  8
0
 62
     0
370
     5
100
AcDbPolyline
 90
        2
 70
     0
 43
0.0
 10
120.506789116419
 20
338.0991301482915
 10
118.8778512226297
 20
338.0991301482915
  0
LWPOLYLINE
  5
75F
330
1F
100
AcDbEntity
  8
0
 62
     0
370
     5
100
AcDbPolyline
 90
        2
 70
     0
 43
0.0
 10
120.506789116419
 20
338.0991301482915
 10
120.506789116419
 20
340.2710473400102
  0
LWPOLYLINE
  5
760
330
1F
100
AcDbEntity
  8
0
 62
     0
370
     5
100
AcDbPolyline
 90
        2
 70
     0
 43
0.0
 10
137.8821266501723
 20
359.2753227675532
 10
137.8821266501723
 20
357.1034055758339
  0
LWPOLYLINE
  5
761
330
1F
100
AcDbEntity
  8
0
 62
     0
370
     5
100
AcDbPolyline
 90
        2
 70
     0
 43
0.0
 10
137.8821266501723
 20
359.2753227675532
 10
140.0540438418915
 20
359.2753227675532
  0
LWPOLYLINE
  5
762
330
1F
100
AcDbEntity
  8
0
 62
     0
370
     5
100
AcDbPolyline
 90
        2
 70
     0
 43
0.0
 10
140.0540438418915
 20
357.1034055758339
 10
137.8821266501723
 20
357.1034055758339
  0
LWPOLYLINE
  5
763
330
1F
100
AcDbEntity
  8
0
 62
     0
370
     5
100
AcDbPolyline
 90
        2
 70
     0
 43
0.0
 10
140.0540438418915
 20
357.1034055758339
 10
140.0540438418915
 20
359.2753227675532
  0
LWPOLYLINE
  5
764
330
1F
100
AcDbEntity
  8
0
 62
     0
370
     5
100
AcDbPolyline
 90
        2
 70
     0
 43
0.0
 10
124.8506234998575
 20
340.2710473400102
 10
124.8506234998575
 20
338.0991301482915
  0
LWPOLYLINE
  5
765
330
1F
100
AcDbEntity
  8
0
 62
     0
370
     5
100
AcDbPolyline
 90
        2
 70
     0
 43
0.0
 10
124.8506234998575
 20
340.2710473400102
 10
127.0225406915765
 20
340.2710473400102
  0
LWPOLYLINE
  5
766
330
1F
100
AcDbEntity
  8
0
 62
     0
370
     5
100
AcDbPolyline
 90
        2
 70
     0
 43
0.0
 10
127.0225406915765
 20
338.0991301482915
 10
124.8506234998575
 20
338.0991301482915
  0
LWPOLYLINE
  5
767
330
1F
100
AcDbEntity
  8
0
 62
     0
370
     5
100
AcDbPolyline
 90
        2
 70
     0
 43
0.0
 10
127.0225406915765
 20
338.0991301482915
 10
127.0225406915765
 20
340.2710473400102
  0
LWPOLYLINE
  5
768
330
1F
100
AcDbEntity
  8
0
 62
     0
370
     5
100
AcDbPolyline
 90
        2
 70
     0
 43
0.0
 10
150.3706505025576
 20
346.7867989151679
 10
150.3706505025576
 20
344.6148817234489
  0
LWPOLYLINE
  5
769
330
1F
100
AcDbEntity
  8
0
 62
     0
370
     5
100
AcDbPolyline
 90
        2
 70
     0
 43
0.0
 10
150.3706505025576
 20
346.7867989151679
 10
152.5425676942769
 20
346.7867989151679
  0
LWPOLYLINE
  5
76A
330
1F
100
AcDbEntity
  8
0
 62
     0
370
     5
100
AcDbPolyline
 90
        2
 70
     0
 43
0.0
 10
152.5425676942769
 20
344.6148817234489
 10
150.3706505025576
 20
344.6148817234489
  0
LWPOLYLINE
  5
76B
330
1F
100
AcDbEntity
  8
0
 62
     0
370
     5
100
AcDbPolyline
 90
        2
 70
     0
 43
0.0
 10
152.5425676942769
 20
344.6148817234489
 10
152.5425676942769
 20
346.7867989151679
  0
LWPOLYLINE
  5
76C
330
1F
100
AcDbEntity
  8
0
 62
     0
370
     5
100
AcDbPolyline
 90
        2
 70
     0
 43
0.0
 10
131.3663750750149
 20
340.2710473400102
 10
131.3663750750149
 20
338.0991301482915
  0
LWPOLYLINE
  5
76D
330
1F
100
AcDbEntity
  8
0
 62
     0
370
     5
100
AcDbPolyline
 90
        2
 70
     0
 43
0.0
 10
131.3663750750149
 20
340.2710473400102
 10
133.5382922667341
 20
340.2710473400102
  0
LWPOLYLINE
  5
76E
330
1F
100
AcDbEntity
  8
0
 62
     0
370
     5
100
AcDbPolyline
 90
        2
 70
     0
 43
0.0
 10
133.5382922667341
 20
338.0991301482915
 10
131.3663750750149
 20
338.0991301482915
  0
LWPOLYLINE
  5
76F
330
1F
100
AcDbEntity
  8
0
 62
     0
370
     5
100
AcDbPolyline
 90
        2
 70
     0
 43
0.0
 10
133.5382922667341
 20
338.0991301482915
 10
133.5382922667341
 20
340.2710473400102
  0
LWPOLYLINE
  5
770
330
1F
100
AcDbEntity
  8
0
 62
     0
370
     5
100
AcDbPolyline
 90
        2
 70
     0
 43
0.0
 10
112.3620996474722
 20
320.7237926145378
 10
112.3620996474722
 20
319.0948547207485
  0
LWPOLYLINE
  5
771
330
1F
100
AcDbEntity
  8
0
 62
     0
370
     5
100
AcDbPolyline
 90
        2
 70
     0
 43
0.0
 10
112.3620996474722
 20
320.7237926145378
 10
113.9910375412618
 20
320.7237926145378
  0
LWPOLYLINE
  5
772
330
1F
100
AcDbEntity
  8
0
 62
     0
370
     5
100
AcDbPolyline
 90
        2
 70
     0
 43
0.0
 10
113.9910375412618
 20
319.0948547207485
 10
112.3620996474722
 20
319.0948547207485
  0
LWPOLYLINE
  5
773
330
1F
100
AcDbEntity
  8
0
 62
     0
370
     5
100
AcDbPolyline
 90
        2
 70
     0
 43
0.0
 10
113.9910375412618
 20
319.0948547207485
 10
113.9910375412618
 20
320.7237926145378
  0
SPLINE
  5
774
330
1F
100
AcDbEntity
  8
0
 62
     0
370
     5
100
AcDbSpline
210
0.0
220
0.0
230
1.0
 70
     8
 71
     3
 72
     8
 73
     4
 74
     0
 42
0.0000000001
 43
0.0000000001
 40
0.0
 40
0.0
 40
0.0
 40
0.0
 40
1.0
 40
1.0
 40
1.0
 40
1.0
 10
101.5025136888761
 20
106.7899492301993
 30
0.0
 10
100.4165550930168
 20
106.7899492301993
 30
0.0
 10
99.87357579508699
 20
105.7039906343401
 30
0.0
 10
99.87357579508699
 20
104.6180320384804
 30
0.0
  0
LWPOLYLINE
  5
775
330
1F
100
AcDbEntity
  8
0
 62
     0
370
     5
100
AcDbPolyline
 90
        2
 70
     0
 43
0.0
 10
101.5025136888761
 20
106.7899492301993
 10
163.4021536528726
 20
106.7899492301993
  0
LWPOLYLINE
  5
776
330
1F
100
AcDbEntity
  8
0
 62
     0
370
     5
100
AcDbPolyline
 90
        2
 70
     0
 43
0.0
 10
99.87357579508699
 20
104.6180320384804
 10
99.87357579508699
 20
75.84012924820157
  0
SPLINE
  5
777
330
1F
100
AcDbEntity
  8
0
 62
     0
370
     5
100
AcDbSpline
210
0.0
220
0.0
230
1.0
 70
     8
 71
     3
 72
     8
 73
     4
 74
     0
 42
0.0000000001
 43
0.0000000001
 40
0.0
 40
0.0
 40
0.0
 40
0.0
 40
1.0
 40
1.0
 40
1.0
 40
1.0
 10
165.0310915466622
 20
104.6180320384804
 30
0.0
 10
165.0310915466622
 20
105.7039906343401
 30
0.0
 10
164.4881122487324
 20
106.7899492301993
 30
0.0
 10
163.4021536528726
 20
106.7899492301993
 30
0.0
  0
SPLINE
  5
778
330
1F
100
AcDbEntity
  8
0
 62
     0
370
     5
100
AcDbSpline
210
0.0
220
0.0
230
1.0
 70
     8
 71
     3
 72
     8
 73
     4
 74
     0
 42
0.0000000001
 43
0.0000000001
 40
0.0
 40
0.0
 40
0.0
 40
0.0
 40
1.0
 40
1.0
 40
1.0
 40
1.0
 10
99.87357579508699
 20
75.84012924820157
 30
0.0
 10
99.87357579508699
 20
74.21119135441163
 30
0.0
 10
100.4165550930168
 20
73.66821205648202
 30
0.0
 10
101.5025136888761
 20
73.66821205648202
 30
0.0
  0
LWPOLYLINE
  5
779
330
1F
100
AcDbEntity
  8
0
 62
     0
370
     5
100
AcDbPolyline
 90
        2
 70
     0
 43
0.0
 10
165.0310915466622
 20
75.84012924820157
 10
165.0310915466622
 20
104.6180320384804
  0
LWPOLYLINE
  5
77A
330
1F
100
AcDbEntity
  8
0
 62
     0
370
     5
100
AcDbPolyline
 90
        2
 70
     0
 43
0.0
 10
163.4021536528726
 20
73.66821205648202
 10
101.5025136888761
 20
73.66821205648202
  0
SPLINE
  5
77B
330
1F
100
AcDbEntity
  8
0
 62
     0
370
     5
100
AcDbSpline
210
0.0
220
0.0
230
1.0
 70
     8
 71
     3
 72
     8
 73
     4
 74
     0
 42
0.0000000001
 43
0.0000000001
 40
0.0
 40
0.0
 40
0.0
 40
0.0
 40
1.0
 40
1.0
 40
1.0
 40
1.0
 10
163.4021536528726
 20
73.66821205648202
 30
0.0
 10
164.4881122487324
 20
73.66821205648202
 30
0.0
 10
165.0310915466622
 20
74.21119135441163
 30
0.0
 10
165.0310915466622
 20
75.84012924820157
 30
0.0
  0
SPLINE
  5
77C
330
1F
100
AcDbEntity
  8
0
 62
     0
370
     5
100
AcDbSpline
210
0.0
220
0.0
230
1.0
 70
     8
 71
     3
 72
     8
 73
     4
 74
     0
 42
0.0000000001
 43
0.0000000001
 40
0.0
 40
0.0
 40
0.0
 40
0.0
 40
1.0
 40
1.0
 40
1.0
 40
1.0
 10
99.87357579508699
 20
291.4029105263292
 30
0.0
 10
98.78761719922744
 20
291.4029105263292
 30
0.0
 10
97.70165860336787
 20
290.3169519304696
 30
0.0
 10
97.70165860336787
 20
289.2309933346098
 30
0.0
  0
LWPOLYLINE
  5
77D
330
1F
100
AcDbEntity
  8
0
 62
     0
370
     5
100
AcDbPolyline
 90
        2
 70
     0
 43
0.0
 10
99.87357579508699
 20
291.4029105263292
 10
165.0310915466622
 20
291.4029105263292
  0
LWPOLYLINE
  5
77E
330
1F
100
AcDbEntity
  8
0
 62
     0
370
     5
100
AcDbPolyline
 90
        2
 70
     0
 43
0.0
 10
97.70165860336787
 20
289.2309933346098
 10
97.70165860336787
 20
224.0734775830346
  0
SPLINE
  5
77F
330
1F
100
AcDbEntity
  8
0
 62
     0
370
     5
100
AcDbSpline
210
0.0
220
0.0
230
1.0
 70
     8
 71
     3
 72
     8
 73
     4
 74
     0
 42
0.0000000001
 43
0.0000000001
 40
0.0
 40
0.0
 40
0.0
 40
0.0
 40
1.0
 40
1.0
 40
1.0
 40
1.0
 10
167.2030087383813
 20
289.2309933346098
 30
0.0
 10
167.2030087383813
 20
290.3169519304696
 30
0.0
 10
166.1170501425216
 20
291.4029105263292
 30
0.0
 10
165.0310915466622
 20
291.4029105263292
 30
0.0
  0
SPLINE
  5
780
330
1F
100
AcDbEntity
  8
0
 62
     0
370
     5
100
AcDbSpline
210
0.0
220
0.0
230
1.0
 70
     8
 71
     3
 72
     8
 73
     4
 74
     0
 42
0.0000000001
 43
0.0000000001
 40
0.0
 40
0.0
 40
0.0
 40
0.0
 40
1.0
 40
1.0
 40
1.0
 40
1.0
 10
97.70165860336787
 20
224.0734775830346
 30
0.0
 10
97.70165860336787
 20
222.9875189871751
 30
0.0
 10
98.78761719922744
 20
221.9015603913159
 30
0.0
 10
99.87357579508699
 20
221.9015603913159
 30
0.0
  0
LWPOLYLINE
  5
781
330
1F
100
AcDbEntity
  8
0
 62
     0
370
     5
100
AcDbPolyline
 90
        2
 70
     0
 43
0.0
 10
167.2030087383813
 20
224.0734775830346
 10
167.2030087383813
 20
289.2309933346098
  0
LWPOLYLINE
  5
782
330
1F
100
AcDbEntity
  8
0
 62
     0
370
     5
100
AcDbPolyline
 90
        2
 70
     0
 43
0.0
 10
165.0310915466622
 20
221.9015603913159
 10
99.87357579508699
 20
221.9015603913159
  0
SPLINE
  5
783
330
1F
100
AcDbEntity
  8
0
 62
     0
370
     5
100
AcDbSpline
210
0.0
220
0.0
230
1.0
 70
     8
 71
     3
 72
     8
 73
     4
 74
     0
 42
0.0000000001
 43
0.0000000001
 40
0.0
 40
0.0
 40
0.0
 40
0.0
 40
1.0
 40
1.0
 40
1.0
 40
1.0
 10
165.0310915466622
 20
221.9015603913159
 30
0.0
 10
166.1170501425216
 20
221.9015603913159
 30
0.0
 10
167.2030087383813
 20
222.9875189871751
 30
0.0
 10
167.2030087383813
 20
224.0734775830346
 30
0.0
  0
LWPOLYLINE
  5
784
330
1F
100
AcDbEntity
  8
0
 62
     0
370
     5
100
AcDbPolyline
 90
        2
 70
     0
 43
0.0
 10
199.2387873162391
 20
51.40606084136064
 10
177.5196153990474
 20
51.40606084136064
  0
LWPOLYLINE
  5
785
330
1F
100
AcDbEntity
  8
0
 62
     0
370
     5
100
AcDbPolyline
 90
        2
 70
     0
 43
0.0
 10
177.5196153990474
 20
431.4915693922156
 10
199.2387873162391
 20
431.4915693922156
  0
LWPOLYLINE
  5
786
330
1F
100
AcDbEntity
  8
0
 62
     0
370
     5
100
AcDbPolyline
 90
        2
 70
     0
 43
0.0
 10
177.5196153990474
 20
431.4915693922156
 10
177.5196153990474
 20
51.40606084136064
  0
LWPOLYLINE
  5
787
330
1F
100
AcDbEntity
  8
0
 62
     0
370
     5
100
AcDbPolyline
 90
        2
 70
     0
 43
0.0
 10
87.38505194270175
 20
51.40606084136064
 10
65.66588002550995
 20
51.40606084136064
  0
LWPOLYLINE
  5
788
330
1F
100
AcDbEntity
  8
0
 62
     0
370
     5
100
AcDbPolyline
 90
        2
 70
     0
 43
0.0
 10
177.5196153990474
 20
51.40606084136064
 10
87.38505194270175
 20
51.40606084136064
  0
LWPOLYLINE
  5
78A
330
1F
100
AcDbEntity
  8
0
 62
     0
370
     5
100
AcDbPolyline
 90
        2
 70
     0
 43
0.0
 10
65.66588002550995
 20
431.4915693922156
 10
87.38505194270175
 20
431.4915693922156
  0
HATCH
  5
78B
330
1F
100
AcDbEntity
  8
0
 62
     0
100
AcDbHatch
 10
0.0
 20
0.0
 30
0.0
210
0.0
220
0.0
230
1.0
  2
SOLID
 70
     1
 71
     0
 91
        1
 92
        3
 72
     0
 73
     1
 93
        4
 10
87.38505194270175
 20
431.4915693922156
 10
87.92803124063173
 20
431.4915693922156
 10
87.92803124063173
 20
430.948590094286
 10
87.38505194270175
 20
430.948590094286
 97
        0
 75
     2
 76
     0
 98
        1
 10
-1046.761887751267
 20
-2369.966816746398
  0
LWPOLYLINE
  5
78C
330
1F
100
AcDbEntity
  8
0
 62
     0
370
     5
100
AcDbPolyline
 90
        2
 70
     0
 43
0.0
 10
87.38505194270175
 20
431.4915693922156
 10
177.5196153990474
 20
431.4915693922156
  0
LWPOLYLINE
  5
78D
330
1F
100
AcDbEntity
  8
0
 62
     0
370
     5
100
AcDbPolyline
 90
        2
 70
     0
 43
0.0
 10
177.5196153990474
 20
431.4915693922156
 10
177.5196153990474
 20
51.40606084136064
  0
LWPOLYLINE
  5
78E
330
1F
100
AcDbEntity
  8
0
 62
     0
370
     5
100
AcDbPolyline
 90
        2
 70
     0
 43
0.0
 10
87.38505194270175
 20
431.4915693922156
 10
87.38505194270175
 20
51.40606084136064
  0
LWPOLYLINE
  5
78F
330
1F
100
AcDbEntity
  8
0
 62
     0
370
     5
100
AcDbPolyline
 90
        2
 70
     0
 43
0.0
 10
87.38505194270175
 20
431.4915693922156
 10
87.38505194270175
 20
51.40606084136064
  0
LWPOLYLINE
  5
7B3
330
1F
100
AcDbEntity
  8
0
 62
     0
370
     5
100
AcDbPolyline
 90
        2
 70
     0
 43
0.0
 10
97.70165860336787
 20
193.6666368989662
 10
97.70165860336787
 20
193.1236576010367
  0
MTEXT
  5
7B7
330
1F
100
AcDbEntity
  8
0
 62
     0
100
AcDbMText
 10
153.4508097607836
 20
140.2353106163383
 30
0.0
 40
3.038520702070206
 41
0.0
 71
     1
 72
     5
  1
{\fMyriadPro-BoldCond|b0|i0|c0|p0;WX}
 73
     1
 44
1.0
1001
ACAD
1000
MTEXTBEGIN
1070
    73
1070
     1
1070
    44
1040
1.0
1070
    74
1070
     0
1000
MTEXTEND
  0
MTEXT
  5
7B8
330
1F
100
AcDbEntity
  8
0
 62
     0
100
AcDbMText
 10
159.0583192694346
 20
140.2353106163383
 30
0.0
 40
3.038520702070206
 41
0.0
 71
     1
 72
     5
  1
{\fMyriadPro-BoldCond|b0|i0|c0|p0;YZ}
 73
     1
 44
1.0
1001
ACAD
1000
MTEXTBEGIN
1070
    73
1070
     1
1070
    44
1040
1.0
1070
    74
1070
     0
1000
MTEXTEND
  0
MTEXT
  5
7B9
330
1F
100
AcDbEntity
  8
0
 62
     0
100
AcDbMText
 10
105.7678967242315
 20
140.2353106163383
 30
0.0
 40
3.038520702070206
 41
0.0
 71
     1
 72
     5
  1
{\fMyriadPro-BoldCond|b0|i0|c0|p0;PQRS}
 73
     1
 44
1.0
1001
ACAD
1000
MTEXTBEGIN
1070
    73
1070
     1
1070
    44
1040
1.0
1070
    74
1070
     0
1000
MTEXTEND
  0
MTEXT
  5
7BA
330
1F
100
AcDbEntity
  8
0
 62
     0
100
AcDbMText
 10
131.8928848530661
 20
140.2353106163383
 30
0.0
 40
3.038520702070206
 41
0.0
 71
     1
 72
     5
  1
{\fMyriadPro-BoldCond|b0|i0|c0|p0;TUV}
 73
     1
 44
1.0
1001
ACAD
1000
MTEXTBEGIN
1070
    73
1070
     1
1070
    44
1040
1.0
1070
    74
1070
     0
1000
MTEXTEND
  0
MTEXT
  5
7BB
330
1F
100
AcDbEntity
  8
0
 62
     0
100
AcDbMText
 10
131.9093543729447
 20
158.1536274480214
 30
0.0
 40
3.038520702070206
 41
0.0
 71
     1
 72
     5
  1
{\fMyriadPro-BoldCond|b0|i0|c0|p0;JKL}
 73
     1
 44
1.0
1001
ACAD
1000
MTEXTBEGIN
1070
    73
1070
     1
1070
    44
1040
1.0
1070
    74
1070
     0
1000
MTEXTEND
  0
MTEXT
  5
7BC
330
1F
100
AcDbEntity
  8
0
 62
     0
100
AcDbMText
 10
155.290548134307
 20
158.1536274480214
 30
0.0
 40
3.038520702070206
 41
0.0
 71
     1
 72
     5
  1
{\fMyriadPro-BoldCond|b0|i0|c0|p0;MNO}
 73
     1
 44
1.0
1001
ACAD
1000
MTEXTBEGIN
1070
    73
1070
     1
1070
    44
1040
1.0
1070
    74
1070
     0
1000
MTEXTEND
  0
MTEXT
  5
7BD
330
1F
100
AcDbEntity
  8
0
 62
     0
100
AcDbMText
 10
131.9093543729447
 20
176.0719442797049
 30
0.0
 40
3.038520702070206
 41
0.0
 71
     1
 72
     5
  1
{\fMyriadPro-BoldCond|b0|i0|c0|p0;ABC}
 73
     1
 44
1.0
1001
ACAD
1000
MTEXTBEGIN
1070
    73
1070
     1
1070
    44
1040
1.0
1070
    74
1070
     0
1000
MTEXTEND
  0
MTEXT
  5
7BE
330
1F
100
AcDbEntity
  8
0
 62
     0
100
AcDbMText
 10
155.2574641839258
 20
176.0719442797049
 30
0.0
 40
3.038520702070206
 41
0.0
 71
     1
 72
     5
  1
{\fMyriadPro-BoldCond|b0|i0|c0|p0;DEF}
 73
     1
 44
1.0
1001
ACAD
1000
MTEXTBEGIN
1070
    73
1070
     1
1070
    44
1040
1.0
1070
    74
1070
     0
1000
MTEXTEND
  0
MTEXT
  5
7BF
330
1F
100
AcDbEntity
  8
0
 62
     0
100
AcDbMText
 10
108.0182652640337
 20
158.1536274480214
 30
0.0
 40
3.038520702070206
 41
0.0
 71
     1
 72
     5
  1
{\fMyriadPro-BoldCond|b0|i0|c0|p0;GHI}
 73
     1
 44
1.0
1001
ACAD
1000
MTEXTBEGIN
1070
    73
1070
     1
1070
    44
1040
1.0
1070
    74
1070
     0
1000
MTEXTEND
  0
SPLINE
  5
7C0
330
1F
100
AcDbEntity
  8
0
 62
     0
370
     5
100
AcDbSpline
210
0.0
220
0.0
230
1.0
 70
     8
 71
     3
 72
     8
 73
     4
 74
     0
 42
0.0000000001
 43
0.0000000001
 40
0.0
 40
0.0
 40
0.0
 40
0.0
 40
1.0
 40
1.0
 40
1.0
 40
1.0
 10
279.5997234098485
 20
371.7638466199381
 30
0.0
 10
282.8575991974271
 20
376.6506603013064
 30
0.0
 10
284.4865370912168
 20
382.0804532806043
 30
0.0
 10
284.4865370912168
 20
388.0532255578323
 30
0.0
  0
SPLINE
  5
7C1
330
1F
100
AcDbEntity
  8
0
 62
     0
370
     5
100
AcDbSpline
210
0.0
220
0.0
230
1.0
 70
     8
 71
     3
 72
     8
 73
     4
 74
     0
 42
0.0000000001
 43
0.0000000001
 40
0.0
 40
0.0
 40
0.0
 40
0.0
 40
1.0
 40
1.0
 40
1.0
 40
1.0
 10
279.5997234098485
 20
404.3426044957258
 30
0.0
 10
282.8575991974271
 20
399.4557908143581
 30
0.0
 10
284.4865370912168
 20
394.0259978350597
 30
0.0
 10
284.4865370912168
 20
388.0532255578323
 30
0.0
  0
LWPOLYLINE
  5
7C2
330
1F
100
AcDbEntity
  8
0
 62
     0
370
     5
100
AcDbPolyline
 90
        2
 70
     0
 43
0.0
 10
279.5997234098485
 20
310.4071859538717
 10
279.5997234098485
 20
312.579103145591
  0
LWPOLYLINE
  5
7C3
330
1F
100
AcDbEntity
  8
0
 62
     0
370
     5
100
AcDbPolyline
 90
        2
 70
     0
 43
0.0
 10
279.5997234098485
 20
308.7782480600823
 10
279.5997234098485
 20
310.4071859538717
  0
LWPOLYLINE
  5
7C4
330
1F
100
AcDbEntity
  8
0
 62
     0
370
     5
100
AcDbPolyline
 90
        2
 70
     0
 43
0.0
 10
279.5997234098485
 20
308.2352687621527
 10
279.5997234098485
 20
308.7782480600823
  0
SPLINE
  5
7C5
330
1F
100
AcDbEntity
  8
0
 62
     0
370
     5
100
AcDbSpline
210
0.0
220
0.0
230
1.0
 70
     8
 71
     3
 72
     8
 73
     4
 74
     0
 42
0.0000000001
 43
0.0000000001
 40
0.0
 40
0.0
 40
0.0
 40
0.0
 40
1.0
 40
1.0
 40
1.0
 40
1.0
 10
279.5997234098485
 20
313.122082443521
 30
0.0
 10
280.685682005708
 20
312.579103145591
 30
0.0
 10
281.228661303638
 20
311.4931445497315
 30
0.0
 10
281.228661303638
 20
310.4071859538717
 30
0.0
  0
SPLINE
  5
7C6
330
1F
100
AcDbEntity
  8
0
 62
     0
370
     5
100
AcDbSpline
210
0.0
220
0.0
230
1.0
 70
     8
 71
     3
 72
     8
 73
     4
 74
     0
 42
0.0000000001
 43
0.0000000001
 40
0.0
 40
0.0
 40
0.0
 40
0.0
 40
1.0
 40
1.0
 40
1.0
 40
1.0
 10
281.228661303638
 20
310.4071859538717
 30
0.0
 10
281.228661303638
 20
309.8642066559421
 30
0.0
 10
280.685682005708
 20
308.7782480600823
 30
0.0
 10
279.5997234098485
 20
308.2352687621527
 30
0.0
  0
LWPOLYLINE
  5
7C7
330
1F
100
AcDbEntity
  8
0
 62
     0
370
     5
100
AcDbPolyline
 90
        2
 70
     0
 43
0.0
 10
281.7716406015678
 20
72.03927416269286
 10
279.5997234098485
 20
72.03927416269286
  0
LWPOLYLINE
  5
7C8
330
1F
100
AcDbEntity
  8
0
 62
     0
370
     5
100
AcDbPolyline
 90
        2
 70
     0
 43
0.0
 10
283.400578495357
 20
105.7039906343401
 10
279.5997234098485
 20
105.7039906343401
  0
SPLINE
  5
7C9
330
1F
100
AcDbEntity
  8
0
 62
     0
370
     5
100
AcDbSpline
210
0.0
220
0.0
230
1.0
 70
     8
 71
     3
 72
     8
 73
     4
 74
     0
 42
0.0000000001
 43
0.0000000001
 40
0.0
 40
0.0
 40
0.0
 40
0.0
 40
1.0
 40
1.0
 40
1.0
 40
1.0
 10
283.400578495357
 20
73.66821205648202
 30
0.0
 10
282.8575991974271
 20
72.58225346062246
 30
0.0
 10
282.3146198994973
 20
72.58225346062246
 30
0.0
 10
281.7716406015678
 20
72.03927416269286
 30
0.0
  0
LWPOLYLINE
  5
7CA
330
1F
100
AcDbEntity
  8
0
 62
     0
370
     5
100
AcDbPolyline
 90
        2
 70
     0
 43
0.0
 10
283.400578495357
 20
73.66821205648202
 10
283.400578495357
 20
73.66821205648202
  0
SPLINE
  5
7CB
330
1F
100
AcDbEntity
  8
0
 62
     0
370
     5
100
AcDbSpline
210
0.0
220
0.0
230
1.0
 70
     8
 71
     3
 72
     8
 73
     4
 74
     0
 42
0.0000000001
 43
0.0000000001
 40
0.0
 40
0.0
 40
0.0
 40
0.0
 40
1.0
 40
1.0
 40
1.0
 40
1.0
 10
283.400578495357
 20
105.7039906343401
 30
0.0
 10
284.4865370912168
 20
105.7039906343401
 30
0.0
 10
285.0295163891465
 20
105.1610113364099
 30
0.0
 10
285.0295163891465
 20
104.0750527405504
 30
0.0
  0
SPLINE
  5
7CC
330
1F
100
AcDbEntity
  8
0
 62
     0
370
     5
100
AcDbSpline
210
0.0
220
0.0
230
1.0
 70
     8
 71
     3
 72
     8
 73
     4
 74
     0
 42
0.0000000001
 43
0.0000000001
 40
0.0
 40
0.0
 40
0.0
 40
0.0
 40
1.0
 40
1.0
 40
1.0
 40
1.0
 10
283.400578495357
 20
73.66821205648202
 30
0.0
 10
284.4865370912168
 20
83.98481871714816
 30
0.0
 10
285.0295163891465
 20
93.7584460798843
 30
0.0
 10
285.0295163891465
 20
104.0750527405504
 30
0.0
  0
LWPOLYLINE
  5
7CD
330
1F
100
AcDbEntity
  8
0
 62
     0
370
     5
100
AcDbPolyline
 90
        2
 70
     0
 43
0.0
 10
279.5997234098485
 20
428.233693604637
 10
279.5997234098485
 20
430.9485900942861
  0
LWPOLYLINE
  5
7CE
330
1F
100
AcDbEntity
  8
0
 62
     0
370
     5
100
AcDbPolyline
 90
        2
 70
     0
 43
0.0
 10
277.4278062181293
 20
430.9485900942861
 10
279.5997234098485
 20
430.9485900942861
  0
LWPOLYLINE
  5
7CF
330
1F
100
AcDbEntity
  8
0
 62
     0
370
     5
100
AcDbPolyline
 90
        2
 70
     0
 43
0.0
 10
277.4278062181293
 20
428.233693604637
 10
277.4278062181293
 20
430.9485900942861
  0
LWPOLYLINE
  5
7D0
330
1F
100
AcDbEntity
  8
0
 62
     0
370
     5
100
AcDbPolyline
 90
        2
 70
     0
 43
0.0
 10
279.5997234098485
 20
428.233693604637
 10
279.5997234098485
 20
54.12095733100954
  0
LWPOLYLINE
  5
7D1
330
1F
100
AcDbEntity
  8
0
 62
     0
370
     5
100
AcDbPolyline
 90
        2
 70
     0
 43
0.0
 10
277.4278062181293
 20
428.233693604637
 10
277.4278062181293
 20
54.12095733100954
  0
LWPOLYLINE
  5
7D2
330
1F
100
AcDbEntity
  8
0
 62
     0
370
     5
100
AcDbPolyline
 90
        2
 70
     0
 43
0.0
 10
279.5997234098485
 20
51.40606084136064
 10
279.5997234098485
 20
54.12095733100954
  0
LWPOLYLINE
  5
7D3
330
1F
100
AcDbEntity
  8
0
 62
     0
370
     5
100
AcDbPolyline
 90
        2
 70
     0
 43
0.0
 10
277.4278062181293
 20
51.40606084136064
 10
277.4278062181293
 20
54.12095733100954
  0
LWPOLYLINE
  5
7D4
330
1F
100
AcDbEntity
  8
0
 62
     0
370
     5
100
AcDbPolyline
 90
        2
 70
     0
 43
0.0
 10
277.4278062181293
 20
51.40606084136064
 10
279.5997234098485
 20
51.40606084136064
  0
LWPOLYLINE
  5
7D5
330
1F
100
AcDbEntity
  8
0
 62
     0
370
     5
100
AcDbPolyline
 90
        2
 70
     0
 43
0.0
 10
279.5997234098485
 20
415.2021904543221
 10
279.5997234098485
 20
420.0890041356898
  0
LWPOLYLINE
  5
7D6
330
1F
100
AcDbEntity
  8
0
 62
     0
370
     5
100
AcDbPolyline
 90
        2
 70
     0
 43
0.0
 10
279.5997234098485
 20
410.8583560708835
 10
279.5997234098485
 20
415.2021904543221
  0
LWPOLYLINE
  5
7D7
330
1F
100
AcDbEntity
  8
0
 62
     0
370
     5
100
AcDbPolyline
 90
        2
 70
     0
 43
0.0
 10
279.5997234098485
 20
410.3153767729538
 10
279.5997234098485
 20
410.8583560708835
  0
LWPOLYLINE
  5
7D8
330
1F
100
AcDbEntity
  8
0
 62
     0
370
     5
100
AcDbPolyline
 90
        2
 70
     0
 43
0.0
 10
282.3146198994973
 20
412.487293964673
 10
282.3146198994973
 20
412.487293964673
  0
LWPOLYLINE
  5
7D9
330
1F
100
AcDbEntity
  8
0
 62
     0
370
     5
100
AcDbPolyline
 90
        2
 70
     0
 43
0.0
 10
282.3146198994973
 20
417.9170869439708
 10
282.3146198994973
 20
412.487293964673
  0
LWPOLYLINE
  5
7DA
330
1F
100
AcDbEntity
  8
0
 62
     0
370
     5
100
AcDbPolyline
 90
        2
 70
     0
 43
0.0
 10
279.5997234098485
 20
67.1524604813246
 10
279.5997234098485
 20
72.03927416269286
  0
LWPOLYLINE
  5
7DB
330
1F
100
AcDbEntity
  8
0
 62
     0
370
     5
100
AcDbPolyline
 90
        2
 70
     0
 43
0.0
 10
279.5997234098485
 20
63.35160539581591
 10
279.5997234098485
 20
67.1524604813246
  0
LWPOLYLINE
  5
7DC
330
1F
100
AcDbEntity
  8
0
 62
     0
370
     5
100
AcDbPolyline
 90
        2
 70
     0
 43
0.0
 10
279.5997234098485
 20
62.26564679995632
 10
279.5997234098485
 20
63.35160539581591
  0
LWPOLYLINE
  5
7DD
330
1F
100
AcDbEntity
  8
0
 62
     0
370
     5
100
AcDbPolyline
 90
        2
 70
     0
 43
0.0
 10
282.3146198994973
 20
64.98054328960527
 10
282.3146198994973
 20
64.43756399167568
  0
LWPOLYLINE
  5
7DE
330
1F
100
AcDbEntity
  8
0
 62
     0
370
     5
100
AcDbPolyline
 90
        2
 70
     0
 43
0.0
 10
282.3146198994973
 20
70.41033626890371
 10
282.3146198994973
 20
64.98054328960527
  0
SPLINE
  5
7DF
330
1F
100
AcDbEntity
  8
0
 62
     0
370
     5
100
AcDbSpline
210
0.0
220
0.0
230
1.0
 70
     8
 71
     3
 72
     8
 73
     4
 74
     0
 42
0.0000000001
 43
0.0000000001
 40
0.0
 40
0.0
 40
0.0
 40
0.0
 40
1.0
 40
1.0
 40
1.0
 40
1.0
 10
282.3146198994973
 20
412.487293964673
 30
0.0
 10
281.7716406015678
 20
411.4013353688134
 30
0.0
 10
280.685682005708
 20
410.3153767729538
 30
0.0
 10
279.5997234098485
 20
410.3153767729538
 30
0.0
  0
SPLINE
  5
7E0
330
1F
100
AcDbEntity
  8
0
 62
     0
370
     5
100
AcDbSpline
210
0.0
220
0.0
230
1.0
 70
     8
 71
     3
 72
     8
 73
     4
 74
     0
 42
0.0000000001
 43
0.0000000001
 40
0.0
 40
0.0
 40
0.0
 40
0.0
 40
1.0
 40
1.0
 40
1.0
 40
1.0
 10
279.5997234098485
 20
420.0890041356898
 30
0.0
 10
280.685682005708
 20
420.0890041356898
 30
0.0
 10
281.7716406015678
 20
419.0030455398305
 30
0.0
 10
282.3146198994973
 20
417.9170869439708
 30
0.0
  0
SPLINE
  5
7E1
330
1F
100
AcDbEntity
  8
0
 62
     0
370
     5
100
AcDbSpline
210
0.0
220
0.0
230
1.0
 70
     8
 71
     3
 72
     8
 73
     4
 74
     0
 42
0.0000000001
 43
0.0000000001
 40
0.0
 40
0.0
 40
0.0
 40
0.0
 40
1.0
 40
1.0
 40
1.0
 40
1.0
 10
282.3146198994973
 20
412.487293964673
 30
0.0
 10
281.7716406015678
 20
411.4013353688134
 30
0.0
 10
280.685682005708
 20
410.3153767729538
 30
0.0
 10
279.5997234098485
 20
410.3153767729538
 30
0.0
  0
SPLINE
  5
7E2
330
1F
100
AcDbEntity
  8
0
 62
     0
370
     5
100
AcDbSpline
210
0.0
220
0.0
230
1.0
 70
     8
 71
     3
 72
     8
 73
     4
 74
     0
 42
0.0000000001
 43
0.0000000001
 40
0.0
 40
0.0
 40
0.0
 40
0.0
 40
1.0
 40
1.0
 40
1.0
 40
1.0
 10
282.3146198994973
 20
64.43756399167568
 30
0.0
 10
281.7716406015678
 20
63.35160539581591
 30
0.0
 10
280.685682005708
 20
62.26564679995632
 30
0.0
 10
279.5997234098485
 20
62.26564679995632
 30
0.0
  0
SPLINE
  5
7E3
330
1F
100
AcDbEntity
  8
0
 62
     0
370
     5
100
AcDbSpline
210
0.0
220
0.0
230
1.0
 70
     8
 71
     3
 72
     8
 73
     4
 74
     0
 42
0.0000000001
 43
0.0000000001
 40
0.0
 40
0.0
 40
0.0
 40
0.0
 40
1.0
 40
1.0
 40
1.0
 40
1.0
 10
279.5997234098485
 20
72.03927416269286
 30
0.0
 10
280.685682005708
 20
72.03927416269286
 30
0.0
 10
281.7716406015678
 20
71.49629486476289
 30
0.0
 10
282.3146198994973
 20
70.41033626890371
 30
0.0
  0
SPLINE
  5
7E4
330
1F
100
AcDbEntity
  8
0
 62
     0
370
     5
100
AcDbSpline
210
0.0
220
0.0
230
1.0
 70
     8
 71
     3
 72
     8
 73
     4
 74
     0
 42
0.0000000001
 43
0.0000000001
 40
0.0
 40
0.0
 40
0.0
 40
0.0
 40
1.0
 40
1.0
 40
1.0
 40
1.0
 10
282.3146198994973
 20
64.43756399167568
 30
0.0
 10
281.7716406015678
 20
63.35160539581591
 30
0.0
 10
280.685682005708
 20
62.26564679995632
 30
0.0
 10
279.5997234098485
 20
62.26564679995632
 30
0.0
  0
LWPOLYLINE
  5
7E5
330
1F
100
AcDbEntity
  8
0
 62
     0
370
     5
100
AcDbPolyline
 90
        2
 70
     0
 43
0.0
 10
202.4966631038178
 20
429.3196522004968
 10
202.4966631038178
 20
447.2379690321796
  0
DIMENSION
  5
81D
330
1F
100
AcDbEntity
  8
0
 62
     1
370
     0
100
AcDbDimension
  2
*D5
 10
202.4966631038178
 20
448.4391069047005
 30
0.0
 11
136.9918119142988
 21
448.4391069047005
 31
0.0
 70
   160
 71
     5
 42
140.0886588658865
  3
Standard
100
AcDbAlignedDimension
 13
62.40800423793124
 23
428.233693604637
 33
0.0
 14
202.4966631038178
 24
428.233693604637
 34
0.0
100
AcDbRotatedDimension
1001
ACAD
1000
DSTYLE
1002
{
1070
    41
1040
10.0
1070
    42
1040
0.625
1070
    43
1040
3.75
1070
    44
1040
1.25
1070
    73
1070
     0
1070
    74
1070
     0
1070
    77
1070
     0
1070
    78
1070
     8
1070
   140
1040
10.0
1070
   141
1040
2.5
1070
   143
1040
0.03937
1070
   147
1040
0.625
1070
   171
1070
     3
1070
   172
1070
     1
1070
   271
1070
     0
1070
   272
1070
     2
1070
   274
1070
     3
1070
   278
1070
    44
1070
   283
1070
     0
1070
   284
1070
     8
1070
   289
1070
     0
1002
}
  0
DIMENSION
  5
81E
330
1F
100
AcDbEntity
  8
0
 62
     1
370
     0
100
AcDbDimension
  2
*D6
 10
39.3766614907108
 20
51.40606328195364
 30
-0.0000000000000002
 11
39.3766614907108
 21
239.8558232526753
 31
-0.0000000000000002
 70
   160
 71
     5
 42
380.085506110262
  3
Standard
100
AcDbAlignedDimension
 13
65.66588002550995
 23
431.4915693922156
 33
0.0
 14
65.66024250329022
 24
51.40606328195364
 34
0.0
 50
90.0
100
AcDbRotatedDimension
1001
ACAD
1000
DSTYLE
1002
{
1070
    41
1040
10.0
1070
    42
1040
0.625
1070
    43
1040
3.75
1070
    44
1040
1.25
1070
    73
1070
     0
1070
    74
1070
     0
1070
    77
1070
     0
1070
    78
1070
     8
1070
   140
1040
10.0
1070
   141
1040
2.5
1070
   143
1040
0.03937
1070
   147
1040
0.625
1070
   171
1070
     3
1070
   172
1070
     1
1070
   271
1070
     0
1070
   272
1070
     2
1070
   274
1070
     3
1070
   278
1070
    44
1070
   283
1070
     0
1070
   284
1070
     8
1070
   289
1070
     0
1002
}
  0
CIRCLE
  5
84D
330
1F
100
AcDbEntity
  8
0
100
AcDbCircle
 10
132.3153900593512
 20
388.0954123975063
 30
0.0
 40
16.69978963426701
  0
CIRCLE
  5
84E
330
1F
100
AcDbEntity
  8
0
100
AcDbCircle
 10
79.90242570776655
 20
415.4307031779674
 30
0.0
 40
4.881450539596221
  0
CIRCLE
  5
84F
330
1F
100
AcDbEntity
  8
0
100
AcDbCircle
 10
185.0022416339824
 20
415.4307031779666
 30
0.0
 40
4.881450539596221
  0
CIRCLE
  5
850
330
1F
100
AcDbEntity
  8
0
100
AcDbCircle
 10
79.90242570776655
 20
66.92394775767929
 30
0.0
 40
4.881450539596221
  0
CIRCLE
  5
851
330
1F
100
AcDbEntity
  8
0
100
AcDbCircle
 10
185.0022416339824
 20
66.92394775767988
 30
0.0
 40
4.881450539596221
  0
CIRCLE
  5
852
330
1F
100
AcDbEntity
  8
0
100
AcDbCircle
 10
99.94571967388687
 20
310.5589517018907
 30
0.0
 40
2.514957709231308
  0
CIRCLE
  5
853
330
1F
100
AcDbEntity
  8
0
100
AcDbCircle
 10
116.2905497092015
 20
310.5589517018907
 30
0.0
 40
2.514957709231308
  0
CIRCLE
  5
854
330
1F
100
AcDbEntity
  8
0
100
AcDbCircle
 10
132.4116618510635
 20
310.5589517018907
 30
0.0
 40
2.514957709231308
  0
CIRCLE
  5
855
330
1F
100
AcDbEntity
  8
0
100
AcDbCircle
 10
148.7347228743204
 20
310.5589517018907
 30
0.0
 40
2.514957709231308
  0
CIRCLE
  5
856
330
1F
100
AcDbEntity
  8
0
100
AcDbCircle
 10
164.8558350161824
 20
310.5589517018907
 30
0.0
 40
2.514957709231308
  0
DIMENSION
  5
8C5
330
1F
100
AcDbEntity
  8
0
 62
     1
370
     0
100
AcDbDimension
  2
*D7
 10
279.5997234098485
 20
448.4391069047005
 30
0.0
 11
303.5580567431818
 21
448.4391069047005
 31
0.0
 70
   160
 71
     5
 42
2.171917191719217
  3
Standard
100
AcDbAlignedDimension
 13
277.4278062181293
 23
430.9485900942861
 33
0.0
 14
279.5997234098485
 24
430.9485900942861
 34
0.0
100
AcDbRotatedDimension
1001
ACAD
1000
DSTYLE
1002
{
1070
    41
1040
10.0
1070
    42
1040
0.625
1070
    43
1040
3.75
1070
    44
1040
1.25
1070
    73
1070
     0
1070
    74
1070
     0
1070
    77
1070
     0
1070
    78
1070
     8
1070
   140
1040
10.0
1070
   141
1040
2.5
1070
   143
1040
0.03937
1070
   147
1040
0.625
1070
   171
1070
     3
1070
   172
1070
     1
1070
   271
1070
     0
1070
   272
1070
     2
1070
   274
1070
     3
1070
   278
1070
    44
1070
   283
1070
     0
1070
   284
1070
     8
1070
   289
1070
     0
1002
}
  0
ENDSEC
  0
SECTION
  2
OBJECTS
  0
DICTIONARY
  5
C
330
0
100
AcDbDictionary
281
     1
  3
ACAD_COLOR
350
6B
  3
ACAD_GROUP
350
D
  3
ACAD_LAYOUT
350
1A
  3
ACAD_MATERIAL
350
6A
  3
ACAD_MLEADERSTYLE
350
12D
  3
ACAD_MLINESTYLE
350
17
  3
ACAD_PLOTSETTINGS
350
19
  3
ACAD_PLOTSTYLENAME
350
E
  3
ACAD_SCALELIST
350
10C
  3
ACAD_TABLESTYLE
350
7E
  3
ACAD_VISUALSTYLE
350
EF
  3
ACDB_RECOMPOSE_DATA
350
15D
  3
AcDbVariableDictionary
350
5E
  3
DWGPROPS
350
93C
  0
DICTIONARY
  5
13C
330
10
100
AcDbDictionary
280
     1
281
     1
  3
ADSK_XREC_LAYER_RECONCILED
360
934
  0
DICTIONARY
  5
6B
102
{ACAD_REACTORS
330
C
102
}
330
C
100
AcDbDictionary
281
     1
  0
DICTIONARY
  5
D
102
{ACAD_REACTORS
330
C
102
}
330
C
100
AcDbDictionary
281
     1
  0
DICTIONARY
  5
1A
102
{ACAD_REACTORS
330
C
102
}
330
C
100
AcDbDictionary
281
     1
  3
Layout1
350
D3
  3
Layout2
350
D7
  3
Model
350
22
  0
DICTIONARY
  5
6A
102
{ACAD_REACTORS
330
C
102
}
330
C
100
AcDbDictionary
281
     1
  3
ByBlock
350
ED
  3
ByLayer
350
EC
  3
Global
350
EE
  0
DICTIONARY
  5
12D
102
{ACAD_REACTORS
330
C
102
}
330
C
100
AcDbDictionary
281
     1
  3
Annotativa
350
13B
  3
Standard
350
12E
  0
DICTIONARY
  5
17
102
{ACAD_REACTORS
330
C
102
}
330
C
100
AcDbDictionary
281
     1
  3
Standard
350
18
  0
DICTIONARY
  5
19
102
{ACAD_REACTORS
330
C
102
}
330
C
100
AcDbDictionary
281
     1
  0
ACDBDICTIONARYWDFLT
  5
E
102
{ACAD_REACTORS
330
C
102
}
330
C
100
AcDbDictionary
281
     1
  3
Normal
350
F
100
AcDbDictionaryWithDefault
340
F
  0
DICTIONARY
  5
10C
102
{ACAD_REACTORS
330
C
102
}
330
C
100
AcDbDictionary
281
     1
  3
A0
350
10D
  3
A1
350
188
  3
A2
350
189
  3
A3
350
18A
  3
A4
350
18B
  3
A5
350
18C
  3
A6
350
18D
  3
A7
350
18E
  3
A8
350
18F
  3
A9
350
190
  3
B0
350
191
  3
B1
350
192
  3
B2
350
193
  3
B3
350
194
  3
B4
350
195
  3
B5
350
196
  3
B6
350
197
  3
B7
350
198
  3
B8
350
199
  3
B9
350
19A
  3
C0
350
19B
  3
C1
350
19C
  3
C2
350
19D
  3
C3
350
19E
  3
C4
350
19F
  3
C5
350
1A0
  3
C6
350
1A1
  3
C7
350
1A2
  3
C8
350
1A3
  3
C9
350
1A4
  3
D0
350
1A5
  3
D1
350
1A6
  3
D2
350
1A7
  0
DICTIONARY
  5
7E
102
{ACAD_REACTORS
330
C
102
}
330
C
100
AcDbDictionary
281
     1
  3
Standard
350
7F
  0
DICTIONARY
  5
EF
102
{ACAD_REACTORS
330
C
102
}
330
C
100
AcDbDictionary
281
     1
  3
2dWireframe
350
F5
  3
3D Hidden
350
F7
  3
3dWireframe
350
F6
  3
Basic
350
F4
  3
Brighten
350
FB
  3
ColorChange
350
FF
  3
Conceptual
350
F8
  3
Dim
350
FA
  3
Facepattern
350
FE
  3
Flat
350
F0
  3
FlatWithEdges
350
F1
  3
Gouraud
350
F2
  3
GouraudWithEdges
350
F3
  3
Linepattern
350
FD
  3
Realistic
350
F9
  3
Thicken
350
FC
  0
XRECORD
  5
15D
102
{ACAD_REACTORS
330
C
102
}
330
C
100
AcDbXrecord
280
     1
 90
        1
330
7F
  0
DICTIONARY
  5
5E
102
{ACAD_REACTORS
330
C
102
}
330
C
100
AcDbDictionary
281
     1
  3
CANNOSCALE
350
146
  3
CMLEADERSTYLE
350
145
  3
CTABLESTYLE
350
84
  3
DIMASSOC
350
5F
  3
HIDETEXT
350
63
  3
INDEXCTL
350
938
  3
LIGHTINGUNITS
350
936
  3
MSLTSCALE
350
935
  3
PSOLHEIGHT
350
93A
  3
PSOLWIDTH
350
939
  3
SORTENTS
350
937
  0
XRECORD
  5
93C
102
{ACAD_REACTORS
330
C
102
}
330
C
100
AcDbXrecord
280
     1
  1
DWGPROPS COOKIE
  2

  3

  4

  6

  7

  8
FontanaNZ
  9

300
=
301
=
302
=
303
=
304
=
305
=
306
=
307
=
308
=
309
=
 40
0.006080462962963
 41
2456617.641527072
 42
2456617.64760735
  1

 90
        0
  0
XRECORD
  5
934
102
{ACAD_REACTORS
330
13C
102
}
330
13C
100
AcDbXrecord
280
     1
290
     1
  0
LAYOUT
  5
D3
102
{ACAD_XDICTIONARY
360
940
102
}
102
{ACAD_REACTORS
330
1A
102
}
330
1A
100
AcDbPlotSettings
  1

  2
C:\Documents and Settings\basas\Application Data\Autodesk\AutoCAD 2005\R16.1\enu\plotters\Default Windows System Printer.pc3
  4

  6

 40
0.0
 41
0.0
 42
0.0
 43
0.0
 44
0.0
 45
0.0
 46
0.0
 47
0.0
 48
0.0
 49
0.0
140
0.0
141
0.0
142
1.0
143
1.0
 70
   688
 72
     0
 73
     0
 74
     5
  7

 75
    16
147
1.0
148
0.0
149
0.0
100
AcDbLayout
  1
Layout1
 70
     1
 71
     1
 10
0.0
 20
0.0
 11
12.0
 21
9.0
 12
0.0
 22
0.0
 32
0.0
 14
0.0
 24
0.0
 34
0.0
 15
0.0
 25
0.0
 35
0.0
146
0.0
 13
0.0
 23
0.0
 33
0.0
 16
1.0
 26
0.0
 36
0.0
 17
0.0
 27
1.0
 37
0.0
 76
     0
330
D2
  0
LAYOUT
  5
D7
102
{ACAD_XDICTIONARY
360
942
102
}
102
{ACAD_REACTORS
330
1A
102
}
330
1A
100
AcDbPlotSettings
  1

  2
C:\Documents and Settings\basas\Application Data\Autodesk\AutoCAD 2005\R16.1\enu\plotters\Default Windows System Printer.pc3
  4

  6

 40
0.0
 41
0.0
 42
0.0
 43
0.0
 44
0.0
 45
0.0
 46
0.0
 47
0.0
 48
0.0
 49
0.0
140
0.0
141
0.0
142
1.0
143
1.0
 70
   688
 72
     0
 73
     0
 74
     5
  7

 75
    16
147
1.0
148
0.0
149
0.0
100
AcDbLayout
  1
Layout2
 70
     1
 71
     2
 10
0.0
 20
0.0
 11
12.0
 21
9.0
 12
0.0
 22
0.0
 32
0.0
 14
0.0
 24
0.0
 34
0.0
 15
0.0
 25
0.0
 35
0.0
146
0.0
 13
0.0
 23
0.0
 33
0.0
 16
1.0
 26
0.0
 36
0.0
 17
0.0
 27
1.0
 37
0.0
 76
     0
330
D6
  0
LAYOUT
  5
22
102
{ACAD_XDICTIONARY
360
93D
102
}
102
{ACAD_REACTORS
330
1A
102
}
330
1A
100
AcDbPlotSettings
  1

  2
none_device
  4
ISO_A4_(210.00_x_297.00_MM)
  6

 40
7.5
 41
20.0
 42
7.5
 43
20.0
 44
210.0
 45
297.0
 46
11.54999923706054
 47
-13.65000009536743
 48
0.0
 49
0.0
140
0.0
141
0.0
142
1.0
143
8.704084754739808
 70
 11952
 72
     1
 73
     0
 74
     0
  7

 75
     0
147
0.1148885871608098
148
0.0
149
0.0
100
AcDbLayout
  1
Model
 70
     1
 71
     0
 10
0.0
 20
0.0
 11
12.0
 21
9.0
 12
0.0
 22
0.0
 32
0.0
 14
0.0
 24
0.0
 34
0.0
 15
0.0
 25
0.0
 35
0.0
146
0.0
 13
0.0
 23
0.0
 33
0.0
 16
1.0
 26
0.0
 36
0.0
 17
0.0
 27
1.0
 37
0.0
 76
     0
330
1F
331
EA
1001
ACAD_PSEXT
1000
None
1000
None
1000
Not applicable
1000
The layout will not be plotted unless a new plotter configuration name is selected.
1070
     0
  0
MATERIAL
  5
ED
102
{ACAD_XDICTIONARY
360
946
102
}
102
{ACAD_REACTORS
330
6A
102
}
330
6A
100
AcDbMaterial
  1
ByBlock
  0
MATERIAL
  5
EC
102
{ACAD_XDICTIONARY
360
944
102
}
102
{ACAD_REACTORS
330
6A
102
}
330
6A
100
AcDbMaterial
  1
ByLayer
  0
MATERIAL
  5
EE
102
{ACAD_XDICTIONARY
360
173
102
}
102
{ACAD_REACTORS
330
6A
102
}
330
6A
100
AcDbMaterial
  1
Global
 43
0.0007999999797903
 43
0.0
 43
0.0
 43
0.0
 43
0.0
 43
0.0007999999797903
 43
0.0
 43
0.0
 43
0.0
 43
0.0
 43
1.0
 43
0.0
 43
0.0
 43
0.0
 43
0.0
 43
1.0
 49
0.0007999999797903
 49
0.0
 49
0.0
 49
0.0
 49
0.0
 49
0.0007999999797903
 49
0.0
 49
0.0
 49
0.0
 49
0.0
 49
1.0
 49
0.0
 49
0.0
 49
0.0
 49
0.0
 49
1.0
142
0.0007999999797903
142
0.0
142
0.0
142
0.0
142
0.0
142
0.0007999999797903
142
0.0
142
0.0
142
0.0
142
0.0
142
1.0
142
0.0
142
0.0
142
0.0
142
0.0
142
1.0
144
0.0007999999797903
144
0.0
144
0.0
144
0.0
144
0.0
144
0.0007999999797903
144
0.0
144
0.0
144
0.0
144
0.0
144
1.0
144
0.0
144
0.0
144
0.0
144
0.0
144
1.0
1001
ACAD
1070
    -1
1070
     3
1070
     0
1000

1071
        0
1070
     0
  0
MLEADERSTYLE
  5
13B
102
{ACAD_REACTORS
330
12D
102
}
330
12D
100
AcDbMLeaderStyle
170
     2
171
     1
172
     0
 90
        2
 40
0.0
 41
0.0
173
     1
 91
-1056964608
340
14
 92
       -2
290
     1
 42
2.0
291
     1
 43
8.0
  3
Standard
 44
4.0
300

342
11
174
     1
178
     1
175
     1
176
     0
 93
-1056964608
 45
4.0
292
     0
297
     0
 46
4.0
 94
-1056964608
 47
1.0
 49
1.0
140
1.0
293
     1
141
0.0
294
     1
177
     0
142
1.0
295
     0
296
     1
143
3.75
1001
ACAD_MLEADERVER
1070
     2
  0
MLEADERSTYLE
  5
12E
102
{ACAD_REACTORS
330
12D
102
}
330
12D
100
AcDbMLeaderStyle
170
     2
171
     1
172
     0
 90
        2
 40
0.0
 41
0.0
173
     1
 91
-1056964608
340
14
 92
       -2
290
     1
 42
2.0
291
     1
 43
8.0
  3
Standard
 44
4.0
300

342
11
174
     1
178
     1
175
     1
176
     0
 93
-1056964608
 45
4.0
292
     0
297
     0
 46
4.0
 94
-1056964608
 47
1.0
 49
1.0
140
1.0
293
     1
141
0.0
294
     1
177
     0
142
1.0
295
     0
296
     0
143
3.75
1001
ACAD_MLEADERVER
1070
     2
  0
MLINESTYLE
  5
18
102
{ACAD_REACTORS
330
17
102
}
330
17
100
AcDbMlineStyle
  2
STANDARD
 70
     0
  3

 62
   256
 51
90.0
 52
90.0
 71
     2
 49
0.5
 62
   256
  6
BYLAYER
 49
-0.5
 62
   256
  6
BYLAYER
  0
ACDBPLACEHOLDER
  5
F
102
{ACAD_REACTORS
330
E
102
}
330
E
  0
SCALE
  5
10D
102
{ACAD_REACTORS
330
10C
102
}
330
10C
100
AcDbScale
 70
     0
300
1:1
140
1.0
141
1.0
290
     1
  0
SCALE
  5
188
102
{ACAD_REACTORS
330
10C
102
}
330
10C
100
AcDbScale
 70
     0
300
1:2
140
1.0
141
2.0
290
     0
  0
SCALE
  5
189
102
{ACAD_REACTORS
330
10C
102
}
330
10C
100
AcDbScale
 70
     0
300
1:4
140
1.0
141
4.0
290
     0
  0
SCALE
  5
18A
102
{ACAD_REACTORS
330
10C
102
}
330
10C
100
AcDbScale
 70
     0
300
1:5
140
1.0
141
5.0
290
     0
  0
SCALE
  5
18B
102
{ACAD_REACTORS
330
10C
102
}
330
10C
100
AcDbScale
 70
     0
300
1:8
140
1.0
141
8.0
290
     0
  0
SCALE
  5
18C
102
{ACAD_REACTORS
330
10C
102
}
330
10C
100
AcDbScale
 70
     0
300
1:10
140
1.0
141
10.0
290
     0
  0
SCALE
  5
18D
102
{ACAD_REACTORS
330
10C
102
}
330
10C
100
AcDbScale
 70
     0
300
1:16
140
1.0
141
16.0
290
     0
  0
SCALE
  5
18E
102
{ACAD_REACTORS
330
10C
102
}
330
10C
100
AcDbScale
 70
     0
300
1:20
140
1.0
141
20.0
290
     0
  0
SCALE
  5
18F
102
{ACAD_REACTORS
330
10C
102
}
330
10C
100
AcDbScale
 70
     0
300
1:30
140
1.0
141
30.0
290
     0
  0
SCALE
  5
190
102
{ACAD_REACTORS
330
10C
102
}
330
10C
100
AcDbScale
 70
     0
300
1:40
140
1.0
141
40.0
290
     0
  0
SCALE
  5
191
102
{ACAD_REACTORS
330
10C
102
}
330
10C
100
AcDbScale
 70
     0
300
1:50
140
1.0
141
50.0
290
     0
  0
SCALE
  5
192
102
{ACAD_REACTORS
330
10C
102
}
330
10C
100
AcDbScale
 70
     0
300
1:100
140
1.0
141
100.0
290
     0
  0
SCALE
  5
193
102
{ACAD_REACTORS
330
10C
102
}
330
10C
100
AcDbScale
 70
     0
300
2:1
140
2.0
141
1.0
290
     0
  0
SCALE
  5
194
102
{ACAD_REACTORS
330
10C
102
}
330
10C
100
AcDbScale
 70
     0
300
4:1
140
4.0
141
1.0
290
     0
  0
SCALE
  5
195
102
{ACAD_REACTORS
330
10C
102
}
330
10C
100
AcDbScale
 70
     0
300
8:1
140
8.0
141
1.0
290
     0
  0
SCALE
  5
196
102
{ACAD_REACTORS
330
10C
102
}
330
10C
100
AcDbScale
 70
     0
300
10:1
140
10.0
141
1.0
290
     0
  0
SCALE
  5
197
102
{ACAD_REACTORS
330
10C
102
}
330
10C
100
AcDbScale
 70
     0
300
100:1
140
100.0
141
1.0
290
     0
  0
SCALE
  5
198
102
{ACAD_REACTORS
330
10C
102
}
330
10C
100
AcDbScale
 70
     0
300
1/128" = 1'-0"
140
0.0078125
141
12.0
290
     0
  0
SCALE
  5
199
102
{ACAD_REACTORS
330
10C
102
}
330
10C
100
AcDbScale
 70
     0
300
1/64" = 1'-0"
140
0.015625
141
12.0
290
     0
  0
SCALE
  5
19A
102
{ACAD_REACTORS
330
10C
102
}
330
10C
100
AcDbScale
 70
     0
300
1/32" = 1'-0"
140
0.03125
141
12.0
290
     0
  0
SCALE
  5
19B
102
{ACAD_REACTORS
330
10C
102
}
330
10C
100
AcDbScale
 70
     0
300
1/16" = 1'-0"
140
0.0625
141
12.0
290
     0
  0
SCALE
  5
19C
102
{ACAD_REACTORS
330
10C
102
}
330
10C
100
AcDbScale
 70
     0
300
3/32" = 1'-0"
140
0.09375
141
12.0
290
     0
  0
SCALE
  5
19D
102
{ACAD_REACTORS
330
10C
102
}
330
10C
100
AcDbScale
 70
     0
300
1/8" = 1'-0"
140
0.125
141
12.0
290
     0
  0
SCALE
  5
19E
102
{ACAD_REACTORS
330
10C
102
}
330
10C
100
AcDbScale
 70
     0
300
3/16" = 1'-0"
140
0.1875
141
12.0
290
     0
  0
SCALE
  5
19F
102
{ACAD_REACTORS
330
10C
102
}
330
10C
100
AcDbScale
 70
     0
300
1/4" = 1'-0"
140
0.25
141
12.0
290
     0
  0
SCALE
  5
1A0
102
{ACAD_REACTORS
330
10C
102
}
330
10C
100
AcDbScale
 70
     0
300
3/8" = 1'-0"
140
0.375
141
12.0
290
     0
  0
SCALE
  5
1A1
102
{ACAD_REACTORS
330
10C
102
}
330
10C
100
AcDbScale
 70
     0
300
1/2" = 1'-0"
140
0.5
141
12.0
290
     0
  0
SCALE
  5
1A2
102
{ACAD_REACTORS
330
10C
102
}
330
10C
100
AcDbScale
 70
     0
300
3/4" = 1'-0"
140
0.75
141
12.0
290
     0
  0
SCALE
  5
1A3
102
{ACAD_REACTORS
330
10C
102
}
330
10C
100
AcDbScale
 70
     0
300
1" = 1'-0"
140
1.0
141
12.0
290
     0
  0
SCALE
  5
1A4
102
{ACAD_REACTORS
330
10C
102
}
330
10C
100
AcDbScale
 70
     0
300
1-1/2" = 1'-0"
140
1.5
141
12.0
290
     0
  0
SCALE
  5
1A5
102
{ACAD_REACTORS
330
10C
102
}
330
10C
100
AcDbScale
 70
     0
300
3" = 1'-0"
140
3.0
141
12.0
290
     0
  0
SCALE
  5
1A6
102
{ACAD_REACTORS
330
10C
102
}
330
10C
100
AcDbScale
 70
     0
300
6" = 1'-0"
140
6.0
141
12.0
290
     0
  0
SCALE
  5
1A7
102
{ACAD_REACTORS
330
10C
102
}
330
10C
100
AcDbScale
 70
     0
300
1'-0" = 1'-0"
140
12.0
141
12.0
290
     0
  0
TABLESTYLE
  5
7F
102
{ACAD_XDICTIONARY
360
162
102
}
102
{ACAD_REACTORS
330
7E
102
}
330
7E
100
AcDbTableStyle
  3
Standard
 70
     0
 71
     0
 40
1.5
 41
1.5
280
     0
281
     0
  7
Standard
140
4.5
170
     2
 62
     0
 63
     7
283
     0
274
    -2
284
     1
 64
     0
275
    -2
285
     1
 65
     0
276
    -2
286
     1
 66
     0
277
    -2
287
     1
 67
     0
278
    -2
288
     1
 68
     0
279
    -2
289
     1
 69
     0
  7
Standard
140
6.0
170
     5
 62
     0
 63
     7
283
     0
274
    -2
284
     1
 64
     0
275
    -2
285
     1
 65
     0
276
    -2
286
     1
 66
     0
277
    -2
287
     1
 67
     0
278
    -2
288
     1
 68
     0
279
    -2
289
     1
 69
     0
  7
Standard
140
4.5
170
     5
 62
     0
 63
     7
283
     0
274
    -2
284
     1
 64
     0
275
    -2
285
     1
 65
     0
276
    -2
286
     1
 66
     0
277
    -2
287
     1
 67
     0
278
    -2
288
     1
 68
     0
279
    -2
289
     1
 69
     0
  0
VISUALSTYLE
  5
F5
102
{ACAD_REACTORS
330
EF
102
}
330
EF
100
AcDbVisualStyle
  2
2dWireframe
 70
     4
 71
     0
 72
     2
 73
     1
 90
        0
 40
-0.6
 41
-30.0
 62
     5
 63
     7
 74
     1
 91
        4
 64
     7
 65
   257
 75
     1
175
     1
 42
1.0
 92
        0
 66
   257
 43
1.0
 76
     1
 77
     6
 78
     2
 67
     7
 79
     5
170
     0
171
     0
290
     0
174
     0
 93
        1
 44
0.0
173
     0
291
     0
 45
0.0
1001
ACAD
1000
AcDbSavedByObjectVersion
1070
     0
  0
VISUALSTYLE
  5
F7
102
{ACAD_REACTORS
330
EF
102
}
330
EF
100
AcDbVisualStyle
  2
3D Hidden
 70
     6
 71
     1
 72
     2
 73
     2
 90
        0
 40
-0.6
 41
-30.0
 62
     5
 63
     7
 74
     2
 91
        2
 64
     7
 65
   257
 75
     2
175
     1
 42
40.0
 92
        0
 66
   257
 43
1.0
 76
     1
 77
     6
 78
     2
 67
     7
 79
     3
170
     0
171
     0
290
     0
174
     0
 93
        1
 44
0.0
173
     0
291
     0
 45
0.0
1001
ACAD
1000
AcDbSavedByObjectVersion
1070
     0
  0
VISUALSTYLE
  5
F6
102
{ACAD_REACTORS
330
EF
102
}
330
EF
100
AcDbVisualStyle
  2
3dWireframe
 70
     5
 71
     0
 72
     2
 73
     1
 90
        0
 40
-0.6
 41
-30.0
 62
     5
 63
     7
 74
     1
 91
        4
 64
     7
 65
   257
 75
     1
175
     1
 42
1.0
 92
        0
 66
   257
 43
1.0
 76
     1
 77
     6
 78
     2
 67
     7
 79
     5
170
     0
171
     0
290
     0
174
     0
 93
        1
 44
0.0
173
     0
291
     0
 45
0.0
1001
ACAD
1000
AcDbSavedByObjectVersion
1070
     0
  0
VISUALSTYLE
  5
F4
102
{ACAD_REACTORS
330
EF
102
}
330
EF
100
AcDbVisualStyle
  2
Basic
 70
     7
 71
     1
 72
     0
 73
     1
 90
        0
 40
-0.6
 41
-30.0
 62
     5
 63
     7
 74
     0
 91
        4
 64
     7
 65
   257
 75
     1
175
     1
 42
1.0
 92
        8
 66
     7
 43
1.0
 76
     1
 77
     6
 78
     2
 67
     7
 79
     5
170
     0
171
     0
290
     0
174
     0
 93
        1
 44
0.0
173
     0
291
     1
 45
0.0
1001
ACAD
1000
AcDbSavedByObjectVersion
1070
     0
  0
VISUALSTYLE
  5
FB
102
{ACAD_REACTORS
330
EF
102
}
330
EF
100
AcDbVisualStyle
  2
Brighten
 70
    12
 71
     2
 72
     2
 73
     1
 90
        0
 40
-0.6
 41
-30.0
 62
     5
 63
     7
 74
     1
 91
        4
 64
     7
 65
   257
 75
     1
175
     1
 42
1.0
 92
        8
 66
     7
 43
1.0
 76
     1
 77
     6
 78
     2
 67
     7
 79
     5
170
     0
171
     0
290
     0
174
     0
 93
        1
 44
50.0
173
     0
291
     1
 45
0.0
1001
ACAD
1000
AcDbSavedByObjectVersion
1070
     0
  0
VISUALSTYLE
  5
FF
102
{ACAD_REACTORS
330
EF
102
}
330
EF
100
AcDbVisualStyle
  2
ColorChange
 70
    16
 71
     2
 72
     2
 73
     3
 90
        0
 40
-0.6
 41
-30.0
 62
     5
 63
     8
 74
     1
 91
        4
 64
     7
 65
   257
 75
     1
175
     1
 42
1.0
 92
        8
 66
     8
 43
1.0
 76
     1
 77
     6
 78
     2
 67
     7
 79
     5
170
     0
171
     0
290
     0
174
     0
 93
        1
 44
0.0
173
     0
291
     1
 45
0.0
1001
ACAD
1000
AcDbSavedByObjectVersion
1070
     0
  0
VISUALSTYLE
  5
F8
102
{ACAD_REACTORS
330
EF
102
}
330
EF
100
AcDbVisualStyle
  2
Conceptual
 70
     9
 71
     3
 72
     2
 73
     1
 90
        0
 40
-0.6
 41
-30.0
 62
     5
 63
     7
 74
     2
 91
        2
 64
     7
 65
   257
 75
     1
175
     1
 42
40.0
 92
        8
 66
     7
 43
1.0
 76
     1
 77
     6
 78
     2
 67
     7
 79
     3
170
     0
171
     0
290
     0
174
     0
 93
        1
 44
0.0
173
     0
291
     0
 45
0.0
1001
ACAD
1000
AcDbSavedByObjectVersion
1070
     0
  0
VISUALSTYLE
  5
FA
102
{ACAD_REACTORS
330
EF
102
}
330
EF
100
AcDbVisualStyle
  2
Dim
 70
    11
 71
     2
 72
     2
 73
     1
 90
        0
 40
-0.6
 41
-30.0
 62
     5
 63
     7
 74
     1
 91
        4
 64
     7
 65
   257
 75
     1
175
     1
 42
1.0
 92
        8
 66
     7
 43
1.0
 76
     1
 77
     6
 78
     2
 67
     7
 79
     5
170
     0
171
     0
290
     0
174
     0
 93
        1
 44
-50.0
173
     0
291
     1
 45
0.0
1001
ACAD
1000
AcDbSavedByObjectVersion
1070
     0
  0
VISUALSTYLE
  5
FE
102
{ACAD_REACTORS
330
EF
102
}
330
EF
100
AcDbVisualStyle
  2
Facepattern
 70
    15
 71
     2
 72
     2
 73
     1
 90
        0
 40
-0.6
 41
-30.0
 62
     5
 63
     7
 74
     1
 91
        4
 64
     7
 65
   257
 75
     1
175
     1
 42
1.0
 92
        8
 66
     7
 43
1.0
 76
     1
 77
     6
 78
     2
 67
     7
 79
     5
170
     0
171
     0
290
     0
174
     0
 93
        1
 44
0.0
173
     0
291
     1
 45
0.0
1001
ACAD
1000
AcDbSavedByObjectVersion
1070
     0
  0
VISUALSTYLE
  5
F0
102
{ACAD_REACTORS
330
EF
102
}
330
EF
100
AcDbVisualStyle
  2
Flat
 70
     0
 71
     2
 72
     1
 73
     1
 90
        2
 40
-0.6
 41
30.0
 62
     5
 63
     7
 74
     0
 91
        4
 64
     7
 65
   257
 75
     1
175
     1
 42
1.0
 92
        8
 66
     7
 43
1.0
 76
     1
 77
     6
 78
     2
 67
     7
 79
     5
170
     0
171
     0
290
     0
174
     0
 93
        1
 44
0.0
173
     0
291
     1
 45
0.0
1001
ACAD
1000
AcDbSavedByObjectVersion
1070
     0
  0
VISUALSTYLE
  5
F1
102
{ACAD_REACTORS
330
EF
102
}
330
EF
100
AcDbVisualStyle
  2
FlatWithEdges
 70
     1
 71
     2
 72
     1
 73
     1
 90
        2
 40
-0.6
 41
30.0
 62
     5
 63
     7
 74
     1
 91
        4
 64
     7
 65
   257
 75
     1
175
     1
 42
1.0
 92
        0
 66
   257
 43
1.0
 76
     1
 77
     6
 78
     2
 67
     7
 79
     5
170
     0
171
     0
290
     0
174
     0
 93
        1
 44
0.0
173
     0
291
     1
 45
0.0
1001
ACAD
1000
AcDbSavedByObjectVersion
1070
     0
  0
VISUALSTYLE
  5
F2
102
{ACAD_REACTORS
330
EF
102
}
330
EF
100
AcDbVisualStyle
  2
Gouraud
 70
     2
 71
     2
 72
     2
 73
     1
 90
        2
 40
-0.6
 41
30.0
 62
     5
 63
     7
 74
     0
 91
        4
 64
     7
 65
   257
 75
     1
175
     1
 42
1.0
 92
        0
 66
     7
 43
1.0
 76
     1
 77
     6
 78
     2
 67
     7
 79
     5
170
     0
171
     0
290
     0
174
     0
 93
        1
 44
0.0
173
     0
291
     1
 45
0.0
1001
ACAD
1000
AcDbSavedByObjectVersion
1070
     0
  0
VISUALSTYLE
  5
F3
102
{ACAD_REACTORS
330
EF
102
}
330
EF
100
AcDbVisualStyle
  2
GouraudWithEdges
 70
     3
 71
     2
 72
     2
 73
     1
 90
        2
 40
-0.6
 41
30.0
 62
     5
 63
     7
 74
     1
 91
        4
 64
     7
 65
   257
 75
     1
175
     1
 42
1.0
 92
        0
 66
   257
 43
1.0
 76
     1
 77
     6
 78
     2
 67
     7
 79
     5
170
     0
171
     0
290
     0
174
     0
 93
        1
 44
0.0
173
     0
291
     1
 45
0.0
1001
ACAD
1000
AcDbSavedByObjectVersion
1070
     0
  0
VISUALSTYLE
  5
FD
102
{ACAD_REACTORS
330
EF
102
}
330
EF
100
AcDbVisualStyle
  2
Linepattern
 70
    14
 71
     2
 72
     2
 73
     1
 90
        0
 40
-0.6
 41
-30.0
 62
     5
 63
     7
 74
     1
 91
        4
 64
     7
 65
   257
 75
     7
175
     7
 42
1.0
 92
        8
 66
     7
 43
1.0
 76
     1
 77
     6
 78
     2
 67
     7
 79
     5
170
     0
171
     0
290
     0
174
     0
 93
        1
 44
0.0
173
     0
291
     1
 45
0.0
1001
ACAD
1000
AcDbSavedByObjectVersion
1070
     0
  0
VISUALSTYLE
  5
F9
102
{ACAD_REACTORS
330
EF
102
}
330
EF
100
AcDbVisualStyle
  2
Realistic
 70
     8
 71
     2
 72
     2
 73
     1
 90
        0
 40
-0.6
 41
-30.0
 62
     5
 63
     7
 74
     1
 91
        0
 64
     7
 65
   257
 75
     1
175
     1
 42
1.0
 92
        8
 66
     8
 43
1.0
 76
     1
 77
     6
 78
     2
 67
     7
 79
     5
170
     0
171
     0
290
     0
174
     0
 93
       13
 44
0.0
173
     0
291
     0
 45
0.0
1001
ACAD
1000
AcDbSavedByObjectVersion
1070
     0
  0
VISUALSTYLE
  5
FC
102
{ACAD_REACTORS
330
EF
102
}
330
EF
100
AcDbVisualStyle
  2
Thicken
 70
    13
 71
     2
 72
     2
 73
     1
 90
        0
 40
-0.6
 41
-30.0
 62
     5
 63
     7
 74
     1
 91
        4
 64
     7
 65
   257
 75
     1
175
     1
 42
1.0
 92
       12
 66
     7
 43
1.0
 76
     1
 77
     6
 78
     2
 67
     7
 79
     5
170
     0
171
     0
290
     0
174
     0
 93
        1
 44
0.0
173
     0
291
     1
 45
0.0
1001
ACAD
1000
AcDbSavedByObjectVersion
1070
     0
  0
DICTIONARYVAR
  5
146
102
{ACAD_REACTORS
330
5E
102
}
330
5E
100
DictionaryVariables
280
     0
  1
1:1
  0
DICTIONARYVAR
  5
145
102
{ACAD_REACTORS
330
5E
102
}
330
5E
100
DictionaryVariables
280
     0
  1
STANDARD
  0
DICTIONARYVAR
  5
84
102
{ACAD_REACTORS
330
5E
102
}
330
5E
100
DictionaryVariables
280
     0
  1
STANDARD
  0
DICTIONARYVAR
  5
5F
102
{ACAD_REACTORS
330
5E
102
}
330
5E
100
DictionaryVariables
280
     0
  1
2
  0
DICTIONARYVAR
  5
63
102
{ACAD_REACTORS
330
5E
102
}
330
5E
100
DictionaryVariables
280
     0
  1
1
  0
DICTIONARYVAR
  5
938
102
{ACAD_REACTORS
330
5E
102
}
330
5E
100
DictionaryVariables
280
     0
  1
0
  0
DICTIONARYVAR
  5
936
102
{ACAD_REACTORS
330
5E
102
}
330
5E
100
DictionaryVariables
280
     0
  1
2
  0
DICTIONARYVAR
  5
935
102
{ACAD_REACTORS
330
5E
102
}
330
5E
100
DictionaryVariables
280
     0
  1
1
  0
DICTIONARYVAR
  5
93A
102
{ACAD_REACTORS
330
5E
102
}
330
5E
100
DictionaryVariables
280
     0
  1
80.000000
  0
DICTIONARYVAR
  5
939
102
{ACAD_REACTORS
330
5E
102
}
330
5E
100
DictionaryVariables
280
     0
  1
5.000000
  0
DICTIONARYVAR
  5
937
102
{ACAD_REACTORS
330
5E
102
}
330
5E
100
DictionaryVariables
280
     0
  1
127
  0
DICTIONARY
  5
940
330
D3
100
AcDbDictionary
280
     1
281
     1
  3
ACAD_XREC_ROUNDTRIP
360
941
  0
DICTIONARY
  5
942
330
D7
100
AcDbDictionary
280
     1
281
     1
  3
ACAD_XREC_ROUNDTRIP
360
943
  0
DICTIONARY
  5
93D
330
22
100
AcDbDictionary
280
     1
281
     1
  3
ACAD_XREC_ROUNDTRIP
360
93E
  0
DICTIONARY
  5
946
330
ED
100
AcDbDictionary
280
     1
281
     1
  3
ACAD_XREC_ROUNDTRIP
360
947
  0
DICTIONARY
  5
944
330
EC
100
AcDbDictionary
280
     1
281
     1
  3
ACAD_XREC_ROUNDTRIP
360
945
  0
DICTIONARY
  5
173
330
EE
100
AcDbDictionary
280
     1
281
     1
  3
ACAD_XREC_ROUNDTRIP
360
948
  3
BUMPTILE
360
175
  3
DIFFUSETILE
360
174
  3
OPACITYTILE
360
176
  3
REFLECTIONTILE
360
177
  0
DICTIONARY
  5
162
330
7F
100
AcDbDictionary
280
     1
281
     1
  3
ACAD_ROUNDTRIP_2008_TABLESTYLE_CELLSTYLEMAP
360
93B
  3
ACAD_XREC_ROUNDTRIP
360
93F
  0
XRECORD
  5
941
102
{ACAD_REACTORS
330
940
102
}
330
940
100
AcDbXrecord
280
     1
102
SHADEPLOT
 70
     0
102
SHADEPLOTRESLEVEL
 70
     2
102
SHADEPLOTCUSTOMDPI
 70
   300
  0
XRECORD
  5
943
102
{ACAD_REACTORS
330
942
102
}
330
942
100
AcDbXrecord
280
     1
102
SHADEPLOT
 70
     0
102
SHADEPLOTRESLEVEL
 70
     2
102
SHADEPLOTCUSTOMDPI
 70
   300
  0
XRECORD
  5
93E
102
{ACAD_REACTORS
330
93D
102
}
330
93D
100
AcDbXrecord
280
     1
102
SHADEPLOT
 70
     0
102
SHADEPLOTRESLEVEL
 70
     2
102
SHADEPLOTCUSTOMDPI
 70
   300
  0
XRECORD
  5
947
102
{ACAD_REACTORS
330
946
102
}
330
946
100
AcDbXrecord
280
     1
102
MATERIAL
148
0.0
149
0.0
149
0.0
 93
        0
 94
       63
282
     0
 72
     1
 77
     1
171
     1
175
     1
179
     1
273
     0
  0
XRECORD
  5
945
102
{ACAD_REACTORS
330
944
102
}
330
944
100
AcDbXrecord
280
     1
102
MATERIAL
148
0.0
149
0.0
149
0.0
 93
        0
 94
       63
282
     0
 72
     1
 77
     1
171
     1
175
     1
179
     1
273
     0
  0
XRECORD
  5
948
102
{ACAD_REACTORS
330
173
102
}
330
173
100
AcDbXrecord
280
     1
102
MATERIAL
148
0.0
149
0.0
149
0.0
 93
        0
 94
       63
282
     0
 72
     1
 77
     1
171
     1
175
     1
179
     1
273
     0
  0
XRECORD
  5
175
102
{ACAD_REACTORS
330
173
102
}
330
173
100
AcDbXrecord
280
     1
270
     1
271
     1
  0
XRECORD
  5
174
102
{ACAD_REACTORS
330
173
102
}
330
173
100
AcDbXrecord
280
     1
270
     1
271
     1
  0
XRECORD
  5
176
102
{ACAD_REACTORS
330
173
102
}
330
173
100
AcDbXrecord
280
     1
270
     1
271
     1
  0
XRECORD
  5
177
102
{ACAD_REACTORS
330
173
102
}
330
173
100
AcDbXrecord
280
     1
270
     1
271
     1
  0
CELLSTYLEMAP
  5
93B
102
{ACAD_REACTORS
330
162
102
}
330
162
100
AcDbCellStyleMap
 90
        3
300
CELLSTYLE
  1
TABLEFORMAT_BEGIN
 90
        5
170
     1
 91
        0
 92
    32768
 62
   257
 93
        1
300
CONTENTFORMAT
  1
CONTENTFORMAT_BEGIN
 90
        0
 91
        0
 92
      512
 93
        0
300

 40
0.0
140
1.0
 94
        5
 62
     0
340
11
144
6.0
309
CONTENTFORMAT_END
171
     1
301
MARGIN
  1
CELLMARGIN_BEGIN
 40
1.5
 40
1.5
 40
1.5
 40
1.5
 40
4.5
 40
4.5
309
CELLMARGIN_END
 94
        6
 95
        1
302
GRIDFORMAT
  1
GRIDFORMAT_BEGIN
 90
        0
 91
        1
 62
     0
 92
       -2
340
14
 93
        0
 40
1.125
309
GRIDFORMAT_END
 95
        2
302
GRIDFORMAT
  1
GRIDFORMAT_BEGIN
 90
        0
 91
        1
 62
     0
 92
       -2
340
14
 93
        0
 40
1.125
309
GRIDFORMAT_END
 95
        4
302
GRIDFORMAT
  1
GRIDFORMAT_BEGIN
 90
        0
 91
        1
 62
     0
 92
       -2
340
14
 93
        0
 40
1.125
309
GRIDFORMAT_END
 95
        8
302
GRIDFORMAT
  1
GRIDFORMAT_BEGIN
 90
        0
 91
        1
 62
     0
 92
       -2
340
14
 93
        0
 40
1.125
309
GRIDFORMAT_END
 95
       16
302
GRIDFORMAT
  1
GRIDFORMAT_BEGIN
 90
        0
 91
        1
 62
     0
 92
       -2
340
14
 93
        0
 40
1.125
309
GRIDFORMAT_END
 95
       32
302
GRIDFORMAT
  1
GRIDFORMAT_BEGIN
 90
        0
 91
        1
 62
     0
 92
       -2
340
14
 93
        0
 40
1.125
309
GRIDFORMAT_END
309
TABLEFORMAT_END
  1
CELLSTYLE_BEGIN
 90
        1
 91
        1
300
_TITLE
309
CELLSTYLE_END
300
CELLSTYLE
  1
TABLEFORMAT_BEGIN
 90
        5
170
     1
 91
        0
 92
        0
 62
   257
 93
        1
300
CONTENTFORMAT
  1
CONTENTFORMAT_BEGIN
 90
        0
 91
        0
 92
      512
 93
        0
300

 40
0.0
140
1.0
 94
        5
 62
     0
340
11
144
4.5
309
CONTENTFORMAT_END
171
     1
301
MARGIN
  1
CELLMARGIN_BEGIN
 40
1.5
 40
1.5
 40
1.5
 40
1.5
 40
4.5
 40
4.5
309
CELLMARGIN_END
 94
        6
 95
        1
302
GRIDFORMAT
  1
GRIDFORMAT_BEGIN
 90
        0
 91
        1
 62
     0
 92
       -2
340
14
 93
        0
 40
1.125
309
GRIDFORMAT_END
 95
        2
302
GRIDFORMAT
  1
GRIDFORMAT_BEGIN
 90
        0
 91
        1
 62
     0
 92
       -2
340
14
 93
        0
 40
1.125
309
GRIDFORMAT_END
 95
        4
302
GRIDFORMAT
  1
GRIDFORMAT_BEGIN
 90
        0
 91
        1
 62
     0
 92
       -2
340
14
 93
        0
 40
1.125
309
GRIDFORMAT_END
 95
        8
302
GRIDFORMAT
  1
GRIDFORMAT_BEGIN
 90
        0
 91
        1
 62
     0
 92
       -2
340
14
 93
        0
 40
1.125
309
GRIDFORMAT_END
 95
       16
302
GRIDFORMAT
  1
GRIDFORMAT_BEGIN
 90
        0
 91
        1
 62
     0
 92
       -2
340
14
 93
        0
 40
1.125
309
GRIDFORMAT_END
 95
       32
302
GRIDFORMAT
  1
GRIDFORMAT_BEGIN
 90
        0
 91
        1
 62
     0
 92
       -2
340
14
 93
        0
 40
1.125
309
GRIDFORMAT_END
309
TABLEFORMAT_END
  1
CELLSTYLE_BEGIN
 90
        2
 91
        1
300
_HEADER
309
CELLSTYLE_END
300
CELLSTYLE
  1
TABLEFORMAT_BEGIN
 90
        5
170
     1
 91
        0
 92
        0
 62
   257
 93
        1
300
CONTENTFORMAT
  1
CONTENTFORMAT_BEGIN
 90
        0
 91
        0
 92
      512
 93
        0
300

 40
0.0
140
1.0
 94
        2
 62
     0
340
11
144
4.5
309
CONTENTFORMAT_END
171
     1
301
MARGIN
  1
CELLMARGIN_BEGIN
 40
1.5
 40
1.5
 40
1.5
 40
1.5
 40
4.5
 40
4.5
309
CELLMARGIN_END
 94
        6
 95
        1
302
GRIDFORMAT
  1
GRIDFORMAT_BEGIN
 90
        0
 91
        1
 62
     0
 92
       -2
340
14
 93
        0
 40
1.125
309
GRIDFORMAT_END
 95
        2
302
GRIDFORMAT
  1
GRIDFORMAT_BEGIN
 90
        0
 91
        1
 62
     0
 92
       -2
340
14
 93
        0
 40
1.125
309
GRIDFORMAT_END
 95
        4
302
GRIDFORMAT
  1
GRIDFORMAT_BEGIN
 90
        0
 91
        1
 62
     0
 92
       -2
340
14
 93
        0
 40
1.125
309
GRIDFORMAT_END
 95
        8
302
GRIDFORMAT
  1
GRIDFORMAT_BEGIN
 90
        0
 91
        1
 62
     0
 92
       -2
340
14
 93
        0
 40
1.125
309
GRIDFORMAT_END
 95
       16
302
GRIDFORMAT
  1
GRIDFORMAT_BEGIN
 90
        0
 91
        1
 62
     0
 92
       -2
340
14
 93
        0
 40
1.125
309
GRIDFORMAT_END
 95
       32
302
GRIDFORMAT
  1
GRIDFORMAT_BEGIN
 90
        0
 91
        1
 62
     0
 92
       -2
340
14
 93
        0
 40
1.125
309
GRIDFORMAT_END
309
TABLEFORMAT_END
  1
CELLSTYLE_BEGIN
 90
        3
 91
        2
300
_DATA
309
CELLSTYLE_END
  0
XRECORD
  5
93F
102
{ACAD_REACTORS
330
162
102
}
330
162
100
AcDbXrecord
280
     1
102
ACAD_ROUNDTRIP_PRE2007_TABLESTYLE
 90
      512
 91
        0
  1

 92
      512
 93
        0
  2

 94
      512
 95
        0
  3

  0
ENDSEC
  0
EOF
